  0
SECTION
  2
HEADER
  9
$ACADVER
  1
AC1015
  9
$ACADMAINTVER
 70
    20
  9
$DWGCODEPAGE
  3
ANSI_932
  9
$INSBASE
 10
0.0
 20
0.0
 30
0.0
  9
$EXTMIN
 10
-34.68573797705096
 20
-127.2073438469174
 30
-0.0015258207003583
  9
$EXTMAX
 10
193.6180594564032
 20
32.01022816035936
 30
0.0000000349246037
  9
$LIMMIN
 10
-220.4898071025977
 20
-75.30140621769465
  9
$LIMMAX
 10
61.36227300824838
 20
125.1882239526905
  9
$ORTHOMODE
 70
     0
  9
$REGENMODE
 70
     1
  9
$FILLMODE
 70
     1
  9
$QTEXTMODE
 70
     0
  9
$MIRRTEXT
 70
     1
  9
$LTSCALE
 40
0.5
  9
$ATTMODE
 70
     1
  9
$TEXTSIZE
 40
2.5
  9
$TRACEWID
 40
1.0
  9
$TEXTSTYLE
  7
STANDARD
  9
$CLAYER
  8
AM_5
  9
$CELTYPE
  6
BYLAYER
  9
$CECOLOR
 62
   256
  9
$CELTSCALE
 40
1.0
  9
$DISPSILH
 70
     0
  9
$DIMSCALE
 40
1.0
  9
$DIMASZ
 40
2.5
  9
$DIMEXO
 40
0.0
  9
$DIMDLI
 40
10.0
  9
$DIMRND
 40
0.0
  9
$DIMDLE
 40
0.0
  9
$DIMEXE
 40
1.0
  9
$DIMTP
 40
0.1
  9
$DIMTM
 40
0.1000000001
  9
$DIMTXT
 40
3.799999999999998
  9
$DIMCEN
 40
0.0
  9
$DIMTSZ
 40
0.0
  9
$DIMTOL
 70
     0
  9
$DIMLIM
 70
     0
  9
$DIMTIH
 70
     0
  9
$DIMTOH
 70
     0
  9
$DIMSE1
 70
     0
  9
$DIMSE2
 70
     0
  9
$DIMTAD
 70
     3
  9
$DIMZIN
 70
     9
  9
$DIMBLK
  1
OPEN30
  9
$DIMASO
 70
     1
  9
$DIMSHO
 70
     1
  9
$DIMPOST
  1

  9
$DIMAPOST
  1
"
  9
$DIMALT
 70
     0
  9
$DIMALTD
 70
     2
  9
$DIMALTF
 40
0.0393701
  9
$DIMLFAC
 40
1.0
  9
$DIMTOFL
 70
     1
  9
$DIMTVP
 40
0.0
  9
$DIMTIX
 70
     0
  9
$DIMSOXD
 70
     0
  9
$DIMSAH
 70
     0
  9
$DIMBLK1
  1

  9
$DIMBLK2
  1

  9
$DIMSTYLE
  2
AM_JIS
  9
$DIMCLRD
 70
   256
  9
$DIMCLRE
 70
   256
  9
$DIMCLRT
 70
     2
  9
$DIMTFAC
 40
0.71
  9
$DIMGAP
 40
1.5
  9
$DIMJUST
 70
     0
  9
$DIMSD1
 70
     0
  9
$DIMSD2
 70
     0
  9
$DIMTOLJ
 70
     0
  9
$DIMTZIN
 70
     8
  9
$DIMALTZ
 70
     0
  9
$DIMALTTZ
 70
     0
  9
$DIMUPT
 70
     0
  9
$DIMDEC
 70
     2
  9
$DIMTDEC
 70
     2
  9
$DIMALTU
 70
     2
  9
$DIMALTTD
 70
     2
  9
$DIMTXSTY
  7
STANDARD
  9
$DIMAUNIT
 70
     1
  9
$DIMADEC
 70
     1
  9
$DIMALTRND
 40
0.0
  9
$DIMAZIN
 70
     2
  9
$DIMDSEP
 70
    46
  9
$DIMATFIT
 70
     3
  9
$DIMFRAC
 70
     0
  9
$DIMLDRBLK
  1
OPEN30
  9
$DIMLUNIT
 70
     2
  9
$DIMLWD
 70
    -1
  9
$DIMLWE
 70
    -1
  9
$DIMTMOVE
 70
     0
  9
$LUNITS
 70
     2
  9
$LUPREC
 70
     2
  9
$SKETCHINC
 40
1.0
  9
$FILLETRAD
 40
0.25
  9
$AUNITS
 70
     1
  9
$AUPREC
 70
     5
  9
$MENU
  1
.
  9
$ELEVATION
 40
0.0
  9
$PELEVATION
 40
0.0
  9
$THICKNESS
 40
0.0
  9
$LIMCHECK
 70
     0
  9
$CHAMFERA
 40
0.0
  9
$CHAMFERB
 40
0.0
  9
$CHAMFERC
 40
20.0
  9
$CHAMFERD
 40
0.0
  9
$SKPOLY
 70
     0
  9
$TDCREATE
 40
2451943.610431666
  9
$TDUCREATE
 40
2451943.235431667
  9
$TDUPDATE
 40
2455602.326902315
  9
$TDUUPDATE
 40
2455601.951902315
  9
$TDINDWG
 40
1.4036007639
  9
$TDUSRTIMER
 40
1.4036004167
  9
$USRTIMER
 70
     1
  9
$ANGBASE
 50
0.0
  9
$ANGDIR
 70
     0
  9
$PDMODE
 70
     0
  9
$PDSIZE
 40
0.0
  9
$PLINEWID
 40
0.0
  9
$SPLFRAME
 70
     0
  9
$SPLINETYPE
 70
     6
  9
$SPLINESEGS
 70
     8
  9
$HANDSEED
  5
B77D
  9
$SURFTAB1
 70
     6
  9
$SURFTAB2
 70
     6
  9
$SURFTYPE
 70
     6
  9
$SURFU
 70
     6
  9
$SURFV
 70
     6
  9
$UCSBASE
  2

  9
$UCSNAME
  2

  9
$UCSORG
 10
0.0
 20
0.0
 30
0.0
  9
$UCSXDIR
 10
1.0
 20
0.0
 30
0.0
  9
$UCSYDIR
 10
0.0
 20
1.0
 30
0.0
  9
$UCSORTHOREF
  2

  9
$UCSORTHOVIEW
 70
     0
  9
$UCSORGTOP
 10
0.0
 20
0.0
 30
0.0
  9
$UCSORGBOTTOM
 10
0.0
 20
0.0
 30
0.0
  9
$UCSORGLEFT
 10
0.0
 20
0.0
 30
0.0
  9
$UCSORGRIGHT
 10
0.0
 20
0.0
 30
0.0
  9
$UCSORGFRONT
 10
0.0
 20
0.0
 30
0.0
  9
$UCSORGBACK
 10
0.0
 20
0.0
 30
0.0
  9
$PUCSBASE
  2

  9
$PUCSNAME
  2

  9
$PUCSORG
 10
0.0
 20
0.0
 30
0.0
  9
$PUCSXDIR
 10
1.0
 20
0.0
 30
0.0
  9
$PUCSYDIR
 10
0.0
 20
1.0
 30
0.0
  9
$PUCSORTHOREF
  2

  9
$PUCSORTHOVIEW
 70
     0
  9
$PUCSORGTOP
 10
0.0
 20
0.0
 30
0.0
  9
$PUCSORGBOTTOM
 10
0.0
 20
0.0
 30
0.0
  9
$PUCSORGLEFT
 10
0.0
 20
0.0
 30
0.0
  9
$PUCSORGRIGHT
 10
0.0
 20
0.0
 30
0.0
  9
$PUCSORGFRONT
 10
0.0
 20
0.0
 30
0.0
  9
$PUCSORGBACK
 10
0.0
 20
0.0
 30
0.0
  9
$USERI1
 70
     0
  9
$USERI2
 70
     0
  9
$USERI3
 70
     0
  9
$USERI4
 70
     0
  9
$USERI5
 70
     0
  9
$USERR1
 40
0.0
  9
$USERR2
 40
0.0
  9
$USERR3
 40
0.0
  9
$USERR4
 40
0.0
  9
$USERR5
 40
0.0
  9
$WORLDVIEW
 70
     1
  9
$SHADEDGE
 70
     3
  9
$SHADEDIF
 70
    70
  9
$TILEMODE
 70
     1
  9
$MAXACTVP
 70
    64
  9
$PINSBASE
 10
0.0
 20
0.0
 30
0.0
  9
$PLIMCHECK
 70
     0
  9
$PEXTMIN
 10
1.000000000000000E+20
 20
1.000000000000000E+20
 30
1.000000000000000E+20
  9
$PEXTMAX
 10
-1.000000000000000E+20
 20
-1.000000000000000E+20
 30
-1.000000000000000E+20
  9
$PLIMMIN
 10
0.0
 20
0.0
  9
$PLIMMAX
 10
420.0
 20
297.0
  9
$UNITMODE
 70
     0
  9
$VISRETAIN
 70
     1
  9
$PLINEGEN
 70
     0
  9
$PSLTSCALE
 70
     1
  9
$TREEDEPTH
 70
  3020
  9
$CMLSTYLE
  2
STANDARD
  9
$CMLJUST
 70
     0
  9
$CMLSCALE
 40
20.0
  9
$PROXYGRAPHICS
 70
     1
  9
$MEASUREMENT
 70
     1
  9
$CELWEIGHT
370
    -1
  9
$ENDCAPS
280
     0
  9
$JOINSTYLE
280
     0
  9
$LWDISPLAY
290
     0
  9
$INSUNITS
 70
     4
  9
$HYPERLINKBASE
  1

  9
$STYLESHEET
  1
sei_cad.ctb
  9
$XEDIT
290
     1
  9
$CEPSNTYPE
380
     0
  9
$PSTYLEMODE
290
     1
  9
$FINGERPRINTGUID
  2
{C77AB3BE-9CA2-11D3-BAF3-006094EB760E}
  9
$VERSIONGUID
  2
{620A9568-22A4-408F-9F89-85FED32DF14C}
  9
$EXTNAMES
290
     1
  9
$PSVPSCALE
 40
0.0
  9
$OLESTARTUP
290
     0
  0
ENDSEC
  0
SECTION
  2
CLASSES
  0
CLASS
  1
ACDBDICTIONARYWDFLT
  2
AcDbDictionaryWithDefault
  3
ObjectDBX Classes
 90
        0
280
     0
281
     0
  0
CLASS
  1
ACDBPLACEHOLDER
  2
AcDbPlaceHolder
  3
ObjectDBX Classes
 90
        0
280
     0
281
     0
  0
CLASS
  1
LAYOUT
  2
AcDbLayout
  3
ObjectDBX Classes
 90
        0
280
     0
281
     0
  0
CLASS
  1
ACME_DOCUMENT
  2
AcMeDbDoc
  3
AcMeServices
 90
        0
280
     0
281
     0
  0
CLASS
  1
ACMESCOPE
  2
AcMeScope
  3
AcMeServices
 90
        0
280
     0
281
     0
  0
CLASS
  1
ACMECOMMANDHISTORY
  2
AcMeCommandHistory
  3
AcMeServices
 90
        0
280
     0
281
     0
  0
CLASS
  1
DICTIONARYVAR
  2
AcDbDictionaryVar
  3
ObjectDBX Classes
 90
        0
280
     0
281
     0
  0
CLASS
  1
ACIMSYSVARMAN
  2
AcImSysVarManager
  3
AcMeServices
 90
        0
280
     0
281
     0
  0
CLASS
  1
ACIMREALSYSVAR
  2
AcImRealSysVar
  3
AcMeServices
 90
        0
280
     0
281
     0
  0
CLASS
  1
ACIMINTSYSVAR
  2
AcImIntSysVar
  3
AcMeServices
 90
        0
280
     0
281
     0
  0
CLASS
  1
ACMEDRAWINGMAN
  2
AcMeDrawingMan
  3
AcMeServices
 90
        0
280
     0
281
     0
  0
CLASS
  1
ACMEVIEW
  2
AcMeView
  3
AcMeServices
 90
        0
280
     0
281
     0
  0
CLASS
  1
ACDBENTITYCACHE
  2
AcMeEntityCache
  3
AcMeServices
 90
        0
280
     0
281
     0
  0
CLASS
  1
GSMANAGER
  2
AcMeGSManager
  3
AcMeServices
 90
        0
280
     0
281
     0
  0
CLASS
  1
AMDTINTERNALREACTOR
  2
AmdtInternalReactor
  3
AcMeServices
 90
        0
280
     0
281
     0
  0
CLASS
  1
ACMESTATEMGR
  2
AcMeStateMgr
  3
AcMeServices
 90
        0
280
     0
281
     0
  0
CLASS
  1
ACME_DATABASE
  2
AcMeDbDatabase
  3
AcMeServices
 90
        0
280
     0
281
     0
  0
CLASS
  1
ACRFINSADJUSTERMGR
  2
AcRfInsAdjusterMgr
  3
AcMeServices
 90
        0
280
     0
281
     0
  0
CLASS
  1
AMGSETTINGSOBJ
  2
AmgSettingsObj
  3
"AcadM|Product Description: AutoCAD Mechanical 2000|Company: Autodesk"
 90
        0
280
     0
281
     0
  0
CLASS
  1
AMGOBJPROPCFG
  2
AmgObjPropCfg
  3
"AmgLay|Product Description: AutoCAD Mechanical 2000|Company: Autodesk"
 90
        1
280
     0
281
     0
  0
CLASS
  1
ACMDATADICTIONARY
  2
AcmDataDictionary
  3
"AcmSymBB|Product Description: AutoCAD Mechanical 2004 DX|Company: Autodesk"
 90
        0
280
     0
281
     0
  0
CLASS
  1
ACMDATAENTRYBLOCK
  2
AcmDataEntryBlock
  3
"AcmSymBB|Product Description: AutoCAD Mechanical 2004 DX|Company: Autodesk"
 90
    32768
280
     0
281
     0
  0
CLASS
  1
ACIMSTRSYSVAR
  2
AcImStrSysVar
  3
AcMeServices
 90
        0
280
     0
281
     0
  0
CLASS
  1
ACAMGFILTERDAT
  2
AcAmgFilterDat
  3
"AcadM|Product Description: AutoCAD Mechanical 2000|Company: Autodesk"
 90
    32768
280
     0
281
     0
  0
CLASS
  1
LAYER_INDEX
  2
AcDbLayerIndex
  3
ObjectDBX Classes
 90
        0
280
     0
281
     0
  0
CLASS
  1
IDBUFFER
  2
AcDbIdBuffer
  3
ObjectDBX Classes
 90
        0
280
     0
281
     0
  0
CLASS
  1
ACMSTANDARDJIS
  2
AcmStandardJIS
  3
"Amdt_StdImp|Product Description: AutoCAD Mechanical 2004 DX|Company: Autodesk"
 90
    32768
280
     0
281
     0
  0
CLASS
  1
ACMSURFSTANDARDJIS
  2
AcmSurfTextStdJIS
  3
"Amdt_StdImp|Product Description: AutoCAD Mechanical 2004 DX|Company: Autodesk"
 90
    32768
280
     0
281
     0
  0
CLASS
  1
ACMFCFSTANDARDJIS
  2
AcmFCFStdJIS
  3
"Amdt_StdImp|Product Description: AutoCAD Mechanical 2004 DX|Company: Autodesk"
 90
    32768
280
     0
281
     0
  0
CLASS
  1
ACMWELDSTANDARDJIS
  2
AcmWeldingStdJIS
  3
"Amdt_StdImp|Product Description: AutoCAD Mechanical 2004 DX|Company: Autodesk"
 90
    32768
280
     0
281
     0
  0
CLASS
  1
ACMIDSTANDARDJIS
  2
AcmIdStdJIS
  3
"Amdt_StdImp|Product Description: AutoCAD Mechanical 2004 DX|Company: Autodesk"
 90
    32768
280
     0
281
     0
  0
CLASS
  1
ACMDATUMSTANDARDJIS
  2
AcmDatumStdJIS
  3
"Amdt_StdImp|Product Description: AutoCAD Mechanical 2004 DX|Company: Autodesk"
 90
    32768
280
     0
281
     0
  0
CLASS
  1
ACMBOMSTANDARDJIS
  2
AcmBOMStdJIS
  3
"Amdt_StdImp|Product Description: AutoCAD Mechanical 2004 DX|Company: Autodesk"
 90
    32768
280
     0
281
     0
  0
CLASS
  1
AMDTNOTE
  2
AmdtNote
  3
"AcmSymBB|Product Description: AutoCAD Mechanical 2004 DX|Company: Autodesk"
 90
    33791
280
     0
281
     1
  0
CLASS
  1
ACMDATAENTRYPART
  2
AcmDataEntryPart
  3
"AcmSymBB|Product Description: AutoCAD Mechanical 2004 DX|Company: Autodesk"
 90
    32768
280
     0
281
     0
  0
CLASS
  1
ACMPARTREF
  2
AcmPartRef
  3
"AcmSymBB|Product Description: AutoCAD Mechanical 2004 DX|Company: Autodesk"
 90
    33791
280
     0
281
     1
  0
CLASS
  1
ACDB_PROXY_ENTITY_DATA
  2
AcDbProxyEntityData
  3
ObjectDBX Classes
 90
    32768
280
     0
281
     0
  0
CLASS
  1
TABLESTYLE
  2
AcDbTableStyle
  3
ObjectDBX Classes
 90
     2047
280
     0
281
     0
  0
CLASS
  1
ACGREFMASTER
  2
AcGrefMaster
  3
AcAttribServices
 90
        0
280
     0
281
     0
  0
CLASS
  1
AM_DRAWING_MGR
  2
AcDmDwgMgr
  3
AcMechDwgViewMgmt
 90
        0
280
     0
281
     0
  0
CLASS
  1
AM_DWG_DOCUMENT
  2
AcDmDwgDocument
  3
AcMechDwgViewMgmt
 90
        0
280
     0
281
     0
  0
CLASS
  1
AM_DWG_SHEET
  2
AcDmSheet
  3
AcMechDwgViewMgmt
 90
        0
280
     0
281
     0
  0
CLASS
  1
AM_VIEWDIMPARMAP
  2
AcDmViewDimParMap
  3
AcMechDwgViewMgmt
 90
        0
280
     0
281
     0
  0
CLASS
  1
AM_DWGMGR_NAME
  2
AcDmDwgMgrName
  3
AcMechDwgViewMgmt
 90
        0
280
     0
281
     0
  0
CLASS
  1
ACGREFACADMASTER
  2
AcGrefacadMaster
  3
AcGrefServices
 90
        0
280
     0
281
     0
  0
CLASS
  1
AMDTMENUSTATEMGR
  2
AmdtMenuStateMgr
  3
McadcomServices
 90
        0
280
     0
281
     0
  0
CLASS
  1
AMDTMCOMMENUSTATE
  2
AmdtMcomMenuState
  3
McadcomServices
 90
        0
280
     0
281
     0
  0
CLASS
  1
AMIMASTER
  2
AmiMaster
  3
AmiServices
 90
        0
280
     0
281
     0
  0
CLASS
  1
MAPIAMMOUDLE
  2
MApiAmModule
  3
MApiAmServices
 90
        0
280
     0
281
     0
  0
CLASS
  1
AMDTADMENUSTATE
  2
AmdtAdMenuState
  3
DesignerServices
 90
        0
280
     0
281
     0
  0
CLASS
  1
ADAPPL
  2
AcAdAppl
  3
DesignerServices
 90
        0
280
     0
281
     0
  0
CLASS
  1
DEPMGR
  2
AcAdDepMgr
  3
DesignerServices
 90
        0
280
     0
281
     0
  0
CLASS
  1
PARAMMGR
  2
AcAdParamMgr
  3
DesignerServices
 90
        0
280
     0
281
     0
  0
CLASS
  1
PARAMSCOPE
  2
AcAdParamScope
  3
DesignerServices
 90
        0
280
     0
281
     0
  0
CLASS
  1
NAMEDAPPL
  2
AcAdNamedAppl
  3
DesignerServices
 90
        0
280
     0
281
     0
  0
CLASS
  1
AMDTDMMENUSTATE
  2
AmdtDmMenuState
  3
AcMechDwgViewMgmt
 90
        0
280
     0
281
     0
  0
CLASS
  1
AMDTAMMENUSTATE
  2
AmdtAmMenuState
  3
DesignerAssemblies
 90
        0
280
     0
281
     0
  0
CLASS
  1
ACAMPROJECT
  2
AcAmProject
  3
DesignerAssemblies
 90
        0
280
     0
281
     0
  0
CLASS
  1
ACAMGRCOMPDEF
  2
AcAmGrCompDef
  3
DesignerAssemblies
 90
        0
280
     0
281
     0
  0
CLASS
  1
ACCMCONTEXT
  2
AcCmContext
  3
DesignerAssemblies
 90
        0
280
     0
281
     0
  0
CLASS
  1
ACAMCOMPDEF
  2
AcAmCompDef
  3
DesignerAssemblies
 90
        0
280
     0
281
     0
  0
CLASS
  1
ACAMCOMPDEFMGR
  2
AcAmCompDefMgr
  3
DesignerAssemblies
 90
        0
280
     0
281
     0
  0
CLASS
  1
AMCONTEXTMGR
  2
AcAmContextMgr
  3
DesignerAssemblies
 90
        0
280
     0
281
     0
  0
CLASS
  1
ACAMCONTEXTMODELER
  2
AcAmContextModeler
  3
DesignerAssemblies
 90
        0
280
     0
281
     0
  0
CLASS
  1
CATALOGSTATE
  2
AcAmCatalogState
  3
DesignerAssemblies
 90
        0
280
     0
281
     0
  0
CLASS
  1
ACAMGRCOMPDEFSET
  2
AcAmGrCompDefSet
  3
DesignerAssemblies
 90
        0
280
     0
281
     0
  0
CLASS
  1
AMDTBROWSERDBTAB
  2
AmdtBrowserDbTab
  3
McadcomServices
 90
        0
280
     0
281
     0
  0
CLASS
  1
CBROWSERAPPOBJECT
  2
CBrowserAppObject
  3
McadcomServices
 90
        0
280
     0
281
     0
  0
CLASS
  1
DM_PLACEHOLDER
  2
AcDmSelsetPlaceholder
  3
AcMechDwgViewMgmt
 90
        0
280
     0
281
     0
  0
ENDSEC
  0
SECTION
  2
TABLES
  0
TABLE
  2
VPORT
  5
8
330
0
100
AcDbSymbolTable
 70
     4
  0
VPORT
  5
B776
330
8
100
AcDbSymbolTableRecord
100
AcDbViewportTableRecord
  2
*Active
 70
     0
 10
0.0
 20
0.0
 11
1.0
 21
1.0
 12
79.46616073967611
 22
-47.59855784327903
 13
0.0
 23
0.0
 14
2.5
 24
2.5
 15
10.0
 25
10.0
 16
0.0
 26
0.0
 36
1.0
 17
0.0
 27
0.0
 37
0.0
 40
160.3548403787573
 41
2.176400476758045
 42
50.0
 43
0.0
 44
0.0
 50
0.0
 51
0.0
 71
     0
 72
  2000
 73
     1
 74
     3
 75
     0
 76
     0
 77
     0
 78
     0
281
     0
 65
     0
110
0.0
120
0.0
130
0.0
111
1.0
121
0.0
131
0.0
112
0.0
122
1.0
132
0.0
 79
     0
146
0.0
  0
ENDTAB
  0
TABLE
  2
LTYPE
  5
5
330
0
100
AcDbSymbolTable
 70
    14
  0
LTYPE
  5
14
330
5
100
AcDbSymbolTableRecord
100
AcDbLinetypeTableRecord
  2
BYBLOCK
 70
     0
  3

 72
    65
 73
     0
 40
0.0
  0
LTYPE
  5
15
330
5
100
AcDbSymbolTableRecord
100
AcDbLinetypeTableRecord
  2
BYLAYER
 70
     0
  3

 72
    65
 73
     0
 40
0.0
  0
LTYPE
  5
16
330
5
100
AcDbSymbolTableRecord
100
AcDbLinetypeTableRecord
  2
CONTINUOUS
 70
     0
  3
Solid line
 72
    65
 73
     0
 40
0.0
  0
LTYPE
  5
43
330
5
100
AcDbSymbolTableRecord
100
AcDbLinetypeTableRecord
  2
AM_ISO02W050
 70
     0
  3
__ __ __ __ __ __ __ __ __ __ __ __ __ __ __
 72
    65
 73
     2
 40
7.5
 49
6.0
 74
     0
 49
-1.5
 74
     0
  0
LTYPE
  5
44
330
5
100
AcDbSymbolTableRecord
100
AcDbLinetypeTableRecord
  2
AM_ISO08W050
 70
     0
  3
____ . ____ . ____ . ____ . ____ . ____ . ____
 72
    65
 73
     4
 40
18.0
 49
12.0
 74
     0
 49
-1.5
 74
     0
 49
3.0
 74
     0
 49
-1.5
 74
     0
  0
LTYPE
  5
45
330
5
100
AcDbSymbolTableRecord
100
AcDbLinetypeTableRecord
  2
AM_ISO09W050
 70
     0
  3
_____ . . _____ . . _____ . . ____ .. ____
 72
    65
 73
     6
 40
22.5
 49
12.0
 74
     0
 49
-1.5
 74
     0
 49
3.0
 74
     0
 49
-1.5
 74
     0
 49
3.0
 74
     0
 49
-1.5
 74
     0
  0
LTYPE
  5
46
330
5
100
AcDbSymbolTableRecord
100
AcDbLinetypeTableRecord
  2
AMCONSTR
 70
     0
  3
_______________________
 72
    65
 73
     2
 40
9999.0
 49
9999.0
 74
     0
 49
0.0
 74
     0
  0
LTYPE
  5
47
330
5
100
AcDbSymbolTableRecord
100
AcDbLinetypeTableRecord
  2
AM_ISO02W050X2
 70
     0
  3
 _ _ _ _ _ _ _ _ _ _ _ _
 72
    65
 73
     2
 40
3.75
 49
3.0
 74
     0
 49
-0.75
 74
     0
  0
LTYPE
  5
48
330
5
100
AcDbSymbolTableRecord
100
AcDbLinetypeTableRecord
  2
AM_ISO08W050X2
 70
     0
  3
__ . __ . __ . __ . __ . __
 72
    65
 73
     4
 40
9.0
 49
6.0
 74
     0
 49
-0.75
 74
     0
 49
1.5
 74
     0
 49
-0.75
 74
     0
  0
LTYPE
  5
4B
330
5
100
AcDbSymbolTableRecord
100
AcDbLinetypeTableRecord
  2
AMZIGZAG
 70
     0
  3
/\/-/\/-/\/-/\/-/\/-/\/
 72
    65
 73
     2
 40
11.00009999999999
 49
0.0001
 74
     4
 75
   135
340
4A
 46
0.04
 50
0.0
 44
0.0
 45
0.0
 49
-11.0
 74
     0
  0
LTYPE
  5
B70B
330
5
100
AcDbSymbolTableRecord
100
AcDbLinetypeTableRecord
  2
HIDDEN
 70
     0
  3
Hidden __ __ __ __ __ __ __ __ __ __ __ __ __ _
 72
    65
 73
     2
 40
9.524999999999998
 49
6.349999999999999
 74
     0
 49
-3.174999999999999
 74
     0
  0
LTYPE
  5
B70C
330
5
100
AcDbSymbolTableRecord
100
AcDbLinetypeTableRecord
  2
PHANTOM2
 70
     0
  3
Phantom (.5x) ___ _ _ ___ _ _ ___ _ _ ___ _ _
 72
    65
 73
     6
 40
31.75
 49
15.875
 74
     0
 49
-3.174999999999999
 74
     0
 49
3.174999999999999
 74
     0
 49
-3.174999999999999
 74
     0
 49
3.174999999999999
 74
     0
 49
-3.174999999999999
 74
     0
  0
LTYPE
  5
B70D
330
5
100
AcDbSymbolTableRecord
100
AcDbLinetypeTableRecord
  2
CENTER
 70
     0
  3
Center ____ _ ____ _ ____ _ ____ _ ____ _ ____
 72
    65
 73
     4
 40
50.8
 49
31.75
 74
     0
 49
-6.349999999999999
 74
     0
 49
6.349999999999999
 74
     0
 49
-6.349999999999999
 74
     0
  0
ENDTAB
  0
TABLE
  2
LAYER
  5
2
330
0
100
AcDbSymbolTable
 70
    13
  0
LAYER
  5
10
330
2
100
AcDbSymbolTableRecord
100
AcDbLayerTableRecord
  2
0
 70
     0
 62
     7
  6
CONTINUOUS
370
    -3
390
F
  0
LAYER
  5
7D
330
2
100
AcDbSymbolTableRecord
100
AcDbLayerTableRecord
  2
AM_5
 70
     0
 62
     3
  6
CONTINUOUS
370
    -3
390
F
  0
LAYER
  5
7F
330
2
100
AcDbSymbolTableRecord
100
AcDbLayerTableRecord
  2
DEFPOINTS
 70
     0
 62
     7
  6
CONTINUOUS
290
     0
370
    -3
390
F
  0
LAYER
  5
12B1
330
2
100
AcDbSymbolTableRecord
100
AcDbLayerTableRecord
  2
AM_0
 70
     0
 62
     7
  6
CONTINUOUS
370
    -3
390
F
  0
LAYER
  5
2222
330
2
100
AcDbSymbolTableRecord
100
AcDbLayerTableRecord
  2
AM_6
 70
     0
 62
     2
  6
CONTINUOUS
370
    -3
390
F
  0
LAYER
  5
7DB2
330
2
100
AcDbSymbolTableRecord
100
AcDbLayerTableRecord
  2
AM_7
 70
     0
 62
     4
  6
AM_ISO08W050
370
    -3
390
F
  0
ENDTAB
  0
TABLE
  2
STYLE
  5
3
330
0
100
AcDbSymbolTable
 70
     4
  0
STYLE
  5
11
330
3
100
AcDbSymbolTableRecord
100
AcDbTextStyleTableRecord
  2
STANDARD
 70
     0
 40
0.0
 41
1.0
 50
0.0
 71
     0
 42
2.5
  3
ISOCP.SHX
  4
EXTFONT.SHX
  0
STYLE
  5
4A
330
3
100
AcDbSymbolTableRecord
100
AcDbTextStyleTableRecord
  2

 70
     1
 40
0.0
 41
1.0
 50
0.0
 71
     0
 42
2.5
  3
ltypeshp.shx
  4

  0
ENDTAB
  0
TABLE
  2
VIEW
  5
6
330
0
100
AcDbSymbolTable
 70
     6
  0
VIEW
  5
A30
330
6
100
AcDbSymbolTableRecord
100
AcDbViewTableRecord
  2
AM_VIEW1
 70
     0
 40
148.5
 10
112.0719649561952
 20
222.75
 41
224.1439299123904
 11
0.0
 21
0.0
 31
1.0
 12
0.0
 22
0.0
 32
0.0
 42
50.0
 43
0.0
 44
0.0
 50
0.0
 71
     0
281
     0
 72
     0
  0
VIEW
  5
A31
330
6
100
AcDbSymbolTableRecord
100
AcDbViewTableRecord
  2
AM_VIEW2
 70
     0
 40
148.5
 10
307.9280350438047
 20
222.75
 41
224.1439299123904
 11
0.0
 21
0.0
 31
1.0
 12
0.0
 22
0.0
 32
0.0
 42
50.0
 43
0.0
 44
0.0
 50
0.0
 71
     0
281
     0
 72
     0
  0
VIEW
  5
A32
330
6
100
AcDbSymbolTableRecord
100
AcDbViewTableRecord
  2
AM_VIEW3
 70
     0
 40
148.5
 10
112.0719649561952
 20
74.25
 41
224.1439299123904
 11
0.0
 21
0.0
 31
1.0
 12
0.0
 22
0.0
 32
0.0
 42
50.0
 43
0.0
 44
0.0
 50
0.0
 71
     0
281
     0
 72
     0
  0
VIEW
  5
A33
330
6
100
AcDbSymbolTableRecord
100
AcDbViewTableRecord
  2
AM_VIEW4
 70
     0
 40
148.5
 10
307.9280350438047
 20
74.25
 41
224.1439299123904
 11
0.0
 21
0.0
 31
1.0
 12
0.0
 22
0.0
 32
0.0
 42
50.0
 43
0.0
 44
0.0
 50
0.0
 71
     0
281
     0
 72
     0
  0
VIEW
  5
A34
330
6
100
AcDbSymbolTableRecord
100
AcDbViewTableRecord
  2
AM_VIEW5
 70
     0
 40
148.5
 10
210.0
 20
148.5
 41
224.1439299123904
 11
0.0
 21
0.0
 31
1.0
 12
0.0
 22
0.0
 32
0.0
 42
50.0
 43
0.0
 44
0.0
 50
0.0
 71
     0
281
     0
 72
     0
  0
VIEW
  5
A35
330
6
100
AcDbSymbolTableRecord
100
AcDbViewTableRecord
  2
AM_VIEW6
 70
     0
 40
296.9970299999999
 10
210.0
 20
148.5
 41
448.2833769461826
 11
0.0
 21
0.0
 31
1.0
 12
0.0
 22
0.0
 32
0.0
 42
50.0
 43
0.0
 44
0.0
 50
0.0
 71
     0
281
     0
 72
     0
  0
ENDTAB
  0
TABLE
  2
UCS
  5
7
330
0
100
AcDbSymbolTable
 70
     0
  0
ENDTAB
  0
TABLE
  2
APPID
  5
9
330
0
100
AcDbSymbolTable
 70
    42
  0
APPID
  5
12
330
9
100
AcDbSymbolTableRecord
100
AcDbRegAppTableRecord
  2
ACAD
 70
     0
  0
APPID
  5
2C
330
9
100
AcDbSymbolTableRecord
100
AcDbRegAppTableRecord
  2
MCAD_NO_VIS
 70
     0
  0
APPID
  5
2D
330
9
100
AcDbSymbolTableRecord
100
AcDbRegAppTableRecord
  2
ACAD_TEMP_GRAPHIC
 70
     0
  0
APPID
  5
B9
330
9
100
AcDbSymbolTableRecord
100
AcDbRegAppTableRecord
  2
GENIUS_GENDTOL_13
 70
     0
  0
APPID
  5
359
330
9
100
AcDbSymbolTableRecord
100
AcDbRegAppTableRecord
  2
GENIUS_GENREC_14
 70
     0
  0
APPID
  5
35A
330
9
100
AcDbSymbolTableRecord
100
AcDbRegAppTableRecord
  2
GENIUS_GENODEF_13
 70
     0
  0
APPID
  5
35B
330
9
100
AcDbSymbolTableRecord
100
AcDbRegAppTableRecord
  2
GENIUS_GENOBJ-N-REC_13
 70
     0
  0
APPID
  5
667
330
9
100
AcDbSymbolTableRecord
100
AcDbRegAppTableRecord
  2
GENIUS_GENCFG_13
 70
     0
  0
APPID
  5
668
330
9
100
AcDbSymbolTableRecord
100
AcDbRegAppTableRecord
  2
GENIUS_GENCFG0_13
 70
     0
  0
APPID
  5
669
330
9
100
AcDbSymbolTableRecord
100
AcDbRegAppTableRecord
  2
GENIUS_GENCFG1_13
 70
     0
  0
APPID
  5
66A
330
9
100
AcDbSymbolTableRecord
100
AcDbRegAppTableRecord
  2
GENIUS_GENCFG2_13
 70
     0
  0
APPID
  5
66B
330
9
100
AcDbSymbolTableRecord
100
AcDbRegAppTableRecord
  2
GENIUS_GENCFG3_13
 70
     0
  0
APPID
  5
66C
330
9
100
AcDbSymbolTableRecord
100
AcDbRegAppTableRecord
  2
GENIUS_GENCFG4_13
 70
     0
  0
APPID
  5
A76
330
9
100
AcDbSymbolTableRecord
100
AcDbRegAppTableRecord
  2
GENIUS_GENBLLY_14
 70
     0
  0
APPID
  5
A77
330
9
100
AcDbSymbolTableRecord
100
AcDbRegAppTableRecord
  2
GENIUS_GENOBJ-N-CEN_13
 70
     0
  0
APPID
  5
A83
330
9
100
AcDbSymbolTableRecord
100
AcDbRegAppTableRecord
  2
GENIUS_GENTRA_14
 70
     0
  0
APPID
  5
A8D
330
9
100
AcDbSymbolTableRecord
100
AcDbRegAppTableRecord
  2
GENIUS_GENOBJ-N-TIT_13
 70
     0
  0
APPID
  5
A8E
330
9
100
AcDbSymbolTableRecord
100
AcDbRegAppTableRecord
  2
GENIUS_GENTITLE_13
 70
     0
  0
APPID
  5
A8F
330
9
100
AcDbSymbolTableRecord
100
AcDbRegAppTableRecord
  2
GENIUS_GENOENT_13
 70
     0
  0
APPID
  5
A90
330
9
100
AcDbSymbolTableRecord
100
AcDbRegAppTableRecord
  2
GENIUS_GENOREF_13
 70
     0
  0
APPID
  5
A91
330
9
100
AcDbSymbolTableRecord
100
AcDbRegAppTableRecord
  2
GENIUS_GENOLIS_13
 70
     0
  0
APPID
  5
A92
330
9
100
AcDbSymbolTableRecord
100
AcDbRegAppTableRecord
  2
GENIUS_GENZVEED_13
 70
     0
  0
APPID
  5
A93
330
9
100
AcDbSymbolTableRecord
100
AcDbRegAppTableRecord
  2
GENIUS_GENSCREG_15
 70
     0
  0
APPID
  5
A94
330
9
100
AcDbSymbolTableRecord
100
AcDbRegAppTableRecord
  2
GENIUS_GENOBJ-N-SDF_13
 70
     0
  0
APPID
  5
12B5
330
9
100
AcDbSymbolTableRecord
100
AcDbRegAppTableRecord
  2
GENIUS_GENOBJ-N-RSBK_13
 70
     0
  0
APPID
  5
12B6
330
9
100
AcDbSymbolTableRecord
100
AcDbRegAppTableRecord
  2
GENIUS_GENOBJ-N-LIB_13
 70
     0
  0
APPID
  5
12B7
330
9
100
AcDbSymbolTableRecord
100
AcDbRegAppTableRecord
  2
GENIUS_GENSCALE_13
 70
     0
  0
APPID
  5
12B8
330
9
100
AcDbSymbolTableRecord
100
AcDbRegAppTableRecord
  2
GENIUS_GENOBJ-N-HTC_13
 70
     0
  0
APPID
  5
12B9
330
9
100
AcDbSymbolTableRecord
100
AcDbRegAppTableRecord
  2
GENIUS_GENHATCH_13
 70
     0
  0
APPID
  5
1C0A
330
9
100
AcDbSymbolTableRecord
100
AcDbRegAppTableRecord
  2
BASE_TYPE
 70
     0
  0
APPID
  5
276B
330
9
100
AcDbSymbolTableRecord
100
AcDbRegAppTableRecord
  2
GENIUS_GENOBJ-N-FIL_13
 70
     0
  0
APPID
  5
3640
330
9
100
AcDbSymbolTableRecord
100
AcDbRegAppTableRecord
  2
GENIUS_GENBH_13
 70
     0
  0
APPID
  5
36D1
330
9
100
AcDbSymbolTableRecord
100
AcDbRegAppTableRecord
  2
GENIUS_GENOBJ-F-SPR_13
 70
     0
  0
APPID
  5
36DA
330
9
100
AcDbSymbolTableRecord
100
AcDbRegAppTableRecord
  2
GENIUS_GEFSPRING_13
 70
     0
  0
APPID
  5
36DB
330
9
100
AcDbSymbolTableRecord
100
AcDbRegAppTableRecord
  2
GENIUS_GEFSPRINGP_13
 70
     0
  0
APPID
  5
4D67
330
9
100
AcDbSymbolTableRecord
100
AcDbRegAppTableRecord
  2
GENIUS_GENFIL_13
 70
     0
  0
APPID
  5
4D68
330
9
100
AcDbSymbolTableRecord
100
AcDbRegAppTableRecord
  2
GENIUS_GENOBJ-N-CHA_13
 70
     0
  0
APPID
  5
B70F
330
9
100
AcDbSymbolTableRecord
100
AcDbRegAppTableRecord
  2
AD_DRAW
 70
     0
  0
APPID
  5
B712
330
9
100
AcDbSymbolTableRecord
100
AcDbRegAppTableRecord
  2
ACATTRIBSERVICES
 70
     0
  0
APPID
  5
B730
330
9
100
AcDbSymbolTableRecord
100
AcDbRegAppTableRecord
  2
DESIGNERASSEMBLIES
 70
     0
  0
APPID
  5
B735
330
9
100
AcDbSymbolTableRecord
100
AcDbRegAppTableRecord
  2
ACADM_DIM_EDIT
 70
     0
  0
APPID
  5
B736
330
9
100
AcDbSymbolTableRecord
100
AcDbRegAppTableRecord
  2
AMDT_DM_ADJ
 70
     0
  0
ENDTAB
  0
TABLE
  2
DIMSTYLE
  5
A
330
0
100
AcDbSymbolTable
 70
    13
100
AcDbDimStyleTable
 71
     0
  0
DIMSTYLE
105
58
330
A
100
AcDbSymbolTableRecord
100
AcDbDimStyleTableRecord
  2
AM_JIS
 70
     0
  4
"
 41
2.5
 42
0.0
 43
10.0
 44
1.0
 47
0.1
 48
0.1000000001
 73
     0
 74
     0
 77
     3
 78
     9
140
3.799999999999998
141
0.0
143
0.0393701
146
0.71
147
1.5
172
     1
176
   256
177
   256
178
     2
271
     2
272
     2
275
     1
283
     0
284
     8
340
11
341
59
342
59
  0
DIMSTYLE
105
65F
330
A
100
AcDbSymbolTableRecord
100
AcDbDimStyleTableRecord
  2
STANDARD
 70
     0
340
11
  0
DIMSTYLE
105
1761
102
{ACAD_REACTORS
330
B54B
330
B558
330
B582
330
B58F
330
B5A5
330
B5B2
102
}
330
A
100
AcDbSymbolTableRecord
100
AcDbDimStyleTableRecord
  2
AM_JIS$0
 70
     0
  4
"
 41
2.5
 42
0.0
 43
10.0
 44
1.0
 47
0.1
 48
0.1000000001
 73
     0
 74
     0
 77
     3
 78
     9
140
3.799999999999998
141
0.0
143
0.0393701
146
0.71
147
1.5
172
     1
176
     3
177
     3
178
     2
271
     2
272
     2
275
     1
283
     0
284
     8
340
11
341
59
342
59
  0
ENDTAB
  0
TABLE
  2
BLOCK_RECORD
  5
1
330
0
100
AcDbSymbolTable
 70
    18
  0
BLOCK_RECORD
  5
1F
102
{ACAD_XDICTIONARY
360
165
102
}
330
1
100
AcDbSymbolTableRecord
100
AcDbBlockTableRecord
  2
*MODEL_SPACE
340
B6D5
  0
BLOCK_RECORD
  5
1B
102
{ACAD_XDICTIONARY
360
B6C8
102
}
330
1
100
AcDbSymbolTableRecord
100
AcDbBlockTableRecord
  2
*PAPER_SPACE
340
B6D6
  0
BLOCK_RECORD
  5
59
330
1
100
AcDbSymbolTableRecord
100
AcDbBlockTableRecord
  2
_OPEN30
340
0
102
{BLKREFS
331
B73F
331
B740
331
B748
331
B749
331
B751
331
B752
331
B75A
331
B75B
331
B763
331
B764
331
B76C
331
B76D
102
}
  0
BLOCK_RECORD
  5
AD2C
330
1
100
AcDbSymbolTableRecord
100
AcDbBlockTableRecord
  2
CBF03
340
0
102
{BLKREFS
331
B50C
331
B50D
102
}
  0
BLOCK_RECORD
  5
B527
330
1
100
AcDbSymbolTableRecord
100
AcDbBlockTableRecord
  2
CBS0300
340
0
102
{BLKREFS
331
B532
331
B533
102
}
  0
BLOCK_RECORD
  5
B54C
330
1
100
AcDbSymbolTableRecord
100
AcDbBlockTableRecord
  2
*D11
340
0
  0
BLOCK_RECORD
  5
B559
330
1
100
AcDbSymbolTableRecord
100
AcDbBlockTableRecord
  2
*D12
340
0
  0
BLOCK_RECORD
  5
B583
330
1
100
AcDbSymbolTableRecord
100
AcDbBlockTableRecord
  2
*D13
340
0
  0
BLOCK_RECORD
  5
B590
330
1
100
AcDbSymbolTableRecord
100
AcDbBlockTableRecord
  2
*D14
340
0
  0
BLOCK_RECORD
  5
B5A6
330
1
100
AcDbSymbolTableRecord
100
AcDbBlockTableRecord
  2
*D15
340
0
  0
BLOCK_RECORD
  5
B5B3
330
1
100
AcDbSymbolTableRecord
100
AcDbBlockTableRecord
  2
*D16
340
0
  0
ENDTAB
  0
ENDSEC
  0
SECTION
  2
BLOCKS
  0
BLOCK
  5
20
330
1F
100
AcDbEntity
  8
0
100
AcDbBlockBegin
  2
*MODEL_SPACE
 70
     0
 10
0.0
 20
0.0
 30
0.0
  3
*MODEL_SPACE
  1

  0
ENDBLK
  5
21
330
1F
100
AcDbEntity
  8
0
100
AcDbBlockEnd
  0
BLOCK
  5
1C
330
1B
100
AcDbEntity
 67
     1
  8
0
100
AcDbBlockBegin
  2
*PAPER_SPACE
 70
     0
 10
0.0
 20
0.0
 30
0.0
  3
*PAPER_SPACE
  1

  0
ENDBLK
  5
1D
330
1B
100
AcDbEntity
 67
     1
  8
0
100
AcDbBlockEnd
  0
BLOCK
  5
5D
330
59
100
AcDbEntity
  8
0
100
AcDbBlockBegin
  2
_OPEN30
 70
     0
 10
0.0
 20
0.0
 30
0.0
  3
_OPEN30
  1

  0
LINE
  5
5A
330
59
100
AcDbEntity
  8
0
 62
     0
100
AcDbLine
 10
-1.0
 20
0.26794919
 30
0.0
 11
0.0
 21
0.0
 31
0.0
  0
LINE
  5
5B
330
59
100
AcDbEntity
  8
0
 62
     0
100
AcDbLine
 10
0.0
 20
0.0
 30
0.0
 11
-1.0
 21
-0.26794919
 31
0.0
  0
LINE
  5
5C
330
59
100
AcDbEntity
  8
0
 62
     0
100
AcDbLine
 10
0.0
 20
0.0
 30
0.0
 11
-1.0
 21
0.0
 31
0.0
  0
ENDBLK
  5
5E
330
59
100
AcDbEntity
  8
0
100
AcDbBlockEnd
  0
BLOCK
  5
AD35
330
AD2C
100
AcDbEntity
  8
0
100
AcDbBlockBegin
  2
CBF03
 70
     0
 10
0.0
 20
0.0
 30
0.0
  3
CBF03
  1

  0
CIRCLE
  5
AD2D
330
AD2C
100
AcDbEntity
  8
0
  6
Continuous
100
AcDbCircle
 10
0.0
 20
0.0
 30
0.0
 40
2.75
  0
CIRCLE
  5
AD2E
330
AD2C
100
AcDbEntity
  8
0
  6
Continuous
100
AcDbCircle
 10
0.0
 20
0.0
 30
0.0
 40
2.403589676972373
  0
LINE
  5
AD2F
330
AD2C
100
AcDbEntity
  8
0
  6
Continuous
100
AcDbLine
 10
1.443375000000003
 20
0.0
 30
0.0
 11
0.7216875000000301
 21
1.249999417187382
 31
0.0
  0
LINE
  5
AD30
330
AD2C
100
AcDbEntity
  8
0
  6
Continuous
100
AcDbLine
 10
0.7216875000000301
 20
1.249999417187382
 30
0.0
 11
-0.7216874999999732
 21
1.249999417187382
 31
0.0
  0
LINE
  5
AD31
330
AD2C
100
AcDbEntity
  8
0
  6
Continuous
100
AcDbLine
 10
-0.7216874999999732
 20
1.249999417187382
 30
0.0
 11
-1.443375000000003
 21
0.0
 31
0.0
  0
LINE
  5
AD32
330
AD2C
100
AcDbEntity
  8
0
  6
Continuous
100
AcDbLine
 10
-1.443375000000003
 20
0.0
 30
0.0
 11
-0.7216874999999732
 21
-1.249999417187297
 31
0.0
  0
LINE
  5
AD33
330
AD2C
100
AcDbEntity
  8
0
  6
Continuous
100
AcDbLine
 10
-0.7216874999999732
 20
-1.249999417187297
 30
0.0
 11
0.7216875000000301
 21
-1.249999417187297
 31
0.0
  0
LINE
  5
AD34
330
AD2C
100
AcDbEntity
  8
0
  6
Continuous
100
AcDbLine
 10
0.7216875000000301
 20
-1.249999417187297
 30
0.0
 11
1.443375000000003
 21
0.0
 31
0.0
  0
ENDBLK
  5
AD36
330
AD2C
100
AcDbEntity
  8
0
100
AcDbBlockEnd
  0
BLOCK
  5
B530
330
B527
100
AcDbEntity
  8
0
100
AcDbBlockBegin
  2
CBS0300
 70
     0
 10
0.0
 20
0.0
 30
0.0
  3
CBS0300
  1

  0
LINE
  5
B528
330
B527
100
AcDbEntity
  8
0
 48
0.3
100
AcDbLine
 10
2.75
 20
0.0
 30
0.0
 11
-2.75
 21
0.0
 31
0.0
  0
LINE
  5
B529
330
B527
100
AcDbEntity
  8
0
 48
0.3
100
AcDbLine
 10
2.403589838486253
 20
3.0
 30
0.0
 11
-2.403589838486198
 21
3.0
 31
0.0
  0
LINE
  5
B52A
330
B527
100
AcDbEntity
  8
0
 48
0.3
100
AcDbLine
 10
-1.499999999999943
 20
2.800000000000011
 30
0.0
 11
-2.75
 21
2.800000000000011
 31
0.0
  0
LINE
  5
B52B
330
B527
100
AcDbEntity
  8
0
 48
0.3
100
AcDbLine
 10
-2.75
 20
2.800000000000011
 30
0.0
 11
-2.403589838486198
 21
3.0
 31
0.0
  0
LINE
  5
B52C
330
B527
100
AcDbEntity
  8
0
 48
0.3
100
AcDbLine
 10
-2.75
 20
2.799999999999997
 30
0.0
 11
-2.75
 21
0.0
 31
0.0
  0
LINE
  5
B52D
330
B527
100
AcDbEntity
  8
0
 48
0.3
100
AcDbLine
 10
2.75
 20
2.800000000000011
 30
0.0
 11
1.5
 21
2.800000000000011
 31
0.0
  0
LINE
  5
B52E
330
B527
100
AcDbEntity
  8
0
 48
0.3
100
AcDbLine
 10
2.75
 20
2.800000000000011
 30
0.0
 11
2.75
 21
0.0
 31
0.0
  0
LINE
  5
B52F
330
B527
100
AcDbEntity
  8
0
 48
0.3
100
AcDbLine
 10
2.75
 20
2.800000000000011
 30
0.0
 11
2.403589838486253
 21
3.0
 31
0.0
  0
ENDBLK
  5
B531
330
B527
100
AcDbEntity
  8
0
100
AcDbBlockEnd
  0
BLOCK
  5
B556
330
B54C
100
AcDbEntity
  8
0
100
AcDbBlockBegin
  2
*D11
 70
     1
 10
0.0
 20
0.0
 30
0.0
  3
*D11
  1

  0
LINE
  5
B73C
330
B54C
100
AcDbEntity
  8
AM_5
 62
     3
370
    -2
100
AcDbLine
 10
169.9999999999999
 20
-35.31542972612489
 30
0.0
 11
169.9999999999999
 21
-38.01996108028595
 31
0.0
  0
LINE
  5
B73D
330
B54C
100
AcDbEntity
  8
AM_5
 62
     3
370
    -2
100
AcDbLine
 10
0.0000000000000517
 20
-35.3154297261251
 30
0.0
 11
0.0000000000000515
 21
-38.01996108028595
 31
0.0
  0
LINE
  5
B73E
330
B54C
100
AcDbEntity
  8
AM_5
 62
     3
370
    -2
100
AcDbLine
 10
167.4999999999999
 20
-37.01996108028595
 30
0.0
 11
2.500000000000051
 21
-37.01996108028595
 31
0.0
  0
INSERT
  5
B73F
330
B54C
100
AcDbEntity
  8
AM_5
 62
     3
370
    -2
100
AcDbBlockReference
  2
_OPEN30
 10
169.9999999999999
 20
-37.01996108028595
 30
0.0
 41
2.5
 42
2.5
 43
2.5
  0
INSERT
  5
B740
330
B54C
100
AcDbEntity
  8
AM_5
 62
     3
370
    -2
100
AcDbBlockReference
  2
_OPEN30
 10
0.0000000000000516
 20
-37.01996108028595
 30
0.0
 41
2.5
 42
2.5
 43
2.5
 50
180.0
  0
MTEXT
  5
B741
330
B54C
100
AcDbEntity
  8
AM_5
 62
     2
100
AcDbMText
 10
84.99999999999998
 20
-33.61996108028595
 30
0.0
 40
3.799999999999998
 41
0.0
 71
     5
 72
     1
  1
170
 73
     1
 44
1.0
1001
ACAD
1000
MTEXTBEGIN
1070
    73
1070
     1
1070
    44
1040
1.0
1070
    74
1070
     0
1000
MTEXTEND
  0
POINT
  5
B742
330
B54C
100
AcDbEntity
  8
DEFPOINTS
 62
     0
100
AcDbPoint
 10
169.9999999999999
 20
-35.31542972612489
 30
0.0
  0
POINT
  5
B743
330
B54C
100
AcDbEntity
  8
DEFPOINTS
 62
     0
100
AcDbPoint
 10
0.0000000000000517
 20
-35.3154297261251
 30
0.0
  0
POINT
  5
B744
330
B54C
100
AcDbEntity
  8
DEFPOINTS
 62
     0
100
AcDbPoint
 10
0.0000000000000516
 20
-37.01996108028595
 30
0.0
  0
ENDBLK
  5
B557
330
B54C
100
AcDbEntity
  8
0
100
AcDbBlockEnd
  0
BLOCK
  5
B563
330
B559
100
AcDbEntity
  8
0
100
AcDbBlockBegin
  2
*D12
 70
     1
 10
0.0
 20
0.0
 30
0.0
  3
*D12
  1

  0
LINE
  5
B745
330
B559
100
AcDbEntity
  8
AM_5
 62
     3
370
    -2
100
AcDbLine
 10
0.0000000000001042
 20
-70.87989100235936
 30
0.0
 11
-24.02186383005398
 21
-70.87989100235936
 31
0.0
  0
LINE
  5
B746
330
B559
100
AcDbEntity
  8
AM_5
 62
     3
370
    -2
100
AcDbLine
 10
9.253300505255676
 20
-102.8808213760388
 30
0.0
 11
-24.02186383005398
 21
-102.8808213760388
 31
0.0
  0
LINE
  5
B747
330
B559
100
AcDbEntity
  8
AM_5
 62
     3
370
    -2
100
AcDbLine
 10
-23.02186383005398
 20
-73.37989100235936
 30
0.0
 11
-23.02186383005398
 21
-100.3808213760388
 31
0.0
  0
INSERT
  5
B748
330
B559
100
AcDbEntity
  8
AM_5
 62
     3
370
    -2
100
AcDbBlockReference
  2
_OPEN30
 10
-23.02186383005398
 20
-70.87989100235936
 30
0.0
 41
2.5
 42
2.5
 43
2.5
 50
90.0
  0
INSERT
  5
B749
330
B559
100
AcDbEntity
  8
AM_5
 62
     3
370
    -2
100
AcDbBlockReference
  2
_OPEN30
 10
-23.02186383005398
 20
-102.8808213760388
 30
0.0
 41
2.5
 42
2.5
 43
2.5
 50
270.0
  0
MTEXT
  5
B74A
330
B559
100
AcDbEntity
  8
AM_5
 62
     2
100
AcDbMText
 10
-26.422237845802
 20
-86.88035618919908
 30
0.0
 40
3.799999999999998
 41
0.0
 71
     5
 72
     1
  1
32
 11
0.0000000000000001
 21
1.0
 31
0.0
 73
     1
 44
1.0
1001
ACAD
1000
MTEXTBEGIN
1070
    73
1070
     1
1070
    44
1040
1.0
1070
    74
1070
     0
1000
MTEXTEND
  0
POINT
  5
B74B
330
B559
100
AcDbEntity
  8
DEFPOINTS
 62
     0
100
AcDbPoint
 10
0.0000000000001042
 20
-70.87989100235936
 30
0.0
  0
POINT
  5
B74C
330
B559
100
AcDbEntity
  8
DEFPOINTS
 62
     0
100
AcDbPoint
 10
9.253300505255676
 20
-102.8808213760388
 30
0.0
  0
POINT
  5
B74D
330
B559
100
AcDbEntity
  8
DEFPOINTS
 62
     0
100
AcDbPoint
 10
-23.02186383005398
 20
-102.8808213760388
 30
0.0
  0
ENDBLK
  5
B564
330
B559
100
AcDbEntity
  8
0
100
AcDbBlockEnd
  0
BLOCK
  5
B58D
330
B583
100
AcDbEntity
  8
0
100
AcDbBlockBegin
  2
*D13
 70
     1
 10
0.0
 20
0.0
 30
0.0
  3
*D13
  1

  0
LINE
  5
B74E
330
B583
100
AcDbEntity
  8
AM_5
 62
     3
370
    -2
100
AcDbLine
 10
169.9999999999999
 20
-70.88082137603887
 30
0.0
 11
193.6052578975854
 21
-70.88082137603887
 31
0.0
  0
LINE
  5
B74F
330
B583
100
AcDbEntity
  8
AM_5
 62
     3
370
    -2
100
AcDbLine
 10
169.9999999999999
 20
-102.8808213760388
 30
0.0
 11
193.6052578975854
 21
-102.8808213760388
 31
0.0
  0
LINE
  5
B750
330
B583
100
AcDbEntity
  8
AM_5
 62
     3
370
    -2
100
AcDbLine
 10
192.6052578975854
 20
-73.38082137603887
 30
0.0
 11
192.6052578975854
 21
-100.3808213760388
 31
0.0
  0
INSERT
  5
B751
330
B583
100
AcDbEntity
  8
AM_5
 62
     3
370
    -2
100
AcDbBlockReference
  2
_OPEN30
 10
192.6052578975854
 20
-70.88082137603887
 30
0.0
 41
2.5
 42
2.5
 43
2.5
 50
90.0
  0
INSERT
  5
B752
330
B583
100
AcDbEntity
  8
AM_5
 62
     3
370
    -2
100
AcDbBlockReference
  2
_OPEN30
 10
192.6052578975854
 20
-102.8808213760388
 30
0.0
 41
2.5
 42
2.5
 43
2.5
 50
270.0
  0
MTEXT
  5
B753
330
B583
100
AcDbEntity
  8
AM_5
 62
     2
100
AcDbMText
 10
189.2048838818374
 20
-86.88082137603881
 30
0.0
 40
3.799999999999998
 41
0.0
 71
     5
 72
     1
  1
32
 11
0.0000000000000001
 21
1.0
 31
0.0
 73
     1
 44
1.0
1001
ACAD
1000
MTEXTBEGIN
1070
    73
1070
     1
1070
    44
1040
1.0
1070
    74
1070
     0
1000
MTEXTEND
  0
POINT
  5
B754
330
B583
100
AcDbEntity
  8
DEFPOINTS
 62
     0
100
AcDbPoint
 10
169.9999999999999
 20
-70.88082137603887
 30
0.0
  0
POINT
  5
B755
330
B583
100
AcDbEntity
  8
DEFPOINTS
 62
     0
100
AcDbPoint
 10
169.9999999999999
 20
-102.8808213760388
 30
0.0
  0
POINT
  5
B756
330
B583
100
AcDbEntity
  8
DEFPOINTS
 62
     0
100
AcDbPoint
 10
192.6052578975854
 20
-102.8808213760388
 30
0.0
  0
ENDBLK
  5
B58E
330
B583
100
AcDbEntity
  8
0
100
AcDbBlockEnd
  0
BLOCK
  5
B59A
330
B590
100
AcDbEntity
  8
0
100
AcDbBlockBegin
  2
*D14
 70
     1
 10
0.0
 20
0.0
 30
0.0
  3
*D14
  1

  0
LINE
  5
B757
330
B590
100
AcDbEntity
  8
AM_5
 62
     3
370
    -2
100
AcDbLine
 10
169.9999999999999
 20
0.2499619237890659
 30
0.0
 11
190.848328581163
 21
0.24996192378906
 31
0.0
  0
LINE
  5
B758
330
B590
100
AcDbEntity
  8
AM_5
 62
     3
370
    -2
100
AcDbLine
 10
169.9999999999999
 20
31.99996192378905
 30
0.0
 11
190.848328581163
 21
31.99996192378905
 31
0.0
  0
LINE
  5
B759
330
B590
100
AcDbEntity
  8
AM_5
 62
     3
370
    -2
100
AcDbLine
 10
189.848328581163
 20
2.74996192378906
 30
0.0
 11
189.848328581163
 21
29.49996192378905
 31
0.0
  0
INSERT
  5
B75A
330
B590
100
AcDbEntity
  8
AM_5
 62
     3
370
    -2
100
AcDbBlockReference
  2
_OPEN30
 10
189.848328581163
 20
0.2499619237890603
 30
0.0
 41
2.5
 42
2.5
 43
2.5
 50
270.0
  0
INSERT
  5
B75B
330
B590
100
AcDbEntity
  8
AM_5
 62
     3
370
    -2
100
AcDbBlockReference
  2
_OPEN30
 10
189.848328581163
 20
31.99996192378905
 30
0.0
 41
2.5
 42
2.5
 43
2.5
 50
90.0
  0
MTEXT
  5
B75C
330
B590
100
AcDbEntity
  8
AM_5
 62
     2
100
AcDbMText
 10
186.4479545654149
 20
16.12496192378908
 30
0.0
 40
3.799999999999998
 41
0.0
 71
     5
 72
     1
  1
32
 11
0.0000000000000001
 21
1.0
 31
0.0
 73
     1
 44
1.0
1001
ACAD
1000
MTEXTBEGIN
1070
    73
1070
     1
1070
    44
1040
1.0
1070
    74
1070
     0
1000
MTEXTEND
  0
POINT
  5
B75D
330
B590
100
AcDbEntity
  8
DEFPOINTS
 62
     0
100
AcDbPoint
 10
169.9999999999999
 20
0.2499619237890659
 30
0.0
  0
POINT
  5
B75E
330
B590
100
AcDbEntity
  8
DEFPOINTS
 62
     0
100
AcDbPoint
 10
169.9999999999999
 20
31.99996192378905
 30
0.0
  0
POINT
  5
B75F
330
B590
100
AcDbEntity
  8
DEFPOINTS
 62
     0
100
AcDbPoint
 10
189.848328581163
 20
31.99996192378905
 30
0.0
  0
ENDBLK
  5
B59B
330
B590
100
AcDbEntity
  8
0
100
AcDbBlockEnd
  0
BLOCK
  5
B5B0
330
B5A6
100
AcDbEntity
  8
0
100
AcDbBlockBegin
  2
*D15
 70
     1
 10
0.0
 20
0.0
 30
0.0
  3
*D15
  1

  0
LINE
  5
B760
330
B5A6
100
AcDbEntity
  8
AM_5
 62
     3
370
    -2
100
AcDbLine
 10
39.49999999999997
 20
31.9999619237891
 30
0.0
 11
-30.37790313367583
 21
31.99996192378911
 31
0.0
  0
LINE
  5
B761
330
B5A6
100
AcDbEntity
  8
AM_5
 62
     3
370
    -2
100
AcDbLine
 10
0.2543631016093278
 20
-0.0000000000000002
 30
0.0
 11
-30.37790313367583
 21
0.0000000000000085
 31
0.0
  0
LINE
  5
B762
330
B5A6
100
AcDbEntity
  8
AM_5
 62
     3
370
    -2
100
AcDbLine
 10
-29.37790313367582
 20
29.49996192378911
 30
0.0
 11
-29.37790313367583
 21
2.500000000000008
 31
0.0
  0
INSERT
  5
B763
330
B5A6
100
AcDbEntity
  8
AM_5
 62
     3
370
    -2
100
AcDbBlockReference
  2
_OPEN30
 10
-29.37790313367582
 20
31.99996192378911
 30
0.0
 41
2.5
 42
2.5
 43
2.5
 50
90.0
  0
INSERT
  5
B764
330
B5A6
100
AcDbEntity
  8
AM_5
 62
     3
370
    -2
100
AcDbBlockReference
  2
_OPEN30
 10
-29.37790313367583
 20
0.0000000000000082
 30
0.0
 41
2.5
 42
2.5
 43
2.5
 50
270.0
  0
MTEXT
  5
B765
330
B5A6
100
AcDbEntity
  8
AM_5
 62
     2
100
AcDbMText
 10
-32.77827714942386
 20
15.99998096189455
 30
0.0
 40
3.799999999999998
 41
0.0
 71
     5
 72
     1
  1
32
 11
0.0000000000000001
 21
1.0
 31
0.0
 73
     1
 44
1.0
1001
ACAD
1000
MTEXTBEGIN
1070
    73
1070
     1
1070
    44
1040
1.0
1070
    74
1070
     0
1000
MTEXTEND
  0
POINT
  5
B766
330
B5A6
100
AcDbEntity
  8
DEFPOINTS
 62
     0
100
AcDbPoint
 10
39.49999999999997
 20
31.9999619237891
 30
0.0
  0
POINT
  5
B767
330
B5A6
100
AcDbEntity
  8
DEFPOINTS
 62
     0
100
AcDbPoint
 10
0.2543631016093278
 20
-0.0000000000000002
 30
0.0
  0
POINT
  5
B768
330
B5A6
100
AcDbEntity
  8
DEFPOINTS
 62
     0
100
AcDbPoint
 10
-29.37790313367583
 20
0.0000000000000082
 30
0.0
  0
ENDBLK
  5
B5B1
330
B5A6
100
AcDbEntity
  8
0
100
AcDbBlockEnd
  0
BLOCK
  5
B5BF
330
B5B3
100
AcDbEntity
  8
0
100
AcDbBlockBegin
  2
*D16
 70
     1
 10
0.0
 20
0.0
 30
0.0
  3
*D16
  1

  0
LINE
  5
B769
330
B5B3
100
AcDbEntity
  8
AM_5
 62
     3
370
    -2
100
AcDbLine
 10
0.2500000000000002
 20
8.001158227303042
 30
0.0
 11
-20.28022853470707
 21
8.001158227303049
 31
0.0
  0
LINE
  5
B76A
330
B5B3
100
AcDbEntity
  8
AM_5
 62
     3
370
    -2
100
AcDbLine
 10
0.2499999999999992
 20
-0.0000380762108991
 30
0.0
 11
-20.28022853470707
 21
-0.0000380762108933
 31
0.0
  0
LINE
  5
B76B
330
B5B3
100
AcDbEntity
  8
AM_5
 62
     3
370
    -2
100
AcDbLine
 10
-19.28022853470707
 20
5.501158227303048
 30
0.0
 11
-19.28022853470707
 21
2.499961923789106
 31
0.0
  0
INSERT
  5
B76C
330
B5B3
100
AcDbEntity
  8
AM_5
 62
     3
370
    -2
100
AcDbBlockReference
  2
_OPEN30
 10
-19.28022853470707
 20
8.001158227303047
 30
0.0
 41
2.5
 42
2.5
 43
2.5
 50
90.0
  0
INSERT
  5
B76D
330
B5B3
100
AcDbEntity
  8
AM_5
 62
     3
370
    -2
100
AcDbBlockReference
  2
_OPEN30
 10
-19.28022853470707
 20
-0.0000380762108936
 30
0.0
 41
2.5
 42
2.5
 43
2.5
 50
270.0
  0
MTEXT
  5
B76E
330
B5B3
100
AcDbEntity
  8
AM_5
 62
     2
100
AcDbMText
 10
-22.68022853470707
 20
4.00056007554608
 30
0.0
 40
3.799999999999998
 41
0.0
 71
     5
 72
     1
  1
8
 11
0.0000000000000001
 21
1.0
 31
0.0
 73
     1
 44
1.0
1001
ACAD
1000
MTEXTBEGIN
1070
    73
1070
     1
1070
    44
1040
1.0
1070
    74
1070
     0
1000
MTEXTEND
  0
POINT
  5
B76F
330
B5B3
100
AcDbEntity
  8
DEFPOINTS
 62
     0
100
AcDbPoint
 10
0.2500000000000002
 20
8.001158227303042
 30
0.0
  0
POINT
  5
B770
330
B5B3
100
AcDbEntity
  8
DEFPOINTS
 62
     0
100
AcDbPoint
 10
0.2499999999999992
 20
-0.0000380762108991
 30
0.0
  0
POINT
  5
B771
330
B5B3
100
AcDbEntity
  8
DEFPOINTS
 62
     0
100
AcDbPoint
 10
-19.28022853470707
 20
-0.0000380762108936
 30
0.0
  0
ENDBLK
  5
B5C0
330
B5B3
100
AcDbEntity
  8
0
100
AcDbBlockEnd
  0
ENDSEC
  0
SECTION
  2
ENTITIES
  0
TEXT
  5
83BD
330
1F
100
AcDbEntity
  8
AM_6
100
AcDbText
 10
68.62913044942169
 20
-127.1700596566553
 30
0.0
 40
5.0
  1
GMDXR3232-80
 72
     4
 11
91.25165721511711
 21
-124.6700596566553
 31
0.0
100
AcDbText
  0
LINE
  5
B4DF
330
1F
100
AcDbEntity
  8
AM_0
100
AcDbLine
 10
169.9999999999999
 20
31.99996192378906
 30
0.0
 11
39.49999999999994
 21
31.9999619237891
 31
0.0
  0
LINE
  5
B4E0
330
1F
100
AcDbEntity
  8
AM_0
100
AcDbLine
 10
169.9999999999999
 20
0.2499619237890659
 30
0.0
 11
169.9999999999999
 21
31.99996192378905
 31
0.0
  0
LINE
  5
B4E2
330
1F
100
AcDbEntity
  8
AM_0
100
AcDbLine
 10
4.759999999999876
 20
0.2499619237891145
 30
0.0
 11
169.9999999999999
 21
0.2499619237890621
 31
0.0
  0
LINE
  5
B4E3
330
1F
100
AcDbEntity
  8
AM_0
100
AcDbLine
 10
39.4999999999999
 20
8.169961923789101
 30
0.0
 11
39.49999999999997
 21
31.9999619237891
 31
0.0
  0
LINE
  5
B4E5
102
{ACAD_REACTORS
330
B4FE
330
B501
102
}
330
1F
100
AcDbEntity
  8
AM_0
100
AcDbLine
 10
0.0000000000000002
 20
7.751158227303042
 30
0.0
 11
-0.0000000000000008
 21
0.2499619237891009
 31
0.0
  0
LINE
  5
B4E7
330
1F
100
AcDbEntity
  8
AM_7
100
AcDbLine
 10
34.23999999999995
 20
3.709961923789098
 30
0.0
 11
-2.150962363447945
 21
3.709961923789103
 31
0.0
  0
LINE
  5
B4E8
330
1F
100
AcDbEntity
  8
AM_0
100
AcDbLine
 10
5.202341943747796
 20
7.169961923789119
 30
0.0
 11
38.49999999999988
 21
7.169961923789103
 31
0.0
  0
LINE
  5
B4E9
330
1F
100
AcDbEntity
  8
AM_0
100
AcDbLine
 10
35.83999999999988
 20
1.039961923789096
 30
0.0
 11
35.83999999999988
 21
6.369961923789094
 31
0.0
  0
LINE
  5
B4EA
330
1F
100
AcDbEntity
  8
AM_0
100
AcDbLine
 10
39.49999999999988
 20
8.169961923789101
 30
0.0
 11
38.49999999999988
 21
7.169961923789103
 31
0.0
  0
LINE
  5
B4EB
330
1F
100
AcDbEntity
  8
AM_7
100
AcDbLine
 10
29.03999999999987
 20
-0.865639280736412
 30
0.0
 11
29.03999999999987
 21
8.215808617442609
 31
0.0
  0
LINE
  5
B4EC
330
1F
100
AcDbEntity
  8
AM_7
100
AcDbLine
 10
18.73999999999986
 20
-1.16217639840405
 30
0.0
 11
18.73999999999986
 21
8.252876200614004
 31
0.0
  0
LINE
  5
B4ED
102
{ACAD_REACTORS
330
B4FE
330
B501
102
}
330
1F
100
AcDbEntity
  8
AM_0
100
AcDbLine
 10
0.2543631016093288
 20
8.001120151092143
 30
0.0
 11
4.75927502894433
 21
7.922486620904597
 31
0.0
  0
LINE
  5
B4EE
102
{ACAD_REACTORS
330
B4FE
330
B501
102
}
330
1F
100
AcDbEntity
  8
AM_0
100
AcDbLine
 10
0.2543631016093278
 20
-0.0000000000000002
 30
0.0
 11
4.759275028944272
 21
0.0786335301875447
 31
0.0
  0
LINE
  5
B4EF
102
{ACAD_REACTORS
330
B4FE
330
B501
102
}
330
1F
100
AcDbEntity
  8
AM_0
100
AcDbLine
 10
4.759999999999876
 20
0.0786208776980281
 30
0.0
 11
4.759999999999877
 21
7.905560075546066
 31
0.0
  0
LINE
  5
B4F3
102
{ACAD_REACTORS
330
B4FE
330
B501
102
}
330
1F
100
AcDbEntity
  8
AM_0
100
AcDbLine
 10
5.659999999999797
 20
7.10556007554607
 30
0.0
 11
13.99999999999997
 21
7.105560075546069
 31
0.0
  0
ARC
  5
B4FC
102
{ACAD_REACTORS
330
B4FE
330
B501
102
}
330
1F
100
AcDbEntity
  8
AM_0
100
AcDbCircle
 10
5.559999999999887
 20
7.905560075546066
 30
0.0
 40
0.8
100
AcDbArc
 50
180.0
 51
277.1250163488954
  0
ARC
  5
B4FD
102
{ACAD_REACTORS
330
B4FE
330
B501
102
}
330
1F
100
AcDbEntity
  8
AM_0
100
AcDbCircle
 10
5.559999999999886
 20
0.0955600755460743
 30
0.0
 40
0.8
100
AcDbArc
 50
82.87498365110449
 51
180.0
  0
ARC
  5
B4FF
102
{ACAD_REACTORS
330
B501
102
}
330
1F
100
AcDbEntity
  8
AM_0
100
AcDbCircle
 10
0.2500000000000002
 20
7.751158227303042
 30
0.0
 40
0.25
100
AcDbArc
 50
88.99999999999993
 51
180.0
  0
ARC
  5
B500
102
{ACAD_REACTORS
330
B501
102
}
330
1F
100
AcDbEntity
  8
AM_0
100
AcDbCircle
 10
0.2499999999999992
 20
0.2499619237891009
 30
0.0
 40
0.25
100
AcDbArc
 50
179.9999999999994
 51
271.0000000000001
  0
LINE
  5
B503
330
1F
100
AcDbEntity
  8
AM_0
100
AcDbLine
 10
7.269999999999895
 20
1.672382568470545
 30
0.0
 11
7.269999999999896
 21
5.74754127910763
 31
0.0
  0
LINE
  5
B504
330
1F
100
AcDbEntity
  8
AM_0
100
AcDbLine
 10
14.87612230805794
 20
1.059961923789081
 30
0.0
 11
14.87612230805794
 21
6.359961923789092
 31
0.0
  0
LINE
  5
B508
330
1F
100
AcDbEntity
  8
AM_0
100
AcDbLine
 10
7.269999999999896
 20
5.74754127910763
 30
0.0
 11
14.26999999999989
 21
6.359961923789092
 31
0.0
  0
LINE
  5
B509
330
1F
100
AcDbEntity
  8
AM_0
100
AcDbLine
 10
7.269999999999895
 20
1.672382568470545
 30
0.0
 11
14.26999999999989
 21
1.059961923789081
 31
0.0
  0
LINE
  5
B50A
330
1F
100
AcDbEntity
  8
AM_0
100
AcDbLine
 10
14.26999999999989
 20
6.359961923789092
 30
0.0
 11
35.83999999999988
 21
6.359961923789089
 31
0.0
  0
LINE
  5
B50B
330
1F
100
AcDbEntity
  8
AM_0
100
AcDbLine
 10
14.26999999999989
 20
1.059961923789081
 30
0.0
 11
35.83999999999988
 21
1.059961923789078
 31
0.0
  0
INSERT
  5
B50C
330
1F
100
AcDbEntity
  8
AM_0
100
AcDbBlockReference
  2
CBF03
 10
18.73999999999986
 20
3.7099619237891
 30
0.0
  0
INSERT
  5
B50D
330
1F
100
AcDbEntity
  8
AM_0
100
AcDbBlockReference
  2
CBF03
 10
29.03999999999982
 20
3.709961923789099
 30
0.0
  0
LINE
  5
B50F
330
1F
100
AcDbEntity
  8
AM_0
100
AcDbLine
 10
169.9999999999999
 20
-70.88082137603887
 30
0.0
 11
35.83999999999993
 21
-70.88082137603885
 31
0.0
  0
LINE
  5
B510
330
1F
100
AcDbEntity
  8
AM_0
100
AcDbLine
 10
169.9999999999999
 20
-102.8808213760388
 30
0.0
 11
169.9999999999999
 21
-70.88082137603887
 31
0.0
  0
LINE
  5
B511
330
1F
100
AcDbEntity
  8
AM_0
100
AcDbLine
 10
169.9999999999999
 20
-102.8808213760388
 30
0.0
 11
9.253300505255676
 21
-102.8808213760388
 31
0.0
  0
LINE
  5
B512
330
1F
100
AcDbEntity
  8
AM_0
100
AcDbLine
 10
0.7000000000000354
 20
-75.78082137603884
 30
0.0
 11
0.6999999999999213
 21
-79.38082137603868
 31
0.0
  0
LINE
  5
B513
330
1F
100
AcDbEntity
  8
AM_0
100
AcDbLine
 10
35.83999999999993
 20
-73.68082137603884
 30
0.0
 11
35.83999999999982
 21
-65.48082137603884
 31
0.0
  0
LINE
  5
B514
330
1F
100
AcDbEntity
  8
AM_0
100
AcDbLine
 10
34.83999999999993
 20
-74.68082137603885
 30
0.0
 11
1.800000000000058
 21
-74.68082137603885
 31
0.0
  0
LINE
  5
B516
330
1F
100
AcDbEntity
  8
AM_0
100
AcDbLine
 10
35.83999999999993
 20
-73.68082137603884
 30
0.0
 11
34.83999999999993
 21
-74.68082137603885
 31
0.0
  0
LINE
  5
B518
330
1F
100
AcDbEntity
  8
AM_0
100
AcDbLine
 10
0.6999999999999213
 20
-79.38082137603868
 30
0.0
 11
9.253300505255676
 21
-102.8808213760388
 31
0.0
  0
LINE
  5
B51A
330
1F
100
AcDbEntity
  8
AM_0
100
AcDbLine
 10
1.799999999999944
 20
-74.68082137603885
 30
0.0
 11
1.799999999999885
 21
-82.40304653743875
 31
0.0
  0
LINE
  5
B51B
330
1F
100
AcDbEntity
  8
AM_0
100
AcDbLine
 10
1.800000000000058
 20
-74.68082137603885
 30
0.0
 11
0.7000000000000354
 21
-75.78082137603884
 31
0.0
  0
LINE
  5
B51C
330
1F
100
AcDbEntity
  8
AM_0
100
AcDbLine
 10
7.269999999999942
 20
-72.28082137603886
 30
0.0
 11
7.269999999999942
 21
-71.31053477548014
 31
0.0
  0
LINE
  5
B51D
330
1F
100
AcDbEntity
  8
AM_0
100
AcDbLine
 10
13.49999999999996
 20
-72.28082137603886
 30
0.0
 11
7.269999999999942
 21
-72.28082137603886
 31
0.0
  0
LINE
  5
B51E
330
1F
100
AcDbEntity
  8
AM_0
100
AcDbLine
 10
15.40933548017291
 20
-64.48082137603886
 30
0.0
 11
7.269999999999942
 21
-71.31053477548011
 31
0.0
  0
LINE
  5
B520
330
1F
100
AcDbEntity
  8
AM_0
100
AcDbLine
 10
13.99999999999996
 20
-72.78082137603886
 30
0.0
 11
13.99999999999996
 21
-74.68082137603885
 31
0.0
  0
LINE
  5
B521
330
1F
100
AcDbEntity
  8
AM_0
100
AcDbLine
 10
13.99999999999996
 20
-72.78082137603886
 30
0.0
 11
13.49999999999996
 21
-72.28082137603886
 31
0.0
  0
LINE
  5
B522
330
1F
100
AcDbEntity
  8
AM_0
100
AcDbLine
 10
34.83999999999982
 20
-64.48082137603885
 30
0.0
 11
15.40933548017291
 21
-64.48082137603886
 31
0.0
  0
LINE
  5
B523
330
1F
100
AcDbEntity
  8
AM_0
100
AcDbLine
 10
35.83999999999993
 20
-73.18082137603885
 30
0.0
 11
34.33999999999993
 21
-74.68082137603885
 31
0.0
  0
LINE
  5
B524
330
1F
100
AcDbEntity
  8
AM_0
100
AcDbLine
 10
34.83999999999982
 20
-64.48082137603885
 30
0.0
 11
35.83999999999982
 21
-65.48082137603884
 31
0.0
  0
LINE
  5
B525
330
1F
100
AcDbEntity
  8
AM_7
100
AcDbLine
 10
18.73999999999991
 20
-79.16582178370766
 30
0.0
 11
18.73999999999991
 21
-56.53653942367157
 31
0.0
  0
LINE
  5
B526
330
1F
100
AcDbEntity
  8
AM_7
100
AcDbLine
 10
29.03999999999992
 20
-79.04415922327814
 30
0.0
 11
29.03999999999992
 21
-57.50984108967566
 31
0.0
  0
INSERT
  5
B532
330
1F
100
AcDbEntity
  8
AM_0
100
AcDbBlockReference
  2
CBS0300
 10
29.03999999999985
 20
-64.48082137603885
 30
0.0
  0
INSERT
  5
B533
330
1F
100
AcDbEntity
  8
AM_0
100
AcDbBlockReference
  2
CBS0300
 10
18.73999999999982
 20
-64.48082137603885
 30
0.0
  0
LINE
  5
B536
102
{ACAD_REACTORS
330
B543
330
B548
102
}
330
1F
100
AcDbEntity
  8
AM_0
100
AcDbLine
 10
4.757819433051611
 20
-71.71975331142488
 30
0.0
 11
0.0000000000001042
 21
-70.88082137603885
 31
0.0
  0
LINE
  5
B537
102
{ACAD_REACTORS
330
B543
330
B548
102
}
330
1F
100
AcDbEntity
  8
AM_0
100
AcDbLine
 10
0.7000000000000353
 20
-77.00082137603884
 30
0.0
 11
0.5355120179285576
 21
-77.00082137603884
 31
0.0
  0
LINE
  5
B538
102
{ACAD_REACTORS
330
B543
330
B548
102
}
330
1F
100
AcDbEntity
  8
AM_0
100
AcDbLine
 10
0.5355120179285576
 20
-77.00082137603884
 30
0.0
 11
0.0000000000001042
 21
-70.87989100235936
 31
0.0
  0
LINE
  5
B539
102
{ACAD_REACTORS
330
B543
330
B548
102
}
330
1F
100
AcDbEntity
  8
AM_0
100
AcDbLine
 10
4.760000000000093
 20
-71.71975331142488
 30
0.0
 11
4.760000000000093
 21
-74.68082137603885
 31
0.0
  0
LINE
  5
B53C
102
{ACAD_REACTORS
330
B543
330
B548
102
}
330
1F
100
AcDbEntity
  8
AM_0
100
AcDbLine
 10
5.460000000000053
 20
-72.28082137603886
 30
0.0
 11
13.50000000000001
 21
-72.28082137603883
 31
0.0
  0
LINE
  5
B53D
102
{ACAD_REACTORS
330
B543
330
B548
102
}
330
1F
100
AcDbEntity
  8
AM_0
100
AcDbLine
 10
14.00000000000002
 20
-72.78082137603883
 30
0.0
 11
14.00000000000002
 21
-74.68082137603885
 31
0.0
  0
LINE
  5
B53E
102
{ACAD_REACTORS
330
B543
330
B548
102
}
330
1F
100
AcDbEntity
  8
AM_0
100
AcDbLine
 10
14.00000000000002
 20
-72.78082137603883
 30
0.0
 11
13.50000000000001
 21
-72.28082137603883
 31
0.0
  0
ARC
  5
B542
102
{ACAD_REACTORS
330
B543
330
B548
102
}
330
1F
100
AcDbEntity
  8
AM_0
100
AcDbCircle
 10
5.476472743909131
 20
-71.54027967044737
 30
0.0
 40
0.7407248942841038
100
AcDbArc
 50
194.0220090998286
 51
268.7257124429769
  0
LINE
  5
B546
102
{ACAD_REACTORS
330
B548
102
}
330
1F
100
AcDbEntity
  8
AM_0
100
AcDbLine
 10
0.3500360512535864
 20
-74.76082137603885
 30
0.0
 11
1.725000000000125
 21
-74.76082137603885
 31
0.0
  0
LINE
  5
B549
330
1F
100
AcDbEntity
  8
AM_5
100
AcDbLine
 10
169.9999999999999
 20
-70.88082137603887
 30
0.0
 11
169.9999999999999
 21
0.2499619237890659
 31
0.0
  0
LINE
  5
B54A
330
1F
100
AcDbEntity
  8
AM_5
100
AcDbLine
 10
-0.0000000000000008
 20
0.2499619237891009
 30
0.0
 11
0.0000000000001042
 21
-70.87989100235936
 31
0.0
  0
DIMENSION
  5
B54B
330
1F
100
AcDbEntity
  8
AM_5
100
AcDbDimension
  2
*D11
 10
0.0000000000000516
 20
-37.01996108028595
 30
0.0
 11
84.99999999999998
 21
-33.61996108028595
 31
0.0
 70
    32
 71
     5
 42
169.9999999999998
  3
AM_JIS$0
100
AcDbAlignedDimension
 13
169.9999999999999
 23
-35.31542972612489
 33
0.0
 14
0.0000000000000517
 24
-35.3154297261251
 34
0.0
 50
180.0
100
AcDbRotatedDimension
  0
DIMENSION
  5
B558
330
1F
100
AcDbEntity
  8
AM_5
100
AcDbDimension
  2
*D12
 10
-23.02186383005398
 20
-102.8808213760388
 30
0.0
 11
-26.422237845802
 21
-86.88035618919908
 31
0.0
 70
    32
 71
     5
 42
32.00093037367944
  3
AM_JIS$0
100
AcDbAlignedDimension
 13
0.0000000000001042
 23
-70.87989100235936
 33
0.0
 14
9.253300505255676
 24
-102.8808213760388
 34
0.0
 50
270.0
100
AcDbRotatedDimension
  0
DIMENSION
  5
B582
330
1F
100
AcDbEntity
  8
AM_5
100
AcDbDimension
  2
*D13
 10
192.6052578975854
 20
-102.8808213760388
 30
0.0
 11
189.2048838818374
 21
-86.88082137603881
 31
0.0
 70
    32
 71
     5
 42
31.99999999999994
  3
AM_JIS$0
100
AcDbAlignedDimension
 13
169.9999999999999
 23
-70.88082137603887
 33
0.0
 14
169.9999999999999
 24
-102.8808213760388
 34
0.0
 50
270.0
100
AcDbRotatedDimension
  0
DIMENSION
  5
B58F
330
1F
100
AcDbEntity
  8
AM_5
100
AcDbDimension
  2
*D14
 10
189.848328581163
 20
31.99996192378905
 30
0.0
 11
186.4479545654149
 21
16.12496192378908
 31
0.0
 70
    32
 71
     5
 42
31.74999999999999
  3
AM_JIS$0
100
AcDbAlignedDimension
 13
169.9999999999999
 23
0.2499619237890659
 33
0.0
 14
169.9999999999999
 24
31.99996192378905
 34
0.0
 50
270.0
100
AcDbRotatedDimension
1001
ACAD
1000
DSTYLE
1002
{
1070
   271
1070
     0
1002
}
  0
DIMENSION
  5
B5A5
330
1F
100
AcDbEntity
  8
AM_5
100
AcDbDimension
  2
*D15
 10
-29.37790313367583
 20
0.0000000000000082
 30
0.0
 11
-32.77827714942386
 21
15.99998096189455
 31
0.0
 70
    32
 71
     5
 42
31.99996192378911
  3
AM_JIS$0
100
AcDbAlignedDimension
 13
39.49999999999997
 23
31.9999619237891
 33
0.0
 14
0.2543631016093278
 24
-0.0000000000000002
 34
0.0
 50
270.0
100
AcDbRotatedDimension
  0
DIMENSION
  5
B5B2
330
1F
100
AcDbEntity
  8
AM_5
100
AcDbDimension
  2
*D16
 10
-19.28022853470707
 20
-0.0000380762108936
 30
0.0
 11
-19.28022853470707
 21
4.000560075546079
 31
0.0
 70
   160
 71
     5
 42
8.001196303513941
  3
AM_JIS$0
100
AcDbAlignedDimension
 13
0.2500000000000002
 23
8.001158227303042
 33
0.0
 14
0.2499999999999992
 24
-0.0000380762108991
 34
0.0
 50
270.0
100
AcDbRotatedDimension
  0
LINE
  5
B62C
330
1F
100
AcDbEntity
  8
AM_0
100
AcDbLine
 10
13.99999999999997
 20
0.8893823769170188
 30
0.0
 11
13.99999999999997
 21
1.083583862941073
 31
0.0
  0
LINE
  5
B62D
330
1F
100
AcDbEntity
  8
AM_0
100
AcDbLine
 10
5.659227787671164
 20
0.8893823769170198
 30
0.0
 11
13.99922778767134
 21
0.8893823769170188
 31
0.0
  0
LINE
  5
B62E
330
1F
100
AcDbEntity
  8
AM_0
100
AcDbLine
 10
13.99999999999997
 20
6.336339984637101
 30
0.0
 11
13.99999999999997
 21
7.105560075546069
 31
0.0
  0
ENDSEC
  0
SECTION
  2
OBJECTS
  0
DICTIONARY
  5
C
330
0
100
AcDbDictionary
281
     1
  3
ACAD_COLOR
350
B6D2
  3
ACAD_GROUP
350
D
  3
ACAD_LAYOUT
350
1A
  3
ACAD_MATERIAL
350
B6D1
  3
ACAD_MLINESTYLE
350
17
  3
ACAD_PLOTSETTINGS
350
19
  3
ACAD_PLOTSTYLENAME
350
E
  3
ACAD_TABLESTYLE
350
B6D3
  3
ACDBHEADERROUNDTRIPXREC
350
B778
  3
ACDBVARIABLEDICTIONARY
350
30
  3
ACMDICTIONARY
350
4D
  3
AMG
350
3F
  3
AMGSNAPSETTINGS
350
73
  3
DWGPROPS
350
B777
  3
ENG_DATA
350
21C6
  3
FILENAME
350
21C9
  3
HOLD_DIC_DATA
350
21C4
  3
TABLE_DIC_DATA
350
1C0B
  3
ZWKSIZE
350
21CB
  0
DICTIONARY
  5
165
330
1F
100
AcDbDictionary
280
     1
281
     1
  3
ACAD_INDEX
360
B697
  3
ACAD_LAYOUTSELFREF
360
B6CA
  0
DICTIONARY
  5
B6C8
330
1B
100
AcDbDictionary
280
     1
281
     1
  3
ACAD_LAYOUTSELFREF
360
B6C9
  0
DICTIONARY
  5
B6D2
102
{ACAD_REACTORS
330
C
102
}
330
C
100
AcDbDictionary
281
     1
  0
DICTIONARY
  5
D
102
{ACAD_REACTORS
330
C
102
}
330
C
100
AcDbDictionary
281
     1
  3
*A1
350
7C0D
  3
*A10
350
B241
  3
*A11
350
B439
  3
*A12
350
B4FE
  3
*A2
350
B501
  3
*A3
350
B543
  3
*A4
350
B548
  3
*A5
350
7C0E
  3
*A6
350
7FE3
  3
*A7
350
8E0E
  3
*A8
350
B1C8
  3
*A9
350
B1E1
  0
DICTIONARY
  5
1A
102
{ACAD_REACTORS
330
C
102
}
330
C
100
AcDbDictionary
281
     1
  3
Model
350
B6D5
  3
レイアウト1
350
B6D6
  0
DICTIONARY
  5
B6D1
102
{ACAD_REACTORS
330
C
102
}
330
C
100
AcDbDictionary
281
     1
  0
DICTIONARY
  5
17
102
{ACAD_REACTORS
330
C
102
}
330
C
100
AcDbDictionary
281
     1
  3
STANDARD
350
18
  0
DICTIONARY
  5
19
102
{ACAD_REACTORS
330
C
102
}
330
C
100
AcDbDictionary
281
     1
  0
ACDBDICTIONARYWDFLT
  5
E
102
{ACAD_REACTORS
330
C
102
}
330
C
100
AcDbDictionary
281
     1
  3
Normal
350
F
100
AcDbDictionaryWithDefault
340
F
  0
DICTIONARY
  5
B6D3
102
{ACAD_REACTORS
330
C
102
}
330
C
100
AcDbDictionary
281
     1
  3
Standard
350
B6D4
  0
DICTIONARY
  5
B778
102
{ACAD_REACTORS
330
C
102
}
330
C
100
AcDbDictionary
281
     1
  0
DICTIONARY
  5
30
102
{ACAD_REACTORS
330
C
102
}
330
C
100
AcDbDictionary
281
     1
  3
CTABLESTYLE
350
B773
  3
DIMASSOC
350
B774
  3
INDEXCTL
350
31
  3
PROJECTNAME
350
B775
  3
SORTENTS
350
42BE
  0
DICTIONARY
  5
4D
102
{ACAD_REACTORS
330
C
102
}
330
C
100
AcDbDictionary
281
     1
  3
ACMSTDDICTIONARY
350
17E
  0
DICTIONARY
  5
3F
102
{ACAD_REACTORS
330
C
102
}
330
C
100
AcDbDictionary
281
     1
  0
DICTIONARY
  5
73
102
{ACAD_REACTORS
330
C
102
}
330
C
100
AcDbDictionary
281
     1
  0
XRECORD
  5
B777
102
{ACAD_REACTORS
330
C
102
}
330
C
100
AcDbXrecord
280
     1
  1
DWGPROPS COOKIE
  2

  3

  4

  6

  7

  8

  9

300
AmdtFileType=82
301
=
302
=
303
=
304
=
305
=
306
=
307
=
308
=
309
=
 40
1.403600405092592
 41
2451943.610431666
 42
2455602.326902315
  1

 90
        1
  0
DICTIONARY
  5
21C6
102
{ACAD_REACTORS
330
C
102
}
330
C
100
AcDbDictionary
281
     1
  3
ENG_ID
350
21C7
  0
DICTIONARY
  5
21C9
102
{ACAD_REACTORS
330
C
102
}
330
C
100
AcDbDictionary
281
     1
  3
FILENAME
350
21CA
  0
DICTIONARY
  5
21C4
102
{ACAD_REACTORS
330
C
102
}
330
C
100
AcDbDictionary
281
     1
  3
HOLD_DATA
350
21C5
  0
DICTIONARY
  5
1C0B
102
{ACAD_REACTORS
330
C
102
}
330
C
100
AcDbDictionary
281
     1
  3
INPUT_DATA
350
1C0D
  3
TABLE_DATA
350
1C0C
  0
DICTIONARY
  5
21CB
102
{ACAD_REACTORS
330
C
102
}
330
C
100
AcDbDictionary
281
     1
  3
ZWKSIZE
350
21CC
  0
DICTIONARY
  5
B697
102
{ACAD_REACTORS
330
165
102
}
330
165
100
AcDbDictionary
281
     1
  3
*A1
350
B698
  0
XRECORD
  5
B6CA
102
{ACAD_REACTORS
330
165
102
}
330
165
100
AcDbXrecord
280
     1
340
1F
  0
XRECORD
  5
B6C9
102
{ACAD_REACTORS
330
B6C8
102
}
330
B6C8
100
AcDbXrecord
280
     1
340
1B
  0
GROUP
  5
7C0D
102
{ACAD_REACTORS
330
D
102
}
330
D
100
AcDbGroup
300

 70
     1
 71
     1
  0
GROUP
  5
B241
102
{ACAD_REACTORS
330
D
102
}
330
D
100
AcDbGroup
300

 70
     1
 71
     1
  0
GROUP
  5
B439
102
{ACAD_REACTORS
330
D
102
}
330
D
100
AcDbGroup
300

 70
     1
 71
     1
  0
GROUP
  5
B4FE
102
{ACAD_REACTORS
330
D
102
}
330
D
100
AcDbGroup
300

 70
     1
 71
     1
340
B4F3
340
B4EF
340
B4E5
340
B4FD
340
B4EE
340
B4FC
340
B4ED
  0
GROUP
  5
B501
102
{ACAD_REACTORS
330
D
102
}
330
D
100
AcDbGroup
300

 70
     1
 71
     1
340
B4F3
340
B4E5
340
B4EF
340
B4EE
340
B500
340
B4FD
340
B4ED
340
B4FF
340
B4FC
  0
GROUP
  5
B543
102
{ACAD_REACTORS
330
D
102
}
330
D
100
AcDbGroup
300

 70
     1
 71
     1
340
B542
340
B539
340
B53E
340
B538
340
B537
340
B53D
340
B53C
340
B536
  0
GROUP
  5
B548
102
{ACAD_REACTORS
330
D
102
}
330
D
100
AcDbGroup
300

 70
     1
 71
     1
340
B542
340
B539
340
B53E
340
B538
340
B537
340
B546
340
B53D
340
B53C
340
B536
  0
GROUP
  5
7C0E
102
{ACAD_REACTORS
330
D
102
}
330
D
100
AcDbGroup
300

 70
     1
 71
     1
  0
GROUP
  5
7FE3
102
{ACAD_REACTORS
330
D
102
}
330
D
100
AcDbGroup
300

 70
     1
 71
     1
  0
GROUP
  5
8E0E
102
{ACAD_REACTORS
330
D
102
}
330
D
100
AcDbGroup
300

 70
     1
 71
     1
  0
GROUP
  5
B1C8
102
{ACAD_REACTORS
330
D
102
}
330
D
100
AcDbGroup
300

 70
     1
 71
     1
  0
GROUP
  5
B1E1
102
{ACAD_REACTORS
330
D
102
}
330
D
100
AcDbGroup
300

 70
     1
 71
     1
  0
LAYOUT
  5
B6D5
102
{ACAD_XDICTIONARY
360
B779
102
}
102
{ACAD_REACTORS
330
1A
102
}
330
1A
100
AcDbPlotSettings
  1

  2
SII LP-1010 (C2 VR)2R
  4

  6

 40
0.0
 41
0.0
 42
0.0
 43
0.0
 44
0.0
 45
0.0
 46
0.0
 47
0.0
 48
0.0
 49
0.0
140
0.0
141
0.0
142
1.0
143
1.0
 70
  1712
 72
     0
 73
     0
 74
     0
  7
sei_cad.ctb
 75
     0
147
1.0
148
0.0
149
0.0
100
AcDbLayout
  1
Model
 70
     1
 71
     0
 10
0.0
 20
0.0
 11
12.0
 21
9.0
 12
0.0
 22
0.0
 32
0.0
 14
0.0
 24
0.0
 34
0.0
 15
0.0
 25
0.0
 35
0.0
146
0.0
 13
0.0
 23
0.0
 33
0.0
 16
1.0
 26
0.0
 36
0.0
 17
0.0
 27
1.0
 37
0.0
 76
     0
330
1F
  0
LAYOUT
  5
B6D6
102
{ACAD_XDICTIONARY
360
B77B
102
}
102
{ACAD_REACTORS
330
1A
102
}
330
1A
100
AcDbPlotSettings
  1

  2
SII LP-1010 (C2 VR)2R
  4

  6

 40
0.0
 41
0.0
 42
0.0
 43
0.0
 44
0.0
 45
0.0
 46
0.0
 47
0.0
 48
0.0
 49
0.0
140
0.0
141
0.0
142
1.0
143
1.0
 70
   688
 72
     0
 73
     0
 74
     5
  7
sei_cad.ctb
 75
    16
147
1.0
148
0.0
149
0.0
100
AcDbLayout
  1
レイアウト1
 70
     1
 71
     1
 10
0.0
 20
0.0
 11
420.0
 21
297.0
 12
0.0
 22
0.0
 32
0.0
 14
1.000000000000000E+20
 24
1.000000000000000E+20
 34
1.000000000000000E+20
 15
-1.000000000000000E+20
 25
-1.000000000000000E+20
 35
-1.000000000000000E+20
146
0.0
 13
0.0
 23
0.0
 33
0.0
 16
1.0
 26
0.0
 36
0.0
 17
0.0
 27
1.0
 37
0.0
 76
     0
330
1B
  0
MLINESTYLE
  5
18
102
{ACAD_REACTORS
330
17
102
}
330
17
100
AcDbMlineStyle
  2
STANDARD
 70
     0
  3

 62
   256
 51
90.0
 52
90.0
 71
     2
 49
0.5
 62
   256
  6
BYLAYER
 49
-0.5
 62
   256
  6
BYLAYER
  0
ACDBPLACEHOLDER
  5
F
102
{ACAD_REACTORS
330
E
102
}
330
E
  0
TABLESTYLE
  5
B6D4
102
{ACAD_REACTORS
330
B6D3
102
}
330
B6D3
100
AcDbTableStyle
  3
Standard
 70
     0
 71
     0
 40
1.5
 41
1.5
280
     0
281
     0
  7
STANDARD
140
4.5
170
     2
 62
     0
 63
     7
283
     0
274
    -2
284
     1
 64
     0
275
    -2
285
     1
 65
     0
276
    -2
286
     1
 66
     0
277
    -2
287
     1
 67
     0
278
    -2
288
     1
 68
     0
279
    -2
289
     1
 69
     0
  7
STANDARD
140
6.0
170
     5
 62
     0
 63
     7
283
     0
274
    -2
284
     1
 64
     0
275
    -2
285
     1
 65
     0
276
    -2
286
     1
 66
     0
277
    -2
287
     1
 67
     0
278
    -2
288
     1
 68
     0
279
    -2
289
     1
 69
     0
  7
STANDARD
140
4.5
170
     5
 62
     0
 63
     7
283
     0
274
    -2
284
     1
 64
     0
275
    -2
285
     1
 65
     0
276
    -2
286
     1
 66
     0
277
    -2
287
     1
 67
     0
278
    -2
288
     1
 68
     0
279
    -2
289
     1
 69
     0
  0
DICTIONARYVAR
  5
B773
102
{ACAD_REACTORS
330
30
102
}
330
30
100
DictionaryVariables
280
     0
  1
STANDARD
  0
DICTIONARYVAR
  5
B774
102
{ACAD_REACTORS
330
30
102
}
330
30
100
DictionaryVariables
280
     0
  1
1
  0
DICTIONARYVAR
  5
31
102
{ACAD_REACTORS
330
30
102
}
330
30
100
DictionaryVariables
280
     0
  1
1
  0
DICTIONARYVAR
  5
B775
102
{ACAD_REACTORS
330
30
102
}
330
30
100
DictionaryVariables
280
     0
  1

  0
DICTIONARYVAR
  5
42BE
102
{ACAD_REACTORS
330
30
102
}
330
30
100
DictionaryVariables
280
     0
  1
96
  0
DICTIONARY
  5
17E
102
{ACAD_REACTORS
330
4D
102
}
330
4D
100
AcDbDictionary
281
     1
  0
XRECORD
  5
21C7
102
{ACAD_REACTORS
330
21C6
102
}
330
21C6
100
AcDbXrecord
280
     1
  1
HOLD
  0
XRECORD
  5
21CA
102
{ACAD_REACTORS
330
21C9
102
}
330
21C9
100
AcDbXrecord
280
     1
  1
21000065__00___
  0
XRECORD
  5
21C5
102
{ACAD_REACTORS
330
21C4
102
}
330
21C4
100
AcDbXrecord
280
     1
  1
クランクシャフト加工用 ^M^J１コーナー型 ^M^J15.875 ^M^J20 ^M^Jクランプオン ^M^J９０° ^M^J1 ^M^J鋼 ^M^J ^M^J ^M^J ^M^J ^M^J
  0
XRECORD
  5
1C0D
102
{ACAD_REACTORS
330
1C0B
102
}
330
1C0B
100
AcDbXrecord
280
     1
  1
1,,,,,,,,,^M^J2,,,,,,,,,^M^J3,,,,,,,,,^M^J4,,,,,,,,,^M^J5,,,,,,,,,^M^J6,,,,,,,,,^M^J7,,,,,,,,,^M^J8,,,,,,,,,^M^J9,,,,,,,,,^M^J10,,,,,,,,,
  0
XRECORD
  5
1C0C
102
{ACAD_REACTORS
330
1C0B
102
}
330
1C0B
100
AcDbXrecord
280
     1
  1
10,10
  0
XRECORD
  5
21CC
102
{ACAD_REACTORS
330
21CB
102
}
330
21CB
100
AcDbXrecord
280
     1
  1
3
  0
LAYER_INDEX
  5
B698
102
{ACAD_REACTORS
330
B697
102
}
330
B697
100
AcDbIndex
 40
2455602.326902315
100
AcDbLayerIndex
  8
0
360
B699
 90
        0
  8
AM_5
360
B69A
 90
        8
  8
DEFPOINTS
360
B69B
 90
        0
  8
AM_0
360
B69C
 90
       56
  8
AM_6
360
B69D
 90
        1
  8
AM_7
360
B69E
 90
        5
  0
DICTIONARY
  5
B779
330
B6D5
100
AcDbDictionary
280
     1
281
     1
  3
ACAD_XREC_ROUNDTRIP
360
B77A
  0
DICTIONARY
  5
B77B
330
B6D6
100
AcDbDictionary
280
     1
281
     1
  3
ACAD_XREC_ROUNDTRIP
360
B77C
  0
IDBUFFER
  5
B699
330
0
100
AcDbIdBuffer
  0
IDBUFFER
  5
B69A
330
0
100
AcDbIdBuffer
330
B549
330
B54A
330
B54B
330
B558
330
B582
330
B58F
330
B5A5
330
B5B2
  0
IDBUFFER
  5
B69B
330
0
100
AcDbIdBuffer
  0
IDBUFFER
  5
B69C
330
0
100
AcDbIdBuffer
330
B4DF
330
B4E0
330
B4E2
330
B4E3
330
B4E5
330
B4E8
330
B4E9
330
B4EA
330
B4ED
330
B4EE
330
B4EF
330
B4F3
330
B4FC
330
B4FD
330
B4FF
330
B500
330
B503
330
B504
330
B508
330
B509
330
B50A
330
B50B
330
B50C
330
B50D
330
B50F
330
B510
330
B511
330
B512
330
B513
330
B514
330
B516
330
B518
330
B51A
330
B51B
330
B51C
330
B51D
330
B51E
330
B520
330
B521
330
B522
330
B523
330
B524
330
B532
330
B533
330
B536
330
B537
330
B538
330
B539
330
B53C
330
B53D
330
B53E
330
B542
330
B546
330
B62C
330
B62D
330
B62E
  0
IDBUFFER
  5
B69D
330
0
100
AcDbIdBuffer
330
83BD
  0
IDBUFFER
  5
B69E
330
0
100
AcDbIdBuffer
330
B4E7
330
B4EB
330
B4EC
330
B525
330
B526
  0
XRECORD
  5
B77A
102
{ACAD_REACTORS
330
B779
102
}
330
B779
100
AcDbXrecord
280
     1
102
SHADEPLOT
 70
     0
102
SHADEPLOTRESLEVEL
 70
     2
102
SHADEPLOTCUSTOMDPI
 70
   300
  0
XRECORD
  5
B77C
102
{ACAD_REACTORS
330
B77B
102
}
330
B77B
100
AcDbXrecord
280
     1
102
SHADEPLOT
 70
     0
102
SHADEPLOTRESLEVEL
 70
     2
102
SHADEPLOTCUSTOMDPI
 70
   300
  0
ENDSEC
  0
EOF
