  0
SECTION
  2
HEADER
  9
$ACADVER
  1
AC1015
  9
$ACADMAINTVER
 70
    20
  9
$DWGCODEPAGE
  3
ANSI_932
  9
$INSBASE
 10
0.0
 20
0.0
 30
0.0
  9
$EXTMIN
 10
-94.72450759656874
 20
-102.8886834196165
 30
-0.0000000349181948
  9
$EXTMAX
 10
169.6082536770069
 20
24.99620142429092
 30
0.0000000814935747
  9
$LIMMIN
 10
-215.2732344171181
 20
-103.3026303667252
  9
$LIMMAX
 10
139.3493213600286
 20
126.5989968699659
  9
$ORTHOMODE
 70
     0
  9
$REGENMODE
 70
     1
  9
$FILLMODE
 70
     1
  9
$QTEXTMODE
 70
     0
  9
$MIRRTEXT
 70
     1
  9
$LTSCALE
 40
1.0
  9
$ATTMODE
 70
     1
  9
$TEXTSIZE
 40
2.5
  9
$TRACEWID
 40
1.0
  9
$TEXTSTYLE
  7
STANDARD
  9
$CLAYER
  8
AM_5
  9
$CELTYPE
  6
BYLAYER
  9
$CECOLOR
 62
   256
  9
$CELTSCALE
 40
1.0
  9
$DISPSILH
 70
     0
  9
$DIMSCALE
 40
1.0
  9
$DIMASZ
 40
2.5
  9
$DIMEXO
 40
0.0
  9
$DIMDLI
 40
10.0
  9
$DIMRND
 40
0.0
  9
$DIMDLE
 40
0.0
  9
$DIMEXE
 40
1.0
  9
$DIMTP
 40
0.1
  9
$DIMTM
 40
0.1000000001
  9
$DIMTXT
 40
3.799999999999998
  9
$DIMCEN
 40
0.0
  9
$DIMTSZ
 40
0.0
  9
$DIMTOL
 70
     0
  9
$DIMLIM
 70
     0
  9
$DIMTIH
 70
     0
  9
$DIMTOH
 70
     0
  9
$DIMSE1
 70
     0
  9
$DIMSE2
 70
     0
  9
$DIMTAD
 70
     3
  9
$DIMZIN
 70
     9
  9
$DIMBLK
  1
Open30
  9
$DIMASO
 70
     1
  9
$DIMSHO
 70
     1
  9
$DIMPOST
  1

  9
$DIMAPOST
  1
"
  9
$DIMALT
 70
     0
  9
$DIMALTD
 70
     2
  9
$DIMALTF
 40
0.0393701
  9
$DIMLFAC
 40
1.0
  9
$DIMTOFL
 70
     1
  9
$DIMTVP
 40
0.0
  9
$DIMTIX
 70
     0
  9
$DIMSOXD
 70
     0
  9
$DIMSAH
 70
     0
  9
$DIMBLK1
  1

  9
$DIMBLK2
  1

  9
$DIMSTYLE
  2
AM_JIS
  9
$DIMCLRD
 70
   256
  9
$DIMCLRE
 70
   256
  9
$DIMCLRT
 70
     2
  9
$DIMTFAC
 40
0.71
  9
$DIMGAP
 40
1.5
  9
$DIMJUST
 70
     0
  9
$DIMSD1
 70
     0
  9
$DIMSD2
 70
     0
  9
$DIMTOLJ
 70
     0
  9
$DIMTZIN
 70
     8
  9
$DIMALTZ
 70
     0
  9
$DIMALTTZ
 70
     0
  9
$DIMUPT
 70
     0
  9
$DIMDEC
 70
     2
  9
$DIMTDEC
 70
     2
  9
$DIMALTU
 70
     2
  9
$DIMALTTD
 70
     2
  9
$DIMTXSTY
  7
STANDARD
  9
$DIMAUNIT
 70
     1
  9
$DIMADEC
 70
     1
  9
$DIMALTRND
 40
0.0
  9
$DIMAZIN
 70
     2
  9
$DIMDSEP
 70
    46
  9
$DIMATFIT
 70
     3
  9
$DIMFRAC
 70
     0
  9
$DIMLDRBLK
  1
Open30
  9
$DIMLUNIT
 70
     2
  9
$DIMLWD
 70
    -1
  9
$DIMLWE
 70
    -1
  9
$DIMTMOVE
 70
     0
  9
$LUNITS
 70
     2
  9
$LUPREC
 70
     2
  9
$SKETCHINC
 40
1.0
  9
$FILLETRAD
 40
0.0
  9
$AUNITS
 70
     1
  9
$AUPREC
 70
     5
  9
$MENU
  1
.
  9
$ELEVATION
 40
0.0
  9
$PELEVATION
 40
0.0
  9
$THICKNESS
 40
0.0
  9
$LIMCHECK
 70
     0
  9
$CHAMFERA
 40
0.0
  9
$CHAMFERB
 40
0.0
  9
$CHAMFERC
 40
20.0
  9
$CHAMFERD
 40
0.0
  9
$SKPOLY
 70
     0
  9
$TDCREATE
 40
2451943.610431666
  9
$TDUCREATE
 40
2451943.235431667
  9
$TDUPDATE
 40
2455603.346945706
  9
$TDUUPDATE
 40
2455602.971945706
  9
$TDINDWG
 40
0.9122061111
  9
$TDUSRTIMER
 40
0.9122057523
  9
$USRTIMER
 70
     1
  9
$ANGBASE
 50
0.0
  9
$ANGDIR
 70
     0
  9
$PDMODE
 70
     0
  9
$PDSIZE
 40
0.0
  9
$PLINEWID
 40
0.0
  9
$SPLFRAME
 70
     0
  9
$SPLINETYPE
 70
     6
  9
$SPLINESEGS
 70
     8
  9
$HANDSEED
  5
ADDF
  9
$SURFTAB1
 70
     6
  9
$SURFTAB2
 70
     6
  9
$SURFTYPE
 70
     6
  9
$SURFU
 70
     6
  9
$SURFV
 70
     6
  9
$UCSBASE
  2

  9
$UCSNAME
  2

  9
$UCSORG
 10
0.0
 20
0.0
 30
0.0
  9
$UCSXDIR
 10
1.0
 20
0.0
 30
0.0
  9
$UCSYDIR
 10
0.0
 20
1.0
 30
0.0
  9
$UCSORTHOREF
  2

  9
$UCSORTHOVIEW
 70
     0
  9
$UCSORGTOP
 10
0.0
 20
0.0
 30
0.0
  9
$UCSORGBOTTOM
 10
0.0
 20
0.0
 30
0.0
  9
$UCSORGLEFT
 10
0.0
 20
0.0
 30
0.0
  9
$UCSORGRIGHT
 10
0.0
 20
0.0
 30
0.0
  9
$UCSORGFRONT
 10
0.0
 20
0.0
 30
0.0
  9
$UCSORGBACK
 10
0.0
 20
0.0
 30
0.0
  9
$PUCSBASE
  2

  9
$PUCSNAME
  2

  9
$PUCSORG
 10
0.0
 20
0.0
 30
0.0
  9
$PUCSXDIR
 10
1.0
 20
0.0
 30
0.0
  9
$PUCSYDIR
 10
0.0
 20
1.0
 30
0.0
  9
$PUCSORTHOREF
  2

  9
$PUCSORTHOVIEW
 70
     0
  9
$PUCSORGTOP
 10
0.0
 20
0.0
 30
0.0
  9
$PUCSORGBOTTOM
 10
0.0
 20
0.0
 30
0.0
  9
$PUCSORGLEFT
 10
0.0
 20
0.0
 30
0.0
  9
$PUCSORGRIGHT
 10
0.0
 20
0.0
 30
0.0
  9
$PUCSORGFRONT
 10
0.0
 20
0.0
 30
0.0
  9
$PUCSORGBACK
 10
0.0
 20
0.0
 30
0.0
  9
$USERI1
 70
     0
  9
$USERI2
 70
     0
  9
$USERI3
 70
     0
  9
$USERI4
 70
     0
  9
$USERI5
 70
     0
  9
$USERR1
 40
0.0
  9
$USERR2
 40
0.0
  9
$USERR3
 40
0.0
  9
$USERR4
 40
0.0
  9
$USERR5
 40
0.0
  9
$WORLDVIEW
 70
     1
  9
$SHADEDGE
 70
     3
  9
$SHADEDIF
 70
    70
  9
$TILEMODE
 70
     1
  9
$MAXACTVP
 70
    64
  9
$PINSBASE
 10
0.0
 20
0.0
 30
0.0
  9
$PLIMCHECK
 70
     0
  9
$PEXTMIN
 10
1.000000000000000E+20
 20
1.000000000000000E+20
 30
1.000000000000000E+20
  9
$PEXTMAX
 10
-1.000000000000000E+20
 20
-1.000000000000000E+20
 30
-1.000000000000000E+20
  9
$PLIMMIN
 10
0.0
 20
0.0
  9
$PLIMMAX
 10
420.0
 20
297.0
  9
$UNITMODE
 70
     0
  9
$VISRETAIN
 70
     1
  9
$PLINEGEN
 70
     0
  9
$PSLTSCALE
 70
     1
  9
$TREEDEPTH
 70
  3020
  9
$CMLSTYLE
  2
STANDARD
  9
$CMLJUST
 70
     0
  9
$CMLSCALE
 40
20.0
  9
$PROXYGRAPHICS
 70
     1
  9
$MEASUREMENT
 70
     1
  9
$CELWEIGHT
370
    -1
  9
$ENDCAPS
280
     0
  9
$JOINSTYLE
280
     0
  9
$LWDISPLAY
290
     0
  9
$INSUNITS
 70
     4
  9
$HYPERLINKBASE
  1

  9
$STYLESHEET
  1
SEI_CAD.CTB
  9
$XEDIT
290
     1
  9
$CEPSNTYPE
380
     0
  9
$PSTYLEMODE
290
     1
  9
$FINGERPRINTGUID
  2
{C77AB3BE-9CA2-11D3-BAF3-006094EB760E}
  9
$VERSIONGUID
  2
{23DFAC75-15C8-4969-AF62-9010D9A5A988}
  9
$EXTNAMES
290
     1
  9
$PSVPSCALE
 40
0.0
  9
$OLESTARTUP
290
     0
  0
ENDSEC
  0
SECTION
  2
CLASSES
  0
CLASS
  1
ACDBDICTIONARYWDFLT
  2
AcDbDictionaryWithDefault
  3
ObjectDBX Classes
 90
        0
280
     0
281
     0
  0
CLASS
  1
ACDBPLACEHOLDER
  2
AcDbPlaceHolder
  3
ObjectDBX Classes
 90
        0
280
     0
281
     0
  0
CLASS
  1
LAYOUT
  2
AcDbLayout
  3
ObjectDBX Classes
 90
        0
280
     0
281
     0
  0
CLASS
  1
ACME_DOCUMENT
  2
AcMeDbDoc
  3
AcMeServices
 90
        0
280
     0
281
     0
  0
CLASS
  1
ACMESCOPE
  2
AcMeScope
  3
AcMeServices
 90
        0
280
     0
281
     0
  0
CLASS
  1
ACMECOMMANDHISTORY
  2
AcMeCommandHistory
  3
AcMeServices
 90
        0
280
     0
281
     0
  0
CLASS
  1
DICTIONARYVAR
  2
AcDbDictionaryVar
  3
ObjectDBX Classes
 90
        0
280
     0
281
     0
  0
CLASS
  1
ACIMSYSVARMAN
  2
AcImSysVarManager
  3
AcMeServices
 90
        0
280
     0
281
     0
  0
CLASS
  1
ACIMREALSYSVAR
  2
AcImRealSysVar
  3
AcMeServices
 90
        0
280
     0
281
     0
  0
CLASS
  1
ACIMINTSYSVAR
  2
AcImIntSysVar
  3
AcMeServices
 90
        0
280
     0
281
     0
  0
CLASS
  1
ACMEDRAWINGMAN
  2
AcMeDrawingMan
  3
AcMeServices
 90
        0
280
     0
281
     0
  0
CLASS
  1
ACMEVIEW
  2
AcMeView
  3
AcMeServices
 90
        0
280
     0
281
     0
  0
CLASS
  1
ACDBENTITYCACHE
  2
AcMeEntityCache
  3
AcMeServices
 90
        0
280
     0
281
     0
  0
CLASS
  1
GSMANAGER
  2
AcMeGSManager
  3
AcMeServices
 90
        0
280
     0
281
     0
  0
CLASS
  1
AMDTINTERNALREACTOR
  2
AmdtInternalReactor
  3
AcMeServices
 90
        0
280
     0
281
     0
  0
CLASS
  1
ACMESTATEMGR
  2
AcMeStateMgr
  3
AcMeServices
 90
        0
280
     0
281
     0
  0
CLASS
  1
ACME_DATABASE
  2
AcMeDbDatabase
  3
AcMeServices
 90
        0
280
     0
281
     0
  0
CLASS
  1
ACRFINSADJUSTERMGR
  2
AcRfInsAdjusterMgr
  3
AcMeServices
 90
        0
280
     0
281
     0
  0
CLASS
  1
AMGSETTINGSOBJ
  2
AmgSettingsObj
  3
"AcadM|Product Description: AutoCAD Mechanical 2000|Company: Autodesk"
 90
        0
280
     0
281
     0
  0
CLASS
  1
AMGOBJPROPCFG
  2
AmgObjPropCfg
  3
"AmgLay|Product Description: AutoCAD Mechanical 2000|Company: Autodesk"
 90
        1
280
     0
281
     0
  0
CLASS
  1
ACMDATADICTIONARY
  2
AcmDataDictionary
  3
"AcmSymBB|Product Description: AutoCAD Mechanical 2004 DX|Company: Autodesk"
 90
        0
280
     0
281
     0
  0
CLASS
  1
ACMDATAENTRYBLOCK
  2
AcmDataEntryBlock
  3
"AcmSymBB|Product Description: AutoCAD Mechanical 2004 DX|Company: Autodesk"
 90
    32768
280
     0
281
     0
  0
CLASS
  1
ACIMSTRSYSVAR
  2
AcImStrSysVar
  3
AcMeServices
 90
        0
280
     0
281
     0
  0
CLASS
  1
ACAMGFILTERDAT
  2
AcAmgFilterDat
  3
"AcadM|Product Description: AutoCAD Mechanical 2000|Company: Autodesk"
 90
    32768
280
     0
281
     0
  0
CLASS
  1
LAYER_INDEX
  2
AcDbLayerIndex
  3
ObjectDBX Classes
 90
        0
280
     0
281
     0
  0
CLASS
  1
IDBUFFER
  2
AcDbIdBuffer
  3
ObjectDBX Classes
 90
        0
280
     0
281
     0
  0
CLASS
  1
ACMSTANDARDJIS
  2
AcmStandardJIS
  3
"Amdt_StdImp|Product Description: AutoCAD Mechanical 2004 DX|Company: Autodesk"
 90
    32768
280
     0
281
     0
  0
CLASS
  1
ACMSURFSTANDARDJIS
  2
AcmSurfTextStdJIS
  3
"Amdt_StdImp|Product Description: AutoCAD Mechanical 2004 DX|Company: Autodesk"
 90
    32768
280
     0
281
     0
  0
CLASS
  1
ACMFCFSTANDARDJIS
  2
AcmFCFStdJIS
  3
"Amdt_StdImp|Product Description: AutoCAD Mechanical 2004 DX|Company: Autodesk"
 90
    32768
280
     0
281
     0
  0
CLASS
  1
ACMWELDSTANDARDJIS
  2
AcmWeldingStdJIS
  3
"Amdt_StdImp|Product Description: AutoCAD Mechanical 2004 DX|Company: Autodesk"
 90
    32768
280
     0
281
     0
  0
CLASS
  1
ACMIDSTANDARDJIS
  2
AcmIdStdJIS
  3
"Amdt_StdImp|Product Description: AutoCAD Mechanical 2004 DX|Company: Autodesk"
 90
    32768
280
     0
281
     0
  0
CLASS
  1
ACMDATUMSTANDARDJIS
  2
AcmDatumStdJIS
  3
"Amdt_StdImp|Product Description: AutoCAD Mechanical 2004 DX|Company: Autodesk"
 90
    32768
280
     0
281
     0
  0
CLASS
  1
ACMBOMSTANDARDJIS
  2
AcmBOMStdJIS
  3
"Amdt_StdImp|Product Description: AutoCAD Mechanical 2004 DX|Company: Autodesk"
 90
    32768
280
     0
281
     0
  0
CLASS
  1
AMDTNOTE
  2
AmdtNote
  3
"AcmSymBB|Product Description: AutoCAD Mechanical 2004 DX|Company: Autodesk"
 90
    33791
280
     0
281
     1
  0
CLASS
  1
ACMDATAENTRYPART
  2
AcmDataEntryPart
  3
"AcmSymBB|Product Description: AutoCAD Mechanical 2004 DX|Company: Autodesk"
 90
    32768
280
     0
281
     0
  0
CLASS
  1
ACMPARTREF
  2
AcmPartRef
  3
"AcmSymBB|Product Description: AutoCAD Mechanical 2004 DX|Company: Autodesk"
 90
    33791
280
     0
281
     1
  0
CLASS
  1
ACDB_PROXY_ENTITY_DATA
  2
AcDbProxyEntityData
  3
ObjectDBX Classes
 90
    32768
280
     0
281
     0
  0
CLASS
  1
TABLESTYLE
  2
AcDbTableStyle
  3
ObjectDBX Classes
 90
     2047
280
     0
281
     0
  0
CLASS
  1
ACGREFMASTER
  2
AcGrefMaster
  3
AcAttribServices
 90
        0
280
     0
281
     0
  0
CLASS
  1
AM_DRAWING_MGR
  2
AcDmDwgMgr
  3
AcMechDwgViewMgmt
 90
        0
280
     0
281
     0
  0
CLASS
  1
AM_DWG_DOCUMENT
  2
AcDmDwgDocument
  3
AcMechDwgViewMgmt
 90
        0
280
     0
281
     0
  0
CLASS
  1
AM_DWG_SHEET
  2
AcDmSheet
  3
AcMechDwgViewMgmt
 90
        0
280
     0
281
     0
  0
CLASS
  1
AM_VIEWDIMPARMAP
  2
AcDmViewDimParMap
  3
AcMechDwgViewMgmt
 90
        0
280
     0
281
     0
  0
CLASS
  1
AM_DWGMGR_NAME
  2
AcDmDwgMgrName
  3
AcMechDwgViewMgmt
 90
        0
280
     0
281
     0
  0
CLASS
  1
ACGREFACADMASTER
  2
AcGrefacadMaster
  3
AcGrefServices
 90
        0
280
     0
281
     0
  0
CLASS
  1
AMDTMENUSTATEMGR
  2
AmdtMenuStateMgr
  3
McadcomServices
 90
        0
280
     0
281
     0
  0
CLASS
  1
AMDTMCOMMENUSTATE
  2
AmdtMcomMenuState
  3
McadcomServices
 90
        0
280
     0
281
     0
  0
CLASS
  1
AMIMASTER
  2
AmiMaster
  3
AmiServices
 90
        0
280
     0
281
     0
  0
CLASS
  1
MAPIAMMOUDLE
  2
MApiAmModule
  3
MApiAmServices
 90
        0
280
     0
281
     0
  0
CLASS
  1
AMDTADMENUSTATE
  2
AmdtAdMenuState
  3
DesignerServices
 90
        0
280
     0
281
     0
  0
CLASS
  1
ADAPPL
  2
AcAdAppl
  3
DesignerServices
 90
        0
280
     0
281
     0
  0
CLASS
  1
DEPMGR
  2
AcAdDepMgr
  3
DesignerServices
 90
        0
280
     0
281
     0
  0
CLASS
  1
PARAMMGR
  2
AcAdParamMgr
  3
DesignerServices
 90
        0
280
     0
281
     0
  0
CLASS
  1
PARAMSCOPE
  2
AcAdParamScope
  3
DesignerServices
 90
        0
280
     0
281
     0
  0
CLASS
  1
NAMEDAPPL
  2
AcAdNamedAppl
  3
DesignerServices
 90
        0
280
     0
281
     0
  0
CLASS
  1
AMDTDMMENUSTATE
  2
AmdtDmMenuState
  3
AcMechDwgViewMgmt
 90
        0
280
     0
281
     0
  0
CLASS
  1
AMDTAMMENUSTATE
  2
AmdtAmMenuState
  3
DesignerAssemblies
 90
        0
280
     0
281
     0
  0
CLASS
  1
ACAMPROJECT
  2
AcAmProject
  3
DesignerAssemblies
 90
        0
280
     0
281
     0
  0
CLASS
  1
ACAMGRCOMPDEF
  2
AcAmGrCompDef
  3
DesignerAssemblies
 90
        0
280
     0
281
     0
  0
CLASS
  1
ACCMCONTEXT
  2
AcCmContext
  3
DesignerAssemblies
 90
        0
280
     0
281
     0
  0
CLASS
  1
ACAMCOMPDEF
  2
AcAmCompDef
  3
DesignerAssemblies
 90
        0
280
     0
281
     0
  0
CLASS
  1
ACAMCOMPDEFMGR
  2
AcAmCompDefMgr
  3
DesignerAssemblies
 90
        0
280
     0
281
     0
  0
CLASS
  1
AMCONTEXTMGR
  2
AcAmContextMgr
  3
DesignerAssemblies
 90
        0
280
     0
281
     0
  0
CLASS
  1
ACAMCONTEXTMODELER
  2
AcAmContextModeler
  3
DesignerAssemblies
 90
        0
280
     0
281
     0
  0
CLASS
  1
CATALOGSTATE
  2
AcAmCatalogState
  3
DesignerAssemblies
 90
        0
280
     0
281
     0
  0
CLASS
  1
ACAMGRCOMPDEFSET
  2
AcAmGrCompDefSet
  3
DesignerAssemblies
 90
        0
280
     0
281
     0
  0
CLASS
  1
AMDTBROWSERDBTAB
  2
AmdtBrowserDbTab
  3
McadcomServices
 90
        0
280
     0
281
     0
  0
CLASS
  1
CBROWSERAPPOBJECT
  2
CBrowserAppObject
  3
McadcomServices
 90
        0
280
     0
281
     0
  0
CLASS
  1
DM_PLACEHOLDER
  2
AcDmSelsetPlaceholder
  3
AcMechDwgViewMgmt
 90
        0
280
     0
281
     0
  0
CLASS
  1
ACAMGTITLESTD
  2
AcAmgTitleStd
  3
"TITLEAPP"
 90
        0
280
     0
281
     0
  0
CLASS
  1
ACMDETAILSTANDARDJIS
  2
AmdtDetailSymStdJIS
  3
"Amdt_StdImp|Product Description: AutoCAD Mechanical 2004 DX|Company: Autodesk"
 90
    32768
280
     0
281
     0
  0
CLASS
  1
ACMSECTIONSTANDARDJIS
  2
AmdtSectionSymStdJIS
  3
"Amdt_StdImp|Product Description: AutoCAD Mechanical 2004 DX|Company: Autodesk"
 90
    32768
280
     0
281
     0
  0
CLASS
  1
ACMCENTERLINESTANDARDJIS
  2
AmdtCenterLineStdJIS
  3
"Amdt_StdImp|Product Description: AutoCAD Mechanical 2004 DX|Company: Autodesk"
 90
    32768
280
     0
281
     0
  0
CLASS
  1
ACMTHREADLINESTANDARDJIS
  2
AmdtThreadLineStdJIS
  3
"Amdt_StdImp|Product Description: AutoCAD Mechanical 2004 DX|Company: Autodesk"
 90
    32768
280
     0
281
     0
  0
CLASS
  1
ACMNOTESTANDARDJIS
  2
AmdtNoteStdJIS
  3
"Amdt_StdImp|Product Description: AutoCAD Mechanical 2004 DX|Company: Autodesk"
 90
    32768
280
     0
281
     0
  0
CLASS
  1
AMDTNOTETEMPLATEDB
  2
AmdtNoteTemplateDB
  3
AMDT_STDIMP_MODULE_NAME
 90
        0
280
     0
281
     0
  0
CLASS
  1
ACAMGLAYSTD
  2
AcAmgLayStd
  3
"AcAmgLayStd|Product Description: AutoCAD Mechanical 2000|Company: Autodesk"
 90
        0
280
     0
281
     0
  0
CLASS
  1
ACAMGDIMSTD
  2
AcAmgDimStd
  3
"AcAmgDimStd|Product Description: AutoCAD Mechanical 2000|Company: Autodesk"
 90
        0
280
     0
281
     0
  0
CLASS
  1
ACAMGHOLECHARTSTDJIS
  2
AcAmgHoleChartStdJIS
  3
ACMSYMBB_MODULE_NAME
 90
    32768
280
     0
281
     0
  0
CLASS
  1
ACMSTANDARDISO
  2
AcmStandardISO
  3
"Amdt_StdImp|Product Description: AutoCAD Mechanical 2004 DX|Company: Autodesk"
 90
        0
280
     0
281
     0
  0
CLASS
  1
AMDTEDGESTANDARDISO13715
  2
AmdtEdgeStdISO13715
  3
"Amdt_StdImp|Product Description: AutoCAD Mechanical 2004 DX|Company: Autodesk"
 90
        0
280
     0
281
     0
  0
CLASS
  1
ACMSURFSTANDARDISO
  2
AcmSurfTextStdISO
  3
"Amdt_StdImp|Product Description: AutoCAD Mechanical 2004 DX|Company: Autodesk"
 90
        0
280
     0
281
     0
  0
CLASS
  1
ACMFCFSTANDARDISO
  2
AcmFCFStdISO
  3
"Amdt_StdImp|Product Description: AutoCAD Mechanical 2004 DX|Company: Autodesk"
 90
        0
280
     0
281
     0
  0
CLASS
  1
ACMWELDSTANDARDISO
  2
AcmWeldingStdISO
  3
"Amdt_StdImp|Product Description: AutoCAD Mechanical 2004 DX|Company: Autodesk"
 90
        0
280
     0
281
     0
  0
CLASS
  1
ACMIDSTANDARDISO
  2
AcmIdStdISO
  3
"Amdt_StdImp|Product Description: AutoCAD Mechanical 2004 DX|Company: Autodesk"
 90
        0
280
     0
281
     0
  0
CLASS
  1
ACMDATUMSTANDARDISO
  2
AcmDatumStdISO
  3
"Amdt_StdImp|Product Description: AutoCAD Mechanical 2004 DX|Company: Autodesk"
 90
        0
280
     0
281
     0
  0
CLASS
  1
ACMBOMSTANDARDISO
  2
AcmBOMStdISO
  3
"Amdt_StdImp|Product Description: AutoCAD Mechanical 2004 DX|Company: Autodesk"
 90
        0
280
     0
281
     0
  0
CLASS
  1
ACMDETAILSTANDARDISO
  2
AmdtDetailSymStdISO
  3
"Amdt_StdImp|Product Description: AutoCAD Mechanical 2004 DX|Company: Autodesk"
 90
        0
280
     0
281
     0
  0
CLASS
  1
ACMSECTIONSTANDARDISO
  2
AmdtSectionSymStdISO
  3
"Amdt_StdImp|Product Description: AutoCAD Mechanical 2004 DX|Company: Autodesk"
 90
        0
280
     0
281
     0
  0
CLASS
  1
ACMCENTERLINESTANDARDISO
  2
AmdtCenterLineStdISO
  3
"Amdt_StdImp|Product Description: AutoCAD Mechanical 2004 DX|Company: Autodesk"
 90
        0
280
     0
281
     0
  0
CLASS
  1
ACMTHREADLINESTANDARDISO
  2
AmdtThreadLineStdISO
  3
"Amdt_StdImp|Product Description: AutoCAD Mechanical 2004 DX|Company: Autodesk"
 90
        0
280
     0
281
     0
  0
CLASS
  1
ACMNOTESTANDARDISO
  2
AmdtNoteStdISO
  3
"Amdt_StdImp|Product Description: AutoCAD Mechanical 2004 DX|Company: Autodesk"
 90
        0
280
     0
281
     0
  0
CLASS
  1
ACAMGHOLECHARTSTDISO
  2
AcAmgHoleChartStdISO
  3
ACMSYMBB_MODULE_NAME
 90
        0
280
     0
281
     0
  0
ENDSEC
  0
SECTION
  2
TABLES
  0
TABLE
  2
VPORT
  5
8
330
0
100
AcDbSymbolTable
 70
     8
  0
VPORT
  5
ADD8
330
8
100
AcDbSymbolTableRecord
100
AcDbViewportTableRecord
  2
*Active
 70
     0
 10
0.0
 20
0.0
 11
1.0
 21
1.0
 12
37.4418730402191
 22
-38.94624099766279
 13
0.0
 23
0.0
 14
2.5
 24
2.5
 15
10.0
 25
10.0
 16
0.0
 26
0.0
 36
1.0
 17
0.0
 27
0.0
 37
0.0
 40
128.7983483070781
 41
2.176400476758045
 42
50.0
 43
0.0
 44
0.0
 50
0.0
 51
0.0
 71
     0
 72
  2000
 73
     1
 74
     3
 75
     0
 76
     0
 77
     0
 78
     0
281
     0
 65
     0
110
0.0
120
0.0
130
0.0
111
1.0
121
0.0
131
0.0
112
0.0
122
1.0
132
0.0
 79
     0
146
0.0
  0
ENDTAB
  0
TABLE
  2
LTYPE
  5
5
330
0
100
AcDbSymbolTable
 70
    17
  0
LTYPE
  5
14
330
5
100
AcDbSymbolTableRecord
100
AcDbLinetypeTableRecord
  2
BYBLOCK
 70
     0
  3

 72
    65
 73
     0
 40
0.0
  0
LTYPE
  5
15
330
5
100
AcDbSymbolTableRecord
100
AcDbLinetypeTableRecord
  2
BYLAYER
 70
     0
  3

 72
    65
 73
     0
 40
0.0
  0
LTYPE
  5
16
330
5
100
AcDbSymbolTableRecord
100
AcDbLinetypeTableRecord
  2
CONTINUOUS
 70
     0
  3
Solid line
 72
    65
 73
     0
 40
0.0
  0
LTYPE
  5
43
330
5
100
AcDbSymbolTableRecord
100
AcDbLinetypeTableRecord
  2
AM_ISO02W050
 70
     0
  3
__ __ __ __ __ __ __ __ __ __ __ __ __ __ __
 72
    65
 73
     2
 40
7.5
 49
6.0
 74
     0
 49
-1.5
 74
     0
  0
LTYPE
  5
44
330
5
100
AcDbSymbolTableRecord
100
AcDbLinetypeTableRecord
  2
AM_ISO08W050
 70
     0
  3
____ . ____ . ____ . ____ . ____ . ____ . ____
 72
    65
 73
     4
 40
18.0
 49
12.0
 74
     0
 49
-1.5
 74
     0
 49
3.0
 74
     0
 49
-1.5
 74
     0
  0
LTYPE
  5
45
330
5
100
AcDbSymbolTableRecord
100
AcDbLinetypeTableRecord
  2
AM_ISO09W050
 70
     0
  3
_____ . . _____ . . _____ . . ____ .. ____
 72
    65
 73
     6
 40
22.5
 49
12.0
 74
     0
 49
-1.5
 74
     0
 49
3.0
 74
     0
 49
-1.5
 74
     0
 49
3.0
 74
     0
 49
-1.5
 74
     0
  0
LTYPE
  5
46
330
5
100
AcDbSymbolTableRecord
100
AcDbLinetypeTableRecord
  2
Amconstr
 70
     0
  3
_______________________
 72
    65
 73
     2
 40
9999.0
 49
9999.0
 74
     0
 49
0.0
 74
     0
  0
LTYPE
  5
47
330
5
100
AcDbSymbolTableRecord
100
AcDbLinetypeTableRecord
  2
AM_ISO02W050x2
 70
     0
  3
 _ _ _ _ _ _ _ _ _ _ _ _
 72
    65
 73
     2
 40
3.75
 49
3.0
 74
     0
 49
-0.75
 74
     0
  0
LTYPE
  5
48
330
5
100
AcDbSymbolTableRecord
100
AcDbLinetypeTableRecord
  2
AM_ISO08W050x2
 70
     0
  3
__ . __ . __ . __ . __ . __
 72
    65
 73
     4
 40
9.0
 49
6.0
 74
     0
 49
-0.75
 74
     0
 49
1.5
 74
     0
 49
-0.75
 74
     0
  0
LTYPE
  5
4B
330
5
100
AcDbSymbolTableRecord
100
AcDbLinetypeTableRecord
  2
Amzigzag
 70
     0
  3
/\/-/\/-/\/-/\/-/\/-/\/
 72
    65
 73
     2
 40
11.0001
 49
0.0001
 74
     4
 75
   135
340
4A
 46
0.04
 50
0.0
 44
0.0
 45
0.0
 49
-11.0
 74
     0
  0
LTYPE
  5
A2E3
330
5
100
AcDbSymbolTableRecord
100
AcDbLinetypeTableRecord
  2
PHANTOM
 70
     0
  3
Phantom ______  __  __  ______  __  __  ______
 72
    65
 73
     6
 40
63.5
 49
31.75
 74
     0
 49
-6.349999999999997
 74
     0
 49
6.349999999999997
 74
     0
 49
-6.349999999999997
 74
     0
 49
6.349999999999997
 74
     0
 49
-6.349999999999997
 74
     0
  0
LTYPE
  5
AC54
330
5
100
AcDbSymbolTableRecord
100
AcDbLinetypeTableRecord
  2
HIDDEN
 70
     0
  3
Hidden __ __ __ __ __ __ __ __ __ __ __ __ __ _
 72
    65
 73
     2
 40
9.524999999999996
 49
6.349999999999998
 74
     0
 49
-3.174999999999998
 74
     0
  0
LTYPE
  5
AC55
330
5
100
AcDbSymbolTableRecord
100
AcDbLinetypeTableRecord
  2
PHANTOM2
 70
     0
  3
Phantom (.5x) ___ _ _ ___ _ _ ___ _ _ ___ _ _
 72
    65
 73
     6
 40
31.75
 49
15.875
 74
     0
 49
-3.174999999999998
 74
     0
 49
3.174999999999998
 74
     0
 49
-3.174999999999998
 74
     0
 49
3.174999999999998
 74
     0
 49
-3.174999999999998
 74
     0
  0
LTYPE
  5
AC56
330
5
100
AcDbSymbolTableRecord
100
AcDbLinetypeTableRecord
  2
CENTER
 70
     0
  3
____ _ ____ _ ____ _ ____ _ ____ _ ____ _ ____
 72
    65
 73
     4
 40
17.5
 49
13.0
 74
     0
 49
-1.5
 74
     0
 49
1.5
 74
     0
 49
-1.5
 74
     0
  0
LTYPE
  5
AD33
330
5
100
AcDbSymbolTableRecord
100
AcDbLinetypeTableRecord
  2
ACISOWELD
 70
     0
  3
_ _ _ _ _
 72
    65
 73
     2
 40
2.0
 49
2.0
 74
     0
 49
-1.0
 74
     0
  0
LTYPE
  5
AD34
330
5
100
AcDbSymbolTableRecord
100
AcDbLinetypeTableRecord
  2
ACISOTGB
 70
     0
  3
__ . . __ . .
 72
    65
 73
     6
 40
9.0
 49
4.0
 74
     0
 49
-1.0
 74
     0
 49
1.0
 74
     0
 49
-1.0
 74
     0
 49
1.0
 74
     0
 49
-1.0
 74
     0
  0
LTYPE
  5
AD35
330
5
100
AcDbSymbolTableRecord
100
AcDbLinetypeTableRecord
  2
ACISOTGL
 70
     0
  3
_ _ _ _ _
 72
    65
 73
     2
 40
3.0
 49
2.0
 74
     0
 49
-1.0
 74
     0
  0
ENDTAB
  0
TABLE
  2
LAYER
  5
2
330
0
100
AcDbSymbolTable
 70
    12
  0
LAYER
  5
10
330
2
100
AcDbSymbolTableRecord
100
AcDbLayerTableRecord
  2
0
 70
     0
 62
     7
  6
CONTINUOUS
370
    -3
390
F
  0
LAYER
  5
7D
330
2
100
AcDbSymbolTableRecord
100
AcDbLayerTableRecord
  2
AM_5
 70
     0
 62
     3
  6
CONTINUOUS
370
    -3
390
F
  0
LAYER
  5
7F
330
2
100
AcDbSymbolTableRecord
100
AcDbLayerTableRecord
  2
DEFPOINTS
 70
     0
 62
     7
  6
CONTINUOUS
290
     0
370
    -3
390
F
  0
LAYER
  5
12B1
330
2
100
AcDbSymbolTableRecord
100
AcDbLayerTableRecord
  2
AM_0
 70
     0
 62
     7
  6
CONTINUOUS
370
    -3
390
F
  0
LAYER
  5
2222
330
2
100
AcDbSymbolTableRecord
100
AcDbLayerTableRecord
  2
AM_6
 70
     0
 62
     2
  6
CONTINUOUS
370
    -3
390
F
  0
LAYER
  5
4379
330
2
100
AcDbSymbolTableRecord
100
AcDbLayerTableRecord
  2
AM_1
 70
     0
 62
     3
  6
CONTINUOUS
370
    -3
390
F
  0
LAYER
  5
7DB1
330
2
100
AcDbSymbolTableRecord
100
AcDbLayerTableRecord
  2
AM_3
 70
     0
 62
     6
  6
AM_ISO02W050
370
    -3
390
F
  0
LAYER
  5
7DB2
330
2
100
AcDbSymbolTableRecord
100
AcDbLayerTableRecord
  2
AM_7
 70
     0
 62
     4
  6
AM_ISO08W050
370
    -3
390
F
  0
LAYER
  5
8B83
330
2
100
AcDbSymbolTableRecord
100
AcDbLayerTableRecord
  2
PV0001_1
 70
     0
 62
     7
  6
CONTINUOUS
370
    -3
390
F
  0
LAYER
  5
A2E4
330
2
100
AcDbSymbolTableRecord
100
AcDbLayerTableRecord
  2
AM_11
 70
     0
 62
     3
  6
PHANTOM
370
    -3
390
F
  0
ENDTAB
  0
TABLE
  2
STYLE
  5
3
330
0
100
AcDbSymbolTable
 70
     6
  0
STYLE
  5
11
330
3
100
AcDbSymbolTableRecord
100
AcDbTextStyleTableRecord
  2
STANDARD
 70
     0
 40
0.0
 41
1.0
 50
0.0
 71
     0
 42
2.5
  3
ISOCP.SHX
  4
EXTFONT.SHX
  0
STYLE
  5
4A
330
3
100
AcDbSymbolTableRecord
100
AcDbTextStyleTableRecord
  2

 70
     1
 40
0.0
 41
1.0
 50
0.0
 71
     0
 42
2.5
  3
ltypeshp.shx
  4

  0
STYLE
  5
AD25
330
3
100
AcDbSymbolTableRecord
100
AcDbTextStyleTableRecord
  2
ACISOTS
 70
     0
 40
1.0
 41
1.0
 50
0.0
 71
     0
 42
2.5
  3
isocp.shx
  4
extfont.shx
  0
STYLE
  5
AD32
330
3
100
AcDbSymbolTableRecord
100
AcDbTextStyleTableRecord
  2
ACISOGDT
 70
     0
 40
0.0
 41
1.0
 50
0.0
 71
     0
 42
2.5
  3
amgdt.shx
  4

  0
ENDTAB
  0
TABLE
  2
VIEW
  5
6
330
0
100
AcDbSymbolTable
 70
     6
  0
VIEW
  5
A30
330
6
100
AcDbSymbolTableRecord
100
AcDbViewTableRecord
  2
AM_VIEW1
 70
     0
 40
148.5
 10
112.0719649561952
 20
222.75
 41
224.1439299123904
 11
0.0
 21
0.0
 31
1.0
 12
0.0
 22
0.0
 32
0.0
 42
50.0
 43
0.0
 44
0.0
 50
0.0
 71
     0
281
     0
 72
     0
  0
VIEW
  5
A31
330
6
100
AcDbSymbolTableRecord
100
AcDbViewTableRecord
  2
AM_VIEW2
 70
     0
 40
148.5
 10
307.9280350438047
 20
222.75
 41
224.1439299123904
 11
0.0
 21
0.0
 31
1.0
 12
0.0
 22
0.0
 32
0.0
 42
50.0
 43
0.0
 44
0.0
 50
0.0
 71
     0
281
     0
 72
     0
  0
VIEW
  5
A32
330
6
100
AcDbSymbolTableRecord
100
AcDbViewTableRecord
  2
AM_VIEW3
 70
     0
 40
148.5
 10
112.0719649561952
 20
74.25
 41
224.1439299123904
 11
0.0
 21
0.0
 31
1.0
 12
0.0
 22
0.0
 32
0.0
 42
50.0
 43
0.0
 44
0.0
 50
0.0
 71
     0
281
     0
 72
     0
  0
VIEW
  5
A33
330
6
100
AcDbSymbolTableRecord
100
AcDbViewTableRecord
  2
AM_VIEW4
 70
     0
 40
148.5
 10
307.9280350438047
 20
74.25
 41
224.1439299123904
 11
0.0
 21
0.0
 31
1.0
 12
0.0
 22
0.0
 32
0.0
 42
50.0
 43
0.0
 44
0.0
 50
0.0
 71
     0
281
     0
 72
     0
  0
VIEW
  5
A34
330
6
100
AcDbSymbolTableRecord
100
AcDbViewTableRecord
  2
AM_VIEW5
 70
     0
 40
148.5
 10
210.0
 20
148.5
 41
224.1439299123904
 11
0.0
 21
0.0
 31
1.0
 12
0.0
 22
0.0
 32
0.0
 42
50.0
 43
0.0
 44
0.0
 50
0.0
 71
     0
281
     0
 72
     0
  0
VIEW
  5
A35
330
6
100
AcDbSymbolTableRecord
100
AcDbViewTableRecord
  2
AM_VIEW6
 70
     0
 40
296.9970299999999
 10
210.0
 20
148.5
 41
448.2833769461826
 11
0.0
 21
0.0
 31
1.0
 12
0.0
 22
0.0
 32
0.0
 42
50.0
 43
0.0
 44
0.0
 50
0.0
 71
     0
281
     0
 72
     0
  0
ENDTAB
  0
TABLE
  2
UCS
  5
7
330
0
100
AcDbSymbolTable
 70
     0
  0
ENDTAB
  0
TABLE
  2
APPID
  5
9
330
0
100
AcDbSymbolTable
 70
    44
  0
APPID
  5
12
330
9
100
AcDbSymbolTableRecord
100
AcDbRegAppTableRecord
  2
ACAD
 70
     0
  0
APPID
  5
2C
330
9
100
AcDbSymbolTableRecord
100
AcDbRegAppTableRecord
  2
MCAD_NO_VIS
 70
     0
  0
APPID
  5
2D
330
9
100
AcDbSymbolTableRecord
100
AcDbRegAppTableRecord
  2
ACAD_TEMP_GRAPHIC
 70
     0
  0
APPID
  5
B9
330
9
100
AcDbSymbolTableRecord
100
AcDbRegAppTableRecord
  2
GENIUS_GENDTOL_13
 70
     0
  0
APPID
  5
359
330
9
100
AcDbSymbolTableRecord
100
AcDbRegAppTableRecord
  2
GENIUS_GENREC_14
 70
     0
  0
APPID
  5
35A
330
9
100
AcDbSymbolTableRecord
100
AcDbRegAppTableRecord
  2
GENIUS_GENODEF_13
 70
     0
  0
APPID
  5
35B
330
9
100
AcDbSymbolTableRecord
100
AcDbRegAppTableRecord
  2
GENIUS_GENOBJ-N-REC_13
 70
     0
  0
APPID
  5
667
330
9
100
AcDbSymbolTableRecord
100
AcDbRegAppTableRecord
  2
GENIUS_GENCFG_13
 70
     0
  0
APPID
  5
668
330
9
100
AcDbSymbolTableRecord
100
AcDbRegAppTableRecord
  2
GENIUS_GENCFG0_13
 70
     0
  0
APPID
  5
669
330
9
100
AcDbSymbolTableRecord
100
AcDbRegAppTableRecord
  2
GENIUS_GENCFG1_13
 70
     0
  0
APPID
  5
66A
330
9
100
AcDbSymbolTableRecord
100
AcDbRegAppTableRecord
  2
GENIUS_GENCFG2_13
 70
     0
  0
APPID
  5
66B
330
9
100
AcDbSymbolTableRecord
100
AcDbRegAppTableRecord
  2
GENIUS_GENCFG3_13
 70
     0
  0
APPID
  5
66C
330
9
100
AcDbSymbolTableRecord
100
AcDbRegAppTableRecord
  2
GENIUS_GENCFG4_13
 70
     0
  0
APPID
  5
A76
330
9
100
AcDbSymbolTableRecord
100
AcDbRegAppTableRecord
  2
GENIUS_GENBLLY_14
 70
     0
  0
APPID
  5
A77
330
9
100
AcDbSymbolTableRecord
100
AcDbRegAppTableRecord
  2
GENIUS_GENOBJ-N-CEN_13
 70
     0
  0
APPID
  5
A83
330
9
100
AcDbSymbolTableRecord
100
AcDbRegAppTableRecord
  2
GENIUS_GENTRA_14
 70
     0
  0
APPID
  5
A8D
330
9
100
AcDbSymbolTableRecord
100
AcDbRegAppTableRecord
  2
GENIUS_GENOBJ-N-TIT_13
 70
     0
  0
APPID
  5
A8E
330
9
100
AcDbSymbolTableRecord
100
AcDbRegAppTableRecord
  2
GENIUS_GENTITLE_13
 70
     0
  0
APPID
  5
A8F
330
9
100
AcDbSymbolTableRecord
100
AcDbRegAppTableRecord
  2
GENIUS_GENOENT_13
 70
     0
  0
APPID
  5
A90
330
9
100
AcDbSymbolTableRecord
100
AcDbRegAppTableRecord
  2
GENIUS_GENOREF_13
 70
     0
  0
APPID
  5
A91
330
9
100
AcDbSymbolTableRecord
100
AcDbRegAppTableRecord
  2
GENIUS_GENOLIS_13
 70
     0
  0
APPID
  5
A92
330
9
100
AcDbSymbolTableRecord
100
AcDbRegAppTableRecord
  2
GENIUS_GENZVEED_13
 70
     0
  0
APPID
  5
A93
330
9
100
AcDbSymbolTableRecord
100
AcDbRegAppTableRecord
  2
GENIUS_GENSCREG_15
 70
     0
  0
APPID
  5
A94
330
9
100
AcDbSymbolTableRecord
100
AcDbRegAppTableRecord
  2
GENIUS_GENOBJ-N-SDF_13
 70
     0
  0
APPID
  5
12B5
330
9
100
AcDbSymbolTableRecord
100
AcDbRegAppTableRecord
  2
GENIUS_GENOBJ-N-RSBK_13
 70
     0
  0
APPID
  5
12B6
330
9
100
AcDbSymbolTableRecord
100
AcDbRegAppTableRecord
  2
GENIUS_GENOBJ-N-LIB_13
 70
     0
  0
APPID
  5
12B7
330
9
100
AcDbSymbolTableRecord
100
AcDbRegAppTableRecord
  2
GENIUS_GENSCALE_13
 70
     0
  0
APPID
  5
12B8
330
9
100
AcDbSymbolTableRecord
100
AcDbRegAppTableRecord
  2
GENIUS_GENOBJ-N-HTC_13
 70
     0
  0
APPID
  5
12B9
330
9
100
AcDbSymbolTableRecord
100
AcDbRegAppTableRecord
  2
GENIUS_GENHATCH_13
 70
     0
  0
APPID
  5
1C0A
330
9
100
AcDbSymbolTableRecord
100
AcDbRegAppTableRecord
  2
BASE_TYPE
 70
     0
  0
APPID
  5
276B
330
9
100
AcDbSymbolTableRecord
100
AcDbRegAppTableRecord
  2
GENIUS_GENOBJ-N-FIL_13
 70
     0
  0
APPID
  5
3640
330
9
100
AcDbSymbolTableRecord
100
AcDbRegAppTableRecord
  2
GENIUS_GENBH_13
 70
     0
  0
APPID
  5
36D1
330
9
100
AcDbSymbolTableRecord
100
AcDbRegAppTableRecord
  2
GENIUS_GENOBJ-F-SPR_13
 70
     0
  0
APPID
  5
36DA
330
9
100
AcDbSymbolTableRecord
100
AcDbRegAppTableRecord
  2
GENIUS_GEFSPRING_13
 70
     0
  0
APPID
  5
36DB
330
9
100
AcDbSymbolTableRecord
100
AcDbRegAppTableRecord
  2
GENIUS_GEFSPRINGP_13
 70
     0
  0
APPID
  5
4D67
330
9
100
AcDbSymbolTableRecord
100
AcDbRegAppTableRecord
  2
GENIUS_GENFIL_13
 70
     0
  0
APPID
  5
4D68
330
9
100
AcDbSymbolTableRecord
100
AcDbRegAppTableRecord
  2
GENIUS_GENOBJ-N-CHA_13
 70
     0
  0
APPID
  5
AC1D
330
9
100
AcDbSymbolTableRecord
100
AcDbRegAppTableRecord
  2
GENIUS_GENOBJ-N-CRS_13
 70
     0
  0
APPID
  5
AC1E
330
9
100
AcDbSymbolTableRecord
100
AcDbRegAppTableRecord
  2
AD_DRAW
 70
     0
  0
APPID
  5
AC1F
330
9
100
AcDbSymbolTableRecord
100
AcDbRegAppTableRecord
  2
ACATTRIBSERVICES
 70
     0
  0
APPID
  5
AC20
330
9
100
AcDbSymbolTableRecord
100
AcDbRegAppTableRecord
  2
DESIGNERASSEMBLIES
 70
     0
  0
APPID
  5
AC21
330
9
100
AcDbSymbolTableRecord
100
AcDbRegAppTableRecord
  2
ACADM_DIM_EDIT
 70
     0
  0
APPID
  5
AC22
330
9
100
AcDbSymbolTableRecord
100
AcDbRegAppTableRecord
  2
AMDT_DM_ADJ
 70
     0
  0
APPID
  5
AC23
330
9
100
AcDbSymbolTableRecord
100
AcDbRegAppTableRecord
  2
ACAD_PSEXT
 70
     0
  0
ENDTAB
  0
TABLE
  2
DIMSTYLE
  5
A
330
0
100
AcDbSymbolTable
 70
    19
100
AcDbDimStyleTable
 71
     0
  0
DIMSTYLE
105
58
330
A
100
AcDbSymbolTableRecord
100
AcDbDimStyleTableRecord
  2
AM_JIS
 70
     0
  4
"
 41
2.5
 42
0.0
 43
8.0
 44
0.4
 47
0.1
 48
0.1000000001
 73
     0
 74
     0
 77
     3
 78
     1
 79
     2
140
3.399999999999999
141
0.0
143
0.0393701
146
0.71
147
1.0
172
     1
176
     3
177
     3
178
     2
179
     2
271
     2
272
     2
275
     1
283
     0
284
     1
340
11
341
59
342
59
371
    -1
372
    -1
  0
DIMSTYLE
105
5F
102
{ACAD_REACTORS
330
AA72
102
}
330
A
100
AcDbSymbolTableRecord
100
AcDbDimStyleTableRecord
  2
AM_JIS$3
 70
     0
  4
"
 41
2.5
 42
0.0
 43
10.0
 44
1.0
 47
0.1
 48
0.1
 73
     0
 77
     3
 78
     1
 79
     2
140
3.399999999999999
141
0.0
143
0.0393701
146
0.71
147
1.0
172
     1
176
     3
177
     3
178
     2
179
     1
271
     2
272
     2
275
     1
283
     0
284
     1
288
     1
289
     0
340
11
341
59
342
59
371
    -1
372
    -1
  0
DIMSTYLE
105
65F
330
A
100
AcDbSymbolTableRecord
100
AcDbDimStyleTableRecord
  2
STANDARD
 70
     0
340
11
  0
DIMSTYLE
105
1761
102
{ACAD_REACTORS
330
A6EA
330
A76C
330
A79F
330
A736
330
A969
330
A976
102
}
330
A
100
AcDbSymbolTableRecord
100
AcDbDimStyleTableRecord
  2
AM_JIS$0
 70
     0
  4
"
 41
2.5
 42
0.1
 43
8.0
 44
0.5
 47
0.1
 48
0.1
 73
     0
 74
     0
 77
     3
 78
     1
 79
     2
140
3.399999999999999
141
0.0
143
0.0393701
146
0.71
147
0.9999999999999996
172
     1
176
     3
177
     3
178
     2
179
     1
271
     2
272
     2
275
     1
283
     0
284
     1
340
11
341
59
342
59
371
    -1
372
    -1
  0
DIMSTYLE
105
AD3E
330
A
100
AcDbSymbolTableRecord
100
AcDbDimStyleTableRecord
  2
AM_ISO
 70
     0
  4
"
 41
2.5
 42
1.0
 43
10.0
 44
1.0
 47
0.1
 48
0.1
 73
     0
 74
     0
 77
     1
 78
     8
 79
     2
140
3.5
141
0.0
143
0.0393701
146
0.71
147
1.5
172
     1
176
   256
177
   256
178
     2
271
     2
272
     3
274
     4
283
     0
284
     8
340
11
371
    -1
372
    -1
  0
DIMSTYLE
105
AD3F
330
A
100
AcDbSymbolTableRecord
100
AcDbDimStyleTableRecord
  2
AM_ISO$3
 70
     0
  4
"
 41
2.5
 42
1.0
 43
10.0
 44
1.0
 47
0.1
 48
0.1
 73
     0
 77
     1
 78
     8
 79
     2
140
3.5
141
0.0
143
0.0393701
146
0.71
147
1.5
176
   256
177
   256
178
     2
271
     2
272
     3
274
     4
283
     0
284
     8
288
     1
289
     0
340
11
371
    -1
372
    -1
  0
DIMSTYLE
105
AD40
330
A
100
AcDbSymbolTableRecord
100
AcDbDimStyleTableRecord
  2
AM_ISO$4
 70
     0
  4
"
 41
2.5
 42
1.0
 43
10.0
 44
1.0
 47
0.1
 48
0.1
 73
     0
 77
     1
 78
     8
 79
     2
140
3.5
141
0.0
143
0.0393701
146
0.71
147
1.5
176
   256
177
   256
178
     2
271
     2
272
     3
274
     4
283
     0
284
     8
288
     1
289
     0
340
11
371
    -1
372
    -1
  0
DIMSTYLE
105
AD41
330
A
100
AcDbSymbolTableRecord
100
AcDbDimStyleTableRecord
  2
AM_ISO$6
 70
     0
  4
"
 41
2.5
 42
1.0
 43
10.0
 44
1.0
 47
0.1
 48
0.1
 73
     0
 74
     0
 78
     8
 79
     2
140
3.5
141
0.0
143
0.0393701
146
0.71
147
1.5
172
     1
176
   256
177
   256
178
     2
271
     2
272
     3
274
     4
283
     0
284
     8
340
11
371
    -1
372
    -1
  0
DIMSTYLE
105
AD42
330
A
100
AcDbSymbolTableRecord
100
AcDbDimStyleTableRecord
  2
AM_ISO$7
 70
     0
  4
"
 41
2.5
 42
1.0
 43
10.0
 44
1.0
 47
0.1
 48
0.1
 73
     0
 74
     0
 77
     1
 78
     8
 79
     2
140
5.0
141
0.0
143
0.0393701
146
0.71
147
1.5
172
     1
176
   256
177
   256
178
     2
271
     2
272
     3
274
     4
283
     0
284
     8
340
11
371
    -1
372
    -1
  0
DIMSTYLE
105
AD43
330
A
100
AcDbSymbolTableRecord
100
AcDbDimStyleTableRecord
  2
AM_ISO$SF
 70
     0
  4
"
 41
2.5
 42
1.0
 43
10.0
 44
1.0
 47
0.1
 48
0.1
 73
     0
 74
     0
 75
     1
 76
     1
 77
     1
 78
     8
 79
     2
140
3.5
141
0.0
143
0.0393701
146
0.71
147
1.5
172
     1
176
   256
177
   256
178
     2
271
     2
272
     3
274
     4
283
     0
284
     8
340
11
371
    -1
372
    -1
  0
DIMSTYLE
105
AD44
330
A
100
AcDbSymbolTableRecord
100
AcDbDimStyleTableRecord
  2
AM_ISO$SH
 70
     0
  4
"
 41
2.5
 42
1.0
 43
10.0
 44
1.0
 47
0.1
 48
0.1
 73
     0
 74
     0
 75
     1
 76
     1
 77
     1
 78
     8
 79
     2
140
3.5
141
0.0
143
0.0393701
144
2.0
146
0.71
147
1.5
172
     1
173
     1
176
   256
177
   256
178
     2
271
     2
272
     3
274
     4
283
     0
284
     8
340
11
343
64
371
    -1
372
    -1
  0
ENDTAB
  0
TABLE
  2
BLOCK_RECORD
  5
1
330
0
100
AcDbSymbolTable
 70
    13
  0
BLOCK_RECORD
  5
1F
102
{ACAD_XDICTIONARY
360
165
102
}
330
1
100
AcDbSymbolTableRecord
100
AcDbBlockTableRecord
  2
*MODEL_SPACE
340
AC17
  0
BLOCK_RECORD
  5
1B
102
{ACAD_XDICTIONARY
360
ABEF
102
}
330
1
100
AcDbSymbolTableRecord
100
AcDbBlockTableRecord
  2
*PAPER_SPACE
340
AC18
  0
BLOCK_RECORD
  5
59
330
1
100
AcDbSymbolTableRecord
100
AcDbBlockTableRecord
  2
_Open30
340
0
102
{BLKREFS
331
AD4B
331
AD4C
331
AD5F
331
AD60
331
AD8E
331
AD8F
331
AD97
331
AD98
331
ADB3
331
ADB4
331
ADBF
331
ADC0
331
ADD2
331
ADD3
102
}
  0
BLOCK_RECORD
  5
64
330
1
100
AcDbSymbolTableRecord
100
AcDbBlockTableRecord
  2
GENAXEH
340
0
  0
BLOCK_RECORD
  5
A7F5
330
1
100
AcDbSymbolTableRecord
100
AcDbBlockTableRecord
  2
*D5
340
0
  0
BLOCK_RECORD
  5
A80D
330
1
100
AcDbSymbolTableRecord
100
AcDbBlockTableRecord
  2
*D6
340
0
  0
BLOCK_RECORD
  5
A826
330
1
100
AcDbSymbolTableRecord
100
AcDbBlockTableRecord
  2
*D7
340
0
  0
BLOCK_RECORD
  5
A832
330
1
100
AcDbSymbolTableRecord
100
AcDbBlockTableRecord
  2
*D8
340
0
  0
BLOCK_RECORD
  5
A96A
330
1
100
AcDbSymbolTableRecord
100
AcDbBlockTableRecord
  2
*D9
340
0
  0
BLOCK_RECORD
  5
A977
330
1
100
AcDbSymbolTableRecord
100
AcDbBlockTableRecord
  2
*D10
340
0
  0
BLOCK_RECORD
  5
AA73
330
1
100
AcDbSymbolTableRecord
100
AcDbBlockTableRecord
  2
*D11
340
0
  0
ENDTAB
  0
ENDSEC
  0
SECTION
  2
BLOCKS
  0
BLOCK
  5
20
330
1F
100
AcDbEntity
  8
0
100
AcDbBlockBegin
  2
*MODEL_SPACE
 70
     0
 10
0.0
 20
0.0
 30
0.0
  3
*MODEL_SPACE
  1

  0
ENDBLK
  5
21
330
1F
100
AcDbEntity
  8
0
100
AcDbBlockEnd
  0
BLOCK
  5
1C
330
1B
100
AcDbEntity
 67
     1
  8
0
100
AcDbBlockBegin
  2
*PAPER_SPACE
 70
     0
 10
0.0
 20
0.0
 30
0.0
  3
*PAPER_SPACE
  1

  0
ENDBLK
  5
1D
330
1B
100
AcDbEntity
 67
     1
  8
0
100
AcDbBlockEnd
  0
BLOCK
  5
ACA3
330
59
100
AcDbEntity
  8
0
100
AcDbBlockBegin
  2
_Open30
 70
     0
 10
0.0
 20
0.0
 30
0.0
  3
_Open30
  1

  0
LINE
  5
ACA4
330
59
100
AcDbEntity
  8
0
 62
     0
370
    -2
100
AcDbLine
 10
-1.0
 20
0.26794919
 30
0.0
 11
0.0
 21
0.0
 31
0.0
  0
LINE
  5
ACA5
330
59
100
AcDbEntity
  8
0
 62
     0
370
    -2
100
AcDbLine
 10
0.0
 20
0.0
 30
0.0
 11
-1.0
 21
-0.26794919
 31
0.0
  0
LINE
  5
ACA6
330
59
100
AcDbEntity
  8
0
 62
     0
370
    -2
100
AcDbLine
 10
0.0
 20
0.0
 30
0.0
 11
-1.0
 21
0.0
 31
0.0
  0
ENDBLK
  5
ACA7
330
59
100
AcDbEntity
  8
0
100
AcDbBlockEnd
  0
BLOCK
  5
ACB1
330
64
100
AcDbEntity
  8
0
100
AcDbBlockBegin
  2
GENAXEH
 70
     0
 10
0.0
 20
0.0
 30
0.0
  3
GENAXEH
  1

  0
LINE
  5
ACB2
330
64
100
AcDbEntity
  8
0
100
AcDbLine
 10
-1.0
 20
0.0
 30
0.0
 11
1.0
 21
0.0
 31
0.0
  0
ENDBLK
  5
ACB3
330
64
100
AcDbEntity
  8
0
100
AcDbBlockEnd
  0
BLOCK
  5
A7FF
330
A7F5
100
AcDbEntity
  8
0
100
AcDbBlockBegin
  2
*D5
 70
     1
 10
0.0
 20
0.0
 30
0.0
  3
*D5
  1

  0
LINE
  5
AD48
330
A7F5
100
AcDbEntity
  8
PV0001_1
 62
     3
100
AcDbLine
 10
0.0000000000000001
 20
0.1499999999999998
 30
0.0
 11
-0.0000000000000012
 21
-19.853767395019
 31
0.0
  0
LINE
  5
AD49
330
A7F5
100
AcDbEntity
  8
PV0001_1
 62
     3
100
AcDbLine
 10
149.999999999999
 20
0.3828033447269704
 30
0.0
 11
149.999999999999
 21
-19.853767395019
 31
0.0
  0
LINE
  5
AD4A
330
A7F5
100
AcDbEntity
  8
PV0001_1
 62
     3
100
AcDbLine
 10
2.499999999999998
 20
-19.353767395019
 30
0.0
 11
147.499999999999
 21
-19.353767395019
 31
0.0
  0
INSERT
  5
AD4B
330
A7F5
100
AcDbEntity
  8
PV0001_1
 62
     3
100
AcDbBlockReference
  2
_Open30
 10
-0.0000000000000011
 20
-19.353767395019
 30
0.0
 41
2.5
 42
2.5
 43
2.5
 50
180.0
  0
INSERT
  5
AD4C
330
A7F5
100
AcDbEntity
  8
PV0001_1
 62
     3
100
AcDbBlockReference
  2
_Open30
 10
149.999999999999
 20
-19.353767395019
 30
0.0
 41
2.5
 42
2.5
 43
2.5
  0
MTEXT
  5
AD4D
330
A7F5
100
AcDbEntity
  8
PV0001_1
 62
     2
100
AcDbMText
 10
74.99999999999909
 20
-16.653767395019
 30
0.0
 40
3.399999999999999
 41
0.0
 71
     5
 72
     1
  1
150
 73
     1
 44
1.0
1001
ACAD
1000
MTEXTBEGIN
1070
    73
1070
     1
1070
    44
1040
1.0
1070
    74
1070
     0
1000
MTEXTEND
  0
POINT
  5
AD4E
330
A7F5
100
AcDbEntity
  8
DEFPOINTS
 62
     0
100
AcDbPoint
 10
0.0000000000000001
 20
0.2499999999999998
 30
0.0
  0
POINT
  5
AD4F
330
A7F5
100
AcDbEntity
  8
DEFPOINTS
 62
     0
100
AcDbPoint
 10
149.999999999999
 20
0.4828033447269705
 30
0.0
  0
POINT
  5
AD50
330
A7F5
100
AcDbEntity
  8
DEFPOINTS
 62
     0
100
AcDbPoint
 10
149.999999999999
 20
-19.353767395019
 30
0.0
  0
ENDBLK
  5
A800
330
A7F5
100
AcDbEntity
  8
0
100
AcDbBlockEnd
  0
BLOCK
  5
A818
330
A80D
100
AcDbEntity
  8
0
100
AcDbBlockBegin
  2
*D6
 70
     1
 10
0.0
 20
0.0
 30
0.0
  3
*D6
  1

  0
LINE
  5
ADBA
330
A80D
100
AcDbEntity
  8
PV0001_1
 62
     3
100
AcDbLine
 10
-0.0999999999999994
 20
4.799999463864002
 30
0.0
 11
-13.44717407226596
 21
4.799999463864005
 31
0.0
  0
LINE
  5
ADBB
330
A80D
100
AcDbEntity
  8
PV0001_1
 62
     3
100
AcDbLine
 10
-0.1
 20
-0.0000000000000002
 30
0.0
 11
-13.44717407226596
 21
0.0000000000000036
 31
0.0
  0
LINE
  5
ADBC
330
A80D
100
AcDbEntity
  8
PV0001_1
 62
     3
100
AcDbLine
 10
-12.94717407226596
 20
7.299999463864005
 30
0.0
 11
-12.94717407226596
 21
9.799999463864006
 31
0.0
  0
LINE
  5
ADBD
330
A80D
100
AcDbEntity
  8
PV0001_1
 62
     3
100
AcDbLine
 10
-12.94717407226596
 20
-2.499999999999996
 30
0.0
 11
-12.94717407226596
 21
-18.19547036166405
 31
0.0
  0
LINE
  5
ADBE
330
A80D
100
AcDbEntity
  8
PV0001_1
 62
     3
100
AcDbLine
 10
-12.94717407226596
 20
4.799999463864005
 30
0.0
 11
-12.94717407226596
 21
0.0000000000000034
 31
0.0
  0
INSERT
  5
ADBF
330
A80D
100
AcDbEntity
  8
PV0001_1
 62
     3
100
AcDbBlockReference
  2
_Open30
 10
-12.94717407226596
 20
4.799999463864005
 30
0.0
 41
2.5
 42
2.5
 43
2.5
 50
270.0
  0
INSERT
  5
ADC0
330
A80D
100
AcDbEntity
  8
PV0001_1
 62
     3
100
AcDbBlockReference
  2
_Open30
 10
-12.94717407226596
 20
0.0000000000000034
 30
0.0
 41
2.5
 42
2.5
 43
2.5
 50
90.0
  0
MTEXT
  5
ADC1
330
A80D
100
AcDbEntity
  8
PV0001_1
 62
     2
100
AcDbMText
 10
-15.64717407226596
 20
-14.64547036166405
 30
0.0
 40
3.399999999999999
 41
0.0
 71
     5
 72
     1
  1
4.8
 11
0.0000000000000001
 21
1.0
 31
0.0
 73
     1
 44
1.0
1001
ACAD
1000
MTEXTBEGIN
1070
    73
1070
     1
1070
    44
1040
1.0
1070
    74
1070
     0
1000
MTEXTEND
  0
POINT
  5
ADC2
330
A80D
100
AcDbEntity
  8
DEFPOINTS
 62
     0
100
AcDbPoint
 10
0.0000000000000006
 20
4.799999463864002
 30
0.0
  0
POINT
  5
ADC3
330
A80D
100
AcDbEntity
  8
DEFPOINTS
 62
     0
100
AcDbPoint
 10
0.0
 20
-0.0000000000000002
 30
0.0
  0
POINT
  5
ADC4
330
A80D
100
AcDbEntity
  8
DEFPOINTS
 62
     0
100
AcDbPoint
 10
-12.94717407226596
 20
0.0000000000000034
 30
0.0
  0
ENDBLK
  5
A819
330
A80D
100
AcDbEntity
  8
0
100
AcDbBlockEnd
  0
BLOCK
  5
A830
330
A826
100
AcDbEntity
  8
0
100
AcDbBlockBegin
  2
*D7
 70
     1
 10
0.0
 20
0.0
 30
0.0
  3
*D7
  1

  0
LINE
  5
AD5C
330
A826
100
AcDbEntity
  8
PV0001_1
 62
     3
100
AcDbLine
 10
43.48479270935103
 20
-55.43769308227522
 30
0.0
 11
43.48479270935103
 21
-36.45278567993243
 31
0.0
  0
LINE
  5
AD5D
330
A826
100
AcDbEntity
  8
PV0001_1
 62
     3
100
AcDbLine
 10
-0.0000000000000074
 20
-60.43081518310521
 30
0.0
 11
-0.0000000000000059
 21
-36.45278567993243
 31
0.0
  0
LINE
  5
AD5E
330
A826
100
AcDbEntity
  8
PV0001_1
 62
     3
100
AcDbLine
 10
40.98479270935103
 20
-36.95278567993243
 30
0.0
 11
2.499999999999994
 21
-36.95278567993243
 31
0.0
  0
INSERT
  5
AD5F
330
A826
100
AcDbEntity
  8
PV0001_1
 62
     3
100
AcDbBlockReference
  2
_Open30
 10
43.48479270935103
 20
-36.95278567993243
 30
0.0
 41
2.5
 42
2.5
 43
2.5
  0
INSERT
  5
AD60
330
A826
100
AcDbEntity
  8
PV0001_1
 62
     3
100
AcDbBlockReference
  2
_Open30
 10
-0.0000000000000059
 20
-36.95278567993243
 30
0.0
 41
2.5
 42
2.5
 43
2.5
 50
180.0
  0
MTEXT
  5
AD61
330
A826
100
AcDbEntity
  8
PV0001_1
 62
     2
100
AcDbMText
 10
22.66770172119105
 20
-34.25278567993243
 30
0.0
 40
3.399999999999999
 41
0.0
 71
     5
 72
     1
  1
43.5
 73
     1
 44
1.0
1001
ACAD
1000
MTEXTBEGIN
1070
    73
1070
     1
1070
    44
1040
1.0
1070
    74
1070
     0
1000
MTEXTEND
  0
POINT
  5
AD62
330
A826
100
AcDbEntity
  8
DEFPOINTS
 62
     0
100
AcDbPoint
 10
43.48479270935103
 20
-55.53769308227522
 30
0.0
  0
POINT
  5
AD63
330
A826
100
AcDbEntity
  8
DEFPOINTS
 62
     0
100
AcDbPoint
 10
-0.0000000000000074
 20
-60.53081518310521
 30
0.0
  0
POINT
  5
AD64
330
A826
100
AcDbEntity
  8
DEFPOINTS
 62
     0
100
AcDbPoint
 10
-0.0000000000000059
 20
-36.95278567993243
 30
0.0
  0
ENDBLK
  5
A831
330
A826
100
AcDbEntity
  8
0
100
AcDbBlockEnd
  0
BLOCK
  5
A83C
330
A832
100
AcDbEntity
  8
0
100
AcDbBlockBegin
  2
*D8
 70
     1
 10
0.0
 20
0.0
 30
0.0
  3
*D8
  1

  0
LINE
  5
ADCF
330
A832
100
AcDbEntity
  8
PV0001_1
 62
     3
100
AcDbLine
 10
26.91954650878906
 20
24.98280334472402
 30
0.0
 11
-25.36740875244094
 21
24.98280334472404
 31
0.0
  0
LINE
  5
ADD0
330
A832
100
AcDbEntity
  8
PV0001_1
 62
     3
100
AcDbLine
 10
-0.099999999999998
 20
-0.0000000000000001
 30
0.0
 11
-25.36740875244095
 21
0.0000000000000071
 31
0.0
  0
LINE
  5
ADD1
330
A832
100
AcDbEntity
  8
PV0001_1
 62
     3
100
AcDbLine
 10
-24.86740875244095
 20
22.48280334472404
 30
0.0
 11
-24.86740875244095
 21
2.500000000000006
 31
0.0
  0
INSERT
  5
ADD2
330
A832
100
AcDbEntity
  8
PV0001_1
 62
     3
100
AcDbBlockReference
  2
_Open30
 10
-24.86740875244094
 20
24.98280334472404
 30
0.0
 41
2.5
 42
2.5
 43
2.5
 50
90.0
  0
INSERT
  5
ADD3
330
A832
100
AcDbEntity
  8
PV0001_1
 62
     3
100
AcDbBlockReference
  2
_Open30
 10
-24.86740875244095
 20
0.0000000000000069
 30
0.0
 41
2.5
 42
2.5
 43
2.5
 50
270.0
  0
MTEXT
  5
ADD4
330
A832
100
AcDbEntity
  8
PV0001_1
 62
     2
100
AcDbMText
 10
-27.56774339811024
 20
12.741401672354
 30
0.0
 40
3.399999999999999
 41
0.0
 71
     5
 72
     1
  1
25
 11
0.0000000000000001
 21
1.0
 31
0.0
 73
     1
 44
1.0
1001
ACAD
1000
MTEXTBEGIN
1070
    73
1070
     1
1070
    44
1040
1.0
1070
    74
1070
     0
1000
MTEXTEND
  0
POINT
  5
ADD5
330
A832
100
AcDbEntity
  8
DEFPOINTS
 62
     0
100
AcDbPoint
 10
27.01954650878906
 20
24.98280334472402
 30
0.0
  0
POINT
  5
ADD6
330
A832
100
AcDbEntity
  8
DEFPOINTS
 62
     0
100
AcDbPoint
 10
0.000000000000002
 20
-0.0000000000000001
 30
0.0
  0
POINT
  5
ADD7
330
A832
100
AcDbEntity
  8
DEFPOINTS
 62
     0
100
AcDbPoint
 10
-24.86740875244095
 20
0.0000000000000069
 30
0.0
  0
ENDBLK
  5
A83D
330
A832
100
AcDbEntity
  8
0
100
AcDbBlockEnd
  0
BLOCK
  5
A974
330
A96A
100
AcDbEntity
  8
0
100
AcDbBlockBegin
  2
*D9
 70
     1
 10
0.0
 20
0.0
 30
0.0
  3
*D9
  1

  0
LINE
  5
AD94
330
A96A
100
AcDbEntity
  8
AM_5
 62
     3
100
AcDbLine
 10
150.099999999999
 20
-85.53081709045425
 30
0.0
 11
169.4145714225141
 21
-85.53081709045427
 31
0.0
  0
LINE
  5
AD95
330
A96A
100
AcDbEntity
  8
AM_5
 62
     3
100
AcDbLine
 10
150.099999999999
 20
-60.53081518310525
 30
0.0
 11
169.4145714225142
 21
-60.53081518310525
 31
0.0
  0
LINE
  5
AD96
330
A96A
100
AcDbEntity
  8
AM_5
 62
     3
100
AcDbLine
 10
168.9145714225142
 20
-83.03081709045427
 30
0.0
 11
168.9145714225142
 21
-63.03081518310525
 31
0.0
  0
INSERT
  5
AD97
330
A96A
100
AcDbEntity
  8
AM_5
 62
     3
100
AcDbBlockReference
  2
_Open30
 10
168.9145714225142
 20
-85.53081709045427
 30
0.0
 41
2.5
 42
2.5
 43
2.5
 50
270.0
  0
INSERT
  5
AD98
330
A96A
100
AcDbEntity
  8
AM_5
 62
     3
100
AcDbBlockReference
  2
_Open30
 10
168.9145714225142
 20
-60.53081518310525
 30
0.0
 41
2.5
 42
2.5
 43
2.5
 50
90.0
  0
MTEXT
  5
AD99
330
A96A
100
AcDbEntity
  8
AM_5
 62
     2
100
AcDbMText
 10
166.2142367768449
 20
-73.03081613677973
 30
0.0
 40
3.399999999999999
 41
0.0
 71
     5
 72
     1
  1
25
 11
0.0000000000000001
 21
1.0
 31
0.0
 73
     1
 44
1.0
1001
ACAD
1000
MTEXTBEGIN
1070
    73
1070
     1
1070
    44
1040
1.0
1070
    74
1070
     0
1000
MTEXTEND
  0
POINT
  5
AD9A
330
A96A
100
AcDbEntity
  8
DEFPOINTS
 62
     0
100
AcDbPoint
 10
149.999999999999
 20
-85.53081709045425
 30
0.0
  0
POINT
  5
AD9B
330
A96A
100
AcDbEntity
  8
DEFPOINTS
 62
     0
100
AcDbPoint
 10
149.999999999999
 20
-60.53081518310525
 30
0.0
  0
POINT
  5
AD9C
330
A96A
100
AcDbEntity
  8
DEFPOINTS
 62
     0
100
AcDbPoint
 10
168.9145714225142
 20
-60.53081518310525
 30
0.0
  0
ENDBLK
  5
A975
330
A96A
100
AcDbEntity
  8
0
100
AcDbBlockEnd
  0
BLOCK
  5
A981
330
A977
100
AcDbEntity
  8
0
100
AcDbBlockBegin
  2
*D10
 70
     1
 10
0.0
 20
0.0
 30
0.0
  3
*D10
  1

  0
LINE
  5
ADB0
330
A977
100
AcDbEntity
  8
AM_5
 62
     3
100
AcDbLine
 10
150.099999999999
 20
-0.0171966552730298
 30
0.0
 11
169.04108459959
 21
-0.0171966552730352
 31
0.0
  0
LINE
  5
ADB1
330
A977
100
AcDbEntity
  8
AM_5
 62
     3
100
AcDbLine
 10
150.099999999999
 20
24.98280334472397
 30
0.0
 11
169.04108459959
 21
24.98280334472396
 31
0.0
  0
LINE
  5
ADB2
330
A977
100
AcDbEntity
  8
AM_5
 62
     3
100
AcDbLine
 10
168.54108459959
 20
2.482803344726965
 30
0.0
 11
168.54108459959
 21
22.48280334472396
 31
0.0
  0
INSERT
  5
ADB3
330
A977
100
AcDbEntity
  8
AM_5
 62
     3
100
AcDbBlockReference
  2
_Open30
 10
168.54108459959
 20
-0.0171966552730351
 30
0.0
 41
2.5
 42
2.5
 43
2.5
 50
270.0
  0
INSERT
  5
ADB4
330
A977
100
AcDbEntity
  8
AM_5
 62
     3
100
AcDbBlockReference
  2
_Open30
 10
168.54108459959
 20
24.98280334472396
 30
0.0
 41
2.5
 42
2.5
 43
2.5
 50
90.0
  0
MTEXT
  5
ADB5
330
A977
100
AcDbEntity
  8
AM_5
 62
     2
100
AcDbMText
 10
165.8407499539207
 20
12.48280334472549
 30
0.0
 40
3.399999999999999
 41
0.0
 71
     5
 72
     1
  1
25
 11
0.0000000000000001
 21
1.0
 31
0.0
 73
     1
 44
1.0
1001
ACAD
1000
MTEXTBEGIN
1070
    73
1070
     1
1070
    44
1040
1.0
1070
    74
1070
     0
1000
MTEXTEND
  0
POINT
  5
ADB6
330
A977
100
AcDbEntity
  8
DEFPOINTS
 62
     0
100
AcDbPoint
 10
149.999999999999
 20
-0.0171966552730298
 30
0.0
  0
POINT
  5
ADB7
330
A977
100
AcDbEntity
  8
DEFPOINTS
 62
     0
100
AcDbPoint
 10
149.999999999999
 20
24.98280334472397
 30
0.0
  0
POINT
  5
ADB8
330
A977
100
AcDbEntity
  8
DEFPOINTS
 62
     0
100
AcDbPoint
 10
168.54108459959
 20
24.98280334472396
 30
0.0
  0
ENDBLK
  5
A982
330
A977
100
AcDbEntity
  8
0
100
AcDbBlockEnd
  0
BLOCK
  5
AA7D
330
AA73
100
AcDbEntity
  8
0
100
AcDbBlockBegin
  2
*D11
 70
     1
 10
0.0
 20
0.0
 30
0.0
  3
*D11
  1

  0
LINE
  5
AD8A
330
AA73
100
AcDbEntity
  8
AM_11
 62
     3
100
AcDbLine
 10
-64.26630803387428
 20
-38.04939398456786
 30
0.0
 11
-65.59195944176241
 21
-35.92980715106369
 31
0.0
  0
LINE
  5
AD8B
330
AA73
100
AcDbEntity
  8
AM_11
 62
     3
100
AcDbLine
 10
-36.16255298048323
 20
-82.9845472448739
 30
0.0
 11
-32.42391822126027
 21
-88.96225825078165
 31
0.0
  0
LINE
  5
AD8C
330
AA73
100
AcDbEntity
  8
AM_11
 62
     3
100
AcDbLine
 10
-32.42391822126027
 20
-88.96225825078165
 30
0.0
 11
-24.28391822126027
 21
-88.96225825078165
 31
0.0
  0
LINE
  5
AD8D
330
AA73
100
AcDbEntity
  8
AM_11
 62
     3
100
AcDbLine
 10
-62.94065662598614
 20
-40.16898081807201
 30
0.0
 11
-37.48820438837134
 21
-80.86496041136973
 31
0.0
  0
INSERT
  5
AD8E
330
AA73
100
AcDbEntity
  8
AM_11
 62
     3
100
AcDbBlockReference
  2
_Open30
 10
-62.94065662598614
 20
-40.16898081807201
 30
0.0
 41
2.5
 42
2.5
 43
2.5
 50
302.0230617200444
  0
INSERT
  5
AD8F
330
AA73
100
AcDbEntity
  8
AM_11
 62
     3
100
AcDbBlockReference
  2
_Open30
 10
-37.48820438837134
 20
-80.86496041136973
 30
0.0
 41
2.5
 42
2.5
 43
2.5
 50
122.0230617200444
  0
MTEXT
  5
AD90
330
AA73
100
AcDbEntity
  8
AM_11
 62
     2
100
AcDbMText
 10
-27.85391822126026
 20
-86.26225825078163
 30
0.0
 40
3.399999999999999
 41
0.0
 71
     5
 72
     1
  1
\U+220548
 73
     1
 44
1.0
1001
ACAD
1000
MTEXTBEGIN
1070
    73
1070
     1
1070
    44
1040
1.0
1070
    74
1070
     0
1000
MTEXTEND
  0
POINT
  5
AD91
330
AA73
100
AcDbEntity
  8
DEFPOINTS
 62
     0
100
AcDbPoint
 10
-37.48820438837134
 20
-80.86496041136973
 30
0.0
  0
POINT
  5
AD92
330
AA73
100
AcDbEntity
  8
DEFPOINTS
 62
     0
100
AcDbPoint
 10
-62.94065662598614
 20
-40.16898081807201
 30
0.0
  0
ENDBLK
  5
AA7E
330
AA73
100
AcDbEntity
  8
0
100
AcDbBlockEnd
  0
ENDSEC
  0
SECTION
  2
ENTITIES
  0
TEXT
  5
83BD
330
1F
100
AcDbEntity
  8
AM_6
100
AcDbText
 10
32.25853948221878
 20
-102.8659133934668
 30
0.0
 40
5.0
  1
GMFNR2525-48-48
 72
     4
 11
60.12909774397718
 21
-100.3659133934668
 31
0.0
100
AcDbText
  0
LINE
  5
A6E6
330
1F
100
AcDbEntity
  8
AM_0
100
AcDbLine
 10
19.68499374389704
 20
-85.5308170904542
 30
0.0
 11
149.999999999999
 21
-85.53081709045425
 31
0.0
  0
LINE
  5
A6E7
330
1F
100
AcDbEntity
  8
AM_0
100
AcDbLine
 10
43.48479270935103
 20
-60.53081518310522
 30
0.0
 11
149.999999999999
 21
-60.53081518310525
 31
0.0
  0
LINE
  5
A6E8
330
1F
100
AcDbEntity
  8
AM_0
100
AcDbLine
 10
26.78639263692741
 20
24.98280334472401
 30
0.0
 11
149.999999999999
 21
24.98280334472397
 31
0.0
  0
LINE
  5
A6E9
330
1F
100
AcDbEntity
  8
AM_0
100
AcDbLine
 10
43.48479270935103
 20
-0.0171966552730026
 30
0.0
 11
149.999999999999
 21
-0.0171966552730298
 31
0.0
  0
DIMENSION
  5
A6EA
330
1F
100
AcDbEntity
  8
PV0001_1
100
AcDbDimension
  2
*D5
 10
149.999999999999
 20
-19.353767395019
 30
0.0
 11
74.99999999999909
 21
-19.353767395019
 31
0.0
 70
   160
  1
<>
 71
     5
 42
149.999999999999
  3
AM_JIS$0
100
AcDbAlignedDimension
 13
0.0000000000000001
 23
0.2499999999999998
 33
0.0
 14
149.999999999999
 24
0.4828033447269705
 34
0.0
100
AcDbRotatedDimension
1001
ACAD
1000
DSTYLE
1002
{
1070
   284
1070
     8
1070
   271
1070
     0
1070
    45
1040
0.1
1070
   173
1070
     1
1070
     6
1000
OPEN30
1070
     7
1000
OPEN30
1002
}
  0
LINE
  5
A6F1
330
1F
100
AcDbEntity
  8
AM_7
 48
0.5
100
AcDbLine
 10
-22.54873470469394
 20
-60.53081518310523
 30
0.0
 11
-69.48790927305494
 21
-60.5308151831052
 31
0.0
  0
LINE
  5
A6F2
330
1F
100
AcDbEntity
  8
AM_0
 48
0.5
100
AcDbLine
 10
-73.90621948242096
 20
-80.86149221557617
 30
0.0
 11
-63.74623107910101
 21
-80.86149221557617
 31
0.0
  0
LINE
  5
A6F3
330
1F
100
AcDbEntity
  8
AM_7
 48
0.5
100
AcDbLine
 10
-82.72012329101094
 20
-71.46349340576216
 30
0.0
 11
-67.22967529296103
 21
-71.46349340576216
 31
0.0
  0
LINE
  5
A6F5
330
1F
100
AcDbEntity
  8
AM_0
 48
0.5
100
AcDbLine
 10
-94.71522521972101
 20
-60.53081518310519
 30
0.0
 11
-94.71522521972101
 21
-85.5308170904542
 31
0.0
  0
LINE
  5
A6F6
330
1F
100
AcDbEntity
  8
AM_7
 48
0.5
100
AcDbLine
 10
-80.89122009277094
 20
-47.4962006201172
 30
0.0
 11
-80.89122009277096
 21
-68.96302801269517
 31
0.0
  0
LINE
  5
A6F7
330
1F
100
AcDbEntity
  8
AM_7
 48
0.5
100
AcDbLine
 10
-71.82621948242098
 20
-59.00740438598621
 30
0.0
 11
-71.82621948242098
 21
-80.58184820312517
 31
0.0
  0
LINE
  5
A6F8
330
1F
100
AcDbEntity
  8
AM_0
 48
0.5
100
AcDbLine
 10
-73.90621948242096
 20
-63.3354912390142
 30
0.0
 11
-73.90621948242096
 21
-68.4408913244632
 31
0.0
  0
LINE
  5
A6F9
330
1F
100
AcDbEntity
  8
AM_0
 48
0.5
100
AcDbLine
 10
-78.98622131347099
 20
-61.93849187988321
 30
0.0
 11
-78.98622131347099
 21
-85.5308170904542
 31
0.0
  0
LINE
  5
A6FA
330
1F
100
AcDbEntity
  8
AM_0
 48
0.5
100
AcDbLine
 10
-73.90621948242096
 20
-61.93849187988321
 30
0.0
 11
-73.90621948242096
 21
-68.2884903540042
 31
0.0
  0
LINE
  5
A6FB
330
1F
100
AcDbEntity
  8
AM_0
 48
0.5
100
AcDbLine
 10
-94.71522521972101
 20
-85.5308170904542
 30
0.0
 11
-69.71522521972101
 21
-85.5308170904542
 31
0.0
  0
LINE
  5
A6FC
330
1F
100
AcDbEntity
  8
AM_0
 48
0.5
100
AcDbLine
 10
-73.90621948242096
 20
-74.63849264282218
 30
0.0
 11
-73.90621948242096
 21
-80.86149221557617
 31
0.0
  0
LINE
  5
A6FD
330
1F
100
AcDbEntity
  8
AM_0
 48
0.5
100
AcDbLine
 10
-73.90621948242096
 20
-74.63849264282218
 30
0.0
 11
-73.90621948242096
 21
-85.5308170904542
 31
0.0
  0
LINE
  5
A6FE
330
1F
100
AcDbEntity
  8
AM_0
 48
0.5
100
AcDbLine
 10
-69.71522521972101
 20
-80.86149221557617
 30
0.0
 11
-69.71522521972101
 21
-85.5308170904542
 31
0.0
  0
LINE
  5
A6FF
330
1F
100
AcDbEntity
  8
AM_0
 48
0.5
100
AcDbLine
 10
-75.93821716308095
 20
-68.4408913244632
 30
0.0
 11
-73.90621948242096
 21
-68.4408913244632
 31
0.0
  0
LINE
  5
A700
330
1F
100
AcDbEntity
  8
AM_0
 48
0.5
100
AcDbLine
 10
-75.93821716308095
 20
-74.63849264282218
 30
0.0
 11
-73.90621948242096
 21
-74.63849264282218
 31
0.0
  0
LINE
  5
A701
330
1F
100
AcDbEntity
  8
AM_0
 48
0.5
100
AcDbLine
 10
-76.70022583007096
 20
-68.2884903540042
 30
0.0
 11
-73.90621948242096
 21
-68.2884903540042
 31
0.0
  0
LINE
  5
A702
330
1F
100
AcDbEntity
  8
AM_0
 48
0.5
100
AcDbLine
 10
-75.93821716308095
 20
-68.4408913244632
 30
0.0
 11
-75.93821716308095
 21
-74.63849264282218
 31
0.0
  0
LINE
  5
A703
330
1F
100
AcDbEntity
  8
AM_0
 48
0.5
100
AcDbLine
 10
-76.70022583007096
 20
-68.2884903540042
 30
0.0
 11
-76.70022583007096
 21
-74.63849264282218
 31
0.0
  0
LINE
  5
A706
330
1F
100
AcDbEntity
  8
AM_0
 48
0.5
100
AcDbLine
 10
-76.70022583007096
 20
-74.63849264282218
 30
0.0
 11
-75.93821716308095
 21
-74.63849264282218
 31
0.0
  0
LINE
  5
A709
330
1F
100
AcDbEntity
  8
AM_0
 48
0.5
100
AcDbLine
 10
-85.89122009277094
 20
-50.90129476684619
 30
0.0
 11
-75.89122009277094
 21
-50.90129476684619
 31
0.0
  0
LINE
  5
A70A
330
1F
100
AcDbEntity
  8
AM_0
 48
0.5
100
AcDbLine
 10
-85.39122009277093
 20
-50.40129476684619
 30
0.0
 11
-76.39122009277094
 21
-50.40129476684619
 31
0.0
  0
LINE
  5
A70B
330
1F
100
AcDbEntity
  8
AM_0
 48
0.5
100
AcDbLine
 10
-88.63821411132096
 20
-61.9384918798832
 30
0.0
 11
-73.90621948242096
 21
-61.93849187988321
 31
0.0
  0
LINE
  5
A70C
330
1F
100
AcDbEntity
  8
AM_0
 48
0.5
100
AcDbLine
 10
-91.68621826171101
 20
-55.53769689697316
 30
0.0
 11
-73.05250549316109
 21
-55.5376968969732
 31
0.0
  0
LINE
  5
A70D
330
1F
100
AcDbEntity
  8
AM_0
 48
0.5
100
AcDbLine
 10
-88.63821411132096
 20
-60.9224930395512
 30
0.0
 11
-74.06677350815511
 21
-60.92249303955121
 31
0.0
  0
LINE
  5
A70E
330
1F
100
AcDbEntity
  8
AM_0
 48
0.5
100
AcDbLine
 10
-90.16221618652094
 20
-54.01369482177718
 30
0.0
 11
-70.08621826171102
 21
-54.01369482177719
 31
0.0
  0
LINE
  5
A70F
330
1F
100
AcDbEntity
  8
AM_0
 48
0.5
100
AcDbLine
 10
-85.89122009277094
 20
-50.90129476684619
 30
0.0
 11
-85.89122009277094
 21
-54.01369482177719
 31
0.0
  0
LINE
  5
A710
330
1F
100
AcDbEntity
  8
AM_0
 48
0.5
100
AcDbLine
 10
-94.71522521972101
 20
-60.53081518310519
 30
0.0
 11
-91.68621826171102
 21
-60.53081518310519
 31
0.0
  0
LINE
  5
A711
330
1F
100
AcDbEntity
  8
AM_0
 48
0.5
100
AcDbLine
 10
-94.71522521972101
 20
-61.9384918798832
 30
0.0
 11
-91.68621826171102
 21
-61.9384918798832
 31
0.0
  0
LINE
  5
A712
330
1F
100
AcDbEntity
  8
AM_0
 48
0.5
100
AcDbLine
 10
-91.68621826171101
 20
-55.53769689697316
 30
0.0
 11
-91.68621826171102
 21
-63.58949285644519
 31
0.0
  0
LINE
  5
A713
330
1F
100
AcDbEntity
  8
AM_0
 48
0.5
100
AcDbLine
 10
-91.68621826171102
 20
-63.58949285644519
 30
0.0
 11
-88.63821411132096
 21
-63.58949285644519
 31
0.0
  0
LINE
  5
A714
330
1F
100
AcDbEntity
  8
AM_0
 48
0.5
100
AcDbLine
 10
-91.68621826171102
 20
-63.23389440673816
 30
0.0
 11
-88.63821411132096
 21
-63.23389440673816
 31
0.0
  0
LINE
  5
A715
330
1F
100
AcDbEntity
  8
AM_0
 48
0.5
100
AcDbLine
 10
-88.63821411132096
 20
-60.9224930395512
 30
0.0
 11
-88.63821411132096
 21
-63.58949285644519
 31
0.0
  0
LINE
  5
A716
330
1F
100
AcDbEntity
  8
AM_0
 48
0.5
100
AcDbLine
 10
-91.68621826171102
 20
-63.7164917578122
 30
0.0
 11
-88.56201171874092
 21
-63.7164917578122
 31
0.0
  0
LINE
  5
A717
330
1F
100
AcDbEntity
  8
AM_0
 48
0.5
100
AcDbLine
 10
-88.56201171874092
 20
-61.9384918798832
 30
0.0
 11
-88.56201171874092
 21
-63.7164917578122
 31
0.0
  0
LINE
  5
A718
330
1F
100
AcDbEntity
  8
PV0001_1
  6
Continuous
 48
0.5
100
AcDbLine
 10
-91.68621826171102
 20
-61.9384918798832
 30
0.0
 11
-91.68621826171102
 21
-63.7164917578122
 31
0.0
  0
LINE
  5
A719
330
1F
100
AcDbEntity
  8
AM_0
 48
0.5
100
AcDbLine
 10
-91.68621826171101
 20
-55.53768926757819
 30
0.0
 11
-90.16221618652094
 21
-54.01369100708016
 31
0.0
  0
LINE
  5
A71A
330
1F
100
AcDbEntity
  8
AM_0
 48
0.5
100
AcDbLine
 10
-85.39122009277093
 20
-50.40129476684619
 30
0.0
 11
-85.89122009277094
 21
-50.90129476684619
 31
0.0
  0
LINE
  5
A71B
330
1F
100
AcDbEntity
  8
AM_0
 48
0.5
100
AcDbLine
 10
-75.89122009277094
 20
-50.90129476684619
 30
0.0
 11
-75.89122009277094
 21
-54.01369482177719
 31
0.0
  0
LINE
  5
A71C
330
1F
100
AcDbEntity
  8
AM_0
 48
0.5
100
AcDbLine
 10
-78.98622131347098
 20
-55.53769689697317
 30
0.0
 11
-78.98622131347099
 21
-60.92249303955121
 31
0.0
  0
LINE
  5
A71D
330
1F
100
AcDbEntity
  8
AM_0
 48
0.5
100
AcDbLine
 10
-79.53779602050099
 20
-54.01369863647419
 30
0.0
 11
-78.98622131347098
 21
-55.53770071167019
 31
0.0
  0
LINE
  5
A71E
330
1F
100
AcDbEntity
  8
AM_0
 48
0.5
100
AcDbLine
 10
-73.05250549316109
 20
-55.5376892675782
 30
0.0
 11
-73.8452301025311
 21
-60.0334892858892
 31
0.0
  0
LINE
  5
A71F
330
1F
100
AcDbEntity
  8
AM_0
 48
0.5
100
AcDbLine
 10
-70.08621826171102
 20
-54.01369482177719
 30
0.0
 11
-70.08621826171104
 21
-60.5308151831052
 31
0.0
  0
LINE
  5
A720
330
1F
100
AcDbEntity
  8
AM_0
 48
0.5
100
AcDbLine
 10
-74.09922668457099
 20
-60.5308151831052
 30
0.0
 11
-69.57200805664098
 21
-60.5308151831052
 31
0.0
  0
LINE
  5
A721
330
1F
100
AcDbEntity
  8
AM_0
 48
0.5
100
AcDbLine
 10
-73.82002136231095
 20
-61.03881460327118
 30
0.0
 11
-69.82621948242098
 21
-61.03881460327118
 31
0.0
  0
LINE
  5
A722
330
1F
100
AcDbEntity
  8
AM_0
 48
0.5
100
AcDbLine
 10
-73.91981384278095
 20
-63.8571777929692
 30
0.0
 11
-72.0011767578182
 21
-64.97581487793016
 31
0.0
  0
LINE
  5
A724
330
1F
100
AcDbEntity
  8
AM_0
 48
0.5
100
AcDbLine
 10
-73.82002136231095
 20
-61.03881460327118
 30
0.0
 11
-73.82002136231095
 21
-62.8046913732912
 31
0.0
  0
LINE
  5
A725
330
1F
100
AcDbEntity
  8
AM_0
 48
0.5
100
AcDbLine
 10
-74.09922668457099
 20
-60.5308151831052
 30
0.0
 11
-73.67313417581399
 21
-64.00100125272496
 31
0.0
  0
LINE
  5
A726
330
1F
100
AcDbEntity
  8
AM_0
 48
0.5
100
AcDbLine
 10
-73.8452301025311
 20
-60.0334892858892
 30
0.0
 11
-73.8452301025311
 21
-60.53081136840818
 31
0.0
  0
LINE
  5
A72C
330
1F
100
AcDbEntity
  8
AM_0
 48
0.5
100
AcDbLine
 10
-69.82621948242098
 20
-61.03881460327118
 30
0.0
 11
-69.82621948242098
 21
-62.60120397705119
 31
0.0
  0
LINE
  5
A72D
330
1F
100
AcDbEntity
  8
AM_0
 48
0.5
100
AcDbLine
 10
-69.57200805664098
 20
-60.5308189978032
 30
0.0
 11
-69.99953107727169
 21
-64.01279721827771
 31
0.0
  0
LINE
  5
A72E
330
1F
100
AcDbEntity
  8
AM_0
 48
0.5
100
AcDbLine
 10
-72.00117675781092
 20
-64.97581487793017
 30
0.0
 11
-71.65126220703102
 21
-64.97581487793017
 31
0.0
  0
LINE
  5
A72F
330
1F
100
AcDbEntity
  8
AM_1
 48
0.5
100
AcDbLine
 10
-71.75066780892478
 20
-65.03377185916028
 30
0.0
 11
-71.69048964155798
 21
-64.99868585947462
 31
0.0
  0
LINE
  5
A730
330
1F
100
AcDbEntity
  8
AM_0
 48
0.5
100
AcDbLine
 10
-76.39122009277094
 20
-50.40129476684619
 30
0.0
 11
-75.89122009277094
 21
-50.90129476684619
 31
0.0
  0
LINE
  5
A733
330
1F
100
AcDbEntity
  8
AM_7
 48
0.5
100
AcDbLine
 10
24.43479156494106
 20
7.706794738764
 30
0.0
 11
24.43479156494106
 21
-4.817828312098359
 31
0.0
  0
LINE
  5
A734
330
1F
100
AcDbEntity
  8
AM_7
 48
0.5
100
AcDbLine
 10
37.76979255676303
 20
7.706794738763998
 30
0.0
 11
37.76979255676303
 21
-4.67594306891846
 31
0.0
  0
LINE
  5
A735
330
1F
100
AcDbEntity
  8
AM_0
 48
0.5
100
AcDbLine
 10
0.6095924377440271
 20
0.0124053955080112
 30
0.0
 11
0.6095924377440264
 21
-5.486198425292997
 31
0.0
  0
DIMENSION
  5
A736
330
1F
100
AcDbEntity
  8
PV0001_1
100
AcDbDimension
  2
*D6
 10
-12.94717407226596
 20
0.0000000000000034
 30
0.0
 11
-12.94717407226596
 21
-14.64547036166405
 31
0.0
 70
   160
  1
<>
 71
     5
 42
4.799999463864002
  3
AM_JIS$0
100
AcDbAlignedDimension
 13
0.0000000000000006
 23
4.799999463864002
 33
0.0
 14
0.0
 24
-0.0000000000000002
 34
0.0
 50
89.99999999999998
100
AcDbRotatedDimension
1001
ACAD
1000
DSTYLE
1002
{
1070
   271
1070
     1
1002
}
  0
LINE
  5
A738
330
1F
100
AcDbEntity
  8
AM_7
 48
0.5
100
AcDbLine
 10
-50.20621948242098
 20
-33.87992410251514
 30
0.0
 11
-50.20621948242098
 21
-86.44479693276117
 31
0.0
  0
LINE
  5
A739
330
1F
100
AcDbEntity
  8
AM_0
 48
0.5
100
AcDbLine
 10
-63.74623107910101
 20
-78.26321209990382
 30
0.0
 11
-63.74623107910101
 21
-80.86149221557617
 31
0.0
  0
ARC
  5
A73B
330
1F
100
AcDbEntity
  8
AM_0
 48
0.5
100
AcDbCircle
 10
37.26180076599097
 20
-52.41349035400421
 30
0.0
 40
12.699999809265
100
AcDbArc
 50
239.3165815927233
 51
269.9999974955182
  0
LINE
  5
A73C
330
1F
100
AcDbEntity
  8
AM_7
 48
0.5
100
AcDbLine
 10
29.99739837646507
 20
-49.35683828491222
 30
0.0
 11
29.99739837646507
 21
-68.08742147583021
 31
0.0
  0
LINE
  5
A73F
330
1F
100
AcDbEntity
  8
AM_0
 48
0.5
100
AcDbLine
 10
43.48479270935103
 20
-65.11349111694321
 30
0.0
 11
43.48479270935103
 21
-80.86149221557622
 31
0.0
  0
LINE
  5
A740
330
1F
100
AcDbEntity
  8
AM_0
 48
0.5
100
AcDbLine
 10
0.6095962524410574
 20
-63.71649175781222
 30
0.0
 11
0.6095962524410555
 21
-79.9724337091057
 31
0.0
  0
LINE
  5
A741
330
1F
100
AcDbEntity
  8
PV0001_1
  6
Continuous
 48
0.5
100
AcDbLine
 10
43.48479270935103
 20
-61.93849187988322
 30
0.0
 11
43.48479270935103
 21
-68.28849035400421
 31
0.0
  0
LINE
  5
A742
330
1F
100
AcDbEntity
  8
AM_7
 48
0.5
100
AcDbLine
 10
42.39260673523006
 20
-71.33649068969724
 30
0.0
 11
18.71980285644506
 21
-71.3364906896972
 31
0.0
  0
LINE
  5
A744
330
1F
100
AcDbEntity
  8
AM_0
 48
0.5
100
AcDbLine
 10
19.68499374389704
 20
-80.86149221557622
 30
0.0
 11
43.48479270935103
 21
-80.86149221557622
 31
0.0
  0
LINE
  5
A74A
330
1F
100
AcDbEntity
  8
AM_0
 48
0.5
100
AcDbLine
 10
19.68499374389704
 20
-80.86149221557622
 30
0.0
 11
19.68499374389704
 21
-85.5308170904542
 31
0.0
  0
CIRCLE
  5
A74B
330
1F
100
AcDbEntity
  8
AM_0
 48
0.5
100
AcDbCircle
 10
24.43479919433605
 20
-71.33649068969724
 30
0.0
 40
2.903599977493298
  0
CIRCLE
  5
A74C
330
1F
100
AcDbEntity
  8
AM_0
 48
0.5
100
AcDbCircle
 10
24.43479919433605
 20
-71.33649068969724
 30
0.0
 40
3.2035999298096
  0
CIRCLE
  5
A74D
330
1F
100
AcDbEntity
  8
AM_0
 48
0.5
100
AcDbCircle
 10
24.43479919433605
 20
-71.33649068969724
 30
0.0
 40
3.403599977493298
  0
LINE
  5
A750
330
1F
100
AcDbEntity
  8
AM_7
 48
0.5
100
AcDbLine
 10
24.43479919433605
 20
-67.16976171630822
 30
0.0
 11
24.43479919433604
 21
-76.4329567541502
 31
0.0
  0
ARC
  5
A755
330
1F
100
AcDbEntity
  8
AM_0
 48
0.5
100
AcDbCircle
 10
45.08499336242708
 20
-71.46349340576222
 30
0.0
 40
3.174999952316299
100
AcDbArc
 50
269.9999974955182
 51
90.00000250448174
  0
LINE
  5
A756
330
1F
100
AcDbEntity
  8
AM_0
 48
0.5
100
AcDbLine
 10
43.48479270935103
 20
-74.63849264282224
 30
0.0
 11
43.48479270935103
 21
-85.5308170904542
 31
0.0
  0
CIRCLE
  5
A757
330
1F
100
AcDbEntity
  8
AM_0
 48
0.5
100
AcDbCircle
 10
37.76979637146006
 20
-71.33649068969724
 30
0.0
 40
3.2035999298096
  0
CIRCLE
  5
A758
330
1F
100
AcDbEntity
  8
AM_0
 48
0.5
100
AcDbCircle
 10
37.76979637146006
 20
-71.33649068969724
 30
0.0
 40
2.903599977493298
  0
CIRCLE
  5
A759
330
1F
100
AcDbEntity
  8
AM_0
 48
0.5
100
AcDbCircle
 10
37.76980400085506
 20
-71.33649068969724
 30
0.0
 40
3.403599977493298
  0
LINE
  5
A75D
330
1F
100
AcDbEntity
  8
AM_7
 48
0.5
100
AcDbLine
 10
37.76979637146006
 20
-66.78776174682622
 30
0.0
 11
37.76979637146006
 21
-75.81514364379922
 31
0.0
  0
LINE
  5
A761
330
1F
100
AcDbEntity
  8
AM_0
 48
0.5
100
AcDbLine
 10
43.48479270935103
 20
-74.63849264282224
 30
0.0
 11
45.08499336242708
 21
-74.63849264282224
 31
0.0
  0
LINE
  5
A762
330
1F
100
AcDbEntity
  8
AM_0
 48
0.5
100
AcDbLine
 10
43.48479270935103
 20
-68.28849035400421
 30
0.0
 11
45.08499336242708
 21
-68.28849035400421
 31
0.0
  0
LINE
  5
A763
330
1F
100
AcDbEntity
  8
PV0001_1
  6
Continuous
 48
0.5
100
AcDbLine
 10
24.99739456176803
 20
-50.90129095214821
 30
0.0
 11
34.99739456176803
 21
-50.90129095214821
 31
0.0
  0
LINE
  5
A764
330
1F
100
AcDbEntity
  8
PV0001_1
  6
Continuous
 48
0.5
100
AcDbLine
 10
25.49739456176804
 20
-50.40129095214822
 30
0.0
 11
34.49739456176803
 21
-50.40129095214822
 31
0.0
  0
LINE
  5
A767
330
1F
100
AcDbEntity
  8
AM_0
 48
0.5
100
AcDbLine
 10
19.49660491943403
 20
-61.81149297851622
 30
0.0
 11
38.73499107360803
 21
-61.81149297851622
 31
0.0
  0
LINE
  5
A768
330
1F
100
AcDbEntity
  8
AM_0
 48
0.5
100
AcDbLine
 10
22.43231677664483
 20
-54.01369100708024
 30
0.0
 11
41.96079063415503
 21
-54.01369100708023
 31
0.0
  0
LINE
  5
A769
330
1F
100
AcDbEntity
  8
AM_0
 48
0.5
100
AcDbLine
 10
19.80062103271506
 20
-63.33549123901422
 30
0.0
 11
30.78105926513705
 21
-63.33549123901422
 31
0.0
  0
LINE
  5
A76B
330
1F
100
AcDbEntity
  8
AM_0
100
AcDbLine
 10
0.6095924377440264
 20
-5.486198425292997
 30
0.0
 11
22.48479270935104
 21
-5.486198425292999
 31
0.0
  0
DIMENSION
  5
A76C
330
1F
100
AcDbEntity
  8
PV0001_1
100
AcDbDimension
  2
*D7
 10
-0.0000000000000059
 20
-36.95278567993243
 30
0.0
 11
22.66770172119105
 21
-36.95278567993243
 31
0.0
 70
   160
  1
<>
 71
     5
 42
43.48479270935103
  3
AM_JIS$0
100
AcDbAlignedDimension
 13
43.48479270935103
 23
-55.53769308227522
 33
0.0
 14
-0.0000000000000074
 24
-60.53081518310521
 34
0.0
100
AcDbRotatedDimension
1001
ACAD
1000
DSTYLE
1002
{
1070
   284
1070
     8
1070
   271
1070
     1
1070
    45
1040
0.01
1070
   173
1070
     1
1070
     6
1000
OPEN30
1070
     7
1000
OPEN30
1002
}
  0
ARC
  5
A76D
330
1F
100
AcDbEntity
  8
AM_0
 48
0.5
100
AcDbCircle
 10
13.96999359130903
 20
-61.67381673950121
 30
0.0
 40
0.6349999904633
100
AcDbArc
 50
0.0
 51
90.00000250448174
  0
LINE
  5
A76E
330
1F
100
AcDbEntity
  8
AM_0
 48
0.5
100
AcDbLine
 10
14.60500335693404
 20
-61.60081487793021
 30
0.0
 11
14.305000305176
 21
-61.60081487793021
 31
0.0
  0
LINE
  5
A771
330
1F
100
AcDbEntity
  8
AM_0
 48
0.5
100
AcDbLine
 10
7.366878509522045
 20
-61.03881841796821
 30
0.0
 11
22.43231677664483
 21
-54.01369100708024
 31
0.0
  0
LINE
  5
A772
330
1F
100
AcDbEntity
  8
AM_0
 48
0.5
100
AcDbLine
 10
0.6095962524410574
 20
-63.71649175781222
 30
0.0
 11
16.71318817138705
 21
-63.71649175781222
 31
0.0
  0
LINE
  5
A774
330
1F
100
AcDbEntity
  8
AM_0
 48
0.5
100
AcDbLine
 10
13.33159637451205
 20
-61.0388146032712
 30
0.0
 11
5.629882812499992
 21
-61.0388146032712
 31
0.0
  0
ARC
  5
A775
330
1F
100
AcDbEntity
  8
AM_0
 48
0.5
100
AcDbCircle
 10
1.999999999999993
 20
-52.65581518310521
 30
0.0
 40
8.125
100
AcDbArc
 50
255.7499689244494
 51
284.2500328967826
  0
LINE
  5
A776
330
1F
100
AcDbEntity
  8
PV0001_1
  6
Continuous
 62
   220
 48
0.5
100
AcDbLine
 10
0.6095962524410572
 20
-64.97581487793022
 30
0.0
 11
0.5457763671880606
 21
-64.97581487793022
 31
0.0
  0
LINE
  5
A777
330
1F
100
AcDbEntity
  8
AM_0
 48
0.5
100
AcDbLine
 10
0.0000038146970309
 20
-60.53081518310521
 30
0.0
 11
0.545780181884985
 21
-64.97581487793022
 31
0.0
  0
LINE
  5
A778
330
1F
100
AcDbEntity
  8
AM_0
 48
0.5
100
AcDbLine
 10
4.749999999999992
 20
-60.53081518310521
 30
0.0
 11
3.999999999999992
 21
-60.53081518310521
 31
0.0
  0
LINE
  5
A779
330
1F
100
AcDbEntity
  8
AM_0
 48
0.5
100
AcDbLine
 10
4.749999999999992
 20
-60.53081518310521
 30
0.0
 11
4.749999999999992
 21
-63.71649557251021
 31
0.0
  0
LINE
  5
A77A
330
1F
100
AcDbEntity
  8
AM_0
 48
0.5
100
AcDbLine
 10
5.629882812499992
 20
-61.0388146032712
 30
0.0
 11
4.749999999999992
 21
-60.53081518310521
 31
0.0
  0
LINE
  5
A77B
330
1F
100
AcDbEntity
  8
AM_0
 48
0.5
100
AcDbLine
 10
7.366874694823984
 20
-61.0388146032712
 30
0.0
 11
13.96999359130903
 21
-61.0388146032712
 31
0.0
  0
LINE
  5
A77C
330
1F
100
AcDbEntity
  8
AM_0
 48
0.5
100
AcDbLine
 10
14.305000305176
 20
-61.60081487793021
 30
0.0
 11
13.33158874511706
 21
-61.0388146032712
 31
0.0
  0
LINE
  5
A77D
330
1F
100
AcDbEntity
  8
PV0001_1
  6
Continuous
 48
0.5
100
AcDbLine
 10
24.99739456176803
 20
-50.90129095214821
 30
0.0
 11
24.99739456176803
 21
-54.01369100708022
 31
0.0
  0
ARC
  5
A780
330
1F
100
AcDbEntity
  8
AM_0
 48
0.5
100
AcDbCircle
 10
16.71318817138705
 20
-51.01649099487321
 30
0.0
 40
12.699999809265
100
AcDbArc
 50
269.9999974955182
 51
284.069866166855
  0
LINE
  5
A781
330
1F
100
AcDbEntity
  8
AM_0
 48
0.5
100
AcDbLine
 10
16.63698577880904
 20
-63.46249014038122
 30
0.0
 11
19.49660491943403
 21
-61.81148916381822
 31
0.0
  0
LINE
  5
A782
330
1F
100
AcDbEntity
  8
AM_0
 48
0.5
100
AcDbLine
 10
14.60500335693404
 20
-61.60081487793021
 30
0.0
 11
14.60500335693404
 21
-63.46249395507821
 31
0.0
  0
LINE
  5
A783
330
1F
100
AcDbEntity
  8
AM_0
 48
0.5
100
AcDbLine
 10
14.60500335693404
 20
-62.70049291748021
 30
0.0
 11
17.95682525634798
 21
-62.70049291748021
 31
0.0
  0
LINE
  5
A784
330
1F
100
AcDbEntity
  8
AM_0
 48
0.5
100
AcDbLine
 10
14.60500335693404
 20
-63.46249395507821
 30
0.0
 11
16.63700103759798
 21
-63.46249395507821
 31
0.0
  0
LINE
  5
A785
330
1F
100
AcDbEntity
  8
AM_0
 48
0.5
100
AcDbLine
 10
19.68499374389704
 20
-61.93849187988321
 30
0.0
 11
19.86280059814497
 21
-61.93849187988321
 31
0.0
  0
LINE
  5
A787
330
1F
100
AcDbEntity
  8
AM_0
 48
0.5
100
AcDbLine
 10
19.68499374389704
 20
-61.93849187988321
 30
0.0
 11
19.68499374389704
 21
-63.36389547485321
 31
0.0
  0
LINE
  5
A78A
330
1F
100
AcDbEntity
  8
AM_3
 48
0.5
100
AcDbLine
 10
27.63520050048805
 20
-63.23389059204121
 30
0.0
 11
27.63520050048805
 21
-63.33549123901422
 31
0.0
  0
LINE
  5
A78D
330
1F
100
AcDbEntity
  8
PV0001_1
  6
Continuous
 48
0.5
100
AcDbLine
 10
25.49739456176804
 20
-50.40129095214822
 30
0.0
 11
24.99739456176803
 21
-50.90129095214821
 31
0.0
  0
LINE
  5
A78F
330
1F
100
AcDbEntity
  8
PV0001_1
  6
Continuous
 48
0.5
100
AcDbLine
 10
34.99739456176803
 20
-50.90129095214821
 30
0.0
 11
34.99739456176803
 21
-54.01369100708023
 31
0.0
  0
LINE
  5
A790
330
1F
100
AcDbEntity
  8
AM_0
 48
0.5
100
AcDbLine
 10
38.73499107360803
 20
-65.11349111694321
 30
0.0
 11
43.48479270935103
 21
-65.11349111694321
 31
0.0
  0
LINE
  5
A791
330
1F
100
AcDbEntity
  8
AM_0
 48
0.5
100
AcDbLine
 10
37.26180076599097
 20
-65.11349111694321
 30
0.0
 11
43.48479270935103
 21
-65.11349111694321
 31
0.0
  0
LINE
  5
A798
330
1F
100
AcDbEntity
  8
AM_0
 48
0.5
100
AcDbLine
 10
38.73499107360803
 20
-61.81149297851622
 30
0.0
 11
38.73499107360803
 21
-65.11349111694321
 31
0.0
  0
LINE
  5
A79C
330
1F
100
AcDbEntity
  8
AM_0
 48
0.5
100
AcDbLine
 10
43.48479270935103
 20
-55.53769308227522
 30
0.0
 11
43.48479270935103
 21
-65.11349111694321
 31
0.0
  0
LINE
  5
A79D
330
1F
100
AcDbEntity
  8
AM_0
 48
0.5
100
AcDbLine
 10
41.96079444885298
 20
-54.01369100708023
 30
0.0
 11
43.48479843139703
 21
-55.53769308227522
 31
0.0
  0
LINE
  5
A79E
330
1F
100
AcDbEntity
  8
PV0001_1
  6
Continuous
 48
0.5
100
AcDbLine
 10
34.49739646911598
 20
-50.40129095214822
 30
0.0
 11
34.99739646911598
 21
-50.90129095214821
 31
0.0
  0
DIMENSION
  5
A79F
330
1F
100
AcDbEntity
  8
PV0001_1
100
AcDbDimension
  2
*D8
 10
-24.86740875244095
 20
0.0000000000000069
 30
0.0
 11
-24.86740875244095
 21
12.741401672354
 31
0.0
 70
   160
  1
<>
 71
     5
 42
24.98280334472403
  3
AM_JIS$0
100
AcDbAlignedDimension
 13
27.01954650878906
 23
24.98280334472402
 33
0.0
 14
0.000000000000002
 24
-0.0000000000000001
 34
0.0
 50
89.99999999999998
100
AcDbRotatedDimension
1001
ACAD
1000
DSTYLE
1002
{
1070
    45
1040
0.1
1070
   173
1070
     1
1070
   271
1070
     0
1070
   343
1005
59
1070
   344
1005
59
1002
}
  0
CIRCLE
  5
A7A0
330
1F
100
AcDbEntity
  8
AM_0
 48
0.5
100
AcDbCircle
 10
29.99739456176803
 20
11.658798217774
 30
0.0
 40
4.5
  0
CIRCLE
  5
A7A1
330
1F
100
AcDbEntity
  8
AM_0
100
AcDbCircle
 10
29.99739456176803
 20
11.658798217774
 30
0.0
 40
5.0
  0
CIRCLE
  5
A7A2
330
1F
100
AcDbEntity
  8
AM_0
100
AcDbCircle
 10
29.99739456176803
 20
11.658798217774
 30
0.0
 40
5.1561999320984
  0
LINE
  5
A7A5
330
1F
100
AcDbEntity
  8
AM_0
 48
0.5
100
AcDbLine
 10
25.60709762573208
 20
22.45380401610399
 30
0.0
 11
49.48888683319303
 21
22.45380401610398
 31
0.0
  0
LINE
  5
A7A8
330
1F
100
AcDbEntity
  8
AM_0
 48
0.5
100
AcDbLine
 10
26.75579452514706
 20
20.92980194091398
 30
0.0
 11
35.61079406738304
 21
20.92980194091398
 31
0.0
  0
LINE
  5
A7A9
330
1F
100
AcDbEntity
  8
AM_0
 48
0.5
100
AcDbLine
 10
25.78490066528309
 20
22.45380401610399
 30
0.0
 11
37.13479232788108
 21
22.45380401610399
 31
0.0
  0
LINE
  5
A7AA
330
1F
100
AcDbEntity
  8
AM_0
100
AcDbLine
 10
7.366874694823991
 20
0.8130035400390042
 30
0.0
 11
43.48479270935103
 21
0.8130035400389999
 31
0.0
  0
LINE
  5
A7AC
330
1F
100
AcDbEntity
  8
AM_0
 48
0.5
100
AcDbLine
 10
16.71319580078102
 20
0.4744873046880093
 30
0.0
 11
30.78105926513706
 21
0.4744873046880076
 31
0.0
  0
LINE
  5
A7AE
330
1F
100
AcDbEntity
  8
AM_7
 48
0.5
100
AcDbLine
 10
24.26502227783203
 20
11.658798217774
 30
0.0
 11
37.75524520874
 21
11.65879821777399
 31
0.0
  0
LINE
  5
A7AF
330
1F
100
AcDbEntity
  8
AM_0
 48
0.5
100
AcDbLine
 10
26.75579833984409
 20
20.92980957030398
 30
0.0
 11
21.80155181884799
 21
10.30538940429399
 31
0.0
  0
LINE
  5
A7B0
330
1F
100
AcDbEntity
  8
AM_0
 48
0.5
100
AcDbLine
 10
25.78490066528309
 20
22.45380401610399
 30
0.0
 11
19.86279296875
 21
9.753807067864
 31
0.0
  0
LINE
  5
A7B1
330
1F
100
AcDbEntity
  8
AM_0
 48
0.5
100
AcDbLine
 10
26.78639263692741
 20
24.98280334472401
 30
0.0
 11
19.68499374389705
 21
9.753807067864
 31
0.0
  0
LINE
  5
A7B3
330
1F
100
AcDbEntity
  8
AM_0
 48
0.5
100
AcDbLine
 10
4.75
 20
0.2792205810549993
 30
0.0
 11
14.60500335693405
 21
0.2792205810549981
 31
0.0
  0
LINE
  5
A7B4
330
1F
100
AcDbEntity
  8
AM_0
 48
0.5
100
AcDbLine
 10
8.892047882080078
 20
4.572007751464003
 30
0.0
 11
19.86279678344703
 21
3.779275512694995
 31
0.0
  0
LINE
  5
A7B5
330
1F
100
AcDbEntity
  8
AM_0
 48
0.5
100
AcDbLine
 10
7.366874694823992
 20
4.572000122064001
 30
0.0
 11
19.86279296875
 21
4.572000122063999
 31
0.0
  0
LINE
  5
A7B6
330
1F
100
AcDbEntity
  8
AM_0
 48
0.5
100
AcDbLine
 10
14.02079391479503
 20
4.788720703124001
 30
0.0
 11
19.04999542236305
 21
4.788720703124
 31
0.0
  0
LINE
  5
A7B8
330
1F
100
AcDbEntity
  8
AM_0
 48
0.5
100
AcDbLine
 10
4.75
 20
4.519219970693999
 30
0.0
 11
14.60499572753906
 21
4.519219970693998
 31
0.0
  0
LINE
  5
A7B9
330
1F
100
AcDbEntity
  8
AM_0
 48
0.5
100
AcDbLine
 10
4.75
 20
4.619981384274001
 30
0.0
 11
14.02079391479503
 21
4.619981384274
 31
0.0
  0
LINE
  5
A7BA
330
1F
100
AcDbEntity
  8
AM_0
 48
0.5
100
AcDbLine
 10
4.75
 20
4.632147741641038
 30
0.0
 11
4.75
 21
0.1658615664955497
 31
0.0
  0
LINE
  5
A7BB
330
1F
100
AcDbEntity
  8
AM_0
 48
0.5
100
AcDbLine
 10
0.0000000000000006
 20
4.799997090396698
 30
0.0
 11
0.0
 21
-0.0000000000000002
 31
0.0
  0
LINE
  5
A7BC
330
1F
100
AcDbEntity
  8
AM_0
 48
0.5
100
AcDbLine
 10
0.0
 20
-0.0000000000000002
 30
0.0
 11
4.749941124462907
 21
0.1658703195210541
 31
0.0
  0
LINE
  5
A7BE
330
1F
100
AcDbEntity
  8
AM_0
 48
0.5
100
AcDbLine
 10
0.0000000000000006
 20
4.799999463864002
 30
0.0
 11
4.749684880620518
 21
4.634138092505022
 31
0.0
  0
LINE
  5
A7C0
330
1F
100
AcDbEntity
  8
AM_0
 48
0.5
100
AcDbLine
 10
7.366874694823992
 20
4.519219970693999
 30
0.0
 11
7.366874694823991
 21
0.8130035400390042
 31
0.0
  0
LINE
  5
A7C1
330
1F
100
AcDbEntity
  8
AM_0
 48
0.5
100
AcDbLine
 10
14.02079391479503
 20
4.788720703124001
 30
0.0
 11
14.02079391479503
 21
4.619981384274
 31
0.0
  0
LINE
  5
A7C2
330
1F
100
AcDbEntity
  8
AM_0
 48
0.5
100
AcDbLine
 10
21.80154800415004
 20
10.30538940429399
 30
0.0
 11
21.80154800415004
 21
0.8130035400390024
 31
0.0
  0
LINE
  5
A7C3
330
1F
100
AcDbEntity
  8
AM_0
 48
0.5
100
AcDbLine
 10
19.86279296875
 20
9.753807067864
 30
0.0
 11
19.86279296875
 21
3.779275512694995
 31
0.0
  0
LINE
  5
A7C4
330
1F
100
AcDbEntity
  8
AM_7
 48
0.5
100
AcDbLine
 10
29.99739456176804
 20
18.31120300292398
 30
0.0
 11
29.99739456176803
 21
4.673805236814001
 31
0.0
  0
LINE
  5
A7C5
330
1F
100
AcDbEntity
  8
AM_0
 48
0.5
100
AcDbLine
 10
19.68499374389705
 20
9.753807067864
 30
0.0
 11
19.68499374389705
 21
6.273805236814001
 31
0.0
  0
LINE
  5
A7C7
330
1F
100
AcDbEntity
  8
AM_0
 48
0.5
100
AcDbLine
 10
14.60499572753906
 20
4.519219970693998
 30
0.0
 11
14.60499572753906
 21
0.8130035400390035
 31
0.0
  0
LINE
  5
A7C9
330
1F
100
AcDbEntity
  8
AM_0
 48
0.5
100
AcDbLine
 10
14.60500335693405
 20
0.8130035400390035
 30
0.0
 11
14.60500335693405
 21
0.2792205810549981
 31
0.0
  0
LINE
  5
A7CA
330
1F
100
AcDbEntity
  8
PV0001_1
  6
Continuous
 48
0.5
100
AcDbLine
 10
16.71319580078102
 20
0.4744873046880093
 30
0.0
 11
16.71319580078102
 21
0.4377288818360065
 31
0.0
  0
LINE
  5
A7CB
330
1F
100
AcDbEntity
  8
AM_0
 48
0.5
100
AcDbLine
 10
14.60500335693405
 20
0.4377288818360067
 30
0.0
 11
16.71319580078102
 21
0.4377288818360065
 31
0.0
  0
ARC
  5
A7CC
330
1F
100
AcDbEntity
  8
AM_0
 48
0.5
100
AcDbCircle
 10
19.04999542236305
 20
5.550721740713997
 30
0.0
 40
0.7620000243187
100
AcDbArc
 50
269.9999974955182
 51
0.0
  0
LINE
  5
A7CD
330
1F
100
AcDbEntity
  8
AM_0
 48
0.5
100
AcDbLine
 10
19.81199264526401
 20
6.273805236814001
 30
0.0
 11
19.81199264526401
 21
5.550721740713997
 31
0.0
  0
LINE
  5
A7CE
330
1F
100
AcDbEntity
  8
AM_0
 48
0.5
100
AcDbLine
 10
19.81199264526401
 20
6.273805236814001
 30
0.0
 11
19.81199264526401
 21
5.550719306407719
 31
0.0
  0
LINE
  5
A7CF
330
1F
100
AcDbEntity
  8
AM_0
 48
0.5
100
AcDbLine
 10
19.68499374389705
 20
6.273805236814001
 30
0.0
 11
19.86279296875
 21
6.273805236814001
 31
0.0
  0
LINE
  5
A7D1
330
1F
100
AcDbEntity
  8
AM_0
 48
0.5
100
AcDbLine
 10
19.86279296875
 20
9.753807067864
 30
0.0
 11
21.80154800415004
 21
10.30538940429399
 31
0.0
  0
LINE
  5
A7D5
330
1F
100
AcDbEntity
  8
AM_0
 48
0.5
100
AcDbLine
 10
25.78490066528309
 20
22.45380401610399
 30
0.0
 11
26.75579452514706
 21
20.92980194091398
 31
0.0
  0
LINE
  5
A7D6
330
1F
100
AcDbEntity
  8
PV0001_1
  6
Continuous
 48
0.5
100
AcDbLine
 10
24.15026092529308
 20
19.32960510253398
 30
0.0
 11
24.32806015014706
 21
19.32960510253398
 31
0.0
  0
LINE
  5
A7D8
330
1F
100
AcDbEntity
  8
AM_0
 48
0.5
100
AcDbLine
 10
43.48479270935103
 20
19.32960510253398
 30
0.0
 11
43.48479270935103
 21
4.673805236813999
 31
0.0
  0
LINE
  5
A7D9
330
1F
100
AcDbEntity
  8
AM_0
 48
0.5
100
AcDbLine
 10
35.61079406738304
 20
20.92980194091398
 30
0.0
 11
35.61079406738304
 21
4.165802001943997
 31
0.0
  0
LINE
  5
A7DA
330
1F
100
AcDbEntity
  8
AM_0
 48
0.5
100
AcDbLine
 10
37.13479232788108
 20
22.45380401610399
 30
0.0
 11
37.13479232788108
 21
4.165802001943997
 31
0.0
  0
LINE
  5
A7DB
330
1F
100
AcDbEntity
  8
AM_0
 48
0.5
100
AcDbLine
 10
37.13479232788108
 20
4.673805236814
 30
0.0
 11
43.48479270935103
 21
4.673805236813999
 31
0.0
  0
LINE
  5
A7DC
330
1F
100
AcDbEntity
  8
AM_0
 48
0.5
100
AcDbLine
 10
35.61079406738304
 20
4.165802001943997
 30
0.0
 11
43.48479270935103
 21
4.165802001943996
 31
0.0
  0
LINE
  5
A7DE
330
1F
100
AcDbEntity
  8
AM_0
 48
0.5
100
AcDbLine
 10
30.78105926513706
 20
0.2259216308590015
 30
0.0
 11
43.48479270935103
 21
0.2259216308589999
 31
0.0
  0
LINE
  5
A7DF
330
1F
100
AcDbEntity
  8
AM_0
 48
0.5
100
AcDbLine
 10
38.73499298095703
 20
4.165802001943997
 30
0.0
 11
38.73499298095703
 21
0.8130035400390005
 31
0.0
  0
LINE
  5
A7E1
330
1F
100
AcDbEntity
  8
AM_0
 48
0.5
100
AcDbLine
 10
30.78105926513706
 20
0.8130035400390013
 30
0.0
 11
30.78105926513706
 21
0.2259216308590015
 31
0.0
  0
LINE
  5
A7E2
330
1F
100
AcDbEntity
  8
AM_0
 48
0.5
100
AcDbLine
 10
41.96079254150403
 20
4.165802001943996
 30
0.0
 11
41.96079254150403
 21
0.8130035400390001
 31
0.0
  0
LINE
  5
A7E3
330
1F
100
AcDbEntity
  8
AM_0
 48
0.5
100
AcDbLine
 10
43.48479270935103
 20
4.165802001943996
 30
0.0
 11
43.48479270935103
 21
0.8130035400389999
 31
0.0
  0
LINE
  5
A7E4
330
1F
100
AcDbEntity
  8
AM_0
 48
0.5
100
AcDbLine
 10
43.48479270935103
 20
4.673805236813999
 30
0.0
 11
43.48479270935103
 21
0.4828033447269977
 31
0.0
  0
LINE
  5
A7E9
330
1F
100
AcDbEntity
  8
AM_0
 48
0.5
100
AcDbLine
 10
37.13479232788108
 20
19.32960510253398
 30
0.0
 11
49.48888683319303
 21
19.32960510253398
 31
0.0
  0
LINE
  5
A7EB
330
1F
100
AcDbEntity
  8
AM_0
 48
0.5
100
AcDbLine
 10
37.134790420532
 20
22.45380401610399
 30
0.0
 11
35.610790252686
 21
20.92980194091398
 31
0.0
  0
LINE
  5
A7EC
330
1F
100
AcDbEntity
  8
AM_0
 48
0.5
100
AcDbLine
 10
43.48479270935103
 20
24.98280334472402
 30
0.0
 11
43.48479270935103
 21
22.45380401610399
 31
0.0
  0
LINE
  5
A7F1
330
1F
100
AcDbEntity
  8
AM_0
 48
0.5
100
AcDbLine
 10
149.999999999999
 20
-60.53081518310525
 30
0.0
 11
149.999999999999
 21
-85.53081709045425
 31
0.0
  0
LINE
  5
A7F4
330
1F
100
AcDbEntity
  8
AM_0
 48
0.5
100
AcDbLine
 10
149.999999999999
 20
24.98280334472397
 30
0.0
 11
149.999999999999
 21
-0.0171966552730298
 31
0.0
  0
DIMENSION
  5
A969
330
1F
100
AcDbEntity
  8
AM_5
100
AcDbDimension
  2
*D9
 10
168.9145714225142
 20
-60.53081518310525
 30
0.0
 11
166.2142367768449
 21
-73.03081613677973
 31
0.0
 70
    32
 71
     5
 42
25.000001907349
  3
AM_JIS$0
100
AcDbAlignedDimension
 13
149.999999999999
 23
-85.53081709045425
 33
0.0
 14
149.999999999999
 24
-60.53081518310525
 34
0.0
 50
89.99999999999998
100
AcDbRotatedDimension
1001
ACAD
1000
DSTYLE
1002
{
1070
   271
1070
     0
1002
}
  0
DIMENSION
  5
A976
330
1F
100
AcDbEntity
  8
AM_5
100
AcDbDimension
  2
*D10
 10
168.54108459959
 20
24.98280334472396
 30
0.0
 11
165.8407499539207
 21
12.48280334472549
 31
0.0
 70
    32
 71
     5
 42
24.999999999997
  3
AM_JIS$0
100
AcDbAlignedDimension
 13
149.999999999999
 23
-0.0171966552730298
 33
0.0
 14
149.999999999999
 24
24.98280334472397
 34
0.0
 50
89.99999999999998
100
AcDbRotatedDimension
1001
ACAD
1000
DSTYLE
1002
{
1070
   271
1070
     0
1002
}
  0
DIMENSION
  5
AA72
330
1F
100
AcDbEntity
  8
AM_11
100
AcDbDimension
  2
*D11
 10
-62.94065662598614
 20
-40.16898081807201
 30
0.0
 11
-27.85391822126026
 21
-88.96225825078165
 31
0.0
 70
   163
 71
     5
 42
47.99989666620301
  3
AM_JIS$3
100
AcDbDiametricDimension
 15
-37.48820438837134
 25
-80.86496041136973
 35
0.0
 40
0.0
1001
ACAD
1000
DSTYLE
1002
{
1070
   271
1070
     0
1002
}
  0
CIRCLE
  5
AA8A
330
1F
100
AcDbEntity
  8
AM_11
 48
0.2
100
AcDbCircle
 10
-50.23385653867491
 20
-60.53081518310521
 30
0.0
 40
24.0
  0
ARC
  5
AAE8
330
1F
100
AcDbEntity
  8
AM_1
 48
0.5
100
AcDbCircle
 10
-71.82621965192118
 20
-64.90418822199939
 30
0.0
 40
0.15
100
AcDbArc
 50
239.7562174378604
 51
300.2436975449743
  0
LINE
  5
AAE9
330
1F
100
AcDbEntity
  8
AM_0
 48
0.5
100
AcDbLine
 10
-71.65126220703829
 20
-64.97581487793016
 30
0.0
 11
-69.89563908956469
 21
-63.95222451545995
 31
0.0
  0
LINE
  5
AAEA
330
1F
100
AcDbEntity
  8
AM_1
 48
0.5
100
AcDbLine
 10
-71.9548470069013
 20
-65.0028268532114
 30
0.0
 11
-71.90177168719753
 21
-65.03377174705409
 31
0.0
  0
ARC
  5
AAF4
330
1F
100
AcDbEntity
  8
AM_0
100
AcDbCircle
 10
-42.20621948242096
 20
-60.5308151831052
 30
0.0
 40
27.9
100
AcDbArc
 50
187.0439786823383
 51
219.4622569512655
  0
ARC
  5
AAF5
330
1F
100
AcDbEntity
  8
AM_0
100
AcDbCircle
 10
-50.20621948242097
 20
-60.5308151831052
 30
0.0
 40
23.7
100
AcDbArc
 50
188.4544510854288
 51
235.1584776374924
  0
LINE
  5
AB2D
330
1F
100
AcDbEntity
  8
AM_0
 48
0.5
100
AcDbLine
 10
0.6095962524410556
 20
-78.26321209990384
 30
0.0
 11
22.10959625244105
 21
-78.26321209990384
 31
0.0
  0
LINE
  5
AB3D
330
1F
100
AcDbEntity
  8
AM_0
 48
0.5
100
AcDbLine
 10
22.10959625244105
 20
-63.23389059204121
 30
0.0
 11
22.10959625244105
 21
-68.8509476734138
 31
0.0
  0
LINE
  5
AB3E
330
1F
100
AcDbEntity
  8
AM_0
 48
0.5
100
AcDbLine
 10
22.10959625244105
 20
-73.82203370598064
 30
0.0
 11
22.10959625244105
 21
-80.86149221557622
 31
0.0
  0
LINE
  5
AB40
330
1F
100
AcDbEntity
  8
AM_0
100
AcDbLine
 10
0.6095962524410555
 20
-79.9724337091057
 30
0.0
 11
19.81198883056604
 21
-79.9724337091057
 31
0.0
  0
LINE
  5
AB41
330
1F
100
AcDbEntity
  8
AM_0
100
AcDbLine
 10
19.81198883056604
 20
-79.9724337091057
 30
0.0
 11
19.81198883056604
 21
-80.86149221557622
 31
0.0
  0
LINE
  5
AB9A
330
1F
100
AcDbEntity
  8
AM_0
100
AcDbLine
 10
22.48479270935104
 20
-3.017196655272998
 30
0.0
 11
23.48479270935104
 21
-2.017196655272998
 31
0.0
  0
LINE
  5
AB9B
330
1F
100
AcDbEntity
  8
AM_0
 48
0.5
100
AcDbLine
 10
22.48479270935104
 20
-3.017196655272998
 30
0.0
 11
22.48479270935104
 21
-5.486198425292999
 31
0.0
  0
LINE
  5
AB9C
330
1F
100
AcDbEntity
  8
AM_0
100
AcDbLine
 10
23.48479270935104
 20
-2.017196655272998
 30
0.0
 11
43.48479270935103
 21
-2.017196655273
 31
0.0
  0
LINE
  5
AB9D
330
1F
100
AcDbEntity
  8
AM_0
 48
0.5
100
AcDbLine
 10
43.48479270935103
 20
0.4828033447269977
 30
0.0
 11
43.48479270935103
 21
-2.017196655273
 31
0.0
  0
LINE
  5
AB9F
330
1F
100
AcDbEntity
  8
AM_5
100
AcDbLine
 10
149.999999999999
 20
-0.0171966552730298
 30
0.0
 11
149.999999999999
 21
-60.53081518310523
 31
0.0
  0
LINE
  5
ABA0
330
1F
100
AcDbEntity
  8
AM_5
100
AcDbLine
 10
-0.0000000000000074
 20
-60.53081518310521
 30
0.0
 11
0.0
 21
-0.0000000000000001
 31
0.0
  0
ARC
  5
ABAD
330
1F
100
AcDbEntity
  8
AM_0
100
AcDbCircle
 10
49.48888683319303
 20
20.89170455931899
 30
0.0
 40
1.562099456785004
100
AcDbArc
 50
270.0
 51
90.0
  0
ENDSEC
  0
SECTION
  2
OBJECTS
  0
DICTIONARY
  5
C
330
0
100
AcDbDictionary
281
     1
  3
ACAD_COLOR
350
AC14
  3
ACAD_GROUP
350
D
  3
ACAD_LAYOUT
350
1A
  3
ACAD_MATERIAL
350
AC13
  3
ACAD_MLINESTYLE
350
17
  3
ACAD_PLOTSETTINGS
350
19
  3
ACAD_PLOTSTYLENAME
350
E
  3
ACAD_TABLESTYLE
350
AC15
  3
ACDBHEADERROUNDTRIPXREC
350
ADDA
  3
ACDBVARIABLEDICTIONARY
350
30
  3
ACMDICTIONARY
350
4D
  3
AMG
350
3F
  3
AMGSNAPSETTINGS
350
73
  3
DWGPROPS
350
ADD9
  3
ENG_DATA
350
21C6
  3
FILENAME
350
21C9
  3
HOLD_DIC_DATA
350
21C4
  3
TABLE_DIC_DATA
350
1C0B
  3
ZWKSIZE
350
21CB
  0
DICTIONARY
  5
165
330
1F
100
AcDbDictionary
280
     1
281
     1
  3
ACAD_INDEX
360
ABBF
  3
ACAD_LAYOUTSELFREF
360
ABF1
  0
DICTIONARY
  5
ABEF
330
1B
100
AcDbDictionary
280
     1
281
     1
  3
ACAD_LAYOUTSELFREF
360
ABF0
  0
DICTIONARY
  5
AC14
102
{ACAD_REACTORS
330
C
102
}
330
C
100
AcDbDictionary
281
     1
  0
DICTIONARY
  5
D
102
{ACAD_REACTORS
330
C
102
}
330
C
100
AcDbDictionary
281
     1
  3
*A1
350
7C0D
  3
*A2
350
7C0E
  3
*A3
350
7FE3
  3
*A4
350
8E0E
  0
DICTIONARY
  5
1A
102
{ACAD_REACTORS
330
C
102
}
330
C
100
AcDbDictionary
281
     1
  3
Model
350
AC17
  3
レイアウト1
350
AC18
  0
DICTIONARY
  5
AC13
102
{ACAD_REACTORS
330
C
102
}
330
C
100
AcDbDictionary
281
     1
  0
DICTIONARY
  5
17
102
{ACAD_REACTORS
330
C
102
}
330
C
100
AcDbDictionary
281
     1
  3
STANDARD
350
18
  0
DICTIONARY
  5
19
102
{ACAD_REACTORS
330
C
102
}
330
C
100
AcDbDictionary
281
     1
  0
ACDBDICTIONARYWDFLT
  5
E
102
{ACAD_REACTORS
330
C
102
}
330
C
100
AcDbDictionary
281
     1
  3
Normal
350
F
100
AcDbDictionaryWithDefault
340
F
  0
DICTIONARY
  5
AC15
102
{ACAD_REACTORS
330
C
102
}
330
C
100
AcDbDictionary
281
     1
  3
Standard
350
AC16
  0
DICTIONARY
  5
ADDA
102
{ACAD_REACTORS
330
C
102
}
330
C
100
AcDbDictionary
281
     1
  0
DICTIONARY
  5
30
102
{ACAD_REACTORS
330
C
102
}
330
C
100
AcDbDictionary
281
     1
  3
CTABLESTYLE
350
ACB8
  3
DIMASSOC
350
ACB9
  3
INDEXCTL
350
31
  3
PROJECTNAME
350
ACBA
  3
SORTENTS
350
42BE
  0
DICTIONARY
  5
4D
102
{ACAD_REACTORS
330
C
102
}
330
C
100
AcDbDictionary
281
     1
  3
ACMSTDDICTIONARY
350
17E
  3
AMDTSECTSYM_ARROWCOLOR
350
AD36
  0
DICTIONARY
  5
3F
102
{ACAD_REACTORS
330
C
102
}
330
C
100
AcDbDictionary
281
     1
  0
DICTIONARY
  5
73
102
{ACAD_REACTORS
330
C
102
}
330
C
100
AcDbDictionary
281
     1
  0
XRECORD
  5
ADD9
102
{ACAD_REACTORS
330
C
102
}
330
C
100
AcDbXrecord
280
     1
  1
DWGPROPS COOKIE
  2

  3

  4

  6

  7

  8
津田
  9

300
AmdtFileType=82
301
=
302
=
303
=
304
=
305
=
306
=
307
=
308
=
309
=
 40
0.9122057523148148
 41
2451943.610431666
 42
2455603.346945706
  1

 90
        1
  0
DICTIONARY
  5
21C6
102
{ACAD_REACTORS
330
C
102
}
330
C
100
AcDbDictionary
281
     1
  3
ENG_ID
350
21C7
  0
DICTIONARY
  5
21C9
102
{ACAD_REACTORS
330
C
102
}
330
C
100
AcDbDictionary
281
     1
  3
FILENAME
350
21CA
  0
DICTIONARY
  5
21C4
102
{ACAD_REACTORS
330
C
102
}
330
C
100
AcDbDictionary
281
     1
  3
HOLD_DATA
350
21C5
  0
DICTIONARY
  5
1C0B
102
{ACAD_REACTORS
330
C
102
}
330
C
100
AcDbDictionary
281
     1
  3
INPUT_DATA
350
1C0D
  3
TABLE_DATA
350
1C0C
  0
DICTIONARY
  5
21CB
102
{ACAD_REACTORS
330
C
102
}
330
C
100
AcDbDictionary
281
     1
  3
ZWKSIZE
350
21CC
  0
DICTIONARY
  5
ABBF
102
{ACAD_REACTORS
330
165
102
}
330
165
100
AcDbDictionary
281
     1
  3
*A1
350
ABC0
  0
XRECORD
  5
ABF1
102
{ACAD_REACTORS
330
165
102
}
330
165
100
AcDbXrecord
280
     1
340
1F
  0
XRECORD
  5
ABF0
102
{ACAD_REACTORS
330
ABEF
102
}
330
ABEF
100
AcDbXrecord
280
     1
340
1B
  0
GROUP
  5
7C0D
102
{ACAD_REACTORS
330
D
102
}
330
D
100
AcDbGroup
300

 70
     1
 71
     1
  0
GROUP
  5
7C0E
102
{ACAD_REACTORS
330
D
102
}
330
D
100
AcDbGroup
300

 70
     1
 71
     1
  0
GROUP
  5
7FE3
102
{ACAD_REACTORS
330
D
102
}
330
D
100
AcDbGroup
300

 70
     1
 71
     1
  0
GROUP
  5
8E0E
102
{ACAD_REACTORS
330
D
102
}
330
D
100
AcDbGroup
300

 70
     1
 71
     1
  0
LAYOUT
  5
AC17
102
{ACAD_XDICTIONARY
360
ADDB
102
}
102
{ACAD_REACTORS
330
1A
102
}
330
1A
100
AcDbPlotSettings
  1

  2
SII LP-2150 (D-SCAN C2)
  4

  6

 40
0.0
 41
0.0
 42
0.0
 43
0.0
 44
0.0
 45
0.0
 46
0.0
 47
0.0
 48
0.0
 49
0.0
140
0.0
141
0.0
142
1.0
143
1.0
 70
  1712
 72
     0
 73
     0
 74
     0
  7
sei_cad.ctb
 75
     0
147
1.0
148
0.0
149
0.0
100
AcDbLayout
  1
Model
 70
     1
 71
     0
 10
0.0
 20
0.0
 11
12.0
 21
9.0
 12
0.0
 22
0.0
 32
0.0
 14
0.0
 24
0.0
 34
0.0
 15
0.0
 25
0.0
 35
0.0
146
0.0
 13
0.0
 23
0.0
 33
0.0
 16
1.0
 26
0.0
 36
0.0
 17
0.0
 27
1.0
 37
0.0
 76
     0
330
1F
  0
LAYOUT
  5
AC18
102
{ACAD_XDICTIONARY
360
ADDD
102
}
102
{ACAD_REACTORS
330
1A
102
}
330
1A
100
AcDbPlotSettings
  1

  2
SII LP-2150 (D-SCAN C2)
  4

  6

 40
0.0
 41
0.0
 42
0.0
 43
0.0
 44
0.0
 45
0.0
 46
0.0
 47
0.0
 48
0.0
 49
0.0
140
0.0
141
0.0
142
1.0
143
1.0
 70
   688
 72
     0
 73
     0
 74
     5
  7
sei_cad.ctb
 75
    16
147
1.0
148
0.0
149
0.0
100
AcDbLayout
  1
レイアウト1
 70
     1
 71
     1
 10
0.0
 20
0.0
 11
420.0
 21
297.0
 12
0.0
 22
0.0
 32
0.0
 14
1.000000000000000E+20
 24
1.000000000000000E+20
 34
1.000000000000000E+20
 15
-1.000000000000000E+20
 25
-1.000000000000000E+20
 35
-1.000000000000000E+20
146
0.0
 13
0.0
 23
0.0
 33
0.0
 16
1.0
 26
0.0
 36
0.0
 17
0.0
 27
1.0
 37
0.0
 76
     0
330
1B
  0
MLINESTYLE
  5
18
102
{ACAD_REACTORS
330
17
102
}
330
17
100
AcDbMlineStyle
  2
STANDARD
 70
     0
  3

 62
   256
 51
90.0
 52
90.0
 71
     2
 49
0.5
 62
   256
  6
BYLAYER
 49
-0.5
 62
   256
  6
BYLAYER
  0
ACDBPLACEHOLDER
  5
F
102
{ACAD_REACTORS
330
E
102
}
330
E
  0
TABLESTYLE
  5
AC16
102
{ACAD_REACTORS
330
AC15
102
}
330
AC15
100
AcDbTableStyle
  3
Standard
 70
     0
 71
     0
 40
1.5
 41
1.5
280
     0
281
     0
  7
STANDARD
140
4.5
170
     2
 62
     0
 63
     7
283
     0
274
    -2
284
     1
 64
     0
275
    -2
285
     1
 65
     0
276
    -2
286
     1
 66
     0
277
    -2
287
     1
 67
     0
278
    -2
288
     1
 68
     0
279
    -2
289
     1
 69
     0
  7
STANDARD
140
6.0
170
     5
 62
     0
 63
     7
283
     0
274
    -2
284
     1
 64
     0
275
    -2
285
     1
 65
     0
276
    -2
286
     1
 66
     0
277
    -2
287
     1
 67
     0
278
    -2
288
     1
 68
     0
279
    -2
289
     1
 69
     0
  7
STANDARD
140
4.5
170
     5
 62
     0
 63
     7
283
     0
274
    -2
284
     1
 64
     0
275
    -2
285
     1
 65
     0
276
    -2
286
     1
 66
     0
277
    -2
287
     1
 67
     0
278
    -2
288
     1
 68
     0
279
    -2
289
     1
 69
     0
  0
DICTIONARYVAR
  5
ACB8
102
{ACAD_REACTORS
330
30
102
}
330
30
100
DictionaryVariables
280
     0
  1
STANDARD
  0
DICTIONARYVAR
  5
ACB9
102
{ACAD_REACTORS
330
30
102
}
330
30
100
DictionaryVariables
280
     0
  1
1
  0
DICTIONARYVAR
  5
31
102
{ACAD_REACTORS
330
30
102
}
330
30
100
DictionaryVariables
280
     0
  1
1
  0
DICTIONARYVAR
  5
ACBA
102
{ACAD_REACTORS
330
30
102
}
330
30
100
DictionaryVariables
280
     0
  1

  0
DICTIONARYVAR
  5
42BE
102
{ACAD_REACTORS
330
30
102
}
330
30
100
DictionaryVariables
280
     0
  1
96
  0
DICTIONARY
  5
17E
102
{ACAD_REACTORS
330
4D
102
}
330
4D
100
AcDbDictionary
281
     1
  0
XRECORD
  5
AD36
102
{ACAD_REACTORS
330
4D
102
}
330
4D
100
AcDbXrecord
280
     1
 90
-1023410169
  0
XRECORD
  5
21C7
102
{ACAD_REACTORS
330
21C6
102
}
330
21C6
100
AcDbXrecord
280
     1
  1
HOLD
  0
XRECORD
  5
21CA
102
{ACAD_REACTORS
330
21C9
102
}
330
21C9
100
AcDbXrecord
280
     1
  1
21000065__00___
  0
XRECORD
  5
21C5
102
{ACAD_REACTORS
330
21C4
102
}
330
21C4
100
AcDbXrecord
280
     1
  1
クランクシャフト加工用 ^M^J１コーナー型 ^M^J15.875 ^M^J20 ^M^Jクランプオン ^M^J９０° ^M^J1 ^M^J鋼 ^M^J ^M^J ^M^J ^M^J ^M^J
  0
XRECORD
  5
1C0D
102
{ACAD_REACTORS
330
1C0B
102
}
330
1C0B
100
AcDbXrecord
280
     1
  1
1,,,,,,,,,^M^J2,,,,,,,,,^M^J3,,,,,,,,,^M^J4,,,,,,,,,^M^J5,,,,,,,,,^M^J6,,,,,,,,,^M^J7,,,,,,,,,^M^J8,,,,,,,,,^M^J9,,,,,,,,,^M^J10,,,,,,,,,
  0
XRECORD
  5
1C0C
102
{ACAD_REACTORS
330
1C0B
102
}
330
1C0B
100
AcDbXrecord
280
     1
  1
10,10
  0
XRECORD
  5
21CC
102
{ACAD_REACTORS
330
21CB
102
}
330
21CB
100
AcDbXrecord
280
     1
  1
3
  0
LAYER_INDEX
  5
ABC0
102
{ACAD_REACTORS
330
ABBF
102
}
330
ABBF
100
AcDbIndex
 40
2455603.346945706
100
AcDbLayerIndex
  8
0
360
ABC1
 90
        0
  8
AM_5
360
ABC2
 90
        4
  8
DEFPOINTS
360
ABC3
 90
        0
  8
AM_0
360
ABC4
 90
      160
  8
AM_6
360
ABC5
 90
        1
  8
AM_1
360
ABC6
 90
        3
  8
AM_3
360
ABC7
 90
        1
  8
AM_7
360
ABC8
 90
       13
  8
PV0001_1
360
ABC9
 90
       15
  8
AM_11
360
ABCA
 90
        2
  0
DICTIONARY
  5
ADDB
330
AC17
100
AcDbDictionary
280
     1
281
     1
  3
ACAD_XREC_ROUNDTRIP
360
ADDC
  0
DICTIONARY
  5
ADDD
330
AC18
100
AcDbDictionary
280
     1
281
     1
  3
ACAD_XREC_ROUNDTRIP
360
ADDE
  0
IDBUFFER
  5
ABC1
330
0
100
AcDbIdBuffer
  0
IDBUFFER
  5
ABC2
330
0
100
AcDbIdBuffer
330
A969
330
A976
330
AB9F
330
ABA0
  0
IDBUFFER
  5
ABC3
330
0
100
AcDbIdBuffer
  0
IDBUFFER
  5
ABC4
330
0
100
AcDbIdBuffer
330
A6E6
330
A6E7
330
A6E8
330
A6E9
330
A6F2
330
A6F5
330
A6F8
330
A6F9
330
A6FA
330
A6FB
330
A6FC
330
A6FD
330
A6FE
330
A6FF
330
A700
330
A701
330
A702
330
A703
330
A706
330
A709
330
A70A
330
A70B
330
A70C
330
A70D
330
A70E
330
A70F
330
A710
330
A711
330
A712
330
A713
330
A714
330
A715
330
A716
330
A717
330
A719
330
A71A
330
A71B
330
A71C
330
A71D
330
A71E
330
A71F
330
A720
330
A721
330
A722
330
A724
330
A725
330
A726
330
A72C
330
A72D
330
A72E
330
A730
330
A735
330
A739
330
A73B
330
A73F
330
A740
330
A744
330
A74A
330
A74B
330
A74C
330
A74D
330
A755
330
A756
330
A757
330
A758
330
A759
330
A761
330
A762
330
A767
330
A768
330
A769
330
A76B
330
A76D
330
A76E
330
A771
330
A772
330
A774
330
A775
330
A777
330
A778
330
A779
330
A77A
330
A77B
330
A77C
330
A780
330
A781
330
A782
330
A783
330
A784
330
A785
330
A787
330
A790
330
A791
330
A798
330
A79C
330
A79D
330
A7A0
330
A7A1
330
A7A2
330
A7A5
330
A7A8
330
A7A9
330
A7AA
330
A7AC
330
A7AF
330
A7B0
330
A7B1
330
A7B3
330
A7B4
330
A7B5
330
A7B6
330
A7B8
330
A7B9
330
A7BA
330
A7BB
330
A7BC
330
A7BE
330
A7C0
330
A7C1
330
A7C2
330
A7C3
330
A7C5
330
A7C7
330
A7C9
330
A7CB
330
A7CC
330
A7CD
330
A7CE
330
A7CF
330
A7D1
330
A7D5
330
A7D8
330
A7D9
330
A7DA
330
A7DB
330
A7DC
330
A7DE
330
A7DF
330
A7E1
330
A7E2
330
A7E3
330
A7E4
330
A7E9
330
A7EB
330
A7EC
330
A7F1
330
A7F4
330
AAE9
330
AAF4
330
AAF5
330
AB2D
330
AB3D
330
AB3E
330
AB40
330
AB41
330
AB9A
330
AB9B
330
AB9C
330
AB9D
330
ABAD
  0
IDBUFFER
  5
ABC5
330
0
100
AcDbIdBuffer
330
83BD
  0
IDBUFFER
  5
ABC6
330
0
100
AcDbIdBuffer
330
A72F
330
AAE8
330
AAEA
  0
IDBUFFER
  5
ABC7
330
0
100
AcDbIdBuffer
330
A78A
  0
IDBUFFER
  5
ABC8
330
0
100
AcDbIdBuffer
330
A73C
330
A742
330
A750
330
A75D
330
A7AE
330
A7C4
330
A6F1
330
A6F3
330
A6F6
330
A6F7
330
A733
330
A734
330
A738
  0
IDBUFFER
  5
ABC9
330
0
100
AcDbIdBuffer
330
A7CA
330
A7D6
330
A6EA
330
A718
330
A736
330
A741
330
A763
330
A764
330
A76C
330
A776
330
A77D
330
A78D
330
A78F
330
A79E
330
A79F
  0
IDBUFFER
  5
ABCA
330
0
100
AcDbIdBuffer
330
AA72
330
AA8A
  0
XRECORD
  5
ADDC
102
{ACAD_REACTORS
330
ADDB
102
}
330
ADDB
100
AcDbXrecord
280
     1
102
SHADEPLOT
 70
     0
102
SHADEPLOTRESLEVEL
 70
     2
102
SHADEPLOTCUSTOMDPI
 70
   300
  0
XRECORD
  5
ADDE
102
{ACAD_REACTORS
330
ADDD
102
}
330
ADDD
100
AcDbXrecord
280
     1
102
SHADEPLOT
 70
     0
102
SHADEPLOTRESLEVEL
 70
     2
102
SHADEPLOTCUSTOMDPI
 70
   300
  0
ENDSEC
  0
EOF
