  0
SECTION
  2
HEADER
  9
$ACADVER
  1
AC1015
  9
$ACADMAINTVER
 70
    20
  9
$DWGCODEPAGE
  3
ANSI_932
  9
$INSBASE
 10
0.0
 20
0.0
 30
0.0
  9
$EXTMIN
 10
-35.25037154751897
 20
-97.23315275502091
 30
-0.0000000000112498
  9
$EXTMAX
 10
169.5856733146871
 20
67.97915949050502
 30
0.0000000000002956
  9
$LIMMIN
 10
-224.9336675723706
 20
-124.3689437256741
  9
$LIMMAX
 10
84.60152238439922
 20
124.2499793899679
  9
$ORTHOMODE
 70
     0
  9
$REGENMODE
 70
     1
  9
$FILLMODE
 70
     1
  9
$QTEXTMODE
 70
     0
  9
$MIRRTEXT
 70
     1
  9
$LTSCALE
 40
1.0
  9
$ATTMODE
 70
     1
  9
$TEXTSIZE
 40
2.5
  9
$TRACEWID
 40
1.0
  9
$TEXTSTYLE
  7
STANDARD
  9
$CLAYER
  8
AM_5
  9
$CELTYPE
  6
BYLAYER
  9
$CECOLOR
 62
   256
  9
$CELTSCALE
 40
1.0
  9
$DISPSILH
 70
     0
  9
$DIMSCALE
 40
1.0
  9
$DIMASZ
 40
2.5
  9
$DIMEXO
 40
0.0
  9
$DIMDLI
 40
10.0
  9
$DIMRND
 40
0.0
  9
$DIMDLE
 40
0.0
  9
$DIMEXE
 40
1.0
  9
$DIMTP
 40
0.1
  9
$DIMTM
 40
0.1000000001
  9
$DIMTXT
 40
3.799999999999998
  9
$DIMCEN
 40
0.0
  9
$DIMTSZ
 40
0.0
  9
$DIMTOL
 70
     0
  9
$DIMLIM
 70
     0
  9
$DIMTIH
 70
     0
  9
$DIMTOH
 70
     0
  9
$DIMSE1
 70
     0
  9
$DIMSE2
 70
     0
  9
$DIMTAD
 70
     3
  9
$DIMZIN
 70
     9
  9
$DIMBLK
  1
Open30
  9
$DIMASO
 70
     1
  9
$DIMSHO
 70
     1
  9
$DIMPOST
  1

  9
$DIMAPOST
  1
"
  9
$DIMALT
 70
     0
  9
$DIMALTD
 70
     2
  9
$DIMALTF
 40
0.0393701
  9
$DIMLFAC
 40
1.0
  9
$DIMTOFL
 70
     1
  9
$DIMTVP
 40
0.0
  9
$DIMTIX
 70
     0
  9
$DIMSOXD
 70
     0
  9
$DIMSAH
 70
     0
  9
$DIMBLK1
  1

  9
$DIMBLK2
  1

  9
$DIMSTYLE
  2
AM_JIS
  9
$DIMCLRD
 70
   256
  9
$DIMCLRE
 70
   256
  9
$DIMCLRT
 70
     2
  9
$DIMTFAC
 40
0.71
  9
$DIMGAP
 40
1.5
  9
$DIMJUST
 70
     0
  9
$DIMSD1
 70
     0
  9
$DIMSD2
 70
     0
  9
$DIMTOLJ
 70
     0
  9
$DIMTZIN
 70
     8
  9
$DIMALTZ
 70
     0
  9
$DIMALTTZ
 70
     0
  9
$DIMUPT
 70
     0
  9
$DIMDEC
 70
     2
  9
$DIMTDEC
 70
     2
  9
$DIMALTU
 70
     2
  9
$DIMALTTD
 70
     2
  9
$DIMTXSTY
  7
STANDARD
  9
$DIMAUNIT
 70
     1
  9
$DIMADEC
 70
     1
  9
$DIMALTRND
 40
0.0
  9
$DIMAZIN
 70
     2
  9
$DIMDSEP
 70
    46
  9
$DIMATFIT
 70
     3
  9
$DIMFRAC
 70
     0
  9
$DIMLDRBLK
  1
Open30
  9
$DIMLUNIT
 70
     2
  9
$DIMLWD
 70
    -1
  9
$DIMLWE
 70
    -1
  9
$DIMTMOVE
 70
     0
  9
$LUNITS
 70
     2
  9
$LUPREC
 70
     2
  9
$SKETCHINC
 40
1.0
  9
$FILLETRAD
 40
0.0
  9
$AUNITS
 70
     1
  9
$AUPREC
 70
     5
  9
$MENU
  1
.
  9
$ELEVATION
 40
0.0
  9
$PELEVATION
 40
0.0
  9
$THICKNESS
 40
0.0
  9
$LIMCHECK
 70
     0
  9
$CHAMFERA
 40
0.0
  9
$CHAMFERB
 40
0.0
  9
$CHAMFERC
 40
20.0
  9
$CHAMFERD
 40
0.0
  9
$SKPOLY
 70
     0
  9
$TDCREATE
 40
2451943.610431666
  9
$TDUCREATE
 40
2451943.235431667
  9
$TDUPDATE
 40
2455603.338794480
  9
$TDUUPDATE
 40
2455602.963794479
  9
$TDINDWG
 40
0.8692864583
  9
$TDUSRTIMER
 40
0.8692862847
  9
$USRTIMER
 70
     1
  9
$ANGBASE
 50
0.0
  9
$ANGDIR
 70
     0
  9
$PDMODE
 70
     0
  9
$PDSIZE
 40
0.0
  9
$PLINEWID
 40
0.0
  9
$SPLFRAME
 70
     0
  9
$SPLINETYPE
 70
     6
  9
$SPLINESEGS
 70
     8
  9
$HANDSEED
  5
B22C
  9
$SURFTAB1
 70
     6
  9
$SURFTAB2
 70
     6
  9
$SURFTYPE
 70
     6
  9
$SURFU
 70
     6
  9
$SURFV
 70
     6
  9
$UCSBASE
  2

  9
$UCSNAME
  2

  9
$UCSORG
 10
0.0
 20
0.0
 30
0.0
  9
$UCSXDIR
 10
1.0
 20
0.0
 30
0.0
  9
$UCSYDIR
 10
0.0
 20
1.0
 30
0.0
  9
$UCSORTHOREF
  2

  9
$UCSORTHOVIEW
 70
     0
  9
$UCSORGTOP
 10
0.0
 20
0.0
 30
0.0
  9
$UCSORGBOTTOM
 10
0.0
 20
0.0
 30
0.0
  9
$UCSORGLEFT
 10
0.0
 20
0.0
 30
0.0
  9
$UCSORGRIGHT
 10
0.0
 20
0.0
 30
0.0
  9
$UCSORGFRONT
 10
0.0
 20
0.0
 30
0.0
  9
$UCSORGBACK
 10
0.0
 20
0.0
 30
0.0
  9
$PUCSBASE
  2

  9
$PUCSNAME
  2

  9
$PUCSORG
 10
0.0
 20
0.0
 30
0.0
  9
$PUCSXDIR
 10
1.0
 20
0.0
 30
0.0
  9
$PUCSYDIR
 10
0.0
 20
1.0
 30
0.0
  9
$PUCSORTHOREF
  2

  9
$PUCSORTHOVIEW
 70
     0
  9
$PUCSORGTOP
 10
0.0
 20
0.0
 30
0.0
  9
$PUCSORGBOTTOM
 10
0.0
 20
0.0
 30
0.0
  9
$PUCSORGLEFT
 10
0.0
 20
0.0
 30
0.0
  9
$PUCSORGRIGHT
 10
0.0
 20
0.0
 30
0.0
  9
$PUCSORGFRONT
 10
0.0
 20
0.0
 30
0.0
  9
$PUCSORGBACK
 10
0.0
 20
0.0
 30
0.0
  9
$USERI1
 70
     0
  9
$USERI2
 70
     0
  9
$USERI3
 70
     0
  9
$USERI4
 70
     0
  9
$USERI5
 70
     0
  9
$USERR1
 40
0.0
  9
$USERR2
 40
0.0
  9
$USERR3
 40
0.0
  9
$USERR4
 40
0.0
  9
$USERR5
 40
0.0
  9
$WORLDVIEW
 70
     1
  9
$SHADEDGE
 70
     3
  9
$SHADEDIF
 70
    70
  9
$TILEMODE
 70
     1
  9
$MAXACTVP
 70
    64
  9
$PINSBASE
 10
0.0
 20
0.0
 30
0.0
  9
$PLIMCHECK
 70
     0
  9
$PEXTMIN
 10
1.000000000000000E+20
 20
1.000000000000000E+20
 30
1.000000000000000E+20
  9
$PEXTMAX
 10
-1.000000000000000E+20
 20
-1.000000000000000E+20
 30
-1.000000000000000E+20
  9
$PLIMMIN
 10
0.0
 20
0.0
  9
$PLIMMAX
 10
420.0
 20
297.0
  9
$UNITMODE
 70
     0
  9
$VISRETAIN
 70
     1
  9
$PLINEGEN
 70
     0
  9
$PSLTSCALE
 70
     1
  9
$TREEDEPTH
 70
  3020
  9
$CMLSTYLE
  2
STANDARD
  9
$CMLJUST
 70
     0
  9
$CMLSCALE
 40
20.0
  9
$PROXYGRAPHICS
 70
     1
  9
$MEASUREMENT
 70
     1
  9
$CELWEIGHT
370
    -1
  9
$ENDCAPS
280
     0
  9
$JOINSTYLE
280
     0
  9
$LWDISPLAY
290
     0
  9
$INSUNITS
 70
     4
  9
$HYPERLINKBASE
  1

  9
$STYLESHEET
  1
SEI_CAD.CTB
  9
$XEDIT
290
     1
  9
$CEPSNTYPE
380
     0
  9
$PSTYLEMODE
290
     1
  9
$FINGERPRINTGUID
  2
{C77AB3BE-9CA2-11D3-BAF3-006094EB760E}
  9
$VERSIONGUID
  2
{69DEAA0E-39BC-4747-97FC-6E225B9D87BF}
  9
$EXTNAMES
290
     1
  9
$PSVPSCALE
 40
0.0
  9
$OLESTARTUP
290
     0
  0
ENDSEC
  0
SECTION
  2
CLASSES
  0
CLASS
  1
ACDBDICTIONARYWDFLT
  2
AcDbDictionaryWithDefault
  3
ObjectDBX Classes
 90
        0
280
     0
281
     0
  0
CLASS
  1
ACDBPLACEHOLDER
  2
AcDbPlaceHolder
  3
ObjectDBX Classes
 90
        0
280
     0
281
     0
  0
CLASS
  1
LAYOUT
  2
AcDbLayout
  3
ObjectDBX Classes
 90
        0
280
     0
281
     0
  0
CLASS
  1
ACME_DOCUMENT
  2
AcMeDbDoc
  3
AcMeServices
 90
        0
280
     0
281
     0
  0
CLASS
  1
ACMESCOPE
  2
AcMeScope
  3
AcMeServices
 90
        0
280
     0
281
     0
  0
CLASS
  1
ACMECOMMANDHISTORY
  2
AcMeCommandHistory
  3
AcMeServices
 90
        0
280
     0
281
     0
  0
CLASS
  1
DICTIONARYVAR
  2
AcDbDictionaryVar
  3
ObjectDBX Classes
 90
        0
280
     0
281
     0
  0
CLASS
  1
ACIMSYSVARMAN
  2
AcImSysVarManager
  3
AcMeServices
 90
        0
280
     0
281
     0
  0
CLASS
  1
ACIMREALSYSVAR
  2
AcImRealSysVar
  3
AcMeServices
 90
        0
280
     0
281
     0
  0
CLASS
  1
ACIMINTSYSVAR
  2
AcImIntSysVar
  3
AcMeServices
 90
        0
280
     0
281
     0
  0
CLASS
  1
ACMEDRAWINGMAN
  2
AcMeDrawingMan
  3
AcMeServices
 90
        0
280
     0
281
     0
  0
CLASS
  1
ACMEVIEW
  2
AcMeView
  3
AcMeServices
 90
        0
280
     0
281
     0
  0
CLASS
  1
ACDBENTITYCACHE
  2
AcMeEntityCache
  3
AcMeServices
 90
        0
280
     0
281
     0
  0
CLASS
  1
GSMANAGER
  2
AcMeGSManager
  3
AcMeServices
 90
        0
280
     0
281
     0
  0
CLASS
  1
AMDTINTERNALREACTOR
  2
AmdtInternalReactor
  3
AcMeServices
 90
        0
280
     0
281
     0
  0
CLASS
  1
ACMESTATEMGR
  2
AcMeStateMgr
  3
AcMeServices
 90
        0
280
     0
281
     0
  0
CLASS
  1
ACME_DATABASE
  2
AcMeDbDatabase
  3
AcMeServices
 90
        0
280
     0
281
     0
  0
CLASS
  1
ACRFINSADJUSTERMGR
  2
AcRfInsAdjusterMgr
  3
AcMeServices
 90
        0
280
     0
281
     0
  0
CLASS
  1
AMGSETTINGSOBJ
  2
AmgSettingsObj
  3
"AcadM|Product Description: AutoCAD Mechanical 2000|Company: Autodesk"
 90
        0
280
     0
281
     0
  0
CLASS
  1
AMGOBJPROPCFG
  2
AmgObjPropCfg
  3
"AmgLay|Product Description: AutoCAD Mechanical 2000|Company: Autodesk"
 90
        1
280
     0
281
     0
  0
CLASS
  1
ACMDATADICTIONARY
  2
AcmDataDictionary
  3
"AcmSymBB|Product Description: AutoCAD Mechanical 2004 DX|Company: Autodesk"
 90
        0
280
     0
281
     0
  0
CLASS
  1
ACMDATAENTRYBLOCK
  2
AcmDataEntryBlock
  3
"AcmSymBB|Product Description: AutoCAD Mechanical 2004 DX|Company: Autodesk"
 90
    32768
280
     0
281
     0
  0
CLASS
  1
ACIMSTRSYSVAR
  2
AcImStrSysVar
  3
AcMeServices
 90
        0
280
     0
281
     0
  0
CLASS
  1
ACAMGFILTERDAT
  2
AcAmgFilterDat
  3
"AcadM|Product Description: AutoCAD Mechanical 2000|Company: Autodesk"
 90
    32768
280
     0
281
     0
  0
CLASS
  1
LAYER_INDEX
  2
AcDbLayerIndex
  3
ObjectDBX Classes
 90
        0
280
     0
281
     0
  0
CLASS
  1
IDBUFFER
  2
AcDbIdBuffer
  3
ObjectDBX Classes
 90
        0
280
     0
281
     0
  0
CLASS
  1
ACMSTANDARDJIS
  2
AcmStandardJIS
  3
"Amdt_StdImp|Product Description: AutoCAD Mechanical 2004 DX|Company: Autodesk"
 90
    32768
280
     0
281
     0
  0
CLASS
  1
ACMSURFSTANDARDJIS
  2
AcmSurfTextStdJIS
  3
"Amdt_StdImp|Product Description: AutoCAD Mechanical 2004 DX|Company: Autodesk"
 90
    32768
280
     0
281
     0
  0
CLASS
  1
ACMFCFSTANDARDJIS
  2
AcmFCFStdJIS
  3
"Amdt_StdImp|Product Description: AutoCAD Mechanical 2004 DX|Company: Autodesk"
 90
    32768
280
     0
281
     0
  0
CLASS
  1
ACMWELDSTANDARDJIS
  2
AcmWeldingStdJIS
  3
"Amdt_StdImp|Product Description: AutoCAD Mechanical 2004 DX|Company: Autodesk"
 90
    32768
280
     0
281
     0
  0
CLASS
  1
ACMIDSTANDARDJIS
  2
AcmIdStdJIS
  3
"Amdt_StdImp|Product Description: AutoCAD Mechanical 2004 DX|Company: Autodesk"
 90
    32768
280
     0
281
     0
  0
CLASS
  1
ACMDATUMSTANDARDJIS
  2
AcmDatumStdJIS
  3
"Amdt_StdImp|Product Description: AutoCAD Mechanical 2004 DX|Company: Autodesk"
 90
    32768
280
     0
281
     0
  0
CLASS
  1
ACMBOMSTANDARDJIS
  2
AcmBOMStdJIS
  3
"Amdt_StdImp|Product Description: AutoCAD Mechanical 2004 DX|Company: Autodesk"
 90
    32768
280
     0
281
     0
  0
CLASS
  1
AMDTNOTE
  2
AmdtNote
  3
"AcmSymBB|Product Description: AutoCAD Mechanical 2004 DX|Company: Autodesk"
 90
    33791
280
     0
281
     1
  0
CLASS
  1
ACMDATAENTRYPART
  2
AcmDataEntryPart
  3
"AcmSymBB|Product Description: AutoCAD Mechanical 2004 DX|Company: Autodesk"
 90
    32768
280
     0
281
     0
  0
CLASS
  1
ACMPARTREF
  2
AcmPartRef
  3
"AcmSymBB|Product Description: AutoCAD Mechanical 2004 DX|Company: Autodesk"
 90
    33791
280
     0
281
     1
  0
CLASS
  1
ACDB_PROXY_ENTITY_DATA
  2
AcDbProxyEntityData
  3
ObjectDBX Classes
 90
    32768
280
     0
281
     0
  0
CLASS
  1
TABLESTYLE
  2
AcDbTableStyle
  3
ObjectDBX Classes
 90
     2047
280
     0
281
     0
  0
CLASS
  1
ACGREFMASTER
  2
AcGrefMaster
  3
AcAttribServices
 90
        0
280
     0
281
     0
  0
CLASS
  1
AM_DRAWING_MGR
  2
AcDmDwgMgr
  3
AcMechDwgViewMgmt
 90
        0
280
     0
281
     0
  0
CLASS
  1
AM_DWG_DOCUMENT
  2
AcDmDwgDocument
  3
AcMechDwgViewMgmt
 90
        0
280
     0
281
     0
  0
CLASS
  1
AM_DWG_SHEET
  2
AcDmSheet
  3
AcMechDwgViewMgmt
 90
        0
280
     0
281
     0
  0
CLASS
  1
AM_VIEWDIMPARMAP
  2
AcDmViewDimParMap
  3
AcMechDwgViewMgmt
 90
        0
280
     0
281
     0
  0
CLASS
  1
AM_DWGMGR_NAME
  2
AcDmDwgMgrName
  3
AcMechDwgViewMgmt
 90
        0
280
     0
281
     0
  0
CLASS
  1
ACGREFACADMASTER
  2
AcGrefacadMaster
  3
AcGrefServices
 90
        0
280
     0
281
     0
  0
CLASS
  1
AMDTMENUSTATEMGR
  2
AmdtMenuStateMgr
  3
McadcomServices
 90
        0
280
     0
281
     0
  0
CLASS
  1
AMDTMCOMMENUSTATE
  2
AmdtMcomMenuState
  3
McadcomServices
 90
        0
280
     0
281
     0
  0
CLASS
  1
AMIMASTER
  2
AmiMaster
  3
AmiServices
 90
        0
280
     0
281
     0
  0
CLASS
  1
MAPIAMMOUDLE
  2
MApiAmModule
  3
MApiAmServices
 90
        0
280
     0
281
     0
  0
CLASS
  1
AMDTADMENUSTATE
  2
AmdtAdMenuState
  3
DesignerServices
 90
        0
280
     0
281
     0
  0
CLASS
  1
ADAPPL
  2
AcAdAppl
  3
DesignerServices
 90
        0
280
     0
281
     0
  0
CLASS
  1
DEPMGR
  2
AcAdDepMgr
  3
DesignerServices
 90
        0
280
     0
281
     0
  0
CLASS
  1
PARAMMGR
  2
AcAdParamMgr
  3
DesignerServices
 90
        0
280
     0
281
     0
  0
CLASS
  1
PARAMSCOPE
  2
AcAdParamScope
  3
DesignerServices
 90
        0
280
     0
281
     0
  0
CLASS
  1
NAMEDAPPL
  2
AcAdNamedAppl
  3
DesignerServices
 90
        0
280
     0
281
     0
  0
CLASS
  1
AMDTDMMENUSTATE
  2
AmdtDmMenuState
  3
AcMechDwgViewMgmt
 90
        0
280
     0
281
     0
  0
CLASS
  1
AMDTAMMENUSTATE
  2
AmdtAmMenuState
  3
DesignerAssemblies
 90
        0
280
     0
281
     0
  0
CLASS
  1
ACAMPROJECT
  2
AcAmProject
  3
DesignerAssemblies
 90
        0
280
     0
281
     0
  0
CLASS
  1
ACAMGRCOMPDEF
  2
AcAmGrCompDef
  3
DesignerAssemblies
 90
        0
280
     0
281
     0
  0
CLASS
  1
ACCMCONTEXT
  2
AcCmContext
  3
DesignerAssemblies
 90
        0
280
     0
281
     0
  0
CLASS
  1
ACAMCOMPDEF
  2
AcAmCompDef
  3
DesignerAssemblies
 90
        0
280
     0
281
     0
  0
CLASS
  1
ACAMCOMPDEFMGR
  2
AcAmCompDefMgr
  3
DesignerAssemblies
 90
        0
280
     0
281
     0
  0
CLASS
  1
AMCONTEXTMGR
  2
AcAmContextMgr
  3
DesignerAssemblies
 90
        0
280
     0
281
     0
  0
CLASS
  1
ACAMCONTEXTMODELER
  2
AcAmContextModeler
  3
DesignerAssemblies
 90
        0
280
     0
281
     0
  0
CLASS
  1
CATALOGSTATE
  2
AcAmCatalogState
  3
DesignerAssemblies
 90
        0
280
     0
281
     0
  0
CLASS
  1
ACAMGRCOMPDEFSET
  2
AcAmGrCompDefSet
  3
DesignerAssemblies
 90
        0
280
     0
281
     0
  0
CLASS
  1
AMDTBROWSERDBTAB
  2
AmdtBrowserDbTab
  3
McadcomServices
 90
        0
280
     0
281
     0
  0
CLASS
  1
CBROWSERAPPOBJECT
  2
CBrowserAppObject
  3
McadcomServices
 90
        0
280
     0
281
     0
  0
CLASS
  1
DM_PLACEHOLDER
  2
AcDmSelsetPlaceholder
  3
AcMechDwgViewMgmt
 90
        0
280
     0
281
     0
  0
CLASS
  1
ACAMGTITLESTD
  2
AcAmgTitleStd
  3
"TITLEAPP"
 90
        0
280
     0
281
     0
  0
CLASS
  1
ACMDETAILSTANDARDJIS
  2
AmdtDetailSymStdJIS
  3
"Amdt_StdImp|Product Description: AutoCAD Mechanical 2004 DX|Company: Autodesk"
 90
    32768
280
     0
281
     0
  0
CLASS
  1
ACMSECTIONSTANDARDJIS
  2
AmdtSectionSymStdJIS
  3
"Amdt_StdImp|Product Description: AutoCAD Mechanical 2004 DX|Company: Autodesk"
 90
    32768
280
     0
281
     0
  0
CLASS
  1
ACMCENTERLINESTANDARDJIS
  2
AmdtCenterLineStdJIS
  3
"Amdt_StdImp|Product Description: AutoCAD Mechanical 2004 DX|Company: Autodesk"
 90
    32768
280
     0
281
     0
  0
CLASS
  1
ACMTHREADLINESTANDARDJIS
  2
AmdtThreadLineStdJIS
  3
"Amdt_StdImp|Product Description: AutoCAD Mechanical 2004 DX|Company: Autodesk"
 90
    32768
280
     0
281
     0
  0
CLASS
  1
ACMNOTESTANDARDJIS
  2
AmdtNoteStdJIS
  3
"Amdt_StdImp|Product Description: AutoCAD Mechanical 2004 DX|Company: Autodesk"
 90
    32768
280
     0
281
     0
  0
CLASS
  1
AMDTNOTETEMPLATEDB
  2
AmdtNoteTemplateDB
  3
AMDT_STDIMP_MODULE_NAME
 90
        0
280
     0
281
     0
  0
CLASS
  1
ACAMGLAYSTD
  2
AcAmgLayStd
  3
"AcAmgLayStd|Product Description: AutoCAD Mechanical 2000|Company: Autodesk"
 90
        0
280
     0
281
     0
  0
CLASS
  1
ACAMGDIMSTD
  2
AcAmgDimStd
  3
"AcAmgDimStd|Product Description: AutoCAD Mechanical 2000|Company: Autodesk"
 90
        0
280
     0
281
     0
  0
CLASS
  1
ACAMGHOLECHARTSTDJIS
  2
AcAmgHoleChartStdJIS
  3
ACMSYMBB_MODULE_NAME
 90
    32768
280
     0
281
     0
  0
CLASS
  1
ACMSTANDARDISO
  2
AcmStandardISO
  3
"Amdt_StdImp|Product Description: AutoCAD Mechanical 2004 DX|Company: Autodesk"
 90
        0
280
     0
281
     0
  0
CLASS
  1
AMDTEDGESTANDARDISO13715
  2
AmdtEdgeStdISO13715
  3
"Amdt_StdImp|Product Description: AutoCAD Mechanical 2004 DX|Company: Autodesk"
 90
        0
280
     0
281
     0
  0
CLASS
  1
ACMSURFSTANDARDISO
  2
AcmSurfTextStdISO
  3
"Amdt_StdImp|Product Description: AutoCAD Mechanical 2004 DX|Company: Autodesk"
 90
        0
280
     0
281
     0
  0
CLASS
  1
ACMFCFSTANDARDISO
  2
AcmFCFStdISO
  3
"Amdt_StdImp|Product Description: AutoCAD Mechanical 2004 DX|Company: Autodesk"
 90
        0
280
     0
281
     0
  0
CLASS
  1
ACMWELDSTANDARDISO
  2
AcmWeldingStdISO
  3
"Amdt_StdImp|Product Description: AutoCAD Mechanical 2004 DX|Company: Autodesk"
 90
        0
280
     0
281
     0
  0
CLASS
  1
ACMIDSTANDARDISO
  2
AcmIdStdISO
  3
"Amdt_StdImp|Product Description: AutoCAD Mechanical 2004 DX|Company: Autodesk"
 90
        0
280
     0
281
     0
  0
CLASS
  1
ACMDATUMSTANDARDISO
  2
AcmDatumStdISO
  3
"Amdt_StdImp|Product Description: AutoCAD Mechanical 2004 DX|Company: Autodesk"
 90
        0
280
     0
281
     0
  0
CLASS
  1
ACMBOMSTANDARDISO
  2
AcmBOMStdISO
  3
"Amdt_StdImp|Product Description: AutoCAD Mechanical 2004 DX|Company: Autodesk"
 90
        0
280
     0
281
     0
  0
CLASS
  1
ACMDETAILSTANDARDISO
  2
AmdtDetailSymStdISO
  3
"Amdt_StdImp|Product Description: AutoCAD Mechanical 2004 DX|Company: Autodesk"
 90
        0
280
     0
281
     0
  0
CLASS
  1
ACMSECTIONSTANDARDISO
  2
AmdtSectionSymStdISO
  3
"Amdt_StdImp|Product Description: AutoCAD Mechanical 2004 DX|Company: Autodesk"
 90
        0
280
     0
281
     0
  0
CLASS
  1
ACMCENTERLINESTANDARDISO
  2
AmdtCenterLineStdISO
  3
"Amdt_StdImp|Product Description: AutoCAD Mechanical 2004 DX|Company: Autodesk"
 90
        0
280
     0
281
     0
  0
CLASS
  1
ACMTHREADLINESTANDARDISO
  2
AmdtThreadLineStdISO
  3
"Amdt_StdImp|Product Description: AutoCAD Mechanical 2004 DX|Company: Autodesk"
 90
        0
280
     0
281
     0
  0
CLASS
  1
ACMNOTESTANDARDISO
  2
AmdtNoteStdISO
  3
"Amdt_StdImp|Product Description: AutoCAD Mechanical 2004 DX|Company: Autodesk"
 90
        0
280
     0
281
     0
  0
CLASS
  1
ACAMGHOLECHARTSTDISO
  2
AcAmgHoleChartStdISO
  3
ACMSYMBB_MODULE_NAME
 90
        0
280
     0
281
     0
  0
ENDSEC
  0
SECTION
  2
TABLES
  0
TABLE
  2
VPORT
  5
8
330
0
100
AcDbSymbolTable
 70
    34
  0
VPORT
  5
B225
330
8
100
AcDbSymbolTableRecord
100
AcDbViewportTableRecord
  2
*Active
 70
     0
 10
0.0
 20
0.0
 11
1.0
 21
1.0
 12
67.16765088358409
 22
-14.62699663225794
 13
0.0
 23
0.0
 14
2.5
 24
2.5
 15
10.0
 25
10.0
 16
0.0
 26
0.0
 36
1.0
 17
0.0
 27
0.0
 37
0.0
 40
166.3924001901368
 41
2.176400476758045
 42
50.0
 43
0.0
 44
0.0
 50
0.0
 51
0.0
 71
     0
 72
  2000
 73
     1
 74
     3
 75
     0
 76
     0
 77
     0
 78
     0
281
     0
 65
     0
110
0.0
120
0.0
130
0.0
111
1.0
121
0.0
131
0.0
112
0.0
122
1.0
132
0.0
 79
     0
146
0.0
  0
ENDTAB
  0
TABLE
  2
LTYPE
  5
5
330
0
100
AcDbSymbolTable
 70
    15
  0
LTYPE
  5
14
330
5
100
AcDbSymbolTableRecord
100
AcDbLinetypeTableRecord
  2
BYBLOCK
 70
     0
  3

 72
    65
 73
     0
 40
0.0
  0
LTYPE
  5
15
330
5
100
AcDbSymbolTableRecord
100
AcDbLinetypeTableRecord
  2
BYLAYER
 70
     0
  3

 72
    65
 73
     0
 40
0.0
  0
LTYPE
  5
16
330
5
100
AcDbSymbolTableRecord
100
AcDbLinetypeTableRecord
  2
CONTINUOUS
 70
     0
  3
Solid line
 72
    65
 73
     0
 40
0.0
  0
LTYPE
  5
43
330
5
100
AcDbSymbolTableRecord
100
AcDbLinetypeTableRecord
  2
AM_ISO02W050
 70
     0
  3
__ __ __ __ __ __ __ __ __ __ __ __ __ __ __
 72
    65
 73
     2
 40
7.5
 49
6.0
 74
     0
 49
-1.5
 74
     0
  0
LTYPE
  5
44
330
5
100
AcDbSymbolTableRecord
100
AcDbLinetypeTableRecord
  2
AM_ISO08W050
 70
     0
  3
____ . ____ . ____ . ____ . ____ . ____ . ____
 72
    65
 73
     4
 40
18.0
 49
12.0
 74
     0
 49
-1.5
 74
     0
 49
3.0
 74
     0
 49
-1.5
 74
     0
  0
LTYPE
  5
45
330
5
100
AcDbSymbolTableRecord
100
AcDbLinetypeTableRecord
  2
AM_ISO09W050
 70
     0
  3
_____ . . _____ . . _____ . . ____ .. ____
 72
    65
 73
     6
 40
22.5
 49
12.0
 74
     0
 49
-1.5
 74
     0
 49
3.0
 74
     0
 49
-1.5
 74
     0
 49
3.0
 74
     0
 49
-1.5
 74
     0
  0
LTYPE
  5
46
330
5
100
AcDbSymbolTableRecord
100
AcDbLinetypeTableRecord
  2
Amconstr
 70
     0
  3
_______________________
 72
    65
 73
     2
 40
9999.0
 49
9999.0
 74
     0
 49
0.0
 74
     0
  0
LTYPE
  5
47
330
5
100
AcDbSymbolTableRecord
100
AcDbLinetypeTableRecord
  2
AM_ISO02W050x2
 70
     0
  3
 _ _ _ _ _ _ _ _ _ _ _ _
 72
    65
 73
     2
 40
3.75
 49
3.0
 74
     0
 49
-0.75
 74
     0
  0
LTYPE
  5
48
330
5
100
AcDbSymbolTableRecord
100
AcDbLinetypeTableRecord
  2
AM_ISO08W050x2
 70
     0
  3
__ . __ . __ . __ . __ . __
 72
    65
 73
     4
 40
9.0
 49
6.0
 74
     0
 49
-0.75
 74
     0
 49
1.5
 74
     0
 49
-0.75
 74
     0
  0
LTYPE
  5
4B
330
5
100
AcDbSymbolTableRecord
100
AcDbLinetypeTableRecord
  2
Amzigzag
 70
     0
  3
/\/-/\/-/\/-/\/-/\/-/\/
 72
    65
 73
     2
 40
11.0001
 49
0.0001
 74
     4
 75
   135
340
4A
 46
0.04
 50
0.0
 44
0.0
 45
0.0
 49
-11.0
 74
     0
  0
LTYPE
  5
A2E3
330
5
100
AcDbSymbolTableRecord
100
AcDbLinetypeTableRecord
  2
PHANTOM
 70
     0
  3
Phantom ______  __  __  ______  __  __  ______
 72
    65
 73
     6
 40
63.5
 49
31.75
 74
     0
 49
-6.349999999999997
 74
     0
 49
6.349999999999997
 74
     0
 49
-6.349999999999997
 74
     0
 49
6.349999999999997
 74
     0
 49
-6.349999999999997
 74
     0
  0
LTYPE
  5
AFD6
330
5
100
AcDbSymbolTableRecord
100
AcDbLinetypeTableRecord
  2
HIDDEN
 70
     0
  3
Hidden __ __ __ __ __ __ __ __ __ __ __ __ __ _
 72
    65
 73
     2
 40
9.524999999999996
 49
6.349999999999997
 74
     0
 49
-3.174999999999998
 74
     0
  0
LTYPE
  5
AFD7
330
5
100
AcDbSymbolTableRecord
100
AcDbLinetypeTableRecord
  2
PHANTOM2
 70
     0
  3
Phantom (.5x) ___ _ _ ___ _ _ ___ _ _ ___ _ _
 72
    65
 73
     6
 40
31.75
 49
15.875
 74
     0
 49
-3.174999999999998
 74
     0
 49
3.174999999999998
 74
     0
 49
-3.174999999999998
 74
     0
 49
3.174999999999998
 74
     0
 49
-3.174999999999998
 74
     0
  0
LTYPE
  5
AFD8
330
5
100
AcDbSymbolTableRecord
100
AcDbLinetypeTableRecord
  2
CENTER
 70
     0
  3
____ _ ____ _ ____ _ ____ _ ____ _ ____ _ ____
 72
    65
 73
     4
 40
17.5
 49
13.0
 74
     0
 49
-1.5
 74
     0
 49
1.5
 74
     0
 49
-1.5
 74
     0
  0
LTYPE
  5
B0B5
330
5
100
AcDbSymbolTableRecord
100
AcDbLinetypeTableRecord
  2
ACISOWELD
 70
     0
  3
_ _ _ _ _
 72
    65
 73
     2
 40
2.0
 49
2.0
 74
     0
 49
-1.0
 74
     0
  0
LTYPE
  5
B0B6
330
5
100
AcDbSymbolTableRecord
100
AcDbLinetypeTableRecord
  2
ACISOTGB
 70
     0
  3
__ . . __ . .
 72
    65
 73
     6
 40
9.0
 49
4.0
 74
     0
 49
-1.0
 74
     0
 49
1.0
 74
     0
 49
-1.0
 74
     0
 49
1.0
 74
     0
 49
-1.0
 74
     0
  0
LTYPE
  5
B0B7
330
5
100
AcDbSymbolTableRecord
100
AcDbLinetypeTableRecord
  2
ACISOTGL
 70
     0
  3
_ _ _ _ _
 72
    65
 73
     2
 40
3.0
 49
2.0
 74
     0
 49
-1.0
 74
     0
  0
ENDTAB
  0
TABLE
  2
LAYER
  5
2
330
0
100
AcDbSymbolTable
 70
     8
  0
LAYER
  5
10
330
2
100
AcDbSymbolTableRecord
100
AcDbLayerTableRecord
  2
0
 70
     0
 62
     7
  6
CONTINUOUS
370
    -3
390
F
  0
LAYER
  5
7D
330
2
100
AcDbSymbolTableRecord
100
AcDbLayerTableRecord
  2
AM_5
 70
     0
 62
     3
  6
CONTINUOUS
370
    -3
390
F
  0
LAYER
  5
7F
330
2
100
AcDbSymbolTableRecord
100
AcDbLayerTableRecord
  2
DEFPOINTS
 70
     0
 62
     7
  6
CONTINUOUS
290
     0
370
    -3
390
F
  0
LAYER
  5
12B1
330
2
100
AcDbSymbolTableRecord
100
AcDbLayerTableRecord
  2
AM_0
 70
     0
 62
     7
  6
CONTINUOUS
370
    -3
390
F
  0
LAYER
  5
2222
330
2
100
AcDbSymbolTableRecord
100
AcDbLayerTableRecord
  2
AM_6
 70
     0
 62
     2
  6
CONTINUOUS
370
    -3
390
F
  0
LAYER
  5
7DB2
330
2
100
AcDbSymbolTableRecord
100
AcDbLayerTableRecord
  2
AM_7
 70
     0
 62
     4
  6
AM_ISO08W050
370
    -3
390
F
  0
LAYER
  5
8B83
330
2
100
AcDbSymbolTableRecord
100
AcDbLayerTableRecord
  2
PV0001_1
 70
     0
 62
     7
  6
CONTINUOUS
370
    -3
390
F
  0
LAYER
  5
A2E4
330
2
100
AcDbSymbolTableRecord
100
AcDbLayerTableRecord
  2
AM_11
 70
     0
 62
     3
  6
PHANTOM
370
    -3
390
F
  0
ENDTAB
  0
TABLE
  2
STYLE
  5
3
330
0
100
AcDbSymbolTable
 70
     4
  0
STYLE
  5
11
330
3
100
AcDbSymbolTableRecord
100
AcDbTextStyleTableRecord
  2
STANDARD
 70
     0
 40
0.0
 41
1.0
 50
0.0
 71
     0
 42
2.5
  3
ISOCP.SHX
  4
EXTFONT.SHX
  0
STYLE
  5
4A
330
3
100
AcDbSymbolTableRecord
100
AcDbTextStyleTableRecord
  2

 70
     1
 40
0.0
 41
1.0
 50
0.0
 71
     0
 42
2.5
  3
ltypeshp.shx
  4

  0
STYLE
  5
B0A7
330
3
100
AcDbSymbolTableRecord
100
AcDbTextStyleTableRecord
  2
ACISOTS
 70
     0
 40
1.0
 41
1.0
 50
0.0
 71
     0
 42
2.5
  3
isocp.shx
  4
extfont.shx
  0
STYLE
  5
B0B4
330
3
100
AcDbSymbolTableRecord
100
AcDbTextStyleTableRecord
  2
ACISOGDT
 70
     0
 40
0.0
 41
1.0
 50
0.0
 71
     0
 42
2.5
  3
amgdt.shx
  4

  0
ENDTAB
  0
TABLE
  2
VIEW
  5
6
330
0
100
AcDbSymbolTable
 70
     6
  0
VIEW
  5
A30
330
6
100
AcDbSymbolTableRecord
100
AcDbViewTableRecord
  2
AM_VIEW1
 70
     0
 40
148.5
 10
112.0719649561952
 20
222.75
 41
224.1439299123904
 11
0.0
 21
0.0
 31
1.0
 12
0.0
 22
0.0
 32
0.0
 42
50.0
 43
0.0
 44
0.0
 50
0.0
 71
     0
281
     0
 72
     0
  0
VIEW
  5
A31
330
6
100
AcDbSymbolTableRecord
100
AcDbViewTableRecord
  2
AM_VIEW2
 70
     0
 40
148.5
 10
307.9280350438047
 20
222.75
 41
224.1439299123904
 11
0.0
 21
0.0
 31
1.0
 12
0.0
 22
0.0
 32
0.0
 42
50.0
 43
0.0
 44
0.0
 50
0.0
 71
     0
281
     0
 72
     0
  0
VIEW
  5
A32
330
6
100
AcDbSymbolTableRecord
100
AcDbViewTableRecord
  2
AM_VIEW3
 70
     0
 40
148.5
 10
112.0719649561952
 20
74.25
 41
224.1439299123904
 11
0.0
 21
0.0
 31
1.0
 12
0.0
 22
0.0
 32
0.0
 42
50.0
 43
0.0
 44
0.0
 50
0.0
 71
     0
281
     0
 72
     0
  0
VIEW
  5
A33
330
6
100
AcDbSymbolTableRecord
100
AcDbViewTableRecord
  2
AM_VIEW4
 70
     0
 40
148.5
 10
307.9280350438047
 20
74.25
 41
224.1439299123904
 11
0.0
 21
0.0
 31
1.0
 12
0.0
 22
0.0
 32
0.0
 42
50.0
 43
0.0
 44
0.0
 50
0.0
 71
     0
281
     0
 72
     0
  0
VIEW
  5
A34
330
6
100
AcDbSymbolTableRecord
100
AcDbViewTableRecord
  2
AM_VIEW5
 70
     0
 40
148.5
 10
210.0
 20
148.5
 41
224.1439299123904
 11
0.0
 21
0.0
 31
1.0
 12
0.0
 22
0.0
 32
0.0
 42
50.0
 43
0.0
 44
0.0
 50
0.0
 71
     0
281
     0
 72
     0
  0
VIEW
  5
A35
330
6
100
AcDbSymbolTableRecord
100
AcDbViewTableRecord
  2
AM_VIEW6
 70
     0
 40
296.9970299999999
 10
210.0
 20
148.5
 41
448.2833769461826
 11
0.0
 21
0.0
 31
1.0
 12
0.0
 22
0.0
 32
0.0
 42
50.0
 43
0.0
 44
0.0
 50
0.0
 71
     0
281
     0
 72
     0
  0
ENDTAB
  0
TABLE
  2
UCS
  5
7
330
0
100
AcDbSymbolTable
 70
     0
  0
ENDTAB
  0
TABLE
  2
APPID
  5
9
330
0
100
AcDbSymbolTable
 70
    44
  0
APPID
  5
12
330
9
100
AcDbSymbolTableRecord
100
AcDbRegAppTableRecord
  2
ACAD
 70
     0
  0
APPID
  5
2C
330
9
100
AcDbSymbolTableRecord
100
AcDbRegAppTableRecord
  2
MCAD_NO_VIS
 70
     0
  0
APPID
  5
2D
330
9
100
AcDbSymbolTableRecord
100
AcDbRegAppTableRecord
  2
ACAD_TEMP_GRAPHIC
 70
     0
  0
APPID
  5
B9
330
9
100
AcDbSymbolTableRecord
100
AcDbRegAppTableRecord
  2
GENIUS_GENDTOL_13
 70
     0
  0
APPID
  5
359
330
9
100
AcDbSymbolTableRecord
100
AcDbRegAppTableRecord
  2
GENIUS_GENREC_14
 70
     0
  0
APPID
  5
35A
330
9
100
AcDbSymbolTableRecord
100
AcDbRegAppTableRecord
  2
GENIUS_GENODEF_13
 70
     0
  0
APPID
  5
35B
330
9
100
AcDbSymbolTableRecord
100
AcDbRegAppTableRecord
  2
GENIUS_GENOBJ-N-REC_13
 70
     0
  0
APPID
  5
667
330
9
100
AcDbSymbolTableRecord
100
AcDbRegAppTableRecord
  2
GENIUS_GENCFG_13
 70
     0
  0
APPID
  5
668
330
9
100
AcDbSymbolTableRecord
100
AcDbRegAppTableRecord
  2
GENIUS_GENCFG0_13
 70
     0
  0
APPID
  5
669
330
9
100
AcDbSymbolTableRecord
100
AcDbRegAppTableRecord
  2
GENIUS_GENCFG1_13
 70
     0
  0
APPID
  5
66A
330
9
100
AcDbSymbolTableRecord
100
AcDbRegAppTableRecord
  2
GENIUS_GENCFG2_13
 70
     0
  0
APPID
  5
66B
330
9
100
AcDbSymbolTableRecord
100
AcDbRegAppTableRecord
  2
GENIUS_GENCFG3_13
 70
     0
  0
APPID
  5
66C
330
9
100
AcDbSymbolTableRecord
100
AcDbRegAppTableRecord
  2
GENIUS_GENCFG4_13
 70
     0
  0
APPID
  5
A76
330
9
100
AcDbSymbolTableRecord
100
AcDbRegAppTableRecord
  2
GENIUS_GENBLLY_14
 70
     0
  0
APPID
  5
A77
330
9
100
AcDbSymbolTableRecord
100
AcDbRegAppTableRecord
  2
GENIUS_GENOBJ-N-CEN_13
 70
     0
  0
APPID
  5
A83
330
9
100
AcDbSymbolTableRecord
100
AcDbRegAppTableRecord
  2
GENIUS_GENTRA_14
 70
     0
  0
APPID
  5
A8D
330
9
100
AcDbSymbolTableRecord
100
AcDbRegAppTableRecord
  2
GENIUS_GENOBJ-N-TIT_13
 70
     0
  0
APPID
  5
A8E
330
9
100
AcDbSymbolTableRecord
100
AcDbRegAppTableRecord
  2
GENIUS_GENTITLE_13
 70
     0
  0
APPID
  5
A8F
330
9
100
AcDbSymbolTableRecord
100
AcDbRegAppTableRecord
  2
GENIUS_GENOENT_13
 70
     0
  0
APPID
  5
A90
330
9
100
AcDbSymbolTableRecord
100
AcDbRegAppTableRecord
  2
GENIUS_GENOREF_13
 70
     0
  0
APPID
  5
A91
330
9
100
AcDbSymbolTableRecord
100
AcDbRegAppTableRecord
  2
GENIUS_GENOLIS_13
 70
     0
  0
APPID
  5
A92
330
9
100
AcDbSymbolTableRecord
100
AcDbRegAppTableRecord
  2
GENIUS_GENZVEED_13
 70
     0
  0
APPID
  5
A93
330
9
100
AcDbSymbolTableRecord
100
AcDbRegAppTableRecord
  2
GENIUS_GENSCREG_15
 70
     0
  0
APPID
  5
A94
330
9
100
AcDbSymbolTableRecord
100
AcDbRegAppTableRecord
  2
GENIUS_GENOBJ-N-SDF_13
 70
     0
  0
APPID
  5
12B5
330
9
100
AcDbSymbolTableRecord
100
AcDbRegAppTableRecord
  2
GENIUS_GENOBJ-N-RSBK_13
 70
     0
  0
APPID
  5
12B6
330
9
100
AcDbSymbolTableRecord
100
AcDbRegAppTableRecord
  2
GENIUS_GENOBJ-N-LIB_13
 70
     0
  0
APPID
  5
12B7
330
9
100
AcDbSymbolTableRecord
100
AcDbRegAppTableRecord
  2
GENIUS_GENSCALE_13
 70
     0
  0
APPID
  5
12B8
330
9
100
AcDbSymbolTableRecord
100
AcDbRegAppTableRecord
  2
GENIUS_GENOBJ-N-HTC_13
 70
     0
  0
APPID
  5
12B9
330
9
100
AcDbSymbolTableRecord
100
AcDbRegAppTableRecord
  2
GENIUS_GENHATCH_13
 70
     0
  0
APPID
  5
1C0A
330
9
100
AcDbSymbolTableRecord
100
AcDbRegAppTableRecord
  2
BASE_TYPE
 70
     0
  0
APPID
  5
276B
330
9
100
AcDbSymbolTableRecord
100
AcDbRegAppTableRecord
  2
GENIUS_GENOBJ-N-FIL_13
 70
     0
  0
APPID
  5
3640
330
9
100
AcDbSymbolTableRecord
100
AcDbRegAppTableRecord
  2
GENIUS_GENBH_13
 70
     0
  0
APPID
  5
36D1
330
9
100
AcDbSymbolTableRecord
100
AcDbRegAppTableRecord
  2
GENIUS_GENOBJ-F-SPR_13
 70
     0
  0
APPID
  5
36DA
330
9
100
AcDbSymbolTableRecord
100
AcDbRegAppTableRecord
  2
GENIUS_GEFSPRING_13
 70
     0
  0
APPID
  5
36DB
330
9
100
AcDbSymbolTableRecord
100
AcDbRegAppTableRecord
  2
GENIUS_GEFSPRINGP_13
 70
     0
  0
APPID
  5
4D67
330
9
100
AcDbSymbolTableRecord
100
AcDbRegAppTableRecord
  2
GENIUS_GENFIL_13
 70
     0
  0
APPID
  5
4D68
330
9
100
AcDbSymbolTableRecord
100
AcDbRegAppTableRecord
  2
GENIUS_GENOBJ-N-CHA_13
 70
     0
  0
APPID
  5
AF9F
330
9
100
AcDbSymbolTableRecord
100
AcDbRegAppTableRecord
  2
GENIUS_GENOBJ-N-CRS_13
 70
     0
  0
APPID
  5
AFA0
330
9
100
AcDbSymbolTableRecord
100
AcDbRegAppTableRecord
  2
AD_DRAW
 70
     0
  0
APPID
  5
AFA1
330
9
100
AcDbSymbolTableRecord
100
AcDbRegAppTableRecord
  2
ACATTRIBSERVICES
 70
     0
  0
APPID
  5
AFA2
330
9
100
AcDbSymbolTableRecord
100
AcDbRegAppTableRecord
  2
DESIGNERASSEMBLIES
 70
     0
  0
APPID
  5
AFA3
330
9
100
AcDbSymbolTableRecord
100
AcDbRegAppTableRecord
  2
ACADM_DIM_EDIT
 70
     0
  0
APPID
  5
AFA4
330
9
100
AcDbSymbolTableRecord
100
AcDbRegAppTableRecord
  2
AMDT_DM_ADJ
 70
     0
  0
APPID
  5
AFA5
330
9
100
AcDbSymbolTableRecord
100
AcDbRegAppTableRecord
  2
ACAD_PSEXT
 70
     0
  0
ENDTAB
  0
TABLE
  2
DIMSTYLE
  5
A
330
0
100
AcDbSymbolTable
 70
    11
100
AcDbDimStyleTable
 71
     1
340
58
  0
DIMSTYLE
105
58
330
A
100
AcDbSymbolTableRecord
100
AcDbDimStyleTableRecord
  2
AM_JIS
 70
     0
  4
"
 41
2.5
 42
0.0
 43
8.0
 44
0.4
 47
0.1
 48
0.1000000001
 73
     0
 74
     0
 77
     3
 78
     1
 79
     2
140
3.399999999999999
141
0.0
143
0.0393701
146
0.71
147
1.0
172
     1
176
     3
177
     3
178
     2
179
     2
271
     2
272
     2
275
     1
283
     0
284
     1
340
11
341
59
342
59
371
    -1
372
    -1
  0
DIMSTYLE
105
5F
102
{ACAD_REACTORS
330
A9A8
102
}
330
A
100
AcDbSymbolTableRecord
100
AcDbDimStyleTableRecord
  2
AM_JIS$3
 70
     0
  4
"
 41
2.5
 42
0.0
 43
10.0
 44
1.0
 47
0.1
 48
0.1
 73
     0
 77
     3
 78
     1
 79
     2
140
3.399999999999999
141
0.0
143
0.0393701
146
0.71
147
1.0
172
     1
176
     3
177
     3
178
     2
179
     1
271
     2
272
     2
275
     1
283
     0
284
     1
288
     1
289
     0
340
11
341
59
342
59
371
    -1
372
    -1
  0
DIMSTYLE
105
65F
330
A
100
AcDbSymbolTableRecord
100
AcDbDimStyleTableRecord
  2
STANDARD
 70
     0
340
11
  0
DIMSTYLE
105
1761
102
{ACAD_REACTORS
330
A6EA
330
A76C
330
A79F
330
A969
330
A976
330
AE3A
330
AEFC
330
B208
102
}
330
A
100
AcDbSymbolTableRecord
100
AcDbDimStyleTableRecord
  2
AM_JIS$0
 70
     0
  4
"
 41
2.5
 42
0.1
 43
8.0
 44
0.5
 47
0.1
 48
0.1
 73
     0
 74
     0
 77
     3
 78
     1
 79
     2
140
3.399999999999999
141
0.0
143
0.0393701
146
0.71
147
0.9999999999999996
172
     1
176
     3
177
     3
178
     2
179
     1
271
     2
272
     2
275
     1
283
     0
284
     1
340
11
341
59
342
59
371
    -1
372
    -1
  0
DIMSTYLE
105
B0C0
330
A
100
AcDbSymbolTableRecord
100
AcDbDimStyleTableRecord
  2
AM_ISO
 70
     0
  4
"
 41
2.5
 42
1.0
 43
10.0
 44
1.0
 47
0.1
 48
0.1
 73
     0
 74
     0
 77
     1
 78
     8
 79
     2
140
3.5
141
0.0
143
0.0393701
146
0.71
147
1.5
172
     1
176
   256
177
   256
178
     2
271
     2
272
     3
274
     4
283
     0
284
     8
340
11
371
    -1
372
    -1
  0
DIMSTYLE
105
B0C1
330
A
100
AcDbSymbolTableRecord
100
AcDbDimStyleTableRecord
  2
AM_ISO$3
 70
     0
  4
"
 41
2.5
 42
1.0
 43
10.0
 44
1.0
 47
0.1
 48
0.1
 73
     0
 77
     1
 78
     8
 79
     2
140
3.5
141
0.0
143
0.0393701
146
0.71
147
1.5
176
   256
177
   256
178
     2
271
     2
272
     3
274
     4
283
     0
284
     8
288
     1
289
     0
340
11
371
    -1
372
    -1
  0
DIMSTYLE
105
B0C2
330
A
100
AcDbSymbolTableRecord
100
AcDbDimStyleTableRecord
  2
AM_ISO$4
 70
     0
  4
"
 41
2.5
 42
1.0
 43
10.0
 44
1.0
 47
0.1
 48
0.1
 73
     0
 77
     1
 78
     8
 79
     2
140
3.5
141
0.0
143
0.0393701
146
0.71
147
1.5
176
   256
177
   256
178
     2
271
     2
272
     3
274
     4
283
     0
284
     8
288
     1
289
     0
340
11
371
    -1
372
    -1
  0
DIMSTYLE
105
B0C3
330
A
100
AcDbSymbolTableRecord
100
AcDbDimStyleTableRecord
  2
AM_ISO$6
 70
     0
  4
"
 41
2.5
 42
1.0
 43
10.0
 44
1.0
 47
0.1
 48
0.1
 73
     0
 74
     0
 78
     8
 79
     2
140
3.5
141
0.0
143
0.0393701
146
0.71
147
1.5
172
     1
176
   256
177
   256
178
     2
271
     2
272
     3
274
     4
283
     0
284
     8
340
11
371
    -1
372
    -1
  0
DIMSTYLE
105
B0C4
330
A
100
AcDbSymbolTableRecord
100
AcDbDimStyleTableRecord
  2
AM_ISO$7
 70
     0
  4
"
 41
2.5
 42
1.0
 43
10.0
 44
1.0
 47
0.1
 48
0.1
 73
     0
 74
     0
 77
     1
 78
     8
 79
     2
140
5.0
141
0.0
143
0.0393701
146
0.71
147
1.5
172
     1
176
   256
177
   256
178
     2
271
     2
272
     3
274
     4
283
     0
284
     8
340
11
371
    -1
372
    -1
  0
DIMSTYLE
105
B0C5
330
A
100
AcDbSymbolTableRecord
100
AcDbDimStyleTableRecord
  2
AM_ISO$SF
 70
     0
  4
"
 41
2.5
 42
1.0
 43
10.0
 44
1.0
 47
0.1
 48
0.1
 73
     0
 74
     0
 75
     1
 76
     1
 77
     1
 78
     8
 79
     2
140
3.5
141
0.0
143
0.0393701
146
0.71
147
1.5
172
     1
176
   256
177
   256
178
     2
271
     2
272
     3
274
     4
283
     0
284
     8
340
11
371
    -1
372
    -1
  0
DIMSTYLE
105
B0C6
330
A
100
AcDbSymbolTableRecord
100
AcDbDimStyleTableRecord
  2
AM_ISO$SH
 70
     0
  4
"
 41
2.5
 42
1.0
 43
10.0
 44
1.0
 47
0.1
 48
0.1
 73
     0
 74
     0
 75
     1
 76
     1
 77
     1
 78
     8
 79
     2
140
3.5
141
0.0
143
0.0393701
144
2.0
146
0.71
147
1.5
172
     1
173
     1
176
   256
177
   256
178
     2
271
     2
272
     3
274
     4
283
     0
284
     8
340
11
343
64
371
    -1
372
    -1
  0
ENDTAB
  0
TABLE
  2
BLOCK_RECORD
  5
1
330
0
100
AcDbSymbolTable
 70
    12
  0
BLOCK_RECORD
  5
1F
102
{ACAD_XDICTIONARY
360
165
102
}
330
1
100
AcDbSymbolTableRecord
100
AcDbBlockTableRecord
  2
*MODEL_SPACE
340
AF99
  0
BLOCK_RECORD
  5
1B
102
{ACAD_XDICTIONARY
360
AF71
102
}
330
1
100
AcDbSymbolTableRecord
100
AcDbBlockTableRecord
  2
*PAPER_SPACE
340
AF9A
  0
BLOCK_RECORD
  5
59
330
1
100
AcDbSymbolTableRecord
100
AcDbBlockTableRecord
  2
_Open30
340
0
102
{BLKREFS
331
B0CD
331
B0CE
331
B0D6
331
B0D7
331
B103
331
B104
331
B118
331
B119
331
B122
331
B123
331
B137
331
B138
331
B13F
331
B140
331
B1CA
331
B1CB
331
B21A
331
B21B
102
}
  0
BLOCK_RECORD
  5
64
330
1
100
AcDbSymbolTableRecord
100
AcDbBlockTableRecord
  2
GENAXEH
340
0
  0
BLOCK_RECORD
  5
A7F5
330
1
100
AcDbSymbolTableRecord
100
AcDbBlockTableRecord
  2
*D2
340
0
  0
BLOCK_RECORD
  5
A826
330
1
100
AcDbSymbolTableRecord
100
AcDbBlockTableRecord
  2
*D3
340
0
  0
BLOCK_RECORD
  5
A832
330
1
100
AcDbSymbolTableRecord
100
AcDbBlockTableRecord
  2
*D4
340
0
  0
BLOCK_RECORD
  5
A96A
330
1
100
AcDbSymbolTableRecord
100
AcDbBlockTableRecord
  2
*D5
340
0
  0
BLOCK_RECORD
  5
A977
330
1
100
AcDbSymbolTableRecord
100
AcDbBlockTableRecord
  2
*D6
340
0
  0
BLOCK_RECORD
  5
A9A9
330
1
100
AcDbSymbolTableRecord
100
AcDbBlockTableRecord
  2
*D7
340
0
  0
BLOCK_RECORD
  5
AE3B
330
1
100
AcDbSymbolTableRecord
100
AcDbBlockTableRecord
  2
*D8
340
0
  0
BLOCK_RECORD
  5
AEFD
330
1
100
AcDbSymbolTableRecord
100
AcDbBlockTableRecord
  2
*D9
340
0
  0
BLOCK_RECORD
  5
B209
330
1
100
AcDbSymbolTableRecord
100
AcDbBlockTableRecord
  2
*D11
340
0
  0
ENDTAB
  0
ENDSEC
  0
SECTION
  2
BLOCKS
  0
BLOCK
  5
20
330
1F
100
AcDbEntity
  8
0
100
AcDbBlockBegin
  2
*MODEL_SPACE
 70
     0
 10
0.0
 20
0.0
 30
0.0
  3
*MODEL_SPACE
  1

  0
ENDBLK
  5
21
330
1F
100
AcDbEntity
  8
0
100
AcDbBlockEnd
  0
BLOCK
  5
1C
330
1B
100
AcDbEntity
 67
     1
  8
0
100
AcDbBlockBegin
  2
*PAPER_SPACE
 70
     0
 10
0.0
 20
0.0
 30
0.0
  3
*PAPER_SPACE
  1

  0
ENDBLK
  5
1D
330
1B
100
AcDbEntity
 67
     1
  8
0
100
AcDbBlockEnd
  0
BLOCK
  5
B025
330
59
100
AcDbEntity
  8
0
100
AcDbBlockBegin
  2
_Open30
 70
     0
 10
0.0
 20
0.0
 30
0.0
  3
_Open30
  1

  0
LINE
  5
B026
330
59
100
AcDbEntity
  8
0
 62
     0
370
    -2
100
AcDbLine
 10
-1.0
 20
0.26794919
 30
0.0
 11
0.0
 21
0.0
 31
0.0
  0
LINE
  5
B027
330
59
100
AcDbEntity
  8
0
 62
     0
370
    -2
100
AcDbLine
 10
0.0
 20
0.0
 30
0.0
 11
-1.0
 21
-0.26794919
 31
0.0
  0
LINE
  5
B028
330
59
100
AcDbEntity
  8
0
 62
     0
370
    -2
100
AcDbLine
 10
0.0
 20
0.0
 30
0.0
 11
-1.0
 21
0.0
 31
0.0
  0
ENDBLK
  5
B029
330
59
100
AcDbEntity
  8
0
100
AcDbBlockEnd
  0
BLOCK
  5
B033
330
64
100
AcDbEntity
  8
0
100
AcDbBlockBegin
  2
GENAXEH
 70
     0
 10
0.0
 20
0.0
 30
0.0
  3
GENAXEH
  1

  0
LINE
  5
B034
330
64
100
AcDbEntity
  8
0
100
AcDbLine
 10
-1.0
 20
0.0
 30
0.0
 11
1.0
 21
0.0
 31
0.0
  0
ENDBLK
  5
B035
330
64
100
AcDbEntity
  8
0
100
AcDbBlockEnd
  0
BLOCK
  5
A7FF
330
A7F5
100
AcDbEntity
  8
0
100
AcDbBlockBegin
  2
*D2
 70
     1
 10
0.0
 20
0.0
 30
0.0
  3
*D2
  1

  0
LINE
  5
B0CA
330
A7F5
100
AcDbEntity
  8
PV0001_1
 62
     3
100
AcDbLine
 10
0.0000000000000075
 20
-0.0999999999997537
 30
0.0
 11
0.0000000000000062
 21
-20.47050565670598
 31
0.0
  0
LINE
  5
B0CB
330
A7F5
100
AcDbEntity
  8
PV0001_1
 62
     3
100
AcDbLine
 10
149.999999999999
 20
19.90000000000319
 30
0.0
 11
149.999999999999
 21
-20.47050565670598
 31
0.0
  0
LINE
  5
B0CC
330
A7F5
100
AcDbEntity
  8
PV0001_1
 62
     3
100
AcDbLine
 10
2.500000000000005
 20
-19.97050565670598
 30
0.0
 11
147.499999999999
 21
-19.97050565670598
 31
0.0
  0
INSERT
  5
B0CD
330
A7F5
100
AcDbEntity
  8
PV0001_1
 62
     3
100
AcDbBlockReference
  2
_Open30
 10
0.0000000000000063
 20
-19.97050565670598
 30
0.0
 41
2.5
 42
2.5
 43
2.5
 50
180.0
  0
INSERT
  5
B0CE
330
A7F5
100
AcDbEntity
  8
PV0001_1
 62
     3
100
AcDbBlockReference
  2
_Open30
 10
149.999999999999
 20
-19.97050565670598
 30
0.0
 41
2.5
 42
2.5
 43
2.5
  0
MTEXT
  5
B0CF
330
A7F5
100
AcDbEntity
  8
PV0001_1
 62
     2
100
AcDbMText
 10
74.99999999999912
 20
-17.27050565670598
 30
0.0
 40
3.399999999999999
 41
0.0
 71
     5
 72
     1
  1
150
 73
     1
 44
1.0
1001
ACAD
1000
MTEXTBEGIN
1070
    73
1070
     1
1070
    44
1040
1.0
1070
    74
1070
     0
1000
MTEXTEND
  0
POINT
  5
B0D0
330
A7F5
100
AcDbEntity
  8
DEFPOINTS
 62
     0
100
AcDbPoint
 10
0.0000000000000075
 20
0.0000000000002463
 30
0.0
  0
POINT
  5
B0D1
330
A7F5
100
AcDbEntity
  8
DEFPOINTS
 62
     0
100
AcDbPoint
 10
149.999999999999
 20
20.0000000000032
 30
0.0
  0
POINT
  5
B0D2
330
A7F5
100
AcDbEntity
  8
DEFPOINTS
 62
     0
100
AcDbPoint
 10
149.999999999999
 20
-19.97050565670598
 30
0.0
  0
ENDBLK
  5
A800
330
A7F5
100
AcDbEntity
  8
0
100
AcDbBlockEnd
  0
BLOCK
  5
A830
330
A826
100
AcDbEntity
  8
0
100
AcDbBlockBegin
  2
*D3
 70
     1
 10
0.0
 20
0.0
 30
0.0
  3
*D3
  1

  0
LINE
  5
B0D3
330
A826
100
AcDbEntity
  8
PV0001_1
 62
     3
100
AcDbLine
 10
22.14999999999911
 20
-51.03888280084587
 30
0.0
 11
22.14999999999911
 21
-32.05397158380512
 31
0.0
  0
LINE
  5
B0D4
330
A826
100
AcDbEntity
  8
PV0001_1
 62
     3
100
AcDbLine
 10
0.0000000000000061
 20
-56.0320010869779
 30
0.0
 11
0.0000000000000076
 21
-32.05397158380512
 31
0.0
  0
LINE
  5
B0D5
330
A826
100
AcDbEntity
  8
PV0001_1
 62
     3
100
AcDbLine
 10
19.64999999999909
 20
-32.55397158380513
 30
0.0
 11
2.500000000000006
 21
-32.55397158380513
 31
0.0
  0
INSERT
  5
B0D6
330
A826
100
AcDbEntity
  8
PV0001_1
 62
     3
100
AcDbBlockReference
  2
_Open30
 10
22.14999999999911
 20
-32.55397158380513
 30
0.0
 41
2.5
 42
2.5
 43
2.5
  0
INSERT
  5
B0D7
330
A826
100
AcDbEntity
  8
PV0001_1
 62
     3
100
AcDbBlockReference
  2
_Open30
 10
0.0000000000000076
 20
-32.55397158380513
 30
0.0
 41
2.5
 42
2.5
 43
2.5
 50
180.0
  0
MTEXT
  5
B0D8
330
A826
100
AcDbEntity
  8
PV0001_1
 62
     2
100
AcDbMText
 10
11.07499999999955
 20
-29.85363693813583
 30
0.0
 40
3.399999999999999
 41
0.0
 71
     5
 72
     1
  1
22
 73
     1
 44
1.0
1001
ACAD
1000
MTEXTBEGIN
1070
    73
1070
     1
1070
    44
1040
1.0
1070
    74
1070
     0
1000
MTEXTEND
  0
POINT
  5
B0D9
330
A826
100
AcDbEntity
  8
DEFPOINTS
 62
     0
100
AcDbPoint
 10
22.14999999999911
 20
-51.13888280084587
 30
0.0
  0
POINT
  5
B0DA
330
A826
100
AcDbEntity
  8
DEFPOINTS
 62
     0
100
AcDbPoint
 10
0.0000000000000061
 20
-56.1320010869779
 30
0.0
  0
POINT
  5
B0DB
330
A826
100
AcDbEntity
  8
DEFPOINTS
 62
     0
100
AcDbPoint
 10
0.0000000000000076
 20
-32.55397158380513
 30
0.0
  0
ENDBLK
  5
A831
330
A826
100
AcDbEntity
  8
0
100
AcDbBlockEnd
  0
BLOCK
  5
A83C
330
A832
100
AcDbEntity
  8
0
100
AcDbBlockBegin
  2
*D4
 70
     1
 10
0.0
 20
0.0
 30
0.0
  3
*D4
  1

  0
LINE
  5
B13C
330
A832
100
AcDbEntity
  8
PV0001_1
 62
     3
100
AcDbLine
 10
23.19999999999911
 20
44.50000000000025
 30
0.0
 11
-25.36740875244092
 21
44.50000000000025
 31
0.0
  0
LINE
  5
B13D
330
A832
100
AcDbEntity
  8
PV0001_1
 62
     3
100
AcDbLine
 10
-0.099999999999985
 20
0.0000000000002463
 30
0.0
 11
-25.36740875244093
 21
0.0000000000002535
 31
0.0
  0
LINE
  5
B13E
330
A832
100
AcDbEntity
  8
PV0001_1
 62
     3
100
AcDbLine
 10
-24.86740875244092
 20
42.00000000000025
 30
0.0
 11
-24.86740875244093
 21
2.500000000000253
 31
0.0
  0
INSERT
  5
B13F
330
A832
100
AcDbEntity
  8
PV0001_1
 62
     3
100
AcDbBlockReference
  2
_Open30
 10
-24.86740875244092
 20
44.50000000000025
 30
0.0
 41
2.5
 42
2.5
 43
2.5
 50
90.0
  0
INSERT
  5
B140
330
A832
100
AcDbEntity
  8
PV0001_1
 62
     3
100
AcDbBlockReference
  2
_Open30
 10
-24.86740875244093
 20
0.0000000000002533
 30
0.0
 41
2.5
 42
2.5
 43
2.5
 50
270.0
  0
MTEXT
  5
B141
330
A832
100
AcDbEntity
  8
PV0001_1
 62
     2
100
AcDbMText
 10
-27.56740875244093
 20
22.25000000000026
 30
0.0
 40
3.399999999999999
 41
0.0
 71
     5
 72
     1
  1
44.5
 11
0.0000000000000001
 21
1.0
 31
0.0
 73
     1
 44
1.0
1001
ACAD
1000
MTEXTBEGIN
1070
    73
1070
     1
1070
    44
1040
1.0
1070
    74
1070
     0
1000
MTEXTEND
  0
POINT
  5
B142
330
A832
100
AcDbEntity
  8
DEFPOINTS
 62
     0
100
AcDbPoint
 10
23.2999999999991
 20
44.50000000000025
 30
0.0
  0
POINT
  5
B143
330
A832
100
AcDbEntity
  8
DEFPOINTS
 62
     0
100
AcDbPoint
 10
0.000000000000015
 20
0.0000000000002463
 30
0.0
  0
POINT
  5
B144
330
A832
100
AcDbEntity
  8
DEFPOINTS
 62
     0
100
AcDbPoint
 10
-24.86740875244093
 20
0.0000000000002533
 30
0.0
  0
ENDBLK
  5
A83D
330
A832
100
AcDbEntity
  8
0
100
AcDbBlockEnd
  0
BLOCK
  5
A974
330
A96A
100
AcDbEntity
  8
0
100
AcDbBlockBegin
  2
*D5
 70
     1
 10
0.0
 20
0.0
 30
0.0
  3
*D5
  1

  0
LINE
  5
B115
330
A96A
100
AcDbEntity
  8
AM_5
 62
     3
100
AcDbLine
 10
150.099999999999
 20
-81.13200299432694
 30
0.0
 11
169.4145714225142
 21
-81.13200299432696
 31
0.0
  0
LINE
  5
B116
330
A96A
100
AcDbEntity
  8
AM_5
 62
     3
100
AcDbLine
 10
150.099999999999
 20
-56.13200108697793
 30
0.0
 11
169.4145714225142
 21
-56.13200108697793
 31
0.0
  0
LINE
  5
B117
330
A96A
100
AcDbEntity
  8
AM_5
 62
     3
100
AcDbLine
 10
168.9145714225142
 20
-78.63200299432695
 30
0.0
 11
168.9145714225142
 21
-58.63200108697793
 31
0.0
  0
INSERT
  5
B118
330
A96A
100
AcDbEntity
  8
AM_5
 62
     3
100
AcDbBlockReference
  2
_Open30
 10
168.9145714225142
 20
-81.13200299432696
 30
0.0
 41
2.5
 42
2.5
 43
2.5
 50
270.0
  0
INSERT
  5
B119
330
A96A
100
AcDbEntity
  8
AM_5
 62
     3
100
AcDbBlockReference
  2
_Open30
 10
168.9145714225142
 20
-56.13200108697793
 30
0.0
 41
2.5
 42
2.5
 43
2.5
 50
90.0
  0
MTEXT
  5
B11A
330
A96A
100
AcDbEntity
  8
AM_5
 62
     2
100
AcDbMText
 10
166.2142367768449
 20
-68.63200204065242
 30
0.0
 40
3.399999999999999
 41
0.0
 71
     5
 72
     1
  1
25
 11
0.0000000000000001
 21
1.0
 31
0.0
 73
     1
 44
1.0
1001
ACAD
1000
MTEXTBEGIN
1070
    73
1070
     1
1070
    44
1040
1.0
1070
    74
1070
     0
1000
MTEXTEND
  0
POINT
  5
B11B
330
A96A
100
AcDbEntity
  8
DEFPOINTS
 62
     0
100
AcDbPoint
 10
149.999999999999
 20
-81.13200299432694
 30
0.0
  0
POINT
  5
B11C
330
A96A
100
AcDbEntity
  8
DEFPOINTS
 62
     0
100
AcDbPoint
 10
149.999999999999
 20
-56.13200108697793
 30
0.0
  0
POINT
  5
B11D
330
A96A
100
AcDbEntity
  8
DEFPOINTS
 62
     0
100
AcDbPoint
 10
168.9145714225142
 20
-56.13200108697793
 30
0.0
  0
ENDBLK
  5
A975
330
A96A
100
AcDbEntity
  8
0
100
AcDbBlockEnd
  0
BLOCK
  5
A981
330
A977
100
AcDbEntity
  8
0
100
AcDbBlockBegin
  2
*D6
 70
     1
 10
0.0
 20
0.0
 30
0.0
  3
*D6
  1

  0
LINE
  5
B11F
330
A977
100
AcDbEntity
  8
AM_5
 62
     3
100
AcDbLine
 10
150.099999999999
 20
19.5000000000032
 30
0.0
 11
169.04108459959
 21
19.50000000000319
 31
0.0
  0
LINE
  5
B120
330
A977
100
AcDbEntity
  8
AM_5
 62
     3
100
AcDbLine
 10
150.099999999999
 20
44.50000000000019
 30
0.0
 11
169.04108459959
 21
44.50000000000019
 31
0.0
  0
LINE
  5
B121
330
A977
100
AcDbEntity
  8
AM_5
 62
     3
100
AcDbLine
 10
168.54108459959
 20
22.00000000000319
 30
0.0
 11
168.54108459959
 21
42.00000000000018
 31
0.0
  0
INSERT
  5
B122
330
A977
100
AcDbEntity
  8
AM_5
 62
     3
100
AcDbBlockReference
  2
_Open30
 10
168.54108459959
 20
19.50000000000319
 30
0.0
 41
2.5
 42
2.5
 43
2.5
 50
270.0
  0
INSERT
  5
B123
330
A977
100
AcDbEntity
  8
AM_5
 62
     3
100
AcDbBlockReference
  2
_Open30
 10
168.54108459959
 20
44.50000000000019
 30
0.0
 41
2.5
 42
2.5
 43
2.5
 50
90.0
  0
MTEXT
  5
B124
330
A977
100
AcDbEntity
  8
AM_5
 62
     2
100
AcDbMText
 10
165.8407499539207
 20
32.00000000000172
 30
0.0
 40
3.399999999999999
 41
0.0
 71
     5
 72
     1
  1
25
 11
0.0000000000000001
 21
1.0
 31
0.0
 73
     1
 44
1.0
1001
ACAD
1000
MTEXTBEGIN
1070
    73
1070
     1
1070
    44
1040
1.0
1070
    74
1070
     0
1000
MTEXTEND
  0
POINT
  5
B125
330
A977
100
AcDbEntity
  8
DEFPOINTS
 62
     0
100
AcDbPoint
 10
149.999999999999
 20
19.5000000000032
 30
0.0
  0
POINT
  5
B126
330
A977
100
AcDbEntity
  8
DEFPOINTS
 62
     0
100
AcDbPoint
 10
149.999999999999
 20
44.50000000000019
 30
0.0
  0
POINT
  5
B127
330
A977
100
AcDbEntity
  8
DEFPOINTS
 62
     0
100
AcDbPoint
 10
168.54108459959
 20
44.50000000000019
 30
0.0
  0
ENDBLK
  5
A982
330
A977
100
AcDbEntity
  8
0
100
AcDbBlockEnd
  0
BLOCK
  5
A9B3
330
A9A9
100
AcDbEntity
  8
0
100
AcDbBlockBegin
  2
*D7
 70
     1
 10
0.0
 20
0.0
 30
0.0
  3
*D7
  1

  0
LINE
  5
B133
330
A9A9
100
AcDbEntity
  8
AM_5
 62
     3
100
AcDbLine
 10
-2.911083394847756
 20
-40.51263424308522
 30
0.0
 11
-1.571367409089378
 21
-38.40190899391055
 31
0.0
  0
LINE
  5
B134
330
A9A9
100
AcDbEntity
  8
AM_5
 62
     3
100
AcDbLine
 10
-22.73887998407171
 20
-71.7513679308702
 30
0.0
 11
-27.2214209185795
 21
-78.81362025263283
 31
0.0
  0
LINE
  5
B135
330
A9A9
100
AcDbEntity
  8
AM_5
 62
     3
100
AcDbLine
 10
-27.2214209185795
 20
-78.81362025263283
 30
0.0
 11
-35.22562170598107
 21
-78.81362025263283
 31
0.0
  0
LINE
  5
B136
330
A9A9
100
AcDbEntity
  8
AM_5
 62
     3
100
AcDbLine
 10
-4.250799380606134
 20
-42.62335949225986
 30
0.0
 11
-21.39916399831335
 21
-69.64064268169554
 31
0.0
  0
INSERT
  5
B137
330
A9A9
100
AcDbEntity
  8
AM_5
 62
     3
100
AcDbBlockReference
  2
_Open30
 10
-4.250799380606134
 20
-42.62335949225986
 30
0.0
 41
2.5
 42
2.5
 43
2.5
 50
237.5959555213849
  0
INSERT
  5
B138
330
A9A9
100
AcDbEntity
  8
AM_5
 62
     3
100
AcDbBlockReference
  2
_Open30
 10
-21.39916399831335
 20
-69.64064268169554
 30
0.0
 41
2.5
 42
2.5
 43
2.5
 50
57.59595552138491
  0
MTEXT
  5
B139
330
A9A9
100
AcDbEntity
  8
AM_5
 62
     2
100
AcDbMText
 10
-31.72352131228031
 20
-76.11328560696353
 30
0.0
 40
3.399999999999999
 41
0.0
 71
     5
 72
     1
  1
\U+220532
 73
     1
 44
1.0
1001
ACAD
1000
MTEXTBEGIN
1070
    73
1070
     1
1070
    44
1040
1.0
1070
    74
1070
     0
1000
MTEXTEND
  0
POINT
  5
B13A
330
A9A9
100
AcDbEntity
  8
DEFPOINTS
 62
     0
100
AcDbPoint
 10
-21.39916399831335
 20
-69.64064268169554
 30
0.0
  0
POINT
  5
B13B
330
A9A9
100
AcDbEntity
  8
DEFPOINTS
 62
     0
100
AcDbPoint
 10
-4.250799380606134
 20
-42.62335949225986
 30
0.0
  0
ENDBLK
  5
A9B4
330
A9A9
100
AcDbEntity
  8
0
100
AcDbBlockEnd
  0
BLOCK
  5
AE45
330
AE3B
100
AcDbEntity
  8
0
100
AcDbBlockBegin
  2
*D8
 70
     1
 10
0.0
 20
0.0
 30
0.0
  3
*D8
  1

  0
LINE
  5
B100
330
AE3B
100
AcDbEntity
  8
AM_5
 62
     3
100
AcDbLine
 10
23.2999999999991
 20
50.60000000000023
 30
0.0
 11
23.2999999999991
 21
64.06389274308043
 31
0.0
  0
LINE
  5
B101
330
AE3B
100
AcDbEntity
  8
AM_5
 62
     3
100
AcDbLine
 10
0.000000000000015
 20
0.1000000000002463
 30
0.0
 11
0.0000000000000189
 21
64.06389274308043
 31
0.0
  0
LINE
  5
B102
330
AE3B
100
AcDbEntity
  8
AM_5
 62
     3
100
AcDbLine
 10
20.7999999999991
 20
63.56389274308043
 30
0.0
 11
2.500000000000019
 21
63.56389274308043
 31
0.0
  0
INSERT
  5
B103
330
AE3B
100
AcDbEntity
  8
AM_5
 62
     3
100
AcDbBlockReference
  2
_Open30
 10
23.2999999999991
 20
63.56389274308043
 30
0.0
 41
2.5
 42
2.5
 43
2.5
  0
INSERT
  5
B104
330
AE3B
100
AcDbEntity
  8
AM_5
 62
     3
100
AcDbBlockReference
  2
_Open30
 10
0.0000000000000189
 20
63.56389274308043
 30
0.0
 41
2.5
 42
2.5
 43
2.5
 50
180.0
  0
MTEXT
  5
B105
330
AE3B
100
AcDbEntity
  8
AM_5
 62
     2
100
AcDbMText
 10
11.64999999999956
 20
66.26422738874971
 30
0.0
 40
3.399999999999999
 41
0.0
 71
     5
 72
     1
  1
23
 73
     1
 44
1.0
1001
ACAD
1000
MTEXTBEGIN
1070
    73
1070
     1
1070
    44
1040
1.0
1070
    74
1070
     0
1000
MTEXTEND
  0
POINT
  5
B106
330
AE3B
100
AcDbEntity
  8
DEFPOINTS
 62
     0
100
AcDbPoint
 10
23.2999999999991
 20
50.50000000000024
 30
0.0
  0
POINT
  5
B107
330
AE3B
100
AcDbEntity
  8
DEFPOINTS
 62
     0
100
AcDbPoint
 10
0.000000000000015
 20
0.0000000000002463
 30
0.0
  0
POINT
  5
B108
330
AE3B
100
AcDbEntity
  8
DEFPOINTS
 62
     0
100
AcDbPoint
 10
0.0000000000000189
 20
63.56389274308043
 30
0.0
  0
ENDBLK
  5
AE46
330
AE3B
100
AcDbEntity
  8
0
100
AcDbBlockEnd
  0
BLOCK
  5
AF09
330
AEFD
100
AcDbEntity
  8
0
100
AcDbBlockBegin
  2
*D9
 70
     1
 10
0.0
 20
0.0
 30
0.0
  3
*D9
  1

  0
LINE
  5
B1C5
330
AEFD
100
AcDbEntity
  8
AM_5
 62
     3
100
AcDbLine
 10
3.199999463864013
 20
-0.0999999999997541
 30
0.0
 11
3.199999463864012
 21
-9.957317295344822
 31
0.0
  0
LINE
  5
B1C6
330
AEFD
100
AcDbEntity
  8
AM_5
 62
     3
100
AcDbLine
 10
0.0000000000000075
 20
-0.0999999999998742
 30
0.0
 11
0.0000000000000069
 21
-9.957317295344822
 31
0.0
  0
LINE
  5
B1C7
330
AEFD
100
AcDbEntity
  8
AM_5
 62
     3
100
AcDbLine
 10
-2.499999999999992
 20
-9.457317295344822
 30
0.0
 11
-4.999999999999992
 21
-9.457317295344822
 31
0.0
  0
LINE
  5
B1C8
330
AEFD
100
AcDbEntity
  8
AM_5
 62
     3
100
AcDbLine
 10
5.699999463864012
 20
-9.457317295344822
 30
0.0
 11
18.4562120622892
 21
-9.457317295344822
 31
0.0
  0
LINE
  5
B1C9
330
AEFD
100
AcDbEntity
  8
AM_5
 62
     3
100
AcDbLine
 10
0.0000000000000069
 20
-9.457317295344822
 30
0.0
 11
3.199999463864012
 21
-9.457317295344822
 31
0.0
  0
INSERT
  5
B1CA
330
AEFD
100
AcDbEntity
  8
AM_5
 62
     3
100
AcDbBlockReference
  2
_Open30
 10
0.0000000000000069
 20
-9.457317295344822
 30
0.0
 41
2.5
 42
2.5
 43
2.5
  0
INSERT
  5
B1CB
330
AEFD
100
AcDbEntity
  8
AM_5
 62
     3
100
AcDbBlockReference
  2
_Open30
 10
3.199999463864012
 20
-9.457317295344822
 30
0.0
 41
2.5
 42
2.5
 43
2.5
 50
180.0
  0
MTEXT
  5
B1CC
330
AEFD
100
AcDbEntity
  8
AM_5
 62
     2
100
AcDbMText
 10
14.97411166858842
 20
-6.756982649675531
 30
0.0
 40
3.399999999999999
 41
0.0
 71
     5
 72
     1
  1
3.2
 73
     1
 44
1.0
1001
ACAD
1000
MTEXTBEGIN
1070
    73
1070
     1
1070
    44
1040
1.0
1070
    74
1070
     0
1000
MTEXTEND
  0
POINT
  5
B1CD
330
AEFD
100
AcDbEntity
  8
DEFPOINTS
 62
     0
100
AcDbPoint
 10
3.199999463864013
 20
0.0000000000002459
 30
0.0
  0
POINT
  5
B1CE
330
AEFD
100
AcDbEntity
  8
DEFPOINTS
 62
     0
100
AcDbPoint
 10
0.0000000000000075
 20
0.0000000000001258
 30
0.0
  0
POINT
  5
B1CF
330
AEFD
100
AcDbEntity
  8
DEFPOINTS
 62
     0
100
AcDbPoint
 10
0.0000000000000069
 20
-9.457317295344822
 30
0.0
  0
ENDBLK
  5
AF0A
330
AEFD
100
AcDbEntity
  8
0
100
AcDbBlockEnd
  0
BLOCK
  5
B223
330
B209
100
AcDbEntity
  8
0
100
AcDbBlockBegin
  2
*D11
 70
     1
 10
0.0
 20
0.0
 30
0.0
  3
*D11
  1

  0
LINE
  5
B215
330
B209
100
AcDbEntity
  8
AM_5
100
AcDbLine
 10
22.45712462914751
 20
50.50000000000024
 30
0.0
 11
36.29999999999911
 21
50.50000000000024
 31
0.0
  0
LINE
  5
B216
330
B209
100
AcDbEntity
  8
AM_5
100
AcDbLine
 10
23.39999999999911
 20
44.50000000000025
 30
0.0
 11
36.2999999999991
 21
44.50000000000025
 31
0.0
  0
LINE
  5
B217
330
B209
100
AcDbEntity
  8
AM_5
100
AcDbLine
 10
35.29999999999911
 20
53.00000000000024
 30
0.0
 11
35.29999999999911
 21
55.50000000000024
 31
0.0
  0
LINE
  5
B218
330
B209
100
AcDbEntity
  8
AM_5
100
AcDbLine
 10
35.2999999999991
 20
42.00000000000025
 30
0.0
 11
35.2999999999991
 21
39.50000000000025
 31
0.0
  0
LINE
  5
B219
330
B209
100
AcDbEntity
  8
AM_5
100
AcDbLine
 10
35.29999999999911
 20
50.50000000000024
 30
0.0
 11
35.2999999999991
 21
44.50000000000025
 31
0.0
  0
INSERT
  5
B21A
330
B209
100
AcDbEntity
  8
AM_5
100
AcDbBlockReference
  2
_Open30
 10
35.29999999999911
 20
50.50000000000024
 30
0.0
 41
2.5
 42
2.5
 43
2.5
 50
270.0
  0
INSERT
  5
B21B
330
B209
100
AcDbEntity
  8
AM_5
100
AcDbBlockReference
  2
_Open30
 10
35.2999999999991
 20
44.50000000000025
 30
0.0
 41
2.5
 42
2.5
 43
2.5
 50
90.0
  0
MTEXT
  5
B21C
330
B209
100
AcDbEntity
  8
AM_5
 62
     2
100
AcDbMText
 10
31.8999999999991
 20
47.50000000000025
 30
0.0
 40
3.799999999999998
 41
0.0
 71
     5
 72
     1
  1
6
 11
0.0000000000000001
 21
1.0
 31
0.0
 73
     1
 44
1.0
1001
ACAD
1000
MTEXTBEGIN
1070
    73
1070
     1
1070
    44
1040
1.0
1070
    74
1070
     0
1000
MTEXTEND
  0
POINT
  5
B21D
330
B209
100
AcDbEntity
  8
DEFPOINTS
 62
     0
100
AcDbPoint
 10
22.3571246291475
 20
50.50000000000024
 30
0.0
  0
POINT
  5
B21E
330
B209
100
AcDbEntity
  8
DEFPOINTS
 62
     0
100
AcDbPoint
 10
23.2999999999991
 20
44.50000000000025
 30
0.0
  0
POINT
  5
B21F
330
B209
100
AcDbEntity
  8
DEFPOINTS
 62
     0
100
AcDbPoint
 10
35.2999999999991
 20
44.50000000000025
 30
0.0
  0
ENDBLK
  5
B224
330
B209
100
AcDbEntity
  8
0
100
AcDbBlockEnd
  0
ENDSEC
  0
SECTION
  2
ENTITIES
  0
TEXT
  5
83BD
330
1F
100
AcDbEntity
  8
AM_6
100
AcDbText
 10
49.80908840819908
 20
-97.21561994681326
 30
0.0
 40
5.0
  1
GMFNSR2525-32-32
 72
     4
 11
79.32979430775278
 21
-94.71561994681326
 31
0.0
100
AcDbText
  0
LINE
  5
A6E6
330
1F
100
AcDbEntity
  8
AM_0
100
AcDbLine
 10
19.68499374389704
 20
-81.13200299432691
 30
0.0
 11
149.999999999999
 21
-81.13200299432694
 31
0.0
  0
LINE
  5
A6E7
330
1F
100
AcDbEntity
  8
AM_0
100
AcDbLine
 10
23.29999999999909
 20
-56.1320010869779
 30
0.0
 11
149.999999999999
 21
-56.13200108697793
 31
0.0
  0
LINE
  5
A6E8
330
1F
100
AcDbEntity
  8
AM_0
100
AcDbLine
 10
23.2999999999991
 20
44.50000000000024
 30
0.0
 11
149.999999999999
 21
44.50000000000019
 31
0.0
  0
LINE
  5
A6E9
330
1F
100
AcDbEntity
  8
AM_0
100
AcDbLine
 10
4.469999999999103
 20
19.50000000000322
 30
0.0
 11
149.999999999999
 21
19.5000000000032
 31
0.0
  0
DIMENSION
  5
A6EA
330
1F
100
AcDbEntity
  8
PV0001_1
100
AcDbDimension
  2
*D2
 10
149.999999999999
 20
-19.97050565670598
 30
0.0
 11
74.99999999999912
 21
-19.97050565670598
 31
0.0
 70
   160
  1
<>
 71
     5
 42
149.999999999999
  3
AM_JIS$0
100
AcDbAlignedDimension
 13
0.0000000000000075
 23
0.0000000000002463
 33
0.0
 14
149.999999999999
 24
20.0000000000032
 34
0.0
100
AcDbRotatedDimension
1001
ACAD
1000
DSTYLE
1002
{
1070
   284
1070
     8
1070
   271
1070
     0
1070
    45
1040
0.1
1070
   173
1070
     1
1070
     6
1000
OPEN30
1070
     7
1000
OPEN30
1002
}
  0
CIRCLE
  5
A6ED
330
1F
100
AcDbEntity
  8
AM_11
  6
AM_ISO09W050
 48
0.5
100
AcDbCircle
 10
-12.82498168945993
 20
-56.13200108697782
 30
0.0
 40
16.0
  0
LINE
  5
A6F1
330
1F
100
AcDbEntity
  8
AM_7
 48
0.5
100
AcDbLine
 10
-31.06331176757976
 20
-56.13200108697772
 30
0.0
 11
5.301220703120183
 21
-56.13200108697773
 31
0.0
  0
LINE
  5
A6F2
330
1F
100
AcDbEntity
  8
AM_0
 48
0.5
100
AcDbLine
 10
4.473007202150032
 20
-76.4626781194488
 30
0.0
 11
-5.686981201169937
 21
-76.4626781194488
 31
0.0
  0
LINE
  5
A6F3
330
1F
100
AcDbEntity
  8
AM_7
 48
0.5
100
AcDbLine
 10
13.28691101074002
 20
-67.06467930963481
 30
0.0
 11
-2.203536987309909
 21
-67.06467930963481
 31
0.0
  0
LINE
  5
A6F5
330
1F
100
AcDbEntity
  8
AM_0
 48
0.5
100
AcDbLine
 10
23.29999999999909
 20
-56.1320010869779
 30
0.0
 11
23.29999999999909
 21
-57.53967778375589
 31
0.0
  0
LINE
  5
A6F6
330
1F
100
AcDbEntity
  8
AM_7
 48
0.5
100
AcDbLine
 10
11.35500183105902
 20
-43.0973865239899
 30
0.0
 11
11.35500183105901
 21
-64.56421391656789
 31
0.0
  0
LINE
  5
A6F7
330
1F
100
AcDbEntity
  8
AM_7
 48
0.5
100
AcDbLine
 10
1.473007202150034
 20
-54.60859028985882
 30
0.0
 11
1.473007202150031
 21
-76.1830341069978
 31
0.0
  0
LINE
  5
A6F8
330
1F
100
AcDbEntity
  8
AM_0
 48
0.5
100
AcDbLine
 10
4.473007202150035
 20
-58.93667714288682
 30
0.0
 11
4.473007202150034
 21
-64.04207722833581
 31
0.0
  0
LINE
  5
A6FA
330
1F
100
AcDbEntity
  8
AM_0
 48
0.5
100
AcDbLine
 10
4.473007202150035
 20
-57.53967778375582
 30
0.0
 11
4.473007202150034
 21
-63.88967625787682
 31
0.0
  0
LINE
  5
A6FB
330
1F
100
AcDbEntity
  8
AM_0
 48
0.5
100
AcDbLine
 10
25.17900695800906
 20
-81.13200299432691
 30
0.0
 11
0.5110168456900474
 21
-81.13200299432691
 31
0.0
  0
LINE
  5
A6FC
330
1F
100
AcDbEntity
  8
AM_0
 48
0.5
100
AcDbLine
 10
4.473007202150033
 20
-70.23967854669482
 30
0.0
 11
4.473007202150032
 21
-76.4626781194488
 31
0.0
  0
LINE
  5
A6FD
330
1F
100
AcDbEntity
  8
AM_0
 48
0.5
100
AcDbLine
 10
4.473007202150033
 20
-70.23967854669482
 30
0.0
 11
4.473007202150032
 21
-81.13200299432682
 31
0.0
  0
LINE
  5
A6FE
330
1F
100
AcDbEntity
  8
AM_0
 48
0.5
100
AcDbLine
 10
0.5110168456900488
 20
-76.46267811944887
 30
0.0
 11
0.5110168456900484
 21
-81.13200299432691
 31
0.0
  0
LINE
  5
A6FF
330
1F
100
AcDbEntity
  8
AM_0
 48
0.5
100
AcDbLine
 10
6.505004882810002
 20
-64.04207722833581
 30
0.0
 11
4.473007202150034
 21
-64.04207722833581
 31
0.0
  0
LINE
  5
A700
330
1F
100
AcDbEntity
  8
AM_0
 48
0.5
100
AcDbLine
 10
6.505004882810002
 20
-70.23967854669482
 30
0.0
 11
4.473007202150033
 21
-70.23967854669482
 31
0.0
  0
LINE
  5
A701
330
1F
100
AcDbEntity
  8
AM_0
 48
0.5
100
AcDbLine
 10
7.267013549800029
 20
-63.88967625787682
 30
0.0
 11
4.473007202150034
 21
-63.88967625787682
 31
0.0
  0
LINE
  5
A702
330
1F
100
AcDbEntity
  8
AM_0
 48
0.5
100
AcDbLine
 10
6.505004882810002
 20
-64.04207722833581
 30
0.0
 11
6.505004882810002
 21
-70.23967854669482
 31
0.0
  0
LINE
  5
A703
330
1F
100
AcDbEntity
  8
AM_0
 48
0.5
100
AcDbLine
 10
7.267013549800029
 20
-63.88967625787682
 30
0.0
 11
7.267013549800029
 21
-70.23967854669482
 31
0.0
  0
LINE
  5
A706
330
1F
100
AcDbEntity
  8
AM_0
 48
0.5
100
AcDbLine
 10
7.267013549800029
 20
-70.23967854669482
 30
0.0
 11
6.505004882810002
 21
-70.23967854669482
 31
0.0
  0
LINE
  5
A709
330
1F
100
AcDbEntity
  8
AM_0
 48
0.5
100
AcDbLine
 10
16.35500183105901
 20
-46.50248067071887
 30
0.0
 11
6.355001831059022
 21
-46.50248067071887
 31
0.0
  0
LINE
  5
A70A
330
1F
100
AcDbEntity
  8
AM_0
 48
0.5
100
AcDbLine
 10
15.85500183105902
 20
-46.00248067071889
 30
0.0
 11
6.855001831059022
 21
-46.00248067071889
 31
0.0
  0
LINE
  5
A70B
330
1F
100
AcDbEntity
  8
AM_0
 48
0.5
100
AcDbLine
 10
19.10199584960904
 20
-57.53967778375589
 30
0.0
 11
3.114090779679318
 21
-57.53967778375589
 31
0.0
  0
LINE
  5
A70C
330
1F
100
AcDbEntity
  8
AM_0
 48
0.5
100
AcDbLine
 10
22.14999999999911
 20
-51.13888280084587
 30
0.0
 11
1.875463867189104
 21
-51.13888280084591
 31
0.0
  0
LINE
  5
A70D
330
1F
100
AcDbEntity
  8
AM_0
 48
0.5
100
AcDbLine
 10
19.10199584960904
 20
-56.5236789434239
 30
0.0
 11
3.137844663952124
 21
-56.5236789434239
 31
0.0
  0
LINE
  5
A70E
330
1F
100
AcDbEntity
  8
AM_0
 48
0.5
100
AcDbLine
 10
20.625997924809
 20
-49.61488072564989
 30
0.0
 11
0.509191894528989
 21
-49.61488072564989
 31
0.0
  0
LINE
  5
A70F
330
1F
100
AcDbEntity
  8
AM_0
 48
0.5
100
AcDbLine
 10
16.35500183105901
 20
-46.50248067071887
 30
0.0
 11
16.35500183105901
 21
-49.61488072564989
 31
0.0
  0
LINE
  5
A711
330
1F
100
AcDbEntity
  8
AM_0
 48
0.5
100
AcDbLine
 10
23.29999999999909
 20
-57.53967778375589
 30
0.0
 11
22.14999999999911
 21
-57.53967778375589
 31
0.0
  0
LINE
  5
A712
330
1F
100
AcDbEntity
  8
AM_0
 48
0.5
100
AcDbLine
 10
22.14999999999911
 20
-51.13888280084587
 30
0.0
 11
22.14999999999911
 21
-59.19067876031789
 31
0.0
  0
LINE
  5
A713
330
1F
100
AcDbEntity
  8
AM_0
 48
0.5
100
AcDbLine
 10
22.14999999999911
 20
-59.19067876031789
 30
0.0
 11
19.10199584960904
 21
-59.19067876031789
 31
0.0
  0
LINE
  5
A714
330
1F
100
AcDbEntity
  8
AM_0
 48
0.5
100
AcDbLine
 10
22.14999999999911
 20
-58.83508031061088
 30
0.0
 11
19.10199584960904
 21
-58.83508031061088
 31
0.0
  0
LINE
  5
A715
330
1F
100
AcDbEntity
  8
AM_0
 48
0.5
100
AcDbLine
 10
19.10199584960904
 20
-56.5236789434239
 30
0.0
 11
19.10199584960904
 21
-59.19067876031789
 31
0.0
  0
LINE
  5
A716
330
1F
100
AcDbEntity
  8
AM_0
 48
0.5
100
AcDbLine
 10
22.14999999999911
 20
-59.31767766168491
 30
0.0
 11
19.02579345702896
 21
-59.31767766168491
 31
0.0
  0
LINE
  5
A717
330
1F
100
AcDbEntity
  8
AM_0
 48
0.5
100
AcDbLine
 10
19.02579345702896
 20
-57.53967778375589
 30
0.0
 11
19.02579345702896
 21
-59.31767766168491
 31
0.0
  0
LINE
  5
A718
330
1F
100
AcDbEntity
  8
PV0001_1
  6
Continuous
 48
0.5
100
AcDbLine
 10
22.14999999999911
 20
-57.53967778375589
 30
0.0
 11
22.14999999999911
 21
-59.31767766168491
 31
0.0
  0
LINE
  5
A719
330
1F
100
AcDbEntity
  8
AM_0
 48
0.5
100
AcDbLine
 10
22.14999999999911
 20
-51.1388751714509
 30
0.0
 11
20.625997924809
 21
-49.61487691095288
 31
0.0
  0
LINE
  5
A71A
330
1F
100
AcDbEntity
  8
AM_0
 48
0.5
100
AcDbLine
 10
15.85500183105902
 20
-46.00248067071889
 30
0.0
 11
16.35500183105901
 21
-46.50248067071887
 31
0.0
  0
LINE
  5
A71B
330
1F
100
AcDbEntity
  8
AM_0
 48
0.5
100
AcDbLine
 10
6.355001831059022
 20
-46.50248067071887
 30
0.0
 11
6.355001831059019
 21
-49.61488072564989
 31
0.0
  0
LINE
  5
A71C
330
1F
100
AcDbEntity
  8
AM_0
 48
0.5
100
AcDbLine
 10
9.450003051759074
 20
-51.13888280084587
 30
0.0
 11
9.450003051759074
 21
-56.5236789434239
 31
0.0
  0
LINE
  5
A71D
330
1F
100
AcDbEntity
  8
AM_0
 48
0.5
100
AcDbLine
 10
10.00157775878907
 20
-49.61488454034689
 30
0.0
 11
9.450003051759074
 21
-51.13888661554288
 31
0.0
  0
LINE
  5
A71E
330
1F
100
AcDbEntity
  8
AM_0
 48
0.5
100
AcDbLine
 10
1.875479125979073
 20
-51.1388751714509
 30
0.0
 11
2.66820373534907
 21
-55.63467518976189
 31
0.0
  0
LINE
  5
A71F
330
1F
100
AcDbEntity
  8
AM_0
 48
0.5
100
AcDbLine
 10
0.509191894528989
 20
-49.61488072564989
 30
0.0
 11
0.5091918945289881
 21
-56.1320010869779
 31
0.0
  0
LINE
  5
A720
330
1F
100
AcDbEntity
  8
AM_0
 48
0.5
100
AcDbLine
 10
0.0000000000000061
 20
-56.13200108697782
 30
0.0
 11
3.17501831054006
 21
-56.13200108697782
 31
0.0
  0
LINE
  5
A722
330
1F
100
AcDbEntity
  8
AM_0
 48
0.5
100
AcDbLine
 10
0.3914971153626545
 20
-59.67044933493088
 30
0.0
 11
1.365234375000004
 21
-60.64419285943881
 31
0.0
  0
LINE
  5
A725
330
1F
100
AcDbEntity
  8
AM_0
 48
0.5
100
AcDbLine
 10
0.0000000000000061
 20
-56.13200108697782
 30
0.0
 11
0.4404907226500029
 21
-59.71944920709578
 31
0.0
  0
LINE
  5
A726
330
1F
100
AcDbEntity
  8
AM_0
 48
0.5
100
AcDbLine
 10
2.66820373534907
 20
-55.63467518976189
 30
0.0
 11
2.66820373534907
 21
-56.13199727228089
 31
0.0
  0
LINE
  5
A727
330
1F
100
AcDbEntity
  8
AM_0
 48
0.5
100
AcDbLine
 10
3.861990356449075
 20
-56.5236789434239
 30
0.0
 11
3.861990356449075
 21
-57.53967778375589
 31
0.0
  0
ARC
  5
A72A
330
1F
100
AcDbEntity
  8
PV0001_1
  6
Continuous
 62
     3
 48
0.5
100
AcDbCircle
 10
1.473007202150033
 20
-60.53643910577681
 30
0.0
 40
0.1524000018835
100
AcDbArc
 50
224.9999996583768
 51
314.9999987477648
  0
LINE
  5
A72D
330
1F
100
AcDbEntity
  8
AM_0
 48
0.5
100
AcDbLine
 10
3.17501831054006
 20
-56.13200490167582
 30
0.0
 11
2.766601562500003
 21
-59.45837132623583
 31
0.0
  0
LINE
  5
A72E
330
1F
100
AcDbEntity
  8
AM_0
 48
0.5
100
AcDbLine
 10
1.29804992676009
 20
-60.57700078180278
 30
0.0
 11
1.647964477539976
 21
-60.57700078180278
 31
0.0
  0
LINE
  5
A72F
330
1F
100
AcDbEntity
  8
AM_0
 48
0.5
100
AcDbLine
 10
1.58076477051009
 20
-60.64420430353082
 30
0.0
 11
2.766601562500003
 21
-59.45836751153881
 31
0.0
  0
LINE
  5
A730
330
1F
100
AcDbEntity
  8
AM_0
 48
0.5
100
AcDbLine
 10
6.855001831059022
 20
-46.00248067071889
 30
0.0
 11
6.355001831059022
 21
-46.50248067071887
 31
0.0
  0
LINE
  5
A733
102
{ACAD_REACTORS
330
AD80
102
}
330
1F
100
AcDbEntity
  8
AM_7
 48
0.5
100
AcDbLine
 10
7.506011962887051
 20
24.43739700317329
 30
0.0
 11
-4.665711569966544
 21
24.43739700317329
 31
0.0
  0
LINE
  5
A734
102
{ACAD_REACTORS
330
AD80
102
}
330
1F
100
AcDbEntity
  8
AM_7
 48
0.5
100
AcDbLine
 10
7.506011962887054
 20
37.77239799499525
 30
0.0
 11
-5.019346021712612
 21
37.77239799499525
 31
0.0
  0
LINE
  5
A735
102
{ACAD_REACTORS
330
AD80
102
}
330
1F
100
AcDbEntity
  8
AM_0
 48
0.5
100
AcDbLine
 10
0.0124053955080517
 20
0.6121978759762403
 30
0.0
 11
-5.686981201169944
 21
0.612197875976241
 31
0.0
  0
LINE
  5
A738
330
1F
100
AcDbEntity
  8
AM_7
 48
0.5
100
AcDbLine
 10
-12.82498168945993
 20
-35.80286900689979
 30
0.0
 11
-12.82498168945993
 21
-75.70467106988882
 31
0.0
  0
LINE
  5
A739
330
1F
100
AcDbEntity
  8
AM_0
 48
0.5
100
AcDbLine
 10
-5.686981201169937
 20
-69.27506636183645
 30
0.0
 11
-5.686981201169937
 21
-76.4626781194488
 31
0.0
  0
LINE
  5
A76B
102
{ACAD_REACTORS
330
AD80
102
}
330
1F
100
AcDbEntity
  8
AM_0
100
AcDbLine
 10
-5.686981201169944
 20
0.612197875976241
 30
0.0
 11
-5.686981201169942
 21
22.50000000000023
 31
0.0
  0
DIMENSION
  5
A76C
330
1F
100
AcDbEntity
  8
PV0001_1
100
AcDbDimension
  2
*D3
 10
0.0000000000000076
 20
-32.55397158380513
 30
0.0
 11
11.07499999999955
 21
-32.55397158380513
 31
0.0
 70
   160
  1
<>
 71
     5
 42
22.14999999999909
  3
AM_JIS$0
100
AcDbAlignedDimension
 13
22.14999999999911
 23
-51.13888280084587
 33
0.0
 14
0.0000000000000061
 24
-56.1320010869779
 34
0.0
100
AcDbRotatedDimension
1001
ACAD
1000
DSTYLE
1002
{
1070
    45
1040
0.01
1070
   173
1070
     1
1070
   271
1070
     0
1070
     6
1000
OPEN30
1070
     7
1000
OPEN30
1002
}
  0
DIMENSION
  5
A79F
330
1F
100
AcDbEntity
  8
PV0001_1
100
AcDbDimension
  2
*D4
 10
-24.86740875244093
 20
0.0000000000002533
 30
0.0
 11
-24.86740875244093
 21
22.25000000000026
 31
0.0
 70
   160
  1
<>
 71
     5
 42
44.50000000000001
  3
AM_JIS$0
100
AcDbAlignedDimension
 13
23.2999999999991
 23
44.50000000000025
 33
0.0
 14
0.000000000000015
 24
0.0000000000002463
 34
0.0
 50
89.99999999999998
100
AcDbRotatedDimension
1001
ACAD
1000
DSTYLE
1002
{
1070
    45
1040
0.1
1070
   173
1070
     1
1070
   271
1070
     1
1070
   343
1005
59
1070
   344
1005
59
1002
}
  0
CIRCLE
  5
A7A0
102
{ACAD_REACTORS
330
AD80
102
}
330
1F
100
AcDbEntity
  8
AM_0
 48
0.5
100
AcDbCircle
 10
11.3499999999991
 20
30.00000000000025
 30
0.0
 40
4.5
  0
CIRCLE
  5
A7A1
102
{ACAD_REACTORS
330
AD80
102
}
330
1F
100
AcDbEntity
  8
AM_0
100
AcDbCircle
 10
11.3499999999991
 20
30.00000000000025
 30
0.0
 40
5.0
  0
CIRCLE
  5
A7A2
102
{ACAD_REACTORS
330
AD80
102
}
330
1F
100
AcDbEntity
  8
AM_0
100
AcDbCircle
 10
11.3499999999991
 20
30.00000000000025
 30
0.0
 40
5.1561999320984
  0
LINE
  5
A7A5
102
{ACAD_REACTORS
330
AD80
102
}
330
1F
100
AcDbEntity
  8
AM_0
 48
0.5
100
AcDbLine
 10
22.14500579832909
 20
25.60970306396428
 30
0.0
 11
22.14500579832909
 21
37.13739585876421
 31
0.0
  0
LINE
  5
A7A8
102
{ACAD_REACTORS
330
AD80
102
}
330
1F
100
AcDbEntity
  8
AM_0
 48
0.5
100
AcDbLine
 10
20.6210037231391
 20
26.75839996337927
 30
0.0
 11
20.6210037231391
 21
35.61339950561525
 31
0.0
  0
LINE
  5
A7A9
102
{ACAD_REACTORS
330
AD80
102
}
330
1F
100
AcDbEntity
  8
AM_0
 48
0.5
100
AcDbLine
 10
22.14500579832909
 20
25.7875061035153
 30
0.0
 11
22.14500579832909
 21
37.1373977661133
 31
0.0
  0
LINE
  5
A7AA
102
{ACAD_REACTORS
330
AD80
102
}
330
1F
100
AcDbEntity
  8
AM_0
100
AcDbLine
 10
0.5042053222640984
 20
7.369480133056201
 30
0.0
 11
0.5042053222641029
 21
43.48739814758324
 31
0.0
  0
LINE
  5
A7AE
102
{ACAD_REACTORS
330
AD80
102
}
330
1F
100
AcDbEntity
  8
AM_7
 48
0.5
100
AcDbLine
 10
11.3499999999991
 20
24.26762771606425
 30
0.0
 11
11.3499999999991
 21
37.75785064697222
 31
0.0
  0
LINE
  5
A7AF
102
{ACAD_REACTORS
330
AD80
102
}
330
1F
100
AcDbEntity
  8
AM_0
 48
0.5
100
AcDbLine
 10
20.62101135252909
 20
26.7584037780763
 30
0.0
 11
9.996591186519095
 21
21.8041572570802
 31
0.0
  0
LINE
  5
A7B0
102
{ACAD_REACTORS
330
AD80
102
}
330
1F
100
AcDbEntity
  8
AM_0
 48
0.5
100
AcDbLine
 10
22.14500579832909
 20
25.7875061035153
 30
0.0
 11
9.445008850089095
 21
19.8653984069822
 31
0.0
  0
LINE
  5
A7B3
102
{ACAD_REACTORS
330
AD80
102
}
330
1F
100
AcDbEntity
  8
AM_0
 48
0.5
100
AcDbLine
 10
0.2792205810550125
 20
4.752605438232212
 30
0.0
 11
0.2792205810550137
 21
14.60760879516626
 31
0.0
  0
LINE
  5
A7B4
102
{ACAD_REACTORS
330
AD80
102
}
330
1F
100
AcDbEntity
  8
AM_0
 48
0.5
100
AcDbLine
 10
2.663209533689096
 20
8.894653320312292
 30
0.0
 11
1.870477294920091
 21
19.86540222167924
 31
0.0
  0
LINE
  5
A7B5
102
{ACAD_REACTORS
330
AD80
102
}
330
1F
100
AcDbEntity
  8
AM_0
 48
0.5
100
AcDbLine
 10
2.663201904289095
 20
7.369480133056201
 30
0.0
 11
2.663201904289095
 21
19.8653984069822
 31
0.0
  0
LINE
  5
A7B6
102
{ACAD_REACTORS
330
AD80
102
}
330
1F
100
AcDbEntity
  8
AM_0
 48
0.5
100
AcDbLine
 10
3.188720703124018
 20
14.02339935302725
 30
0.0
 11
3.188720703124018
 21
19.05260086059526
 31
0.0
  0
LINE
  5
A7B8
102
{ACAD_REACTORS
330
AD80
102
}
330
1F
100
AcDbEntity
  8
AM_0
 48
0.5
100
AcDbLine
 10
2.919219970694013
 20
4.752605438232212
 30
0.0
 11
2.919219970694014
 21
14.60760116577128
 31
0.0
  0
LINE
  5
A7B9
102
{ACAD_REACTORS
330
AD80
102
}
330
1F
100
AcDbEntity
  8
AM_0
 48
0.5
100
AcDbLine
 10
3.019981384274028
 20
4.752605438232212
 30
0.0
 11
3.019981384274015
 21
14.02339935302725
 31
0.0
  0
LINE
  5
A7BA
102
{ACAD_REACTORS
330
AD80
102
}
330
1F
100
AcDbEntity
  8
AM_0
 48
0.5
100
AcDbLine
 10
3.008989092505043
 20
4.750000000000246
 30
0.0
 11
0.1658615664955629
 21
4.750000000000246
 31
0.0
  0
LINE
  5
A7BB
102
{ACAD_REACTORS
330
AD80
102
}
330
1F
100
AcDbEntity
  8
AM_0
 48
0.5
100
AcDbLine
 10
3.199999463864013
 20
0.0000000000002459
 30
0.0
 11
0.0000000000000118
 21
0.0000000000002463
 31
0.0
  0
LINE
  5
A7BC
102
{ACAD_REACTORS
330
AD80
102
}
330
1F
100
AcDbEntity
  8
AM_0
 48
0.5
100
AcDbLine
 10
0.0000000000000118
 20
0.0000000000002463
 30
0.0
 11
0.1658703195210602
 21
4.749941124463153
 31
0.0
  0
LINE
  5
A7BE
102
{ACAD_REACTORS
330
AD80
102
}
330
1F
100
AcDbEntity
  8
AM_0
 48
0.5
100
AcDbLine
 10
3.199999463864013
 20
0.0000000000002459
 30
0.0
 11
3.034138092505043
 21
4.749684880620764
 31
0.0
  0
LINE
  5
A7C0
102
{ACAD_REACTORS
330
AD80
102
}
330
1F
100
AcDbEntity
  8
AM_0
 48
0.5
100
AcDbLine
 10
2.663201904289095
 20
7.369480133056201
 30
0.0
 11
0.5042053222640984
 21
7.369480133056201
 31
0.0
  0
LINE
  5
A7C1
102
{ACAD_REACTORS
330
AD80
102
}
330
1F
100
AcDbEntity
  8
AM_0
 48
0.5
100
AcDbLine
 10
3.188720703124018
 20
14.02339935302725
 30
0.0
 11
3.019981384274015
 21
14.02339935302725
 31
0.0
  0
LINE
  5
A7C2
102
{ACAD_REACTORS
330
AD80
102
}
330
1F
100
AcDbEntity
  8
AM_0
 48
0.5
100
AcDbLine
 10
9.996591186519095
 20
21.80415344238226
 30
0.0
 11
0.5042053222641002
 21
21.80415344238226
 31
0.0
  0
LINE
  5
A7C3
102
{ACAD_REACTORS
330
AD80
102
}
330
1F
100
AcDbEntity
  8
AM_0
 48
0.5
100
AcDbLine
 10
9.445001220699095
 20
19.8653984069822
 30
0.0
 11
1.870477294920091
 21
19.8653984069822
 31
0.0
  0
LINE
  5
A7C4
102
{ACAD_REACTORS
330
AD80
102
}
330
1F
100
AcDbEntity
  8
AM_7
 48
0.5
100
AcDbLine
 10
18.00240478514909
 20
30.00000000000024
 30
0.0
 11
4.365007019039099
 21
30.00000000000025
 31
0.0
  0
LINE
  5
A7C7
102
{ACAD_REACTORS
330
AD80
102
}
330
1F
100
AcDbEntity
  8
AM_0
 48
0.5
100
AcDbLine
 10
2.919219970694014
 20
14.60760116577128
 30
0.0
 11
2.663201904289095
 21
14.60760116577128
 31
0.0
  0
LINE
  5
A7C9
102
{ACAD_REACTORS
330
AD80
102
}
330
1F
100
AcDbEntity
  8
AM_0
 48
0.5
100
AcDbLine
 10
0.5042053222640993
 20
14.60760879516626
 30
0.0
 11
0.2792205810550137
 21
14.60760879516626
 31
0.0
  0
ARC
  5
A7CC
102
{ACAD_REACTORS
330
AD80
102
}
330
1F
100
AcDbEntity
  8
AM_0
 48
0.5
100
AcDbCircle
 10
3.950721740714015
 20
19.05260086059526
 30
0.0
 40
0.7620000243187
100
AcDbArc
 50
90.0
 51
180.0000025044817
  0
LINE
  5
A7CD
102
{ACAD_REACTORS
330
AD80
102
}
330
1F
100
AcDbEntity
  8
AM_0
 48
0.5
100
AcDbLine
 10
4.469999999999103
 20
19.81459808349622
 30
0.0
 11
3.950721740714015
 21
19.81459808349622
 31
0.0
  0
LINE
  5
A7D1
102
{ACAD_REACTORS
330
AD80
102
}
330
1F
100
AcDbEntity
  8
AM_0
 48
0.5
100
AcDbLine
 10
9.445008850089095
 20
19.8653984069822
 30
0.0
 11
9.996591186519095
 21
21.80415344238226
 31
0.0
  0
LINE
  5
A7D5
102
{ACAD_REACTORS
330
AD80
102
}
330
1F
100
AcDbEntity
  8
AM_0
 48
0.5
100
AcDbLine
 10
22.14500579832909
 20
25.7875061035153
 30
0.0
 11
20.6210037231391
 21
26.75839996337927
 31
0.0
  0
LINE
  5
A7D6
102
{ACAD_REACTORS
330
AD80
102
}
330
1F
100
AcDbEntity
  8
PV0001_1
  6
Continuous
 48
0.5
100
AcDbLine
 10
19.0208068847591
 20
24.15286636352528
 30
0.0
 11
19.0208068847591
 21
24.33066558837927
 31
0.0
  0
LINE
  5
A7D9
102
{ACAD_REACTORS
330
AD80
102
}
330
1F
100
AcDbEntity
  8
AM_0
 48
0.5
100
AcDbLine
 10
20.6210037231391
 20
35.61339950561525
 30
0.0
 11
3.857003784169096
 21
35.61339950561525
 31
0.0
  0
LINE
  5
A7DA
102
{ACAD_REACTORS
330
AD80
102
}
330
1F
100
AcDbEntity
  8
AM_0
 48
0.5
100
AcDbLine
 10
22.14500579832909
 20
37.1373977661133
 30
0.0
 11
3.857003784169096
 21
37.1373977661133
 31
0.0
  0
LINE
  5
A7DC
102
{ACAD_REACTORS
330
AD80
102
}
330
1F
100
AcDbEntity
  8
AM_0
 48
0.5
100
AcDbLine
 10
3.857003784169096
 20
35.61339950561525
 30
0.0
 11
3.857003784169096
 21
43.48739814758324
 31
0.0
  0
LINE
  5
A7DF
102
{ACAD_REACTORS
330
AD80
102
}
330
1F
100
AcDbEntity
  8
AM_0
 48
0.5
100
AcDbLine
 10
3.857003784169096
 20
38.73759841918925
 30
0.0
 11
0.5042053222641023
 21
38.73759841918925
 31
0.0
  0
LINE
  5
A7E2
102
{ACAD_REACTORS
330
AD80
102
}
330
1F
100
AcDbEntity
  8
AM_0
 48
0.5
100
AcDbLine
 10
3.857003784169096
 20
41.96339797973624
 30
0.0
 11
0.5042053222641028
 21
41.96339797973624
 31
0.0
  0
LINE
  5
A7E3
102
{ACAD_REACTORS
330
AD80
102
}
330
1F
100
AcDbEntity
  8
AM_0
 48
0.5
100
AcDbLine
 10
3.857003784169096
 20
43.48739814758324
 30
0.0
 11
0.5042053222641029
 21
43.48739814758324
 31
0.0
  0
LINE
  5
A7E4
102
{ACAD_REACTORS
330
AD80
102
}
330
1F
100
AcDbEntity
  8
AM_0
 48
0.5
100
AcDbLine
 10
4.365007019039102
 20
43.48739814758324
 30
0.0
 11
0.5042053222641031
 21
43.48739814758324
 31
0.0
  0
LINE
  5
A7EB
102
{ACAD_REACTORS
330
AD80
102
}
330
1F
100
AcDbEntity
  8
AM_0
 48
0.5
100
AcDbLine
 10
22.14500579832909
 20
37.13739585876421
 30
0.0
 11
20.6210037231391
 21
35.61339569091822
 31
0.0
  0
LINE
  5
A7F1
330
1F
100
AcDbEntity
  8
AM_0
 48
0.5
100
AcDbLine
 10
149.999999999999
 20
-56.13200108697793
 30
0.0
 11
149.999999999999
 21
-81.13200299432694
 31
0.0
  0
LINE
  5
A7F4
330
1F
100
AcDbEntity
  8
AM_0
 48
0.5
100
AcDbLine
 10
149.999999999999
 20
44.50000000000019
 30
0.0
 11
149.999999999999
 21
19.5000000000032
 31
0.0
  0
DIMENSION
  5
A969
330
1F
100
AcDbEntity
  8
AM_5
100
AcDbDimension
  2
*D5
 10
168.9145714225142
 20
-56.13200108697793
 30
0.0
 11
166.2142367768449
 21
-68.63200204065242
 31
0.0
 70
    32
 71
     5
 42
25.000001907349
  3
AM_JIS$0
100
AcDbAlignedDimension
 13
149.999999999999
 23
-81.13200299432694
 33
0.0
 14
149.999999999999
 24
-56.13200108697793
 34
0.0
 50
89.99999999999998
100
AcDbRotatedDimension
1001
ACAD
1000
DSTYLE
1002
{
1070
   271
1070
     0
1002
}
  0
DIMENSION
  5
A976
330
1F
100
AcDbEntity
  8
AM_5
100
AcDbDimension
  2
*D6
 10
168.54108459959
 20
44.50000000000019
 30
0.0
 11
165.8407499539207
 21
32.00000000000172
 31
0.0
 70
    32
 71
     5
 42
24.999999999997
  3
AM_JIS$0
100
AcDbAlignedDimension
 13
149.999999999999
 23
19.5000000000032
 33
0.0
 14
149.999999999999
 24
44.50000000000019
 34
0.0
 50
89.99999999999998
100
AcDbRotatedDimension
1001
ACAD
1000
DSTYLE
1002
{
1070
   271
1070
     0
1002
}
  0
DIMENSION
  5
A9A8
330
1F
100
AcDbEntity
  8
AM_5
100
AcDbDimension
  2
*D7
 10
-4.250799380606134
 20
-42.62335949225986
 30
0.0
 11
-31.72352131228031
 21
-78.8136202526328
 31
0.0
 70
   163
 71
     5
 42
31.99999999999994
  3
AM_JIS$3
100
AcDbDiametricDimension
 15
-21.39916399831335
 25
-69.64064268169554
 35
0.0
 40
0.0
1001
ACAD
1000
DSTYLE
1002
{
1070
   271
1070
     0
1002
}
  0
ARC
  5
AA75
330
1F
100
AcDbEntity
  8
AM_0
100
AcDbCircle
 10
-12.82699279784994
 20
-56.13200108697782
 30
0.0
 40
15.8
100
AcDbArc
 50
296.8656173141815
 51
347.1415730651269
  0
LINE
  5
AA76
330
1F
100
AcDbEntity
  8
AM_0
 48
0.5
100
AcDbLine
 10
2.576789416120397
 20
-59.63967854669481
 30
0.0
 11
4.473007202150035
 21
-59.63967854669481
 31
0.0
  0
ARC
  5
AA81
330
1F
100
AcDbEntity
  8
AM_0
100
AcDbCircle
 10
-15.82699279784997
 20
-56.13200108697782
 30
0.0
 40
16.6
100
AcDbArc
 50
307.6505599259978
 51
347.6924221569472
  0
ARC
  5
AA85
330
1F
100
AcDbEntity
  8
AM_0
100
AcDbCircle
 10
-22.22699279784995
 20
-56.13200108697782
 30
0.0
 40
25.2
100
AcDbArc
 50
311.0220682150011
 51
351.9988168408361
  0
LINE
  5
AD73
330
1F
100
AcDbEntity
  8
AM_0
 48
0.5
100
AcDbLine
 10
23.2999999999991
 20
19.50000000000322
 30
0.0
 11
23.2999999999991
 21
50.50000000000024
 31
0.0
  0
LINE
  5
AD74
330
1F
100
AcDbEntity
  8
AM_0
 48
0.5
100
AcDbLine
 10
0.4999999999991099
 20
50.50000000000025
 30
0.0
 11
0.499999999999109
 21
43.50000000000025
 31
0.0
  0
LINE
  5
AD75
330
1F
100
AcDbEntity
  8
AM_0
100
AcDbLine
 10
0.4999999999991099
 20
50.50000000000025
 30
0.0
 11
23.2999999999991
 21
50.50000000000024
 31
0.0
  0
LINE
  5
AD76
330
1F
100
AcDbEntity
  8
AM_0
 48
0.5
100
AcDbLine
 10
22.14999999999911
 20
40.90000000000324
 30
0.0
 11
22.14999999999911
 21
19.50000000000321
 31
0.0
  0
LINE
  5
AD77
330
1F
100
AcDbEntity
  8
AM_0
 48
0.5
100
AcDbLine
 10
4.469999999999106
 20
43.50000000000025
 30
0.0
 11
4.469999999999105
 21
37.1373977661133
 31
0.0
  0
LINE
  5
AD79
330
1F
100
AcDbEntity
  8
AM_0
 48
0.5
100
AcDbLine
 10
18.9499999999991
 20
40.90000000000324
 30
0.0
 11
18.9499999999991
 21
37.1373977661133
 31
0.0
  0
ARC
  5
AD7A
330
1F
100
AcDbEntity
  8
AM_0
100
AcDbCircle
 10
20.5499999999991
 20
40.90000000000324
 30
0.0
 40
1.6
100
AcDbArc
 50
0.0
 51
180.0
  0
LINE
  5
AD7C
330
1F
100
AcDbEntity
  8
AM_0
100
AcDbLine
 10
0.4999999999991066
 20
43.50000000000025
 30
0.0
 11
4.469999999999106
 21
43.50000000000025
 31
0.0
  0
LINE
  5
AD7D
330
1F
100
AcDbEntity
  8
AM_7
 48
0.5
100
AcDbLine
 10
11.3499999999991
 20
33.27068362887969
 30
0.0
 11
11.3499999999991
 21
26.87981781885815
 31
0.0
  0
LINE
  5
AD7E
330
1F
100
AcDbEntity
  8
AM_7
100
AcDbLine
 10
8.350592420505806
 20
30.00000000000025
 30
0.0
 11
14.98857496399843
 21
30.00000000000024
 31
0.0
  0
LINE
  5
ADB1
330
1F
100
AcDbEntity
  8
AM_0
 48
0.5
100
AcDbLine
 10
4.469999999999103
 20
19.8653984069822
 30
0.0
 11
4.469999999999103
 21
19.50000000000321
 31
0.0
  0
LINE
  5
ADB2
330
1F
100
AcDbEntity
  8
AM_0
 48
0.5
100
AcDbLine
 10
18.9499999999991
 20
24.29764996371678
 30
0.0
 11
18.9499999999991
 21
19.50000000000321
 31
0.0
  0
DIMENSION
  5
AE3A
330
1F
100
AcDbEntity
  8
AM_5
100
AcDbDimension
  2
*D8
 10
0.0000000000000189
 20
63.56389274308043
 30
0.0
 11
11.64999999999956
 21
66.26422738874971
 31
0.0
 70
    32
 71
     5
 42
23.29999999999909
  3
AM_JIS$0
100
AcDbAlignedDimension
 13
23.2999999999991
 23
50.50000000000024
 33
0.0
 14
0.000000000000015
 24
0.0000000000002463
 34
0.0
 50
180.0
100
AcDbRotatedDimension
1001
ACAD
1000
DSTYLE
1002
{
1070
   271
1070
     0
1002
}
  0
LINE
  5
AED9
330
1F
100
AcDbEntity
  8
AM_0
100
AcDbLine
 10
-1.50000000000089
 20
23.50000000000024
 30
0.0
 11
-1.500000000000888
 21
43.50000000000025
 31
0.0
  0
LINE
  5
AEDA
330
1F
100
AcDbEntity
  8
AM_0
 48
0.5
100
AcDbLine
 10
0.9999999999991107
 20
43.50000000000025
 30
0.0
 11
-1.500000000000888
 21
43.50000000000025
 31
0.0
  0
LINE
  5
AEDB
330
1F
100
AcDbEntity
  8
AM_0
100
AcDbLine
 10
-2.500000000000891
 20
22.50000000000023
 30
0.0
 11
-1.50000000000089
 21
23.50000000000024
 31
0.0
  0
LINE
  5
AEDC
330
1F
100
AcDbEntity
  8
AM_0
 48
0.5
100
AcDbLine
 10
-2.500000000000891
 20
22.50000000000023
 30
0.0
 11
-5.686981201169942
 21
22.50000000000023
 31
0.0
  0
LINE
  5
AEF0
330
1F
100
AcDbEntity
  8
AM_5
100
AcDbLine
 10
0.0000000000000075
 20
0.0000000000001258
 30
0.0
 11
0.0000000000000061
 21
-56.1320010869779
 31
0.0
  0
LINE
  5
AEF1
330
1F
100
AcDbEntity
  8
AM_5
100
AcDbLine
 10
149.999999999999
 20
-56.13200108697793
 30
0.0
 11
149.999999999999
 21
19.5000000000032
 31
0.0
  0
DIMENSION
  5
AEFC
330
1F
100
AcDbEntity
  8
AM_5
100
AcDbDimension
  2
*D9
 10
0.0000000000000069
 20
-9.457317295344822
 30
0.0
 11
14.97411166858842
 21
-9.457317295344822
 31
0.0
 70
   160
 71
     5
 42
3.199999463864005
  3
AM_JIS$0
100
AcDbAlignedDimension
 13
3.199999463864013
 23
0.0000000000002459
 33
0.0
 14
0.0000000000000075
 24
0.0000000000001258
 34
0.0
 50
180.0
100
AcDbRotatedDimension
1001
ACAD
1000
DSTYLE
1002
{
1070
   271
1070
     1
1002
}
  0
DIMENSION
  5
B208
330
1F
100
AcDbEntity
  8
AM_5
100
AcDbDimension
  2
*D11
 10
35.2999999999991
 20
44.50000000000025
 30
0.0
 11
31.8999999999991
 21
47.50000000000025
 31
0.0
 70
    32
 71
     5
 42
5.999999999999992
  3
AM_JIS$0
100
AcDbAlignedDimension
 13
22.3571246291475
 23
50.50000000000024
 33
0.0
 14
23.2999999999991
 24
44.50000000000025
 34
0.0
 50
90.00000000000003
100
AcDbRotatedDimension
1001
ACAD
1000
DSTYLE
1002
{
1070
    43
1040
10.0
1070
    44
1040
1.0
1070
    78
1070
     9
1070
   140
1040
3.799999999999998
1070
   147
1040
1.5
1070
   176
1070
   256
1070
   177
1070
   256
1070
   179
1070
     1
1070
   284
1070
     8
1002
}
  0
ENDSEC
  0
SECTION
  2
OBJECTS
  0
DICTIONARY
  5
C
330
0
100
AcDbDictionary
281
     1
  3
ACAD_COLOR
350
AF96
  3
ACAD_GROUP
350
D
  3
ACAD_LAYOUT
350
1A
  3
ACAD_MATERIAL
350
AF95
  3
ACAD_MLINESTYLE
350
17
  3
ACAD_PLOTSETTINGS
350
19
  3
ACAD_PLOTSTYLENAME
350
E
  3
ACAD_TABLESTYLE
350
AF97
  3
ACDBHEADERROUNDTRIPXREC
350
B227
  3
ACDBVARIABLEDICTIONARY
350
30
  3
ACMDICTIONARY
350
4D
  3
AMG
350
3F
  3
AMGSNAPSETTINGS
350
73
  3
DWGPROPS
350
B226
  3
ENG_DATA
350
21C6
  3
FILENAME
350
21C9
  3
HOLD_DIC_DATA
350
21C4
  3
TABLE_DIC_DATA
350
1C0B
  3
ZWKSIZE
350
21CB
  0
DICTIONARY
  5
165
330
1F
100
AcDbDictionary
280
     1
281
     1
  3
ACAD_INDEX
360
AF41
  3
ACAD_LAYOUTSELFREF
360
AF73
  0
DICTIONARY
  5
AF71
330
1B
100
AcDbDictionary
280
     1
281
     1
  3
ACAD_LAYOUTSELFREF
360
AF72
  0
DICTIONARY
  5
AF96
102
{ACAD_REACTORS
330
C
102
}
330
C
100
AcDbDictionary
281
     1
  0
DICTIONARY
  5
D
102
{ACAD_REACTORS
330
C
102
}
330
C
100
AcDbDictionary
281
     1
  3
*A1
350
7C0D
  3
*A2
350
7C0E
  3
*A3
350
7FE3
  3
*A4
350
8E0E
  3
*A5
350
AD80
  0
DICTIONARY
  5
1A
102
{ACAD_REACTORS
330
C
102
}
330
C
100
AcDbDictionary
281
     1
  3
Model
350
AF99
  3
レイアウト1
350
AF9A
  0
DICTIONARY
  5
AF95
102
{ACAD_REACTORS
330
C
102
}
330
C
100
AcDbDictionary
281
     1
  0
DICTIONARY
  5
17
102
{ACAD_REACTORS
330
C
102
}
330
C
100
AcDbDictionary
281
     1
  3
STANDARD
350
18
  0
DICTIONARY
  5
19
102
{ACAD_REACTORS
330
C
102
}
330
C
100
AcDbDictionary
281
     1
  0
ACDBDICTIONARYWDFLT
  5
E
102
{ACAD_REACTORS
330
C
102
}
330
C
100
AcDbDictionary
281
     1
  3
Normal
350
F
100
AcDbDictionaryWithDefault
340
F
  0
DICTIONARY
  5
AF97
102
{ACAD_REACTORS
330
C
102
}
330
C
100
AcDbDictionary
281
     1
  3
Standard
350
AF98
  0
DICTIONARY
  5
B227
102
{ACAD_REACTORS
330
C
102
}
330
C
100
AcDbDictionary
281
     1
  0
DICTIONARY
  5
30
102
{ACAD_REACTORS
330
C
102
}
330
C
100
AcDbDictionary
281
     1
  3
CTABLESTYLE
350
B03A
  3
DIMASSOC
350
B03B
  3
INDEXCTL
350
31
  3
PROJECTNAME
350
B03C
  3
SORTENTS
350
42BE
  0
DICTIONARY
  5
4D
102
{ACAD_REACTORS
330
C
102
}
330
C
100
AcDbDictionary
281
     1
  3
ACMSTDDICTIONARY
350
17E
  3
AMDTSECTSYM_ARROWCOLOR
350
B0B8
  0
DICTIONARY
  5
3F
102
{ACAD_REACTORS
330
C
102
}
330
C
100
AcDbDictionary
281
     1
  0
DICTIONARY
  5
73
102
{ACAD_REACTORS
330
C
102
}
330
C
100
AcDbDictionary
281
     1
  0
XRECORD
  5
B226
102
{ACAD_REACTORS
330
C
102
}
330
C
100
AcDbXrecord
280
     1
  1
DWGPROPS COOKIE
  2

  3

  4

  6

  7

  8
津田
  9

300
AmdtFileType=82
301
=
302
=
303
=
304
=
305
=
306
=
307
=
308
=
309
=
 40
0.8692859143518518
 41
2451943.610431666
 42
2455603.33879448
  1

 90
        1
  0
DICTIONARY
  5
21C6
102
{ACAD_REACTORS
330
C
102
}
330
C
100
AcDbDictionary
281
     1
  3
ENG_ID
350
21C7
  0
DICTIONARY
  5
21C9
102
{ACAD_REACTORS
330
C
102
}
330
C
100
AcDbDictionary
281
     1
  3
FILENAME
350
21CA
  0
DICTIONARY
  5
21C4
102
{ACAD_REACTORS
330
C
102
}
330
C
100
AcDbDictionary
281
     1
  3
HOLD_DATA
350
21C5
  0
DICTIONARY
  5
1C0B
102
{ACAD_REACTORS
330
C
102
}
330
C
100
AcDbDictionary
281
     1
  3
INPUT_DATA
350
1C0D
  3
TABLE_DATA
350
1C0C
  0
DICTIONARY
  5
21CB
102
{ACAD_REACTORS
330
C
102
}
330
C
100
AcDbDictionary
281
     1
  3
ZWKSIZE
350
21CC
  0
DICTIONARY
  5
AF41
102
{ACAD_REACTORS
330
165
102
}
330
165
100
AcDbDictionary
281
     1
  3
*A1
350
AF42
  0
XRECORD
  5
AF73
102
{ACAD_REACTORS
330
165
102
}
330
165
100
AcDbXrecord
280
     1
340
1F
  0
XRECORD
  5
AF72
102
{ACAD_REACTORS
330
AF71
102
}
330
AF71
100
AcDbXrecord
280
     1
340
1B
  0
GROUP
  5
7C0D
102
{ACAD_REACTORS
330
D
102
}
330
D
100
AcDbGroup
300

 70
     1
 71
     1
  0
GROUP
  5
7C0E
102
{ACAD_REACTORS
330
D
102
}
330
D
100
AcDbGroup
300

 70
     1
 71
     1
  0
GROUP
  5
7FE3
102
{ACAD_REACTORS
330
D
102
}
330
D
100
AcDbGroup
300

 70
     1
 71
     1
  0
GROUP
  5
8E0E
102
{ACAD_REACTORS
330
D
102
}
330
D
100
AcDbGroup
300

 70
     1
 71
     1
  0
GROUP
  5
AD80
102
{ACAD_REACTORS
330
D
102
}
330
D
100
AcDbGroup
300

 70
     1
 71
     1
340
A7BB
340
A7C0
340
A7BA
340
A7C7
340
A7C2
340
A733
340
A7E2
340
A7DF
340
A7E3
340
A7E4
340
A734
340
A7A5
340
A7AE
340
A7A8
340
A7A9
340
A7A0
340
A7A1
340
A7A2
340
A7D9
340
A7DA
340
A7EB
340
A7DC
340
A7B6
340
A7B4
340
A7B5
340
A7C4
340
A7AF
340
A7B0
340
A7D5
340
A7D6
340
A7C3
340
A7D1
340
A7CD
340
A7CC
340
A7B9
340
A7C1
340
A7BE
340
A7B8
340
A76B
340
A7AA
340
A7B3
340
A7C9
340
A735
340
A7BC
  0
LAYOUT
  5
AF99
102
{ACAD_XDICTIONARY
360
B228
102
}
102
{ACAD_REACTORS
330
1A
102
}
330
1A
100
AcDbPlotSettings
  1

  2
SII LP-2150 (D-SCAN C2)
  4

  6

 40
0.0
 41
0.0
 42
0.0
 43
0.0
 44
0.0
 45
0.0
 46
0.0
 47
0.0
 48
0.0
 49
0.0
140
0.0
141
0.0
142
1.0
143
1.0
 70
  1712
 72
     0
 73
     0
 74
     0
  7
sei_cad.ctb
 75
     0
147
1.0
148
0.0
149
0.0
100
AcDbLayout
  1
Model
 70
     1
 71
     0
 10
0.0
 20
0.0
 11
12.0
 21
9.0
 12
0.0
 22
0.0
 32
0.0
 14
0.0
 24
0.0
 34
0.0
 15
0.0
 25
0.0
 35
0.0
146
0.0
 13
0.0
 23
0.0
 33
0.0
 16
1.0
 26
0.0
 36
0.0
 17
0.0
 27
1.0
 37
0.0
 76
     0
330
1F
  0
LAYOUT
  5
AF9A
102
{ACAD_XDICTIONARY
360
B22A
102
}
102
{ACAD_REACTORS
330
1A
102
}
330
1A
100
AcDbPlotSettings
  1

  2
SII LP-2150 (D-SCAN C2)
  4

  6

 40
0.0
 41
0.0
 42
0.0
 43
0.0
 44
0.0
 45
0.0
 46
0.0
 47
0.0
 48
0.0
 49
0.0
140
0.0
141
0.0
142
1.0
143
1.0
 70
   688
 72
     0
 73
     0
 74
     5
  7
sei_cad.ctb
 75
    16
147
1.0
148
0.0
149
0.0
100
AcDbLayout
  1
レイアウト1
 70
     1
 71
     1
 10
0.0
 20
0.0
 11
420.0
 21
297.0
 12
0.0
 22
0.0
 32
0.0
 14
1.000000000000000E+20
 24
1.000000000000000E+20
 34
1.000000000000000E+20
 15
-1.000000000000000E+20
 25
-1.000000000000000E+20
 35
-1.000000000000000E+20
146
0.0
 13
0.0
 23
0.0
 33
0.0
 16
1.0
 26
0.0
 36
0.0
 17
0.0
 27
1.0
 37
0.0
 76
     0
330
1B
  0
MLINESTYLE
  5
18
102
{ACAD_REACTORS
330
17
102
}
330
17
100
AcDbMlineStyle
  2
STANDARD
 70
     0
  3

 62
   256
 51
90.0
 52
90.0
 71
     2
 49
0.5
 62
   256
  6
BYLAYER
 49
-0.5
 62
   256
  6
BYLAYER
  0
ACDBPLACEHOLDER
  5
F
102
{ACAD_REACTORS
330
E
102
}
330
E
  0
TABLESTYLE
  5
AF98
102
{ACAD_REACTORS
330
AF97
102
}
330
AF97
100
AcDbTableStyle
  3
Standard
 70
     0
 71
     0
 40
1.5
 41
1.5
280
     0
281
     0
  7
STANDARD
140
4.5
170
     2
 62
     0
 63
     7
283
     0
274
    -2
284
     1
 64
     0
275
    -2
285
     1
 65
     0
276
    -2
286
     1
 66
     0
277
    -2
287
     1
 67
     0
278
    -2
288
     1
 68
     0
279
    -2
289
     1
 69
     0
  7
STANDARD
140
6.0
170
     5
 62
     0
 63
     7
283
     0
274
    -2
284
     1
 64
     0
275
    -2
285
     1
 65
     0
276
    -2
286
     1
 66
     0
277
    -2
287
     1
 67
     0
278
    -2
288
     1
 68
     0
279
    -2
289
     1
 69
     0
  7
STANDARD
140
4.5
170
     5
 62
     0
 63
     7
283
     0
274
    -2
284
     1
 64
     0
275
    -2
285
     1
 65
     0
276
    -2
286
     1
 66
     0
277
    -2
287
     1
 67
     0
278
    -2
288
     1
 68
     0
279
    -2
289
     1
 69
     0
  0
DICTIONARYVAR
  5
B03A
102
{ACAD_REACTORS
330
30
102
}
330
30
100
DictionaryVariables
280
     0
  1
STANDARD
  0
DICTIONARYVAR
  5
B03B
102
{ACAD_REACTORS
330
30
102
}
330
30
100
DictionaryVariables
280
     0
  1
1
  0
DICTIONARYVAR
  5
31
102
{ACAD_REACTORS
330
30
102
}
330
30
100
DictionaryVariables
280
     0
  1
1
  0
DICTIONARYVAR
  5
B03C
102
{ACAD_REACTORS
330
30
102
}
330
30
100
DictionaryVariables
280
     0
  1

  0
DICTIONARYVAR
  5
42BE
102
{ACAD_REACTORS
330
30
102
}
330
30
100
DictionaryVariables
280
     0
  1
96
  0
DICTIONARY
  5
17E
102
{ACAD_REACTORS
330
4D
102
}
330
4D
100
AcDbDictionary
281
     1
  0
XRECORD
  5
B0B8
102
{ACAD_REACTORS
330
4D
102
}
330
4D
100
AcDbXrecord
280
     1
 90
-1023410169
  0
XRECORD
  5
21C7
102
{ACAD_REACTORS
330
21C6
102
}
330
21C6
100
AcDbXrecord
280
     1
  1
HOLD
  0
XRECORD
  5
21CA
102
{ACAD_REACTORS
330
21C9
102
}
330
21C9
100
AcDbXrecord
280
     1
  1
21000065__00___
  0
XRECORD
  5
21C5
102
{ACAD_REACTORS
330
21C4
102
}
330
21C4
100
AcDbXrecord
280
     1
  1
クランクシャフト加工用 ^M^J１コーナー型 ^M^J15.875 ^M^J20 ^M^Jクランプオン ^M^J９０° ^M^J1 ^M^J鋼 ^M^J ^M^J ^M^J ^M^J ^M^J
  0
XRECORD
  5
1C0D
102
{ACAD_REACTORS
330
1C0B
102
}
330
1C0B
100
AcDbXrecord
280
     1
  1
1,,,,,,,,,^M^J2,,,,,,,,,^M^J3,,,,,,,,,^M^J4,,,,,,,,,^M^J5,,,,,,,,,^M^J6,,,,,,,,,^M^J7,,,,,,,,,^M^J8,,,,,,,,,^M^J9,,,,,,,,,^M^J10,,,,,,,,,
  0
XRECORD
  5
1C0C
102
{ACAD_REACTORS
330
1C0B
102
}
330
1C0B
100
AcDbXrecord
280
     1
  1
10,10
  0
XRECORD
  5
21CC
102
{ACAD_REACTORS
330
21CB
102
}
330
21CB
100
AcDbXrecord
280
     1
  1
3
  0
LAYER_INDEX
  5
AF42
102
{ACAD_REACTORS
330
AF41
102
}
330
AF41
100
AcDbIndex
 40
2455603.33879448
100
AcDbLayerIndex
  8
0
360
AF43
 90
        0
  8
AM_5
360
AF44
 90
        8
  8
DEFPOINTS
360
AF45
 90
        0
  8
AM_0
360
AF46
 90
      108
  8
AM_6
360
AF47
 90
        1
  8
AM_7
360
AF48
 90
       11
  8
PV0001_1
360
AF49
 90
        6
  8
AM_11
360
AF4A
 90
        1
  0
DICTIONARY
  5
B228
330
AF99
100
AcDbDictionary
280
     1
281
     1
  3
ACAD_XREC_ROUNDTRIP
360
B229
  0
DICTIONARY
  5
B22A
330
AF9A
100
AcDbDictionary
280
     1
281
     1
  3
ACAD_XREC_ROUNDTRIP
360
B22B
  0
IDBUFFER
  5
AF43
330
0
100
AcDbIdBuffer
  0
IDBUFFER
  5
AF44
330
0
100
AcDbIdBuffer
330
B208
330
A969
330
A976
330
A9A8
330
AE3A
330
AEF0
330
AEF1
330
AEFC
  0
IDBUFFER
  5
AF45
330
0
100
AcDbIdBuffer
  0
IDBUFFER
  5
AF46
330
0
100
AcDbIdBuffer
330
A6E6
330
A6E7
330
A6E8
330
A6E9
330
A6F2
330
A6F5
330
A6F8
330
A6FA
330
A6FB
330
A6FC
330
A6FD
330
A6FE
330
A6FF
330
A700
330
A701
330
A702
330
A703
330
A706
330
A709
330
A70A
330
A70B
330
A70C
330
A70D
330
A70E
330
A70F
330
A711
330
A712
330
A713
330
A714
330
A715
330
A716
330
A717
330
A719
330
A71A
330
A71B
330
A71C
330
A71D
330
A71E
330
A71F
330
A720
330
A722
330
A725
330
A726
330
A727
330
A72D
330
A72E
330
A72F
330
A730
330
A735
330
A739
330
A76B
330
A7A0
330
A7A1
330
A7A2
330
A7A5
330
A7A8
330
A7A9
330
A7AA
330
A7AF
330
A7B0
330
A7B3
330
A7B4
330
A7B5
330
A7B6
330
A7B8
330
A7B9
330
A7BA
330
A7BB
330
A7BC
330
A7BE
330
A7C0
330
A7C1
330
A7C2
330
A7C3
330
A7C7
330
A7C9
330
A7CC
330
A7CD
330
A7D1
330
A7D5
330
A7D9
330
A7DA
330
A7DC
330
A7DF
330
A7E2
330
A7E3
330
A7E4
330
A7EB
330
A7F1
330
A7F4
330
AA75
330
AA76
330
AA81
330
AA85
330
AD73
330
AD74
330
AD75
330
AD76
330
AD77
330
AD79
330
AD7A
330
AD7C
330
ADB1
330
ADB2
330
AED9
330
AEDA
330
AEDB
330
AEDC
  0
IDBUFFER
  5
AF47
330
0
100
AcDbIdBuffer
330
83BD
  0
IDBUFFER
  5
AF48
330
0
100
AcDbIdBuffer
330
A6F1
330
A6F3
330
A6F6
330
A6F7
330
A733
330
A734
330
A738
330
A7AE
330
A7C4
330
AD7D
330
AD7E
  0
IDBUFFER
  5
AF49
330
0
100
AcDbIdBuffer
330
A6EA
330
A718
330
A72A
330
A76C
330
A79F
330
A7D6
  0
IDBUFFER
  5
AF4A
330
0
100
AcDbIdBuffer
330
A6ED
  0
XRECORD
  5
B229
102
{ACAD_REACTORS
330
B228
102
}
330
B228
100
AcDbXrecord
280
     1
102
SHADEPLOT
 70
     0
102
SHADEPLOTRESLEVEL
 70
     2
102
SHADEPLOTCUSTOMDPI
 70
   300
  0
XRECORD
  5
B22B
102
{ACAD_REACTORS
330
B22A
102
}
330
B22A
100
AcDbXrecord
280
     1
102
SHADEPLOT
 70
     0
102
SHADEPLOTRESLEVEL
 70
     2
102
SHADEPLOTCUSTOMDPI
 70
   300
  0
ENDSEC
  0
EOF
