  0
SECTION
  2
HEADER
  9
$ACADVER
  1
AC1015
  9
$ACADMAINTVER
 70
    20
  9
$DWGCODEPAGE
  3
ANSI_932
  9
$INSBASE
 10
0.0
 20
0.0
 30
0.0
  9
$EXTMIN
 10
-87.37823049359224
 20
-90.23330859775809
 30
-0.0015258207003583
  9
$EXTMAX
 10
207.4871904609461
 20
34.36126212192818
 30
0.0000000349246037
  9
$LIMMIN
 10
-239.6669974519626
 20
-82.63926237343616
  9
$LIMMAX
 10
121.7713310387459
 20
116.2749834817527
  9
$ORTHOMODE
 70
     0
  9
$REGENMODE
 70
     1
  9
$FILLMODE
 70
     1
  9
$QTEXTMODE
 70
     0
  9
$MIRRTEXT
 70
     1
  9
$LTSCALE
 40
0.5
  9
$ATTMODE
 70
     1
  9
$TEXTSIZE
 40
2.5
  9
$TRACEWID
 40
1.0
  9
$TEXTSTYLE
  7
STANDARD
  9
$CLAYER
  8
AM_0
  9
$CELTYPE
  6
BYLAYER
  9
$CECOLOR
 62
   256
  9
$CELTSCALE
 40
1.0
  9
$DISPSILH
 70
     0
  9
$DIMSCALE
 40
1.0
  9
$DIMASZ
 40
2.5
  9
$DIMEXO
 40
0.0
  9
$DIMDLI
 40
10.0
  9
$DIMRND
 40
0.0
  9
$DIMDLE
 40
0.0
  9
$DIMEXE
 40
1.0
  9
$DIMTP
 40
0.1
  9
$DIMTM
 40
0.1000000001
  9
$DIMTXT
 40
3.799999999999998
  9
$DIMCEN
 40
0.0
  9
$DIMTSZ
 40
0.0
  9
$DIMTOL
 70
     0
  9
$DIMLIM
 70
     0
  9
$DIMTIH
 70
     0
  9
$DIMTOH
 70
     0
  9
$DIMSE1
 70
     0
  9
$DIMSE2
 70
     0
  9
$DIMTAD
 70
     3
  9
$DIMZIN
 70
     9
  9
$DIMBLK
  1
OPEN30
  9
$DIMASO
 70
     1
  9
$DIMSHO
 70
     1
  9
$DIMPOST
  1

  9
$DIMAPOST
  1
"
  9
$DIMALT
 70
     0
  9
$DIMALTD
 70
     2
  9
$DIMALTF
 40
0.0393701
  9
$DIMLFAC
 40
1.0
  9
$DIMTOFL
 70
     1
  9
$DIMTVP
 40
0.0
  9
$DIMTIX
 70
     0
  9
$DIMSOXD
 70
     0
  9
$DIMSAH
 70
     0
  9
$DIMBLK1
  1

  9
$DIMBLK2
  1

  9
$DIMSTYLE
  2
AM_JIS
  9
$DIMCLRD
 70
   256
  9
$DIMCLRE
 70
   256
  9
$DIMCLRT
 70
     2
  9
$DIMTFAC
 40
0.71
  9
$DIMGAP
 40
1.5
  9
$DIMJUST
 70
     0
  9
$DIMSD1
 70
     0
  9
$DIMSD2
 70
     0
  9
$DIMTOLJ
 70
     0
  9
$DIMTZIN
 70
     8
  9
$DIMALTZ
 70
     0
  9
$DIMALTTZ
 70
     0
  9
$DIMUPT
 70
     0
  9
$DIMDEC
 70
     2
  9
$DIMTDEC
 70
     2
  9
$DIMALTU
 70
     2
  9
$DIMALTTD
 70
     2
  9
$DIMTXSTY
  7
STANDARD
  9
$DIMAUNIT
 70
     1
  9
$DIMADEC
 70
     1
  9
$DIMALTRND
 40
0.0
  9
$DIMAZIN
 70
     2
  9
$DIMDSEP
 70
    46
  9
$DIMATFIT
 70
     3
  9
$DIMFRAC
 70
     0
  9
$DIMLDRBLK
  1
OPEN30
  9
$DIMLUNIT
 70
     2
  9
$DIMLWD
 70
    -1
  9
$DIMLWE
 70
    -1
  9
$DIMTMOVE
 70
     0
  9
$LUNITS
 70
     2
  9
$LUPREC
 70
     2
  9
$SKETCHINC
 40
1.0
  9
$FILLETRAD
 40
3.0
  9
$AUNITS
 70
     1
  9
$AUPREC
 70
     5
  9
$MENU
  1
.
  9
$ELEVATION
 40
0.0
  9
$PELEVATION
 40
0.0
  9
$THICKNESS
 40
0.0
  9
$LIMCHECK
 70
     0
  9
$CHAMFERA
 40
4.0
  9
$CHAMFERB
 40
4.0
  9
$CHAMFERC
 40
20.0
  9
$CHAMFERD
 40
0.0
  9
$SKPOLY
 70
     0
  9
$TDCREATE
 40
2451943.610431666
  9
$TDUCREATE
 40
2451943.235431667
  9
$TDUPDATE
 40
2455603.395723738
  9
$TDUUPDATE
 40
2455603.020723739
  9
$TDINDWG
 40
1.4892600116
  9
$TDUSRTIMER
 40
1.4892598380
  9
$USRTIMER
 70
     1
  9
$ANGBASE
 50
0.0
  9
$ANGDIR
 70
     0
  9
$PDMODE
 70
     0
  9
$PDSIZE
 40
0.0
  9
$PLINEWID
 40
0.0
  9
$SPLFRAME
 70
     0
  9
$SPLINETYPE
 70
     6
  9
$SPLINESEGS
 70
     8
  9
$HANDSEED
  5
B5D7
  9
$SURFTAB1
 70
     6
  9
$SURFTAB2
 70
     6
  9
$SURFTYPE
 70
     6
  9
$SURFU
 70
     6
  9
$SURFV
 70
     6
  9
$UCSBASE
  2

  9
$UCSNAME
  2

  9
$UCSORG
 10
0.0
 20
0.0
 30
0.0
  9
$UCSXDIR
 10
1.0
 20
0.0
 30
0.0
  9
$UCSYDIR
 10
0.0
 20
1.0
 30
0.0
  9
$UCSORTHOREF
  2

  9
$UCSORTHOVIEW
 70
     0
  9
$UCSORGTOP
 10
0.0
 20
0.0
 30
0.0
  9
$UCSORGBOTTOM
 10
0.0
 20
0.0
 30
0.0
  9
$UCSORGLEFT
 10
0.0
 20
0.0
 30
0.0
  9
$UCSORGRIGHT
 10
0.0
 20
0.0
 30
0.0
  9
$UCSORGFRONT
 10
0.0
 20
0.0
 30
0.0
  9
$UCSORGBACK
 10
0.0
 20
0.0
 30
0.0
  9
$PUCSBASE
  2

  9
$PUCSNAME
  2

  9
$PUCSORG
 10
0.0
 20
0.0
 30
0.0
  9
$PUCSXDIR
 10
1.0
 20
0.0
 30
0.0
  9
$PUCSYDIR
 10
0.0
 20
1.0
 30
0.0
  9
$PUCSORTHOREF
  2

  9
$PUCSORTHOVIEW
 70
     0
  9
$PUCSORGTOP
 10
0.0
 20
0.0
 30
0.0
  9
$PUCSORGBOTTOM
 10
0.0
 20
0.0
 30
0.0
  9
$PUCSORGLEFT
 10
0.0
 20
0.0
 30
0.0
  9
$PUCSORGRIGHT
 10
0.0
 20
0.0
 30
0.0
  9
$PUCSORGFRONT
 10
0.0
 20
0.0
 30
0.0
  9
$PUCSORGBACK
 10
0.0
 20
0.0
 30
0.0
  9
$USERI1
 70
     0
  9
$USERI2
 70
     0
  9
$USERI3
 70
     0
  9
$USERI4
 70
     0
  9
$USERI5
 70
     0
  9
$USERR1
 40
0.0
  9
$USERR2
 40
0.0
  9
$USERR3
 40
0.0
  9
$USERR4
 40
0.0
  9
$USERR5
 40
0.0
  9
$WORLDVIEW
 70
     1
  9
$SHADEDGE
 70
     3
  9
$SHADEDIF
 70
    70
  9
$TILEMODE
 70
     1
  9
$MAXACTVP
 70
    64
  9
$PINSBASE
 10
0.0
 20
0.0
 30
0.0
  9
$PLIMCHECK
 70
     0
  9
$PEXTMIN
 10
1.000000000000000E+20
 20
1.000000000000000E+20
 30
1.000000000000000E+20
  9
$PEXTMAX
 10
-1.000000000000000E+20
 20
-1.000000000000000E+20
 30
-1.000000000000000E+20
  9
$PLIMMIN
 10
0.0
 20
0.0
  9
$PLIMMAX
 10
420.0
 20
297.0
  9
$UNITMODE
 70
     0
  9
$VISRETAIN
 70
     1
  9
$PLINEGEN
 70
     0
  9
$PSLTSCALE
 70
     1
  9
$TREEDEPTH
 70
  3020
  9
$CMLSTYLE
  2
STANDARD
  9
$CMLJUST
 70
     0
  9
$CMLSCALE
 40
20.0
  9
$PROXYGRAPHICS
 70
     1
  9
$MEASUREMENT
 70
     1
  9
$CELWEIGHT
370
    -1
  9
$ENDCAPS
280
     0
  9
$JOINSTYLE
280
     0
  9
$LWDISPLAY
290
     0
  9
$INSUNITS
 70
     4
  9
$HYPERLINKBASE
  1

  9
$STYLESHEET
  1
sei_cad.ctb
  9
$XEDIT
290
     1
  9
$CEPSNTYPE
380
     0
  9
$PSTYLEMODE
290
     1
  9
$FINGERPRINTGUID
  2
{C77AB3BE-9CA2-11D3-BAF3-006094EB760E}
  9
$VERSIONGUID
  2
{8027C3D7-6F40-4F96-8C28-8A51BBE82CB4}
  9
$EXTNAMES
290
     1
  9
$PSVPSCALE
 40
0.0
  9
$OLESTARTUP
290
     0
  0
ENDSEC
  0
SECTION
  2
CLASSES
  0
CLASS
  1
ACDBDICTIONARYWDFLT
  2
AcDbDictionaryWithDefault
  3
ObjectDBX Classes
 90
        0
280
     0
281
     0
  0
CLASS
  1
ACDBPLACEHOLDER
  2
AcDbPlaceHolder
  3
ObjectDBX Classes
 90
        0
280
     0
281
     0
  0
CLASS
  1
LAYOUT
  2
AcDbLayout
  3
ObjectDBX Classes
 90
        0
280
     0
281
     0
  0
CLASS
  1
ACME_DOCUMENT
  2
AcMeDbDoc
  3
AcMeServices
 90
        0
280
     0
281
     0
  0
CLASS
  1
ACMESCOPE
  2
AcMeScope
  3
AcMeServices
 90
        0
280
     0
281
     0
  0
CLASS
  1
ACMECOMMANDHISTORY
  2
AcMeCommandHistory
  3
AcMeServices
 90
        0
280
     0
281
     0
  0
CLASS
  1
DICTIONARYVAR
  2
AcDbDictionaryVar
  3
ObjectDBX Classes
 90
        0
280
     0
281
     0
  0
CLASS
  1
ACIMSYSVARMAN
  2
AcImSysVarManager
  3
AcMeServices
 90
        0
280
     0
281
     0
  0
CLASS
  1
ACIMREALSYSVAR
  2
AcImRealSysVar
  3
AcMeServices
 90
        0
280
     0
281
     0
  0
CLASS
  1
ACIMINTSYSVAR
  2
AcImIntSysVar
  3
AcMeServices
 90
        0
280
     0
281
     0
  0
CLASS
  1
ACMEDRAWINGMAN
  2
AcMeDrawingMan
  3
AcMeServices
 90
        0
280
     0
281
     0
  0
CLASS
  1
ACMEVIEW
  2
AcMeView
  3
AcMeServices
 90
        0
280
     0
281
     0
  0
CLASS
  1
ACDBENTITYCACHE
  2
AcMeEntityCache
  3
AcMeServices
 90
        0
280
     0
281
     0
  0
CLASS
  1
GSMANAGER
  2
AcMeGSManager
  3
AcMeServices
 90
        0
280
     0
281
     0
  0
CLASS
  1
AMDTINTERNALREACTOR
  2
AmdtInternalReactor
  3
AcMeServices
 90
        0
280
     0
281
     0
  0
CLASS
  1
ACMESTATEMGR
  2
AcMeStateMgr
  3
AcMeServices
 90
        0
280
     0
281
     0
  0
CLASS
  1
ACME_DATABASE
  2
AcMeDbDatabase
  3
AcMeServices
 90
        0
280
     0
281
     0
  0
CLASS
  1
ACRFINSADJUSTERMGR
  2
AcRfInsAdjusterMgr
  3
AcMeServices
 90
        0
280
     0
281
     0
  0
CLASS
  1
AMGSETTINGSOBJ
  2
AmgSettingsObj
  3
"AcadM|Product Description: AutoCAD Mechanical 2000|Company: Autodesk"
 90
        0
280
     0
281
     0
  0
CLASS
  1
AMGOBJPROPCFG
  2
AmgObjPropCfg
  3
"AmgLay|Product Description: AutoCAD Mechanical 2000|Company: Autodesk"
 90
        1
280
     0
281
     0
  0
CLASS
  1
ACMDATADICTIONARY
  2
AcmDataDictionary
  3
"AcmSymBB|Product Description: AutoCAD Mechanical 2004 DX|Company: Autodesk"
 90
        0
280
     0
281
     0
  0
CLASS
  1
ACMDATAENTRYBLOCK
  2
AcmDataEntryBlock
  3
"AcmSymBB|Product Description: AutoCAD Mechanical 2004 DX|Company: Autodesk"
 90
    32768
280
     0
281
     0
  0
CLASS
  1
ACIMSTRSYSVAR
  2
AcImStrSysVar
  3
AcMeServices
 90
        0
280
     0
281
     0
  0
CLASS
  1
ACAMGFILTERDAT
  2
AcAmgFilterDat
  3
"AcadM|Product Description: AutoCAD Mechanical 2000|Company: Autodesk"
 90
    32768
280
     0
281
     0
  0
CLASS
  1
LAYER_INDEX
  2
AcDbLayerIndex
  3
ObjectDBX Classes
 90
        0
280
     0
281
     0
  0
CLASS
  1
IDBUFFER
  2
AcDbIdBuffer
  3
ObjectDBX Classes
 90
        0
280
     0
281
     0
  0
CLASS
  1
ACMSTANDARDJIS
  2
AcmStandardJIS
  3
"Amdt_StdImp|Product Description: AutoCAD Mechanical 2004 DX|Company: Autodesk"
 90
    32768
280
     0
281
     0
  0
CLASS
  1
ACMSURFSTANDARDJIS
  2
AcmSurfTextStdJIS
  3
"Amdt_StdImp|Product Description: AutoCAD Mechanical 2004 DX|Company: Autodesk"
 90
    32768
280
     0
281
     0
  0
CLASS
  1
ACMFCFSTANDARDJIS
  2
AcmFCFStdJIS
  3
"Amdt_StdImp|Product Description: AutoCAD Mechanical 2004 DX|Company: Autodesk"
 90
    32768
280
     0
281
     0
  0
CLASS
  1
ACMWELDSTANDARDJIS
  2
AcmWeldingStdJIS
  3
"Amdt_StdImp|Product Description: AutoCAD Mechanical 2004 DX|Company: Autodesk"
 90
    32768
280
     0
281
     0
  0
CLASS
  1
ACMIDSTANDARDJIS
  2
AcmIdStdJIS
  3
"Amdt_StdImp|Product Description: AutoCAD Mechanical 2004 DX|Company: Autodesk"
 90
    32768
280
     0
281
     0
  0
CLASS
  1
ACMDATUMSTANDARDJIS
  2
AcmDatumStdJIS
  3
"Amdt_StdImp|Product Description: AutoCAD Mechanical 2004 DX|Company: Autodesk"
 90
    32768
280
     0
281
     0
  0
CLASS
  1
ACMBOMSTANDARDJIS
  2
AcmBOMStdJIS
  3
"Amdt_StdImp|Product Description: AutoCAD Mechanical 2004 DX|Company: Autodesk"
 90
    32768
280
     0
281
     0
  0
CLASS
  1
AMDTNOTE
  2
AmdtNote
  3
"AcmSymBB|Product Description: AutoCAD Mechanical 2004 DX|Company: Autodesk"
 90
    33791
280
     0
281
     1
  0
CLASS
  1
ACMDATAENTRYPART
  2
AcmDataEntryPart
  3
"AcmSymBB|Product Description: AutoCAD Mechanical 2004 DX|Company: Autodesk"
 90
    32768
280
     0
281
     0
  0
CLASS
  1
ACMPARTREF
  2
AcmPartRef
  3
"AcmSymBB|Product Description: AutoCAD Mechanical 2004 DX|Company: Autodesk"
 90
    33791
280
     0
281
     1
  0
CLASS
  1
ACDB_PROXY_ENTITY_DATA
  2
AcDbProxyEntityData
  3
ObjectDBX Classes
 90
    32768
280
     0
281
     0
  0
CLASS
  1
TABLESTYLE
  2
AcDbTableStyle
  3
ObjectDBX Classes
 90
     2047
280
     0
281
     0
  0
CLASS
  1
ACGREFMASTER
  2
AcGrefMaster
  3
AcAttribServices
 90
        0
280
     0
281
     0
  0
CLASS
  1
AM_DRAWING_MGR
  2
AcDmDwgMgr
  3
AcMechDwgViewMgmt
 90
        0
280
     0
281
     0
  0
CLASS
  1
AM_DWG_DOCUMENT
  2
AcDmDwgDocument
  3
AcMechDwgViewMgmt
 90
        0
280
     0
281
     0
  0
CLASS
  1
AM_DWG_SHEET
  2
AcDmSheet
  3
AcMechDwgViewMgmt
 90
        0
280
     0
281
     0
  0
CLASS
  1
AM_VIEWDIMPARMAP
  2
AcDmViewDimParMap
  3
AcMechDwgViewMgmt
 90
        0
280
     0
281
     0
  0
CLASS
  1
AM_DWGMGR_NAME
  2
AcDmDwgMgrName
  3
AcMechDwgViewMgmt
 90
        0
280
     0
281
     0
  0
CLASS
  1
ACGREFACADMASTER
  2
AcGrefacadMaster
  3
AcGrefServices
 90
        0
280
     0
281
     0
  0
CLASS
  1
AMDTMENUSTATEMGR
  2
AmdtMenuStateMgr
  3
McadcomServices
 90
        0
280
     0
281
     0
  0
CLASS
  1
AMDTMCOMMENUSTATE
  2
AmdtMcomMenuState
  3
McadcomServices
 90
        0
280
     0
281
     0
  0
CLASS
  1
AMIMASTER
  2
AmiMaster
  3
AmiServices
 90
        0
280
     0
281
     0
  0
CLASS
  1
MAPIAMMOUDLE
  2
MApiAmModule
  3
MApiAmServices
 90
        0
280
     0
281
     0
  0
CLASS
  1
AMDTADMENUSTATE
  2
AmdtAdMenuState
  3
DesignerServices
 90
        0
280
     0
281
     0
  0
CLASS
  1
ADAPPL
  2
AcAdAppl
  3
DesignerServices
 90
        0
280
     0
281
     0
  0
CLASS
  1
DEPMGR
  2
AcAdDepMgr
  3
DesignerServices
 90
        0
280
     0
281
     0
  0
CLASS
  1
PARAMMGR
  2
AcAdParamMgr
  3
DesignerServices
 90
        0
280
     0
281
     0
  0
CLASS
  1
PARAMSCOPE
  2
AcAdParamScope
  3
DesignerServices
 90
        0
280
     0
281
     0
  0
CLASS
  1
NAMEDAPPL
  2
AcAdNamedAppl
  3
DesignerServices
 90
        0
280
     0
281
     0
  0
CLASS
  1
AMDTDMMENUSTATE
  2
AmdtDmMenuState
  3
AcMechDwgViewMgmt
 90
        0
280
     0
281
     0
  0
CLASS
  1
AMDTAMMENUSTATE
  2
AmdtAmMenuState
  3
DesignerAssemblies
 90
        0
280
     0
281
     0
  0
CLASS
  1
ACAMPROJECT
  2
AcAmProject
  3
DesignerAssemblies
 90
        0
280
     0
281
     0
  0
CLASS
  1
ACAMGRCOMPDEF
  2
AcAmGrCompDef
  3
DesignerAssemblies
 90
        0
280
     0
281
     0
  0
CLASS
  1
ACCMCONTEXT
  2
AcCmContext
  3
DesignerAssemblies
 90
        0
280
     0
281
     0
  0
CLASS
  1
ACAMCOMPDEF
  2
AcAmCompDef
  3
DesignerAssemblies
 90
        0
280
     0
281
     0
  0
CLASS
  1
ACAMCOMPDEFMGR
  2
AcAmCompDefMgr
  3
DesignerAssemblies
 90
        0
280
     0
281
     0
  0
CLASS
  1
AMCONTEXTMGR
  2
AcAmContextMgr
  3
DesignerAssemblies
 90
        0
280
     0
281
     0
  0
CLASS
  1
ACAMCONTEXTMODELER
  2
AcAmContextModeler
  3
DesignerAssemblies
 90
        0
280
     0
281
     0
  0
CLASS
  1
CATALOGSTATE
  2
AcAmCatalogState
  3
DesignerAssemblies
 90
        0
280
     0
281
     0
  0
CLASS
  1
ACAMGRCOMPDEFSET
  2
AcAmGrCompDefSet
  3
DesignerAssemblies
 90
        0
280
     0
281
     0
  0
CLASS
  1
AMDTBROWSERDBTAB
  2
AmdtBrowserDbTab
  3
McadcomServices
 90
        0
280
     0
281
     0
  0
CLASS
  1
CBROWSERAPPOBJECT
  2
CBrowserAppObject
  3
McadcomServices
 90
        0
280
     0
281
     0
  0
CLASS
  1
DM_PLACEHOLDER
  2
AcDmSelsetPlaceholder
  3
AcMechDwgViewMgmt
 90
        0
280
     0
281
     0
  0
CLASS
  1
ACMSTANDARDISO
  2
AcmStandardISO
  3
"Amdt_StdImp|Product Description: AutoCAD Mechanical 2004 DX|Company: Autodesk"
 90
        0
280
     0
281
     0
  0
CLASS
  1
AMDTEDGESTANDARDISO13715
  2
AmdtEdgeStdISO13715
  3
"Amdt_StdImp|Product Description: AutoCAD Mechanical 2004 DX|Company: Autodesk"
 90
        0
280
     0
281
     0
  0
CLASS
  1
ACMSURFSTANDARDISO
  2
AcmSurfTextStdISO
  3
"Amdt_StdImp|Product Description: AutoCAD Mechanical 2004 DX|Company: Autodesk"
 90
        0
280
     0
281
     0
  0
CLASS
  1
ACMFCFSTANDARDISO
  2
AcmFCFStdISO
  3
"Amdt_StdImp|Product Description: AutoCAD Mechanical 2004 DX|Company: Autodesk"
 90
        0
280
     0
281
     0
  0
CLASS
  1
ACMWELDSTANDARDISO
  2
AcmWeldingStdISO
  3
"Amdt_StdImp|Product Description: AutoCAD Mechanical 2004 DX|Company: Autodesk"
 90
        0
280
     0
281
     0
  0
CLASS
  1
ACMIDSTANDARDISO
  2
AcmIdStdISO
  3
"Amdt_StdImp|Product Description: AutoCAD Mechanical 2004 DX|Company: Autodesk"
 90
        0
280
     0
281
     0
  0
CLASS
  1
ACMDATUMSTANDARDISO
  2
AcmDatumStdISO
  3
"Amdt_StdImp|Product Description: AutoCAD Mechanical 2004 DX|Company: Autodesk"
 90
        0
280
     0
281
     0
  0
CLASS
  1
ACMBOMSTANDARDISO
  2
AcmBOMStdISO
  3
"Amdt_StdImp|Product Description: AutoCAD Mechanical 2004 DX|Company: Autodesk"
 90
        0
280
     0
281
     0
  0
CLASS
  1
ACMDETAILSTANDARDISO
  2
AmdtDetailSymStdISO
  3
"Amdt_StdImp|Product Description: AutoCAD Mechanical 2004 DX|Company: Autodesk"
 90
        0
280
     0
281
     0
  0
CLASS
  1
ACMSECTIONSTANDARDISO
  2
AmdtSectionSymStdISO
  3
"Amdt_StdImp|Product Description: AutoCAD Mechanical 2004 DX|Company: Autodesk"
 90
        0
280
     0
281
     0
  0
CLASS
  1
ACMCENTERLINESTANDARDISO
  2
AmdtCenterLineStdISO
  3
"Amdt_StdImp|Product Description: AutoCAD Mechanical 2004 DX|Company: Autodesk"
 90
        0
280
     0
281
     0
  0
CLASS
  1
ACMTHREADLINESTANDARDISO
  2
AmdtThreadLineStdISO
  3
"Amdt_StdImp|Product Description: AutoCAD Mechanical 2004 DX|Company: Autodesk"
 90
        0
280
     0
281
     0
  0
CLASS
  1
ACMNOTESTANDARDISO
  2
AmdtNoteStdISO
  3
"Amdt_StdImp|Product Description: AutoCAD Mechanical 2004 DX|Company: Autodesk"
 90
        0
280
     0
281
     0
  0
CLASS
  1
AMDTNOTETEMPLATEDB
  2
AmdtNoteTemplateDB
  3
AMDT_STDIMP_MODULE_NAME
 90
        0
280
     0
281
     0
  0
CLASS
  1
ACAMGLAYSTD
  2
AcAmgLayStd
  3
"AcAmgLayStd|Product Description: AutoCAD Mechanical 2000|Company: Autodesk"
 90
        0
280
     0
281
     0
  0
CLASS
  1
ACAMGDIMSTD
  2
AcAmgDimStd
  3
"AcAmgDimStd|Product Description: AutoCAD Mechanical 2000|Company: Autodesk"
 90
        0
280
     0
281
     0
  0
CLASS
  1
ACAMGHOLECHARTSTDISO
  2
AcAmgHoleChartStdISO
  3
ACMSYMBB_MODULE_NAME
 90
        0
280
     0
281
     0
  0
CLASS
  1
ACAMGTITLESTD
  2
AcAmgTitleStd
  3
"TITLEAPP"
 90
        0
280
     0
281
     0
  0
ENDSEC
  0
SECTION
  2
TABLES
  0
TABLE
  2
VPORT
  5
8
330
0
100
AcDbSymbolTable
 70
     3
  0
VPORT
  5
B5D0
330
8
100
AcDbSymbolTableRecord
100
AcDbViewportTableRecord
  2
*Active
 70
     0
 10
0.0
 20
0.0
 11
1.0
 21
1.0
 12
60.0544799836769
 22
-27.93602323791495
 13
0.0
 23
0.0
 14
2.5
 24
2.5
 15
10.0
 25
10.0
 16
0.0
 26
0.0
 36
1.0
 17
0.0
 27
0.0
 37
0.0
 40
135.9277211787467
 41
2.176400476758045
 42
50.0
 43
0.0
 44
0.0
 50
0.0
 51
0.0
 71
     0
 72
  2000
 73
     1
 74
     3
 75
     0
 76
     0
 77
     0
 78
     0
281
     0
 65
     0
110
0.0
120
0.0
130
0.0
111
1.0
121
0.0
131
0.0
112
0.0
122
1.0
132
0.0
 79
     0
146
0.0
  0
ENDTAB
  0
TABLE
  2
LTYPE
  5
5
330
0
100
AcDbSymbolTable
 70
    17
  0
LTYPE
  5
14
330
5
100
AcDbSymbolTableRecord
100
AcDbLinetypeTableRecord
  2
BYBLOCK
 70
     0
  3

 72
    65
 73
     0
 40
0.0
  0
LTYPE
  5
15
330
5
100
AcDbSymbolTableRecord
100
AcDbLinetypeTableRecord
  2
BYLAYER
 70
     0
  3

 72
    65
 73
     0
 40
0.0
  0
LTYPE
  5
16
330
5
100
AcDbSymbolTableRecord
100
AcDbLinetypeTableRecord
  2
CONTINUOUS
 70
     0
  3
Solid line
 72
    65
 73
     0
 40
0.0
  0
LTYPE
  5
43
330
5
100
AcDbSymbolTableRecord
100
AcDbLinetypeTableRecord
  2
AM_ISO02W050
 70
     0
  3
__ __ __ __ __ __ __ __ __ __ __ __ __ __ __
 72
    65
 73
     2
 40
7.5
 49
6.0
 74
     0
 49
-1.5
 74
     0
  0
LTYPE
  5
44
330
5
100
AcDbSymbolTableRecord
100
AcDbLinetypeTableRecord
  2
AM_ISO08W050
 70
     0
  3
____ . ____ . ____ . ____ . ____ . ____ . ____
 72
    65
 73
     4
 40
18.0
 49
12.0
 74
     0
 49
-1.5
 74
     0
 49
3.0
 74
     0
 49
-1.5
 74
     0
  0
LTYPE
  5
45
330
5
100
AcDbSymbolTableRecord
100
AcDbLinetypeTableRecord
  2
AM_ISO09W050
 70
     0
  3
_____ . . _____ . . _____ . . ____ .. ____
 72
    65
 73
     6
 40
22.5
 49
12.0
 74
     0
 49
-1.5
 74
     0
 49
3.0
 74
     0
 49
-1.5
 74
     0
 49
3.0
 74
     0
 49
-1.5
 74
     0
  0
LTYPE
  5
46
330
5
100
AcDbSymbolTableRecord
100
AcDbLinetypeTableRecord
  2
AMCONSTR
 70
     0
  3
_______________________
 72
    65
 73
     2
 40
9999.0
 49
9999.0
 74
     0
 49
0.0
 74
     0
  0
LTYPE
  5
47
330
5
100
AcDbSymbolTableRecord
100
AcDbLinetypeTableRecord
  2
AM_ISO02W050X2
 70
     0
  3
 _ _ _ _ _ _ _ _ _ _ _ _
 72
    65
 73
     2
 40
3.75
 49
3.0
 74
     0
 49
-0.75
 74
     0
  0
LTYPE
  5
48
330
5
100
AcDbSymbolTableRecord
100
AcDbLinetypeTableRecord
  2
AM_ISO08W050X2
 70
     0
  3
__ . __ . __ . __ . __ . __
 72
    65
 73
     4
 40
9.0
 49
6.0
 74
     0
 49
-0.75
 74
     0
 49
1.5
 74
     0
 49
-0.75
 74
     0
  0
LTYPE
  5
4B
330
5
100
AcDbSymbolTableRecord
100
AcDbLinetypeTableRecord
  2
AMZIGZAG
 70
     0
  3
/\/-/\/-/\/-/\/-/\/-/\/
 72
    65
 73
     2
 40
11.00009999999999
 49
0.0001
 74
     4
 75
   135
340
4A
 46
0.04
 50
0.0
 44
0.0
 45
0.0
 49
-11.0
 74
     0
  0
LTYPE
  5
A2E3
330
5
100
AcDbSymbolTableRecord
100
AcDbLinetypeTableRecord
  2
PHANTOM
 70
     0
  3
Phantom ______  __  __  ______  __  __  ______
 72
    65
 73
     6
 40
63.5
 49
31.75
 74
     0
 49
-6.349999999999998
 74
     0
 49
6.349999999999998
 74
     0
 49
-6.349999999999998
 74
     0
 49
6.349999999999998
 74
     0
 49
-6.349999999999998
 74
     0
  0
LTYPE
  5
B542
330
5
100
AcDbSymbolTableRecord
100
AcDbLinetypeTableRecord
  2
HIDDEN
 70
     0
  3
Hidden __ __ __ __ __ __ __ __ __ __ __ __ __ _
 72
    65
 73
     2
 40
9.524999999999998
 49
6.349999999999999
 74
     0
 49
-3.174999999999999
 74
     0
  0
LTYPE
  5
B543
330
5
100
AcDbSymbolTableRecord
100
AcDbLinetypeTableRecord
  2
PHANTOM2
 70
     0
  3
Phantom (.5x) ___ _ _ ___ _ _ ___ _ _ ___ _ _
 72
    65
 73
     6
 40
31.75
 49
15.875
 74
     0
 49
-3.174999999999999
 74
     0
 49
3.174999999999999
 74
     0
 49
-3.174999999999999
 74
     0
 49
3.174999999999999
 74
     0
 49
-3.174999999999999
 74
     0
  0
LTYPE
  5
B544
330
5
100
AcDbSymbolTableRecord
100
AcDbLinetypeTableRecord
  2
CENTER
 70
     0
  3
Center ____ _ ____ _ ____ _ ____ _ ____ _ ____
 72
    65
 73
     4
 40
50.8
 49
31.75
 74
     0
 49
-6.349999999999999
 74
     0
 49
6.349999999999999
 74
     0
 49
-6.349999999999999
 74
     0
  0
LTYPE
  5
B584
330
5
100
AcDbSymbolTableRecord
100
AcDbLinetypeTableRecord
  2
ACISOWELD
 70
     0
  3
_ _ _ _ _
 72
    65
 73
     2
 40
2.0
 49
2.0
 74
     0
 49
-1.0
 74
     0
  0
LTYPE
  5
B585
330
5
100
AcDbSymbolTableRecord
100
AcDbLinetypeTableRecord
  2
ACISOTGB
 70
     0
  3
__ . . __ . .
 72
    65
 73
     6
 40
9.0
 49
4.0
 74
     0
 49
-1.0
 74
     0
 49
1.0
 74
     0
 49
-1.0
 74
     0
 49
1.0
 74
     0
 49
-1.0
 74
     0
  0
LTYPE
  5
B586
330
5
100
AcDbSymbolTableRecord
100
AcDbLinetypeTableRecord
  2
ACISOTGL
 70
     0
  3
_ _ _ _ _
 72
    65
 73
     2
 40
3.0
 49
2.0
 74
     0
 49
-1.0
 74
     0
  0
ENDTAB
  0
TABLE
  2
LAYER
  5
2
330
0
100
AcDbSymbolTable
 70
    13
  0
LAYER
  5
10
330
2
100
AcDbSymbolTableRecord
100
AcDbLayerTableRecord
  2
0
 70
     0
 62
     7
  6
CONTINUOUS
370
    -3
390
F
  0
LAYER
  5
7D
330
2
100
AcDbSymbolTableRecord
100
AcDbLayerTableRecord
  2
AM_5
 70
     0
 62
     3
  6
CONTINUOUS
370
    -3
390
F
  0
LAYER
  5
7F
330
2
100
AcDbSymbolTableRecord
100
AcDbLayerTableRecord
  2
DEFPOINTS
 70
     0
 62
     7
  6
CONTINUOUS
290
     0
370
    -3
390
F
  0
LAYER
  5
12B1
330
2
100
AcDbSymbolTableRecord
100
AcDbLayerTableRecord
  2
AM_0
 70
     0
 62
     7
  6
CONTINUOUS
370
    -3
390
F
  0
LAYER
  5
2222
330
2
100
AcDbSymbolTableRecord
100
AcDbLayerTableRecord
  2
AM_6
 70
     0
 62
     2
  6
CONTINUOUS
370
    -3
390
F
  0
LAYER
  5
4379
330
2
100
AcDbSymbolTableRecord
100
AcDbLayerTableRecord
  2
AM_1
 70
     0
 62
     3
  6
CONTINUOUS
370
    -3
390
F
  0
LAYER
  5
7DB2
330
2
100
AcDbSymbolTableRecord
100
AcDbLayerTableRecord
  2
AM_7
 70
     0
 62
     4
  6
AM_ISO08W050
370
    -3
390
F
  0
LAYER
  5
A2E4
330
2
100
AcDbSymbolTableRecord
100
AcDbLayerTableRecord
  2
AM_11
 70
     0
 62
     3
  6
PHANTOM
370
    -3
390
F
  0
ENDTAB
  0
TABLE
  2
STYLE
  5
3
330
0
100
AcDbSymbolTable
 70
     6
  0
STYLE
  5
11
330
3
100
AcDbSymbolTableRecord
100
AcDbTextStyleTableRecord
  2
STANDARD
 70
     0
 40
0.0
 41
1.0
 50
0.0
 71
     0
 42
2.5
  3
ISOCP.SHX
  4
EXTFONT.SHX
  0
STYLE
  5
4A
330
3
100
AcDbSymbolTableRecord
100
AcDbTextStyleTableRecord
  2

 70
     1
 40
0.0
 41
1.0
 50
0.0
 71
     0
 42
2.5
  3
ltypeshp.shx
  4

  0
STYLE
  5
B576
330
3
100
AcDbSymbolTableRecord
100
AcDbTextStyleTableRecord
  2
ACISOTS
 70
     0
 40
1.0
 41
1.0
 50
0.0
 71
     0
 42
2.5
  3
isocp.shx
  4
extfont.shx
  0
STYLE
  5
B583
330
3
100
AcDbSymbolTableRecord
100
AcDbTextStyleTableRecord
  2
ACISOGDT
 70
     0
 40
0.0
 41
1.0
 50
0.0
 71
     0
 42
2.5
  3
amgdt.shx
  4

  0
ENDTAB
  0
TABLE
  2
VIEW
  5
6
330
0
100
AcDbSymbolTable
 70
     6
  0
VIEW
  5
A30
330
6
100
AcDbSymbolTableRecord
100
AcDbViewTableRecord
  2
AM_VIEW1
 70
     0
 40
148.5
 10
112.0719649561952
 20
222.75
 41
224.1439299123904
 11
0.0
 21
0.0
 31
1.0
 12
0.0
 22
0.0
 32
0.0
 42
50.0
 43
0.0
 44
0.0
 50
0.0
 71
     0
281
     0
 72
     0
  0
VIEW
  5
A31
330
6
100
AcDbSymbolTableRecord
100
AcDbViewTableRecord
  2
AM_VIEW2
 70
     0
 40
148.5
 10
307.9280350438047
 20
222.75
 41
224.1439299123904
 11
0.0
 21
0.0
 31
1.0
 12
0.0
 22
0.0
 32
0.0
 42
50.0
 43
0.0
 44
0.0
 50
0.0
 71
     0
281
     0
 72
     0
  0
VIEW
  5
A32
330
6
100
AcDbSymbolTableRecord
100
AcDbViewTableRecord
  2
AM_VIEW3
 70
     0
 40
148.5
 10
112.0719649561952
 20
74.25
 41
224.1439299123904
 11
0.0
 21
0.0
 31
1.0
 12
0.0
 22
0.0
 32
0.0
 42
50.0
 43
0.0
 44
0.0
 50
0.0
 71
     0
281
     0
 72
     0
  0
VIEW
  5
A33
330
6
100
AcDbSymbolTableRecord
100
AcDbViewTableRecord
  2
AM_VIEW4
 70
     0
 40
148.5
 10
307.9280350438047
 20
74.25
 41
224.1439299123904
 11
0.0
 21
0.0
 31
1.0
 12
0.0
 22
0.0
 32
0.0
 42
50.0
 43
0.0
 44
0.0
 50
0.0
 71
     0
281
     0
 72
     0
  0
VIEW
  5
A34
330
6
100
AcDbSymbolTableRecord
100
AcDbViewTableRecord
  2
AM_VIEW5
 70
     0
 40
148.5
 10
210.0
 20
148.5
 41
224.1439299123904
 11
0.0
 21
0.0
 31
1.0
 12
0.0
 22
0.0
 32
0.0
 42
50.0
 43
0.0
 44
0.0
 50
0.0
 71
     0
281
     0
 72
     0
  0
VIEW
  5
A35
330
6
100
AcDbSymbolTableRecord
100
AcDbViewTableRecord
  2
AM_VIEW6
 70
     0
 40
296.9970299999999
 10
210.0
 20
148.5
 41
448.2833769461826
 11
0.0
 21
0.0
 31
1.0
 12
0.0
 22
0.0
 32
0.0
 42
50.0
 43
0.0
 44
0.0
 50
0.0
 71
     0
281
     0
 72
     0
  0
ENDTAB
  0
TABLE
  2
UCS
  5
7
330
0
100
AcDbSymbolTable
 70
     0
  0
ENDTAB
  0
TABLE
  2
APPID
  5
9
330
0
100
AcDbSymbolTable
 70
    42
  0
APPID
  5
12
330
9
100
AcDbSymbolTableRecord
100
AcDbRegAppTableRecord
  2
ACAD
 70
     0
  0
APPID
  5
2C
330
9
100
AcDbSymbolTableRecord
100
AcDbRegAppTableRecord
  2
MCAD_NO_VIS
 70
     0
  0
APPID
  5
2D
330
9
100
AcDbSymbolTableRecord
100
AcDbRegAppTableRecord
  2
ACAD_TEMP_GRAPHIC
 70
     0
  0
APPID
  5
B9
330
9
100
AcDbSymbolTableRecord
100
AcDbRegAppTableRecord
  2
GENIUS_GENDTOL_13
 70
     0
  0
APPID
  5
359
330
9
100
AcDbSymbolTableRecord
100
AcDbRegAppTableRecord
  2
GENIUS_GENREC_14
 70
     0
  0
APPID
  5
35A
330
9
100
AcDbSymbolTableRecord
100
AcDbRegAppTableRecord
  2
GENIUS_GENODEF_13
 70
     0
  0
APPID
  5
35B
330
9
100
AcDbSymbolTableRecord
100
AcDbRegAppTableRecord
  2
GENIUS_GENOBJ-N-REC_13
 70
     0
  0
APPID
  5
667
330
9
100
AcDbSymbolTableRecord
100
AcDbRegAppTableRecord
  2
GENIUS_GENCFG_13
 70
     0
  0
APPID
  5
668
330
9
100
AcDbSymbolTableRecord
100
AcDbRegAppTableRecord
  2
GENIUS_GENCFG0_13
 70
     0
  0
APPID
  5
669
330
9
100
AcDbSymbolTableRecord
100
AcDbRegAppTableRecord
  2
GENIUS_GENCFG1_13
 70
     0
  0
APPID
  5
66A
330
9
100
AcDbSymbolTableRecord
100
AcDbRegAppTableRecord
  2
GENIUS_GENCFG2_13
 70
     0
  0
APPID
  5
66B
330
9
100
AcDbSymbolTableRecord
100
AcDbRegAppTableRecord
  2
GENIUS_GENCFG3_13
 70
     0
  0
APPID
  5
66C
330
9
100
AcDbSymbolTableRecord
100
AcDbRegAppTableRecord
  2
GENIUS_GENCFG4_13
 70
     0
  0
APPID
  5
A76
330
9
100
AcDbSymbolTableRecord
100
AcDbRegAppTableRecord
  2
GENIUS_GENBLLY_14
 70
     0
  0
APPID
  5
A77
330
9
100
AcDbSymbolTableRecord
100
AcDbRegAppTableRecord
  2
GENIUS_GENOBJ-N-CEN_13
 70
     0
  0
APPID
  5
A83
330
9
100
AcDbSymbolTableRecord
100
AcDbRegAppTableRecord
  2
GENIUS_GENTRA_14
 70
     0
  0
APPID
  5
A8D
330
9
100
AcDbSymbolTableRecord
100
AcDbRegAppTableRecord
  2
GENIUS_GENOBJ-N-TIT_13
 70
     0
  0
APPID
  5
A8E
330
9
100
AcDbSymbolTableRecord
100
AcDbRegAppTableRecord
  2
GENIUS_GENTITLE_13
 70
     0
  0
APPID
  5
A8F
330
9
100
AcDbSymbolTableRecord
100
AcDbRegAppTableRecord
  2
GENIUS_GENOENT_13
 70
     0
  0
APPID
  5
A90
330
9
100
AcDbSymbolTableRecord
100
AcDbRegAppTableRecord
  2
GENIUS_GENOREF_13
 70
     0
  0
APPID
  5
A91
330
9
100
AcDbSymbolTableRecord
100
AcDbRegAppTableRecord
  2
GENIUS_GENOLIS_13
 70
     0
  0
APPID
  5
A92
330
9
100
AcDbSymbolTableRecord
100
AcDbRegAppTableRecord
  2
GENIUS_GENZVEED_13
 70
     0
  0
APPID
  5
A93
330
9
100
AcDbSymbolTableRecord
100
AcDbRegAppTableRecord
  2
GENIUS_GENSCREG_15
 70
     0
  0
APPID
  5
A94
330
9
100
AcDbSymbolTableRecord
100
AcDbRegAppTableRecord
  2
GENIUS_GENOBJ-N-SDF_13
 70
     0
  0
APPID
  5
12B5
330
9
100
AcDbSymbolTableRecord
100
AcDbRegAppTableRecord
  2
GENIUS_GENOBJ-N-RSBK_13
 70
     0
  0
APPID
  5
12B6
330
9
100
AcDbSymbolTableRecord
100
AcDbRegAppTableRecord
  2
GENIUS_GENOBJ-N-LIB_13
 70
     0
  0
APPID
  5
12B7
330
9
100
AcDbSymbolTableRecord
100
AcDbRegAppTableRecord
  2
GENIUS_GENSCALE_13
 70
     0
  0
APPID
  5
12B8
330
9
100
AcDbSymbolTableRecord
100
AcDbRegAppTableRecord
  2
GENIUS_GENOBJ-N-HTC_13
 70
     0
  0
APPID
  5
12B9
330
9
100
AcDbSymbolTableRecord
100
AcDbRegAppTableRecord
  2
GENIUS_GENHATCH_13
 70
     0
  0
APPID
  5
1C0A
330
9
100
AcDbSymbolTableRecord
100
AcDbRegAppTableRecord
  2
BASE_TYPE
 70
     0
  0
APPID
  5
276B
330
9
100
AcDbSymbolTableRecord
100
AcDbRegAppTableRecord
  2
GENIUS_GENOBJ-N-FIL_13
 70
     0
  0
APPID
  5
3640
330
9
100
AcDbSymbolTableRecord
100
AcDbRegAppTableRecord
  2
GENIUS_GENBH_13
 70
     0
  0
APPID
  5
36D1
330
9
100
AcDbSymbolTableRecord
100
AcDbRegAppTableRecord
  2
GENIUS_GENOBJ-F-SPR_13
 70
     0
  0
APPID
  5
36DA
330
9
100
AcDbSymbolTableRecord
100
AcDbRegAppTableRecord
  2
GENIUS_GEFSPRING_13
 70
     0
  0
APPID
  5
36DB
330
9
100
AcDbSymbolTableRecord
100
AcDbRegAppTableRecord
  2
GENIUS_GEFSPRINGP_13
 70
     0
  0
APPID
  5
4D67
330
9
100
AcDbSymbolTableRecord
100
AcDbRegAppTableRecord
  2
GENIUS_GENFIL_13
 70
     0
  0
APPID
  5
4D68
330
9
100
AcDbSymbolTableRecord
100
AcDbRegAppTableRecord
  2
GENIUS_GENOBJ-N-CHA_13
 70
     0
  0
APPID
  5
B546
330
9
100
AcDbSymbolTableRecord
100
AcDbRegAppTableRecord
  2
AD_DRAW
 70
     0
  0
APPID
  5
B549
330
9
100
AcDbSymbolTableRecord
100
AcDbRegAppTableRecord
  2
ACATTRIBSERVICES
 70
     0
  0
APPID
  5
B567
330
9
100
AcDbSymbolTableRecord
100
AcDbRegAppTableRecord
  2
DESIGNERASSEMBLIES
 70
     0
  0
APPID
  5
B56C
330
9
100
AcDbSymbolTableRecord
100
AcDbRegAppTableRecord
  2
ACADM_DIM_EDIT
 70
     0
  0
APPID
  5
B56D
330
9
100
AcDbSymbolTableRecord
100
AcDbRegAppTableRecord
  2
AMDT_DM_ADJ
 70
     0
  0
ENDTAB
  0
TABLE
  2
DIMSTYLE
  5
A
330
0
100
AcDbSymbolTable
 70
    20
100
AcDbDimStyleTable
 71
     0
  0
DIMSTYLE
105
58
330
A
100
AcDbSymbolTableRecord
100
AcDbDimStyleTableRecord
  2
AM_JIS
 70
     0
  4
"
 41
2.5
 42
0.0
 43
10.0
 44
1.0
 47
0.1
 48
0.1000000001
 73
     0
 74
     0
 77
     3
 78
     9
140
3.799999999999998
141
0.0
143
0.0393701
146
0.71
147
1.5
172
     1
176
   256
177
   256
178
     2
271
     2
272
     2
275
     1
283
     0
284
     8
340
11
341
59
342
59
  0
DIMSTYLE
105
5F
102
{ACAD_REACTORS
330
B40C
330
B432
102
}
330
A
100
AcDbSymbolTableRecord
100
AcDbDimStyleTableRecord
  2
AM_JIS$3
 70
     0
  4
"
 41
2.5
 42
0.0
 43
10.0
 44
1.0
 47
0.1
 48
0.1000000001
 73
     0
 77
     1
 78
     9
140
3.799999999999998
141
0.0
143
0.0393701
146
0.71
147
1.5
172
     1
176
   256
177
   256
178
     2
271
     2
272
     2
275
     1
283
     0
284
     8
340
11
341
59
342
59
  0
DIMSTYLE
105
65F
330
A
100
AcDbSymbolTableRecord
100
AcDbDimStyleTableRecord
  2
STANDARD
 70
     0
340
11
  0
DIMSTYLE
105
1761
102
{ACAD_REACTORS
330
B3CE
330
B3DB
330
B416
330
B423
102
}
330
A
100
AcDbSymbolTableRecord
100
AcDbDimStyleTableRecord
  2
AM_JIS$0
 70
     0
  4
"
 41
2.5
 42
0.0
 43
10.0
 44
1.0
 47
0.1
 48
0.1000000001
 73
     0
 74
     0
 77
     3
 78
     9
140
3.799999999999998
141
0.0
143
0.0393701
146
0.71
147
1.5
172
     1
176
     3
177
     3
178
     2
271
     2
272
     2
275
     1
283
     0
284
     8
340
11
341
59
342
59
  0
DIMSTYLE
105
B58F
330
A
100
AcDbSymbolTableRecord
100
AcDbDimStyleTableRecord
  2
AM_ISO
 70
     0
  4
"
 41
2.5
 42
1.0
 43
10.0
 44
1.0
 47
0.1
 48
0.1
 73
     0
 74
     0
 77
     1
 78
     8
 79
     2
140
3.5
141
0.0
143
0.0393701
146
0.71
147
1.5
172
     1
176
   256
177
   256
178
     2
271
     2
272
     3
274
     4
283
     0
284
     8
340
11
371
    -1
372
    -1
  0
DIMSTYLE
105
B590
330
A
100
AcDbSymbolTableRecord
100
AcDbDimStyleTableRecord
  2
AM_ISO$3
 70
     0
  4
"
 41
2.5
 42
1.0
 43
10.0
 44
1.0
 47
0.1
 48
0.1
 73
     0
 77
     1
 78
     8
 79
     2
140
3.5
141
0.0
143
0.0393701
146
0.71
147
1.5
176
   256
177
   256
178
     2
271
     2
272
     3
274
     4
283
     0
284
     8
288
     1
289
     0
340
11
371
    -1
372
    -1
  0
DIMSTYLE
105
B591
330
A
100
AcDbSymbolTableRecord
100
AcDbDimStyleTableRecord
  2
AM_ISO$4
 70
     0
  4
"
 41
2.5
 42
1.0
 43
10.0
 44
1.0
 47
0.1
 48
0.1
 73
     0
 77
     1
 78
     8
 79
     2
140
3.5
141
0.0
143
0.0393701
146
0.71
147
1.5
176
   256
177
   256
178
     2
271
     2
272
     3
274
     4
283
     0
284
     8
288
     1
289
     0
340
11
371
    -1
372
    -1
  0
DIMSTYLE
105
B592
330
A
100
AcDbSymbolTableRecord
100
AcDbDimStyleTableRecord
  2
AM_ISO$6
 70
     0
  4
"
 41
2.5
 42
1.0
 43
10.0
 44
1.0
 47
0.1
 48
0.1
 73
     0
 74
     0
 78
     8
 79
     2
140
3.5
141
0.0
143
0.0393701
146
0.71
147
1.5
172
     1
176
   256
177
   256
178
     2
271
     2
272
     3
274
     4
283
     0
284
     8
340
11
371
    -1
372
    -1
  0
DIMSTYLE
105
B593
330
A
100
AcDbSymbolTableRecord
100
AcDbDimStyleTableRecord
  2
AM_ISO$7
 70
     0
  4
"
 41
2.5
 42
1.0
 43
10.0
 44
1.0
 47
0.1
 48
0.1
 73
     0
 74
     0
 77
     1
 78
     8
 79
     2
140
5.0
141
0.0
143
0.0393701
146
0.71
147
1.5
172
     1
176
   256
177
   256
178
     2
271
     2
272
     3
274
     4
283
     0
284
     8
340
11
371
    -1
372
    -1
  0
DIMSTYLE
105
B594
330
A
100
AcDbSymbolTableRecord
100
AcDbDimStyleTableRecord
  2
AM_ISO$SF
 70
     0
  4
"
 41
2.5
 42
1.0
 43
10.0
 44
1.0
 47
0.1
 48
0.1
 73
     0
 74
     0
 75
     1
 76
     1
 77
     1
 78
     8
 79
     2
140
3.5
141
0.0
143
0.0393701
146
0.71
147
1.5
172
     1
176
   256
177
   256
178
     2
271
     2
272
     3
274
     4
283
     0
284
     8
340
11
371
    -1
372
    -1
  0
DIMSTYLE
105
B595
330
A
100
AcDbSymbolTableRecord
100
AcDbDimStyleTableRecord
  2
AM_ISO$SH
 70
     0
  4
"
 41
2.5
 42
1.0
 43
10.0
 44
1.0
 47
0.1
 48
0.1
 73
     0
 74
     0
 75
     1
 76
     1
 77
     1
 78
     8
 79
     2
140
3.5
141
0.0
143
0.0393701
144
2.0
146
0.71
147
1.5
172
     1
173
     1
176
   256
177
   256
178
     2
271
     2
272
     3
274
     4
283
     0
284
     8
340
11
343
64
371
    -1
372
    -1
  0
ENDTAB
  0
TABLE
  2
BLOCK_RECORD
  5
1
330
0
100
AcDbSymbolTable
 70
    18
  0
BLOCK_RECORD
  5
1F
102
{ACAD_XDICTIONARY
360
165
102
}
330
1
100
AcDbSymbolTableRecord
100
AcDbBlockTableRecord
  2
*MODEL_SPACE
340
B50E
  0
BLOCK_RECORD
  5
1B
102
{ACAD_XDICTIONARY
360
B501
102
}
330
1
100
AcDbSymbolTableRecord
100
AcDbBlockTableRecord
  2
*PAPER_SPACE
340
B50F
  0
BLOCK_RECORD
  5
59
330
1
100
AcDbSymbolTableRecord
100
AcDbBlockTableRecord
  2
_OPEN30
340
0
102
{BLKREFS
331
B59C
331
B59D
331
B5A5
331
B5A6
331
B5AD
331
B5B3
331
B5B4
331
B5BE
331
B5BF
331
B5C9
331
B5CA
102
}
  0
BLOCK_RECORD
  5
64
330
1
100
AcDbSymbolTableRecord
100
AcDbBlockTableRecord
  2
GENAXEH
340
0
  0
BLOCK_RECORD
  5
AB1E
330
1
100
AcDbSymbolTableRecord
100
AcDbBlockTableRecord
  2
CBF06
340
0
102
{BLKREFS
331
B33B
102
}
  0
BLOCK_RECORD
  5
B3CF
330
1
100
AcDbSymbolTableRecord
100
AcDbBlockTableRecord
  2
*D11
340
0
  0
BLOCK_RECORD
  5
B3DC
330
1
100
AcDbSymbolTableRecord
100
AcDbBlockTableRecord
  2
*D12
340
0
  0
BLOCK_RECORD
  5
B40D
330
1
100
AcDbSymbolTableRecord
100
AcDbBlockTableRecord
  2
*D13
340
0
  0
BLOCK_RECORD
  5
B417
330
1
100
AcDbSymbolTableRecord
100
AcDbBlockTableRecord
  2
*D14
340
0
  0
BLOCK_RECORD
  5
B424
330
1
100
AcDbSymbolTableRecord
100
AcDbBlockTableRecord
  2
*D15
340
0
  0
BLOCK_RECORD
  5
B433
330
1
100
AcDbSymbolTableRecord
100
AcDbBlockTableRecord
  2
*D16
340
0
  0
ENDTAB
  0
ENDSEC
  0
SECTION
  2
BLOCKS
  0
BLOCK
  5
20
330
1F
100
AcDbEntity
  8
0
100
AcDbBlockBegin
  2
*MODEL_SPACE
 70
     0
 10
0.0
 20
0.0
 30
0.0
  3
*MODEL_SPACE
  1

  0
ENDBLK
  5
21
330
1F
100
AcDbEntity
  8
0
100
AcDbBlockEnd
  0
BLOCK
  5
1C
330
1B
100
AcDbEntity
 67
     1
  8
0
100
AcDbBlockBegin
  2
*PAPER_SPACE
 70
     0
 10
0.0
 20
0.0
 30
0.0
  3
*PAPER_SPACE
  1

  0
ENDBLK
  5
1D
330
1B
100
AcDbEntity
 67
     1
  8
0
100
AcDbBlockEnd
  0
BLOCK
  5
5D
330
59
100
AcDbEntity
  8
0
100
AcDbBlockBegin
  2
_OPEN30
 70
     0
 10
0.0
 20
0.0
 30
0.0
  3
_OPEN30
  1

  0
LINE
  5
5A
330
59
100
AcDbEntity
  8
0
 62
     0
100
AcDbLine
 10
-1.0
 20
0.26794919
 30
0.0
 11
0.0
 21
0.0
 31
0.0
  0
LINE
  5
5B
330
59
100
AcDbEntity
  8
0
 62
     0
100
AcDbLine
 10
0.0
 20
0.0
 30
0.0
 11
-1.0
 21
-0.26794919
 31
0.0
  0
LINE
  5
5C
330
59
100
AcDbEntity
  8
0
 62
     0
100
AcDbLine
 10
0.0
 20
0.0
 30
0.0
 11
-1.0
 21
0.0
 31
0.0
  0
ENDBLK
  5
5E
330
59
100
AcDbEntity
  8
0
100
AcDbBlockEnd
  0
BLOCK
  5
66
330
64
100
AcDbEntity
  8
0
100
AcDbBlockBegin
  2
GENAXEH
 70
     0
 10
0.0
 20
0.0
 30
0.0
  3
GENAXEH
  1

  0
LINE
  5
65
330
64
100
AcDbEntity
  8
0
100
AcDbLine
 10
-1.0
 20
0.0
 30
0.0
 11
1.0
 21
0.0
 31
0.0
  0
ENDBLK
  5
67
330
64
100
AcDbEntity
  8
0
100
AcDbBlockEnd
  0
BLOCK
  5
AB27
330
AB1E
100
AcDbEntity
  8
0
100
AcDbBlockBegin
  2
CBF06
 70
     0
 10
0.0
 20
0.0
 30
0.0
  3
CBF06
  1

  0
CIRCLE
  5
AB1F
330
AB1E
100
AcDbEntity
  8
0
  6
Continuous
100
AcDbCircle
 10
0.0000187875812969
 20
0.0000034482758053
 30
0.0
 40
4.307179353944746
  0
CIRCLE
  5
AB20
330
AB1E
100
AcDbEntity
  8
0
  6
Continuous
100
AcDbCircle
 10
0.0000187875812969
 20
0.0000034482758053
 30
0.0
 40
5.0
  0
LINE
  5
AB21
330
AB1E
100
AcDbEntity
  8
0
  6
Continuous
100
AcDbLine
 10
-1.443356212418706
 20
-2.499995386098901
 30
0.0
 11
1.443393787581185
 21
-2.499995386098901
 31
0.0
  0
LINE
  5
AB22
330
AB1E
100
AcDbEntity
  8
0
  6
Continuous
100
AcDbLine
 10
1.4433937875813
 20
2.500002282650598
 30
0.0
 11
-1.443356212418706
 21
2.500002282650598
 31
0.0
  0
LINE
  5
AB23
330
AB1E
100
AcDbEntity
  8
0
  6
Continuous
100
AcDbLine
 10
-2.886731212418651
 20
0.0000034482758053
 30
0.0
 11
-1.443356212418706
 21
-2.499995386098901
 31
0.0
  0
LINE
  5
AB24
330
AB1E
100
AcDbEntity
  8
0
  6
Continuous
100
AcDbLine
 10
-1.443356212418706
 20
2.500002282650598
 30
0.0
 11
-2.886731212418651
 21
0.0000034482758053
 31
0.0
  0
LINE
  5
AB25
330
AB1E
100
AcDbEntity
  8
0
  6
Continuous
100
AcDbLine
 10
1.443393787581185
 20
-2.499995386098901
 30
0.0
 11
2.886768787581303
 21
0.0000034482758053
 31
0.0
  0
LINE
  5
AB26
330
AB1E
100
AcDbEntity
  8
0
  6
Continuous
100
AcDbLine
 10
2.886768787581303
 20
0.0000034482758053
 30
0.0
 11
1.4433937875813
 21
2.500002282650598
 31
0.0
  0
ENDBLK
  5
AB28
330
AB1E
100
AcDbEntity
  8
0
100
AcDbBlockEnd
  0
BLOCK
  5
B3D9
330
B3CF
100
AcDbEntity
  8
0
100
AcDbBlockBegin
  2
*D11
 70
     1
 10
0.0
 20
0.0
 30
0.0
  3
*D11
  1

  0
LINE
  5
B599
330
B3CF
100
AcDbEntity
  8
AM_5
 62
     3
370
    -2
100
AcDbLine
 10
-0.0019040288428401
 20
-32.20635357452361
 30
0.0
 11
-0.0019040288428398
 21
-28.05834286235404
 31
0.0
  0
LINE
  5
B59A
330
B3CF
100
AcDbEntity
  8
AM_5
 62
     3
370
    -2
100
AcDbLine
 10
200.0000147799163
 20
-32.20635357452362
 30
0.0
 11
200.0000147799163
 21
-28.05834286235404
 31
0.0
  0
LINE
  5
B59B
330
B3CF
100
AcDbEntity
  8
AM_5
 62
     3
370
    -2
100
AcDbLine
 10
2.49809597115716
 20
-29.05834286235404
 30
0.0
 11
197.5000147799163
 21
-29.05834286235404
 31
0.0
  0
INSERT
  5
B59C
330
B3CF
100
AcDbEntity
  8
AM_5
 62
     3
370
    -2
100
AcDbBlockReference
  2
_OPEN30
 10
-0.0019040288428399
 20
-29.05834286235404
 30
0.0
 41
2.5
 42
2.5
 43
2.5
 50
180.0
  0
INSERT
  5
B59D
330
B3CF
100
AcDbEntity
  8
AM_5
 62
     3
370
    -2
100
AcDbBlockReference
  2
_OPEN30
 10
200.0000147799163
 20
-29.05834286235404
 30
0.0
 41
2.5
 42
2.5
 43
2.5
  0
MTEXT
  5
B59E
330
B3CF
100
AcDbEntity
  8
AM_5
 62
     2
100
AcDbMText
 10
99.99905537553674
 20
-25.657968846606
 30
0.0
 40
3.799999999999998
 41
0.0
 71
     5
 72
     1
  1
200
 73
     1
 44
1.0
1001
ACAD
1000
MTEXTBEGIN
1070
    73
1070
     1
1070
    44
1040
1.0
1070
    74
1070
     0
1000
MTEXTEND
  0
POINT
  5
B59F
330
B3CF
100
AcDbEntity
  8
DEFPOINTS
 62
     0
100
AcDbPoint
 10
-0.0019040288428401
 20
-32.20635357452361
 30
0.0
  0
POINT
  5
B5A0
330
B3CF
100
AcDbEntity
  8
DEFPOINTS
 62
     0
100
AcDbPoint
 10
200.0000147799163
 20
-32.20635357452362
 30
0.0
  0
POINT
  5
B5A1
330
B3CF
100
AcDbEntity
  8
DEFPOINTS
 62
     0
100
AcDbPoint
 10
200.0000147799163
 20
-29.05834286235404
 30
0.0
  0
ENDBLK
  5
B3DA
330
B3CF
100
AcDbEntity
  8
0
100
AcDbBlockEnd
  0
BLOCK
  5
B3E6
330
B3DC
100
AcDbEntity
  8
0
100
AcDbBlockBegin
  2
*D12
 70
     1
 10
0.0
 20
0.0
 30
0.0
  3
*D12
  1

  0
LINE
  5
B5A2
330
B3DC
100
AcDbEntity
  8
AM_5
 62
     3
370
    -2
100
AcDbLine
 10
111.7500147799163
 20
11.10102051443366
 30
0.0
 11
111.7500147799163
 21
-15.07007000290295
 31
0.0
  0
LINE
  5
B5A3
330
B3DC
100
AcDbEntity
  8
AM_5
 62
     3
370
    -2
100
AcDbLine
 10
88.75001477991634
 20
11.10102051443367
 30
0.0
 11
88.75001477991634
 21
-15.07007000290296
 31
0.0
  0
LINE
  5
B5A4
330
B3DC
100
AcDbEntity
  8
AM_5
 62
     3
370
    -2
100
AcDbLine
 10
109.2500147799163
 20
-14.07007000290296
 30
0.0
 11
91.25001477991634
 21
-14.07007000290296
 31
0.0
  0
INSERT
  5
B5A5
330
B3DC
100
AcDbEntity
  8
AM_5
 62
     3
370
    -2
100
AcDbBlockReference
  2
_OPEN30
 10
111.7500147799163
 20
-14.07007000290296
 30
0.0
 41
2.5
 42
2.5
 43
2.5
  0
INSERT
  5
B5A6
330
B3DC
100
AcDbEntity
  8
AM_5
 62
     3
370
    -2
100
AcDbBlockReference
  2
_OPEN30
 10
88.75001477991634
 20
-14.07007000290296
 30
0.0
 41
2.5
 42
2.5
 43
2.5
 50
180.0
  0
MTEXT
  5
B5A7
330
B3DC
100
AcDbEntity
  8
AM_5
 62
     2
100
AcDbMText
 10
100.2500147799163
 20
-10.66969598715493
 30
0.0
 40
3.799999999999998
 41
0.0
 71
     5
 72
     1
  1
23
 73
     1
 44
1.0
1001
ACAD
1000
MTEXTBEGIN
1070
    73
1070
     1
1070
    44
1040
1.0
1070
    74
1070
     0
1000
MTEXTEND
  0
POINT
  5
B5A8
330
B3DC
100
AcDbEntity
  8
DEFPOINTS
 62
     0
100
AcDbPoint
 10
111.7500147799163
 20
11.10102051443366
 30
0.0
  0
POINT
  5
B5A9
330
B3DC
100
AcDbEntity
  8
DEFPOINTS
 62
     0
100
AcDbPoint
 10
88.75001477991634
 20
11.10102051443367
 30
0.0
  0
POINT
  5
B5AA
330
B3DC
100
AcDbEntity
  8
DEFPOINTS
 62
     0
100
AcDbPoint
 10
88.75001477991634
 20
-14.07007000290296
 30
0.0
  0
ENDBLK
  5
B3E7
330
B3DC
100
AcDbEntity
  8
0
100
AcDbBlockEnd
  0
BLOCK
  5
B414
330
B40D
100
AcDbEntity
  8
0
100
AcDbBlockBegin
  2
*D13
 70
     1
 10
0.0
 20
0.0
 30
0.0
  3
*D13
  1

  0
LINE
  5
B5AB
330
B40D
100
AcDbEntity
  8
AM_5
370
    -2
100
AcDbLine
 10
97.68863194903412
 20
13.98754372226367
 30
0.0
 11
108.1132858663506
 21
22.17810390178443
 31
0.0
  0
MTEXT
  5
B5AC
330
B40D
100
AcDbEntity
  8
AM_5
 62
     2
100
AcDbMText
 10
99.81726362446611
 20
19.98436709241041
 30
0.0
 40
3.799999999999998
 41
0.0
 71
     5
 72
     1
  1
\U+220525
 11
0.7863271086434377
 21
0.6178103901784522
 31
0.0
 73
     1
 44
1.0
1001
ACAD
1000
MTEXTBEGIN
1070
    73
1070
     1
1070
    44
1040
1.0
1070
    74
1070
     0
1000
MTEXTEND
  0
INSERT
  5
B5AD
330
B40D
100
AcDbEntity
  8
AM_5
370
    -2
100
AcDbBlockReference
  2
_OPEN30
 10
110.0791036379592
 20
23.72262987723057
 30
0.0
 41
2.5
 42
2.5
 43
2.5
 50
38.15641328089144
  0
POINT
  5
B5AE
330
B40D
100
AcDbEntity
  8
DEFPOINTS
 62
     0
100
AcDbPoint
 10
110.0791036379592
 20
23.72262987723057
 30
0.0
  0
POINT
  5
B5AF
330
B40D
100
AcDbEntity
  8
DEFPOINTS
 62
     0
100
AcDbPoint
 10
90.42092592187335
 20
8.277370122769333
 30
0.0
  0
ENDBLK
  5
B415
330
B40D
100
AcDbEntity
  8
0
100
AcDbBlockEnd
  0
BLOCK
  5
B421
330
B417
100
AcDbEntity
  8
0
100
AcDbBlockBegin
  2
*D14
 70
     1
 10
0.0
 20
0.0
 30
0.0
  3
*D14
  1

  0
LINE
  5
B5B0
330
B417
100
AcDbEntity
  8
AM_5
 62
     3
370
    -2
100
AcDbLine
 10
-6.93928519291649
 20
16.0
 30
0.0
 11
-18.67045278032463
 21
16.0
 31
0.0
  0
LINE
  5
B5B1
330
B417
100
AcDbEntity
  8
AM_5
 62
     3
370
    -2
100
AcDbLine
 10
1.500132201468653
 20
-0.000000000000001
 30
0.0
 11
-18.67045278032464
 21
0.0000000000000047
 31
0.0
  0
LINE
  5
B5B2
330
B417
100
AcDbEntity
  8
AM_5
 62
     3
370
    -2
100
AcDbLine
 10
-17.67045278032464
 20
13.5
 30
0.0
 11
-17.67045278032464
 21
2.500000000000004
 31
0.0
  0
INSERT
  5
B5B3
330
B417
100
AcDbEntity
  8
AM_5
 62
     3
370
    -2
100
AcDbBlockReference
  2
_OPEN30
 10
-17.67045278032464
 20
16.0
 30
0.0
 41
2.5
 42
2.5
 43
2.5
 50
90.0
  0
INSERT
  5
B5B4
330
B417
100
AcDbEntity
  8
AM_5
 62
     3
370
    -2
100
AcDbBlockReference
  2
_OPEN30
 10
-17.67045278032464
 20
0.0000000000000044
 30
0.0
 41
2.5
 42
2.5
 43
2.5
 50
270.0
  0
MTEXT
  5
B5B5
330
B417
100
AcDbEntity
  8
AM_5
 62
     2
100
AcDbMText
 10
-21.07045278032464
 20
8.0
 30
0.0
 40
3.799999999999998
 41
0.0
 71
     5
 72
     1
  1
16
 11
0.0000000000000001
 21
1.0
 31
0.0
 73
     1
 44
1.0
1001
ACAD
1000
MTEXTBEGIN
1070
    73
1070
     1
1070
    44
1040
1.0
1070
    74
1070
     0
1000
MTEXTEND
  0
POINT
  5
B5B6
330
B417
100
AcDbEntity
  8
DEFPOINTS
 62
     0
100
AcDbPoint
 10
-6.93928519291649
 20
16.0
 30
0.0
  0
POINT
  5
B5B7
330
B417
100
AcDbEntity
  8
DEFPOINTS
 62
     0
100
AcDbPoint
 10
1.500132201468653
 20
-0.000000000000001
 30
0.0
  0
POINT
  5
B5B8
330
B417
100
AcDbEntity
  8
DEFPOINTS
 62
     0
100
AcDbPoint
 10
-17.67045278032464
 20
0.0000000000000044
 30
0.0
  0
ENDBLK
  5
B422
330
B417
100
AcDbEntity
  8
0
100
AcDbBlockEnd
  0
BLOCK
  5
B430
330
B424
100
AcDbEntity
  8
0
100
AcDbBlockBegin
  2
*D15
 70
     1
 10
0.0
 20
0.0
 30
0.0
  3
*D15
  1

  0
LINE
  5
B5B9
330
B424
100
AcDbEntity
  8
AM_5
 62
     3
370
    -2
100
AcDbLine
 10
3.00009732977582
 20
0.2587248741755831
 30
0.0
 11
3.000097329775819
 21
-16.54847766973441
 31
0.0
  0
LINE
  5
B5BA
330
B424
100
AcDbEntity
  8
AM_5
 62
     3
370
    -2
100
AcDbLine
 10
0.0000160380697959
 20
0.2492068574207443
 30
0.0
 11
0.0000160380697949
 21
-16.54847766973441
 31
0.0
  0
LINE
  5
B5BB
330
B424
100
AcDbEntity
  8
AM_5
 62
     3
370
    -2
100
AcDbLine
 10
5.500097329775819
 20
-15.54847766973441
 30
0.0
 11
8.000097329775819
 21
-15.54847766973441
 31
0.0
  0
LINE
  5
B5BC
330
B424
100
AcDbEntity
  8
AM_5
 62
     3
370
    -2
100
AcDbLine
 10
-2.499983961930205
 20
-15.54847766973441
 30
0.0
 11
-9.677385115631981
 21
-15.54847766973441
 31
0.0
  0
LINE
  5
B5BD
330
B424
100
AcDbEntity
  8
AM_5
 62
     3
370
    -2
100
AcDbLine
 10
3.000097329775819
 20
-15.54847766973441
 30
0.0
 11
0.0000160380697949
 21
-15.54847766973441
 31
0.0
  0
INSERT
  5
B5BE
330
B424
100
AcDbEntity
  8
AM_5
 62
     3
370
    -2
100
AcDbBlockReference
  2
_OPEN30
 10
3.000097329775819
 20
-15.54847766973441
 30
0.0
 41
2.5
 42
2.5
 43
2.5
 50
180.0
  0
INSERT
  5
B5BF
330
B424
100
AcDbEntity
  8
AM_5
 62
     3
370
    -2
100
AcDbBlockReference
  2
_OPEN30
 10
0.0000160380697949
 20
-15.54847766973441
 30
0.0
 41
2.5
 42
2.5
 43
2.5
  0
MTEXT
  5
B5C0
330
B424
100
AcDbEntity
  8
AM_5
 62
     2
100
AcDbMText
 10
-7.338684538781093
 20
-12.14847766973441
 30
0.0
 40
3.799999999999998
 41
0.0
 71
     5
 72
     1
  1
3
 73
     1
 44
1.0
1001
ACAD
1000
MTEXTBEGIN
1070
    73
1070
     1
1070
    44
1040
1.0
1070
    74
1070
     0
1000
MTEXTEND
  0
POINT
  5
B5C1
330
B424
100
AcDbEntity
  8
DEFPOINTS
 62
     0
100
AcDbPoint
 10
3.00009732977582
 20
0.2587248741755831
 30
0.0
  0
POINT
  5
B5C2
330
B424
100
AcDbEntity
  8
DEFPOINTS
 62
     0
100
AcDbPoint
 10
0.0000160380697959
 20
0.2492068574207443
 30
0.0
  0
POINT
  5
B5C3
330
B424
100
AcDbEntity
  8
DEFPOINTS
 62
     0
100
AcDbPoint
 10
0.0000160380697949
 20
-15.54847766973441
 30
0.0
  0
ENDBLK
  5
B431
330
B424
100
AcDbEntity
  8
0
100
AcDbBlockEnd
  0
BLOCK
  5
B43C
330
B433
100
AcDbEntity
  8
0
100
AcDbBlockBegin
  2
*D16
 70
     1
 10
0.0
 20
0.0
 30
0.0
  3
*D16
  1

  0
LINE
  5
B5C4
330
B433
100
AcDbEntity
  8
AM_5
370
    -2
100
AcDbLine
 10
-41.75640521348041
 20
-3.066023662309977
 30
0.0
 11
-51.08462962292922
 21
-3.066023662309977
 31
0.0
  0
LINE
  5
B5C5
330
B433
100
AcDbEntity
  8
AM_5
370
    -2
100
AcDbLine
 10
-51.08462962292922
 20
-3.066023662309977
 30
0.0
 11
-55.23323060427834
 21
1.855288280566593
 31
0.0
  0
LINE
  5
B5C6
330
B433
100
AcDbEntity
  8
AM_5
370
    -2
100
AcDbLine
 10
-79.08084099812064
 20
30.14471171943336
 30
0.0
 11
-80.6921660247316
 21
32.05615924908652
 31
0.0
  0
MTEXT
  5
B5C7
330
B433
100
AcDbEntity
  8
AM_5
 62
     2
100
AcDbMText
 10
-45.67051741820482
 20
0.3343503534380505
 30
0.0
 40
3.799999999999998
 41
0.0
 71
     5
 72
     1
  1
\U+220532
 73
     1
 44
1.0
1001
ACAD
1000
MTEXTBEGIN
1070
    73
1070
     1
1070
    44
1040
1.0
1070
    74
1070
     0
1000
MTEXTEND
  0
LINE
  5
B5C8
330
B433
100
AcDbEntity
  8
AM_5
370
    -2
100
AcDbLine
 10
-77.46951597150967
 20
28.2332641897802
 30
0.0
 11
-56.84455563088931
 21
3.766735810219753
 31
0.0
  0
INSERT
  5
B5C9
330
B433
100
AcDbEntity
  8
AM_5
370
    -2
100
AcDbBlockReference
  2
_OPEN30
 10
-77.46951597150967
 20
28.2332641897802
 30
0.0
 41
2.5
 42
2.5
 43
2.5
 50
310.1304464238495
  0
INSERT
  5
B5CA
330
B433
100
AcDbEntity
  8
AM_5
370
    -2
100
AcDbBlockReference
  2
_OPEN30
 10
-56.84455563088931
 20
3.766735810219753
 30
0.0
 41
2.5
 42
2.5
 43
2.5
 50
130.1304464238495
  0
POINT
  5
B5CB
330
B433
100
AcDbEntity
  8
DEFPOINTS
 62
     0
100
AcDbPoint
 10
-56.84455563088931
 20
3.766735810219753
 30
0.0
  0
POINT
  5
B5CC
330
B433
100
AcDbEntity
  8
DEFPOINTS
 62
     0
100
AcDbPoint
 10
-77.46951597150967
 20
28.2332641897802
 30
0.0
  0
ENDBLK
  5
B43D
330
B433
100
AcDbEntity
  8
0
100
AcDbBlockEnd
  0
ENDSEC
  0
SECTION
  2
ENTITIES
  0
TEXT
  5
83BD
330
1F
100
AcDbEntity
  8
AM_6
100
AcDbText
 10
90.53067744691125
 20
-90.22050090627633
 30
0.0
 40
5.0
  1
GMIR325
 72
     4
 11
102.7547890992629
 21
-87.72050090627633
 31
0.0
100
AcDbText
  0
LINE
  5
B1C5
330
1F
100
AcDbEntity
  8
AM_0
 48
0.3
100
AcDbLine
 10
15.8071944568888
 20
-54.6323714010194
 30
0.0
 11
7.192835102943902
 21
-54.6323714010194
 31
0.0
  0
LINE
  5
B1C6
330
1F
100
AcDbEntity
  8
AM_0
 48
0.3
100
AcDbLine
 10
16.50001477991641
 20
-55.03237140101944
 30
0.0
 11
11.50001477991641
 21
-55.03237140101944
 31
0.0
  0
LINE
  5
B1C9
330
1F
100
AcDbEntity
  8
AM_0
 48
0.3
100
AcDbLine
 10
16.50001477991641
 20
-55.03237140101944
 30
0.0
 11
16.50001477991641
 21
-56.6323714010194
 31
0.0
  0
LINE
  5
B1CA
330
1F
100
AcDbEntity
  8
AM_0
 48
0.3
100
AcDbLine
 10
16.50001477991641
 20
-55.03237140101944
 30
0.0
 11
15.8071944568888
 21
-54.6323714010194
 31
0.0
  0
LINE
  5
B1D9
330
1F
100
AcDbEntity
  8
AM_7
100
AcDbLine
 10
11.50001477991641
 20
-72.17751227049473
 30
0.0
 11
11.50001477991641
 21
-52.99787270004475
 31
0.0
  0
LINE
  5
B1DA
330
1F
100
AcDbEntity
  8
AM_0
 48
0.3
100
AcDbLine
 10
11.50001477991641
 20
-55.03237140101944
 30
0.0
 11
6.500014779916356
 21
-55.03237140101944
 31
0.0
  0
LINE
  5
B1DB
330
1F
100
AcDbEntity
  8
AM_0
 48
0.3
100
AcDbLine
 10
6.500014779916356
 20
-55.03237140101944
 30
0.0
 11
6.500014779916356
 21
-56.6323714010194
 31
0.0
  0
LINE
  5
B1DC
330
1F
100
AcDbEntity
  8
AM_0
 48
0.3
100
AcDbLine
 10
6.500014779916356
 20
-55.03237140101944
 30
0.0
 11
7.192835102943902
 21
-54.6323714010194
 31
0.0
  0
LINE
  5
B292
330
1F
100
AcDbEntity
  8
AM_7
100
AcDbLine
 10
207.4791716778178
 20
15.99999999999995
 30
0.0
 11
-6.93928519291649
 21
16.0
 31
0.0
  0
LINE
  5
B293
330
1F
100
AcDbEntity
  8
AM_0
100
AcDbLine
 10
200.0000147799163
 20
27.49999999999995
 30
0.0
 11
109.3941976468574
 21
27.49999999999997
 31
0.0
  0
LINE
  5
B294
330
1F
100
AcDbEntity
  8
AM_0
100
AcDbLine
 10
200.0000147799163
 20
4.499999999999945
 30
0.0
 11
109.7945439983041
 21
4.49999999999997
 31
0.0
  0
LINE
  5
B295
330
1F
100
AcDbEntity
  8
AM_0
100
AcDbLine
 10
0.5000147799163361
 20
5.099999999999979
 30
0.0
 11
0.5000147799163672
 21
27.5
 31
0.0
  0
LINE
  5
B296
330
1F
100
AcDbEntity
  8
AM_0
100
AcDbLine
 10
200.0000147799163
 20
27.49999999999995
 30
0.0
 11
200.0000147799163
 21
4.499999999999945
 31
0.0
  0
ARC
  5
B297
330
1F
100
AcDbEntity
  8
AM_0
100
AcDbCircle
 10
100.2500147799163
 20
15.99999999999996
 30
0.0
 40
12.5
100
AcDbArc
 50
23.07391806563096
 51
66.92608193436881
  0
LINE
  5
B299
330
1F
100
AcDbEntity
  8
AM_7
100
AcDbLine
 10
100.2500147799163
 20
34.34771660456246
 30
0.0
 11
100.2500147799163
 21
-4.451110877929095
 31
0.0
  0
LINE
  5
B29A
330
1F
100
AcDbEntity
  8
AM_0
100
AcDbLine
 10
88.75001477991634
 20
20.89897948556633
 30
0.0
 11
88.75001477991634
 21
11.1010205144336
 31
0.0
  0
LINE
  5
B29B
330
1F
100
AcDbEntity
  8
AM_0
100
AcDbLine
 10
111.7500147799163
 20
20.89897948556631
 30
0.0
 11
111.7500147799163
 21
11.1010205144336
 31
0.0
  0
ARC
  5
B29C
330
1F
100
AcDbEntity
  8
AM_0
100
AcDbCircle
 10
100.2500147799163
 20
15.99999999999996
 30
0.0
 40
12.5
100
AcDbArc
 50
203.0739180656309
 51
246.9260819343694
  0
LINE
  5
B29D
330
1F
100
AcDbEntity
  8
AM_0
100
AcDbLine
 10
90.57789630437502
 20
27.49999999999997
 30
0.0
 11
0.5000147799163672
 21
27.5
 31
0.0
  0
LINE
  5
B29E
330
1F
100
AcDbEntity
  8
AM_0
100
AcDbLine
 10
89.37685534799413
 20
4.499999999999973
 30
0.0
 11
2.770132201468634
 21
4.499999999999999
 31
0.0
  0
LINE
  5
B29F
330
1F
100
AcDbEntity
  8
AM_0
100
AcDbLine
 10
95.35103529434996
 20
4.499999999999959
 30
0.0
 11
105.1489942654826
 21
4.499999999999971
 31
0.0
  0
LINE
  5
B2A0
330
1F
100
AcDbEntity
  8
AM_0
100
AcDbLine
 10
95.35103529434998
 20
27.49999999999996
 30
0.0
 11
105.1489942654826
 21
27.49999999999996
 31
0.0
  0
ARC
  5
B2A1
330
1F
100
AcDbEntity
  8
AM_0
100
AcDbCircle
 10
100.2500147799163
 20
15.99999999999996
 30
0.0
 40
12.5
100
AcDbArc
 50
113.0739180656311
 51
156.9260819343688
  0
ARC
  5
B2A2
330
1F
100
AcDbEntity
  8
AM_0
100
AcDbCircle
 10
100.2500147799163
 20
15.99999999999996
 30
0.0
 40
12.5
100
AcDbArc
 50
293.0739180656307
 51
336.926081934369
  0
LINE
  5
B2A3
330
1F
100
AcDbEntity
  8
AM_0
100
AcDbLine
 10
32.70001477991632
 20
20.89897948556634
 30
0.0
 11
85.46782151360662
 21
20.89897948556633
 31
0.0
  0
LINE
  5
B2A4
330
1F
100
AcDbEntity
  8
AM_0
100
AcDbLine
 10
115.3392247035814
 20
20.89897948556632
 30
0.0
 11
199.0000147799163
 21
20.8989794855663
 31
0.0
  0
LINE
  5
B2A5
330
1F
100
AcDbEntity
  8
AM_0
100
AcDbLine
 10
115.3392247035814
 20
11.1010205144336
 30
0.0
 11
199.0000147799163
 21
11.10102051443358
 31
0.0
  0
LINE
  5
B2A6
330
1F
100
AcDbEntity
  8
AM_0
100
AcDbLine
 10
32.70001477991632
 20
11.10102051443361
 30
0.0
 11
85.46782151360662
 21
11.10102051443361
 31
0.0
  0
LINE
  5
B2A7
330
1F
100
AcDbEntity
  8
AM_7
100
AcDbLine
 10
207.4791716778178
 20
-64.66237140101947
 30
0.0
 11
-3.008010792745621
 21
-64.66237140101942
 31
0.0
  0
LINE
  5
B2A8
330
1F
100
AcDbEntity
  8
AM_0
100
AcDbLine
 10
32.70001477991631
 20
-69.56135088658578
 30
0.0
 11
115.3392247035814
 21
-69.5613508865858
 31
0.0
  0
LINE
  5
B2A9
330
1F
100
AcDbEntity
  8
AM_0
100
AcDbLine
 10
32.70001477991631
 20
-59.76339191545307
 30
0.0
 11
115.3392247035814
 21
-59.76339191545308
 31
0.0
  0
LINE
  5
B2AA
330
1F
100
AcDbEntity
  8
AM_0
100
AcDbLine
 10
109.3941976468574
 20
-53.16237140101946
 30
0.0
 11
25.00001477991633
 21
-53.16237140101939
 31
0.0
  0
LINE
  5
B2AB
330
1F
100
AcDbEntity
  8
AM_0
100
AcDbLine
 10
109.7945439983041
 20
-76.16237140101945
 30
0.0
 11
2.700014779916313
 21
-76.1623714010194
 31
0.0
  0
LINE
  5
B2AC
330
1F
100
AcDbEntity
  8
AM_0
100
AcDbLine
 10
0.5000147799163257
 20
-78.6623714010194
 30
0.0
 11
0.5000147799163269
 21
-70.17072701839452
 31
0.0
  0
LINE
  5
B2AD
330
1F
100
AcDbEntity
  8
AM_0
100
AcDbLine
 10
115.3392247035814
 20
-69.5613508865858
 30
0.0
 11
199.0000147799163
 21
-69.56135088658584
 31
0.0
  0
LINE
  5
B2AE
330
1F
100
AcDbEntity
  8
AM_0
100
AcDbLine
 10
115.3392247035814
 20
-59.76339191545308
 30
0.0
 11
199.0000147799163
 21
-59.76339191545309
 31
0.0
  0
LINE
  5
B2AF
330
1F
100
AcDbEntity
  8
AM_0
100
AcDbLine
 10
200.0000147799163
 20
-53.16237140101947
 30
0.0
 11
109.3941976468574
 21
-53.16237140101946
 31
0.0
  0
LINE
  5
B2B0
330
1F
100
AcDbEntity
  8
AM_0
100
AcDbLine
 10
200.0000147799163
 20
-76.16237140101947
 30
0.0
 11
109.7945439983041
 21
-76.16237140101945
 31
0.0
  0
LINE
  5
B2B1
330
1F
100
AcDbEntity
  8
AM_0
100
AcDbLine
 10
200.0000147799163
 20
-53.16237140101947
 30
0.0
 11
200.0000147799163
 21
-76.16237140101947
 31
0.0
  0
LINE
  5
B2B3
330
1F
100
AcDbEntity
  8
AM_0
100
AcDbLine
 10
2.700014779916313
 20
-78.6623714010194
 30
0.0
 11
2.700014779916343
 21
-70.06237140101942
 31
0.0
  0
LINE
  5
B2B4
330
1F
100
AcDbEntity
  8
AM_0
100
AcDbLine
 10
32.70001477991631
 20
-76.1623714010194
 30
0.0
 11
32.70001477991631
 21
-69.3613508865858
 31
0.0
  0
LINE
  5
B2B5
330
1F
100
AcDbEntity
  8
AM_0
100
AcDbLine
 10
2.700014779916313
 20
-78.6623714010194
 30
0.0
 11
0.5000147799163257
 21
-78.6623714010194
 31
0.0
  0
LINE
  5
B2BD
330
1F
100
AcDbEntity
  8
AM_0
100
AcDbLine
 10
1.500014779916326
 20
-71.16658496339248
 30
0.0
 11
2.60001477991632
 21
-70.0665849633925
 31
0.0
  0
LINE
  5
B2BE
330
1F
100
AcDbEntity
  8
AM_0
100
AcDbLine
 10
1.500014779916326
 20
-71.16658496339248
 30
0.0
 11
0.4000147799163324
 21
-70.0665849633925
 31
0.0
  0
LINE
  5
B2C0
330
1F
100
AcDbEntity
  8
AM_0
100
AcDbLine
 10
5.000014779916326
 20
-70.06237140101942
 30
0.0
 11
2.60001477991632
 21
-70.06237140101942
 31
0.0
  0
LINE
  5
B2C2
330
1F
100
AcDbEntity
  8
AM_0
100
AcDbLine
 10
5.000014779916327
 20
-63.7623714010194
 30
0.0
 11
5.000014779916326
 21
-70.0665849633925
 31
0.0
  0
LINE
  5
B2C3
330
1F
100
AcDbEntity
  8
AM_0
100
AcDbLine
 10
5.000014779916326
 20
-69.36135088658577
 30
0.0
 11
32.70001477991634
 21
-69.3613508865858
 31
0.0
  0
LINE
  5
B2C5
330
1F
100
AcDbEntity
  8
AM_0
100
AcDbLine
 10
25.00001477991633
 20
-58.2623714010194
 30
0.0
 11
22.60001477991635
 21
-58.2623714010194
 31
0.0
  0
LINE
  5
B2C6
330
1F
100
AcDbEntity
  8
AM_0
100
AcDbLine
 10
22.60001477991635
 20
-56.6323714010194
 30
0.0
 11
22.60001477991635
 21
-66.1623714010194
 31
0.0
  0
LINE
  5
B2C7
330
1F
100
AcDbEntity
  8
AM_0
100
AcDbLine
 10
25.00001477991633
 20
-53.16237140101939
 30
0.0
 11
25.00001477991633
 21
-58.2623714010194
 31
0.0
  0
LINE
  5
B2C9
330
1F
100
AcDbEntity
  8
AM_0
100
AcDbLine
 10
22.60001477991632
 20
-66.1623714010194
 30
0.0
 11
19.40001477991632
 21
-66.1623714010194
 31
0.0
  0
LINE
  5
B2CA
330
1F
100
AcDbEntity
  8
AM_0
100
AcDbLine
 10
19.4000147799163
 20
-63.7623714010194
 30
0.0
 11
19.40001477991636
 21
-66.1623714010194
 31
0.0
  0
LINE
  5
B2CB
330
1F
100
AcDbEntity
  8
AM_0
100
AcDbLine
 10
23.40001477991633
 20
-58.2623714010194
 30
0.0
 11
23.40001477991636
 21
-64.66237140101944
 31
0.0
  0
LINE
  5
B2CC
330
1F
100
AcDbEntity
  8
AM_0
100
AcDbLine
 10
23.40001477991633
 20
-59.96339191545306
 30
0.0
 11
32.70001477991634
 21
-59.96339191545306
 31
0.0
  0
LINE
  5
B2CD
330
1F
100
AcDbEntity
  8
AM_0
100
AcDbLine
 10
5.000014779916327
 20
-64.66237140101942
 30
0.0
 11
19.40001477991632
 21
-64.66237140101942
 31
0.0
  0
LINE
  5
B2CE
330
1F
100
AcDbEntity
  8
AM_0
100
AcDbLine
 10
199.0000147799163
 20
-53.16237140101947
 30
0.0
 11
199.0000147799163
 21
-59.76339191545309
 31
0.0
  0
ARC
  5
B2CF
330
1F
100
AcDbEntity
  8
AM_0
100
AcDbCircle
 10
187.5000147799163
 20
-64.66237140101947
 30
0.0
 40
12.5
100
AcDbArc
 50
336.926081934369
 51
23.07391806563096
  0
LINE
  5
B2D0
330
1F
100
AcDbEntity
  8
AM_0
100
AcDbLine
 10
199.0000147799163
 20
-69.56135088658584
 30
0.0
 11
199.0000147799163
 21
-76.16237140101947
 31
0.0
  0
ARC
  5
B2D1
330
1F
100
AcDbEntity
  8
AM_0
100
AcDbCircle
 10
187.5000147799163
 20
15.99999999999995
 30
0.0
 40
12.5
100
AcDbArc
 50
336.926081934369
 51
23.07391806563096
  0
LINE
  5
B2D3
330
1F
100
AcDbEntity
  8
AM_0
100
AcDbLine
 10
199.0000147799163
 20
11.10102051443359
 30
0.0
 11
199.0000147799163
 21
4.49999999999996
 31
0.0
  0
LINE
  5
B2D4
330
1F
100
AcDbEntity
  8
AM_0
100
AcDbLine
 10
199.0000147799163
 20
27.49999999999996
 30
0.0
 11
199.0000147799163
 21
20.89897948556632
 31
0.0
  0
LINE
  5
B2D6
330
1F
100
AcDbEntity
  8
AM_0
100
AcDbLine
 10
32.70001477991631
 20
-59.96339191545306
 30
0.0
 11
32.70001477991631
 21
-53.1623714010194
 31
0.0
  0
LINE
  5
B2D8
330
1F
100
AcDbEntity
  8
AM_0
100
AcDbLine
 10
32.70001477991632
 20
20.69897948556636
 30
0.0
 11
32.70001477991634
 21
27.5
 31
0.0
  0
LINE
  5
B2D9
330
1F
100
AcDbEntity
  8
AM_0
100
AcDbLine
 10
25.00001477991634
 20
20.69897948556635
 30
0.0
 11
32.70001477991634
 21
20.69897948556635
 31
0.0
  0
LINE
  5
B2DA
330
1F
100
AcDbEntity
  8
AM_0
100
AcDbLine
 10
25.00001477991634
 20
11.30102051443364
 30
0.0
 11
32.70001477991634
 21
11.30102051443363
 31
0.0
  0
LINE
  5
B2DB
330
1F
100
AcDbEntity
  8
AM_0
100
AcDbLine
 10
32.70001477991632
 20
4.499999999999994
 30
0.0
 11
32.70001477991632
 21
11.30102051443363
 31
0.0
  0
LINE
  5
B2DD
330
1F
100
AcDbEntity
  8
AM_0
100
AcDbLine
 10
25.00001477991637
 20
27.49999999999998
 30
0.0
 11
25.00001477991634
 21
4.499999999999981
 31
0.0
  0
LINE
  5
B2DE
330
1F
100
AcDbEntity
  8
AM_0
100
AcDbLine
 10
20.40001477991628
 20
25.09999999999998
 30
0.0
 11
0.5000147799163385
 21
25.09999999999999
 31
0.0
  0
LINE
  5
B2DF
330
1F
100
AcDbEntity
  8
AM_0
100
AcDbLine
 10
23.40001477991634
 20
22.29571161898669
 30
0.0
 11
23.40001477991634
 21
4.499999999999981
 31
0.0
  0
ARC
  5
B2E0
330
1F
100
AcDbEntity
  8
AM_0
100
AcDbCircle
 10
20.40001477991628
 20
22.09999999999992
 30
0.0
 40
3.0
100
AcDbArc
 50
3.732527506581924
 51
89.99999999999896
  0
LINE
  5
B2E2
330
1F
100
AcDbEntity
  8
AM_0
100
AcDbLine
 10
22.60001477991636
 20
21.89999999999996
 30
0.0
 11
22.60001477991636
 21
4.499999999999981
 31
0.0
  0
ARC
  5
B2E4
330
1F
100
AcDbEntity
  8
AM_0
100
AcDbCircle
 10
21.00001477991636
 20
21.89999999999996
 30
0.0
 40
1.600000000000015
100
AcDbArc
 50
0.0
 51
114.2951889453644
  0
LINE
  5
B2E6
330
1F
100
AcDbEntity
  8
AM_7
100
AcDbLine
 10
11.50001477991636
 20
22.30853406351934
 30
0.0
 11
11.50001477991636
 21
8.598985958290539
 31
0.0
  0
LINE
  5
B2E7
330
1F
100
AcDbEntity
  8
AM_7
100
AcDbLine
 10
18.0950954616926
 20
15.59999999999998
 30
0.0
 11
3.80739594618944
 21
15.59999999999999
 31
0.0
  0
LINE
  5
B2E8
330
1F
100
AcDbEntity
  8
AM_0
100
AcDbLine
 10
5.000014779916336
 20
4.499999999999998
 30
0.0
 11
5.000014779916336
 21
5.899999999999989
 31
0.0
  0
LINE
  5
B2EA
330
1F
100
AcDbEntity
  8
AM_7
100
AcDbLine
 10
-67.15703580119953
 20
34.34771660456249
 30
0.0
 11
-67.15703580119953
 21
25.09999999999998
 31
0.0
  0
ARC
  5
B2EB
330
1F
100
AcDbEntity
  8
AM_0
100
AcDbCircle
 10
-67.15703580119954
 20
15.99999999999999
 30
0.0
 40
12.5
100
AcDbArc
 50
23.07391806563096
 51
66.92608193436881
  0
ARC
  5
B2EC
330
1F
100
AcDbEntity
  8
AM_0
100
AcDbCircle
 10
-67.15703580119954
 20
15.99999999999999
 30
0.0
 40
12.5
100
AcDbArc
 50
113.0739180656311
 51
115.5945522783763
  0
LINE
  5
B2ED
330
1F
100
AcDbEntity
  8
AM_0
100
AcDbLine
 10
-68.05472675670715
 20
4.500000000000007
 30
0.0
 11
-62.25805631563317
 21
4.500000000000007
 31
0.0
  0
ARC
  5
B2F0
330
1F
100
AcDbEntity
  8
AM_0
100
AcDbCircle
 10
-67.15703580119954
 20
15.99999999999999
 30
0.0
 40
12.5
100
AcDbArc
 50
293.0739180656307
 51
299.3081092355251
  0
LINE
  5
B2F1
330
1F
100
AcDbEntity
  8
AM_0
100
AcDbLine
 10
-55.65703580119953
 20
20.89897948556635
 30
0.0
 11
-55.65703580119953
 21
11.10102051443365
 31
0.0
  0
LINE
  5
B2F2
330
1F
100
AcDbEntity
  8
AM_0
100
AcDbLine
 10
-72.0560152867659
 20
27.49999999999999
 30
0.0
 11
-62.25805631563317
 21
27.49999999999999
 31
0.0
  0
LINE
  5
B2F3
330
1F
100
AcDbEntity
  8
AM_0
100
AcDbLine
 10
-60.75703580119946
 20
26.73731810090395
 30
0.0
 11
-60.75703580119951
 21
25.09999999999999
 31
0.0
  0
LINE
  5
B2F4
330
1F
100
AcDbEntity
  8
AM_0
100
AcDbLine
 10
-67.15703580119953
 20
27.49999999999999
 30
0.0
 11
-67.15703580119953
 21
25.09999999999997
 31
0.0
  0
LINE
  5
B2F5
330
1F
100
AcDbEntity
  8
AM_0
100
AcDbLine
 10
-59.1570358011995
 20
25.09999999999999
 30
0.0
 11
-68.65703580119952
 21
25.09999999999997
 31
0.0
  0
LINE
  5
B310
330
1F
100
AcDbEntity
  8
AM_0
100
AcDbLine
 10
-72.5570358011995
 20
27.41665591397403
 30
0.0
 11
-72.5570358011995
 21
25.7750635094611
 31
0.0
  0
ARC
  5
B313
330
1F
100
AcDbEntity
  8
AM_0
100
AcDbCircle
 10
-67.15703580119954
 20
14.49999999999999
 30
0.0
 40
14.0
100
AcDbArc
 50
112.6880911508708
 51
247.311908849129
  0
LINE
  5
B316
330
1F
100
AcDbEntity
  8
AM_7
100
AcDbLine
 10
-66.69894270538612
 20
23.60999999999999
 30
0.0
 11
-75.63530398648026
 21
23.60999999999999
 31
0.0
  0
LINE
  5
B317
330
1F
100
AcDbEntity
  8
AM_7
100
AcDbLine
 10
-71.3070358011995
 20
28.11638852129852
 30
0.0
 11
-71.3070358011995
 21
18.81664945181672
 31
0.0
  0
CIRCLE
  5
B318
330
1F
100
AcDbEntity
  8
AM_0
100
AcDbCircle
 10
-71.30703580119952
 20
23.61000000000001
 30
0.0
 40
2.5
  0
LINE
  5
B319
330
1F
100
AcDbEntity
  8
AM_0
100
AcDbLine
 10
-72.5570358011995
 20
20.69853662398391
 30
0.0
 11
-72.5570358011995
 21
1.583344086025982
 31
0.0
  0
LINE
  5
B31A
330
1F
100
AcDbEntity
  8
AM_7
100
AcDbLine
 10
-47.72078060583589
 20
16.0
 30
0.0
 11
-87.36653101664069
 21
16.00000000000001
 31
0.0
  0
LINE
  5
B31C
102
{ACAD_REACTORS
330
B337
102
}
330
1F
100
AcDbEntity
  8
AM_0
100
AcDbLine
 10
0.2301322014686736
 20
18.2249999999999
 30
0.0
 11
0.2301322014686721
 21
6.300000000000011
 31
0.0
  0
LINE
  5
B31D
102
{ACAD_REACTORS
330
B337
102
}
330
1F
100
AcDbEntity
  8
AM_0
100
AcDbLine
 10
2.770132201468634
 20
5.099999999999979
 30
0.0
 11
2.770132201468634
 21
3.999999999999998
 31
0.0
  0
LINE
  5
B31E
102
{ACAD_REACTORS
330
B337
102
}
330
1F
100
AcDbEntity
  8
AM_0
100
AcDbLine
 10
0.230132201468673
 20
13.30000000000001
 30
0.0
 11
0.2301322014686719
 21
3.999999999999999
 31
0.0
  0
LINE
  5
B320
102
{ACAD_REACTORS
330
B337
102
}
330
1F
100
AcDbEntity
  8
AM_0
100
AcDbLine
 10
0.0821095374620703
 20
19.61542488434565
 30
0.0
 11
0.0000160380697986
 21
21.96627512582432
 31
0.0
  0
LINE
  5
B322
102
{ACAD_REACTORS
330
B337
102
}
330
1F
100
AcDbEntity
  8
AM_0
100
AcDbLine
 10
0.249863744824591
 20
22.2249999999999
 30
0.0
 11
0.5000147799163601
 21
22.2249999999999
 31
0.0
  0
ARC
  5
B323
102
{ACAD_REACTORS
330
B337
102
}
330
1F
100
AcDbEntity
  8
AM_0
100
AcDbCircle
 10
0.2498637448245768
 20
21.97499999999989
 30
0.0
 40
0.25
100
AcDbArc
 50
90.0
 51
181.9999999999998
  0
LINE
  5
B327
102
{ACAD_REACTORS
330
B337
102
}
330
1F
100
AcDbEntity
  8
AM_0
100
AcDbLine
 10
0.1306642443438864
 20
18.2249999999999
 30
0.0
 11
0.5000147799163544
 21
18.2249999999999
 31
0.0
  0
LINE
  5
B328
102
{ACAD_REACTORS
330
B337
102
}
330
1F
100
AcDbEntity
  8
AM_0
100
AcDbLine
 10
0.2206642443439183
 20
18.2249999999999
 30
0.0
 11
0.4609811663769211
 21
18.2249999999999
 31
0.0
  0
LINE
  5
B329
102
{ACAD_REACTORS
330
B337
102
}
330
1F
100
AcDbEntity
  8
AM_0
100
AcDbLine
 10
0.1306642443438864
 20
18.2249999999999
 30
0.0
 11
0.0821095374620703
 21
19.61542488434565
 31
0.0
  0
ARC
  5
B32B
102
{ACAD_REACTORS
330
B337
102
}
330
1F
100
AcDbEntity
  8
AM_0
100
AcDbCircle
 10
2.750249623021026
 20
0.2499999999999704
 30
0.0
 40
0.25
100
AcDbArc
 50
270.0
 51
1.999999999999753
  0
ARC
  5
B32C
102
{ACAD_REACTORS
330
B337
102
}
330
1F
100
AcDbEntity
  8
AM_0
100
AcDbCircle
 10
0.2500147799163211
 20
0.2499999999999707
 30
0.0
 40
0.25
100
AcDbArc
 50
178.0000000000001
 51
270.0
  0
LINE
  5
B32D
102
{ACAD_REACTORS
330
B337
102
}
330
1F
100
AcDbEntity
  8
AM_0
100
AcDbLine
 10
0.1308152794356318
 20
3.999999999999999
 30
0.0
 11
2.869438161727878
 21
3.999999999999998
 31
0.0
  0
LINE
  5
B32F
102
{ACAD_REACTORS
330
B337
102
}
330
1F
100
AcDbEntity
  8
AM_0
100
AcDbLine
 10
0.1308152794356318
 20
3.999999999999999
 30
0.0
 11
0.000167073161543
 21
0.2587248741755834
 31
0.0
  0
LINE
  5
B330
102
{ACAD_REACTORS
330
B337
102
}
330
1F
100
AcDbEntity
  8
AM_0
100
AcDbLine
 10
2.869449123501675
 20
3.999999999999998
 30
0.0
 11
3.00009732977582
 21
0.2587248741755831
 31
0.0
  0
LINE
  5
B331
102
{ACAD_REACTORS
330
B337
102
}
330
1F
100
AcDbEntity
  8
AM_0
100
AcDbLine
 10
0.259014779916293
 20
-0.0000000000000009
 30
0.0
 11
1.500132201468653
 21
-0.000000000000001
 31
0.0
  0
LINE
  5
B332
102
{ACAD_REACTORS
330
B337
102
}
330
1F
100
AcDbEntity
  8
AM_0
100
AcDbLine
 10
2.741249623021012
 20
-0.0000000000000012
 30
0.0
 11
1.500132201468653
 21
-0.000000000000001
 31
0.0
  0
CIRCLE
  5
B33A
330
1F
100
AcDbEntity
  8
AM_0
100
AcDbCircle
 10
11.50001477991636
 20
15.59999999999998
 30
0.0
 40
5.299999999999998
  0
INSERT
  5
B33B
330
1F
100
AcDbEntity
  8
AM_0
100
AcDbBlockReference
  2
CBF06
 10
11.50001477991636
 20
15.59999999999999
 30
0.0
  0
LINE
  5
B33E
330
1F
100
AcDbEntity
  8
AM_0
100
AcDbLine
 10
18.60001477991636
 20
25.09999999999999
 30
0.0
 11
22.60001477991636
 21
21.09999999999998
 31
0.0
  0
LINE
  5
B341
330
1F
100
AcDbEntity
  8
AM_0
100
AcDbLine
 10
2.90001477991634
 20
5.099999999999993
 30
0.0
 11
2.90001477991634
 21
5.89999999999999
 31
0.0
  0
LINE
  5
B342
330
1F
100
AcDbEntity
  8
AM_0
100
AcDbLine
 10
2.90001477991634
 20
5.099999999999993
 30
0.0
 11
0.5000147799163361
 21
5.099999999999993
 31
0.0
  0
LINE
  5
B343
330
1F
100
AcDbEntity
  8
AM_0
100
AcDbLine
 10
2.90001477991634
 20
5.89999999999999
 30
0.0
 11
22.60001477991636
 21
5.899999999999973
 31
0.0
  0
LINE
  5
B344
330
1F
100
AcDbEntity
  8
AM_0
100
AcDbLine
 10
5.000014779916337
 20
25.09999999999999
 30
0.0
 11
5.000014779916367
 21
27.5
 31
0.0
  0
LINE
  5
B346
330
1F
100
AcDbEntity
  8
AM_0
100
AcDbLine
 10
7.530014779916284
 20
10.53999999999997
 30
0.0
 11
9.923182512362217
 21
10.53999999999997
 31
0.0
  0
LINE
  5
B349
330
1F
100
AcDbEntity
  8
AM_0
100
AcDbLine
 10
4.090215294491396
 20
13.99999999999993
 30
0.0
 11
0.5000147799163371
 21
13.99999999999993
 31
0.0
  0
LINE
  5
B34A
330
1F
100
AcDbEntity
  8
AM_0
100
AcDbLine
 10
4.090215294491396
 20
13.97979948542486
 30
0.0
 11
7.530014779916284
 21
10.53999999999997
 31
0.0
  0
LINE
  5
B34B
330
1F
100
AcDbEntity
  8
AM_0
100
AcDbLine
 10
7.530014779916284
 20
5.899999999999985
 30
0.0
 11
7.530014779916284
 21
10.53999999999997
 31
0.0
  0
LINE
  5
B34C
330
1F
100
AcDbEntity
  8
AM_0
100
AcDbLine
 10
4.090215294491396
 20
13.99999999999993
 30
0.0
 11
4.090215294491395
 21
5.899999999999989
 31
0.0
  0
LINE
  5
B34D
330
1F
100
AcDbEntity
  8
AM_0
100
AcDbLine
 10
13.0768470474705
 20
10.53999999999997
 30
0.0
 11
22.60001477991636
 21
10.53999999999995
 31
0.0
  0
LINE
  5
B34E
330
1F
100
AcDbEntity
  8
AM_0
100
AcDbLine
 10
1.60001477991636
 20
27.5
 30
0.0
 11
1.600014779916332
 21
25.09999999999999
 31
0.0
  0
LINE
  5
B34F
330
1F
100
AcDbEntity
  8
AM_0
100
AcDbLine
 10
2.700014779916383
 20
27.5
 30
0.0
 11
2.700014779916355
 21
25.09999999999999
 31
0.0
  0
LINE
  5
B350
102
{ACAD_REACTORS
330
B368
102
}
330
1F
100
AcDbEntity
  8
AM_0
100
AcDbLine
 10
-68.5570358011995
 20
4.000000000000007
 30
0.0
 11
-68.5570358011995
 21
18.2249999999999
 31
0.0
  0
LINE
  5
B354
102
{ACAD_REACTORS
330
B368
102
}
330
1F
100
AcDbEntity
  8
AM_0
100
AcDbLine
 10
-67.77418023367913
 20
3.500000000000007
 30
0.0
 11
-67.15703580119953
 21
0.0000000000000074
 31
0.0
  0
LINE
  5
B357
102
{ACAD_REACTORS
330
B368
102
}
330
1F
100
AcDbEntity
  8
AM_0
100
AcDbLine
 10
-67.15703580119953
 20
4.000000000000007
 30
0.0
 11
-71.25703580119949
 21
4.000000000000007
 31
0.0
  0
LINE
  5
B358
102
{ACAD_REACTORS
330
B368
102
}
330
1F
100
AcDbEntity
  8
AM_0
100
AcDbLine
 10
-67.77418023367913
 20
3.500000000000007
 30
0.0
 11
-67.15703580119953
 21
4.000000000000007
 31
0.0
  0
LINE
  5
B359
102
{ACAD_REACTORS
330
B368
102
}
330
1F
100
AcDbEntity
  8
AM_0
100
AcDbLine
 10
-67.15703580119953
 20
2.500000000000007
 30
0.0
 11
-67.50433215653334
 21
1.969615506024417
 31
0.0
  0
LINE
  5
B35A
102
{ACAD_REACTORS
330
B368
102
}
330
1F
100
AcDbEntity
  8
AM_0
100
AcDbLine
 10
-67.15703580119953
 20
4.000000000000007
 30
0.0
 11
-67.15703580119953
 21
2.500000000000007
 31
0.0
  0
LINE
  5
B35B
102
{ACAD_REACTORS
330
B368
102
}
330
1F
100
AcDbEntity
  8
AM_0
100
AcDbLine
 10
-71.25703580119949
 20
4.000000000000007
 30
0.0
 11
-72.57347703618211
 21
4.000000000000007
 31
0.0
  0
LINE
  5
B35C
102
{ACAD_REACTORS
330
B368
102
}
330
1F
100
AcDbEntity
  8
AM_0
100
AcDbLine
 10
-67.77418023367911
 20
18.62741621022145
 30
0.0
 11
-67.15703580119946
 21
22.12741621022145
 31
0.0
  0
LINE
  5
B35E
102
{ACAD_REACTORS
330
B368
102
}
330
1F
100
AcDbEntity
  8
AM_0
100
AcDbLine
 10
-67.15703580119946
 20
18.12741621022144
 30
0.0
 11
-71.25703580119949
 21
18.12741621022144
 31
0.0
  0
LINE
  5
B35F
102
{ACAD_REACTORS
330
B368
102
}
330
1F
100
AcDbEntity
  8
AM_0
100
AcDbLine
 10
-67.15703580119946
 20
18.12741621022144
 30
0.0
 11
-67.15703580119946
 21
19.62741621022145
 31
0.0
  0
LINE
  5
B360
102
{ACAD_REACTORS
330
B368
102
}
330
1F
100
AcDbEntity
  8
AM_0
100
AcDbLine
 10
-67.77418023367911
 20
18.62741621022145
 30
0.0
 11
-67.15703580119946
 21
18.12741621022144
 31
0.0
  0
LINE
  5
B361
102
{ACAD_REACTORS
330
B368
102
}
330
1F
100
AcDbEntity
  8
AM_0
100
AcDbLine
 10
-67.15703580119946
 20
19.62741621022145
 30
0.0
 11
-67.50433215653334
 21
20.15780070419703
 31
0.0
  0
LINE
  5
B366
102
{ACAD_REACTORS
330
B368
102
}
330
1F
100
AcDbEntity
  8
AM_0
100
AcDbLine
 10
-67.65703580119941
 20
0.0437443317629022
 30
0.0
 11
-67.15703580119953
 21
-0.0000000000000494
 31
0.0
  0
LINE
  5
B36B
102
{ACAD_REACTORS
330
B381
102
}
330
1F
100
AcDbEntity
  8
AM_0
100
AcDbLine
 10
-67.25703580119949
 20
22.11866734386886
 30
0.0
 11
-67.15703580119946
 21
22.12741621022145
 31
0.0
  0
LINE
  5
B36C
102
{ACAD_REACTORS
330
B381
102
}
330
1F
100
AcDbEntity
  8
AM_0
100
AcDbLine
 10
-67.77418023367911
 20
18.62741621022145
 30
0.0
 11
-67.15703580119946
 21
22.12741621022145
 31
0.0
  0
LINE
  5
B36F
102
{ACAD_REACTORS
330
B381
102
}
330
1F
100
AcDbEntity
  8
AM_0
100
AcDbLine
 10
-67.77418023367913
 20
3.500000000000007
 30
0.0
 11
-67.15703580119953
 21
0.0000000000000074
 31
0.0
  0
LINE
  5
B370
102
{ACAD_REACTORS
330
B381
102
}
330
1F
100
AcDbEntity
  8
AM_0
100
AcDbLine
 10
-67.65703580119941
 20
0.0437443317629022
 30
0.0
 11
-67.15703580119953
 21
-0.0000000000000494
 31
0.0
  0
LINE
  5
B372
102
{ACAD_REACTORS
330
B381
102
}
330
1F
100
AcDbEntity
  8
AM_0
100
AcDbLine
 10
-72.5570358011995
 20
1.518114198153406
 30
0.0
 11
-72.55703580119962
 21
18.21811419815339
 31
0.0
  0
LINE
  5
B373
102
{ACAD_REACTORS
330
B381
102
}
330
1F
100
AcDbEntity
  8
AM_0
100
AcDbLine
 10
-68.5570358011995
 20
4.000000000000007
 30
0.0
 11
-68.5570358011995
 21
18.2249999999999
 31
0.0
  0
LINE
  5
B374
102
{ACAD_REACTORS
330
B381
102
}
330
1F
100
AcDbEntity
  8
AM_0
100
AcDbLine
 10
-67.15703580119953
 20
4.000000000000007
 30
0.0
 11
-71.25703580119949
 21
4.000000000000007
 31
0.0
  0
LINE
  5
B375
102
{ACAD_REACTORS
330
B381
102
}
330
1F
100
AcDbEntity
  8
AM_0
100
AcDbLine
 10
-67.15703580119953
 20
4.000000000000007
 30
0.0
 11
-67.15703580119953
 21
2.500000000000007
 31
0.0
  0
LINE
  5
B376
102
{ACAD_REACTORS
330
B381
102
}
330
1F
100
AcDbEntity
  8
AM_0
100
AcDbLine
 10
-67.77418023367913
 20
3.500000000000007
 30
0.0
 11
-67.15703580119953
 21
4.000000000000007
 31
0.0
  0
LINE
  5
B377
102
{ACAD_REACTORS
330
B381
102
}
330
1F
100
AcDbEntity
  8
AM_0
100
AcDbLine
 10
-67.15703580119953
 20
2.500000000000007
 30
0.0
 11
-67.50433215653334
 21
1.969615506024417
 31
0.0
  0
LINE
  5
B378
102
{ACAD_REACTORS
330
B381
102
}
330
1F
100
AcDbEntity
  8
AM_0
100
AcDbLine
 10
-71.25703580119949
 20
4.000000000000007
 30
0.0
 11
-72.57347703618211
 21
4.000000000000007
 31
0.0
  0
LINE
  5
B379
102
{ACAD_REACTORS
330
B381
102
}
330
1F
100
AcDbEntity
  8
AM_0
100
AcDbLine
 10
-67.15703580119946
 20
18.12741621022144
 30
0.0
 11
-71.25703580119949
 21
18.12741621022144
 31
0.0
  0
LINE
  5
B37A
102
{ACAD_REACTORS
330
B381
102
}
330
1F
100
AcDbEntity
  8
AM_0
100
AcDbLine
 10
-67.15703580119946
 20
18.12741621022144
 30
0.0
 11
-67.15703580119946
 21
19.62741621022145
 31
0.0
  0
LINE
  5
B37B
102
{ACAD_REACTORS
330
B381
102
}
330
1F
100
AcDbEntity
  8
AM_0
100
AcDbLine
 10
-67.77418023367911
 20
18.62741621022145
 30
0.0
 11
-67.15703580119946
 21
18.12741621022144
 31
0.0
  0
LINE
  5
B37C
102
{ACAD_REACTORS
330
B381
102
}
330
1F
100
AcDbEntity
  8
AM_0
100
AcDbLine
 10
-67.15703580119946
 20
19.62741621022145
 30
0.0
 11
-67.50433215653334
 21
20.15780070419703
 31
0.0
  0
LINE
  5
B37E
102
{ACAD_REACTORS
330
B381
102
}
330
1F
100
AcDbEntity
  8
AM_0
100
AcDbLine
 10
-71.25703580119949
 20
18.12741621022144
 30
0.0
 11
-72.5570358011995
 21
18.12741621022145
 31
0.0
  0
LINE
  5
B387
330
1F
100
AcDbEntity
  8
AM_0
100
AcDbLine
 10
-73.27459983146678
 20
1.907327117105744
 30
0.0
 11
-73.27459983146678
 21
1.718734078443739
 31
0.0
  0
LINE
  5
B388
330
1F
100
AcDbEntity
  8
AM_0
100
AcDbLine
 10
-72.55703580119955
 20
20.69853662398391
 30
0.0
 11
-67.25703580119949
 21
22.11866734386886
 31
0.0
  0
LINE
  5
B38A
102
{ACAD_REACTORS
330
B396
102
}
330
1F
100
AcDbEntity
  8
AM_0
100
AcDbLine
 10
0.0000147799163274
 20
-64.66237140101942
 30
0.0
 11
1.500014779916327
 21
-64.66237140101942
 31
0.0
  0
LINE
  5
B38B
102
{ACAD_REACTORS
330
B396
102
}
330
1F
100
AcDbEntity
  8
AM_0
100
AcDbLine
 10
1.160001134523425
 20
-70.82657131799962
 30
0.0
 11
1.500014779916326
 21
-70.82657131799962
 31
0.0
  0
LINE
  5
B38C
102
{ACAD_REACTORS
330
B396
102
}
330
1F
100
AcDbEntity
  8
AM_0
100
AcDbLine
 10
-0.0038228376019872
 20
-64.6627071490472
 30
0.0
 11
0.4755649978265092
 21
-70.14213518130268
 31
0.0
  0
LINE
  5
B38E
102
{ACAD_REACTORS
330
B396
102
}
330
1F
100
AcDbEntity
  8
AM_0
100
AcDbLine
 10
0.2550147799163222
 20
-69.92158496339249
 30
0.0
 11
1.160001134523425
 21
-70.82657131799959
 31
0.0
  0
LINE
  5
B390
102
{ACAD_REACTORS
330
B396
102
}
330
1F
100
AcDbEntity
  8
AM_0
100
AcDbLine
 10
0.2550147799163222
 20
-69.92158496339249
 30
0.0
 11
0.2550147799163225
 21
-67.62123465520353
 31
0.0
  0
LINE
  5
B391
102
{ACAD_REACTORS
330
B396
102
}
330
1F
100
AcDbEntity
  8
AM_0
100
AcDbLine
 10
3.00385239743464
 20
-64.6627071490472
 30
0.0
 11
2.524464562006143
 21
-70.14213518130268
 31
0.0
  0
LINE
  5
B392
102
{ACAD_REACTORS
330
B396
102
}
330
1F
100
AcDbEntity
  8
AM_0
100
AcDbLine
 10
2.74501477991633
 20
-69.92158496339249
 30
0.0
 11
2.74501477991633
 21
-67.62123465520353
 31
0.0
  0
LINE
  5
B393
102
{ACAD_REACTORS
330
B396
102
}
330
1F
100
AcDbEntity
  8
AM_0
100
AcDbLine
 10
2.74501477991633
 20
-69.92158496339249
 30
0.0
 11
1.840028425309227
 21
-70.82657131799959
 31
0.0
  0
LINE
  5
B394
102
{ACAD_REACTORS
330
B396
102
}
330
1F
100
AcDbEntity
  8
AM_0
100
AcDbLine
 10
1.840028425309227
 20
-70.82657131799962
 30
0.0
 11
1.500014779916326
 21
-70.82657131799962
 31
0.0
  0
LINE
  5
B395
102
{ACAD_REACTORS
330
B396
102
}
330
1F
100
AcDbEntity
  8
AM_0
100
AcDbLine
 10
3.000014779916326
 20
-64.66237140101942
 30
0.0
 11
1.500014779916327
 21
-64.66237140101942
 31
0.0
  0
LINE
  5
B3AA
330
1F
100
AcDbEntity
  8
AM_0
100
AcDbLine
 10
0.5000147799163559
 20
-64.66237140101942
 30
0.0
 11
0.500014779916357
 21
-56.6323714010194
 31
0.0
  0
LINE
  5
B3AB
330
1F
100
AcDbEntity
  8
AM_0
100
AcDbLine
 10
2.900014779916361
 20
-64.66237140101942
 30
0.0
 11
2.900014779916361
 21
-63.7623714010194
 31
0.0
  0
LINE
  5
B3AC
330
1F
100
AcDbEntity
  8
AM_0
100
AcDbLine
 10
2.900014779916361
 20
-63.7623714010194
 30
0.0
 11
19.4000147799163
 21
-63.7623714010194
 31
0.0
  0
LINE
  5
B3AD
330
1F
100
AcDbEntity
  8
AM_0
100
AcDbLine
 10
22.60001477991632
 20
-65.1623714010194
 30
0.0
 11
19.40001477991632
 21
-65.1623714010194
 31
0.0
  0
LINE
  5
B3AE
330
1F
100
AcDbEntity
  8
AM_0
100
AcDbLine
 10
22.60001477991635
 20
-64.66237140101942
 30
0.0
 11
23.40001477991636
 21
-64.66237140101942
 31
0.0
  0
LINE
  5
B3AF
330
1F
100
AcDbEntity
  8
AM_0
100
AcDbLine
 10
22.60001477991632
 20
-56.6323714010194
 30
0.0
 11
0.500014779916357
 21
-56.6323714010194
 31
0.0
  0
LINE
  5
B3B0
330
1F
100
AcDbEntity
  8
AM_0
100
AcDbLine
 10
4.090215294491387
 20
-56.63237140101944
 30
0.0
 11
4.090215294491386
 21
-63.7623714010194
 31
0.0
  0
LINE
  5
B3B1
330
1F
100
AcDbEntity
  8
AM_0
100
AcDbLine
 10
7.500014779916328
 20
-56.6323714010194
 30
0.0
 11
7.500014779916328
 21
-61.40237140101942
 31
0.0
  0
LINE
  5
B3B2
330
1F
100
AcDbEntity
  8
AM_0
100
AcDbLine
 10
22.60001477991632
 20
-61.40237140101942
 30
0.0
 11
7.500014779916328
 21
-61.40237140101942
 31
0.0
  0
LINE
  5
B3B5
330
1F
100
AcDbEntity
  8
AM_0
100
AcDbLine
 10
7.500014779916328
 20
-61.40237140101937
 30
0.0
 11
5.140014779916313
 21
-63.7623714010194
 31
0.0
  0
LINE
  5
B3B8
330
1F
100
AcDbEntity
  8
AM_0
100
AcDbLine
 10
-59.15703580119953
 20
25.09999999999999
 30
0.0
 11
-59.15703580119953
 21
10.53999999999998
 31
0.0
  0
LINE
  5
B3B9
330
1F
100
AcDbEntity
  8
AM_0
100
AcDbLine
 10
-68.05703580119952
 20
5.099999999999972
 30
0.0
 11
-68.5570358011995
 21
5.099999999999972
 31
0.0
  0
ARC
  5
B3BA
330
1F
100
AcDbEntity
  8
AM_0
100
AcDbCircle
 10
-67.15703580119954
 20
15.99999999999999
 30
0.0
 40
12.5
100
AcDbArc
 50
299.3081092355251
 51
336.926081934369
  0
LINE
  5
B3BB
330
1F
100
AcDbEntity
  8
AM_0
100
AcDbLine
 10
-66.25703580119955
 20
22.69999999999997
 30
0.0
 11
-68.65703580119952
 21
22.69999999999997
 31
0.0
  0
LINE
  5
B3BC
330
1F
100
AcDbEntity
  8
AM_0
100
AcDbLine
 10
-66.25703580119955
 20
22.69999999999997
 30
0.0
 11
-66.25703580119955
 21
16.99999999999998
 31
0.0
  0
LINE
  5
B3BD
330
1F
100
AcDbEntity
  8
AM_0
100
AcDbLine
 10
-66.25703580119955
 20
16.99999999999998
 30
0.0
 11
-68.5570358011995
 21
16.99999999999998
 31
0.0
  0
LINE
  5
B3BE
330
1F
100
AcDbEntity
  8
AM_0
100
AcDbLine
 10
-67.15703580119953
 20
5.099999999999957
 30
0.0
 11
-67.15703580119953
 21
4.500000000000007
 31
0.0
  0
LINE
  5
B3C0
330
1F
100
AcDbEntity
  8
AM_0
 48
0.3
100
AcDbLine
 10
-57.55703580119955
 20
15.59999999999994
 30
0.0
 11
-57.55703580119955
 21
20.6
 31
0.0
  0
LINE
  5
B3C1
330
1F
100
AcDbEntity
  8
AM_0
 48
0.3
100
AcDbLine
 10
-57.15703580119953
 20
11.29282032302755
 30
0.0
 11
-57.15703580119953
 21
19.90717967697245
 31
0.0
  0
LINE
  5
B3C2
330
1F
100
AcDbEntity
  8
AM_0
 48
0.3
100
AcDbLine
 10
-57.55703580119956
 20
20.6
 30
0.0
 11
-59.15703580119953
 21
20.6
 31
0.0
  0
LINE
  5
B3C3
330
1F
100
AcDbEntity
  8
AM_0
 48
0.3
100
AcDbLine
 10
-57.55703580119955
 20
20.6
 30
0.0
 11
-57.15703580119953
 21
19.90717967697245
 31
0.0
  0
LINE
  5
B3C4
330
1F
100
AcDbEntity
  8
AM_0
 48
0.3
100
AcDbLine
 10
-57.55703580119955
 20
10.59999999999994
 30
0.0
 11
-57.55703580119955
 21
15.59999999999994
 31
0.0
  0
LINE
  5
B3C5
330
1F
100
AcDbEntity
  8
AM_0
 48
0.3
100
AcDbLine
 10
-57.55703580119955
 20
10.59999999999994
 30
0.0
 11
-59.15703580119953
 21
10.59999999999994
 31
0.0
  0
LINE
  5
B3C6
330
1F
100
AcDbEntity
  8
AM_0
 48
0.3
100
AcDbLine
 10
-57.55703580119955
 20
10.59999999999994
 30
0.0
 11
-57.15703580119953
 21
11.29282032302755
 31
0.0
  0
LINE
  5
B3C9
330
1F
100
AcDbEntity
  8
AM_7
100
AcDbLine
 10
-54.94265057851033
 20
15.6
 30
0.0
 11
-76.52434839733506
 21
15.6
 31
0.0
  0
CIRCLE
  5
B3CA
330
1F
100
AcDbEntity
  8
AM_11
 48
0.5
100
AcDbCircle
 10
-67.15703580119954
 20
15.99999999999999
 30
0.0
 40
16.0
  0
LINE
  5
B3CB
330
1F
100
AcDbEntity
  8
AM_1
100
AcDbLine
 10
200.0000147799163
 20
4.499999999999945
 30
0.0
 11
200.0000147799163
 21
-53.16237140101947
 31
0.0
  0
LINE
  5
B3CD
330
1F
100
AcDbEntity
  8
AM_1
100
AcDbLine
 10
0.0000147799163211
 20
0.2499999999999708
 30
0.0
 11
-0.0038228376019872
 21
-64.6627071490472
 31
0.0
  0
DIMENSION
  5
B3CE
330
1F
100
AcDbEntity
  8
AM_5
100
AcDbDimension
  2
*D11
 10
200.0000147799163
 20
-29.05834286235404
 30
0.0
 11
99.99905537553674
 21
-25.657968846606
 31
0.0
 70
    32
 71
     5
 42
200.0019188087591
  3
AM_JIS$0
100
AcDbAlignedDimension
 13
-0.0019040288428401
 23
-32.20635357452361
 33
0.0
 14
200.0000147799163
 24
-32.20635357452362
 34
0.0
 50
180.0
100
AcDbRotatedDimension
  0
DIMENSION
  5
B3DB
330
1F
100
AcDbEntity
  8
AM_5
100
AcDbDimension
  2
*D12
 10
88.75001477991634
 20
-14.07007000290296
 30
0.0
 11
100.2500147799163
 21
-10.66969598715493
 31
0.0
 70
    32
 71
     5
 42
22.99999999999997
  3
AM_JIS$0
100
AcDbAlignedDimension
 13
111.7500147799163
 23
11.10102051443366
 33
0.0
 14
88.75001477991634
 24
11.10102051443367
 34
0.0
 50
180.0
100
AcDbRotatedDimension
  0
DIMENSION
  5
B40C
330
1F
100
AcDbEntity
  8
AM_5
100
AcDbDimension
  2
*D13
 10
90.42092592187335
 20
8.277370122769333
 30
0.0
 11
101.918050021888
 21
17.31056082430099
 31
0.0
 70
   163
 71
     5
 42
24.99999999999989
  3
AM_JIS$3
100
AcDbDiametricDimension
 15
110.0791036379592
 25
23.72262987723057
 35
0.0
 40
0.0
1001
ACAD
1000
DSTYLE
1002
{
1070
   288
1070
     1
1002
}
  0
DIMENSION
  5
B416
330
1F
100
AcDbEntity
  8
AM_5
100
AcDbDimension
  2
*D14
 10
-17.67045278032464
 20
0.0000000000000044
 30
0.0
 11
-21.07045278032464
 21
8.0
 31
0.0
 70
    32
 71
     5
 42
16.0
  3
AM_JIS$0
100
AcDbAlignedDimension
 13
-6.93928519291649
 23
16.0
 33
0.0
 14
1.500132201468653
 24
-0.000000000000001
 34
0.0
 50
270.0
100
AcDbRotatedDimension
  0
DIMENSION
  5
B423
330
1F
100
AcDbEntity
  8
AM_5
100
AcDbDimension
  2
*D15
 10
0.0000160380697949
 20
-15.54847766973441
 30
0.0
 11
-7.338684538781093
 21
-12.14847766973441
 31
0.0
 70
    32
 71
     5
 42
3.000081291706024
  3
AM_JIS$0
100
AcDbAlignedDimension
 13
3.00009732977582
 23
0.2587248741755831
 33
0.0
 14
0.0000160380697959
 24
0.2492068574207443
 34
0.0
 50
180.0
100
AcDbRotatedDimension
  0
DIMENSION
  5
B432
330
1F
100
AcDbEntity
  8
AM_5
100
AcDbDimension
  2
*D16
 10
-77.46951597150967
 20
28.2332641897802
 30
0.0
 11
-45.67051741820482
 21
-3.06602366230998
 31
0.0
 70
   163
  1
<>
 71
     5
 42
31.99999999999999
  3
AM_JIS$3
100
AcDbDiametricDimension
 15
-56.84455563088931
 25
3.766735810219753
 35
0.0
 40
0.0
1001
ACAD
1000
DSTYLE
1002
{
1070
   288
1070
     1
1002
}
  0
LINE
  5
B49F
330
1F
100
AcDbEntity
  8
AM_0
100
AcDbLine
 10
-68.65703580119952
 20
25.09999999999997
 30
0.0
 11
-68.65703580119952
 21
22.69999999999997
 31
0.0
  0
LINE
  5
B4A0
330
1F
100
AcDbEntity
  8
AM_7
100
AcDbLine
 10
-67.15703580119953
 20
22.69999999999997
 30
0.0
 11
-67.15703580119953
 21
-4.129566799477507
 31
0.0
  0
LINE
  5
B4A1
330
1F
100
AcDbEntity
  8
AM_0
100
AcDbLine
 10
-67.15703580119953
 20
22.69999999999996
 30
0.0
 11
-67.15703580119953
 21
16.99999999999998
 31
0.0
  0
LINE
  5
B4A2
330
1F
100
AcDbEntity
  8
AM_0
100
AcDbLine
 10
-67.15703580119953
 20
4.500000000000007
 30
0.0
 11
-67.15703580119953
 21
5.899999999999998
 31
0.0
  0
LINE
  5
B4A5
330
1F
100
AcDbEntity
  8
AM_0
100
AcDbLine
 10
-72.55703580119955
 20
1.526463376016018
 30
0.0
 11
-67.25703580119949
 21
0.1063326561310663
 31
0.0
  0
LINE
  5
B4A6
330
1F
100
AcDbEntity
  8
AM_0
100
AcDbLine
 10
-73.27459983146678
 20
1.718734078443739
 30
0.0
 11
-72.55703580119955
 21
1.526463376016018
 31
0.0
  0
LINE
  5
B4A8
330
1F
100
AcDbEntity
  8
AM_0
100
AcDbLine
 10
-68.05703580119952
 20
5.099999999999972
 30
0.0
 11
-59.15703580119953
 21
13.99999999999994
 31
0.0
  0
LINE
  5
B4A9
330
1F
100
AcDbEntity
  8
AM_0
100
AcDbLine
 10
-67.25703580119949
 20
5.899999999999998
 30
0.0
 11
-63.79703580119953
 21
5.899999999999998
 31
0.0
  0
LINE
  5
B4AA
330
1F
100
AcDbEntity
  8
AM_0
100
AcDbLine
 10
-63.79703580119953
 20
5.899999999999997
 30
0.0
 11
-59.15703580119953
 21
10.53999999999998
 31
0.0
  0
ENDSEC
  0
SECTION
  2
OBJECTS
  0
DICTIONARY
  5
C
330
0
100
AcDbDictionary
281
     1
  3
ACAD_COLOR
350
B50B
  3
ACAD_GROUP
350
D
  3
ACAD_LAYOUT
350
1A
  3
ACAD_MATERIAL
350
B50A
  3
ACAD_MLINESTYLE
350
17
  3
ACAD_PLOTSETTINGS
350
19
  3
ACAD_PLOTSTYLENAME
350
E
  3
ACAD_TABLESTYLE
350
B50C
  3
ACDBHEADERROUNDTRIPXREC
350
B5D2
  3
ACDBVARIABLEDICTIONARY
350
30
  3
ACMDICTIONARY
350
4D
  3
AMG
350
3F
  3
AMGSNAPSETTINGS
350
73
  3
DWGPROPS
350
B5D1
  3
ENG_DATA
350
21C6
  3
FILENAME
350
21C9
  3
HOLD_DIC_DATA
350
21C4
  3
TABLE_DIC_DATA
350
1C0B
  3
ZWKSIZE
350
21CB
  0
DICTIONARY
  5
165
330
1F
100
AcDbDictionary
280
     1
281
     1
  3
ACAD_INDEX
360
B4D0
  3
ACAD_LAYOUTSELFREF
360
B503
  0
DICTIONARY
  5
B501
330
1B
100
AcDbDictionary
280
     1
281
     1
  3
ACAD_LAYOUTSELFREF
360
B502
  0
DICTIONARY
  5
B50B
102
{ACAD_REACTORS
330
C
102
}
330
C
100
AcDbDictionary
281
     1
  0
DICTIONARY
  5
D
102
{ACAD_REACTORS
330
C
102
}
330
C
100
AcDbDictionary
281
     1
  3
*A1
350
7C0D
  3
*A2
350
7C0E
  3
*A3
350
7FE3
  3
*A4
350
8E0E
  3
*A5
350
B337
  3
*A6
350
B368
  3
*A7
350
B381
  3
*A8
350
B396
  0
DICTIONARY
  5
1A
102
{ACAD_REACTORS
330
C
102
}
330
C
100
AcDbDictionary
281
     1
  3
Model
350
B50E
  3
レイアウト1
350
B50F
  0
DICTIONARY
  5
B50A
102
{ACAD_REACTORS
330
C
102
}
330
C
100
AcDbDictionary
281
     1
  0
DICTIONARY
  5
17
102
{ACAD_REACTORS
330
C
102
}
330
C
100
AcDbDictionary
281
     1
  3
STANDARD
350
18
  0
DICTIONARY
  5
19
102
{ACAD_REACTORS
330
C
102
}
330
C
100
AcDbDictionary
281
     1
  0
ACDBDICTIONARYWDFLT
  5
E
102
{ACAD_REACTORS
330
C
102
}
330
C
100
AcDbDictionary
281
     1
  3
Normal
350
F
100
AcDbDictionaryWithDefault
340
F
  0
DICTIONARY
  5
B50C
102
{ACAD_REACTORS
330
C
102
}
330
C
100
AcDbDictionary
281
     1
  3
Standard
350
B50D
  0
DICTIONARY
  5
B5D2
102
{ACAD_REACTORS
330
C
102
}
330
C
100
AcDbDictionary
281
     1
  0
DICTIONARY
  5
30
102
{ACAD_REACTORS
330
C
102
}
330
C
100
AcDbDictionary
281
     1
  3
CTABLESTYLE
350
B5CD
  3
DIMASSOC
350
B5CE
  3
INDEXCTL
350
31
  3
PROJECTNAME
350
B5CF
  3
SORTENTS
350
42BE
  0
DICTIONARY
  5
4D
102
{ACAD_REACTORS
330
C
102
}
330
C
100
AcDbDictionary
281
     1
  3
ACMSTDDICTIONARY
350
17E
  3
AMDTSECTSYM_ARROWCOLOR
350
B587
  0
DICTIONARY
  5
3F
102
{ACAD_REACTORS
330
C
102
}
330
C
100
AcDbDictionary
281
     1
  0
DICTIONARY
  5
73
102
{ACAD_REACTORS
330
C
102
}
330
C
100
AcDbDictionary
281
     1
  0
XRECORD
  5
B5D1
102
{ACAD_REACTORS
330
C
102
}
330
C
100
AcDbXrecord
280
     1
  1
DWGPROPS COOKIE
  2

  3

  4

  6

  7

  8

  9

300
AmdtFileType=82
301
=
302
=
303
=
304
=
305
=
306
=
307
=
308
=
309
=
 40
1.489259282407407
 41
2451943.610431666
 42
2455603.395723738
  1

 90
        1
  0
DICTIONARY
  5
21C6
102
{ACAD_REACTORS
330
C
102
}
330
C
100
AcDbDictionary
281
     1
  3
ENG_ID
350
21C7
  0
DICTIONARY
  5
21C9
102
{ACAD_REACTORS
330
C
102
}
330
C
100
AcDbDictionary
281
     1
  3
FILENAME
350
21CA
  0
DICTIONARY
  5
21C4
102
{ACAD_REACTORS
330
C
102
}
330
C
100
AcDbDictionary
281
     1
  3
HOLD_DATA
350
21C5
  0
DICTIONARY
  5
1C0B
102
{ACAD_REACTORS
330
C
102
}
330
C
100
AcDbDictionary
281
     1
  3
INPUT_DATA
350
1C0D
  3
TABLE_DATA
350
1C0C
  0
DICTIONARY
  5
21CB
102
{ACAD_REACTORS
330
C
102
}
330
C
100
AcDbDictionary
281
     1
  3
ZWKSIZE
350
21CC
  0
DICTIONARY
  5
B4D0
102
{ACAD_REACTORS
330
165
102
}
330
165
100
AcDbDictionary
281
     1
  3
*A1
350
B4D1
  0
XRECORD
  5
B503
102
{ACAD_REACTORS
330
165
102
}
330
165
100
AcDbXrecord
280
     1
340
1F
  0
XRECORD
  5
B502
102
{ACAD_REACTORS
330
B501
102
}
330
B501
100
AcDbXrecord
280
     1
340
1B
  0
GROUP
  5
7C0D
102
{ACAD_REACTORS
330
D
102
}
330
D
100
AcDbGroup
300

 70
     1
 71
     1
  0
GROUP
  5
7C0E
102
{ACAD_REACTORS
330
D
102
}
330
D
100
AcDbGroup
300

 70
     1
 71
     1
  0
GROUP
  5
7FE3
102
{ACAD_REACTORS
330
D
102
}
330
D
100
AcDbGroup
300

 70
     1
 71
     1
  0
GROUP
  5
8E0E
102
{ACAD_REACTORS
330
D
102
}
330
D
100
AcDbGroup
300

 70
     1
 71
     1
  0
GROUP
  5
B337
102
{ACAD_REACTORS
330
D
102
}
330
D
100
AcDbGroup
300

 70
     1
 71
     1
340
B31D
340
B31E
340
B31C
340
B32F
340
B330
340
B332
340
B32C
340
B331
340
B32B
340
B32D
340
B320
340
B328
340
B327
340
B329
340
B323
340
B322
  0
GROUP
  5
B368
102
{ACAD_REACTORS
330
D
102
}
330
D
100
AcDbGroup
300

 70
     1
 71
     1
340
B35C
340
B354
340
B366
340
B350
340
B357
340
B35A
340
B358
340
B359
340
B35B
340
B35E
340
B35F
340
B360
340
B361
  0
GROUP
  5
B381
102
{ACAD_REACTORS
330
D
102
}
330
D
100
AcDbGroup
300

 70
     1
 71
     1
340
B36B
340
B36C
340
B36F
340
B370
340
B372
340
B373
340
B374
340
B375
340
B376
340
B377
340
B378
340
B379
340
B37A
340
B37B
340
B37C
340
B37E
  0
GROUP
  5
B396
102
{ACAD_REACTORS
330
D
102
}
330
D
100
AcDbGroup
300

 70
     1
 71
     1
340
B395
340
B393
340
B38C
340
B390
340
B394
340
B38E
340
B38B
340
B38A
340
B391
340
B392
  0
LAYOUT
  5
B50E
102
{ACAD_XDICTIONARY
360
B5D3
102
}
102
{ACAD_REACTORS
330
1A
102
}
330
1A
100
AcDbPlotSettings
  1

  2
SII LP-1010 (C2 VR)2R
  4

  6

 40
0.0
 41
0.0
 42
0.0
 43
0.0
 44
0.0
 45
0.0
 46
0.0
 47
0.0
 48
0.0
 49
0.0
140
0.0
141
0.0
142
1.0
143
1.0
 70
  1712
 72
     0
 73
     0
 74
     0
  7
sei_cad.ctb
 75
     0
147
1.0
148
0.0
149
0.0
100
AcDbLayout
  1
Model
 70
     1
 71
     0
 10
0.0
 20
0.0
 11
12.0
 21
9.0
 12
0.0
 22
0.0
 32
0.0
 14
0.0
 24
0.0
 34
0.0
 15
0.0
 25
0.0
 35
0.0
146
0.0
 13
0.0
 23
0.0
 33
0.0
 16
1.0
 26
0.0
 36
0.0
 17
0.0
 27
1.0
 37
0.0
 76
     0
330
1F
  0
LAYOUT
  5
B50F
102
{ACAD_XDICTIONARY
360
B5D5
102
}
102
{ACAD_REACTORS
330
1A
102
}
330
1A
100
AcDbPlotSettings
  1

  2
SII LP-1010 (C2 VR)2R
  4

  6

 40
0.0
 41
0.0
 42
0.0
 43
0.0
 44
0.0
 45
0.0
 46
0.0
 47
0.0
 48
0.0
 49
0.0
140
0.0
141
0.0
142
1.0
143
1.0
 70
   688
 72
     0
 73
     0
 74
     5
  7
sei_cad.ctb
 75
    16
147
1.0
148
0.0
149
0.0
100
AcDbLayout
  1
レイアウト1
 70
     1
 71
     1
 10
0.0
 20
0.0
 11
420.0
 21
297.0
 12
0.0
 22
0.0
 32
0.0
 14
1.000000000000000E+20
 24
1.000000000000000E+20
 34
1.000000000000000E+20
 15
-1.000000000000000E+20
 25
-1.000000000000000E+20
 35
-1.000000000000000E+20
146
0.0
 13
0.0
 23
0.0
 33
0.0
 16
1.0
 26
0.0
 36
0.0
 17
0.0
 27
1.0
 37
0.0
 76
     0
330
1B
  0
MLINESTYLE
  5
18
102
{ACAD_REACTORS
330
17
102
}
330
17
100
AcDbMlineStyle
  2
STANDARD
 70
     0
  3

 62
   256
 51
90.0
 52
90.0
 71
     2
 49
0.5
 62
   256
  6
BYLAYER
 49
-0.5
 62
   256
  6
BYLAYER
  0
ACDBPLACEHOLDER
  5
F
102
{ACAD_REACTORS
330
E
102
}
330
E
  0
TABLESTYLE
  5
B50D
102
{ACAD_REACTORS
330
B50C
102
}
330
B50C
100
AcDbTableStyle
  3
Standard
 70
     0
 71
     0
 40
1.5
 41
1.5
280
     0
281
     0
  7
STANDARD
140
4.5
170
     2
 62
     0
 63
     7
283
     0
274
    -2
284
     1
 64
     0
275
    -2
285
     1
 65
     0
276
    -2
286
     1
 66
     0
277
    -2
287
     1
 67
     0
278
    -2
288
     1
 68
     0
279
    -2
289
     1
 69
     0
  7
STANDARD
140
6.0
170
     5
 62
     0
 63
     7
283
     0
274
    -2
284
     1
 64
     0
275
    -2
285
     1
 65
     0
276
    -2
286
     1
 66
     0
277
    -2
287
     1
 67
     0
278
    -2
288
     1
 68
     0
279
    -2
289
     1
 69
     0
  7
STANDARD
140
4.5
170
     5
 62
     0
 63
     7
283
     0
274
    -2
284
     1
 64
     0
275
    -2
285
     1
 65
     0
276
    -2
286
     1
 66
     0
277
    -2
287
     1
 67
     0
278
    -2
288
     1
 68
     0
279
    -2
289
     1
 69
     0
  0
DICTIONARYVAR
  5
B5CD
102
{ACAD_REACTORS
330
30
102
}
330
30
100
DictionaryVariables
280
     0
  1
STANDARD
  0
DICTIONARYVAR
  5
B5CE
102
{ACAD_REACTORS
330
30
102
}
330
30
100
DictionaryVariables
280
     0
  1
1
  0
DICTIONARYVAR
  5
31
102
{ACAD_REACTORS
330
30
102
}
330
30
100
DictionaryVariables
280
     0
  1
1
  0
DICTIONARYVAR
  5
B5CF
102
{ACAD_REACTORS
330
30
102
}
330
30
100
DictionaryVariables
280
     0
  1

  0
DICTIONARYVAR
  5
42BE
102
{ACAD_REACTORS
330
30
102
}
330
30
100
DictionaryVariables
280
     0
  1
96
  0
DICTIONARY
  5
17E
102
{ACAD_REACTORS
330
4D
102
}
330
4D
100
AcDbDictionary
281
     1
  0
XRECORD
  5
B587
102
{ACAD_REACTORS
330
4D
102
}
330
4D
100
AcDbXrecord
280
     1
 90
-1023410169
  0
XRECORD
  5
21C7
102
{ACAD_REACTORS
330
21C6
102
}
330
21C6
100
AcDbXrecord
280
     1
  1
HOLD
  0
XRECORD
  5
21CA
102
{ACAD_REACTORS
330
21C9
102
}
330
21C9
100
AcDbXrecord
280
     1
  1
21000065__00___
  0
XRECORD
  5
21C5
102
{ACAD_REACTORS
330
21C4
102
}
330
21C4
100
AcDbXrecord
280
     1
  1
クランクシャフト加工用 ^M^J１コーナー型 ^M^J15.875 ^M^J20 ^M^Jクランプオン ^M^J９０° ^M^J1 ^M^J鋼 ^M^J ^M^J ^M^J ^M^J ^M^J
  0
XRECORD
  5
1C0D
102
{ACAD_REACTORS
330
1C0B
102
}
330
1C0B
100
AcDbXrecord
280
     1
  1
1,,,,,,,,,^M^J2,,,,,,,,,^M^J3,,,,,,,,,^M^J4,,,,,,,,,^M^J5,,,,,,,,,^M^J6,,,,,,,,,^M^J7,,,,,,,,,^M^J8,,,,,,,,,^M^J9,,,,,,,,,^M^J10,,,,,,,,,
  0
XRECORD
  5
1C0C
102
{ACAD_REACTORS
330
1C0B
102
}
330
1C0B
100
AcDbXrecord
280
     1
  1
10,10
  0
XRECORD
  5
21CC
102
{ACAD_REACTORS
330
21CB
102
}
330
21CB
100
AcDbXrecord
280
     1
  1
3
  0
LAYER_INDEX
  5
B4D1
102
{ACAD_REACTORS
330
B4D0
102
}
330
B4D0
100
AcDbIndex
 40
2455603.395723738
100
AcDbLayerIndex
  8
0
360
B4D2
 90
        0
  8
AM_5
360
B4D3
 90
        6
  8
DEFPOINTS
360
B4D4
 90
        0
  8
AM_0
360
B4D5
 90
      186
  8
AM_6
360
B4D6
 90
        1
  8
AM_1
360
B4D7
 90
        2
  8
AM_7
360
B4D8
 90
       12
  8
AM_11
360
B4D9
 90
        1
  0
DICTIONARY
  5
B5D3
330
B50E
100
AcDbDictionary
280
     1
281
     1
  3
ACAD_XREC_ROUNDTRIP
360
B5D4
  0
DICTIONARY
  5
B5D5
330
B50F
100
AcDbDictionary
280
     1
281
     1
  3
ACAD_XREC_ROUNDTRIP
360
B5D6
  0
IDBUFFER
  5
B4D2
330
0
100
AcDbIdBuffer
  0
IDBUFFER
  5
B4D3
330
0
100
AcDbIdBuffer
330
B3CE
330
B3DB
330
B40C
330
B416
330
B423
330
B432
  0
IDBUFFER
  5
B4D4
330
0
100
AcDbIdBuffer
  0
IDBUFFER
  5
B4D5
330
0
100
AcDbIdBuffer
330
B1C5
330
B1C6
330
B1C9
330
B1CA
330
B1DA
330
B1DB
330
B1DC
330
B293
330
B294
330
B295
330
B296
330
B297
330
B29A
330
B29B
330
B29C
330
B29D
330
B29E
330
B29F
330
B2A0
330
B2A1
330
B2A2
330
B2A3
330
B2A4
330
B2A5
330
B2A6
330
B2A8
330
B2A9
330
B2AA
330
B2AB
330
B2AC
330
B2AD
330
B2AE
330
B2AF
330
B2B0
330
B2B1
330
B2B3
330
B2B4
330
B2B5
330
B2BD
330
B2BE
330
B2C0
330
B2C2
330
B2C3
330
B2C5
330
B2C6
330
B2C7
330
B2C9
330
B2CA
330
B2CB
330
B2CC
330
B2CD
330
B2CE
330
B2CF
330
B2D0
330
B2D1
330
B2D3
330
B2D4
330
B2D6
330
B2D8
330
B2D9
330
B2DA
330
B2DB
330
B2DD
330
B2DE
330
B2DF
330
B2E0
330
B2E2
330
B2E4
330
B2E8
330
B2EB
330
B2EC
330
B2ED
330
B2F0
330
B2F1
330
B2F2
330
B2F3
330
B2F4
330
B2F5
330
B310
330
B313
330
B318
330
B319
330
B31C
330
B31D
330
B31E
330
B320
330
B322
330
B323
330
B327
330
B328
330
B329
330
B32B
330
B32C
330
B32D
330
B32F
330
B330
330
B331
330
B332
330
B33A
330
B33B
330
B33E
330
B341
330
B342
330
B343
330
B344
330
B346
330
B349
330
B34A
330
B34B
330
B34C
330
B34D
330
B34E
330
B34F
330
B350
330
B354
330
B357
330
B358
330
B359
330
B35A
330
B35B
330
B35C
330
B35E
330
B35F
330
B360
330
B361
330
B366
330
B36B
330
B36C
330
B36F
330
B370
330
B372
330
B373
330
B374
330
B375
330
B376
330
B377
330
B378
330
B379
330
B37A
330
B37B
330
B37C
330
B37E
330
B387
330
B388
330
B38A
330
B38B
330
B38C
330
B38E
330
B390
330
B391
330
B392
330
B393
330
B394
330
B395
330
B3AA
330
B3AB
330
B3AC
330
B3AD
330
B3AE
330
B3AF
330
B3B0
330
B3B1
330
B3B2
330
B3B5
330
B3B8
330
B3B9
330
B3BA
330
B3BB
330
B3BC
330
B3BD
330
B3BE
330
B3C0
330
B3C1
330
B3C2
330
B3C3
330
B3C4
330
B3C5
330
B3C6
330
B49F
330
B4A1
330
B4A2
330
B4A5
330
B4A6
330
B4A8
330
B4A9
330
B4AA
  0
IDBUFFER
  5
B4D6
330
0
100
AcDbIdBuffer
330
83BD
  0
IDBUFFER
  5
B4D7
330
0
100
AcDbIdBuffer
330
B3CB
330
B3CD
  0
IDBUFFER
  5
B4D8
330
0
100
AcDbIdBuffer
330
B1D9
330
B292
330
B299
330
B2A7
330
B2E6
330
B2E7
330
B2EA
330
B316
330
B317
330
B31A
330
B3C9
330
B4A0
  0
IDBUFFER
  5
B4D9
330
0
100
AcDbIdBuffer
330
B3CA
  0
XRECORD
  5
B5D4
102
{ACAD_REACTORS
330
B5D3
102
}
330
B5D3
100
AcDbXrecord
280
     1
102
SHADEPLOT
 70
     0
102
SHADEPLOTRESLEVEL
 70
     2
102
SHADEPLOTCUSTOMDPI
 70
   300
  0
XRECORD
  5
B5D6
102
{ACAD_REACTORS
330
B5D5
102
}
330
B5D5
100
AcDbXrecord
280
     1
102
SHADEPLOT
 70
     0
102
SHADEPLOTRESLEVEL
 70
     2
102
SHADEPLOTCUSTOMDPI
 70
   300
  0
ENDSEC
  0
EOF
