  0
SECTION
  2
HEADER
  9
$ACADVER
  1
AC1015
  9
$ACADMAINTVER
 70
     6
  9
$DWGCODEPAGE
  3
ANSI_932
  9
$INSBASE
 10
0.0
 20
0.0
 30
0.0
  9
$EXTMIN
 10
-81.50467269871706
 20
-38.27227449018631
 30
-0.0000000349181948
  9
$EXTMAX
 10
153.2342657291179
 20
29.25119232455461
 30
0.0000000814935746
  9
$LIMMIN
 10
74.5792268297489
 20
48.81567530286793
  9
$LIMMAX
 10
494.5792268297489
 20
345.8156753028679
  9
$ORTHOMODE
 70
     1
  9
$REGENMODE
 70
     1
  9
$FILLMODE
 70
     1
  9
$QTEXTMODE
 70
     0
  9
$MIRRTEXT
 70
     1
  9
$LTSCALE
 40
1.0
  9
$ATTMODE
 70
     1
  9
$TEXTSIZE
 40
2.8
  9
$TRACEWID
 40
1.0
  9
$TEXTSTYLE
  7
STANDARD
  9
$CLAYER
  8
AM_0
  9
$CELTYPE
  6
ByLayer
  9
$CECOLOR
 62
   256
  9
$CELTSCALE
 40
1.0
  9
$DISPSILH
 70
     0
  9
$DIMSCALE
 40
1.0
  9
$DIMASZ
 40
2.5
  9
$DIMEXO
 40
0.0
  9
$DIMDLI
 40
10.0
  9
$DIMRND
 40
0.0
  9
$DIMDLE
 40
0.0
  9
$DIMEXE
 40
1.0
  9
$DIMTP
 40
0.1
  9
$DIMTM
 40
0.1
  9
$DIMTXT
 40
3.699999999999999
  9
$DIMCEN
 40
0.0
  9
$DIMTSZ
 40
0.0
  9
$DIMTOL
 70
     0
  9
$DIMLIM
 70
     0
  9
$DIMTIH
 70
     0
  9
$DIMTOH
 70
     0
  9
$DIMSE1
 70
     0
  9
$DIMSE2
 70
     0
  9
$DIMTAD
 70
     3
  9
$DIMZIN
 70
     8
  9
$DIMBLK
  1
Open30
  9
$DIMASO
 70
     1
  9
$DIMSHO
 70
     1
  9
$DIMPOST
  1

  9
$DIMAPOST
  1
"
  9
$DIMALT
 70
     0
  9
$DIMALTD
 70
     2
  9
$DIMALTF
 40
0.0393701
  9
$DIMLFAC
 40
1.0
  9
$DIMTOFL
 70
     1
  9
$DIMTVP
 40
0.0
  9
$DIMTIX
 70
     0
  9
$DIMSOXD
 70
     0
  9
$DIMSAH
 70
     0
  9
$DIMBLK1
  1

  9
$DIMBLK2
  1

  9
$DIMSTYLE
  2
AM_JIS
  9
$DIMCLRD
 70
     3
  9
$DIMCLRE
 70
     3
  9
$DIMCLRT
 70
     2
  9
$DIMTFAC
 40
0.71
  9
$DIMGAP
 40
1.0
  9
$DIMJUST
 70
     0
  9
$DIMSD1
 70
     0
  9
$DIMSD2
 70
     0
  9
$DIMTOLJ
 70
     0
  9
$DIMTZIN
 70
     0
  9
$DIMALTZ
 70
     0
  9
$DIMALTTZ
 70
     0
  9
$DIMUPT
 70
     0
  9
$DIMDEC
 70
     2
  9
$DIMTDEC
 70
     2
  9
$DIMALTU
 70
     2
  9
$DIMALTTD
 70
     2
  9
$DIMTXSTY
  7
STANDARD
  9
$DIMAUNIT
 70
     1
  9
$DIMADEC
 70
     1
  9
$DIMALTRND
 40
0.0
  9
$DIMAZIN
 70
     2
  9
$DIMDSEP
 70
    46
  9
$DIMATFIT
 70
     3
  9
$DIMFRAC
 70
     0
  9
$DIMLDRBLK
  1
Open30
  9
$DIMLUNIT
 70
     2
  9
$DIMLWD
 70
    -1
  9
$DIMLWE
 70
    -1
  9
$DIMTMOVE
 70
     0
  9
$LUNITS
 70
     2
  9
$LUPREC
 70
     2
  9
$SKETCHINC
 40
1.0
  9
$FILLETRAD
 40
0.6
  9
$AUNITS
 70
     0
  9
$AUPREC
 70
     0
  9
$MENU
  1
.
  9
$ELEVATION
 40
0.0
  9
$PELEVATION
 40
0.0
  9
$THICKNESS
 40
0.0
  9
$LIMCHECK
 70
     0
  9
$CHAMFERA
 40
0.5
  9
$CHAMFERB
 40
0.5
  9
$CHAMFERC
 40
20.0
  9
$CHAMFERD
 40
0.0
  9
$SKPOLY
 70
     0
  9
$TDCREATE
 40
2452143.44402743
  9
$TDUCREATE
 40
2452143.06902743
  9
$TDUPDATE
 40
2455471.716202072
  9
$TDUUPDATE
 40
2455471.341202072
  9
$TDINDWG
 40
0.9173488426
  9
$TDUSRTIMER
 40
0.9169775463
  9
$USRTIMER
 70
     1
  9
$ANGBASE
 50
0.0
  9
$ANGDIR
 70
     0
  9
$PDMODE
 70
     0
  9
$PDSIZE
 40
0.0
  9
$PLINEWID
 40
0.0
  9
$SPLFRAME
 70
     0
  9
$SPLINETYPE
 70
     6
  9
$SPLINESEGS
 70
     8
  9
$HANDSEED
  5
56BF
  9
$SURFTAB1
 70
     6
  9
$SURFTAB2
 70
     6
  9
$SURFTYPE
 70
     6
  9
$SURFU
 70
     6
  9
$SURFV
 70
     6
  9
$UCSBASE
  2

  9
$UCSNAME
  2

  9
$UCSORG
 10
0.0
 20
0.0
 30
0.0
  9
$UCSXDIR
 10
1.0
 20
0.0
 30
0.0
  9
$UCSYDIR
 10
0.0
 20
1.0
 30
0.0
  9
$UCSORTHOREF
  2

  9
$UCSORTHOVIEW
 70
     0
  9
$UCSORGTOP
 10
0.0
 20
0.0
 30
0.0
  9
$UCSORGBOTTOM
 10
0.0
 20
0.0
 30
0.0
  9
$UCSORGLEFT
 10
0.0
 20
0.0
 30
0.0
  9
$UCSORGRIGHT
 10
0.0
 20
0.0
 30
0.0
  9
$UCSORGFRONT
 10
0.0
 20
0.0
 30
0.0
  9
$UCSORGBACK
 10
0.0
 20
0.0
 30
0.0
  9
$PUCSBASE
  2

  9
$PUCSNAME
  2

  9
$PUCSORG
 10
0.0
 20
0.0
 30
0.0
  9
$PUCSXDIR
 10
1.0
 20
0.0
 30
0.0
  9
$PUCSYDIR
 10
0.0
 20
1.0
 30
0.0
  9
$PUCSORTHOREF
  2

  9
$PUCSORTHOVIEW
 70
     0
  9
$PUCSORGTOP
 10
0.0
 20
0.0
 30
0.0
  9
$PUCSORGBOTTOM
 10
0.0
 20
0.0
 30
0.0
  9
$PUCSORGLEFT
 10
0.0
 20
0.0
 30
0.0
  9
$PUCSORGRIGHT
 10
0.0
 20
0.0
 30
0.0
  9
$PUCSORGFRONT
 10
0.0
 20
0.0
 30
0.0
  9
$PUCSORGBACK
 10
0.0
 20
0.0
 30
0.0
  9
$USERI1
 70
     0
  9
$USERI2
 70
     0
  9
$USERI3
 70
     0
  9
$USERI4
 70
     0
  9
$USERI5
 70
     0
  9
$USERR1
 40
0.0
  9
$USERR2
 40
0.0
  9
$USERR3
 40
0.0
  9
$USERR4
 40
0.0
  9
$USERR5
 40
0.0
  9
$WORLDVIEW
 70
     1
  9
$SHADEDGE
 70
     3
  9
$SHADEDIF
 70
    70
  9
$TILEMODE
 70
     1
  9
$MAXACTVP
 70
    64
  9
$PINSBASE
 10
0.0
 20
0.0
 30
0.0
  9
$PLIMCHECK
 70
     0
  9
$PEXTMIN
 10
1.000000000000000E+20
 20
1.000000000000000E+20
 30
1.000000000000000E+20
  9
$PEXTMAX
 10
-1.000000000000000E+20
 20
-1.000000000000000E+20
 30
-1.000000000000000E+20
  9
$PLIMMIN
 10
-0.2500002402958907
 20
-0.2499999962453767
  9
$PLIMMAX
 10
10.74999951940822
 20
8.249999763458732
  9
$UNITMODE
 70
     0
  9
$VISRETAIN
 70
     1
  9
$PLINEGEN
 70
     0
  9
$PSLTSCALE
 70
     0
  9
$TREEDEPTH
 70
  3020
  9
$CMLSTYLE
  2
Standard
  9
$CMLJUST
 70
     0
  9
$CMLSCALE
 40
20.0
  9
$PROXYGRAPHICS
 70
     1
  9
$MEASUREMENT
 70
     1
  9
$CELWEIGHT
370
    13
  9
$ENDCAPS
280
     0
  9
$JOINSTYLE
280
     0
  9
$LWDISPLAY
290
     0
  9
$INSUNITS
 70
     4
  9
$HYPERLINKBASE
  1

  9
$STYLESHEET
  1
sei_cad.ctb
  9
$XEDIT
290
     1
  9
$CEPSNTYPE
380
     0
  9
$PSTYLEMODE
290
     1
  9
$FINGERPRINTGUID
  2
{FDEAD578-A652-11D2-9A35-0060089B3A3F}
  9
$VERSIONGUID
  2
{CF6EA6A7-C2A6-4600-A7BC-6C69237312F5}
  9
$EXTNAMES
290
     1
  9
$PSVPSCALE
 40
0.0
  9
$OLESTARTUP
290
     0
  0
ENDSEC
  0
SECTION
  2
CLASSES
  0
CLASS
  1
ACDBDICTIONARYWDFLT
  2
AcDbDictionaryWithDefault
  3
ObjectDBX Classes
 90
        0
280
     0
281
     0
  0
CLASS
  1
ACDBPLACEHOLDER
  2
AcDbPlaceHolder
  3
ObjectDBX Classes
 90
        0
280
     0
281
     0
  0
CLASS
  1
LAYOUT
  2
AcDbLayout
  3
ObjectDBX Classes
 90
        0
280
     0
281
     0
  0
CLASS
  1
ACME_DOCUMENT
  2
AcMeDbDoc
  3
AcMeServices
 90
        0
280
     1
281
     0
  0
CLASS
  1
AMGSETTINGSOBJ
  2
AmgSettingsObj
  3
"AcadM|Product Description: AutoCAD Mechanical 2000|Company: Autodesk"
 90
        0
280
     1
281
     0
  0
CLASS
  1
ACMESCOPE
  2
AcMeScope
  3
AcMeServices
 90
        0
280
     1
281
     0
  0
CLASS
  1
ACMECOMMANDHISTORY
  2
AcMeCommandHistory
  3
AcMeServices
 90
        0
280
     1
281
     0
  0
CLASS
  1
DICTIONARYVAR
  2
AcDbDictionaryVar
  3
ObjectDBX Classes
 90
        0
280
     0
281
     0
  0
CLASS
  1
ACIMSYSVARMAN
  2
AcImSysVarManager
  3
AcMeServices
 90
        0
280
     1
281
     0
  0
CLASS
  1
ACIMREALSYSVAR
  2
AcImRealSysVar
  3
AcMeServices
 90
        0
280
     1
281
     0
  0
CLASS
  1
ACIMINTSYSVAR
  2
AcImIntSysVar
  3
AcMeServices
 90
        0
280
     1
281
     0
  0
CLASS
  1
ACMEDRAWINGMAN
  2
AcMeDrawingMan
  3
AcMeServices
 90
        0
280
     1
281
     0
  0
CLASS
  1
ACMEVIEW
  2
AcMeView
  3
AcMeServices
 90
        0
280
     1
281
     0
  0
CLASS
  1
ACDBENTITYCACHE
  2
AcMeEntityCache
  3
AcMeServices
 90
        0
280
     1
281
     0
  0
CLASS
  1
GSMANAGER
  2
AcMeGSManager
  3
AcMeServices
 90
        0
280
     1
281
     0
  0
CLASS
  1
AMDTINTERNALREACTOR
  2
AmdtInternalReactor
  3
AcMeServices
 90
        0
280
     1
281
     0
  0
CLASS
  1
ACMESTATEMGR
  2
AcMeStateMgr
  3
AcMeServices
 90
        0
280
     1
281
     0
  0
CLASS
  1
ACME_DATABASE
  2
AcMeDbDatabase
  3
AcMeServices
 90
        0
280
     1
281
     0
  0
CLASS
  1
ACRFINSADJUSTERMGR
  2
AcRfInsAdjusterMgr
  3
AcMeServices
 90
        0
280
     1
281
     0
  0
CLASS
  1
ACMDATADICTIONARY
  2
AcmDataDictionary
  3
"AcmSymBB|Product Description: AutoCAD Mechanical 2004 DX|Company: Autodesk"
 90
        0
280
     1
281
     0
  0
CLASS
  1
ACMDATAENTRYBLOCK
  2
AcmDataEntryBlock
  3
"AcmSymBB|Product Description: AutoCAD Mechanical 2004 DX|Company: Autodesk"
 90
        0
280
     1
281
     0
  0
CLASS
  1
AMGOBJPROPCFG
  2
AmgObjPropCfg
  3
"AmgLay|Product Description: AutoCAD Mechanical 2000|Company: Autodesk"
 90
        1
280
     1
281
     0
  0
CLASS
  1
LAYER_INDEX
  2
AcDbLayerIndex
  3
ObjectDBX Classes
 90
        0
280
     0
281
     0
  0
CLASS
  1
IDBUFFER
  2
AcDbIdBuffer
  3
ObjectDBX Classes
 90
        0
280
     0
281
     0
  0
CLASS
  1
ACAMGFILTERDAT
  2
AcAmgFilterDat
  3
"AcadM|Product Description: AutoCAD Mechanical 2000|Company: Autodesk"
 90
        0
280
     1
281
     0
  0
CLASS
  1
ACIMSTRSYSVAR
  2
AcImStrSysVar
  3
AcMeServices
 90
        0
280
     1
281
     0
  0
CLASS
  1
ACMSTANDARDJIS
  2
AcmStandardJIS
  3
"Amdt_StdImp|Product Description: AutoCAD Mechanical 2004 DX|Company: Autodesk"
 90
        0
280
     1
281
     0
  0
CLASS
  1
ACMSURFSTANDARDJIS
  2
AcmSurfTextStdJIS
  3
"Amdt_StdImp|Product Description: AutoCAD Mechanical 2004 DX|Company: Autodesk"
 90
        0
280
     1
281
     0
  0
CLASS
  1
ACMFCFSTANDARDJIS
  2
AcmFCFStdJIS
  3
"Amdt_StdImp|Product Description: AutoCAD Mechanical 2004 DX|Company: Autodesk"
 90
        0
280
     1
281
     0
  0
CLASS
  1
ACMWELDSTANDARDJIS
  2
AcmWeldingStdJIS
  3
"Amdt_StdImp|Product Description: AutoCAD Mechanical 2004 DX|Company: Autodesk"
 90
        0
280
     1
281
     0
  0
CLASS
  1
ACMIDSTANDARDJIS
  2
AcmIdStdJIS
  3
"Amdt_StdImp|Product Description: AutoCAD Mechanical 2004 DX|Company: Autodesk"
 90
        0
280
     1
281
     0
  0
CLASS
  1
ACMDATUMSTANDARDJIS
  2
AcmDatumStdJIS
  3
"Amdt_StdImp|Product Description: AutoCAD Mechanical 2004 DX|Company: Autodesk"
 90
        0
280
     1
281
     0
  0
CLASS
  1
ACMBOMSTANDARDJIS
  2
AcmBOMStdJIS
  3
"Amdt_StdImp|Product Description: AutoCAD Mechanical 2004 DX|Company: Autodesk"
 90
        0
280
     1
281
     0
  0
CLASS
  1
AMDTNOTE
  2
AmdtNote
  3
"AcmSymBB|Product Description: AutoCAD Mechanical 2004 DX|Company: Autodesk"
 90
     1023
280
     1
281
     1
  0
CLASS
  1
ACMFCFRAME
  2
AcmFCF
  3
"AcmSymBB|Product Description: AutoCAD Mechanical 2004 DX|Company: Autodesk"
 90
     1023
280
     1
281
     1
  0
CLASS
  1
TABLESTYLE
  2
AcDbTableStyle
  3
ObjectDBX Classes
 90
     2047
280
     0
281
     0
  0
CLASS
  1
ACGREFMASTER
  2
AcGrefMaster
  3
AcAttribServices
 90
        0
280
     1
281
     0
  0
CLASS
  1
AM_DRAWING_MGR
  2
AcDmDwgMgr
  3
AcMechDwgViewMgmt
 90
        0
280
     1
281
     0
  0
CLASS
  1
AM_DWG_DOCUMENT
  2
AcDmDwgDocument
  3
AcMechDwgViewMgmt
 90
        0
280
     1
281
     0
  0
CLASS
  1
AM_DWG_SHEET
  2
AcDmSheet
  3
AcMechDwgViewMgmt
 90
        0
280
     1
281
     0
  0
CLASS
  1
AM_VIEWDIMPARMAP
  2
AcDmViewDimParMap
  3
AcMechDwgViewMgmt
 90
        0
280
     1
281
     0
  0
CLASS
  1
AM_DWGMGR_NAME
  2
AcDmDwgMgrName
  3
AcMechDwgViewMgmt
 90
        0
280
     1
281
     0
  0
CLASS
  1
ACGREFACADMASTER
  2
AcGrefacadMaster
  3
AcGrefServices
 90
        0
280
     1
281
     0
  0
CLASS
  1
AMDTMENUSTATEMGR
  2
AmdtMenuStateMgr
  3
McadcomServices
 90
        0
280
     1
281
     0
  0
CLASS
  1
AMDTMCOMMENUSTATE
  2
AmdtMcomMenuState
  3
McadcomServices
 90
        0
280
     1
281
     0
  0
CLASS
  1
AMIMASTER
  2
AmiMaster
  3
AmiServices
 90
        0
280
     1
281
     0
  0
CLASS
  1
MAPIAMMOUDLE
  2
MApiAmModule
  3
MApiAmServices
 90
        0
280
     1
281
     0
  0
CLASS
  1
AMDTADMENUSTATE
  2
AmdtAdMenuState
  3
DesignerServices
 90
        0
280
     1
281
     0
  0
CLASS
  1
ADAPPL
  2
AcAdAppl
  3
DesignerServices
 90
        0
280
     1
281
     0
  0
CLASS
  1
DEPMGR
  2
AcAdDepMgr
  3
DesignerServices
 90
        0
280
     1
281
     0
  0
CLASS
  1
PARAMMGR
  2
AcAdParamMgr
  3
DesignerServices
 90
        0
280
     1
281
     0
  0
CLASS
  1
PARAMSCOPE
  2
AcAdParamScope
  3
DesignerServices
 90
        0
280
     1
281
     0
  0
CLASS
  1
NAMEDAPPL
  2
AcAdNamedAppl
  3
DesignerServices
 90
        0
280
     1
281
     0
  0
CLASS
  1
AMDTDMMENUSTATE
  2
AmdtDmMenuState
  3
AcMechDwgViewMgmt
 90
        0
280
     1
281
     0
  0
CLASS
  1
AMDTAMMENUSTATE
  2
AmdtAmMenuState
  3
DesignerAssemblies
 90
        0
280
     1
281
     0
  0
CLASS
  1
ACAMPROJECT
  2
AcAmProject
  3
DesignerAssemblies
 90
        0
280
     1
281
     0
  0
CLASS
  1
ACAMGRCOMPDEF
  2
AcAmGrCompDef
  3
DesignerAssemblies
 90
        0
280
     1
281
     0
  0
CLASS
  1
ACCMCONTEXT
  2
AcCmContext
  3
DesignerAssemblies
 90
        0
280
     1
281
     0
  0
CLASS
  1
ACAMCOMPDEF
  2
AcAmCompDef
  3
DesignerAssemblies
 90
        0
280
     1
281
     0
  0
CLASS
  1
ACAMCOMPDEFMGR
  2
AcAmCompDefMgr
  3
DesignerAssemblies
 90
        0
280
     1
281
     0
  0
CLASS
  1
AMCONTEXTMGR
  2
AcAmContextMgr
  3
DesignerAssemblies
 90
        0
280
     1
281
     0
  0
CLASS
  1
ACAMCONTEXTMODELER
  2
AcAmContextModeler
  3
DesignerAssemblies
 90
        0
280
     1
281
     0
  0
CLASS
  1
ACAMGTITLESTD
  2
AcAmgTitleStd
  3
"TITLEAPP"
 90
        0
280
     1
281
     0
  0
CLASS
  1
ACMDETAILSTANDARDJIS
  2
AmdtDetailSymStdJIS
  3
"Amdt_StdImp|Product Description: AutoCAD Mechanical 2004 DX|Company: Autodesk"
 90
        0
280
     1
281
     0
  0
CLASS
  1
ACMSECTIONSTANDARDJIS
  2
AmdtSectionSymStdJIS
  3
"Amdt_StdImp|Product Description: AutoCAD Mechanical 2004 DX|Company: Autodesk"
 90
        0
280
     1
281
     0
  0
CLASS
  1
ACMCENTERLINESTANDARDJIS
  2
AmdtCenterLineStdJIS
  3
"Amdt_StdImp|Product Description: AutoCAD Mechanical 2004 DX|Company: Autodesk"
 90
        0
280
     1
281
     0
  0
CLASS
  1
ACMTHREADLINESTANDARDJIS
  2
AmdtThreadLineStdJIS
  3
"Amdt_StdImp|Product Description: AutoCAD Mechanical 2004 DX|Company: Autodesk"
 90
        0
280
     1
281
     0
  0
CLASS
  1
ACMNOTESTANDARDJIS
  2
AmdtNoteStdJIS
  3
"Amdt_StdImp|Product Description: AutoCAD Mechanical 2004 DX|Company: Autodesk"
 90
        0
280
     1
281
     0
  0
CLASS
  1
AMDTNOTETEMPLATEDB
  2
AmdtNoteTemplateDB
  3
AMDT_STDIMP_MODULE_NAME
 90
        0
280
     1
281
     0
  0
CLASS
  1
ACAMGLAYSTD
  2
AcAmgLayStd
  3
"AcAmgLayStd|Product Description: AutoCAD Mechanical 2000|Company: Autodesk"
 90
        0
280
     1
281
     0
  0
CLASS
  1
ACAMGDIMSTD
  2
AcAmgDimStd
  3
"AcAmgDimStd|Product Description: AutoCAD Mechanical 2000|Company: Autodesk"
 90
        0
280
     1
281
     0
  0
CLASS
  1
ACAMGHOLECHARTSTDJIS
  2
AcAmgHoleChartStdJIS
  3
ACMSYMBB_MODULE_NAME
 90
        0
280
     1
281
     0
  0
CLASS
  1
CATALOGSTATE
  2
AcAmCatalogState
  3
DesignerAssemblies
 90
        0
280
     1
281
     0
  0
CLASS
  1
ACAMGRCOMPDEFSET
  2
AcAmGrCompDefSet
  3
DesignerAssemblies
 90
        0
280
     1
281
     0
  0
CLASS
  1
AMDTBROWSERDBTAB
  2
AmdtBrowserDbTab
  3
McadcomServices
 90
        0
280
     1
281
     0
  0
CLASS
  1
CBROWSERAPPOBJECT
  2
CBrowserAppObject
  3
McadcomServices
 90
        0
280
     1
281
     0
  0
CLASS
  1
DM_PLACEHOLDER
  2
AcDmSelsetPlaceholder
  3
AcMechDwgViewMgmt
 90
        0
280
     1
281
     0
  0
CLASS
  1
SORTENTSTABLE
  2
AcDbSortentsTable
  3
ObjectDBX Classes
 90
        0
280
     0
281
     0
  0
CLASS
  1
ACMSTANDARDANSI
  2
AcmStandardANSI
  3
"Amdt_StdImp|Product Description: AutoCAD Mechanical 2004 DX|Company: Autodesk"
 90
        0
280
     1
281
     0
  0
CLASS
  1
ACMSURFSTANDARDANSI
  2
AcmSurfTextStdANSI
  3
"Amdt_StdImp|Product Description: AutoCAD Mechanical 2004 DX|Company: Autodesk"
 90
        0
280
     1
281
     0
  0
CLASS
  1
ACMFCFSTANDARDANSI
  2
AcmFCFStdANSI
  3
"Amdt_StdImp|Product Description: AutoCAD Mechanical 2004 DX|Company: Autodesk"
 90
        0
280
     1
281
     0
  0
CLASS
  1
ACMWELDSTANDARDANSI
  2
AcmWeldingStdANSI
  3
"Amdt_StdImp|Product Description: AutoCAD Mechanical 2004 DX|Company: Autodesk"
 90
        0
280
     1
281
     0
  0
CLASS
  1
ACMIDSTANDARDANSI
  2
AcmIdStdANSI
  3
"Amdt_StdImp|Product Description: AutoCAD Mechanical 2004 DX|Company: Autodesk"
 90
        0
280
     1
281
     0
  0
CLASS
  1
ACMDATUMSTANDARDANSI
  2
AcmDatumStdANSI
  3
"Amdt_StdImp|Product Description: AutoCAD Mechanical 2004 DX|Company: Autodesk"
 90
        0
280
     1
281
     0
  0
CLASS
  1
ACMBOMSTANDARDANSI
  2
AcmBOMStdANSI
  3
"Amdt_StdImp|Product Description: AutoCAD Mechanical 2004 DX|Company: Autodesk"
 90
        0
280
     1
281
     0
  0
CLASS
  1
ACMDETAILSTANDARDANSI
  2
AmdtDetailSymStdANSI
  3
"Amdt_StdImp|Product Description: AutoCAD Mechanical 2004 DX|Company: Autodesk"
 90
        0
280
     1
281
     0
  0
CLASS
  1
ACMSECTIONSTANDARDANSI
  2
AmdtSectionSymStdANSI
  3
"Amdt_StdImp|Product Description: AutoCAD Mechanical 2004 DX|Company: Autodesk"
 90
        0
280
     1
281
     0
  0
CLASS
  1
ACMCENTERLINESTANDARDANSI
  2
AmdtCenterLineStdANSI
  3
"Amdt_StdImp|Product Description: AutoCAD Mechanical 2004 DX|Company: Autodesk"
 90
        0
280
     1
281
     0
  0
CLASS
  1
ACMTHREADLINESTANDARDANSI
  2
AmdtThreadLineStdANSI
  3
"Amdt_StdImp|Product Description: AutoCAD Mechanical 2004 DX|Company: Autodesk"
 90
        0
280
     1
281
     0
  0
CLASS
  1
ACMNOTESTANDARDANSI
  2
AmdtNoteStdANSI
  3
"Amdt_StdImp|Product Description: AutoCAD Mechanical 2004 DX|Company: Autodesk"
 90
        0
280
     1
281
     0
  0
CLASS
  1
ACAMGHOLECHARTSTDANSI
  2
AcAmgHoleChartStdANSI
  3
ACMSYMBB_MODULE_NAME
 90
        0
280
     1
281
     0
  0
ENDSEC
  0
SECTION
  2
TABLES
  0
TABLE
  2
VPORT
  5
8
330
0
100
AcDbSymbolTable
 70
    40
  0
VPORT
  5
56B7
330
8
100
AcDbSymbolTableRecord
100
AcDbViewportTableRecord
  2
*Active
 70
     0
 10
0.0
 20
0.0
 11
1.0
 21
1.0
 12
35.86479651520038
 22
-4.510541082815848
 13
0.0
 23
0.0
 14
2.5
 24
2.5
 15
10.0
 25
10.0
 16
0.0
 26
0.0
 36
1.0
 17
0.0
 27
0.0
 37
0.0
 40
139.0391556956814
 41
1.697058823529412
 42
50.0
 43
0.0
 44
0.0
 50
0.0
 51
0.0
 71
     0
 72
  1000
 73
     1
 74
     3
 75
     0
 76
     0
 77
     0
 78
     0
281
     0
 65
     1
110
0.0
120
0.0
130
0.0
111
1.0
121
0.0
131
0.0
112
0.0
122
1.0
132
0.0
 79
     0
146
0.0
  0
ENDTAB
  0
TABLE
  2
LTYPE
  5
5
330
0
100
AcDbSymbolTable
 70
    15
  0
LTYPE
  5
14
330
5
100
AcDbSymbolTableRecord
100
AcDbLinetypeTableRecord
  2
ByBlock
 70
     0
  3

 72
    65
 73
     0
 40
0.0
  0
LTYPE
  5
15
330
5
100
AcDbSymbolTableRecord
100
AcDbLinetypeTableRecord
  2
ByLayer
 70
     0
  3

 72
    65
 73
     0
 40
0.0
  0
LTYPE
  5
16
330
5
100
AcDbSymbolTableRecord
100
AcDbLinetypeTableRecord
  2
Continuous
 70
     0
  3
Solid line
 72
    65
 73
     0
 40
0.0
  0
LTYPE
  5
5E
330
5
100
AcDbSymbolTableRecord
100
AcDbLinetypeTableRecord
  2
AM_ISO02W050
 70
     0
  3
__ __ __ __ __ __ __ __ __ __ __ __ __ __ __
 72
    65
 73
     2
 40
7.5
 49
6.0
 74
     0
 49
-1.5
 74
     0
  0
LTYPE
  5
5F
330
5
100
AcDbSymbolTableRecord
100
AcDbLinetypeTableRecord
  2
AM_ISO08W050
 70
     0
  3
____ . ____ . ____ . ____ . ____ . ____ . ____
 72
    65
 73
     4
 40
18.0
 49
12.0
 74
     0
 49
-1.5
 74
     0
 49
3.0
 74
     0
 49
-1.5
 74
     0
  0
LTYPE
  5
60
330
5
100
AcDbSymbolTableRecord
100
AcDbLinetypeTableRecord
  2
AM_ISO09W050
 70
     0
  3
_____ . . _____ . . _____ . . ____ .. ____
 72
    65
 73
     6
 40
22.5
 49
12.0
 74
     0
 49
-1.5
 74
     0
 49
3.0
 74
     0
 49
-1.5
 74
     0
 49
3.0
 74
     0
 49
-1.5
 74
     0
  0
LTYPE
  5
61
330
5
100
AcDbSymbolTableRecord
100
AcDbLinetypeTableRecord
  2
Amconstr
 70
     0
  3
_______________________
 72
    65
 73
     2
 40
9999.0
 49
9999.0
 74
     0
 49
0.0
 74
     0
  0
LTYPE
  5
62
330
5
100
AcDbSymbolTableRecord
100
AcDbLinetypeTableRecord
  2
AM_ISO02W050x2
 70
     0
  3
 _ _ _ _ _ _ _ _ _ _ _ _
 72
    65
 73
     2
 40
3.75
 49
3.0
 74
     0
 49
-0.75
 74
     0
  0
LTYPE
  5
63
330
5
100
AcDbSymbolTableRecord
100
AcDbLinetypeTableRecord
  2
AM_ISO08W050x2
 70
     0
  3
__ . __ . __ . __ . __ . __
 72
    65
 73
     4
 40
9.0
 49
6.0
 74
     0
 49
-0.75
 74
     0
 49
1.5
 74
     0
 49
-0.75
 74
     0
  0
LTYPE
  5
66
330
5
100
AcDbSymbolTableRecord
100
AcDbLinetypeTableRecord
  2
Amzigzag
 70
     0
  3
/\/-/\/-/\/-/\/-/\/-/\/
 72
    65
 73
     2
 40
11.0001
 49
0.0001
 74
     4
 75
   135
340
65
 46
0.04
 50
0.0
 44
0.0
 45
0.0
 49
-11.0
 74
     0
  0
LTYPE
  5
120
330
5
100
AcDbSymbolTableRecord
100
AcDbLinetypeTableRecord
  2
CENTER
 70
     0
  3
____ _ ____ _ ____ _ ____ _ ____ _ ____ _ ____
 72
    65
 73
     4
 40
17.5
 49
13.0
 74
     0
 49
-1.5
 74
     0
 49
1.5
 74
     0
 49
-1.5
 74
     0
  0
LTYPE
  5
E84
330
5
100
AcDbSymbolTableRecord
100
AcDbLinetypeTableRecord
  2
ACJISTGB
 70
     0
  3
__ . . __ . .
 72
    65
 73
     6
 40
9.0
 49
4.0
 74
     0
 49
-1.0
 74
     0
 49
1.0
 74
     0
 49
-1.0
 74
     0
 49
1.0
 74
     0
 49
-1.0
 74
     0
  0
LTYPE
  5
E85
330
5
100
AcDbSymbolTableRecord
100
AcDbLinetypeTableRecord
  2
ACJISTGL
 70
     0
  3
_ _ _ _ _
 72
    65
 73
     2
 40
3.0
 49
2.0
 74
     0
 49
-1.0
 74
     0
  0
LTYPE
  5
38D1
330
5
100
AcDbSymbolTableRecord
100
AcDbLinetypeTableRecord
  2
HIDDEN
 70
     0
  3
Hidden __ __ __ __ __ __ __ __ __ __ __ __ __ _
 72
    65
 73
     2
 40
9.524999999999999
 49
6.35
 74
     0
 49
-3.175
 74
     0
  0
LTYPE
  5
38D2
330
5
100
AcDbSymbolTableRecord
100
AcDbLinetypeTableRecord
  2
PHANTOM2
 70
     0
  3
Phantom (.5x) ___ _ _ ___ _ _ ___ _ _ ___ _ _
 72
    65
 73
     6
 40
31.75
 49
15.875
 74
     0
 49
-3.175
 74
     0
 49
3.175
 74
     0
 49
-3.175
 74
     0
 49
3.175
 74
     0
 49
-3.175
 74
     0
  0
LTYPE
  5
3C71
330
5
100
AcDbSymbolTableRecord
100
AcDbLinetypeTableRecord
  2
ACANSTGB
 70
     0
  3
__ . . __ . .
 72
    65
 73
     6
 40
0.35433070866
 49
0.15748031496
 74
     0
 49
-0.03937007874
 74
     0
 49
0.03937007874
 74
     0
 49
-0.03937007874
 74
     0
 49
0.03937007874
 74
     0
 49
-0.03937007874
 74
     0
  0
LTYPE
  5
3C72
330
5
100
AcDbSymbolTableRecord
100
AcDbLinetypeTableRecord
  2
ACANSTGL
 70
     0
  3
_ _ _ _ _
 72
    65
 73
     2
 40
0.11811023622
 49
0.07874015748
 74
     0
 49
-0.03937007874
 74
     0
  0
ENDTAB
  0
TABLE
  2
LAYER
  5
2
102
{ACAD_XDICTIONARY
360
3929
102
}
330
0
100
AcDbSymbolTable
 70
     6
  0
LAYER
  5
10
330
2
100
AcDbSymbolTableRecord
100
AcDbLayerTableRecord
  2
0
 70
     0
 62
     7
  6
Continuous
370
    -3
390
F
  0
LAYER
  5
12C
330
2
100
AcDbSymbolTableRecord
100
AcDbLayerTableRecord
  2
Defpoints
 70
     0
 62
     7
  6
Continuous
290
     0
370
    -3
390
F
  0
LAYER
  5
771
330
2
100
AcDbSymbolTableRecord
100
AcDbLayerTableRecord
  2
AM_5
 70
     0
 62
     3
  6
Continuous
370
    20
390
F
  0
LAYER
  5
B7D
330
2
100
AcDbSymbolTableRecord
100
AcDbLayerTableRecord
  2
AM_0
 70
     0
 62
     7
  6
Continuous
370
    40
390
F
  0
LAYER
  5
E88
330
2
100
AcDbSymbolTableRecord
100
AcDbLayerTableRecord
  2
AM_6
 70
     0
 62
     2
  6
Continuous
370
    40
390
F
  0
LAYER
  5
48AC
330
2
100
AcDbSymbolTableRecord
100
AcDbLayerTableRecord
  2
AM_7
 70
     0
 62
     4
  6
AM_ISO08W050
370
    20
390
F
  0
ENDTAB
  0
TABLE
  2
STYLE
  5
3
330
0
100
AcDbSymbolTable
 70
     7
  0
STYLE
  5
11
330
3
100
AcDbSymbolTableRecord
100
AcDbTextStyleTableRecord
  2
STANDARD
 70
     0
 40
0.0
 41
1.0
 50
0.0
 71
     0
 42
2.8
  3
ISOCP.SHX
  4
EXTFONT.SHX
  0
STYLE
  5
65
330
3
100
AcDbSymbolTableRecord
100
AcDbTextStyleTableRecord
  2

 70
     1
 40
0.0
 41
1.0
 50
0.0
 71
     0
 42
2.5
  3
ltypeshp.shx
  4

  0
STYLE
  5
E7C
330
3
100
AcDbSymbolTableRecord
100
AcDbTextStyleTableRecord
  2
ACJISTS
 70
     0
 40
1.0
 41
1.0
 50
0.0
 71
     0
 42
2.5
  3
isocp.shx
  4
bigfont.shx
  0
STYLE
  5
E83
330
3
100
AcDbSymbolTableRecord
100
AcDbTextStyleTableRecord
  2
ACJISGDT
 70
     0
 40
0.0
 41
1.0
 50
0.0
 71
     0
 42
2.5
  3
amgdt.shx
  4

  0
STYLE
  5
3928
330
3
100
AcDbSymbolTableRecord
100
AcDbTextStyleTableRecord
  2
ACISOTS
 70
     0
 40
1.0
 41
1.0
 50
0.0
 71
     0
 42
1.0
  3
isocp.shx
  4
extfont.shx
  0
STYLE
  5
3C74
330
3
100
AcDbSymbolTableRecord
100
AcDbTextStyleTableRecord
  2
ACANSTS
 70
     0
 40
1.0
 41
1.0
 50
0.0
 71
     0
 42
2.5
  3
romans.shx
  4
extfont.shx
  0
STYLE
  5
3C75
330
3
100
AcDbSymbolTableRecord
100
AcDbTextStyleTableRecord
  2
ACANSGDT
 70
     0
 40
0.0
 41
1.0
 50
0.0
 71
     0
 42
2.5
  3
amgdtans.shx
  4

  0
ENDTAB
  0
TABLE
  2
VIEW
  5
6
330
0
100
AcDbSymbolTable
 70
     6
  0
VIEW
  5
500
330
6
100
AcDbSymbolTableRecord
100
AcDbViewTableRecord
  2
AM_VIEW1
 70
     0
 40
148.5
 10
210.8005303316944
 20
271.5656753028679
 41
272.4426070038911
 11
0.0
 21
0.0
 31
1.0
 12
0.0
 22
0.0
 32
0.0
 42
50.0
 43
0.0
 44
0.0
 50
0.0
 71
     0
281
     0
 72
     0
  0
VIEW
  5
501
330
6
100
AcDbSymbolTableRecord
100
AcDbViewTableRecord
  2
AM_VIEW2
 70
     0
 40
148.5
 10
358.3579233278034
 20
271.5656753028679
 41
272.4426070038911
 11
0.0
 21
0.0
 31
1.0
 12
0.0
 22
0.0
 32
0.0
 42
50.0
 43
0.0
 44
0.0
 50
0.0
 71
     0
281
     0
 72
     0
  0
VIEW
  5
502
330
6
100
AcDbSymbolTableRecord
100
AcDbViewTableRecord
  2
AM_VIEW3
 70
     0
 40
148.5
 10
210.8005303316944
 20
123.0656753028679
 41
272.4426070038911
 11
0.0
 21
0.0
 31
1.0
 12
0.0
 22
0.0
 32
0.0
 42
50.0
 43
0.0
 44
0.0
 50
0.0
 71
     0
281
     0
 72
     0
  0
VIEW
  5
503
330
6
100
AcDbSymbolTableRecord
100
AcDbViewTableRecord
  2
AM_VIEW4
 70
     0
 40
148.5
 10
358.3579233278034
 20
123.0656753028679
 41
272.4426070038911
 11
0.0
 21
0.0
 31
1.0
 12
0.0
 22
0.0
 32
0.0
 42
50.0
 43
0.0
 44
0.0
 50
0.0
 71
     0
281
     0
 72
     0
  0
VIEW
  5
504
330
6
100
AcDbSymbolTableRecord
100
AcDbViewTableRecord
  2
AM_VIEW5
 70
     0
 40
148.5
 10
284.5792268297489
 20
197.3156753028679
 41
272.442607003891
 11
0.0
 21
0.0
 31
1.0
 12
0.0
 22
0.0
 32
0.0
 42
50.0
 43
0.0
 44
0.0
 50
0.0
 71
     0
281
     0
 72
     0
  0
VIEW
  5
505
330
6
100
AcDbSymbolTableRecord
100
AcDbViewTableRecord
  2
AM_VIEW6
 70
     0
 40
296.99703
 10
284.5792268297489
 20
197.3156753028679
 41
544.879765155642
 11
0.0
 21
0.0
 31
1.0
 12
0.0
 22
0.0
 32
0.0
 42
50.0
 43
0.0
 44
0.0
 50
0.0
 71
     0
281
     0
 72
     0
  0
ENDTAB
  0
TABLE
  2
UCS
  5
7
330
0
100
AcDbSymbolTable
 70
     0
  0
ENDTAB
  0
TABLE
  2
APPID
  5
9
330
0
100
AcDbSymbolTable
 70
    33
  0
APPID
  5
12
330
9
100
AcDbSymbolTableRecord
100
AcDbRegAppTableRecord
  2
ACAD
 70
     0
  0
APPID
  5
46
330
9
100
AcDbSymbolTableRecord
100
AcDbRegAppTableRecord
  2
MCAD_NO_VIS
 70
     0
  0
APPID
  5
47
330
9
100
AcDbSymbolTableRecord
100
AcDbRegAppTableRecord
  2
ACAD_TEMP_GRAPHIC
 70
     0
  0
APPID
  5
136
330
9
100
AcDbSymbolTableRecord
100
AcDbRegAppTableRecord
  2
GENIUS_GENCFG_13
 70
     0
  0
APPID
  5
137
330
9
100
AcDbSymbolTableRecord
100
AcDbRegAppTableRecord
  2
GENIUS_GENCFG0_13
 70
     0
  0
APPID
  5
138
330
9
100
AcDbSymbolTableRecord
100
AcDbRegAppTableRecord
  2
GENIUS_GENCFG1_13
 70
     0
  0
APPID
  5
139
330
9
100
AcDbSymbolTableRecord
100
AcDbRegAppTableRecord
  2
GENIUS_GENCFG2_13
 70
     0
  0
APPID
  5
13A
330
9
100
AcDbSymbolTableRecord
100
AcDbRegAppTableRecord
  2
GENIUS_GENCFG3_13
 70
     0
  0
APPID
  5
13B
330
9
100
AcDbSymbolTableRecord
100
AcDbRegAppTableRecord
  2
GENIUS_GENCFG4_13
 70
     0
  0
APPID
  5
13C
330
9
100
AcDbSymbolTableRecord
100
AcDbRegAppTableRecord
  2
GENIUS_GENDTOL_13
 70
     0
  0
APPID
  5
546
330
9
100
AcDbSymbolTableRecord
100
AcDbRegAppTableRecord
  2
GENIUS_GENBLLY_14
 70
     0
  0
APPID
  5
547
330
9
100
AcDbSymbolTableRecord
100
AcDbRegAppTableRecord
  2
GENIUS_GENODEF_13
 70
     0
  0
APPID
  5
548
330
9
100
AcDbSymbolTableRecord
100
AcDbRegAppTableRecord
  2
GENIUS_GENOBJ-N-CEN_13
 70
     0
  0
APPID
  5
554
330
9
100
AcDbSymbolTableRecord
100
AcDbRegAppTableRecord
  2
GENIUS_GENTRA_14
 70
     0
  0
APPID
  5
55E
330
9
100
AcDbSymbolTableRecord
100
AcDbRegAppTableRecord
  2
GENIUS_GENOBJ-N-TIT_13
 70
     0
  0
APPID
  5
55F
330
9
100
AcDbSymbolTableRecord
100
AcDbRegAppTableRecord
  2
GENIUS_GENTITLE_13
 70
     0
  0
APPID
  5
560
330
9
100
AcDbSymbolTableRecord
100
AcDbRegAppTableRecord
  2
GENIUS_GENOENT_13
 70
     0
  0
APPID
  5
561
330
9
100
AcDbSymbolTableRecord
100
AcDbRegAppTableRecord
  2
GENIUS_GENOREF_13
 70
     0
  0
APPID
  5
562
330
9
100
AcDbSymbolTableRecord
100
AcDbRegAppTableRecord
  2
GENIUS_GENOLIS_13
 70
     0
  0
APPID
  5
563
330
9
100
AcDbSymbolTableRecord
100
AcDbRegAppTableRecord
  2
GENIUS_GENZVEED_13
 70
     0
  0
APPID
  5
564
330
9
100
AcDbSymbolTableRecord
100
AcDbRegAppTableRecord
  2
GENIUS_GENSCREG_15
 70
     0
  0
APPID
  5
565
330
9
100
AcDbSymbolTableRecord
100
AcDbRegAppTableRecord
  2
GENIUS_GENOBJ-N-SDF_13
 70
     0
  0
APPID
  5
1D47
330
9
100
AcDbSymbolTableRecord
100
AcDbRegAppTableRecord
  2
GENIUS_GENOBJ-N-CRS_13
 70
     0
  0
APPID
  5
2D2D
330
9
100
AcDbSymbolTableRecord
100
AcDbRegAppTableRecord
  2
GENIUS_GENOBJ-N-RSBK_13
 70
     0
  0
APPID
  5
2D2E
330
9
100
AcDbSymbolTableRecord
100
AcDbRegAppTableRecord
  2
GENIUS_GENOBJ-N-LIB_13
 70
     0
  0
APPID
  5
2D2F
330
9
100
AcDbSymbolTableRecord
100
AcDbRegAppTableRecord
  2
GENIUS_GENSCALE_13
 70
     0
  0
APPID
  5
2D30
330
9
100
AcDbSymbolTableRecord
100
AcDbRegAppTableRecord
  2
GENIUS_GENOBJ-N-HTC_13
 70
     0
  0
APPID
  5
2D31
330
9
100
AcDbSymbolTableRecord
100
AcDbRegAppTableRecord
  2
GENIUS_GENHATCH_13
 70
     0
  0
APPID
  5
38D4
330
9
100
AcDbSymbolTableRecord
100
AcDbRegAppTableRecord
  2
AD_DRAW
 70
     0
  0
APPID
  5
38D7
330
9
100
AcDbSymbolTableRecord
100
AcDbRegAppTableRecord
  2
ACATTRIBSERVICES
 70
     0
  0
APPID
  5
38F5
330
9
100
AcDbSymbolTableRecord
100
AcDbRegAppTableRecord
  2
DESIGNERASSEMBLIES
 70
     0
  0
APPID
  5
3908
330
9
100
AcDbSymbolTableRecord
100
AcDbRegAppTableRecord
  2
ACADM_DIM_EDIT
 70
     0
  0
APPID
  5
3909
330
9
100
AcDbSymbolTableRecord
100
AcDbRegAppTableRecord
  2
AMDT_DM_ADJ
 70
     0
  0
ENDTAB
  0
TABLE
  2
DIMSTYLE
  5
A
330
0
100
AcDbSymbolTable
 70
    14
100
AcDbDimStyleTable
  0
DIMSTYLE
105
B5
102
{ACAD_REACTORS
330
4893
330
48E2
330
4E58
330
4E66
330
50AE
102
}
330
A
100
AcDbSymbolTableRecord
100
AcDbDimStyleTableRecord
  2
AM_JIS
 70
     0
  4
"
 41
2.5
 42
0.0
 43
10.0
 44
1.0
 47
0.1
 48
0.1
 73
     0
 74
     0
 77
     3
 78
     1
 79
     2
140
3.699999999999999
141
0.0
143
0.0393701
146
0.71
147
1.0
172
     1
176
     3
177
     3
178
     2
179
     1
271
     2
272
     2
275
     1
283
     0
340
11
341
B6
342
B6
371
    -1
372
    -1
  0
DIMSTYLE
105
BC
102
{ACAD_REACTORS
330
4E44
330
5107
102
}
330
A
100
AcDbSymbolTableRecord
100
AcDbDimStyleTableRecord
  2
AM_JIS$3
 70
     0
  4
"
 41
2.5
 42
1.0
 43
10.0
 44
1.0
 47
0.1
 48
0.1
 73
     0
 77
     3
 78
     8
 79
     2
140
3.5
141
0.0
143
0.0393701
146
0.71
147
1.5
176
   256
177
   256
178
     2
271
     2
272
     3
274
     4
288
     1
289
     0
340
11
341
B6
342
B6
343
B6
344
B6
371
    -1
372
    -1
  0
DIMSTYLE
105
BD
330
A
100
AcDbSymbolTableRecord
100
AcDbDimStyleTableRecord
  2
AM_JIS$4
 70
     0
  4
"
 41
2.5
 42
1.0
 43
10.0
 44
1.0
 47
0.1
 48
0.1
 73
     0
 77
     3
 78
     8
 79
     2
140
3.5
141
0.0
143
0.0393701
146
0.71
147
1.5
176
   256
177
   256
178
     2
271
     2
272
     3
274
     4
288
     1
289
     0
340
11
341
B6
342
B6
343
B6
344
B6
371
    -1
372
    -1
  0
DIMSTYLE
105
BE
330
A
100
AcDbSymbolTableRecord
100
AcDbDimStyleTableRecord
  2
AM_JIS$6
 70
     0
  4
"
 41
2.5
 42
1.0
 43
10.0
 44
1.0
 47
0.1
 48
0.1
 73
     0
 74
     0
 78
     8
 79
     2
140
3.5
141
0.0
143
0.0393701
146
0.71
147
1.5
176
   256
177
   256
178
     2
271
     2
272
     3
274
     4
283
     0
340
11
341
B6
342
B6
343
B6
344
B6
371
    -1
372
    -1
  0
DIMSTYLE
105
BF
330
A
100
AcDbSymbolTableRecord
100
AcDbDimStyleTableRecord
  2
AM_JIS$7
 70
     0
  4
"
 41
2.5
 42
1.0
 43
10.0
 44
1.0
 47
0.1
 48
0.1
 73
     0
 74
     0
 77
     3
 78
     8
 79
     2
140
5.0
141
0.0
143
0.0393701
146
0.71
147
1.5
176
   256
177
   256
178
     2
271
     2
272
     3
274
     4
340
11
341
B6
342
B6
343
B6
344
B6
371
    -1
372
    -1
  0
DIMSTYLE
105
C0
330
A
100
AcDbSymbolTableRecord
100
AcDbDimStyleTableRecord
  2
AM_JIS$SF
 70
     0
  4
"
 41
2.5
 42
1.0
 43
10.0
 44
1.0
 47
0.1
 48
0.1
 73
     0
 74
     0
 75
     1
 76
     1
 77
     3
 78
     8
 79
     2
140
3.5
141
0.0
143
0.0393701
146
0.71
147
1.5
176
   256
177
   256
178
     2
271
     2
272
     3
274
     4
340
11
341
B6
342
B6
343
B6
344
B6
371
    -1
372
    -1
  0
DIMSTYLE
105
C5
330
A
100
AcDbSymbolTableRecord
100
AcDbDimStyleTableRecord
  2
AM_JIS$SH
 70
     0
  4
"
 41
2.5
 42
1.0
 43
10.0
 44
1.0
 47
0.1
 48
0.1
 73
     0
 74
     0
 75
     1
 76
     1
 77
     3
 78
     8
 79
     2
140
3.5
141
0.0
143
0.0393701
144
2.0
146
0.71
147
1.5
173
     1
176
   256
177
   256
178
     2
271
     2
272
     3
274
     4
340
11
341
B6
342
B6
343
C1
344
B6
371
    -1
372
    -1
  0
DIMSTYLE
105
12E
330
A
100
AcDbSymbolTableRecord
100
AcDbDimStyleTableRecord
  2
STANDARD
 70
     0
340
11
  0
DIMSTYLE
105
3C76
330
A
100
AcDbSymbolTableRecord
100
AcDbDimStyleTableRecord
  2
AM_ANSI
 70
     0
  4
mm
 41
0.1
 42
0.05
 43
0.5
 44
0.1
 47
0.1
 48
0.1
 78
     7
 79
     2
140
0.12
141
0.0
146
0.71
147
0.06
176
   256
177
   256
178
     2
274
     4
284
     7
340
11
371
    -1
372
    -1
  0
DIMSTYLE
105
3C77
330
A
100
AcDbSymbolTableRecord
100
AcDbDimStyleTableRecord
  2
AM_ANSI$3
 70
     0
  4
mm
 41
0.1
 42
0.05
 43
0.5
 44
0.1
 47
0.1
 48
0.1
 78
     7
 79
     2
140
0.12
141
0.0
146
0.71
147
0.06
176
   256
177
   256
178
     2
274
     4
284
     7
288
     1
289
     0
340
11
371
    -1
372
    -1
  0
DIMSTYLE
105
3C78
330
A
100
AcDbSymbolTableRecord
100
AcDbDimStyleTableRecord
  2
AM_ANSI$4
 70
     0
  4
mm
 41
0.1
 42
0.05
 43
0.5
 44
0.1
 47
0.1
 48
0.1
 78
     7
 79
     2
140
0.12
141
0.0
146
0.71
147
0.06
176
   256
177
   256
178
     2
274
     4
284
     7
288
     1
289
     0
340
11
371
    -1
372
    -1
  0
DIMSTYLE
105
3C79
330
A
100
AcDbSymbolTableRecord
100
AcDbDimStyleTableRecord
  2
AM_ANSI$7
 70
     0
  4
mm
 41
0.1
 42
0.05
 43
0.5
 44
0.1
 47
0.1
 48
0.1
 78
     7
 79
     2
140
0.24
141
0.0
146
0.71
147
0.06
176
   256
177
   256
178
     2
274
     4
284
     7
340
11
371
    -1
372
    -1
  0
DIMSTYLE
105
3C7A
330
A
100
AcDbSymbolTableRecord
100
AcDbDimStyleTableRecord
  2
AM_ANSI$SF
 70
     0
  4
mm
 41
0.1
 42
0.05
 43
0.5
 44
0.1
 47
0.1
 48
0.1
 75
     1
 76
     1
 78
     7
 79
     2
140
0.12
141
0.0
146
0.71
147
0.06
176
   256
177
   256
178
     2
274
     4
284
     7
340
11
371
    -1
372
    -1
  0
DIMSTYLE
105
3C7B
330
A
100
AcDbSymbolTableRecord
100
AcDbDimStyleTableRecord
  2
AM_ANSI$SH
 70
     0
  4
mm
 41
0.1
 42
0.05
 43
0.5
 44
0.1
 47
0.1
 48
0.1
 75
     1
 76
     1
 78
     7
 79
     2
140
0.12
141
0.0
146
0.71
147
0.06
173
     1
176
   256
177
   256
178
     2
274
     4
284
     7
340
11
343
C1
371
    -1
372
    -1
  0
ENDTAB
  0
TABLE
  2
BLOCK_RECORD
  5
1
330
0
100
AcDbSymbolTable
 70
    11
  0
BLOCK_RECORD
  5
1F
102
{ACAD_XDICTIONARY
360
68
102
}
330
1
100
AcDbSymbolTableRecord
100
AcDbBlockTableRecord
  2
*Model_Space
340
22
  0
BLOCK_RECORD
  5
23
330
1
100
AcDbSymbolTableRecord
100
AcDbBlockTableRecord
  2
*Paper_Space
340
26
  0
BLOCK_RECORD
  5
1B
330
1
100
AcDbSymbolTableRecord
100
AcDbBlockTableRecord
  2
*Paper_Space0
340
1E
  0
BLOCK_RECORD
  5
B6
330
1
100
AcDbSymbolTableRecord
100
AcDbBlockTableRecord
  2
_Open30
340
0
102
{BLKREFS
331
5676
331
5677
331
567F
331
5680
331
5689
331
568A
331
5691
331
5692
331
569B
331
569C
331
56A6
331
56A7
331
56B2
331
56B3
102
}
  0
BLOCK_RECORD
  5
C1
330
1
100
AcDbSymbolTableRecord
100
AcDbBlockTableRecord
  2
GENAXEH
340
0
  0
BLOCK_RECORD
  5
38EC
330
1
100
AcDbSymbolTableRecord
100
AcDbBlockTableRecord
  2
*U3
340
0
  0
BLOCK_RECORD
  5
4894
330
1
100
AcDbSymbolTableRecord
100
AcDbBlockTableRecord
  2
*D4
340
0
  0
BLOCK_RECORD
  5
48E3
330
1
100
AcDbSymbolTableRecord
100
AcDbBlockTableRecord
  2
*D5
340
0
  0
BLOCK_RECORD
  5
4E45
330
1
100
AcDbSymbolTableRecord
100
AcDbBlockTableRecord
  2
*D6
340
0
  0
BLOCK_RECORD
  5
4E59
330
1
100
AcDbSymbolTableRecord
100
AcDbBlockTableRecord
  2
*D7
340
0
  0
BLOCK_RECORD
  5
4E67
330
1
100
AcDbSymbolTableRecord
100
AcDbBlockTableRecord
  2
*D8
340
0
  0
BLOCK_RECORD
  5
50AF
330
1
100
AcDbSymbolTableRecord
100
AcDbBlockTableRecord
  2
*D9
340
0
  0
BLOCK_RECORD
  5
5108
330
1
100
AcDbSymbolTableRecord
100
AcDbBlockTableRecord
  2
*D10
340
0
  0
ENDTAB
  0
ENDSEC
  0
SECTION
  2
BLOCKS
  0
BLOCK
  5
20
330
1F
100
AcDbEntity
  8
0
100
AcDbBlockBegin
  2
*Model_Space
 70
     0
 71
     0
 10
0.0
 20
0.0
 30
0.0
  3
*Model_Space
  1

  0
ENDBLK
  5
21
330
1F
100
AcDbEntity
  8
0
100
AcDbBlockEnd
  0
BLOCK
  5
24
330
23
100
AcDbEntity
 67
     1
  8
0
100
AcDbBlockBegin
  2
*Paper_Space
 70
     0
 71
     0
 10
0.0
 20
0.0
 30
0.0
  3
*Paper_Space
  1

  0
ENDBLK
  5
25
330
23
100
AcDbEntity
 67
     1
  8
0
100
AcDbBlockEnd
  0
BLOCK
  5
1C
330
1B
100
AcDbEntity
  8
0
100
AcDbBlockBegin
  2
*Paper_Space0
 70
     0
 71
     0
 10
0.0
 20
0.0
 30
0.0
  3
*Paper_Space0
  1

  0
VIEWPORT
  5
7D
330
1B
100
AcDbEntity
  8
0
100
AcDbViewport
 10
5.249999639556163
 20
3.999999883606678
 30
0.0
 40
15.37157224495366
 41
8.992999745766948
 68
     1
 69
     1
 12
5.82094427781273
 22
3.999999883606678
 13
0.0
 23
0.0
 14
10.0
 24
10.0
 15
10.0
 25
10.0
 16
0.0
 26
0.0
 36
1.0
 17
0.0
 27
0.0
 37
0.0
 42
50.0
 43
0.0
 44
0.0
 45
8.992999745766948
 50
0.0
 51
0.0
 72
   100
 90
    32800
  1

281
     0
 71
     1
 74
     0
110
0.0
120
0.0
130
0.0
111
1.0
121
0.0
131
0.0
112
0.0
122
1.0
132
0.0
 79
     0
146
0.0
  0
ENDBLK
  5
1D
330
1B
100
AcDbEntity
  8
0
100
AcDbBlockEnd
  0
BLOCK
  5
BA
330
B6
100
AcDbEntity
  8
0
100
AcDbBlockBegin
  2
_Open30
 70
     0
 71
     0
 10
0.0
 20
0.0
 30
0.0
  3
_Open30
  1

  0
LINE
  5
B7
330
B6
100
AcDbEntity
  8
0
 62
     0
370
    -2
100
AcDbLine
 10
-1.0
 20
0.26794919
 30
0.0
 11
0.0
 21
0.0
 31
0.0
  0
LINE
  5
B8
330
B6
100
AcDbEntity
  8
0
 62
     0
370
    -2
100
AcDbLine
 10
0.0
 20
0.0
 30
0.0
 11
-1.0
 21
-0.26794919
 31
0.0
  0
LINE
  5
B9
330
B6
100
AcDbEntity
  8
0
 62
     0
370
    -2
100
AcDbLine
 10
0.0
 20
0.0
 30
0.0
 11
-1.0
 21
0.0
 31
0.0
  0
ENDBLK
  5
BB
330
B6
100
AcDbEntity
  8
0
100
AcDbBlockEnd
  0
BLOCK
  5
C3
330
C1
100
AcDbEntity
  8
0
100
AcDbBlockBegin
  2
GENAXEH
 70
     0
 71
     0
 10
0.0
 20
0.0
 30
0.0
  3
GENAXEH
  1

  0
LINE
  5
C2
330
C1
100
AcDbEntity
  8
0
100
AcDbLine
 10
-1.0
 20
0.0
 30
0.0
 11
1.0
 21
0.0
 31
0.0
  0
ENDBLK
  5
C4
330
C1
100
AcDbEntity
  8
0
100
AcDbBlockEnd
  0
BLOCK
  5
38ED
330
38EC
100
AcDbEntity
  8
0
100
AcDbBlockBegin
  2
*U3
 70
     1
 71
     0
 10
0.0
 20
0.0
 30
0.0
  3
*U3
  1

  0
ENDBLK
  5
38EE
330
38EC
100
AcDbEntity
  8
0
100
AcDbBlockEnd
  0
BLOCK
  5
489E
330
4894
100
AcDbEntity
  8
0
370
    13
100
AcDbBlockBegin
  2
*D4
 70
     1
 71
     0
 10
0.0
 20
0.0
 30
0.0
  3
*D4
  1

  0
LINE
  5
5673
330
4894
100
AcDbEntity
  8
AM_5
 62
     3
100
AcDbLine
 10
-3.315430358469868
 20
11.0
 30
0.0
 11
-11.65718789946111
 21
11.0
 31
0.0
  0
LINE
  5
5674
330
4894
100
AcDbEntity
  8
AM_5
 62
     3
100
AcDbLine
 10
0.7999999992032645
 20
-0.0000000000000213
 30
0.0
 11
-11.65718789946111
 21
-0.0000000000000178
 31
0.0
  0
LINE
  5
5675
330
4894
100
AcDbEntity
  8
AM_5
 62
     3
100
AcDbLine
 10
-10.65718789946111
 20
8.500000000000002
 30
0.0
 11
-10.65718789946111
 21
2.499999999999982
 31
0.0
  0
INSERT
  5
5676
330
4894
100
AcDbEntity
  8
AM_5
 62
     3
100
AcDbBlockReference
  2
_Open30
 10
-10.65718789946111
 20
11.0
 30
0.0
 41
2.5
 42
2.5
 43
2.5
 50
90.0
  0
INSERT
  5
5677
330
4894
100
AcDbEntity
  8
AM_5
 62
     3
100
AcDbBlockReference
  2
_Open30
 10
-10.65718789946111
 20
-0.0000000000000181
 30
0.0
 41
2.5
 42
2.5
 43
2.5
 50
270.0
  0
MTEXT
  5
5678
330
4894
100
AcDbEntity
  8
AM_5
 62
     2
370
    13
100
AcDbMText
 10
-13.50718789946111
 20
5.546316794607265
 30
0.0
 40
3.699999999999999
 41
0.0
 71
     5
 72
     1
  1
11
 11
6.123031769111886E-17
 21
1.0
 31
0.0
 73
     1
 44
1.0
  0
POINT
  5
5679
330
4894
100
AcDbEntity
  8
Defpoints
 62
     0
370
    13
100
AcDbPoint
 10
-3.315430358469868
 20
11.0
 30
0.0
  0
POINT
  5
567A
330
4894
100
AcDbEntity
  8
Defpoints
 62
     0
370
    13
100
AcDbPoint
 10
0.7999999992032645
 20
-0.0000000000000213
 30
0.0
  0
POINT
  5
567B
330
4894
100
AcDbEntity
  8
Defpoints
 62
     0
370
    13
100
AcDbPoint
 10
-10.65718789946111
 20
-0.0000000000000181
 30
0.0
  0
ENDBLK
  5
489F
330
4894
100
AcDbEntity
  8
0
370
    13
100
AcDbBlockEnd
  0
BLOCK
  5
48ED
330
48E3
100
AcDbEntity
  8
0
370
    13
100
AcDbBlockBegin
  2
*D5
 70
     1
 71
     0
 10
0.0
 20
0.0
 30
0.0
  3
*D5
  1

  0
LINE
  5
567C
330
48E3
100
AcDbEntity
  8
AM_5
 62
     3
100
AcDbLine
 10
0.0
 20
1.300502779634059
 30
0.0
 11
-0.0000000000000015
 21
-23.84123955459654
 31
0.0
  0
LINE
  5
567D
330
48E3
100
AcDbEntity
  8
AM_5
 62
     3
100
AcDbLine
 10
150.0
 20
3.499999999999993
 30
0.0
 11
150.0
 21
-23.84123955459654
 31
0.0
  0
LINE
  5
567E
330
48E3
100
AcDbEntity
  8
AM_5
 62
     3
100
AcDbLine
 10
2.499999999999999
 20
-22.84123955459654
 30
0.0
 11
147.5
 21
-22.84123955459654
 31
0.0
  0
INSERT
  5
567F
330
48E3
100
AcDbEntity
  8
AM_5
 62
     3
100
AcDbBlockReference
  2
_Open30
 10
-0.0000000000000015
 20
-22.84123955459654
 30
0.0
 41
2.5
 42
2.5
 43
2.5
 50
180.0
  0
INSERT
  5
5680
330
48E3
100
AcDbEntity
  8
AM_5
 62
     3
100
AcDbBlockReference
  2
_Open30
 10
150.0
 20
-22.84123955459654
 30
0.0
 41
2.5
 42
2.5
 43
2.5
  0
MTEXT
  5
5681
330
48E3
100
AcDbEntity
  8
AM_5
 62
     2
370
    13
100
AcDbMText
 10
68.90290819647346
 20
-19.99123955459654
 30
0.0
 40
3.699999999999999
 41
0.0
 71
     5
 72
     1
  1
150
 73
     1
 44
1.0
  0
POINT
  5
5682
330
48E3
100
AcDbEntity
  8
Defpoints
 62
     0
370
    13
100
AcDbPoint
 10
0.0
 20
1.300502779634059
 30
0.0
  0
POINT
  5
5683
330
48E3
100
AcDbEntity
  8
Defpoints
 62
     0
370
    13
100
AcDbPoint
 10
150.0
 20
3.499999999999993
 30
0.0
  0
POINT
  5
5684
330
48E3
100
AcDbEntity
  8
Defpoints
 62
     0
370
    13
100
AcDbPoint
 10
150.0
 20
-22.84123955459654
 30
0.0
  0
ENDBLK
  5
48EE
330
48E3
100
AcDbEntity
  8
0
370
    13
100
AcDbBlockEnd
  0
BLOCK
  5
4E4C
330
4E45
100
AcDbEntity
  8
0
370
    13
100
AcDbBlockBegin
  2
*D6
 70
     1
 71
     0
 10
0.0
 20
0.0
 30
0.0
  3
*D6
  1

  0
LINE
  5
5685
330
4E45
100
AcDbEntity
  8
AM_5
100
AcDbLine
 10
87.97493599946178
 20
1.525096528669366
 30
0.0
 11
86.89753980885745
 21
-0.7308328692665
 31
0.0
  0
LINE
  5
5686
330
4E45
100
AcDbEntity
  8
AM_5
100
AcDbLine
 10
97.02506400053821
 20
20.47490347133064
 30
0.0
 11
98.82595968083007
 21
24.24574797887181
 31
0.0
  0
LINE
  5
5687
330
4E45
100
AcDbEntity
  8
AM_5
100
AcDbLine
 10
98.82595968083007
 20
24.24574797887181
 30
0.0
 11
106.7995817280742
 21
24.2457479788718
 31
0.0
  0
LINE
  5
5688
330
4E45
100
AcDbEntity
  8
AM_5
100
AcDbLine
 10
89.05233219006612
 20
3.781025926605231
 30
0.0
 11
95.94766780993388
 21
18.21897407339478
 31
0.0
  0
INSERT
  5
5689
330
4E45
100
AcDbEntity
  8
AM_5
100
AcDbBlockReference
  2
_Open30
 10
89.05233219006612
 20
3.781025926605231
 30
0.0
 41
2.5
 42
2.5
 43
2.5
 50
64.47159716022709
  0
INSERT
  5
568A
330
4E45
100
AcDbEntity
  8
AM_5
100
AcDbBlockReference
  2
_Open30
 10
95.94766780993388
 20
18.21897407339478
 30
0.0
 41
2.5
 42
2.5
 43
2.5
 50
244.4715971602271
  0
MTEXT
  5
568B
330
4E45
100
AcDbEntity
  8
AM_5
 62
     2
370
    13
100
AcDbMText
 10
103.5627707044521
 20
27.49574797887179
 30
0.0
 40
3.5
 41
0.0
 71
     5
 72
     1
  1
\A1;\U+220516
 73
     1
 44
1.0
  0
POINT
  5
568C
330
4E45
100
AcDbEntity
  8
Defpoints
 62
     0
370
    13
100
AcDbPoint
 10
95.94766780993388
 20
18.21897407339478
 30
0.0
  0
POINT
  5
568D
330
4E45
100
AcDbEntity
  8
Defpoints
 62
     0
370
    13
100
AcDbPoint
 10
89.05233219006612
 20
3.781025926605231
 30
0.0
  0
ENDBLK
  5
4E4D
330
4E45
100
AcDbEntity
  8
0
370
    13
100
AcDbBlockEnd
  0
BLOCK
  5
4E63
330
4E59
100
AcDbEntity
  8
0
370
    13
100
AcDbBlockBegin
  2
*D7
 70
     1
 71
     0
 10
0.0
 20
0.0
 30
0.0
  3
*D7
  1

  0
LINE
  5
568E
330
4E59
100
AcDbEntity
  8
AM_5
 62
     3
100
AcDbLine
 10
85.00000000000001
 20
8.216117818584991
 30
0.0
 11
85.00000000000001
 21
-9.886528636860021
 31
0.0
  0
LINE
  5
568F
330
4E59
100
AcDbEntity
  8
AM_5
 62
     3
100
AcDbLine
 10
100.0
 20
8.216117818584984
 30
0.0
 11
100.0
 21
-9.886528636860021
 31
0.0
  0
LINE
  5
5690
330
4E59
100
AcDbEntity
  8
AM_5
 62
     3
100
AcDbLine
 10
87.50000000000001
 20
-8.886528636860021
 30
0.0
 11
97.50000000000001
 21
-8.886528636860021
 31
0.0
  0
INSERT
  5
5691
330
4E59
100
AcDbEntity
  8
AM_5
 62
     3
100
AcDbBlockReference
  2
_Open30
 10
85.00000000000001
 20
-8.886528636860021
 30
0.0
 41
2.5
 42
2.5
 43
2.5
 50
180.0
  0
INSERT
  5
5692
330
4E59
100
AcDbEntity
  8
AM_5
 62
     3
100
AcDbBlockReference
  2
_Open30
 10
100.0
 20
-8.886528636860021
 30
0.0
 41
2.5
 42
2.5
 43
2.5
  0
MTEXT
  5
5693
330
4E59
100
AcDbEntity
  8
AM_5
 62
     2
370
    13
100
AcDbMText
 10
92.50000000000001
 20
-6.036528636860021
 30
0.0
 40
3.699999999999999
 41
0.0
 71
     5
 72
     1
  1
15
 73
     1
 44
1.0
  0
POINT
  5
5694
330
4E59
100
AcDbEntity
  8
Defpoints
 62
     0
370
    13
100
AcDbPoint
 10
85.00000000000001
 20
8.216117818584991
 30
0.0
  0
POINT
  5
5695
330
4E59
100
AcDbEntity
  8
Defpoints
 62
     0
370
    13
100
AcDbPoint
 10
100.0
 20
8.216117818584984
 30
0.0
  0
POINT
  5
5696
330
4E59
100
AcDbEntity
  8
Defpoints
 62
     0
370
    13
100
AcDbPoint
 10
100.0
 20
-8.886528636860021
 30
0.0
  0
ENDBLK
  5
4E64
330
4E59
100
AcDbEntity
  8
0
370
    13
100
AcDbBlockEnd
  0
BLOCK
  5
4E73
330
4E67
100
AcDbEntity
  8
0
370
    13
100
AcDbBlockBegin
  2
*D8
 70
     1
 71
     0
 10
0.0
 20
0.0
 30
0.0
  3
*D8
  1

  0
LINE
  5
5697
330
4E67
100
AcDbEntity
  8
AM_5
 62
     3
100
AcDbLine
 10
0.7999999999999972
 20
0.0
 30
0.0
 11
45.77334275384494
 21
-0.0000000000000127
 31
0.0
  0
LINE
  5
5698
330
4E67
100
AcDbEntity
  8
AM_5
 62
     3
100
AcDbLine
 10
44.77334275384494
 20
5.99999999999999
 30
0.0
 11
44.77334275384494
 21
8.499999999999989
 31
0.0
  0
LINE
  5
5699
330
4E67
100
AcDbEntity
  8
AM_5
 62
     3
100
AcDbLine
 10
44.77334275384494
 20
-2.500000000000012
 30
0.0
 11
44.77334275384494
 21
-12.33325901807808
 31
0.0
  0
LINE
  5
569A
330
4E67
100
AcDbEntity
  8
AM_5
 62
     3
100
AcDbLine
 10
44.77334275384494
 20
3.499999999999991
 30
0.0
 11
44.77334275384494
 21
-0.0000000000000125
 31
0.0
  0
INSERT
  5
569B
330
4E67
100
AcDbEntity
  8
AM_5
 62
     3
100
AcDbBlockReference
  2
_Open30
 10
44.77334275384494
 20
3.499999999999991
 30
0.0
 41
2.5
 42
2.5
 43
2.5
 50
270.0
  0
INSERT
  5
569C
330
4E67
100
AcDbEntity
  8
AM_5
 62
     3
100
AcDbBlockReference
  2
_Open30
 10
44.77334275384494
 20
-0.0000000000000125
 30
0.0
 41
2.5
 42
2.5
 43
2.5
 50
90.0
  0
MTEXT
  5
569D
330
4E67
100
AcDbEntity
  8
AM_5
 62
     2
370
    13
100
AcDbMText
 10
41.92334275384494
 20
-8.666629509039046
 30
0.0
 40
3.699999999999999
 41
0.0
 71
     5
 72
     1
  1
3.5
 11
6.123031769111886E-17
 21
1.0
 31
0.0
 73
     1
 44
1.0
  0
POINT
  5
569E
330
4E67
100
AcDbEntity
  8
Defpoints
 62
     0
370
    13
100
AcDbPoint
 10
0.7999999999999972
 20
0.0
 30
0.0
  0
POINT
  5
569F
330
4E67
100
AcDbEntity
  8
Defpoints
 62
     0
370
    13
100
AcDbPoint
 10
35.00000000000001
 20
3.499999999999993
 30
0.0
  0
POINT
  5
56A0
330
4E67
100
AcDbEntity
  8
Defpoints
 62
     0
370
    13
100
AcDbPoint
 10
44.77334275384494
 20
3.499999999999991
 30
0.0
  0
ENDBLK
  5
4E74
330
4E67
100
AcDbEntity
  8
0
370
    13
100
AcDbBlockEnd
  0
BLOCK
  5
50BF
330
50AF
100
AcDbEntity
  8
0
370
    13
100
AcDbBlockBegin
  2
*D9
 70
     1
 71
     0
 10
0.0
 20
0.0
 30
0.0
  3
*D9
  1

  0
LINE
  5
56A1
330
50AF
100
AcDbEntity
  8
AM_5
 62
     3
100
AcDbLine
 10
-40.5807365207457
 20
0.0
 30
0.0
 11
-43.96741444733146
 21
-12.63925409089008
 31
0.0
  0
LINE
  5
56A2
330
50AF
100
AcDbEntity
  8
AM_5
 62
     3
100
AcDbLine
 10
-40.42073652074571
 20
-1.876180211794914
 30
0.0
 11
-40.42073652074573
 21
-13.10618309806318
 31
0.0
  0
ARC
  5
56A3
330
50AF
100
AcDbEntity
  8
AM_5
 62
     3
100
AcDbCircle
 10
-40.42073652074571
 20
0.5971281292110078
 30
0.0
 40
12.70331122727419
100
AcDbArc
 50
232.4119343921665
 51
243.7059671960832
  0
ARC
  5
56A4
330
50AF
100
AcDbEntity
  8
AM_5
 62
     3
100
AcDbCircle
 10
-40.42073652074571
 20
0.5971281292110078
 30
0.0
 40
12.70331122727419
100
AcDbArc
 50
281.2940328039168
 51
292.5880656078335
  0
ARC
  5
56A5
330
50AF
100
AcDbEntity
  8
AM_5
 62
     3
100
AcDbCircle
 10
-40.42073652074571
 20
0.5971281292110078
 30
0.0
 40
12.70331122727419
100
AcDbArc
 50
255.0000000000001
 51
269.9999999999999
  0
INSERT
  5
56A6
330
50AF
100
AcDbEntity
  8
AM_5
 62
     3
100
AcDbBlockReference
  2
_Open30
 10
-43.70859540222894
 20
-11.67332826460102
 30
0.0
 41
2.5
 42
2.5
 43
2.5
 50
339.3529835980417
  0
INSERT
  5
56A7
330
50AF
100
AcDbEntity
  8
AM_5
 62
     3
100
AcDbBlockReference
  2
_Open30
 10
-40.42073652074573
 20
-12.10618309806318
 30
0.0
 41
2.5
 42
2.5
 43
2.5
 50
185.6470164019584
  0
MTEXT
  5
56A8
330
50AF
100
AcDbEntity
  8
AM_5
 62
     2
370
    13
100
AcDbMText
 10
-45.91909932740811
 20
-7.579408337278888
 30
0.0
 40
3.699999999999999
 41
0.0
 71
     5
 72
     1
  1
15°
 11
0.829826266307012
 21
-0.5580218344715232
 31
0.0
 73
     1
 44
1.0
  0
POINT
  5
56A9
330
50AF
100
AcDbEntity
  8
Defpoints
 62
     0
370
    13
100
AcDbPoint
 10
-41.52790304611345
 20
-12.05784316360888
 30
0.0
  0
POINT
  5
56AA
330
50AF
100
AcDbEntity
  8
Defpoints
 62
     0
370
    13
100
AcDbPoint
 10
-40.5807365207457
 20
0.0
 30
0.0
  0
POINT
  5
56AB
330
50AF
100
AcDbEntity
  8
Defpoints
 62
     0
370
    13
100
AcDbPoint
 10
-40.42073652074571
 20
23.57609061847757
 30
0.0
  0
POINT
  5
56AC
330
50AF
100
AcDbEntity
  8
Defpoints
 62
     0
370
    13
100
AcDbPoint
 10
-40.42073652074571
 20
-1.876180211794914
 30
0.0
  0
POINT
  5
56AD
330
50AF
100
AcDbEntity
  8
Defpoints
 62
     0
370
    13
100
AcDbPoint
 10
-37.0683901577497
 20
13.10825508048092
 30
0.0
  0
ENDBLK
  5
50C0
330
50AF
100
AcDbEntity
  8
0
370
    13
100
AcDbBlockEnd
  0
BLOCK
  5
510F
330
5108
100
AcDbEntity
  8
0
370
    13
100
AcDbBlockBegin
  2
*D10
 70
     1
 71
     0
 10
0.0
 20
0.0
 30
0.0
  3
*D10
  1

  0
LINE
  5
56AE
330
5108
100
AcDbEntity
  8
AM_5
100
AcDbLine
 10
-32.04461703479156
 20
0.7214967609523804
 30
0.0
 11
-30.3693931376007
 21
-1.134203886857145
 31
0.0
  0
LINE
  5
56AF
330
5108
100
AcDbEntity
  8
AM_5
100
AcDbLine
 10
-48.79685600670015
 20
19.27850323904772
 30
0.0
 11
-51.44175971419197
 21
22.20835012794227
 31
0.0
  0
LINE
  5
56B0
330
5108
100
AcDbEntity
  8
AM_5
100
AcDbLine
 10
-51.44175971419197
 20
22.20835012794227
 30
0.0
 11
-81.4695156197038
 21
22.20835012794226
 31
0.0
  0
LINE
  5
56B1
330
5108
100
AcDbEntity
  8
AM_5
100
AcDbLine
 10
-33.7198409319824
 20
2.577197408761904
 30
0.0
 11
-47.12163210950929
 21
17.4228025912382
 31
0.0
  0
INSERT
  5
56B2
330
5108
100
AcDbEntity
  8
AM_5
100
AcDbBlockReference
  2
_Open30
 10
-33.7198409319824
 20
2.577197408761904
 30
0.0
 41
2.5
 42
2.5
 43
2.5
 50
132.0739773751525
  0
INSERT
  5
56B3
330
5108
100
AcDbEntity
  8
AM_5
100
AcDbBlockReference
  2
_Open30
 10
-47.12163210950929
 20
17.4228025912382
 30
0.0
 41
2.5
 42
2.5
 43
2.5
 50
312.0739773751525
  0
MTEXT
  5
56B4
330
5108
100
AcDbEntity
  8
AM_5
 62
     2
370
    13
100
AcDbMText
 10
-67.20563766694789
 20
25.45869461613124
 30
0.0
 40
3.5
 41
0.0
 71
     5
 72
     1
  1
\A1;最小加工径\U+220520
 73
     1
 44
1.0
  0
POINT
  5
56B5
330
5108
100
AcDbEntity
  8
Defpoints
 62
     0
370
    13
100
AcDbPoint
 10
-47.12163210950929
 20
17.4228025912382
 30
0.0
  0
POINT
  5
56B6
330
5108
100
AcDbEntity
  8
Defpoints
 62
     0
370
    13
100
AcDbPoint
 10
-33.7198409319824
 20
2.577197408761904
 30
0.0
  0
ENDBLK
  5
5110
330
5108
100
AcDbEntity
  8
0
370
    13
100
AcDbBlockEnd
  0
ENDSEC
  0
SECTION
  2
ENTITIES
  0
TEXT
  5
398F
330
1F
100
AcDbEntity
  8
AM_6
  6
Continuous
 62
     0
370
    30
100
AcDbText
 10
44.83711687422517
 20
-38.29312403536379
 30
0.0
 40
3.8
  1
STIR316
  7
ACISOTS
100
AcDbText
  0
LINE
  5
478D
330
1F
100
AcDbEntity
  8
AM_0
370
    30
100
AcDbLine
 10
0.3000000000000398
 20
16.99999999999998
 30
0.0
 11
0.3000000000000398
 21
12.85422327122389
 31
0.0
  0
LINE
  5
479C
330
1F
100
AcDbEntity
  8
AM_7
  6
CENTER
370
    13
100
AcDbLine
 10
-3.315430358469868
 20
11.0
 30
0.0
 11
153.2091621516709
 21
11.0
 31
0.0
  0
LINE
  5
47B1
330
1F
100
AcDbEntity
  8
AM_0
370
    30
100
AcDbLine
 10
5.898076211353398
 20
18.50000000000001
 30
0.0
 11
35.00000000000001
 21
18.5
 31
0.0
  0
LINE
  5
47B7
330
1F
100
AcDbEntity
  8
AM_0
370
    30
100
AcDbLine
 10
15.03205080756892
 20
3.499999999999993
 30
0.0
 11
35.00000000000001
 21
3.499999999999993
 31
0.0
  0
LINE
  5
47F3
330
1F
100
AcDbEntity
  8
AM_0
370
    30
100
AcDbLine
 10
35.0
 20
18.5
 30
0.0
 11
35.50000000000001
 21
19.0
 31
0.0
  0
LINE
  5
4807
330
1F
100
AcDbEntity
  8
AM_0
370
    30
100
AcDbLine
 10
149.5
 20
19.0
 30
0.0
 11
103.0
 21
18.99999999999999
 31
0.0
  0
LINE
  5
4822
330
1F
100
AcDbEntity
  8
AM_0
370
    30
100
AcDbLine
 10
150.0
 20
3.499999999999993
 30
0.0
 11
103.0
 21
3.499999999999993
 31
0.0
  0
LINE
  5
4823
330
1F
100
AcDbEntity
  8
AM_0
370
    30
100
AcDbLine
 10
149.5
 20
19.0
 30
0.0
 11
150.0
 21
18.5
 31
0.0
  0
LINE
  5
482C
330
1F
100
AcDbEntity
  8
AM_0
370
    30
100
AcDbLine
 10
149.5
 20
19.0
 30
0.0
 11
149.5
 21
13.78388199999999
 31
0.0
  0
DIMENSION
  5
4893
330
1F
100
AcDbEntity
  8
AM_5
370
    13
100
AcDbDimension
  2
*D4
 10
-10.65718789946111
 20
-0.0000000000000181
 30
0.0
 11
-10.65718789946111
 21
5.546316794607265
 31
0.0
 70
   160
 71
     5
 42
11.00000000000002
  3
AM_JIS
100
AcDbAlignedDimension
 13
-3.315430358469868
 23
11.0
 33
0.0
 14
0.7999999992032645
 24
-0.0000000000000213
 34
0.0
 50
90.0
100
AcDbRotatedDimension
1001
ACAD
1000
DSTYLE
1002
{
1070
    78
1070
     8
1002
}
  0
DIMENSION
  5
48E2
330
1F
100
AcDbEntity
  8
AM_5
370
    13
100
AcDbDimension
  2
*D5
 10
150.0
 20
-22.84123955459654
 30
0.0
 11
68.90290819647346
 21
-22.84123955459654
 31
0.0
 70
   160
 71
     5
 42
150.0
  3
AM_JIS
100
AcDbAlignedDimension
 13
0.0
 23
1.300502779634059
 33
0.0
 14
150.0
 24
3.499999999999993
 34
0.0
100
AcDbRotatedDimension
1001
ACAD
1000
DSTYLE
1002
{
1070
    78
1070
     8
1002
}
  0
LINE
  5
490B
330
1F
100
AcDbEntity
  8
AM_0
370
    30
100
AcDbLine
 10
0.3000000000000398
 20
16.99999999999998
 30
0.0
 11
5.898076211353441
 21
18.5
 31
0.0
  0
LINE
  5
4DEA
330
1F
100
AcDbEntity
  8
AM_0
370
    30
100
AcDbLine
 10
35.50000000000001
 20
13.78388199999999
 30
0.0
 11
35.50000000000001
 21
19.0
 31
0.0
  0
LINE
  5
4DED
330
1F
100
AcDbEntity
  8
AM_0
370
    30
100
AcDbLine
 10
149.5
 20
8.223174633785504
 30
0.0
 11
149.5
 21
3.499999999999993
 31
0.0
  0
ARC
  5
4E05
330
1F
100
AcDbEntity
  8
AM_0
370
    30
100
AcDbCircle
 10
92.50000000000001
 20
11.0
 30
0.0
 40
8.0
100
AcDbArc
 50
20.3641348063178
 51
159.6358651936822
  0
LINE
  5
4E0F
330
1F
100
AcDbEntity
  8
AM_0
370
    30
100
AcDbLine
 10
85.00000000000001
 20
8.216117818584991
 30
0.0
 11
85.00000000000001
 21
13.78388218141501
 31
0.0
  0
LINE
  5
4E15
330
1F
100
AcDbEntity
  8
AM_0
370
    30
100
AcDbLine
 10
100.0
 20
13.78388218141501
 30
0.0
 11
100.0
 21
8.216117818584991
 31
0.0
  0
ARC
  5
4E16
330
1F
100
AcDbEntity
  8
AM_0
370
    30
100
AcDbCircle
 10
92.50000000000001
 20
11.0
 30
0.0
 40
8.0
100
AcDbArc
 50
200.3641348063178
 51
249.6358651936823
  0
LINE
  5
4E17
330
1F
100
AcDbEntity
  8
AM_7
  6
CENTER
370
    13
100
AcDbLine
 10
92.50000000000001
 20
0.7786265946197091
 30
0.0
 11
92.50000000000001
 21
20.65859239334532
 31
0.0
  0
LINE
  5
4E42
330
1F
100
AcDbEntity
  8
AM_0
370
    30
100
AcDbLine
 10
82.0
 20
19.00000000000001
 30
0.0
 11
35.50000000000001
 21
19.0
 31
0.0
  0
LINE
  5
4E43
330
1F
100
AcDbEntity
  8
AM_0
370
    30
100
AcDbLine
 10
82.00000000000001
 20
3.499999999999993
 30
0.0
 11
15.03205100000005
 21
3.499999999999993
 31
0.0
  0
DIMENSION
  5
4E44
330
1F
100
AcDbEntity
  8
AM_5
370
    13
100
AcDbDimension
  2
*D6
 10
89.05233219006612
 20
3.781025926605231
 30
0.0
 11
103.5627707044521
 21
24.24574797887179
 31
0.0
 70
   163
 71
     5
 42
16.00000000000003
  3
AM_JIS$3
100
AcDbDiametricDimension
 15
95.94766780993388
 25
18.21897407339478
 35
0.0
 40
0.0
1001
ACAD
1000
DSTYLE
1002
{
1070
   172
1070
     1
1002
}
  0
DIMENSION
  5
4E58
330
1F
100
AcDbEntity
  8
AM_5
370
    13
100
AcDbDimension
  2
*D7
 10
100.0
 20
-8.886528636860021
 30
0.0
 11
92.50000000000001
 21
-6.036528636860021
 31
0.0
 70
    32
 71
     5
 42
15.0
  3
AM_JIS
100
AcDbAlignedDimension
 13
85.00000000000001
 23
8.216117818584991
 33
0.0
 14
100.0
 24
8.216117818584984
 34
0.0
100
AcDbRotatedDimension
1001
ACAD
1000
DSTYLE
1002
{
1070
    78
1070
     8
1002
}
  0
DIMENSION
  5
4E66
330
1F
100
AcDbEntity
  8
AM_5
370
    13
100
AcDbDimension
  2
*D8
 10
44.77334275384494
 20
3.499999999999991
 30
0.0
 11
44.77334275384494
 21
-8.666629509039048
 31
0.0
 70
   160
 71
     5
 42
3.500000000000001
  3
AM_JIS
100
AcDbAlignedDimension
 13
0.7999999999999972
 23
0.0
 33
0.0
 14
35.00000000000001
 24
3.499999999999993
 34
0.0
 50
90.0
100
AcDbRotatedDimension
1001
ACAD
1000
DSTYLE
1002
{
1070
    76
1070
     1
1070
    78
1070
     8
1002
}
  0
HATCH
  5
4EE0
330
1F
100
AcDbEntity
  8
AM_5
370
    13
100
AcDbHatch
 10
0.0
 20
0.0
 30
0.0
210
0.0
220
0.0
230
1.0
  2
LINE
 70
     0
 71
     0
 91
        4
 92
        7
 72
     1
 73
     1
 93
        4
 10
92.50000000000001
 20
19.0
 42
0.3135528725660044
 10
85.00000000000001
 20
13.78388218141501
 42
0.0
 10
85.00000000000001
 20
11.0
 42
0.0
 10
92.50000000000001
 20
11.0
 42
0.0
 97
        0
 92
        7
 72
     1
 73
     1
 93
        4
 10
100.0
 20
11.0
 42
0.0
 10
100.0
 20
13.78388218141501
 42
0.3135528725660044
 10
92.50000000000001
 20
19.0
 42
0.0
 10
92.50000000000003
 20
11.0
 42
0.0
 97
        0
 92
        5
 93
        5
 72
     1
 10
89.71611781858502
 20
3.499999999999993
 11
92.50000000000001
 21
3.499999999999994
 72
     1
 10
92.50000000000001
 20
3.499999999999994
 11
92.50000000000001
 21
11.0
 72
     1
 10
92.50000000000001
 20
11.0
 11
85.0
 21
11.0
 72
     1
 10
85.0
 20
11.0
 11
85.00000000000001
 21
8.216117818584991
 72
     2
 10
92.50000000000001
 20
11.0
 40
8.0
 50
200.3641348063178
 51
249.6358651936823
 73
     1
 97
        0
 92
        5
 93
        5
 72
     1
 10
92.50000000000001
 20
3.499999999999993
 11
95.28388218141501
 21
3.499999999999993
 72
     2
 10
92.50000000000001
 20
11.0
 40
8.0
 50
290.3641348063177
 51
339.6358651936822
 73
     1
 72
     1
 10
100.0
 20
8.216117818584991
 11
100.0
 21
11.0
 72
     1
 10
100.0
 20
11.0
 11
92.50000000000001
 21
11.0
 72
     1
 10
92.50000000000001
 20
11.0
 11
92.50000000000001
 21
3.499999999999993
 97
        0
 75
     0
 76
     1
 52
45.0
 41
0.5
 77
     0
 78
     1
 53
45.0
 43
111.6702656397291
 44
-28.86228557321738
 45
-1.122532015133644
 46
1.122532015133644
 79
     0
 47
0.1536034218270564
 98
        4
 10
89.57846036741542
 20
14.41514571507287
 10
95.87911270738262
 20
13.493525650214
 10
88.34911602114592
 20
8.117396843852475
 10
95.87911270738262
 20
7.195776778993604
  0
LINE
  5
4EF7
330
1F
100
AcDbEntity
  8
AM_7
  6
CENTER
370
    13
100
AcDbLine
 10
-40.42073652074571
 20
23.57609061847757
 30
0.0
 11
-40.42073652074571
 21
-1.876180211794917
 31
0.0
  0
ARC
  5
4F05
330
1F
100
AcDbEntity
  8
AM_0
370
    30
100
AcDbCircle
 10
-40.42073652074571
 20
11.0
 30
0.0
 40
8.0
100
AcDbArc
 50
274.667286949696
 51
358.2092153406711
  0
LINE
  5
4F06
330
1F
100
AcDbEntity
  8
AM_7
  6
CENTER
370
    13
100
AcDbLine
 10
-51.70717442524436
 20
11.0
 30
0.0
 11
-29.01059088516631
 21
11.0
 31
0.0
  0
LINE
  5
4F11
330
1F
100
AcDbEntity
  8
AM_0
370
    30
100
AcDbLine
 10
-44.10636578670081
 20
0.9446895146242014
 30
0.0
 11
-40.59401942370481
 21
14.05294459510512
 31
0.0
  0
LINE
  5
4F1E
330
1F
100
AcDbEntity
  8
AM_0
370
    30
100
AcDbLine
 10
-40.5807365207457
 20
0.0
 30
0.0
 11
-36.02560024941666
 21
16.99999999999998
 31
0.0
  0
LINE
  5
4F25
330
1F
100
AcDbEntity
  8
AM_0
370
    30
100
AcDbLine
 10
-40.59401942370481
 20
14.05294459510512
 30
0.0
 11
-37.0683901577497
 21
13.10825508048092
 31
0.0
  0
LINE
  5
4F2B
330
1F
100
AcDbEntity
  8
AM_0
370
    30
100
AcDbLine
 10
-40.5807365207457
 20
0.0
 30
0.0
 11
-44.10636578670081
 21
0.9446895146242014
 31
0.0
  0
ARC
  5
4F53
330
1F
100
AcDbEntity
  8
AM_0
370
    30
100
AcDbCircle
 10
-40.42073652074571
 20
10.5
 30
0.0
 40
8.0
100
AcDbArc
 50
1.790784659328949
 51
159.6358651936824
  0
LINE
  5
4F62
330
1F
100
AcDbEntity
  8
AM_0
370
    30
100
AcDbLine
 10
-47.92073652074571
 20
13.28388218141498
 30
0.0
 11
-47.92073652074571
 21
7.716117818584984
 31
0.0
  0
ARC
  5
4F63
330
1F
100
AcDbEntity
  8
AM_0
370
    30
100
AcDbCircle
 10
-40.42073652074571
 20
10.5
 30
0.0
 40
8.0
100
AcDbArc
 50
200.3641348063176
 51
247.1911548301961
  0
LINE
  5
5035
330
1F
100
AcDbEntity
  8
AM_0
370
    30
100
AcDbLine
 10
-36.02560024941666
 20
16.99999999999998
 30
0.0
 11
-45.08442604729014
 21
16.99999999999998
 31
0.0
  0
CIRCLE
  5
50AC
330
1F
100
AcDbEntity
  8
AM_5
  6
AM_ISO09W050
 48
0.5
370
    13
100
AcDbCircle
 10
-40.42073652074571
 20
10.0
 30
0.0
 40
10.0
  0
DIMENSION
  5
50AE
330
1F
100
AcDbEntity
  8
AM_5
370
    13
100
AcDbDimension
  2
*D9
 10
-37.0683901577497
 20
13.10825508048092
 30
0.0
 11
-47.50946155565195
 21
-9.944413196253873
 31
0.0
 70
   162
 71
     5
 42
0.2617993877991474
  3
AM_JIS
100
AcDb2LineAngularDimension
 13
-40.42073652074571
 23
23.57609061847757
 33
0.0
 14
-40.42073652074571
 24
-1.876180211794917
 34
0.0
 15
-40.5807365207457
 25
0.0
 35
0.0
 16
-41.52790304611345
 26
-12.05784316360888
 36
0.0
1001
ACAD
1000
DSTYLE
1002
{
1070
    78
1070
     8
1070
   179
1070
     0
1002
}
  0
DIMENSION
  5
5107
330
1F
100
AcDbEntity
  8
AM_5
370
    13
100
AcDbDimension
  2
*D10
 10
-33.7198409319824
 20
2.577197408761904
 30
0.0
 11
-67.20563766694789
 21
22.20835012794226
 31
0.0
 70
   163
  1
最小加工径<>
 71
     5
 42
20.00000000000011
  3
AM_JIS$3
100
AcDbDiametricDimension
 15
-47.12163210950929
 25
17.4228025912382
 35
0.0
 40
0.0
1001
ACAD
1000
DSTYLE
1002
{
1070
   172
1070
     1
1002
}
  0
LINE
  5
51BC
330
1F
100
AcDbEntity
  8
AM_0
370
    30
100
AcDbLine
 10
95.28388218141501
 20
3.499999999999993
 30
0.0
 11
89.71611781858502
 21
3.499999999999993
 31
0.0
  0
ARC
  5
51C0
330
1F
100
AcDbEntity
  8
AM_0
370
    30
100
AcDbCircle
 10
92.50000000000001
 20
11.0
 30
0.0
 40
8.0
100
AcDbArc
 50
290.3641348063177
 51
339.6358651936822
  0
ARC
  5
522A
330
1F
100
AcDbEntity
  8
AM_0
370
    30
100
AcDbCircle
 10
0.7999999992032656
 20
0.0399999999999778
 30
0.0
 40
0.04
100
AcDbArc
 50
210.866666666
 51
329.133333334
  0
LINE
  5
522B
330
1F
100
AcDbEntity
  8
AM_0
370
    30
100
AcDbLine
 10
1.086224860958751
 20
0.4409125889841619
 30
0.0
 11
0.8343345402708877
 21
0.0194783214702881
 31
0.0
  0
LINE
  5
522C
330
1F
100
AcDbEntity
  8
AM_0
370
    30
100
AcDbLine
 10
0.0
 20
1.300502779634059
 30
0.0
 11
0.7656654581356435
 21
0.0194783214702881
 31
0.0
  0
LINE
  5
5271
330
1F
100
AcDbEntity
  8
AM_0
370
    30
100
AcDbLine
 10
1.797718733526843
 20
0.4369999999999692
 30
0.0
 11
1.884321273905286
 21
0.2869999999999777
 31
0.0
  0
LINE
  5
5278
330
1F
100
AcDbEntity
  8
AM_0
370
    30
100
AcDbLine
 10
2.384321273905286
 20
0.2869999999999777
 30
0.0
 11
1.884321273905286
 21
0.2869999999999777
 31
0.0
  0
LINE
  5
5285
330
1F
100
AcDbEntity
  8
AM_0
370
    30
100
AcDbLine
 10
1.343733918959018
 20
0.5869999999999749
 30
0.0
 11
1.537911112391512
 21
0.5869999999999749
 31
0.0
  0
ARC
  5
5287
330
1F
100
AcDbEntity
  8
AM_0
370
    30
100
AcDbCircle
 10
1.343733918959025
 20
0.2869999999999635
 30
0.0
 40
0.3
100
AcDbArc
 50
90.000000000002
 51
149.1333333314274
  0
ARC
  5
5288
330
1F
100
AcDbEntity
  8
AM_0
370
    30
100
AcDbCircle
 10
1.537911112391484
 20
0.2869999999999351
 30
0.0
 40
0.3
100
AcDbArc
 50
30.00000000000405
 51
89.99999999999665
  0
LINE
  5
529E
330
1F
100
AcDbEntity
  8
AM_0
370
    30
100
AcDbLine
 10
2.384321273905286
 20
0.2869999999999777
 30
0.0
 11
2.628829366658309
 21
0.3213633714469779
 31
0.0
  0
LINE
  5
538C
330
1F
100
AcDbEntity
  8
AM_0
370
    30
100
AcDbLine
 10
1.884321273905286
 20
0.2869999999999777
 30
0.0
 11
2.384321273905286
 21
0.2869999999999777
 31
0.0
  0
LINE
  5
53F4
330
1F
100
AcDbEntity
  8
AM_0
370
    30
100
AcDbLine
 10
12.12512571533436
 20
5.804052624659519
 30
0.0
 11
12.85169270990556
 21
7.107650591287126
 31
0.0
  0
ARC
  5
53F8
330
1F
100
AcDbEntity
  8
AM_0
370
    30
100
AcDbCircle
 10
12.81675314443675
 20
7.127124336814134
 30
0.0
 40
0.04
100
AcDbArc
 50
330.866666666
 51
89.133333334
  0
LINE
  5
53F9
330
1F
100
AcDbEntity
  8
AM_0
370
    30
100
AcDbLine
 10
12.32644022680171
 20
7.174546043796966
 30
0.0
 11
12.81735816883793
 21
7.167119760870818
 31
0.0
  0
LINE
  5
53FB
330
1F
100
AcDbEntity
  8
AM_0
370
    30
100
AcDbLine
 10
11.97408169197254
 20
7.792674106570004
 30
0.0
 11
12.06068423235098
 21
7.942674106569996
 31
0.0
  0
LINE
  5
53FC
330
1F
100
AcDbEntity
  8
AM_0
370
    30
100
AcDbLine
 10
11.81068423235098
 20
8.37568680846222
 30
0.0
 11
12.06068423235098
 21
7.942674106569996
 31
0.0
  0
LINE
  5
53FD
330
1F
100
AcDbEntity
  8
AM_0
370
    30
100
AcDbLine
 10
12.07117028868879
 20
7.324511724221893
 30
0.0
 11
11.97408169197254
 21
7.492674106570007
 31
0.0
  0
ARC
  5
53FE
330
1F
100
AcDbEntity
  8
AM_0
370
    30
100
AcDbCircle
 10
12.33097790982413
 20
7.474511724221912
 30
0.0
 40
0.3
100
AcDbArc
 50
210.000000000002
 51
269.1333333314274
  0
ARC
  5
53FF
330
1F
100
AcDbEntity
  8
AM_0
370
    30
100
AcDbCircle
 10
12.23388931310792
 20
7.642674106570013
 30
0.0
 40
0.3
100
AcDbArc
 50
150.0000000000041
 51
209.9999999999966
  0
LINE
  5
5400
330
1F
100
AcDbEntity
  8
AM_0
370
    30
100
AcDbLine
 10
11.81068423235098
 20
8.37568680846222
 30
0.0
 11
11.65867063334169
 21
8.570255342493724
 31
0.0
  0
LINE
  5
5401
330
1F
100
AcDbEntity
  8
AM_0
370
    30
100
AcDbLine
 10
12.06068423235098
 20
7.942674106569996
 30
0.0
 11
11.81068423235098
 21
8.37568680846222
 31
0.0
  0
LINE
  5
540C
330
1F
100
AcDbEntity
  8
AM_0
370
    30
100
AcDbLine
 10
2.16237428466566
 20
14.05294459570632
 30
0.0
 11
0.6701418319588015
 21
14.03037108724249
 31
0.0
  0
ARC
  5
5410
330
1F
100
AcDbEntity
  8
AM_0
370
    30
100
AcDbCircle
 10
0.6707468563599974
 20
13.99037566318577
 30
0.0
 40
0.04
100
AcDbArc
 50
90.866666666
 51
209.133333334
  0
LINE
  5
5411
330
1F
100
AcDbEntity
  8
AM_0
370
    30
100
AcDbLine
 10
0.8748349122395638
 20
13.54204136721876
 30
0.0
 11
0.6358072908911794
 21
13.97090191765879
 31
0.0
  0
LINE
  5
5413
330
1F
100
AcDbEntity
  8
AM_0
370
    30
100
AcDbLine
 10
0.5156995745006441
 20
12.92782589342993
 30
0.0
 11
0.3424944937437573
 21
12.92782589342993
 31
0.0
  0
LINE
  5
5414
330
1F
100
AcDbEntity
  8
AM_0
370
    30
100
AcDbLine
 10
0.0924944937437573
 20
12.4948131915377
 30
0.0
 11
0.3424944937437573
 21
12.92782589342993
 31
0.0
  0
LINE
  5
5415
330
1F
100
AcDbEntity
  8
AM_0
370
    30
100
AcDbLine
 10
0.8725957923522287
 20
13.24598827577802
 30
0.0
 11
0.7755071956359814
 21
13.07782589342992
 31
0.0
  0
ARC
  5
5416
330
1F
100
AcDbEntity
  8
AM_0
370
    30
100
AcDbCircle
 10
0.6127881712168701
 20
13.39598827577801
 30
0.0
 40
0.3
100
AcDbArc
 50
330.000000000002
 51
29.13333333142731
  0
ARC
  5
5417
330
1F
100
AcDbEntity
  8
AM_0
370
    30
100
AcDbCircle
 10
0.5156995745006157
 20
13.22782589342995
 30
0.0
 40
0.3
100
AcDbArc
 50
270.0000000000041
 51
329.9999999999967
  0
LINE
  5
5418
330
1F
100
AcDbEntity
  8
AM_0
370
    30
100
AcDbLine
 10
0.0924944937437573
 20
12.4948131915377
 30
0.0
 11
0.0000000000000284
 21
12.2658812860592
 31
0.0
  0
LINE
  5
5419
330
1F
100
AcDbEntity
  8
AM_0
370
    30
100
AcDbLine
 10
0.3424944937437573
 20
12.92782589342993
 30
0.0
 11
0.0924944937437573
 21
12.4948131915377
 31
0.0
  0
LINE
  5
5425
330
1F
100
AcDbEntity
  8
AM_0
370
    30
100
AcDbLine
 10
0.0
 20
12.26588128605913
 30
0.0
 11
0.0
 21
1.300502779634059
 31
0.0
  0
LINE
  5
5427
330
1F
100
AcDbEntity
  8
AM_0
370
    30
100
AcDbLine
 10
12.12512571533438
 20
5.804052624659548
 30
0.0
 11
2.628829366658302
 21
0.3213633714469779
 31
0.0
  0
LINE
  5
5428
330
1F
100
AcDbEntity
  8
AM_0
370
    30
100
AcDbLine
 10
11.65867063334163
 20
8.570255342493795
 30
0.0
 11
2.162374284665638
 21
14.05294459570634
 31
0.0
  0
CIRCLE
  5
542A
330
1F
100
AcDbEntity
  8
AM_0
370
    30
100
AcDbCircle
 10
4.762500000000003
 20
7.052499999999981
 30
0.0
 40
3.05
  0
ARC
  5
5437
330
1F
100
AcDbEntity
  8
AM_0
370
    30
100
AcDbCircle
 10
3.896473999999998
 20
6.552499999999981
 30
0.0
 40
0.300000019553333
100
AcDbArc
 50
134.4152344388859
 51
285.5847553300837
  0
ARC
  5
5438
330
1F
100
AcDbEntity
  8
AM_0
370
    30
100
AcDbCircle
 10
4.084538000000009
 20
5.878235999999987
 30
0.0
 40
0.4000002011124489
100
AcDbArc
 50
14.41523200175828
 51
105.584683683608
  0
ARC
  5
5439
330
1F
100
AcDbEntity
  8
AM_0
370
    30
100
AcDbCircle
 10
4.762500000000003
 20
6.052499999999981
 30
0.0
 40
0.300000095416651
100
AcDbArc
 50
194.4153826179151
 51
345.584617382085
  0
ARC
  5
543A
330
1F
100
AcDbEntity
  8
AM_0
370
    30
100
AcDbCircle
 10
5.440461999999997
 20
5.878235999999987
 30
0.0
 40
0.400000240826177
100
AcDbArc
 50
74.41531631639127
 51
165.5847679982417
  0
ARC
  5
543B
330
1F
100
AcDbEntity
  8
AM_0
370
    30
100
AcDbCircle
 10
5.628524999999996
 20
6.552499999999981
 30
0.0
 40
0.2999994975062461
100
AcDbArc
 50
254.415428634384
 51
45.58462914274519
  0
ARC
  5
543C
330
1F
100
AcDbEntity
  8
AM_0
370
    30
100
AcDbCircle
 10
6.118423000000007
 20
7.052499999999981
 30
0.0
 40
0.399999316595666
100
AcDbArc
 50
134.4152671653342
 51
225.5847328346658
  0
ARC
  5
543D
330
1F
100
AcDbEntity
  8
AM_0
370
    30
100
AcDbCircle
 10
5.628524999999996
 20
7.552499999999981
 30
0.0
 40
0.300000719407471
100
AcDbArc
 50
314.4153708572548
 51
105.584571365616
  0
ARC
  5
543E
330
1F
100
AcDbEntity
  8
AM_0
370
    30
100
AcDbCircle
 10
5.440461999999997
 20
8.226763999999989
 30
0.0
 40
0.400000450060997
100
AcDbArc
 50
194.4153707314452
 51
285.5846836836079
  0
ARC
  5
543F
330
1F
100
AcDbEntity
  8
AM_0
370
    30
100
AcDbCircle
 10
4.762500000000003
 20
8.052499999999981
 30
0.0
 40
0.299999846468294
100
AcDbArc
 50
14.41519764482083
 51
165.5848023551792
  0
ARC
  5
5440
330
1F
100
AcDbEntity
  8
AM_0
370
    30
100
AcDbCircle
 10
4.084538000000009
 20
8.226763999999989
 30
0.0
 40
0.400000240826177
100
AcDbArc
 50
254.4153163163921
 51
345.5846292685548
  0
ARC
  5
5441
330
1F
100
AcDbEntity
  8
AM_0
370
    30
100
AcDbCircle
 10
3.896473999999998
 20
7.552499999999981
 30
0.0
 40
0.299999766168242
100
AcDbArc
 50
74.41524466991633
 51
225.5847655611135
  0
ARC
  5
5442
330
1F
100
AcDbEntity
  8
AM_0
370
    30
100
AcDbCircle
 10
3.406576999999999
 20
7.052499999999981
 30
0.0
 40
0.399999316595666
100
AcDbArc
 50
314.4152671653353
 51
45.58473283466579
  0
CIRCLE
  5
5444
330
1F
100
AcDbEntity
  8
AM_0
370
    30
100
AcDbCircle
 10
4.762500000000003
 20
7.052499999999981
 30
0.0
 40
2.55
  0
LINE
  5
54AC
330
1F
100
AcDbEntity
  8
AM_0
370
    30
100
AcDbLine
 10
15.03205100000006
 20
3.699681999999995
 30
0.0
 11
22.58954500000003
 21
3.699681999999996
 31
0.0
  0
LINE
  5
54AD
330
1F
100
AcDbEntity
  8
AM_0
370
    30
100
AcDbLine
 10
14.96087100000001
 20
16.46270199999999
 30
0.0
 11
13.30000000000003
 21
16.46270199999999
 31
0.0
  0
LINE
  5
54B0
330
1F
100
AcDbEntity
  8
AM_0
370
    30
100
AcDbLine
 10
149.5
 20
19.0
 30
0.0
 11
103.0
 21
19.0
 31
0.0
  0
LINE
  5
54B1
330
1F
100
AcDbEntity
  8
AM_0
370
    30
100
AcDbLine
 10
35.50000000000003
 20
13.78388199999999
 30
0.0
 11
82.00000000000001
 21
13.78388199999999
 31
0.0
  0
LINE
  5
54B2
330
1F
100
AcDbEntity
  8
AM_0
370
    30
100
AcDbLine
 10
149.5
 20
8.216117999999995
 30
0.0
 11
103.0
 21
8.216117999999995
 31
0.0
  0
LINE
  5
54BB
330
1F
100
AcDbEntity
  8
AM_0
370
    30
100
AcDbLine
 10
150.0
 20
18.50000000000001
 30
0.0
 11
150.0
 21
3.499999999999986
 31
0.0
  0
LINE
  5
54C0
330
1F
100
AcDbEntity
  8
AM_0
370
    30
100
AcDbLine
 10
13.30000000000003
 20
18.5
 30
0.0
 11
13.30000000000003
 21
16.46270199999999
 31
0.0
  0
LINE
  5
54C1
330
1F
100
AcDbEntity
  8
AM_0
370
    30
100
AcDbLine
 10
35.00000000000002
 20
18.50000000000003
 30
0.0
 11
35.00000000000003
 21
3.499999999999986
 31
0.0
  0
LINE
  5
54C3
330
1F
100
AcDbEntity
  8
AM_0
370
    30
100
AcDbLine
 10
35.50000000000003
 20
8.216117999999995
 30
0.0
 11
35.50000000000003
 21
3.499999999999986
 31
0.0
  0
LINE
  5
54C8
330
1F
100
AcDbEntity
  8
AM_0
370
    30
100
AcDbLine
 10
35.50000000000003
 20
3.499999999999986
 30
0.0
 11
35.00000000000003
 21
3.499999999999986
 31
0.0
  0
SPLINE
  5
54D6
330
1F
100
AcDbEntity
  8
AM_0
370
    30
100
AcDbSpline
210
0.0
220
0.0
230
1.0
 70
     8
 71
     3
 72
    11
 73
     7
 74
     5
 42
0.0000000001
 43
0.0000000001
 44
0.0000000001
 40
0.0
 40
0.0
 40
0.0
 40
0.0
 40
3.088058046047868
 40
5.96679676299685
 40
10.47308067486945
 40
16.57452491656339
 40
16.57452491656339
 40
16.57452491656339
 40
16.57452491656339
 10
27.83202200000002
 20
4.241354999999999
 30
0.0
 10
28.85244580823923
 20
4.787281065863763
 30
0.0
 10
30.82412554517907
 20
5.842128427557761
 30
0.0
 10
29.79460595331299
 20
9.886588430400256
 30
0.0
 10
26.24051504241016
 20
12.70064866998565
 30
0.0
 10
23.08209067246066
 20
14.30482314135595
 30
0.0
 10
21.26540100000003
 20
15.22752599999998
 30
0.0
 11
27.83202200000002
 21
4.241354999999999
 31
0.0
 11
30.20807800000003
 21
6.213779999999986
 31
0.0
 11
29.76918400000002
 21
9.058864999999997
 31
0.0
 11
26.59538500000004
 21
12.25786399999998
 31
0.0
 11
21.26540100000003
 21
15.22752599999998
 31
0.0
  0
SPLINE
  5
54D7
330
1F
100
AcDbEntity
  8
AM_0
370
    30
100
AcDbSpline
210
0.0
220
0.0
230
1.0
 70
     8
 71
     3
 72
    11
 73
     7
 74
     5
 42
0.0000000001
 43
0.0000000001
 44
0.0000000001
 40
0.0
 40
0.0
 40
0.0
 40
0.0
 40
0.7102631375039815
 40
1.420545154872441
 40
2.13080684825594
 40
2.841100805794656
 40
2.841100805794656
 40
2.841100805794656
 40
2.841100805794656
 10
149.5
 20
8.216117999999995
 30
0.0
 10
149.573645057936
 20
8.441255239454844
 30
0.0
 10
149.7209371314044
 20
8.89153570285162
 30
0.0
 10
149.8767356714969
 20
9.58538703360078
 30
0.0
 10
149.9805824676217
 20
10.28941430477508
 30
0.0
 10
149.9935273912041
 20
10.76313451515884
 30
0.0
 10
150.0
 20
11.0
 30
0.0
 11
149.5
 21
8.216117999999995
 31
0.0
 11
149.710079
 21
8.894601999999992
 31
0.0
 11
149.868078
 21
9.587087999999994
 31
0.0
 11
149.96651
 21
10.29049599999999
 31
0.0
 11
150.0
 21
11.0
 31
0.0
  0
SPLINE
  5
54D8
330
1F
100
AcDbEntity
  8
AM_0
370
    30
100
AcDbSpline
210
0.0
220
0.0
230
1.0
 70
     8
 71
     3
 72
    11
 73
     7
 74
     5
 42
0.0000000001
 43
0.0000000001
 44
0.0000000001
 40
0.0
 40
0.0
 40
0.0
 40
0.0
 40
0.7102563858340066
 40
1.420545035362499
 40
2.130812528635271
 40
2.841102393882558
 40
2.841102393882558
 40
2.841102393882558
 40
2.841102393882558
 10
150.0
 20
11.0
 30
0.0
 10
149.9935356211728
 20
11.23685374457651
 30
0.0
 10
149.9806065698712
 20
11.7105719929103
 30
0.0
 10
149.8767062181676
 20
12.41458200475432
 30
0.0
 10
149.720982371299
 20
13.10846335586702
 30
0.0
 10
149.5736615638049
 20
13.55874008819342
 30
0.0
 10
149.5
 20
13.78388199999999
 30
0.0
 11
150.0
 21
11.0
 31
0.0
 11
149.966523
 21
11.70946699999999
 31
0.0
 11
149.868068
 21
12.412899
 31
0.0
 11
149.7101080000001
 21
13.105379
 31
0.0
 11
149.5
 21
13.78388199999999
 31
0.0
  0
SPLINE
  5
54D9
330
1F
100
AcDbEntity
  8
AM_0
370
    30
100
AcDbSpline
210
0.0
220
0.0
230
1.0
 70
     8
 71
     3
 72
    11
 73
     7
 74
     5
 42
0.0000000001
 43
0.0000000001
 44
0.0000000001
 40
0.0
 40
0.0
 40
0.0
 40
0.0
 40
1.396752873990593
 40
2.770431799153608
 40
4.086840289246251
 40
5.290764872061968
 40
5.290764872061968
 40
5.290764872061968
 40
5.290764872061968
 10
22.58954500000003
 20
3.699681999999996
 30
0.0
 10
23.05526789218992
 20
3.702811215416495
 30
0.0
 10
23.97902007064818
 20
3.709017952526334
 30
0.0
 10
25.33843436524422
 20
3.781643910408429
 30
0.0
 10
26.63654808812277
 20
3.896826405954596
 30
0.0
 10
27.44556634529745
 20
4.129980739087443
 30
0.0
 10
27.83202200000002
 20
4.241354999999999
 30
0.0
 11
22.58954500000003
 21
3.699681999999996
 31
0.0
 11
23.98615000000002
 21
3.720005999999984
 31
0.0
 11
25.35799600000003
 21
3.790944999999994
 31
0.0
 11
26.66554400000003
 21
3.943422999999996
 31
0.0
 11
27.83202200000002
 21
4.241354999999999
 31
0.0
  0
SPLINE
  5
54DA
330
1F
100
AcDbEntity
  8
AM_0
370
    30
100
AcDbSpline
210
0.0
220
0.0
230
1.0
 70
     8
 71
     3
 72
    11
 73
     7
 74
     5
 42
0.0000000001
 43
0.0000000001
 44
0.0000000001
 40
0.0
 40
0.0
 40
0.0
 40
0.0
 40
1.590328616401341
 40
3.198023055194986
 40
4.825473260605882
 40
6.466037346390104
 40
6.466037346390104
 40
6.466037346390104
 40
6.466037346390104
 10
21.26540100000003
 20
15.22752599999998
 30
0.0
 10
20.77177004826531
 20
15.42256062671582
 30
0.0
 10
19.77911787051749
 20
15.81475958884604
 30
0.0
 10
18.2086163451105
 20
16.18220071729161
 30
0.0
 10
16.59784201330478
 20
16.41870411872052
 30
0.0
 10
15.50798579529239
 20
16.44799685762797
 30
0.0
 10
14.96087100000003
 20
16.46270199999999
 30
0.0
 11
21.26540100000003
 21
15.22752599999998
 31
0.0
 11
19.77259400000003
 21
15.77586199999999
 31
0.0
 11
18.21112600000002
 21
16.15861399999999
 31
0.0
 11
16.59964200000003
 21
16.38601999999999
 31
0.0
 11
14.96087100000003
 21
16.46270199999999
 31
0.0
  0
SPLINE
  5
54DB
330
1F
100
AcDbEntity
  8
AM_0
370
    30
100
AcDbSpline
210
0.0
220
0.0
230
1.0
 70
     8
 71
     3
 72
    11
 73
     7
 74
     5
 42
0.0000000001
 43
0.0000000001
 44
0.0000000001
 40
0.0
 40
0.0
 40
0.0
 40
0.0
 40
0.7109972205212934
 40
1.420720268804204
 40
2.130727531352982
 40
2.841150793830364
 40
2.841150793830364
 40
2.841150793830364
 40
2.841150793830364
 10
35.50000000000003
 20
8.216117999999995
 30
0.0
 10
35.42576334530004
 20
8.441339788486438
 30
0.0
 10
35.27742307479495
 20
8.891379747354939
 30
0.0
 10
35.12397597742746
 20
9.585757623842373
 30
0.0
 10
35.01932582920581
 20
10.28938068936567
 30
0.0
 10
35.00644320070904
 20
10.76308065245916
 30
0.0
 10
35.00000000000003
 20
11.0
 30
0.0
 11
35.50000000000003
 21
8.216117999999995
 31
0.0
 11
35.28881700000002
 21
8.895027999999996
 31
0.0
 11
35.13211700000004
 21
9.58723599999999
 31
0.0
 11
35.03356300000003
 21
10.29037
 31
0.0
 11
35.00000000000003
 21
11.0
 31
0.0
  0
SPLINE
  5
54DC
330
1F
100
AcDbEntity
  8
AM_0
370
    30
100
AcDbSpline
210
0.0
220
0.0
230
1.0
 70
     8
 71
     3
 72
    11
 73
     7
 74
     5
 42
0.0000000001
 43
0.0000000001
 44
0.0000000001
 40
0.0
 40
0.0
 40
0.0
 40
0.0
 40
0.7099202713840377
 40
1.420497880399412
 40
2.130068342707418
 40
2.841156371423975
 40
2.841156371423975
 40
2.841156371423975
 40
2.841156371423975
 10
35.00000000000003
 20
11.0
 30
0.0
 10
35.00639621516888
 20
11.23675788333286
 30
0.0
 10
35.01919456796448
 20
11.71049287161049
 30
0.0
 10
35.12436030273903
 20
12.41399701040436
 30
0.0
 10
35.27695088674222
 20
13.10874158378266
 30
0.0
 10
35.42559736686111
 20
13.55867498630065
 30
0.0
 10
35.50000000000003
 20
13.78388199999999
 30
0.0
 11
35.00000000000003
 21
11.0
 31
0.0
 11
35.03350900000002
 21
11.70912899999999
 31
0.0
 11
35.13231200000003
 21
12.41280399999999
 31
0.0
 11
35.28855000000003
 21
13.10495999999999
 31
0.0
 11
35.50000000000003
 21
13.78388199999999
 31
0.0
  0
LINE
  5
54DD
330
1F
100
AcDbEntity
  8
AM_0
370
    30
100
AcDbLine
 10
13.30000000000003
 20
16.46270199999999
 30
0.0
 11
12.43711657649778
 21
16.99999999999998
 31
0.0
  0
LINE
  5
54F6
330
1F
100
AcDbEntity
  8
AM_0
370
    30
100
AcDbLine
 10
82.00000000000001
 20
19.0
 30
0.0
 11
35.50000000000003
 21
19.0
 31
0.0
  0
LINE
  5
54F7
330
1F
100
AcDbEntity
  8
AM_0
370
    30
100
AcDbLine
 10
103.0
 20
13.78388199999999
 30
0.0
 11
149.5
 21
13.78388199999999
 31
0.0
  0
LINE
  5
54F8
330
1F
100
AcDbEntity
  8
AM_0
370
    30
100
AcDbLine
 10
82.00000000000001
 20
8.216117999999995
 30
0.0
 11
35.50000000000003
 21
8.216117999999995
 31
0.0
  0
LINE
  5
5580
330
1F
100
AcDbEntity
  8
AM_0
370
    30
100
AcDbLine
 10
13.30000000000004
 20
2.5
 30
0.0
 11
15.03205100000005
 21
3.5
 31
0.0
  0
LINE
  5
5581
330
1F
100
AcDbEntity
  8
AM_0
370
    30
100
AcDbLine
 10
13.30000000000004
 20
2.621173999999996
 30
0.0
 11
6.612218223099072
 21
2.621173999999996
 31
0.0
  0
LINE
  5
5582
330
1F
100
AcDbEntity
  8
AM_0
370
    30
100
AcDbLine
 10
6.402338698542729
 20
2.5
 30
0.0
 11
13.30000000000004
 21
2.5
 31
0.0
  0
LINE
  5
5583
330
1F
100
AcDbEntity
  8
AM_0
370
    30
100
AcDbLine
 10
15.03205100000005
 20
3.699681999999996
 30
0.0
 11
15.03205100000005
 21
3.5
 31
0.0
  0
LINE
  5
5584
330
1F
100
AcDbEntity
  8
AM_0
370
    30
100
AcDbLine
 10
13.30000000000004
 20
2.621173999999996
 30
0.0
 11
13.30000000000004
 21
2.5
 31
0.0
  0
LINE
  5
5587
330
1F
100
AcDbEntity
  8
AM_0
370
    30
100
AcDbLine
 10
13.30000000000004
 20
2.621173999999996
 30
0.0
 11
15.03205100000005
 21
3.699681999999996
 31
0.0
  0
LINE
  5
55CF
330
1F
100
AcDbEntity
  8
AM_0
370
    30
100
AcDbLine
 10
2.31982600000002
 20
17.541211
 30
0.0
 11
11.56794900000001
 21
17.541211
 31
0.0
  0
LINE
  5
55D0
330
1F
100
AcDbEntity
  8
AM_0
370
    30
100
AcDbLine
 10
13.30000000000003
 20
18.5
 30
0.0
 11
13.30000000000003
 21
16.46270299999999
 31
0.0
  0
LINE
  5
55D1
330
1F
100
AcDbEntity
  8
AM_0
370
    30
100
AcDbLine
 10
11.56794900000002
 20
18.5
 30
0.0
 11
11.56794900000001
 21
17.541211
 31
0.0
  0
LINE
  5
55D2
330
1F
100
AcDbEntity
  8
AM_0
370
    30
100
AcDbLine
 10
13.30000000000003
 20
16.46270299999999
 30
0.0
 11
11.56794900000001
 21
17.541211
 31
0.0
  0
VIEWPORT
  5
82
330
23
100
AcDbEntity
 67
     1
  8
0
100
AcDbViewport
 10
5.82094427781273
 20
3.999999883606678
 30
0.0
 40
16.5134615214668
 41
8.992999745766948
 68
     1
 69
     1
 12
5.82094427781273
 22
3.999999883606678
 13
0.0
 23
0.0
 14
10.0
 24
10.0
 15
10.0
 25
10.0
 16
0.0
 26
0.0
 36
1.0
 17
0.0
 27
0.0
 37
0.0
 42
50.0
 43
0.0
 44
0.0
 45
8.992999745766948
 50
0.0
 51
0.0
 72
   100
 90
    32800
  1

281
     0
 71
     1
 74
     0
110
0.0
120
0.0
130
0.0
111
1.0
121
0.0
131
0.0
112
0.0
122
1.0
132
0.0
 79
     0
146
0.0
  0
ENDSEC
  0
SECTION
  2
OBJECTS
  0
DICTIONARY
  5
C
330
0
100
AcDbDictionary
281
     1
  3
ACAD_COLOR
350
389D
  3
ACAD_GROUP
350
D
  3
ACAD_LAYOUT
350
1A
  3
ACAD_MATERIAL
350
389C
  3
ACAD_MLINESTYLE
350
17
  3
ACAD_PLOTSETTINGS
350
19
  3
ACAD_PLOTSTYLENAME
350
E
  3
ACAD_TABLESTYLE
350
389E
  3
AcAmCatalogState
350
3905
  3
ACDBHEADERROUNDTRIPXREC
350
56BB
  3
AcDbVariableDictionary
350
4A
  3
ACDMSYSVARMGR
350
38B6
  3
ACGREF_MASTER
350
38AE
  3
ACGREFACAD_MASTER
350
38D8
  3
AcmDictionary
350
59
  3
ACME_BOM_MANAGER_NAME
350
50
  3
ACME_COMMAND_HISTORY
350
49
  3
ACME_SCOPE_NAME
350
48
  3
ACMESTATEMGR
350
55
  3
AcmeSysVarManager
350
4C
  3
AcmSystemVariableManager
350
E77
  3
AD_APPL
350
38E3
  3
ADSYSVARMGR
350
38E2
  3
AmdtNamedDwgMgr
350
38D3
  3
AMG
350
41
  3
AMGSNAPSETTINGS
350
AC
  3
AMI_MASTER
350
38DB
  3
AUTOCAD_ASSEMBLIES_PROJECT
350
38EB
  3
Designer_Assemblies_SysVars
350
38E6
  3
DWGPROPS
350
56BE
  3
GREFAM_MODULE
350
38DC
  0
DICTIONARY
  5
3929
330
2
100
AcDbDictionary
280
     1
281
     1
  3
ACAD_LAYERSTATES
360
392A
  3
AMLAYER_GROUPCOLORS
360
48AA
  0
DICTIONARY
  5
68
330
1F
100
AcDbDictionary
280
     1
281
     1
  3
ACAD_SORTENTS
360
3B54
  0
DICTIONARY
  5
389D
102
{ACAD_REACTORS
330
C
102
}
330
C
100
AcDbDictionary
281
     1
  0
DICTIONARY
  5
D
102
{ACAD_REACTORS
330
C
102
}
330
C
100
AcDbDictionary
281
     1
  0
DICTIONARY
  5
1A
102
{ACAD_REACTORS
330
C
102
}
330
C
100
AcDbDictionary
281
     1
  3
Model
350
22
  3
ﾚｲｱｳﾄ1
350
1E
  3
ﾚｲｱｳﾄ2
350
26
  0
DICTIONARY
  5
389C
102
{ACAD_REACTORS
330
C
102
}
330
C
100
AcDbDictionary
281
     1
  0
DICTIONARY
  5
17
102
{ACAD_REACTORS
330
C
102
}
330
C
100
AcDbDictionary
281
     1
  3
Standard
350
18
  0
DICTIONARY
  5
19
102
{ACAD_REACTORS
330
C
102
}
330
C
100
AcDbDictionary
281
     1
  0
ACDBDICTIONARYWDFLT
  5
E
102
{ACAD_REACTORS
330
C
102
}
330
C
100
AcDbDictionary
281
     1
  3
Normal
350
F
100
AcDbDictionaryWithDefault
340
F
  0
DICTIONARY
  5
389E
102
{ACAD_REACTORS
330
C
102
}
330
C
100
AcDbDictionary
281
     1
  3
Standard
350
389F
  0
ACAD_PROXY_OBJECT
  5
3905
102
{ACAD_REACTORS
330
C
102
}
330
C
100
AcDbProxyObject
 90
      499
 91
      572
 95
       25
 70
     0
 93
      304
310
3FFFFFFFE00A02814028CA61D2E3137B23C96B9B1BA2E3D3430B7B937B733AE2BA1A324400AA
  0
DICTIONARY
  5
56BB
102
{ACAD_REACTORS
330
C
102
}
330
C
100
AcDbDictionary
281
     1
  3
COLORDICT
350
56BC
  3
MATERIALDICT
350
56BD
  0
DICTIONARY
  5
4A
102
{ACAD_REACTORS
330
C
102
}
330
C
100
AcDbDictionary
281
     1
  3
CTABLESTYLE
350
3A9C
  3
DIMASSOC
350
56B9
  3
HIDETEXT
350
56BA
  3
INDEXCTL
350
4B
  0
ACAD_PROXY_OBJECT
  5
38B6
102
{ACAD_REACTORS
330
C
102
}
330
C
100
AcDbProxyObject
 90
      499
 91
      508
 95
       25
 70
     0
 93
      240
310
4C51A47A0000000000000000000000000000000000000000000000000000
330
38B7
330
38B8
330
38B9
330
38BA
330
38BB
330
38BC
330
38BD
330
38BE
330
38BF
330
38C0
330
38C1
330
38C2
330
38C3
330
38C4
330
38C5
330
38C6
330
38C7
330
38C8
330
38C9
330
38CA
330
38CB
330
38CC
330
38CD
330
38CE
330
38CF
330
38D0
 94
        0
  0
ACAD_PROXY_OBJECT
  5
38AE
102
{ACAD_REACTORS
330
C
102
}
330
C
100
AcDbProxyObject
 90
      499
 91
      536
 95
       25
 70
     0
 93
       34
310
0400004280
  0
ACAD_PROXY_OBJECT
  5
38D8
102
{ACAD_REACTORS
330
C
102
}
330
C
100
AcDbProxyObject
 90
      499
 91
      542
 95
       25
 70
     0
 93
      114
310
04000041C080000000000000000000
  0
DICTIONARY
  5
59
102
{ACAD_REACTORS
330
C
102
}
330
C
100
AcDbDictionary
281
     1
  3
AcmBOMDATA
350
5A
  3
AcmStdDictionary
350
E7A
  3
AMDTSECTSYM_ARROWCOLOR
350
38F9
  0
ACAD_PROXY_OBJECT
  5
50
102
{ACAD_REACTORS
330
C
102
}
330
C
100
AcDbProxyObject
 90
      499
 91
      511
 95
       25
 70
     0
 93
       50
310
00010040400000
330
0
330
0
330
51
 94
        0
  0
ACAD_PROXY_OBJECT
  5
49
102
{ACAD_REACTORS
330
C
102
}
330
C
100
AcDbProxyObject
 90
      499
 91
      506
 95
       25
 70
     0
 93
     3198
310
47805054552415345805054552415345805054552415345805054552415345805054552415345805054552415345805054552415345805054552415345805054552415345805045A4F4F4D805055055524745805055153415645404052D4D5347202D205050413A2020206465736B746F702E6172782046696C65566572736
310
96F6E3A20392E322E302E34014390535115149154D15511109353D1102014213880B4815539113C05084E202D20554E444F014115539113E014115539113E014115539113E014156131253916014115539113E014115539113E014156131253916014115539113E014193D19194D15510101461354D1C80B4810DBDB5B585B
310
990810D05390D1531311510B80504554E444F805064F464653455440405184D5347202D20436F6D6D616E642043414E43454C4C45442E014151549054D1601411353D5916014151549054D1601411693D3D36014154155491D1601415454D05591501014B5354D1C80B481414104E88080819195CDADD1BDC0B985C9E08119
310
A5B1955995C9CDA5BDB8E880E4B8C8B8C0B8D0
  0
ACAD_PROXY_OBJECT
  5
48
102
{ACAD_REACTORS
330
C
102
}
330
C
100
AcDbProxyObject
 90
      499
 91
      505
 95
       25
 70
     0
 93
      594
310
09000046408000000000000000001354E60000000000000000000000000000000000000000000000000000000000000000000000000000000000000000000000000000000000AAA406AA80
360
4D
360
4E
360
4F
360
51
360
E78
360
E79
360
38AF
360
38B0
360
38B1
360
38B2
360
38B3
360
38B4
360
38B7
360
38B8
360
38B9
360
38BA
360
38BB
360
38BC
360
38BD
360
38BE
360
38BF
360
38C0
360
38C1
360
38C2
360
38C3
360
38C4
360
38C5
360
38C6
360
38C7
360
38C8
360
38C9
360
38CA
360
38CB
360
38CC
360
38CD
360
38CE
360
38CF
360
38D0
360
38DE
360
38DF
360
38E0
360
38E1
360
38E7
360
38E8
360
38E9
360
38EA
360
38EF
360
38F0
360
38F1
360
38F2
360
38F3
360
38F4
360
48AB
 94
        0
  0
ACAD_PROXY_OBJECT
  5
55
102
{ACAD_REACTORS
330
C
102
}
330
C
100
AcDbProxyObject
 90
      499
 91
      516
 95
       25
 70
     0
 93
       50
310
09000042641280
  0
ACAD_PROXY_OBJECT
  5
4C
102
{ACAD_REACTORS
330
C
102
}
330
C
100
AcDbProxyObject
 90
      499
 91
      508
 95
       25
 70
     0
 93
       48
310
903412000000
330
4D
330
4E
330
4F
 94
        0
  0
ACAD_PROXY_OBJECT
  5
E77
102
{ACAD_REACTORS
330
C
102
}
330
C
100
AcDbProxyObject
 90
      499
 91
      508
 95
       25
 70
     0
 93
       48
310
903412000000
330
E78
330
E79
330
48AB
 94
        0
  0
ACAD_PROXY_OBJECT
  5
38E3
102
{ACAD_REACTORS
330
C
102
}
330
C
100
AcDbProxyObject
 90
      499
 91
      552
 95
       25
 70
     0
 93
       42
310
000900004040
330
38DE
 94
        0
  0
ACAD_PROXY_OBJECT
  5
38E2
102
{ACAD_REACTORS
330
C
102
}
330
C
100
AcDbProxyObject
 90
      499
 91
      508
 95
       25
 70
     0
 93
        8
310
AA
  0
ACAD_PROXY_OBJECT
  5
38D3
102
{ACAD_REACTORS
330
C
102
}
330
C
100
AcDbProxyObject
 90
      499
 91
      541
 95
       25
 70
     0
 93
       42
310
000100005E80
330
38AF
 94
        0
  0
DICTIONARY
  5
41
102
{ACAD_REACTORS
330
C
102
}
330
C
100
AcDbDictionary
281
     1
  3
AcMgSettings
350
42
  3
AMGLAYCFG
350
5D
  0
DICTIONARY
  5
AC
102
{ACAD_REACTORS
330
C
102
}
330
C
100
AcDbDictionary
281
     1
  3
DIMENSION
350
B1
  3
FEA
350
B0
  3
HATCH (1)
350
AD
  3
HATCH (2)
350
AE
  3
SYMBOLS
350
AF
  0
ACAD_PROXY_OBJECT
  5
38DB
102
{ACAD_REACTORS
330
C
102
}
330
C
100
AcDbProxyObject
 90
      499
 91
      545
 95
       25
 70
     0
 93
       34
310
0500004280
  0
ACAD_PROXY_OBJECT
  5
38EB
102
{ACAD_REACTORS
330
C
102
}
330
C
100
AcDbProxyObject
 90
      499
 91
      555
 95
       25
 70
     0
 93
       98
310
0900004E400000000000000000
330
38F2
330
0
330
38F3
330
0
330
0
330
0
330
0
330
0
 94
        0
  0
ACAD_PROXY_OBJECT
  5
38E6
102
{ACAD_REACTORS
330
C
102
}
330
C
100
AcDbProxyObject
 90
      499
 91
      508
 95
       25
 70
     0
 93
       56
310
90441600000000
330
38E7
330
38E8
330
38E9
330
38EA
 94
        0
  0
XRECORD
  5
56BE
102
{ACAD_REACTORS
330
C
102
}
330
C
100
AcDbXrecord
280
     1
  1
DWGPROPS COOKIE
  2

  3

  4

  6

  7

  8

  9

300
AmdtFileType=82
301
=
302
=
303
=
304
=
305
=
306
=
307
=
308
=
309
=
 40
0.0
 41
2452143.06902743
 42
2455471.341202072
  1

 90
        1
  0
ACAD_PROXY_OBJECT
  5
38DC
102
{ACAD_REACTORS
330
C
102
}
330
C
100
AcDbProxyObject
 90
      499
 91
      546
 95
       25
 70
     0
 93
        8
310
05
  0
DICTIONARY
  5
392A
102
{ACAD_REACTORS
330
3929
102
}
330
3929
100
AcDbDictionary
281
     1
  0
DICTIONARY
  5
48AA
102
{ACAD_REACTORS
330
3929
102
}
330
3929
100
AcDbDictionary
280
     1
281
     1
  0
SORTENTSTABLE
  5
3B54
102
{ACAD_REACTORS
330
68
102
}
330
68
100
AcDbSortentsTable
330
1F
331
0
  5
5650
331
398F
  5
3A13
331
478D
  5
47FA
331
479C
  5
479D
331
47B1
  5
47DC
331
47B7
  5
47D6
331
47F3
  5
4849
331
4807
  5
47E4
331
4822
  5
484A
331
4823
  5
4822
331
482C
  5
484C
331
4893
  5
4B57
331
48E2
  5
4B59
331
490B
  5
47A7
331
4DEA
  5
4DEC
331
4DED
  5
484D
331
4E05
  5
4E43
331
4E0F
  5
4E42
331
4E15
  5
4E40
331
4E16
  5
4E44
331
4E17
  5
4E39
331
4E42
  5
47F3
331
4E43
  5
484B
331
4E44
  5
4E66
331
4E58
  5
4EBB
331
4E66
  5
4EF7
331
4EE0
  5
4780
331
4EF7
  5
4F2B
331
4F05
  5
4F43
331
4F06
  5
4F1E
331
4F11
  5
4F52
331
4F1E
  5
4F62
331
4F25
  5
4F63
331
4F2B
  5
4F6E
331
4F53
  5
4F99
331
4F62
  5
4F36
331
4F63
  5
5064
331
5035
  5
50AC
331
50AC
  5
50AE
331
50AE
  5
5107
331
5107
  5
51BC
331
51BC
  5
51C0
331
51C0
  5
4E58
331
522A
  5
5288
331
522B
  5
53AE
331
522C
  5
5227
331
5271
  5
53B6
331
5278
  5
53C1
331
5285
  5
53C2
331
5287
  5
53C3
331
5288
  5
53D3
331
529E
  5
53D5
331
538C
  5
53DC
331
53F4
  5
53F8
331
53F8
  5
53FC
331
53F9
  5
53FD
331
53FB
  5
53FF
331
53FC
  5
5400
331
53FD
  5
5401
331
53FE
  5
5402
331
53FF
  5
5403
331
5400
  5
5404
331
5401
  5
5405
331
540C
  5
5410
331
5410
  5
5414
331
5411
  5
5415
331
5413
  5
5417
331
5414
  5
5418
331
5415
  5
5419
331
5416
  5
541A
331
5417
  5
541B
331
5418
  5
541C
331
5419
  5
541D
331
5425
  5
5210
331
5427
  5
529F
331
5428
  5
53A4
331
542A
  5
542A
331
5437
  5
5437
331
5438
  5
5438
331
5439
  5
5439
331
543A
  5
543A
331
543B
  5
543B
331
543C
  5
543C
331
543D
  5
543D
331
543E
  5
543E
331
543F
  5
543F
331
5440
  5
5440
331
5441
  5
5441
331
5442
  5
5442
331
5444
  5
5444
331
54AC
  5
54AC
331
54AD
  5
54AD
331
54B0
  5
54B0
331
54B1
  5
54B2
331
54B2
  5
54B7
331
54BB
  5
54C1
331
54C0
  5
54C3
331
54C1
  5
54C5
331
54C3
  5
54C9
331
54C8
  5
54CB
331
54D6
  5
54D9
331
54D7
  5
54DA
331
54D8
  5
54DB
331
54D9
  5
54DC
331
54DA
  5
54DD
331
54DB
  5
54DE
331
54DC
  5
54DF
331
54DD
  5
54E0
331
54F6
  5
54B1
331
54F7
  5
54B6
331
54F8
  5
54B8
331
5580
  5
5580
331
5581
  5
5581
331
5582
  5
5582
331
5583
  5
5583
331
5584
  5
5584
331
5587
  5
5587
331
55CF
  5
55CF
331
55D0
  5
55D0
331
55D1
  5
55D1
331
55D2
  5
55D2
  0
LAYOUT
  5
22
102
{ACAD_REACTORS
330
1A
102
}
330
1A
100
AcDbPlotSettings
  1

  2
SII LP-2150 (D-SCAN C2)
  4
User262
  6
AM_VIEW1
 40
3.174999952316284
 41
3.174999952316284
 42
3.17498779296875
 43
3.17498779296875
 44
296.9259948730469
 45
419.9889831542969
 46
0.0
 47
0.0
 48
74.5792268297489
 49
48.81567530286793
140
494.5792268297489
141
345.8156753028679
142
1.0
143
1.022107788374329
 70
 11952
 72
     1
 73
     1
 74
     4
  7
sei_cad.ctb
 75
     0
147
0.9783703943695685
148
-74.5792268297489
149
-48.81567530286793
100
AcDbLayout
  1
Model
 70
     1
 71
     0
 10
0.0
 20
0.0
 11
12.0
 21
9.0
 12
0.0
 22
0.0
 32
0.0
 14
0.0
 24
0.0
 34
0.0
 15
0.0
 25
0.0
 35
0.0
146
0.0
 13
0.0
 23
0.0
 33
0.0
 16
1.0
 26
0.0
 36
0.0
 17
0.0
 27
1.0
 37
0.0
 76
     0
330
1F
  0
LAYOUT
  5
1E
102
{ACAD_REACTORS
330
1A
102
}
330
1A
100
AcDbPlotSettings
  1

  2
none_device
  4
Letter_(8.50_x_11.00_Inches)
  6

 40
6.349999904632568
 41
6.349999904632568
 42
6.350006103515625
 43
6.350006103515625
 44
215.8999938964844
 45
279.3999938964844
 46
0.0
 47
0.0
 48
0.0
 49
0.0
140
0.0
141
0.0
142
1.0
143
1.0
 70
   688
 72
     0
 73
     1
 74
     5
  7
sei_cad.ctb
 75
    16
147
1.0
148
0.0
149
0.0
100
AcDbLayout
  1
ﾚｲｱｳﾄ1
 70
     0
 71
     1
 10
-0.2500002402958907
 20
-0.2499999962453767
 11
10.74999951940822
 21
8.249999763458732
 12
0.0
 22
0.0
 32
0.0
 14
1.000000000000000E+20
 24
1.000000000000000E+20
 34
1.000000000000000E+20
 15
-1.000000000000000E+20
 25
-1.000000000000000E+20
 35
-1.000000000000000E+20
146
0.0
 13
0.0
 23
0.0
 33
0.0
 16
1.0
 26
0.0
 36
0.0
 17
0.0
 27
1.0
 37
0.0
 76
     0
330
1B
331
7D
  0
LAYOUT
  5
26
102
{ACAD_REACTORS
330
1A
102
}
330
1A
100
AcDbPlotSettings
  1

  2
none_device
  4
Letter_(8.50_x_11.00_Inches)
  6

 40
6.349999904632568
 41
6.349999904632568
 42
6.350006103515625
 43
6.350006103515625
 44
215.8999938964844
 45
279.3999938964844
 46
0.0
 47
0.0
 48
0.0
 49
0.0
140
0.0
141
0.0
142
1.0
143
1.0
 70
   688
 72
     0
 73
     1
 74
     5
  7
sei_cad.ctb
 75
    16
147
1.0
148
0.0
149
0.0
100
AcDbLayout
  1
ﾚｲｱｳﾄ2
 70
     0
 71
     2
 10
-0.2500002402958907
 20
-0.2499999962453767
 11
10.74999951940822
 21
8.249999763458732
 12
0.0
 22
0.0
 32
0.0
 14
1.000000000000000E+20
 24
1.000000000000000E+20
 34
1.000000000000000E+20
 15
-1.000000000000000E+20
 25
-1.000000000000000E+20
 35
-1.000000000000000E+20
146
0.0
 13
0.0
 23
0.0
 33
0.0
 16
1.0
 26
0.0
 36
0.0
 17
0.0
 27
1.0
 37
0.0
 76
     0
330
23
331
82
  0
MLINESTYLE
  5
18
102
{ACAD_REACTORS
330
17
102
}
330
17
100
AcDbMlineStyle
  2
STANDARD
 70
     0
  3

 62
   256
 51
90.0
 52
90.0
 71
     2
 49
0.5
 62
   256
  6
BYLAYER
 49
-0.5
 62
   256
  6
BYLAYER
  0
ACDBPLACEHOLDER
  5
F
102
{ACAD_REACTORS
330
E
102
}
330
E
  0
TABLESTYLE
  5
389F
102
{ACAD_REACTORS
330
389E
102
}
330
389E
100
AcDbTableStyle
  3
Standard
 70
     0
 71
     8
 40
1.5
 41
1.5
280
     0
281
     0
  7
STANDARD
140
4.5
170
     2
 62
     0
 63
     7
283
     0
274
    -2
284
     1
 64
     0
275
    -2
285
     1
 65
     0
276
    -2
286
     1
 66
     0
277
    -2
287
     1
 67
     0
278
    -2
288
     1
 68
     0
279
    -2
289
     1
 69
     0
  7
STANDARD
140
6.0
170
     5
 62
     0
 63
     7
283
     0
274
    -2
284
     1
 64
     0
275
    -2
285
     1
 65
     0
276
    -2
286
     1
 66
     0
277
    -2
287
     1
 67
     0
278
    -2
288
     1
 68
     0
279
    -2
289
     1
 69
     0
  7
STANDARD
140
4.5
170
     5
 62
     0
 63
     7
283
     0
274
    -2
284
     1
 64
     0
275
    -2
285
     1
 65
     0
276
    -2
286
     1
 66
     0
277
    -2
287
     1
 67
     0
278
    -2
288
     1
 68
     0
279
    -2
289
     1
 69
     0
  0
XRECORD
  5
56BC
102
{ACAD_REACTORS
330
56BB
102
}
330
56BB
100
AcDbXrecord
280
     1
340
389D
  0
XRECORD
  5
56BD
102
{ACAD_REACTORS
330
56BB
102
}
330
56BB
100
AcDbXrecord
280
     1
340
389C
  0
DICTIONARYVAR
  5
3A9C
102
{ACAD_REACTORS
330
4A
102
}
330
4A
100
DictionaryVariables
280
     0
  1
STANDARD
  0
DICTIONARYVAR
  5
56B9
102
{ACAD_REACTORS
330
4A
102
}
330
4A
100
DictionaryVariables
280
     0
  1
1
  0
DICTIONARYVAR
  5
56BA
102
{ACAD_REACTORS
330
4A
102
}
330
4A
100
DictionaryVariables
280
     0
  1
0
  0
DICTIONARYVAR
  5
4B
102
{ACAD_REACTORS
330
4A
102
}
330
4A
100
DictionaryVariables
280
     0
  1
1
  0
ACAD_PROXY_OBJECT
  5
5A
102
{ACAD_REACTORS
330
59
102
}
330
59
100
AcDbProxyObject
 90
      499
 91
      519
 95
       25
 70
     0
 93
      118
310
405010040CA904C415CD5B075DD0D8
350
5B
 94
        0
  0
DICTIONARY
  5
E7A
102
{ACAD_REACTORS
330
59
102
}
330
59
100
AcDbDictionary
281
     1
  3
ANSI
350
3CCF
  3
JIS
350
E7B
  0
XRECORD
  5
38F9
102
{ACAD_REACTORS
330
59
102
}
330
59
100
AcDbXrecord
280
     1
 90
-1023410169
  0
ACAD_PROXY_OBJECT
  5
4D
330
48
100
AcDbProxyObject
 90
      499
 91
      509
 95
       25
 70
     0
 93
      156
310
00010143D050D351505391D5531054925390D490
330
48
 94
        0
  0
ACAD_PROXY_OBJECT
  5
4E
330
48
100
AcDbProxyObject
 90
      499
 91
      509
 95
       25
 70
     0
 93
      148
310
000101439050D351531253915054925390D490
330
48
 94
        0
  0
ACAD_PROXY_OBJECT
  5
4F
330
48
100
AcDbProxyObject
 90
      499
 91
      510
 95
       25
 70
     0
 93
      156
310
000101439050D35154D6535093D314D256915080
330
48
 94
        0
  0
ACAD_PROXY_OBJECT
  5
51
330
48
100
AcDbProxyObject
 90
      499
 91
      512
 95
       25
 70
     0
 93
       88
310
000101411093D34C402B00
330
48
330
0
330
0
 94
        0
  0
ACAD_PROXY_OBJECT
  5
E78
330
48
100
AcDbProxyObject
 90
      499
 91
      510
 95
       25
 70
     0
 93
      108
310
00010142505351D153D35054D4E0
330
48
 94
        0
  0
ACAD_PROXY_OBJECT
  5
E79
330
48
100
AcDbProxyObject
 90
      499
 91
      525
 95
       25
 70
     0
 93
      140
310
00010142105350D55494D511005034A49530
330
48
 94
        0
  0
ACAD_PROXY_OBJECT
  5
38AF
330
48
100
AcDbProxyObject
 90
      499
 91
      537
 95
       25
 70
     0
 93
      478
310
0001014124FEA55D00507392E322E302E32014124FEA55D00507392E322E302E3240501000041131253914182D4454FB21E93F000000000000380FD8
330
48
330
38B0
330
38B6
 94
        0
  0
ACAD_PROXY_OBJECT
  5
38B0
330
48
100
AcDbProxyObject
 90
      499
 91
      538
 95
       25
 70
     0
 93
       56
310
000190240E0000
330
48
330
38B1
330
38B3
 94
        0
  0
ACAD_PROXY_OBJECT
  5
38B1
330
48
100
AcDbProxyObject
 90
      499
 91
      539
 95
       25
 70
     0
 93
       48
310
0001AA000000
330
48
330
1E
330
38B2
330
0
 94
        0
  0
ACAD_PROXY_OBJECT
  5
38B2
330
48
100
AcDbProxyObject
 90
      499
 91
      540
 95
       25
 70
     0
 93
       28
310
0001AAA0
330
48
 94
        0
  0
ACAD_PROXY_OBJECT
  5
38B3
330
48
100
AcDbProxyObject
 90
      499
 91
      539
 95
       25
 70
     0
 93
       48
310
0001AA000000
330
48
330
26
330
38B4
330
0
 94
        0
  0
ACAD_PROXY_OBJECT
  5
38B4
330
48
100
AcDbProxyObject
 90
      499
 91
      540
 95
       25
 70
     0
 93
       28
310
0001AAA0
330
48
 94
        0
  0
ACAD_PROXY_OBJECT
  5
38B7
330
48
100
AcDbProxyObject
 90
      499
 91
      510
 95
       25
 70
     0
 93
      108
310
000101421053521310D05310D010
330
48
 94
        0
  0
ACAD_PROXY_OBJECT
  5
38B8
330
48
100
AcDbProxyObject
 90
      499
 91
      510
 95
       25
 70
     0
 93
      124
310
00010142905354915554D15112535010
330
48
 94
        0
  0
ACAD_PROXY_OBJECT
  5
38B9
330
48
100
AcDbProxyObject
 90
      499
 91
      510
 95
       25
 70
     0
 93
      132
310
00010143105354D150D51253D391125360
330
48
 94
        0
  0
ACAD_PROXY_OBJECT
  5
38BA
330
48
100
AcDbProxyObject
 90
      499
 91
      510
 95
       25
 70
     0
 93
      124
310
00010142905355941093D49111549010
330
48
 94
        0
  0
ACAD_PROXY_OBJECT
  5
38BB
330
48
100
AcDbProxyObject
 90
      499
 91
      510
 95
       25
 70
     0
 93
      116
310
0001014290535115D1D0D3D313D4A0
330
48
 94
        0
  0
ACAD_PROXY_OBJECT
  5
38BC
330
48
100
AcDbProxyObject
 90
      499
 91
      510
 95
       25
 70
     0
 93
      148
310
00010143505355925155D49151949154D21010
330
48
 94
        0
  0
ACAD_PROXY_OBJECT
  5
38BD
330
48
100
AcDbProxyObject
 90
      499
 91
      510
 95
       25
 70
     0
 93
      172
310
00010144105350539393D51154149154D15495915010
330
48
 94
        0
  0
ACAD_PROXY_OBJECT
  5
38BE
330
48
100
AcDbProxyObject
 90
      499
 91
      510
 95
       25
 70
     0
 93
      172
310
00010144105350555513D11253505494905391D15010
330
48
 94
        0
  0
ACAD_PROXY_OBJECT
  5
38BF
330
48
100
AcDbProxyObject
 90
      499
 91
      510
 95
       25
 70
     0
 93
      124
310
00010142D05351561514915191125360
330
48
 94
        0
  0
ACAD_PROXY_OBJECT
  5
38C0
330
48
100
AcDbProxyObject
 90
      499
 91
      510
 95
       25
 70
     0
 93
      132
310
00010142D05355105410539393D5115010
330
48
 94
        0
  0
ACAD_PROXY_OBJECT
  5
38C1
330
48
100
AcDbProxyObject
 90
      499
 91
      510
 95
       25
 70
     0
 93
      108
310
00010142105350555513D0D31010
330
48
 94
        0
  0
ACAD_PROXY_OBJECT
  5
38C2
330
48
100
AcDbProxyObject
 90
      499
 91
      510
 95
       25
 70
     0
 93
      108
310
00010142105350D3119150551050
330
48
 94
        0
  0
ACAD_PROXY_OBJECT
  5
38C3
330
48
100
AcDbProxyObject
 90
      499
 91
      510
 95
       25
 70
     0
 93
      108
310
00010142105350D315925155D3F0
330
48
 94
        0
  0
ACAD_PROXY_OBJECT
  5
38C4
330
48
100
AcDbProxyObject
 90
      499
 91
      510
 95
       25
 70
     0
 93
      148
310
0001014350535212511156915493D112535010
330
48
 94
        0
  0
ACAD_PROXY_OBJECT
  5
38C5
330
48
100
AcDbProxyObject
 90
      499
 91
      510
 95
       25
 70
     0
 93
      124
310
00010142905352105510D21254D3D010
330
48
 94
        0
  0
ACAD_PROXY_OBJECT
  5
38C6
330
48
100
AcDbProxyObject
 90
      499
 91
      510
 95
       25
 70
     0
 93
      148
310
00010143905354D25391D31152105513105660
330
48
 94
        0
  0
ACAD_PROXY_OBJECT
  5
38C7
330
48
100
AcDbProxyObject
 90
      499
 91
      510
 95
       25
 70
     0
 93
      124
310
00010142D0535115D1D193111254D420
330
48
 94
        0
  0
ACAD_PROXY_OBJECT
  5
38C8
330
48
100
AcDbProxyObject
 90
      499
 91
      510
 95
       25
 70
     0
 93
      100
310
00010142105350555513D213A0
330
48
 94
        0
  0
ACAD_PROXY_OBJECT
  5
38C9
330
48
100
AcDbProxyObject
 90
      499
 91
      510
 95
       25
 70
     0
 93
      116
310
000101425053521390D3D553951010
330
48
 94
        0
  0
ACAD_PROXY_OBJECT
  5
38CA
330
48
100
AcDbProxyObject
 90
      499
 91
      510
 95
       25
 70
     0
 93
      108
310
0001014210535213941493D29010
330
48
 94
        0
  0
ACAD_PROXY_OBJECT
  5
38CB
330
48
100
AcDbProxyObject
 90
      499
 91
      510
 95
       25
 70
     0
 93
      108
310
0001014210535213951654115070
330
48
 94
        0
  0
ACAD_PROXY_OBJECT
  5
38CC
330
48
100
AcDbProxyObject
 90
      499
 91
      510
 95
       25
 70
     0
 93
      108
310
000101421053521395925155D0F0
330
48
 94
        0
  0
ACAD_PROXY_OBJECT
  5
38CD
330
48
100
AcDbProxyObject
 90
      499
 91
      510
 95
       25
 70
     0
 93
      140
310
00010143505354D150D51253D390D3D41660
330
48
 94
        0
  0
ACAD_PROXY_OBJECT
  5
38CE
330
48
100
AcDbProxyObject
 90
      499
 91
      510
 95
       25
 70
     0
 93
      108
310
00010142105350D3141493D29030
330
48
 94
        0
  0
ACAD_PROXY_OBJECT
  5
38CF
330
48
100
AcDbProxyObject
 90
      499
 91
      509
 95
       25
 70
     0
 93
      212
310
00010143905350555513D2105510D21493D500000000000002E400
330
48
 94
        0
  0
ACAD_PROXY_OBJECT
  5
38D0
330
48
100
AcDbProxyObject
 90
      499
 91
      510
 95
       25
 70
     0
 93
      156
310
00010143905350555513D2105510D21111551010
330
48
 94
        0
  0
ACAD_PROXY_OBJECT
  5
38DE
330
48
100
AcDbProxyObject
 90
      499
 91
      548
 95
       25
 70
     0
 93
      698
310
0001000000009AA6A9AA4051E576564205365702030382030353A33383A303920323031302028555443290141CE4B8C8B8C0B8C80518467269204F63742030312031373A31313A313920323031300141CE4B8C8B8C0B8C80
330
48
330
38DF
330
38E0
330
38E2
330
0
 94
        0
  0
ACAD_PROXY_OBJECT
  5
38DF
330
48
100
AcDbProxyObject
 90
      499
 91
      549
 95
       25
 70
     0
 93
       70
310
0001AAA80820000000
330
48
330
38DF
330
38DF
 94
        0
  0
ACAD_PROXY_OBJECT
  5
38E0
330
48
100
AcDbProxyObject
 90
      499
 91
      550
 95
       25
 70
     0
 93
       48
310
000100000000
330
48
330
0
330
38E1
330
0
330
0
 94
        0
  0
ACAD_PROXY_OBJECT
  5
38E1
330
48
100
AcDbProxyObject
 90
      499
 91
      551
 95
       25
 70
     0
 93
       40
310
000100AAAA
330
48
330
0
 94
        0
  0
ACAD_PROXY_OBJECT
  5
38E7
330
48
100
AcDbProxyObject
 90
      499
 91
      525
 95
       25
 70
     0
 93
      180
310
00010143105050D3D35411119390535140504434F4D500
330
48
 94
        0
  0
ACAD_PROXY_OBJECT
  5
38E8
330
48
100
AcDbProxyObject
 90
      499
 91
      525
 95
       25
 70
     0
 93
      212
310
0001014390505193D311115491119390535140506466F6C6465720
330
48
 94
        0
  0
ACAD_PROXY_OBJECT
  5
38E9
330
48
100
AcDbProxyObject
 90
      499
 91
      525
 95
       25
 70
     0
 93
      180
310
00010143105050539393D1119390535140504284156290
330
48
 94
        0
  0
ACAD_PROXY_OBJECT
  5
38EA
330
48
100
AcDbProxyObject
 90
      499
 91
      525
 95
       25
 70
     0
 93
      436
310
00010143905050D3D35415925155D31254D50052295BD96CA0A90B396CA0A894591A496CA0A8DB691A496CA0A89BA96CA0A95E28F95310
330
48
 94
        0
  0
ACAD_PROXY_OBJECT
  5
38EF
330
48
100
AcDbProxyObject
 90
      499
 91
      556
 95
       25
 70
     0
 93
       32
310
00010000
330
48
340
38EC
330
38F1
330
38EC
 94
        0
  0
ACAD_PROXY_OBJECT
  5
38F0
330
48
100
AcDbProxyObject
 90
      499
 91
      557
 95
       25
 70
     0
 93
       18
310
000180
330
48
 94
        0
  0
ACAD_PROXY_OBJECT
  5
38F1
330
48
100
AcDbProxyObject
 90
      499
 91
      558
 95
       25
 70
     0
 93
      226
310
000101444E0DCCCC8D57CC0C4A14D512548CCC4D8A5050055401550000
330
48
330
38EF
330
38F0
 94
        0
  0
ACAD_PROXY_OBJECT
  5
38F2
330
48
100
AcDbProxyObject
 90
      499
 91
      559
 95
       25
 70
     0
 93
      178
310
000100AAAAAA9C0E4452A951739328BF0880BA98F43D80
330
48
330
38F1
 94
        0
  0
ACAD_PROXY_OBJECT
  5
38F3
330
48
100
AcDbProxyObject
 90
      499
 91
      560
 95
       25
 70
     0
 93
      108
310
000190140A000000000000AAAAA0
330
48
330
38F4
330
38F4
330
38F4
330
38F4
330
38F4
330
0
 94
        0
  0
ACAD_PROXY_OBJECT
  5
38F4
330
48
100
AcDbProxyObject
 90
      499
 91
      561
 95
       25
 70
     0
 93
       51
310
00010000AAAA80
330
48
330
38F3
330
38F1
 94
        0
  0
ACAD_PROXY_OBJECT
  5
48AB
330
48
100
AcDbProxyObject
 90
      499
 91
      510
 95
       25
 70
     0
 93
      148
310
0001014350535311D0D3D313D49353D1115010
330
48
 94
        0
  0
DICTIONARY
  5
42
102
{ACAD_REACTORS
330
41
102
}
330
41
100
AcDbDictionary
281
     1
  3
AMG_PM_SETTINGS
350
7E
  3
DWGSETTINGS
350
43
  3
FEM
350
C6
  3
Shaft
350
B3
  3
TRANSSETTINGS
350
44
  0
ACAD_PROXY_OBJECT
  5
5D
102
{ACAD_REACTORS
330
41
102
}
330
41
100
AcDbProxyObject
 90
      499
 91
      521
 95
       25
 70
     0
 93
    23216
310
41502491013041105357CC201C00030C0128441013141105357CC603800030C0128441013241105357CCA01400030C0128441013341105357CCE01800030C01149013441105357CD200C00030C01149013541105357CD600C00030C01149013641105357CDA00800030C01289013741105357CDE01000030C0114901384110
310
5357CE200400030C01289013941105357CE63F400030C0241102324141505357CC4C201C00030C0128902344141505357CC4C600C00030C0114902495041505357CC4CA01C00030C012840902304E41505357CC13A01C00030C0128902314E41505357CC53A03800030C0128902324E41505357CC93A01400030C012890233
310
4E41505357CCD3A01800030C0114902344E41505357CD13A00C00030C0114902354E41505357CD53A00C00030C0114902364E41505357CD93A00800030C0128902374E41505357CDD3A01000030C0114902384E41505357CE13A00400030C0128902394E41505357CE53A3F400030C024110332414E41905357CC4C13A01C0
310
0030C012890334414E41905357CC4C53A00C00030C011490349504E41905357CC4C93A01C00030C0128409044B4C494E41505357D0D3200400030C012842504494E464F42105357D410549151A01000030C011442D055241484D3541905357D093D4A01C00030C0128425045649455742105357D5925155D4E00400030C012
310
842D06424548494E4441905357D25395A3F400030C0243505545241494C41505357D514A00C00030C01144250348494441905357D21251201C00030C01284250356495341905357D59254E01C00030C01284250650415244494D42505357D41054911253600C00030C01144250652454644494D42505357D49151911253601
310
000030C0114425774110531514901348070000C3004A1034110915312501348000000C0003FFFFFFFD034110921395901398000000C0003FFFFFFFE415092139594D06424548494E448000000C0003FFFFFFFE411093125110234418000000C0003FFFFFFFD03411093D05410234418000000C0003FFFFFFFD03411093D48C
310
9055241484D358010000C3004A2411093D48CD055241484D358020000C3004A2411093D48D5055241484D358000000C0003FFFFFFFE411093D48DD055241484D3581E0000C3004A103411094105410234418000000C0003FFFFFFFD03411094115610234418000000C0003FFFFFFFD034110951112501358000000C0003FFF
310
FFFFD034110D0530C901348000000C0003FFFFFFFE4110D0530CD01348020000C3004A24110D0530D501348070000C3004A24110D0530DD013481E0000C3004A24110D15393901378000000C0003FFFFFFFE4110D15395D01378000000C0003FFFFFFFE4110D312539044B4C494E8000000C0003FFFFFFFE4110D3D38C5013
310
08000000C0003FFFFFFFD034110D3D38C901318000000C0003FFFFFFFD034110D3D38CD01328000000C0003FFFFFFFD034110D3D38D101328000000C0003FFFFFFFD034111115494101348000000C0003FFFFFFFD034111115510501348000000C0003FFFFFFFE4111125051D01358000000C0003FFFFFFFE4111125312501
310
358000000C0003FFFFFFFE411112535410650415244494D8000000C0003FFFFFFFE411112535490652454644494D8000000C0003FFFFFFFE411156135410234418000000C0003FFFFFFFD034111915353901388000000C0003FFFFFFFE415191535413901388030000C3004524151915354D410234418000000C0003FFFFFF
310
FE4151915354D510234418030000C300452415191535593901328000000C0003FFFFFFFE415191535595101328030000C3004524111931055101308000000C0003FFFFFFFD03411194905490234418000000C0003FFFFFFFD034111D49312501358000000C0003FFFFFFFD034111D5931250234418000000C0003FFFFFFFD0
310
34112105510D01388000000C0003FFFFFFFD014112125113901338000000C0003FFFFFFFD034112125115D01338000000C0003FFFFFFFD034112131253901348000000C0003FFFFFFFD01411213D0D3901378000000C0003FFFFFFFE411213D0D5D01378000000C0003FFFFFFFE4112539193D04494E464F8000000C0003FF
310
FFFFFE4113105112501348000000C0003FFFFFFFD034113115051101358000000C0003FFFFFFFE419397D0921395902394E8000000C0003FFFFFFFE419397D0D3D38C502304E8000000C0003FFFFFFFD03419397D0D3D38C902314E8000000C0003FFFFFFFD03419397D0D3D38CD02324E8000000C0003FFFFFFFD03419397
310
D0D3D38D102324E8000000C0003FFFFFFFD03419397D0D15393902374E8000000C0003FFFFFFFE419397D0D15395D02374E8000000C0003FFFFFFFE419397D1125312502354E8000000C0003FFFFFFFE419397D2105510D02384E8000000C0003FFFFFFFD01419397D2125113902334E8000000C0003FFFFFFFD03419397D2
310
125115D02334E8000000C0003FFFFFFFD03419397D3115051102354E8000000C0003FFFFFFFE419397D391D25410349504E8000000C0003FFFFFFFE419397D412105390334414E8000000C0003FFFFFFFE419397D510D3D3902304E8000000C0003FFFFFFFD03419397D5121312502344E8000000C0003FFFFFFFD01419397
310
D5131153902304E8000000C0003FFFFFFFD03419397D516150CD02364E8000000C0003FFFFFFFD03419397D594131250332414E8000000C0003FFFFFFFE411391D25410249508000000C0003FFFFFFFE411410530C9055241484D358010000C3004A2411410530CD055241484D358020000C3004A2411410530D5055241484
310
D358000000C0003FFFFFFFE411410530DD055241484D3581E0000C3004A103411412105390234418000000C0003FFFFFFFE411413D4D3901368070000C3004A2419413D4D49151901368050000C3004A103411413D4D6101368000000C0003FFFFFFFD03411414D150D0234418000000C0003FFFFFFFD03411490D1D390137
310
8000000C0003FFFFFFFE411490D1D5D01378000000C0003FFFFFFFE4114919112501348000000C0003FFFFFFFD034114945514901348070000C3004A103411494D093D01348000000C0003FFFFFFFD034114D09492D01348000000C0003FFFFFFFD014114D0D153901378000000C0003FFFFFFFD034114D150D51013480000
310
00C0003FFFFFFFD014114D15313901378000000C0003FFFFFFFD034114D15315D01378000000C0003FFFFFFFD034114D4D654D01308000000C0003FFFFFFFD034114D51312501348070000C3004A1034114D6508C501358000000C0003FFFFFFFD034114D6508C901358000000C0003FFFFFFFD034114D6508CD0135802000
310
0C3004A24114D6508D501358070000C3004A1034114D65353901378000000C0003FFFFFFFD034114D65355D01378000000C0003FFFFFFFD03411510D3D3901308000000C0003FFFFFFFD034115121312501348000000C0003FFFFFFFD01411512550C9055241484D358010000C3004A2411512550CD055241484D358020000
310
C3004A2411512550D5055241484D358000000C0003FFFFFFFE411512550DD055241484D3581E0000C3004A1034115131153901308000000C0003FFFFFFFD03415514905253105545241494C8000000C0003FFFFFFFE41151492D3901378000000C0003FFFFFFFD0341151492D5D01378000000C0003FFFFFFFD03411514931
310
2501348000000C0003FFFFFFFD01411516150C501368030000C300452411516150C901368030000C300452411516150CD01368000000C0003FFFFFFFE411516150D501368070000C3004A2411516150DD013681E0000C3004A24115925155D04564945578000000C0003FFFFFFFE41159151121034849448000000C0003FFF
310
FFFFD0241159151159035649538000000C0003FFFFFFFD02411594131250232418000000C0003FFFFFFFE4116925690501348000000C0003FFFFFFFD01411354D653501358020000C3004A2AAA3F400030C0290A4392841D2841914415284111440D144092840528479287F6
340
16
340
16
340
16
340
5E
340
16
340
16
340
16
340
5F
340
16
340
16
340
5F
340
60
340
16
340
16
340
16
340
16
340
5E
340
16
340
16
340
16
340
5F
340
16
340
16
340
5F
340
60
340
16
340
61
340
16
340
16
340
16
340
16
340
16
340
5E
340
16
340
16
340
16
340
62
340
15
340
15
340
15
340
15
340
15
340
15
340
15
340
15
340
15
340
15
340
15
340
15
340
15
340
15
340
15
340
15
340
63
340
15
340
15
340
15
340
15
340
15
340
15
340
15
340
15
340
15
340
15
340
15
340
15
340
15
340
15
340
15
340
16
340
15
340
15
340
15
340
15
340
15
340
15
340
15
340
15
340
62
340
15
340
15
340
63
340
15
340
15
340
15
340
15
340
15
340
15
340
15
340
15
340
15
340
63
340
15
340
15
340
15
340
62
340
15
340
15
340
15
340
15
340
15
340
15
340
15
340
15
340
15
340
15
340
15
340
15
340
15
340
15
340
15
340
15
340
15
340
15
340
15
340
63
340
15
340
15
340
63
340
15
340
15
340
16
340
15
340
63
340
15
340
15
340
62
340
15
340
15
340
16
340
15
340
63
340
15
340
15
340
15
340
15
340
15
340
15
340
15
340
15
340
15
340
63
340
15
340
15
340
15
340
15
340
15
340
15
340
15
340
15
340
15
340
15
340
15
340
66
340
16
 94
        0
  0
ACAD_PROXY_OBJECT
  5
B1
102
{ACAD_REACTORS
330
AC
102
}
330
AC
100
AcDbProxyObject
 90
      499
 91
      524
 95
       25
 70
     0
 93
      253
310
43D1444494D454E53494F4E2C414D44545F2A5F44494D404A9012A404A9012A8
  0
ACAD_PROXY_OBJECT
  5
B0
102
{ACAD_REACTORS
330
AC
102
}
330
AC
100
AcDbProxyObject
 90
      499
 91
      524
 95
       25
 70
     0
 93
      181
310
43D012A42D05357D191504B505357CA9012A404A9012A8
  0
ACAD_PROXY_OBJECT
  5
AD
102
{ACAD_REACTORS
330
AC
102
}
330
AC
100
AcDbProxyObject
 90
      499
 91
      524
 95
       25
 70
     0
 93
      133
310
43D054841544348404A9012A404A9012A8
  0
ACAD_PROXY_OBJECT
  5
AE
102
{ACAD_REACTORS
330
AC
102
}
330
AC
100
AcDbProxyObject
 90
      499
 91
      524
 95
       25
 70
     0
 93
      549
310
43D044C494E4549CE0B0E138B0A8B4E0B0A8B4E138B105357CE0B105357CE138B0A8B505357CE0B0A8B505357CE139012A404A910494E534552542C5354445041525432448
  0
ACAD_PROXY_OBJECT
  5
AF
102
{ACAD_REACTORS
330
AC
102
}
330
AC
100
AcDbProxyObject
 90
      499
 91
      524
 95
       25
 70
     0
 93
      909
310
43D6641434D46434652414D452C41434D444154554D5441524745542C41434D444154554D49442C41434D57454C4453594D2C41434D5355524653594D2C41434D4645415449442C41434D504152545245462C41434D42414C4C4F4F4E2C414D44544544474553594D404A9012A404A9012A8
  0
ACAD_PROXY_OBJECT
  5
5B
102
{ACAD_REACTORS
330
5A
102
}
330
5A
100
AcDbProxyObject
 90
      499
 91
      520
 95
       25
 70
     0
 93
      157
310
057356C1D77406406AA8FFFFFFFF05DD01009010
330
1F
330
0
330
38F1
 94
        0
  0
ACAD_PROXY_OBJECT
  5
3CCF
102
{ACAD_REACTORS
330
E7A
102
}
330
E7A
100
AcDbProxyObject
 90
      499
 91
      578
 95
       25
 70
     0
 93
     2395
310
5DCB81E85EB51B8BE3F8030000C30041105394D2501640600800030C0200800030C00B81E85EB51B8BE3F48821E8720B1B6A9BAB9332A32BC3A29BA3220480A1282C6DA8C868CA6E8C88120286A0B1B6ABB2B63234B733A9BA3220480A1082C6DA92C8A6E8C88120285A0B1B6A230BA3AB6A9BA3220480A1282C6DA849E9AA
310
6E8C8812028820B6B23A2232BA30B4B629BCB6A9BA3220480A2282DAC8E8A6CAC6E8D2DEDCA6F2DAA6E8C88120288A0B6B23A21B2B73A32B92634B732A9BA3220480A2282DAC8E8A8D0E4CAC2C898D2DCCAA6E8C88120285A0B6B23A2737BA32A9BA3220480A1682C682DACE98C2F2A6E8C88120285A0B1A0B6B3A234B6A9B
310
A3220480A2282C682DACE90DED8CA86D0C2E4E8A6E8C88120286A0B1A0B6B3AA34BA3632A9BA3220480A02812020
340
3C74
360
3CD0
360
3CD1
360
3CD2
360
3CD3
360
3CD4
360
3CD5
360
3CD6
360
3CD7
360
3CD8
360
3CD9
360
3CDA
360
3CE0
360
3CE1
360
3CE2
360
3CE3
340
0
340
0
 94
        0
  0
ACAD_PROXY_OBJECT
  5
E7B
102
{ACAD_REACTORS
330
E7A
102
}
330
E7A
100
AcDbProxyObject
 90
      499
 91
      526
 95
       25
 70
     0
 93
     2379
310
5DC33333333333309408000000C00040D29254D01640600800030C0200800030C003333333333330940C8121E8720B1B6A9BAB9332A32BC3A29BA3220480A1282C6DA8C868CA6E8C88120286A0B1B6ABB2B63234B733A9BA3220480A1082C6DA92C8A6E8C88120285A0B1B6A230BA3AB6A9BA3220480A1282C6DA849E9AA6E
310
8C88120286A0B1A0B6B3AA34BA3632A9BA3220480A2082DAC8E888CAE8C2D2D8A6F2DAA6E8C88120288A0B6B23A29B2B1BA34B7B729BCB6A9BA3220480A2282DAC8E886CADCE8CAE498D2DCCAA6E8C88120288A0B6B23A2A343932B0B22634B732A9BA3220480A1682DAC8E89CDEE8CAA6E8C88120285A0B1A0B6B3A630BCA
310
9BA3220480A1682C682DACE88D2DAA6E8C88120288A0B1A0B6B3A437B632A1B430B93A29BA3220480C812020
340
E7C
360
E7D
360
E7E
360
E7F
360
E80
360
E81
360
E82
360
38F6
360
38F7
360
38F8
360
38FA
360
38FB
360
38FC
360
3902
360
3903
360
3904
340
0
340
0
 94
        0
  0
ACAD_PROXY_OBJECT
  5
7E
102
{ACAD_REACTORS
330
42
102
}
330
42
100
AcDbProxyObject
 90
      499
 91
      504
 95
       25
 70
     0
 93
      381
310
4050F414D475F504D5F53455454494E4753214829A8E98A8A68682988A942883DA22BA3A9A2AA2A24A723A9A2A7223E8
  0
ACAD_PROXY_OBJECT
  5
43
102
{ACAD_REACTORS
330
42
102
}
330
42
100
AcDbProxyObject
 90
      499
 91
      504
 95
       25
 70
     0
 93
     2884
310
4050B44574753455454494E4753A0E8482A68AA6A88882A069492A684A1A0A723A0A92920ACA0A859699189719981C9A1A1A1A20C868A9C829C8E82A12686AF87260F862666A8321A2A72224A0A50005DDDC5CFB0F81FA0E868A9C889282A682A106260F86460F8666083A1A2A72224A9AA250000000000000042020C868A9
310
C988A9C94000000000000048808321A2A727A323250000000000000122020E868A9C9E8C8C62940000000000000488083A1A2A727A3231925000000000000012202128698929C82A4A482B282A0462628421A624A722AA2CA820A82AC2624A722A1288AE8EAAA68682988A94283A620A9AA27A12520A80982109A82968AAC9
310
28AAE9FA04832829A1A0A622830020000419491559254D2505404C1055343414C4541503313A314214D510539110549110540D29254D0954494D455354414D504A02096BC92782B734141D5915494D253D3905414C4D4B8C0C1107B44574753455454494E4753454E447D0
  0
ACAD_PROXY_OBJECT
  5
C6
102
{ACAD_REACTORS
330
42
102
}
330
42
100
AcDbProxyObject
 90
      499
 91
      504
 95
       25
 70
     0
 93
      411
310
4050346454D21092DCC6E486DECACC942842630BCA3B937BAB820A8320A6AFA322A0A20F688AE8EA68AA8A8929C8EA68A9C88FA0
  0
ACAD_PROXY_OBJECT
  5
B3
102
{ACAD_REACTORS
330
42
102
}
330
42
100
AcDbProxyObject
 90
      499
 91
      504
 95
       25
 70
     0
 93
      591
310
40505536861667421292DCE8CAE4E4EAE0E89FC84A634B3B43A2634B732A7E80A1A98D2CED0E898D2DCCAACD2CAEE9FA028229B4B232A7E80A20F688AE8EA68AA8A8929C8EA68A9C88FA
  0
ACAD_PROXY_OBJECT
  5
44
102
{ACAD_REACTORS
330
42
102
}
330
42
100
AcDbProxyObject
 90
      499
 91
      504
 95
       25
 70
     0
 93
      852
310
4050D5452414E5353455454494E4753A2488A482AE929C8EA8A4829CA69882A8929E9C0C00800050D4F524947494E414C4C595F4F4E0600400028529A7AAA921A2A620A723A0A81A52827212AAA0A48AA68AA4AC8A0C0080001107B44574753455454494E4753454E447D0
  0
ACAD_PROXY_OBJECT
  5
3CD0
330
3CCF
100
AcDbProxyObject
 90
      499
 91
      579
 95
       25
 70
     0
 93
       96
310
5DC20E80A0280A0280A02808
  0
ACAD_PROXY_OBJECT
  5
3CD1
330
3CCF
100
AcDbProxyObject
 90
      499
 91
      580
 95
       25
 70
     0
 93
      332
310
5DD0E4050140501405014050140501405014050142501405014050140501405012000000000000000400
340
3C75
 94
        0
  0
ACAD_PROXY_OBJECT
  5
3CD2
330
3CCF
100
AcDbProxyObject
 90
      499
 91
      581
 95
       25
 70
     0
 93
      403
310
5DCC199999999999E99F91F4050140501405014050140501405014050140501405014050140501405014050140501405014040
340
0
 94
        0
  0
ACAD_PROXY_OBJECT
  5
3CD3
330
3CCF
100
AcDbProxyObject
 90
      499
 91
      582
 95
       25
 70
     0
 93
       10
310
5DC0
  0
ACAD_PROXY_OBJECT
  5
3CD4
330
3CCF
100
AcDbProxyObject
 90
      499
 91
      583
 95
       25
 70
     0
 93
      257
310
5DE290EA22A7D90F49F9353333333333727F44D4CCCCCCCCCDC9FC010000618000
340
3C71
340
3C72
 94
        0
  0
ACAD_PROXY_OBJECT
  5
3CD5
330
3CCF
100
AcDbProxyObject
 90
      499
 91
      584
 95
       25
 70
     0
 93
    13023
310
5DD0E411255115350141236025B6901405014069011309A4F2590CB64FD3347454E545241434F2C4A504E2C302C8D8096DA2C47454E54524154582C25732C2847454E4D53472067656E647767203232322940690120281A8AA2CA0282484A4BE52028120280A03202261349E4B2196C9FA668E8A9CA8A482869E5894A09C58
310
605921292F94588E8A9CA8A482A8B0584AE658508E8A9C9AA68E40CECADCC8EECE406464665280D202405044E414D454050496BC914F4051C40640A8B95C2E97CBE502404CD1D15395149050D3CB1294138B0C0B25AF2453CB11D15395149055160B095CCB0A11D1539354D1C819D95B991DD9C80C8C8D8A50192C3D494628
310
4953424C414E4B28504152543A4E414D45292C424C4F434B3A4E414D452C504152543A4E414D452940480A0A888AA686A480A09251B1DBE80A3A80C81D10782C06030180C8099A3A2A72A2920A1A7962528271618164946C76F9623A2A72A2920AA2C1612B9961423A2A726A9A39033B2B7323BB39019189B94A0248090142
310
14D51053911054911014122D2E29A50147501904A383BFDFEFF5FBFCFD3347454E545241434F2C4A504E2C302C8B4B8A692C47454E54524154582C25732C2847454E4D53472067656E64776720323138294049012028426A0AA22A924A0A62028246EF4BDFA028EA0320B41396D838E9017D9FA668E8A9CA8A482869E5894A
310
09C5860591BBD2F7E588E8A9CA8A482A8B0584AE658508E8A9C9AA68E40CECADCC8EECE406464625280D202405044E4F544540504928D8B4C4051D40641A8B95C2E97CBE5F23F4CD1D15395149050D3CB1294138B0C0B24A362D30B11D15395149055160B095CCB0A11D1539354D1C819D95B991DD9C80C8C8D4A501A40480
310
A0CAC8A9C889EA480A1106F1072706BF02B680A3A80C83D172B85D2F97CBE47E9BA3A2A72A2920A1A79625282716181641BC41C9C1AFC0AD9623A2A72A2920AA2C1612B9961423A2A726A9A39033B2B7323BB39019191A14A0348090141911154D0D48C90141A43825AF880C90147501908A20F0580C0603019013447454E5
310
45241434F2C4A504E2C302C90E096BE20322C47454E54524154582C25732C2847454E4D53472067656E6477672033362940490120284A9AA20A72220A922192028345A5C53490192028EA0321347077FBFDFEBF7F9FA6A8E8A9CA8A482869E5894A09C586059169714D24064588E8A9CA8A482A8B0584AE658508E8A9C9AA6
310
8E40CECADCC8EECE4064646052809202405094D4154455249414C32405068DDE97BF20324051D40642A8272DB071D202FB3F4D11D15395149050D3CB1294138B0C0B2377A5EFC80C8B11D15395149055160B095CCB0A11D1539354D1C819D95B991DD9C80D0C0A501240480A089A82A6A680A091D7F2F9480A3A80A0485A06
310
81172B85D2F97CBE47E9923A2A72A2920A1A796252827161816475FCBE51623A2A72A2920AA2C1612B9961423A2A726A9A39033B2B7323BB3901A1914A024809014154149250D150141226FE29A501475014090C409022E570BA5F2F97C8FD3247454E545241434F2C4A504E2C302C89BF8A692C47454E54524154582C2573
310
2C2847454E4D53472067656E6477672034332940490120281A224A6A02824850CB202028EA028121A81A045CAE174BE5F2F91FA648E8A9CA8A482869E5894A09C58605921432C80588E8A9CA8A482A8B0584AE658508E8A9C9AA68E40CECADCC8EECE406868528092024050E441022E07A17AD46E338FE07800030C0001018
310
ACD56AB55AADF63F2B355AAD56AB7D8FD073D3C4954454D3E405018ACD56AB55AADF63F2B355AAD56AB7D8FD073D3C4954454D3E40501890C7E3F1783CEE3F2431F8FC5E0F3B8FD073D3C4954454D3E40501890C7E3F1783CEE3F2431F8FC5E0F3B8FD073D3C4954454D3E405029012B355AAD56AB7D8FCACD56AB55AADF63
310
F41CF4F125511534F901418F4F1455164F9014062B355AAD56AB7D8FCACD56AB55AADF63F41CF4F125511534F9014061309A4F2590CBA4FC4C2693C96432E93F41CF4F125511534F901901002B355AAD56AB7D8FCACD56AB55AADF63FA2000000000000008204018000618048220681A048120280C88214844882034852034
310
8452028521485214814000000000000F0BF0000000000003C2FD018020000C3008070000C3000EF7D3E365DBA88FC3BDF4F8D976EA23F2E07A17AD46E2F8FF20341A405024150741A4069703D0BD6A3717C7F0040001860100400018601002000186002026280A02
340
0
340
0
 94
        0
  0
ACAD_PROXY_OBJECT
  5
3CD6
330
3CCF
100
AcDbProxyObject
 90
      499
 91
      585
 95
       25
 70
     0
 93
      994
310
5DC0B81E85EB51B8CE3F4BCF511155105253080F11115510525317D3105091530F971414D0D05311480F11115510525317D05094D4D0D053114F92341C9A9999999999B93F26A666666666724FC000000000000E03F4000000000000004000000000000005100000000000000244081E0000C3002E07A17AD46E338FC0
340
38D2
340
3C74
 94
        0
  0
ACAD_PROXY_OBJECT
  5
3CD7
330
3CCF
100
AcDbProxyObject
 90
      499
 91
      586
 95
       25
 70
     0
 93
      823
310
5DC031703D0BD6A3719C7E999EA9A2A1AA24A7A7101E29A2A1AA24A7A72FA620A122A62FA324A929AA1F169E29A2A1AA24A7A72FA620A122A62FA620A9AA1F1353333333333B27E3FFFE01C00030C008840F000061801353333333333B27F1703D0BD6A3719C7E
340
38D2
340
3C74
 94
        0
  0
ACAD_PROXY_OBJECT
  5
3CD8
330
3CCF
100
AcDbProxyObject
 90
      499
 91
      587
 95
       25
 70
     0
 93
      280
310
5DC2B8716D9CEF7C33F0A5723F0BD4A2F0FC295C8FC2F528BC3FA199999999999F99FC
  0
ACAD_PROXY_OBJECT
  5
3CD9
330
3CCF
100
AcDbProxyObject
 90
      499
 91
      588
 95
       25
 70
     0
 93
       14
310
5DE4
340
0
 94
        0
  0
ACAD_PROXY_OBJECT
  5
3CDA
330
3CCF
100
AcDbProxyObject
 90
      499
 91
      589
 95
       25
 70
     0
 93
     7123
310
5DD084050BA4050AA405024050E836583938376838C815B8367203140405013D3C696628657175616C28486F6C653A7461707065642C223022292C22252563222C486F6C653A6E6F6D696E616C2022202220696628657175616C28486F6C653A756E6974732C223122292C2278222C222D222920222022293E3C6966286571
310
75616C28486F6C653A7461707065642C223022292C486F6C653A6469612C486F6C653A706974636864657363293E207B5C46414D4744543B787D203C696628657175616C28486F6C653A7465726D696E6174696F6E2C223022292C486F6C653A64657074682C228AD192CA22293E5C507B5C46414D4744543B767D2525633C
310
486F6C653A63746469613E207B5C46414D4744543B787D203C486F6C653A637464657074683E406901405034050E836583938376838C815B83672031405FE3D3C696628657175616C28486F6C653A7461707065642C223022292C22252563222C486F6C653A6E6F6D696E616C2022202220696628657175616C28486F6C653
310
A756E6974732C223122292C2278222C222D222920222022293E3C696628657175616C28486F6C653A7461707065642C223022292C486F6C653A6469612C486F6C653A706974636864657363293E207B5C46414D4744543B787D203C696628657175616C28486F6C653A7465726D696E6174696F6E2C223022292C486F6C653
310
A64657074682C228AD192CA22293E5C507B5C46414D4744543B777D2525633C486F6C653A63746469613E2058203C486F6C653A6374616E676C653E252564406901405014050E836583938376838C815B83672031405CF3D3C696628657175616C28486F6C653A7461707065642C223022292C22252563222C486F6C653A6E
310
6F6D696E616C2022202220696628657175616C28486F6C653A756E6974732C223122292C2278222C222D222920222022293E3C696628657175616C28486F6C653A7461707065642C223022292C486F6C653A6469612C486F6C653A706974636864657363293E5C507B5C46414D4744543B787D203C696628657175616C2848
310
6F6C653A7465726D696E6174696F6E2C223022292C486F6C653A64657074682C228AD192CA22293E4069014051E4090E836583938376838C815B83672032405173D3C535444503A444553433E203C535444503A5354443E40690E836583938376838C815B836720314050C3D3C535444503A444553433E40690240515AAABB
310
A060
360
3CDB
330
3CDB
360
3CDC
330
3CDC
360
3CDD
330
3CDD
360
3CDE
360
3CDF
330
3CDE
330
3CDF
 94
        0
  0
ACAD_PROXY_OBJECT
  5
3CE0
330
3CCF
100
AcDbProxyObject
 90
      499
 91
      569
 95
       25
 70
     0
 93
       26
310
5DD02A80
340
0
 94
        0
  0
ACAD_PROXY_OBJECT
  5
3CE1
330
3CCF
100
AcDbProxyObject
 90
      499
 91
      570
 95
       25
 70
     0
 93
      258
310
5DD02000000000000380FC000000000000E03F408F0F9023C3E40DB18CCCFFFF80
340
3C76
340
0
340
0
340
3C77
340
3C78
340
0
340
3C79
340
3C7A
340
3C7B
340
0
 94
        0
  0
ACAD_PROXY_OBJECT
  5
3CE2
330
3CCF
100
AcDbProxyObject
 90
      499
 91
      590
 95
       25
 70
     0
 93
    13993
310
5DD1D023FFFFFFFD010300002E07A17AD46E2F8FE00800030C01010300002E07A17AD46E2F8FE00800030C00050C8DC0955782CC838A83588367014ED1D15395149050D3CB1294138B0C0B23702555E0B320E2A0D620D9CB11D15395149055160B095CCB0A11D1539354D1C819D95B991A5B5E880CCC0A78000C0000000000
310
00000000000000000000007B14AE47E17AA43F2E07A17AD46E2F8FE00800030C007B14AE47E17AA43F2E07A17AD46E2F8FE00800030C020143CF4F111959985D5B1D151A5D1B194F8050A8C8A8365815B8375838B014E51D15395149050D3CB1294138B0C0B2322A0D96056E0DD60E2CB11D15395149055160B095CCB0A11D
310
1539354D1C819D95B991A5B5E880CCC4A78000C000000000000000000000000000000007B14AE47E17AA43F2E07A17AD46E2F8FE00800030C007B14AE47E17AA43F2E07A17AD46E2F8FE00800030C020143CF4F111959985D5B1D151A5D1B194F90D4410F4450240D0441507431014391244D05449074510C4350F00014123
310
2D24D7C053247454E545241434F2C4A504E2C302C8CB4935F2C47454E54524154582C25732C2847454E4D53472067656E64696D7A20312900010104002214000282465A49AF80A648E8A9CA8A482869E5894A09C586059196926BE588E8A9CA8A482A8B0584AE658508E8A9C9AA68E40CECADCC8D2DAF44062520002020800
310
43E80005028C8A014C11D15395149050D3CB1294138B0C0B23228B11D15395149055160B095CCB0A11D1539354D1C819D95B991A5B5E880C8A4054E3D3C4946284953424C414E4B28486F6C654974656D292C4F726967696E2C20486F6C654974656D293E3C4946284953424C414E4B28486F6C654974656D292C22222C204
310
86F6C65496E646578293E010104002234000280AC00A5E8E8A9CA8A482869E5894A09C586058B0588E8A9CA8A482A8B0584AE658508E8A9C9AA68E40CECADCC8D2DAF4406652000202000040A800050159014BD1D15395149050D3CB1294138B0C0B164B11D15395149055160B095CCB0A11D1539354D1C819D95B991A5B5E
310
880D0A4000404000081D0000A02A40297A3A2A72A2920A1A796252827161816291623A2A72A2920AA2C1612B9961423A2A726A9A39033B2B73234B6BD101B148000808000104A000140A0F4C053047454E545241434F2C4A504E2C302C83D32C47454E54524154582C25732C2847454E4D53472067656E64696D7A20372900
310
0101030020B400028141E980A608E8A9CA8A482869E5894A09C58605907A6588E8A9CA8A482A8B0584AE658508E8A9C9AA68E40CECADCC8D2DAF4407052000202020041E800050490E096BE014CD1D15395149050D3CB1294138B0C0B243825AF8B11D15395149055160B095CCB0A11D1539354D1C819D95B991A5B5E880C8
310
C0A400040010008650000A091B012DB40299A3A2A72A2920A1A79625282716181646C04B6D1623A2A72A2920AA2C1612B9961423A2A726A9A39033B2B73234B6BD10189A148000808280501A00014320D0E0E4E0D9A0D8A0D3A0D60053B47454E545241434F2C4A504E2C302C8343839383668362834E83582C47454E54524
310
154582C25732C2847454E4D53472067656E64696D7A203135290001010500A1D4000281464500A628E8A9CA8A482869E5894A09C5860591914588E8A9CA8A482A8B0584AE658508E8A9C9AA68E40CECADCC8D2DAF440626C52000202080044A800050E8C8A8343839383668362834E8358014F51D15395149050D3CB129413
310
8B0C0B2322A0D0E0E4E0D9A0D8A0D3A0D60B11D15395149055160B095CCB0A11D1539354D1C819D95B991A5B5E880C4DCA4000404140089D0000A0921292F940299A3A2A72A2920A1A796252827161816484A4BE51623A2A72A2920AA2C1612B9961423A2A726A9A39033B2B73234B6BD10189C948000808300114A0001412
310
2D2E29A4053347454E545241434F2C4A504E2C302C8B4B8A692C47454E54524154582C25732C2847454E4D53472067656E64696D7A20323129000100040021B4878030026A6666666667A4FE064D4CCCCCCCCCF49FC049A9999999999E93F809353333333333D27F0226A6666666667A4FE044D4CCCCCCCCCF49FC0D818000
310
00000000000810026A666666666764FE004D4CCCCCCCCCF49FC009A9999999999E93F801353333333333D27F032E07A17AD46E378FE0633B333333333032050F006004D4CCCCCCCCCF49FC0C9A9999999999E93F819353333333333D27F0326A6666666667A4FE064D4CCCCCCCCCF49FC0C9A9999999999E93F81B03000000
310
00000000102004D4CCCCCCCCCEC9FC009A9999999999E93F819353333333333D27F0026A6666666667A4FE065C0F42F5A8DC6F1FC0C6766666666660640A088800000021E000000890000002260000008220E000200890000002060002008100008000
340
0
340
0
340
0
340
0
340
3C74
340
3C74
 94
        0
  0
ACAD_PROXY_OBJECT
  5
3CE3
330
3CCF
100
AcDbProxyObject
 90
      499
 91
      562
 95
       25
 70
     0
 93
     5214
310
5DD9741105394D2506414E53495F4342905394D257D512551554D15414E53495F54525F5265766973696F6E6C697374614191143202831372E307832322E30696E63682941905394D257D0D1146202832382E307834302E30696E63682941905394D257D191142202831312E307831372E30696E63682941905394D257D091
310
144202832322E307833342E30696E63682941905394D257D111145202833342E307834342E30696E63682941905394D257D1510412028382E357831312E30696E63682941905394D257D050543905B9CDA482557247A25E4C81110D0C414E53495F5449544C45444343505B9CDA482557247A25E4C81050B414E53495F5449
310
544C454143905B9CDA482557247A25E4C81050D0C414E53495F5449544C454143425554C82557247A25E4D0A414E53495F544954555343505B9CDA482557247A25E4C81110B414E53495F5449544C454442110979A97F0838A8358836720415F42525F45505394D257D09497D4995D9A5CDA5BDB9B1A5CDD18510979A97F08
310
38A8358836720415F54525F45505394D257D51497D4995D9A5CDA5BDB9B1A5CDD18510979A97F0838A8358836720445F42525F45505394D257D09497D4995D9A5CDA5BDB9B1A5CDD19110979A97F0838A8358836720445F54525F45505394D257D51497D4995D9A5CDA5BDB9B1A5CDD19110979A97F0838A8358836720415F
310
424C5F45505394D257D09317D4995D9A5CDA5BDB9B1A5CDD18510979A97F0838A8358836720415F544C5F45505394D257D51317D4995D9A5CDA5BDB9B1A5CDD18510979A97F0838A8358836720445F424C5F45505394D257D09317D4995D9A5CDA5BDB9B1A5CDD19110979A97F0838A8358836720445F544C5F45505394D25
310
7D51317D4995D9A5CDA5BDB9B1A5CDD190
  0
ACAD_PROXY_OBJECT
  5
E7D
330
E7B
100
AcDbProxyObject
 90
      499
 91
      527
 95
       25
 70
     0
 93
       86
310
5DEA0C80A0280A0280A034
  0
ACAD_PROXY_OBJECT
  5
E7E
330
E7B
100
AcDbProxyObject
 90
      499
 91
      528
 95
       25
 70
     0
 93
      282
310
5DD0E4050140501405014050140501405014050141101405014048000000000000001000
340
E83
 94
        0
  0
ACAD_PROXY_OBJECT
  5
E7F
330
E7B
100
AcDbProxyObject
 90
      499
 91
      529
 95
       25
 70
     0
 93
      323
310
5DCC199999999999E99F91740501405014050140501405014050140501405014050140501405014040
340
0
 94
        0
  0
ACAD_PROXY_OBJECT
  5
E80
330
E7B
100
AcDbProxyObject
 90
      499
 91
      530
 95
       25
 70
     0
 93
       10
310
5DC0
  0
ACAD_PROXY_OBJECT
  5
E81
330
E7B
100
AcDbProxyObject
 90
      499
 91
      531
 95
       25
 70
     0
 93
      257
310
5DE0C16A22A7D90F49F80000000000001081400000000000004204010000618000
340
E84
340
E85
 94
        0
  0
ACAD_PROXY_OBJECT
  5
E82
330
E7B
100
AcDbProxyObject
 90
      499
 91
      532
 95
       25
 70
     0
 93
     5277
310
5DD06411255115350141236025B6901405014069010000000000000910240690120281A8AA2CA0282484A4BE52028120280A032020000000000001220480D202405044E414D454050496BC914F4051C40640A80000000000004E4090193C3D3C4946284953424C414E4B28504152543A4E414D45292C424C4F434B3A4E414D
310
452C504152543A4E414D45293E3C41435F44455343524950544E3E40480A109A82A88AA492829880A091BBD2F7E80A3A80C81D0E27A15AF46E08A81203480901411393D5115014124A363B7D0147501904A0000000000000F902406428F4F1050D7D393D5114F901202832B22A72227A92028366EF6EE06F582028EA0320B4
310
0000000000001F20480C879E9E20A1AFAB27222FA620A122A61F20240506445020000000000000490201C00030C00010180000000000003E400000000000000F901073D3C4954454D3E4050180000000000003E400000000000000F901073D3C4954454D3E40501800000000000034400000000000000D101073D3C4954454
310
D3E40501800000000000034400000000000000D101073D3C4954454D3E405029010000000000000F9000000000000003E4041CF4F125511534F901418F4F1455164F9014060000000000000F9000000000000003E4041CF4F125511534F901800000000000034400000000000000D101073D3C4954454D3E40640400000000
310
0000003E400000000000000F90288800000000000020810000001800120881A068120480A032208521122080D21480D211480A1485214852050000000000003C2FC000000000000F0BF40600800030C0200400030C00CDCCCCCCCCCCEC3F3373333333333B0FC3333333333330940C80D069014090341504901A1999999999
310
9984A040100006180400800061804010000618008098A02808
340
0
340
0
 94
        0
  0
ACAD_PROXY_OBJECT
  5
38F6
330
E7B
100
AcDbProxyObject
 90
      499
 91
      562
 95
       25
 70
     0
 93
     3042
310
5DD9740D29254D064A49535F413342929254D7D512551311505134A49535F42525F5265766973696F6E6C6973744190F4134522028323937783231306D6D2941D29254D7D04D1490E41312028353934783834316D6D2941929254D7D04C50F41344C2028323130783239376D6D2941D29254D7D04D1310E413320283239377
310
83432306D6D2941929254D7D04CD0E41322028343230783539346D6D2941929254D7D04C90F4130202838343178313138396D6D2941929254D7D04C10243129254C82557247A25E4C81050A4A49535F5449544C454143129254C82557247A25E4C81090A4A49535F5449544C45424110E979A97F0838A835883675F42525F4
310
4D29254D7D09497D4995D9A5CDA5BDB9B1A5CDD10E979A97F0838A835883675F54525F44D29254D7D51497D4995D9A5CDA5BDB9B1A5CDD10E979A97F0838A835883675F424C5F44D29254D7D09317D4995D9A5CDA5BDB9B1A5CDD10E979A97F0838A835883675F544C5F44D29254D7D51317D4995D9A5CDA5BDB9B1A5CDD00
  0
ACAD_PROXY_OBJECT
  5
38F7
330
E7B
100
AcDbProxyObject
 90
      499
 91
      563
 95
       25
 70
     0
 93
      898
310
5DC4000000000000124048CF4F11115510525317D3105091530F880A0F11115510525317D05094D4D0D053114F8A50241C9A9999999999B93F26A666666666724FC000000000000E03F400000000000000400000000000000510000000000000024408070000C300000000000000049000
340
16
340
E7C
 94
        0
  0
ACAD_PROXY_OBJECT
  5
38F8
330
E7B
100
AcDbProxyObject
 90
      499
 91
      564
 95
       25
 70
     0
 93
      823
310
5DC0B00000000000002480959E9E29A2A1AA24A7A72FA620A122A62FA324A929AA1F169E29A2A1AA24A7A72FA620A122A62FA620A9AA1F000000000000048803FFFE01C00030C008140380006180000000000000048800000000000000A2000000000000002480
340
120
340
E7C
 94
        0
  0
ACAD_PROXY_OBJECT
  5
38FA
330
E7B
100
AcDbProxyObject
 90
      499
 91
      565
 95
       25
 70
     0
 93
      152
310
5DE8273108AC1C5A0640A3D0A5723F0BD1F200
  0
ACAD_PROXY_OBJECT
  5
38FB
330
E7B
100
AcDbProxyObject
 90
      499
 91
      566
 95
       25
 70
     0
 93
       14
310
5DE0
340
0
 94
        0
  0
ACAD_PROXY_OBJECT
  5
38FC
330
E7B
100
AcDbProxyObject
 90
      499
 91
      567
 95
       25
 70
     0
 93
     6059
310
5DD084050BA4050AA405024050E836583938376838C815B83672031405983D3C486F6C653A6469613E3C696628657175616C28486F6C653A7465726D696E6174696F6E2C223022292C2220905B82B320222C22208368838A838B22293E3C696628657175616C28486F6C653A7465726D696E6174696F6E2C223022292C486F
310
6C653A64657074682C2222293E2C203C486F6C653A63746469613E2082B482AE82E882CC905B82B3203C486F6C653A637464657074683E406901405034050E836583938376838C815B83672031405EF3D3C486F6C653A6374616E676C653E252564202525633C486F6C653A63746469613E208E4D8C8A2C203C69662865717
310
5616C28486F6C653A7461707065642C223022292C22252563222C486F6C653A6E6F6D696E616C202220782022293E3C696628657175616C28486F6C653A7461707065642C223022292C486F6C653A6469612C486F6C653A706974636864657363293E203C696628657175616C28486F6C653A7465726D696E6174696F6E2C2
310
23022292C22905B82B320222C222022293E3C696628657175616C28486F6C653A7465726D696E6174696F6E2C223022292C486F6C653A64657074682C2222293E406901405014050E836583938376838C815B83672031405C73D3C696628657175616C28486F6C653A7461707065642C223022292C22252563222C486F6C65
310
3A6E6F6D696E616C202220782022293E3C696628657175616C28486F6C653A7461707065642C223022292C486F6C653A6469612C486F6C653A706974636864657363293E203C696628657175616C28486F6C653A7465726D696E6174696F6E2C223022292C22905B82B320222C222022293E3C696628657175616C28486F6C
310
653A7465726D696E6174696F6E2C223022292C486F6C653A64657074682C2222293E4069014051E4090E836583938376838C815B83672032405173D3C535444503A444553433E203C535444503A5354443E40690E836583938376838C815B836720314050C3D3C535444503A444553433E40690240515AAABBA120
360
3900
330
3900
360
3901
330
3901
360
38FF
330
38FF
360
38FE
360
38FD
330
38FE
330
38FD
 94
        0
  0
ACAD_PROXY_OBJECT
  5
3902
330
E7B
100
AcDbProxyObject
 90
      499
 91
      569
 95
       25
 70
     0
 93
       26
310
5DD02A80
340
5D
 94
        0
  0
ACAD_PROXY_OBJECT
  5
3903
330
E7B
100
AcDbProxyObject
 90
      499
 91
      570
 95
       25
 70
     0
 93
      250
310
5DD020000000000000A1000000000000002440408F0F9023C3E409A0DCFFFF80
340
B5
340
0
340
0
340
BC
340
BD
340
BE
340
BF
340
C0
340
C5
340
0
 94
        0
  0
ACAD_PROXY_OBJECT
  5
3904
330
E7B
100
AcDbProxyObject
 90
      499
 91
      571
 95
       25
 70
     0
 93
    13889
310
5DD1D003FFFFFFFD030300030CCCCCCCCCCCC250200800030C01030300030CCCCCCCCCCCC250200800030C00050C8DC0955782CC838A83588367014ED1D15395149050D3CB1294138B0C0B23702555E0B320E2A0D620D9CB11D15395149055160B095CCB0A11D1539354D1C819D95B991A5B5E880CCC0A78000C0000000000
310
00000000000000000000010CCCCCCCCCCCC250200800030C010CCCCCCCCCCCC250200800030C020143CF4F111959985D5B1D151A5D1B194F8050A8C8A8365815B8375838B014E51D15395149050D3CB1294138B0C0B2322A0D96056E0DD60E2CB11D15395149055160B095CCB0A11D1539354D1C819D95B991A5B5E880CCC4
310
A78000C000000000000000000000000000000010CCCCCCCCCCCC250200800030C010CCCCCCCCCCCC250200800030C020143CF4F111959985D5B1D151A5D1B194F90D44111409034110541D0C4350F4050E44D03449074510F000141232D24D7C053247454E545241434F2C4A504E2C302C8CB4935F2C47454E54524154582C
310
25732C2847454E4D53472067656E64696D7A20312900010104002214000281464500A608E8A9CA8A482869E5894A09C5860591914588E8A9CA8A482A8B0584AE658508E8A9C9AA68E40CECADCC8D2DAF4406452029E9E9E27B934B3B4B71F1E24A31427A91424A9A12620A7259427B934B3B4B7149624A9A12620A7259424B
310
A32B6949496111116111711149F1E24BA32B69F00808200111A000140560052F47454E545241434F2C4A504E2C302C582C47454E54524154582C25732C2847454E4D53472067656E64696D7A20332900010100002054000280AC80A5E8E8A9CA8A482869E5894A09C586058B2588E8A9CA8A482A8B0584AE658508E8A9C9AA
310
68E40CECADCC8D2DAF4406852000202000040E800050152014BD1D15395149050D3CB1294138B0C0B148B11D15395149055160B095CCB0A11D1539354D1C819D95B991A5B5E880D8A400040400008250000A0507A6029823A2A72A2920A1A79625282716181641E99623A2A72A2920AA2C1612B9961423A2A726A9A39033B2
310
B73234B6BD101B948000808180105A000140A0F4C053047454E545241434F2C4A504E2C302C83D32C47454E54524154582C25732C2847454E4D53472067656E64696D7A203829000101010020F400028248704B5F00A668E8A9CA8A482869E5894A09C58605921C12D7C588E8A9CA8A482A8B0584AE658508E8A9C9AA68E40
310
CECADCC8D2DAF440646052000200080043280005048B4B8A69014CD1D15395149050D3CB1294138B0C0B22D2E29A4B11D15395149055160B095CCB0A11D1539354D1C819D95B991A5B5E880C8C4A4000400100086D0000A09196926BE029923A2A72A2920A1A796252827161816465A49AF9623A2A72A2920AA2C1612B9961
310
423A2A726A9A39033B2B73234B6BD10189480A02620202080043E80005048D8096DA014CD1D15395149050D3CB1294138B0C0B236025B68B11D15395149055160B095CCB0A11D1539354D1C819D95B991A5B5E880C4D0A4000404140280D0000A190687072706CD06C5069D06B0029DA3A2A72A2920A1A7962528271618164
310
1A1C1C9C1B341B141A741AC1623A2A72A2920AA2C1612B9961423A2A726A9A39033B2B73234B6BD10189A94800080820050EA000143A322A0D0E0E4E0D9A0D8A0D3A0D60053D47454E545241434F2C4A504E2C302C8C8A8343839383668362834E83582C47454E54524154582C25732C2847454E4D53472067656E64696D7A
310
2031372900010105002274000281464500A628E8A9CA8A482869E5894A09C5860591914588E8A9CA8A482A8B0584AE658508E8A9C9AA68E40CECADCC8D2DAF440626C52000202080044A8000504909497CA014CD1D15395149050D3CB1294138B0C0B242525F28B11D15395149055160B095CCB0A11D1539354D1C819D95B9
310
91A5B5E880C4E4A400040418008A521E000000000000001CA040C00000000000034408080000000000006881010000000000000D102040000000000001A204080000000000003440818000000000000728103000000000000125020600000000004028A040000000000000034408000000000000004881000000000000000D
310
102000000000000001A204000000000000003440818000000000000508143C0000000000000039408180000000000006881030000000000000D102060000000000001A2040C00000000000034408180000000000006881030000000000000E5020600000000000024A040C0000000000805140800000000000000688100000
310
00000000009102000000000000001A2040000000000000034408180000000000006881030000000000000A10284220000000878000002020000008380000020400000081800000208000000828000002028900000000
340
0
340
0
340
0
340
0
340
E7C
340
E7C
 94
        0
  0
ACAD_PROXY_OBJECT
  5
3CDB
330
3CDA
100
AcDbProxyObject
 90
      499
 91
      568
 95
       25
 70
     0
 93
     2256
310
5DE0143A0D960E4E0DDA0E32056E0D9C80C40405013D3C696628657175616C28486F6C653A7461707065642C223022292C22252563222C486F6C653A6E6F6D696E616C2022202220696628657175616C28486F6C653A756E6974732C223122292C2278222C222D222920222022293E3C696628657175616C28486F6C653A74
310
61707065642C223022292C486F6C653A6469612C486F6C653A706974636864657363293E207B5C46414D4744543B787D203C696628657175616C28486F6C653A7465726D696E6174696F6E2C223022292C486F6C653A64657074682C228AD192CA22293E5C507B5C46414D4744543B767D2525633C486F6C653A6374646961
310
3E207B5C46414D4744543B787D203C486F6C653A637464657074683E
  0
ACAD_PROXY_OBJECT
  5
3CDC
330
3CDA
100
AcDbProxyObject
 90
      499
 91
      568
 95
       25
 70
     0
 93
     2192
310
5DE0143A0D960E4E0DDA0E32056E0D9C80C405FE3D3C696628657175616C28486F6C653A7461707065642C223022292C22252563222C486F6C653A6E6F6D696E616C2022202220696628657175616C28486F6C653A756E6974732C223122292C2278222C222D222920222022293E3C696628657175616C28486F6C653A7461
310
707065642C223022292C486F6C653A6469612C486F6C653A706974636864657363293E207B5C46414D4744543B787D203C696628657175616C28486F6C653A7465726D696E6174696F6E2C223022292C486F6C653A64657074682C228AD192CA22293E5C507B5C46414D4744543B777D2525633C486F6C653A63746469613E
310
2058203C486F6C653A6374616E676C653E252564
  0
ACAD_PROXY_OBJECT
  5
3CDD
330
3CDA
100
AcDbProxyObject
 90
      499
 91
      568
 95
       25
 70
     0
 93
     1816
310
5DE0143A0D960E4E0DDA0E32056E0D9C80C405CF3D3C696628657175616C28486F6C653A7461707065642C223022292C22252563222C486F6C653A6E6F6D696E616C2022202220696628657175616C28486F6C653A756E6974732C223122292C2278222C222D222920222022293E3C696628657175616C28486F6C653A7461
310
707065642C223022292C486F6C653A6469612C486F6C653A706974636864657363293E5C507B5C46414D4744543B787D203C696628657175616C28486F6C653A7465726D696E6174696F6E2C223022292C486F6C653A64657074682C228AD192CA22293E
  0
ACAD_PROXY_OBJECT
  5
3CDE
330
3CDA
100
AcDbProxyObject
 90
      499
 91
      568
 95
       25
 70
     0
 93
      344
310
5DE0143A0D960E4E0DDA0E32056E0D9C80C805173D3C535444503A444553433E203C535444503A5354443E
  0
ACAD_PROXY_OBJECT
  5
3CDF
330
3CDA
100
AcDbProxyObject
 90
      499
 91
      568
 95
       25
 70
     0
 93
      256
310
5DE0143A0D960E4E0DDA0E32056E0D9C80C4050C3D3C535444503A444553433E
  0
ACAD_PROXY_OBJECT
  5
3900
330
38FC
100
AcDbProxyObject
 90
      499
 91
      568
 95
       25
 70
     0
 93
     1376
310
5DE0143A0D960E4E0DDA0E32056E0D9C80C405983D3C486F6C653A6469613E3C696628657175616C28486F6C653A7465726D696E6174696F6E2C223022292C2220905B82B320222C22208368838A838B22293E3C696628657175616C28486F6C653A7465726D696E6174696F6E2C223022292C486F6C653A64657074682C22
310
22293E2C203C486F6C653A63746469613E2082B482AE82E882CC905B82B3203C486F6C653A637464657074683E
  0
ACAD_PROXY_OBJECT
  5
3901
330
38FC
100
AcDbProxyObject
 90
      499
 91
      568
 95
       25
 70
     0
 93
     2072
310
5DE0143A0D960E4E0DDA0E32056E0D9C80C405EF3D3C486F6C653A6374616E676C653E252564202525633C486F6C653A63746469613E208E4D8C8A2C203C696628657175616C28486F6C653A7461707065642C223022292C22252563222C486F6C653A6E6F6D696E616C202220782022293E3C696628657175616C28486F6C
310
653A7461707065642C223022292C486F6C653A6469612C486F6C653A706974636864657363293E203C696628657175616C28486F6C653A7465726D696E6174696F6E2C223022292C22905B82B320222C222022293E3C696628657175616C28486F6C653A7465726D696E6174696F6E2C223022292C486F6C653A6465707468
310
2C2222293E
  0
ACAD_PROXY_OBJECT
  5
38FF
330
38FC
100
AcDbProxyObject
 90
      499
 91
      568
 95
       25
 70
     0
 93
     1752
310
5DE0143A0D960E4E0DDA0E32056E0D9C80C405C73D3C696628657175616C28486F6C653A7461707065642C223022292C22252563222C486F6C653A6E6F6D696E616C202220782022293E3C696628657175616C28486F6C653A7461707065642C223022292C486F6C653A6469612C486F6C653A706974636864657363293E20
310
3C696628657175616C28486F6C653A7465726D696E6174696F6E2C223022292C22905B82B320222C222022293E3C696628657175616C28486F6C653A7465726D696E6174696F6E2C223022292C486F6C653A64657074682C2222293E
  0
ACAD_PROXY_OBJECT
  5
38FE
330
38FC
100
AcDbProxyObject
 90
      499
 91
      568
 95
       25
 70
     0
 93
      344
310
5DE0143A0D960E4E0DDA0E32056E0D9C80C805173D3C535444503A444553433E203C535444503A5354443E
  0
ACAD_PROXY_OBJECT
  5
38FD
330
38FC
100
AcDbProxyObject
 90
      499
 91
      568
 95
       25
 70
     0
 93
      256
310
5DE0143A0D960E4E0DDA0E32056E0D9C80C4050C3D3C535444503A444553433E
  0
ENDSEC
  0
EOF
