  0
SECTION
  2
HEADER
  9
$ACADVER
  1
AC1015
  9
$ACADMAINTVER
 70
     6
  9
$DWGCODEPAGE
  3
ANSI_932
  9
$INSBASE
 10
0.0
 20
0.0
 30
0.0
  9
$EXTMIN
 10
-69.26144625448802
 20
-78.03358490491354
 30
0.0
  9
$EXTMAX
 10
105.4588124887482
 20
25.52825812621404
 30
0.0
  9
$LIMMIN
 10
0.0
 20
0.0
  9
$LIMMAX
 10
420.0
 20
297.0
  9
$ORTHOMODE
 70
     0
  9
$REGENMODE
 70
     1
  9
$FILLMODE
 70
     1
  9
$QTEXTMODE
 70
     0
  9
$MIRRTEXT
 70
     1
  9
$LTSCALE
 40
1.0
  9
$ATTMODE
 70
     1
  9
$TEXTSIZE
 40
4.0
  9
$TRACEWID
 40
1.0
  9
$TEXTSTYLE
  7
STANDARD
  9
$CLAYER
  8
AM_0
  9
$CELTYPE
  6
ByLayer
  9
$CECOLOR
 62
   256
  9
$CELTSCALE
 40
1.0
  9
$DISPSILH
 70
     0
  9
$DIMSCALE
 40
1.0
  9
$DIMASZ
 40
2.5
  9
$DIMEXO
 40
0.0
  9
$DIMDLI
 40
10.0
  9
$DIMRND
 40
0.0
  9
$DIMDLE
 40
0.0
  9
$DIMEXE
 40
1.0
  9
$DIMTP
 40
0.1
  9
$DIMTM
 40
0.1000000001
  9
$DIMTXT
 40
3.8
  9
$DIMCEN
 40
0.0
  9
$DIMTSZ
 40
0.0
  9
$DIMTOL
 70
     0
  9
$DIMLIM
 70
     0
  9
$DIMTIH
 70
     0
  9
$DIMTOH
 70
     0
  9
$DIMSE1
 70
     0
  9
$DIMSE2
 70
     0
  9
$DIMTAD
 70
     3
  9
$DIMZIN
 70
     1
  9
$DIMBLK
  1
Open30
  9
$DIMASO
 70
     1
  9
$DIMSHO
 70
     1
  9
$DIMPOST
  1

  9
$DIMAPOST
  1
"
  9
$DIMALT
 70
     0
  9
$DIMALTD
 70
     2
  9
$DIMALTF
 40
0.0393701
  9
$DIMLFAC
 40
1.0
  9
$DIMTOFL
 70
     1
  9
$DIMTVP
 40
0.0
  9
$DIMTIX
 70
     0
  9
$DIMSOXD
 70
     0
  9
$DIMSAH
 70
     0
  9
$DIMBLK1
  1

  9
$DIMBLK2
  1

  9
$DIMSTYLE
  2
AM_JIS
  9
$DIMCLRD
 70
   256
  9
$DIMCLRE
 70
   256
  9
$DIMCLRT
 70
     2
  9
$DIMTFAC
 40
0.71
  9
$DIMGAP
 40
1.5
  9
$DIMJUST
 70
     0
  9
$DIMSD1
 70
     0
  9
$DIMSD2
 70
     0
  9
$DIMTOLJ
 70
     0
  9
$DIMTZIN
 70
     8
  9
$DIMALTZ
 70
     0
  9
$DIMALTTZ
 70
     0
  9
$DIMUPT
 70
     0
  9
$DIMDEC
 70
     0
  9
$DIMTDEC
 70
     3
  9
$DIMALTU
 70
     2
  9
$DIMALTTD
 70
     2
  9
$DIMTXSTY
  7
STANDARD
  9
$DIMAUNIT
 70
     1
  9
$DIMADEC
 70
     0
  9
$DIMALTRND
 40
0.0
  9
$DIMAZIN
 70
     2
  9
$DIMDSEP
 70
    46
  9
$DIMATFIT
 70
     3
  9
$DIMFRAC
 70
     0
  9
$DIMLDRBLK
  1
Open30
  9
$DIMLUNIT
 70
     2
  9
$DIMLWD
 70
    -1
  9
$DIMLWE
 70
    -1
  9
$DIMTMOVE
 70
     0
  9
$LUNITS
 70
     2
  9
$LUPREC
 70
     4
  9
$SKETCHINC
 40
1.0
  9
$FILLETRAD
 40
0.4
  9
$AUNITS
 70
     0
  9
$AUPREC
 70
     4
  9
$MENU
  1
.
  9
$ELEVATION
 40
0.0
  9
$PELEVATION
 40
0.0
  9
$THICKNESS
 40
0.0
  9
$LIMCHECK
 70
     0
  9
$CHAMFERA
 40
2.0
  9
$CHAMFERB
 40
2.0
  9
$CHAMFERC
 40
20.0
  9
$CHAMFERD
 40
0.0
  9
$SKPOLY
 70
     0
  9
$TDCREATE
 40
2451943.610431667
  9
$TDUCREATE
 40
2451943.235431667
  9
$TDUPDATE
 40
2455478.578204931
  9
$TDUUPDATE
 40
2455478.203204931
  9
$TDINDWG
 40
1.7500309375
  9
$TDUSRTIMER
 40
1.7500307639
  9
$USRTIMER
 70
     1
  9
$ANGBASE
 50
0.0
  9
$ANGDIR
 70
     0
  9
$PDMODE
 70
     0
  9
$PDSIZE
 40
0.0
  9
$PLINEWID
 40
0.0
  9
$SPLFRAME
 70
     0
  9
$SPLINETYPE
 70
     6
  9
$SPLINESEGS
 70
     8
  9
$HANDSEED
  5
1C48B
  9
$SURFTAB1
 70
     6
  9
$SURFTAB2
 70
     6
  9
$SURFTYPE
 70
     6
  9
$SURFU
 70
     6
  9
$SURFV
 70
     6
  9
$UCSBASE
  2

  9
$UCSNAME
  2

  9
$UCSORG
 10
0.0
 20
0.0
 30
0.0
  9
$UCSXDIR
 10
1.0
 20
0.0
 30
0.0
  9
$UCSYDIR
 10
0.0
 20
1.0
 30
0.0
  9
$UCSORTHOREF
  2

  9
$UCSORTHOVIEW
 70
     0
  9
$UCSORGTOP
 10
0.0
 20
0.0
 30
0.0
  9
$UCSORGBOTTOM
 10
0.0
 20
0.0
 30
0.0
  9
$UCSORGLEFT
 10
0.0
 20
0.0
 30
0.0
  9
$UCSORGRIGHT
 10
0.0
 20
0.0
 30
0.0
  9
$UCSORGFRONT
 10
0.0
 20
0.0
 30
0.0
  9
$UCSORGBACK
 10
0.0
 20
0.0
 30
0.0
  9
$PUCSBASE
  2

  9
$PUCSNAME
  2

  9
$PUCSORG
 10
0.0
 20
0.0
 30
0.0
  9
$PUCSXDIR
 10
1.0
 20
0.0
 30
0.0
  9
$PUCSYDIR
 10
0.0
 20
1.0
 30
0.0
  9
$PUCSORTHOREF
  2

  9
$PUCSORTHOVIEW
 70
     0
  9
$PUCSORGTOP
 10
0.0
 20
0.0
 30
0.0
  9
$PUCSORGBOTTOM
 10
0.0
 20
0.0
 30
0.0
  9
$PUCSORGLEFT
 10
0.0
 20
0.0
 30
0.0
  9
$PUCSORGRIGHT
 10
0.0
 20
0.0
 30
0.0
  9
$PUCSORGFRONT
 10
0.0
 20
0.0
 30
0.0
  9
$PUCSORGBACK
 10
0.0
 20
0.0
 30
0.0
  9
$USERI1
 70
     0
  9
$USERI2
 70
     0
  9
$USERI3
 70
     0
  9
$USERI4
 70
     0
  9
$USERI5
 70
     0
  9
$USERR1
 40
0.0
  9
$USERR2
 40
0.0
  9
$USERR3
 40
0.0
  9
$USERR4
 40
0.0
  9
$USERR5
 40
0.0
  9
$WORLDVIEW
 70
     1
  9
$SHADEDGE
 70
     3
  9
$SHADEDIF
 70
    70
  9
$TILEMODE
 70
     1
  9
$MAXACTVP
 70
    64
  9
$PINSBASE
 10
0.0
 20
0.0
 30
0.0
  9
$PLIMCHECK
 70
     0
  9
$PEXTMIN
 10
1.000000000000000E+20
 20
1.000000000000000E+20
 30
1.000000000000000E+20
  9
$PEXTMAX
 10
-1.000000000000000E+20
 20
-1.000000000000000E+20
 30
-1.000000000000000E+20
  9
$PLIMMIN
 10
0.0
 20
0.0
  9
$PLIMMAX
 10
420.0
 20
297.0
  9
$UNITMODE
 70
     0
  9
$VISRETAIN
 70
     1
  9
$PLINEGEN
 70
     0
  9
$PSLTSCALE
 70
     1
  9
$TREEDEPTH
 70
  3020
  9
$CMLSTYLE
  2
Standard
  9
$CMLJUST
 70
     0
  9
$CMLSCALE
 40
20.0
  9
$PROXYGRAPHICS
 70
     1
  9
$MEASUREMENT
 70
     1
  9
$CELWEIGHT
370
    -1
  9
$ENDCAPS
280
     0
  9
$JOINSTYLE
280
     0
  9
$LWDISPLAY
290
     0
  9
$INSUNITS
 70
     4
  9
$HYPERLINKBASE
  1

  9
$STYLESHEET
  1
sei_cad.ctb
  9
$XEDIT
290
     1
  9
$CEPSNTYPE
380
     0
  9
$PSTYLEMODE
290
     1
  9
$FINGERPRINTGUID
  2
{C77AB3BE-9CA2-11D3-BAF3-006094EB760E}
  9
$VERSIONGUID
  2
{F2B73B8C-8442-4002-89BD-B3DB0E31DE5B}
  9
$EXTNAMES
290
     1
  9
$PSVPSCALE
 40
0.0
  9
$OLESTARTUP
290
     0
  0
ENDSEC
  0
SECTION
  2
CLASSES
  0
CLASS
  1
ACDBDICTIONARYWDFLT
  2
AcDbDictionaryWithDefault
  3
ObjectDBX Classes
 90
        0
280
     0
281
     0
  0
CLASS
  1
ACDBPLACEHOLDER
  2
AcDbPlaceHolder
  3
ObjectDBX Classes
 90
        0
280
     0
281
     0
  0
CLASS
  1
LAYOUT
  2
AcDbLayout
  3
ObjectDBX Classes
 90
        0
280
     0
281
     0
  0
CLASS
  1
ACME_DOCUMENT
  2
AcMeDbDoc
  3
AcMeServices
 90
        0
280
     1
281
     0
  0
CLASS
  1
ACMESCOPE
  2
AcMeScope
  3
AcMeServices
 90
        0
280
     1
281
     0
  0
CLASS
  1
ACMECOMMANDHISTORY
  2
AcMeCommandHistory
  3
AcMeServices
 90
        0
280
     1
281
     0
  0
CLASS
  1
DICTIONARYVAR
  2
AcDbDictionaryVar
  3
ObjectDBX Classes
 90
        0
280
     0
281
     0
  0
CLASS
  1
ACIMSYSVARMAN
  2
AcImSysVarManager
  3
AcMeServices
 90
        0
280
     1
281
     0
  0
CLASS
  1
ACIMREALSYSVAR
  2
AcImRealSysVar
  3
AcMeServices
 90
        0
280
     1
281
     0
  0
CLASS
  1
ACIMINTSYSVAR
  2
AcImIntSysVar
  3
AcMeServices
 90
        0
280
     1
281
     0
  0
CLASS
  1
ACMEDRAWINGMAN
  2
AcMeDrawingMan
  3
AcMeServices
 90
        0
280
     1
281
     0
  0
CLASS
  1
ACMEVIEW
  2
AcMeView
  3
AcMeServices
 90
        0
280
     1
281
     0
  0
CLASS
  1
ACDBENTITYCACHE
  2
AcMeEntityCache
  3
AcMeServices
 90
        0
280
     1
281
     0
  0
CLASS
  1
GSMANAGER
  2
AcMeGSManager
  3
AcMeServices
 90
        0
280
     1
281
     0
  0
CLASS
  1
AMDTINTERNALREACTOR
  2
AmdtInternalReactor
  3
AcMeServices
 90
        0
280
     1
281
     0
  0
CLASS
  1
ACMESTATEMGR
  2
AcMeStateMgr
  3
AcMeServices
 90
        0
280
     1
281
     0
  0
CLASS
  1
ACME_DATABASE
  2
AcMeDbDatabase
  3
AcMeServices
 90
        0
280
     1
281
     0
  0
CLASS
  1
ACRFINSADJUSTERMGR
  2
AcRfInsAdjusterMgr
  3
AcMeServices
 90
        0
280
     1
281
     0
  0
CLASS
  1
AMGSETTINGSOBJ
  2
AmgSettingsObj
  3
"AcadM|Product Description: AutoCAD Mechanical 2000|Company: Autodesk"
 90
        0
280
     1
281
     0
  0
CLASS
  1
AMGOBJPROPCFG
  2
AmgObjPropCfg
  3
"AmgLay|Product Description: AutoCAD Mechanical 2000|Company: Autodesk"
 90
        1
280
     1
281
     0
  0
CLASS
  1
ACMDATADICTIONARY
  2
AcmDataDictionary
  3
"AcmSymBB|Product Description: AutoCAD Mechanical 2004 DX|Company: Autodesk"
 90
        0
280
     1
281
     0
  0
CLASS
  1
ACMDATAENTRYBLOCK
  2
AcmDataEntryBlock
  3
"AcmSymBB|Product Description: AutoCAD Mechanical 2004 DX|Company: Autodesk"
 90
        0
280
     1
281
     0
  0
CLASS
  1
ACIMSTRSYSVAR
  2
AcImStrSysVar
  3
AcMeServices
 90
        0
280
     1
281
     0
  0
CLASS
  1
ACAMGFILTERDAT
  2
AcAmgFilterDat
  3
"AcadM|Product Description: AutoCAD Mechanical 2000|Company: Autodesk"
 90
        0
280
     1
281
     0
  0
CLASS
  1
LAYER_INDEX
  2
AcDbLayerIndex
  3
ObjectDBX Classes
 90
        0
280
     0
281
     0
  0
CLASS
  1
IDBUFFER
  2
AcDbIdBuffer
  3
ObjectDBX Classes
 90
        0
280
     0
281
     0
  0
CLASS
  1
ACMSTANDARDJIS
  2
AcmStandardJIS
  3
"Amdt_StdImp|Product Description: AutoCAD Mechanical 2004 DX|Company: Autodesk"
 90
        0
280
     1
281
     0
  0
CLASS
  1
ACMSURFSTANDARDJIS
  2
AcmSurfTextStdJIS
  3
"Amdt_StdImp|Product Description: AutoCAD Mechanical 2004 DX|Company: Autodesk"
 90
        0
280
     1
281
     0
  0
CLASS
  1
ACMFCFSTANDARDJIS
  2
AcmFCFStdJIS
  3
"Amdt_StdImp|Product Description: AutoCAD Mechanical 2004 DX|Company: Autodesk"
 90
        0
280
     1
281
     0
  0
CLASS
  1
ACMWELDSTANDARDJIS
  2
AcmWeldingStdJIS
  3
"Amdt_StdImp|Product Description: AutoCAD Mechanical 2004 DX|Company: Autodesk"
 90
        0
280
     1
281
     0
  0
CLASS
  1
ACMIDSTANDARDJIS
  2
AcmIdStdJIS
  3
"Amdt_StdImp|Product Description: AutoCAD Mechanical 2004 DX|Company: Autodesk"
 90
        0
280
     1
281
     0
  0
CLASS
  1
ACMDATUMSTANDARDJIS
  2
AcmDatumStdJIS
  3
"Amdt_StdImp|Product Description: AutoCAD Mechanical 2004 DX|Company: Autodesk"
 90
        0
280
     1
281
     0
  0
CLASS
  1
ACMBOMSTANDARDJIS
  2
AcmBOMStdJIS
  3
"Amdt_StdImp|Product Description: AutoCAD Mechanical 2004 DX|Company: Autodesk"
 90
        0
280
     1
281
     0
  0
CLASS
  1
AMDTNOTE
  2
AmdtNote
  3
"AcmSymBB|Product Description: AutoCAD Mechanical 2004 DX|Company: Autodesk"
 90
     1023
280
     1
281
     1
  0
CLASS
  1
TABLESTYLE
  2
AcDbTableStyle
  3
ObjectDBX Classes
 90
     2047
280
     0
281
     0
  0
CLASS
  1
ACGREFMASTER
  2
AcGrefMaster
  3
AcAttribServices
 90
        0
280
     1
281
     0
  0
CLASS
  1
AM_DRAWING_MGR
  2
AcDmDwgMgr
  3
AcMechDwgViewMgmt
 90
        0
280
     1
281
     0
  0
CLASS
  1
AM_DWG_DOCUMENT
  2
AcDmDwgDocument
  3
AcMechDwgViewMgmt
 90
        0
280
     1
281
     0
  0
CLASS
  1
AM_DWG_SHEET
  2
AcDmSheet
  3
AcMechDwgViewMgmt
 90
        0
280
     1
281
     0
  0
CLASS
  1
AM_VIEWDIMPARMAP
  2
AcDmViewDimParMap
  3
AcMechDwgViewMgmt
 90
        0
280
     1
281
     0
  0
CLASS
  1
AM_DWGMGR_NAME
  2
AcDmDwgMgrName
  3
AcMechDwgViewMgmt
 90
        0
280
     1
281
     0
  0
CLASS
  1
ACGREFACADMASTER
  2
AcGrefacadMaster
  3
AcGrefServices
 90
        0
280
     1
281
     0
  0
CLASS
  1
AMDTMENUSTATEMGR
  2
AmdtMenuStateMgr
  3
McadcomServices
 90
        0
280
     1
281
     0
  0
CLASS
  1
AMDTMCOMMENUSTATE
  2
AmdtMcomMenuState
  3
McadcomServices
 90
        0
280
     1
281
     0
  0
CLASS
  1
AMIMASTER
  2
AmiMaster
  3
AmiServices
 90
        0
280
     1
281
     0
  0
CLASS
  1
MAPIAMMOUDLE
  2
MApiAmModule
  3
MApiAmServices
 90
        0
280
     1
281
     0
  0
CLASS
  1
AMDTADMENUSTATE
  2
AmdtAdMenuState
  3
DesignerServices
 90
        0
280
     1
281
     0
  0
CLASS
  1
ADAPPL
  2
AcAdAppl
  3
DesignerServices
 90
        0
280
     1
281
     0
  0
CLASS
  1
DEPMGR
  2
AcAdDepMgr
  3
DesignerServices
 90
        0
280
     1
281
     0
  0
CLASS
  1
PARAMMGR
  2
AcAdParamMgr
  3
DesignerServices
 90
        0
280
     1
281
     0
  0
CLASS
  1
PARAMSCOPE
  2
AcAdParamScope
  3
DesignerServices
 90
        0
280
     1
281
     0
  0
CLASS
  1
NAMEDAPPL
  2
AcAdNamedAppl
  3
DesignerServices
 90
        0
280
     1
281
     0
  0
CLASS
  1
AMDTDMMENUSTATE
  2
AmdtDmMenuState
  3
AcMechDwgViewMgmt
 90
        0
280
     1
281
     0
  0
CLASS
  1
AMDTAMMENUSTATE
  2
AmdtAmMenuState
  3
DesignerAssemblies
 90
        0
280
     1
281
     0
  0
CLASS
  1
ACAMPROJECT
  2
AcAmProject
  3
DesignerAssemblies
 90
        0
280
     1
281
     0
  0
CLASS
  1
ACAMGRCOMPDEF
  2
AcAmGrCompDef
  3
DesignerAssemblies
 90
        0
280
     1
281
     0
  0
CLASS
  1
ACCMCONTEXT
  2
AcCmContext
  3
DesignerAssemblies
 90
        0
280
     1
281
     0
  0
CLASS
  1
ACAMCOMPDEF
  2
AcAmCompDef
  3
DesignerAssemblies
 90
        0
280
     1
281
     0
  0
CLASS
  1
ACAMCOMPDEFMGR
  2
AcAmCompDefMgr
  3
DesignerAssemblies
 90
        0
280
     1
281
     0
  0
CLASS
  1
AMCONTEXTMGR
  2
AcAmContextMgr
  3
DesignerAssemblies
 90
        0
280
     1
281
     0
  0
CLASS
  1
ACAMCONTEXTMODELER
  2
AcAmContextModeler
  3
DesignerAssemblies
 90
        0
280
     1
281
     0
  0
CLASS
  1
ACAMGTITLESTD
  2
AcAmgTitleStd
  3
"TITLEAPP"
 90
        0
280
     1
281
     0
  0
CLASS
  1
ACMDETAILSTANDARDJIS
  2
AmdtDetailSymStdJIS
  3
"Amdt_StdImp|Product Description: AutoCAD Mechanical 2004 DX|Company: Autodesk"
 90
        0
280
     1
281
     0
  0
CLASS
  1
ACMSECTIONSTANDARDJIS
  2
AmdtSectionSymStdJIS
  3
"Amdt_StdImp|Product Description: AutoCAD Mechanical 2004 DX|Company: Autodesk"
 90
        0
280
     1
281
     0
  0
CLASS
  1
ACMCENTERLINESTANDARDJIS
  2
AmdtCenterLineStdJIS
  3
"Amdt_StdImp|Product Description: AutoCAD Mechanical 2004 DX|Company: Autodesk"
 90
        0
280
     1
281
     0
  0
CLASS
  1
ACMTHREADLINESTANDARDJIS
  2
AmdtThreadLineStdJIS
  3
"Amdt_StdImp|Product Description: AutoCAD Mechanical 2004 DX|Company: Autodesk"
 90
        0
280
     1
281
     0
  0
CLASS
  1
ACMNOTESTANDARDJIS
  2
AmdtNoteStdJIS
  3
"Amdt_StdImp|Product Description: AutoCAD Mechanical 2004 DX|Company: Autodesk"
 90
        0
280
     1
281
     0
  0
CLASS
  1
AMDTNOTETEMPLATEDB
  2
AmdtNoteTemplateDB
  3
AMDT_STDIMP_MODULE_NAME
 90
        0
280
     1
281
     0
  0
CLASS
  1
ACAMGLAYSTD
  2
AcAmgLayStd
  3
"AcAmgLayStd|Product Description: AutoCAD Mechanical 2000|Company: Autodesk"
 90
        0
280
     1
281
     0
  0
CLASS
  1
ACAMGDIMSTD
  2
AcAmgDimStd
  3
"AcAmgDimStd|Product Description: AutoCAD Mechanical 2000|Company: Autodesk"
 90
        0
280
     1
281
     0
  0
CLASS
  1
ACAMGHOLECHARTSTDJIS
  2
AcAmgHoleChartStdJIS
  3
ACMSYMBB_MODULE_NAME
 90
        0
280
     1
281
     0
  0
CLASS
  1
CATALOGSTATE
  2
AcAmCatalogState
  3
DesignerAssemblies
 90
        0
280
     1
281
     0
  0
CLASS
  1
ACAMGRCOMPDEFSET
  2
AcAmGrCompDefSet
  3
DesignerAssemblies
 90
        0
280
     1
281
     0
  0
CLASS
  1
AMDTBROWSERDBTAB
  2
AmdtBrowserDbTab
  3
McadcomServices
 90
        0
280
     1
281
     0
  0
CLASS
  1
CBROWSERAPPOBJECT
  2
CBrowserAppObject
  3
McadcomServices
 90
        0
280
     1
281
     0
  0
CLASS
  1
DM_PLACEHOLDER
  2
AcDmSelsetPlaceholder
  3
AcMechDwgViewMgmt
 90
        0
280
     1
281
     0
  0
CLASS
  1
SORTENTSTABLE
  2
AcDbSortentsTable
  3
ObjectDBX Classes
 90
        0
280
     0
281
     0
  0
ENDSEC
  0
SECTION
  2
TABLES
  0
TABLE
  2
VPORT
  5
8
330
0
100
AcDbSymbolTable
 70
     3
  0
VPORT
  5
1C483
330
8
100
AcDbSymbolTableRecord
100
AcDbViewportTableRecord
  2
*Active
 70
     0
 10
0.0
 20
0.0
 11
1.0
 21
1.0
 12
54.59433045727302
 22
-26.24853466817706
 13
0.0
 23
0.0
 14
2.5
 24
2.5
 15
10.0
 25
10.0
 16
0.0
 26
0.0
 36
1.0
 17
0.0
 27
0.0
 37
0.0
 40
128.0166781810015
 41
1.943262411347518
 42
50.0
 43
0.0
 44
0.0
 50
0.0
 51
0.0
 71
    16
 72
  2000
 73
     1
 74
     3
 75
     0
 76
     0
 77
     0
 78
     0
281
     0
 65
     1
110
0.0
120
0.0
130
0.0
111
1.0
121
0.0
131
0.0
112
0.0
122
1.0
132
0.0
 79
     0
146
0.0
  0
ENDTAB
  0
TABLE
  2
LTYPE
  5
5
330
0
100
AcDbSymbolTable
 70
    13
  0
LTYPE
  5
14
330
5
100
AcDbSymbolTableRecord
100
AcDbLinetypeTableRecord
  2
ByBlock
 70
     0
  3

 72
    65
 73
     0
 40
0.0
  0
LTYPE
  5
15
330
5
100
AcDbSymbolTableRecord
100
AcDbLinetypeTableRecord
  2
ByLayer
 70
     0
  3

 72
    65
 73
     0
 40
0.0
  0
LTYPE
  5
16
330
5
100
AcDbSymbolTableRecord
100
AcDbLinetypeTableRecord
  2
Continuous
 70
     0
  3
Solid line
 72
    65
 73
     0
 40
0.0
  0
LTYPE
  5
43
330
5
100
AcDbSymbolTableRecord
100
AcDbLinetypeTableRecord
  2
AM_ISO02W050
 70
     0
  3
__ __ __ __ __ __ __ __ __ __ __ __ __ __ __
 72
    65
 73
     2
 40
7.5
 49
6.0
 74
     0
 49
-1.5
 74
     0
  0
LTYPE
  5
44
330
5
100
AcDbSymbolTableRecord
100
AcDbLinetypeTableRecord
  2
AM_ISO08W050
 70
     0
  3
____ . ____ . ____ . ____ . ____ . ____ . ____
 72
    65
 73
     4
 40
18.0
 49
12.0
 74
     0
 49
-1.5
 74
     0
 49
3.0
 74
     0
 49
-1.5
 74
     0
  0
LTYPE
  5
45
330
5
100
AcDbSymbolTableRecord
100
AcDbLinetypeTableRecord
  2
AM_ISO09W050
 70
     0
  3
_____ . . _____ . . _____ . . ____ .. ____
 72
    65
 73
     6
 40
22.5
 49
12.0
 74
     0
 49
-1.5
 74
     0
 49
3.0
 74
     0
 49
-1.5
 74
     0
 49
3.0
 74
     0
 49
-1.5
 74
     0
  0
LTYPE
  5
46
330
5
100
AcDbSymbolTableRecord
100
AcDbLinetypeTableRecord
  2
Amconstr
 70
     0
  3
_______________________
 72
    65
 73
     2
 40
9999.0
 49
9999.0
 74
     0
 49
0.0
 74
     0
  0
LTYPE
  5
47
330
5
100
AcDbSymbolTableRecord
100
AcDbLinetypeTableRecord
  2
AM_ISO02W050x2
 70
     0
  3
 _ _ _ _ _ _ _ _ _ _ _ _
 72
    65
 73
     2
 40
3.75
 49
3.0
 74
     0
 49
-0.75
 74
     0
  0
LTYPE
  5
48
330
5
100
AcDbSymbolTableRecord
100
AcDbLinetypeTableRecord
  2
AM_ISO08W050x2
 70
     0
  3
__ . __ . __ . __ . __ . __
 72
    65
 73
     4
 40
9.0
 49
6.0
 74
     0
 49
-0.75
 74
     0
 49
1.5
 74
     0
 49
-0.75
 74
     0
  0
LTYPE
  5
4B
330
5
100
AcDbSymbolTableRecord
100
AcDbLinetypeTableRecord
  2
Amzigzag
 70
     0
  3
/\/-/\/-/\/-/\/-/\/-/\/
 72
    65
 73
     2
 40
11.0001
 49
0.0001
 74
     4
 75
   135
340
4A
 46
0.04
 50
0.0
 44
0.0
 45
0.0
 49
-11.0
 74
     0
  0
LTYPE
  5
188
330
5
100
AcDbSymbolTableRecord
100
AcDbLinetypeTableRecord
  2
ACJISTGB
 70
     0
  3
__ . . __ . .
 72
    65
 73
     6
 40
9.0
 49
4.0
 74
     0
 49
-1.0
 74
     0
 49
1.0
 74
     0
 49
-1.0
 74
     0
 49
1.0
 74
     0
 49
-1.0
 74
     0
  0
LTYPE
  5
189
330
5
100
AcDbSymbolTableRecord
100
AcDbLinetypeTableRecord
  2
ACJISTGL
 70
     0
  3
_ _ _ _ _
 72
    65
 73
     2
 40
3.0
 49
2.0
 74
     0
 49
-1.0
 74
     0
  0
LTYPE
  5
652
330
5
100
AcDbSymbolTableRecord
100
AcDbLinetypeTableRecord
  2
CENTER
 70
     0
  3
____ _ ____ _ ____ _ ____ _ ____ _ ____ _ ____
 72
    65
 73
     4
 40
17.5
 49
13.0
 74
     0
 49
-1.5
 74
     0
 49
1.5
 74
     0
 49
-1.5
 74
     0
  0
LTYPE
  5
12AB
330
5
100
AcDbSymbolTableRecord
100
AcDbLinetypeTableRecord
  2
HIDDEN
 70
     0
  3
Hidden __ __ __ __ __ __ __ __ __ __ __ __ __ _
 72
    65
 73
     2
 40
0.375
 49
0.25
 74
     0
 49
-0.125
 74
     0
  0
LTYPE
  5
12AC
330
5
100
AcDbSymbolTableRecord
100
AcDbLinetypeTableRecord
  2
PHANTOM2
 70
     0
  3
Phantom (.5x) ___ _ _ ___ _ _ ___ _ _ ___ _ _
 72
    65
 73
     6
 40
1.25
 49
0.625
 74
     0
 49
-0.125
 74
     0
 49
0.125
 74
     0
 49
-0.125
 74
     0
 49
0.125
 74
     0
 49
-0.125
 74
     0
  0
ENDTAB
  0
TABLE
  2
LAYER
  5
2
330
0
100
AcDbSymbolTable
 70
     7
  0
LAYER
  5
10
330
2
100
AcDbSymbolTableRecord
100
AcDbLayerTableRecord
  2
0
 70
     0
 62
     7
  6
Continuous
370
    -3
390
F
  0
LAYER
  5
7D
330
2
100
AcDbSymbolTableRecord
100
AcDbLayerTableRecord
  2
AM_5
 70
     0
 62
     3
  6
Continuous
370
    13
390
F
  0
LAYER
  5
7F
330
2
100
AcDbSymbolTableRecord
100
AcDbLayerTableRecord
  2
Defpoints
 70
     0
 62
     7
  6
Continuous
290
     0
370
    -3
390
F
  0
LAYER
  5
12B1
330
2
100
AcDbSymbolTableRecord
100
AcDbLayerTableRecord
  2
AM_0
 70
     0
 62
     7
  6
Continuous
370
    30
390
F
  0
LAYER
  5
1AFF
330
2
100
AcDbSymbolTableRecord
100
AcDbLayerTableRecord
  2
AM_7
 70
     0
 62
     4
  6
AM_ISO08W050
370
    13
390
F
  0
LAYER
  5
361D
330
2
100
AcDbSymbolTableRecord
100
AcDbLayerTableRecord
  2
AM_11
 70
     0
 62
     3
  6
AM_ISO09W050
370
    13
390
F
  0
ENDTAB
  0
TABLE
  2
STYLE
  5
3
330
0
100
AcDbSymbolTable
 70
     4
  0
STYLE
  5
11
330
3
100
AcDbSymbolTableRecord
100
AcDbTextStyleTableRecord
  2
STANDARD
 70
     0
 40
0.0
 41
1.0
 50
0.0
 71
     0
 42
4.0
  3
ISOCP.SHX
  4
EXTFONT.SHX
  0
STYLE
  5
4A
330
3
100
AcDbSymbolTableRecord
100
AcDbTextStyleTableRecord
  2

 70
     1
 40
0.0
 41
1.0
 50
0.0
 71
     0
 42
2.5
  3
ltypeshp.shx
  4

  0
STYLE
  5
180
330
3
100
AcDbSymbolTableRecord
100
AcDbTextStyleTableRecord
  2
ACJISTS
 70
     0
 40
1.0
 41
1.0
 50
0.0
 71
     0
 42
2.5
  3
isocp.shx
  4
bigfont.shx
  0
STYLE
  5
187
330
3
100
AcDbSymbolTableRecord
100
AcDbTextStyleTableRecord
  2
ACJISGDT
 70
     0
 40
0.0
 41
1.0
 50
0.0
 71
     0
 42
2.5
  3
amgdt.shx
  4

  0
ENDTAB
  0
TABLE
  2
VIEW
  5
6
330
0
100
AcDbSymbolTable
 70
     6
  0
VIEW
  5
A30
330
6
100
AcDbSymbolTableRecord
100
AcDbViewTableRecord
  2
AM_VIEW1
 70
     0
 40
148.5
 10
108.6929657794677
 20
222.75
 41
217.3859315589354
 11
0.0
 21
0.0
 31
1.0
 12
0.0
 22
0.0
 32
0.0
 42
50.0
 43
0.0
 44
0.0
 50
0.0
 71
    16
281
     0
 72
     0
  0
VIEW
  5
A31
330
6
100
AcDbSymbolTableRecord
100
AcDbViewTableRecord
  2
AM_VIEW2
 70
     0
 40
148.5
 10
311.3070342205323
 20
222.75
 41
217.3859315589354
 11
0.0
 21
0.0
 31
1.0
 12
0.0
 22
0.0
 32
0.0
 42
50.0
 43
0.0
 44
0.0
 50
0.0
 71
    16
281
     0
 72
     0
  0
VIEW
  5
A32
330
6
100
AcDbSymbolTableRecord
100
AcDbViewTableRecord
  2
AM_VIEW3
 70
     0
 40
148.5
 10
108.6929657794677
 20
74.25
 41
217.3859315589354
 11
0.0
 21
0.0
 31
1.0
 12
0.0
 22
0.0
 32
0.0
 42
50.0
 43
0.0
 44
0.0
 50
0.0
 71
    16
281
     0
 72
     0
  0
VIEW
  5
A33
330
6
100
AcDbSymbolTableRecord
100
AcDbViewTableRecord
  2
AM_VIEW4
 70
     0
 40
148.5
 10
311.3070342205323
 20
74.25
 41
217.3859315589354
 11
0.0
 21
0.0
 31
1.0
 12
0.0
 22
0.0
 32
0.0
 42
50.0
 43
0.0
 44
0.0
 50
0.0
 71
    16
281
     0
 72
     0
  0
VIEW
  5
A34
330
6
100
AcDbSymbolTableRecord
100
AcDbViewTableRecord
  2
AM_VIEW5
 70
     0
 40
148.5
 10
210.0
 20
148.5
 41
217.3859315589353
 11
0.0
 21
0.0
 31
1.0
 12
0.0
 22
0.0
 32
0.0
 42
50.0
 43
0.0
 44
0.0
 50
0.0
 71
    16
281
     0
 72
     0
  0
VIEW
  5
A35
330
6
100
AcDbSymbolTableRecord
100
AcDbViewTableRecord
  2
AM_VIEW6
 70
     0
 40
296.99703
 10
210.0
 20
148.5
 41
434.7675153992395
 11
0.0
 21
0.0
 31
1.0
 12
0.0
 22
0.0
 32
0.0
 42
50.0
 43
0.0
 44
0.0
 50
0.0
 71
    16
281
     0
 72
     0
  0
ENDTAB
  0
TABLE
  2
UCS
  5
7
330
0
100
AcDbSymbolTable
 70
     0
  0
ENDTAB
  0
TABLE
  2
APPID
  5
9
330
0
100
AcDbSymbolTable
 70
    42
  0
APPID
  5
12
330
9
100
AcDbSymbolTableRecord
100
AcDbRegAppTableRecord
  2
ACAD
 70
     0
  0
APPID
  5
2C
330
9
100
AcDbSymbolTableRecord
100
AcDbRegAppTableRecord
  2
MCAD_NO_VIS
 70
     0
  0
APPID
  5
2D
330
9
100
AcDbSymbolTableRecord
100
AcDbRegAppTableRecord
  2
ACAD_TEMP_GRAPHIC
 70
     0
  0
APPID
  5
B9
330
9
100
AcDbSymbolTableRecord
100
AcDbRegAppTableRecord
  2
GENIUS_GENDTOL_13
 70
     0
  0
APPID
  5
359
330
9
100
AcDbSymbolTableRecord
100
AcDbRegAppTableRecord
  2
GENIUS_GENREC_14
 70
     0
  0
APPID
  5
35A
330
9
100
AcDbSymbolTableRecord
100
AcDbRegAppTableRecord
  2
GENIUS_GENODEF_13
 70
     0
  0
APPID
  5
35B
330
9
100
AcDbSymbolTableRecord
100
AcDbRegAppTableRecord
  2
GENIUS_GENOBJ-N-REC_13
 70
     0
  0
APPID
  5
667
330
9
100
AcDbSymbolTableRecord
100
AcDbRegAppTableRecord
  2
GENIUS_GENCFG_13
 70
     0
  0
APPID
  5
668
330
9
100
AcDbSymbolTableRecord
100
AcDbRegAppTableRecord
  2
GENIUS_GENCFG0_13
 70
     0
  0
APPID
  5
669
330
9
100
AcDbSymbolTableRecord
100
AcDbRegAppTableRecord
  2
GENIUS_GENCFG1_13
 70
     0
  0
APPID
  5
66A
330
9
100
AcDbSymbolTableRecord
100
AcDbRegAppTableRecord
  2
GENIUS_GENCFG2_13
 70
     0
  0
APPID
  5
66B
330
9
100
AcDbSymbolTableRecord
100
AcDbRegAppTableRecord
  2
GENIUS_GENCFG3_13
 70
     0
  0
APPID
  5
66C
330
9
100
AcDbSymbolTableRecord
100
AcDbRegAppTableRecord
  2
GENIUS_GENCFG4_13
 70
     0
  0
APPID
  5
A76
330
9
100
AcDbSymbolTableRecord
100
AcDbRegAppTableRecord
  2
GENIUS_GENBLLY_14
 70
     0
  0
APPID
  5
A77
330
9
100
AcDbSymbolTableRecord
100
AcDbRegAppTableRecord
  2
GENIUS_GENOBJ-N-CEN_13
 70
     0
  0
APPID
  5
A83
330
9
100
AcDbSymbolTableRecord
100
AcDbRegAppTableRecord
  2
GENIUS_GENTRA_14
 70
     0
  0
APPID
  5
A8D
330
9
100
AcDbSymbolTableRecord
100
AcDbRegAppTableRecord
  2
GENIUS_GENOBJ-N-TIT_13
 70
     0
  0
APPID
  5
A8E
330
9
100
AcDbSymbolTableRecord
100
AcDbRegAppTableRecord
  2
GENIUS_GENTITLE_13
 70
     0
  0
APPID
  5
A8F
330
9
100
AcDbSymbolTableRecord
100
AcDbRegAppTableRecord
  2
GENIUS_GENOENT_13
 70
     0
  0
APPID
  5
A90
330
9
100
AcDbSymbolTableRecord
100
AcDbRegAppTableRecord
  2
GENIUS_GENOREF_13
 70
     0
  0
APPID
  5
A91
330
9
100
AcDbSymbolTableRecord
100
AcDbRegAppTableRecord
  2
GENIUS_GENOLIS_13
 70
     0
  0
APPID
  5
A92
330
9
100
AcDbSymbolTableRecord
100
AcDbRegAppTableRecord
  2
GENIUS_GENZVEED_13
 70
     0
  0
APPID
  5
A93
330
9
100
AcDbSymbolTableRecord
100
AcDbRegAppTableRecord
  2
GENIUS_GENSCREG_15
 70
     0
  0
APPID
  5
A94
330
9
100
AcDbSymbolTableRecord
100
AcDbRegAppTableRecord
  2
GENIUS_GENOBJ-N-SDF_13
 70
     0
  0
APPID
  5
12B5
330
9
100
AcDbSymbolTableRecord
100
AcDbRegAppTableRecord
  2
GENIUS_GENOBJ-N-RSBK_13
 70
     0
  0
APPID
  5
12B6
330
9
100
AcDbSymbolTableRecord
100
AcDbRegAppTableRecord
  2
GENIUS_GENOBJ-N-LIB_13
 70
     0
  0
APPID
  5
12B7
330
9
100
AcDbSymbolTableRecord
100
AcDbRegAppTableRecord
  2
GENIUS_GENSCALE_13
 70
     0
  0
APPID
  5
12B8
330
9
100
AcDbSymbolTableRecord
100
AcDbRegAppTableRecord
  2
GENIUS_GENOBJ-N-HTC_13
 70
     0
  0
APPID
  5
12B9
330
9
100
AcDbSymbolTableRecord
100
AcDbRegAppTableRecord
  2
GENIUS_GENHATCH_13
 70
     0
  0
APPID
  5
1687
330
9
100
AcDbSymbolTableRecord
100
AcDbRegAppTableRecord
  2
BASE_TYPE
 70
     0
  0
APPID
  5
1ABF
330
9
100
AcDbSymbolTableRecord
100
AcDbRegAppTableRecord
  2
GENIUS_GENFIL_13
 70
     0
  0
APPID
  5
1AC0
330
9
100
AcDbSymbolTableRecord
100
AcDbRegAppTableRecord
  2
GENIUS_GENOBJ-N-CHA_13
 70
     0
  0
APPID
  5
1AE7
330
9
100
AcDbSymbolTableRecord
100
AcDbRegAppTableRecord
  2
GENIUS_GENOBJ-N-FIL_13
 70
     0
  0
APPID
  5
20E9
330
9
100
AcDbSymbolTableRecord
100
AcDbRegAppTableRecord
  2
GENIUS_GENDIMSH_14
 70
     0
  0
APPID
  5
19B04
330
9
100
AcDbSymbolTableRecord
100
AcDbRegAppTableRecord
  2
GENIUS_GENOBJ-N-CRS_13
 70
     0
  0
APPID
  5
1BAE6
330
9
100
AcDbSymbolTableRecord
100
AcDbRegAppTableRecord
  2
AD_DRAW
 70
     0
  0
APPID
  5
1BAE9
330
9
100
AcDbSymbolTableRecord
100
AcDbRegAppTableRecord
  2
ACATTRIBSERVICES
 70
     0
  0
APPID
  5
1BB07
330
9
100
AcDbSymbolTableRecord
100
AcDbRegAppTableRecord
  2
DESIGNERASSEMBLIES
 70
     0
  0
APPID
  5
1BB1A
330
9
100
AcDbSymbolTableRecord
100
AcDbRegAppTableRecord
  2
ACADM_DIM_EDIT
 70
     0
  0
APPID
  5
1BB1B
330
9
100
AcDbSymbolTableRecord
100
AcDbRegAppTableRecord
  2
AMDT_DM_ADJ
 70
     0
  0
APPID
  5
1BCBC
330
9
100
AcDbSymbolTableRecord
100
AcDbRegAppTableRecord
  2
ACAD_DSTYLE_DIMTEXT_FILL
 70
     0
  0
APPID
  5
1BCBD
330
9
100
AcDbSymbolTableRecord
100
AcDbRegAppTableRecord
  2
ACAD_PSEXT
 70
     0
  0
ENDTAB
  0
TABLE
  2
DIMSTYLE
  5
A
330
0
100
AcDbSymbolTable
 70
    10
100
AcDbDimStyleTable
  0
DIMSTYLE
105
58
330
A
100
AcDbSymbolTableRecord
100
AcDbDimStyleTableRecord
  2
AM_JIS
 70
     0
  4
"
 41
2.5
 42
0.0
 43
10.0
 44
1.0
 47
0.1
 48
0.1000000001
 73
     0
 74
     0
 77
     3
 78
     1
 79
     2
140
3.8
141
0.0
143
0.0393701
146
0.71
147
1.5
172
     1
176
   256
177
   256
178
     2
179
     2
271
     3
272
     3
275
     1
283
     0
284
     8
340
11
341
59
342
59
371
    -1
372
    -1
  0
DIMSTYLE
105
5F
102
{ACAD_REACTORS
330
1A394
330
1A8CF
102
}
330
A
100
AcDbSymbolTableRecord
100
AcDbDimStyleTableRecord
  2
AM_JIS$3
 70
     0
  4
"
 41
2.5
 42
0.0
 43
10.0
 44
1.0
 47
0.1
 48
0.1000000001
 73
     0
 77
     3
 78
     1
 79
     2
140
3.8
141
0.0
143
0.0393701
146
0.71
147
1.5
172
     1
176
   256
177
   256
178
     2
179
     2
271
     3
272
     3
275
     1
283
     0
284
     8
288
     1
289
     0
340
11
341
59
342
59
371
    -1
372
    -1
  0
DIMSTYLE
105
60
330
A
100
AcDbSymbolTableRecord
100
AcDbDimStyleTableRecord
  2
AM_JIS$4
 70
     0
  4
"
 41
2.5
 42
0.0
 43
10.0
 44
1.0
 47
0.1
 48
0.1000000001
 73
     0
 77
     3
 78
     1
 79
     2
140
3.8
141
0.0
143
0.0393701
146
0.71
147
1.5
172
     1
176
   256
177
   256
178
     2
179
     2
271
     3
272
     3
275
     1
283
     0
284
     8
288
     1
289
     0
340
11
341
59
342
59
371
    -1
372
    -1
  0
DIMSTYLE
105
61
330
A
100
AcDbSymbolTableRecord
100
AcDbDimStyleTableRecord
  2
AM_JIS$6
 70
     0
  4
"
 41
2.5
 42
0.0
 43
10.0
 44
1.0
 47
0.1
 48
0.1000000001
 73
     0
 74
     0
 78
     1
 79
     2
140
3.8
141
0.0
143
0.0393701
146
0.71
147
1.5
172
     1
176
   256
177
   256
178
     2
179
     2
271
     3
272
     3
275
     1
283
     0
284
     8
340
11
341
59
342
59
371
    -1
372
    -1
  0
DIMSTYLE
105
62
330
A
100
AcDbSymbolTableRecord
100
AcDbDimStyleTableRecord
  2
AM_JIS$7
 70
     0
  4
"
 41
2.5
 42
0.0
 43
10.0
 44
1.0
 47
0.1
 48
0.1000000001
 73
     0
 74
     0
 77
     3
 78
     1
 79
     2
140
5.0
141
0.0
143
0.0393701
146
0.71
147
1.5
172
     1
176
   256
177
   256
178
     2
179
     2
271
     3
272
     3
275
     1
283
     0
284
     8
340
11
341
59
342
59
371
    -1
372
    -1
  0
DIMSTYLE
105
63
330
A
100
AcDbSymbolTableRecord
100
AcDbDimStyleTableRecord
  2
AM_JIS$SF
 70
     0
  4
"
 41
2.5
 42
1.0
 43
10.0
 44
1.0
 47
0.1
 48
0.1
 73
     0
 74
     0
 75
     1
 76
     1
 77
     3
 78
     8
 79
     2
140
3.5
141
0.0
143
0.0393701
146
0.71
147
1.5
176
   256
177
   256
178
     2
271
     2
272
     3
274
     4
340
11
341
59
342
59
343
59
344
59
371
    -1
372
    -1
  0
DIMSTYLE
105
68
330
A
100
AcDbSymbolTableRecord
100
AcDbDimStyleTableRecord
  2
AM_JIS$SH
 70
     0
  4
"
 41
2.5
 42
1.0
 43
10.0
 44
1.0
 47
0.1
 48
0.1
 73
     0
 74
     0
 75
     1
 76
     1
 77
     3
 78
     8
 79
     2
140
3.5
141
0.0
143
0.0393701
144
2.0
146
0.71
147
1.5
173
     1
176
   256
177
   256
178
     2
271
     2
272
     3
274
     4
340
11
341
59
342
59
343
64
344
59
371
    -1
372
    -1
  0
DIMSTYLE
105
65F
330
A
100
AcDbSymbolTableRecord
100
AcDbDimStyleTableRecord
  2
STANDARD
 70
     0
340
11
  0
DIMSTYLE
105
1B97
102
{ACAD_REACTORS
330
1A57B
330
1BEA1
330
1C0B1
330
1C10E
102
}
330
A
100
AcDbSymbolTableRecord
100
AcDbDimStyleTableRecord
  2
AM_JIS$0
 70
     0
  4
"
 41
2.5
 42
0.0
 43
10.0
 44
1.0
 47
0.1
 48
0.1000000001
 73
     0
 74
     0
 77
     3
 78
     1
 79
     2
140
3.8
141
0.0
143
0.0393701
146
0.71
147
1.5
172
     1
176
     3
177
     3
178
     2
271
     3
272
     3
275
     1
283
     0
284
     8
289
     0
340
11
341
59
342
59
371
    13
372
    13
  0
DIMSTYLE
105
1B98
102
{ACAD_REACTORS
330
1C159
330
1C1AE
102
}
330
A
100
AcDbSymbolTableRecord
100
AcDbDimStyleTableRecord
  2
AM_JIS$2
 70
     0
  4
"
 41
2.5
 42
0.0
 43
10.0
 44
1.0
 47
0.1
 48
0.1000000001
 73
     0
 74
     0
 77
     3
 78
     1
 79
     2
140
3.8
141
0.0
143
0.0393701
146
0.71
147
1.5
172
     1
176
     3
177
     3
178
     2
271
     3
272
     3
275
     1
283
     0
284
     8
289
     0
340
11
341
59
342
59
371
    13
372
    13
  0
ENDTAB
  0
TABLE
  2
BLOCK_RECORD
  5
1
330
0
100
AcDbSymbolTable
 70
    12
  0
BLOCK_RECORD
  5
1F
102
{ACAD_XDICTIONARY
360
165
102
}
330
1
100
AcDbSymbolTableRecord
100
AcDbBlockTableRecord
  2
*Model_Space
340
22
  0
BLOCK_RECORD
  5
1B
330
1
100
AcDbSymbolTableRecord
100
AcDbBlockTableRecord
  2
*Paper_Space
340
1E
  0
BLOCK_RECORD
  5
23
330
1
100
AcDbSymbolTableRecord
100
AcDbBlockTableRecord
  2
*Paper_Space0
340
26
  0
BLOCK_RECORD
  5
59
330
1
100
AcDbSymbolTableRecord
100
AcDbBlockTableRecord
  2
_Open30
340
0
102
{BLKREFS
331
1C418
331
1C419
331
1C41F
331
1C420
331
1C42A
331
1C42B
331
1C433
331
1C434
331
1C43C
331
1C43D
331
1C447
331
1C448
331
1C450
331
1C451
331
1C45D
331
1C45E
102
}
  0
BLOCK_RECORD
  5
64
330
1
100
AcDbSymbolTableRecord
100
AcDbBlockTableRecord
  2
GENAXEH
340
0
  0
BLOCK_RECORD
  5
1A395
330
1
100
AcDbSymbolTableRecord
100
AcDbBlockTableRecord
  2
*D3
340
0
  0
BLOCK_RECORD
  5
1A57C
330
1
100
AcDbSymbolTableRecord
100
AcDbBlockTableRecord
  2
*D4
340
0
  0
BLOCK_RECORD
  5
1A8D0
330
1
100
AcDbSymbolTableRecord
100
AcDbBlockTableRecord
  2
*D5
340
0
  0
BLOCK_RECORD
  5
1BAFE
330
1
100
AcDbSymbolTableRecord
100
AcDbBlockTableRecord
  2
*U6
340
0
  0
BLOCK_RECORD
  5
1BEA2
330
1
100
AcDbSymbolTableRecord
100
AcDbBlockTableRecord
  2
*D7
340
0
  0
BLOCK_RECORD
  5
1C0B2
330
1
100
AcDbSymbolTableRecord
100
AcDbBlockTableRecord
  2
*D8
340
0
  0
BLOCK_RECORD
  5
1C10F
330
1
100
AcDbSymbolTableRecord
100
AcDbBlockTableRecord
  2
*D9
340
0
  0
BLOCK_RECORD
  5
1C15A
330
1
100
AcDbSymbolTableRecord
100
AcDbBlockTableRecord
  2
*D10
340
0
  0
BLOCK_RECORD
  5
1C1AF
330
1
100
AcDbSymbolTableRecord
100
AcDbBlockTableRecord
  2
*D11
340
0
  0
ENDTAB
  0
ENDSEC
  0
SECTION
  2
BLOCKS
  0
BLOCK
  5
20
330
1F
100
AcDbEntity
  8
0
100
AcDbBlockBegin
  2
*Model_Space
 70
     0
 71
     0
 10
0.0
 20
0.0
 30
0.0
  3
*Model_Space
  1

  0
ENDBLK
  5
21
330
1F
100
AcDbEntity
  8
0
100
AcDbBlockEnd
  0
BLOCK
  5
1C
330
1B
100
AcDbEntity
 67
     1
  8
0
100
AcDbBlockBegin
  2
*Paper_Space
 70
     0
 71
     0
 10
0.0
 20
0.0
 30
0.0
  3
*Paper_Space
  1

  0
ENDBLK
  5
1D
330
1B
100
AcDbEntity
 67
     1
  8
0
100
AcDbBlockEnd
  0
BLOCK
  5
24
330
23
100
AcDbEntity
  8
0
100
AcDbBlockBegin
  2
*Paper_Space0
 70
     0
 71
     0
 10
0.0
 20
0.0
 30
0.0
  3
*Paper_Space0
  1

  0
ENDBLK
  5
25
330
23
100
AcDbEntity
  8
0
100
AcDbBlockEnd
  0
BLOCK
  5
5D
330
59
100
AcDbEntity
  8
0
100
AcDbBlockBegin
  2
_Open30
 70
     0
 71
     0
 10
0.0
 20
0.0
 30
0.0
  3
_Open30
  1

  0
LINE
  5
5A
330
59
100
AcDbEntity
  8
0
 62
     0
370
    -2
100
AcDbLine
 10
-1.0
 20
0.26794919
 30
0.0
 11
0.0
 21
0.0
 31
0.0
  0
LINE
  5
5B
330
59
100
AcDbEntity
  8
0
 62
     0
370
    -2
100
AcDbLine
 10
0.0
 20
0.0
 30
0.0
 11
-1.0
 21
-0.26794919
 31
0.0
  0
LINE
  5
5C
330
59
100
AcDbEntity
  8
0
 62
     0
370
    -2
100
AcDbLine
 10
0.0
 20
0.0
 30
0.0
 11
-1.0
 21
0.0
 31
0.0
  0
ENDBLK
  5
5E
330
59
100
AcDbEntity
  8
0
100
AcDbBlockEnd
  0
BLOCK
  5
66
330
64
100
AcDbEntity
  8
0
100
AcDbBlockBegin
  2
GENAXEH
 70
     0
 71
     0
 10
0.0
 20
0.0
 30
0.0
  3
GENAXEH
  1

  0
LINE
  5
65
330
64
100
AcDbEntity
  8
0
100
AcDbLine
 10
-1.0
 20
0.0
 30
0.0
 11
1.0
 21
0.0
 31
0.0
  0
ENDBLK
  5
67
330
64
100
AcDbEntity
  8
0
100
AcDbBlockEnd
  0
BLOCK
  5
1A39E
330
1A395
100
AcDbEntity
  8
0
100
AcDbBlockBegin
  2
*D3
 70
     1
 71
     0
 10
0.0
 20
0.0
 30
0.0
  3
*D3
  1

  0
LINE
  5
1C413
330
1A395
100
AcDbEntity
  8
AM_5
100
AcDbLine
 10
-69.26144625448802
 20
13.89492479288071
 30
0.0
 11
-45.39372024499893
 21
13.89492479288071
 31
0.0
  0
LINE
  5
1C414
330
1A395
100
AcDbEntity
  8
AM_5
100
AcDbLine
 10
-45.39372024499893
 20
13.89492479288071
 30
0.0
 11
-43.44177976554309
 21
11.1994881922237
 31
0.0
  0
LINE
  5
1C415
330
1A395
100
AcDbEntity
  8
AM_5
100
AcDbLine
 10
-34.64391793381752
 20
-0.9494881922238907
 30
0.0
 11
-33.17760762852991
 21
-2.974317589631829
 31
0.0
  0
MTEXT
  5
1C416
330
1A395
100
AcDbEntity
  8
AM_5
 62
     2
100
AcDbMText
 10
-58.0775832497435
 20
20.46159145954737
 30
0.0
 40
3.8
 41
0.0
 71
     5
 72
     1
  1
最小加工径\P\U+220510
 73
     1
 44
1.0
  0
LINE
  5
1C417
330
1A395
100
AcDbEntity
  8
AM_5
100
AcDbLine
 10
-36.11022823910511
 20
1.075341205184046
 30
0.0
 11
-41.97546946025548
 21
9.174658794815766
 31
0.0
  0
INSERT
  5
1C418
330
1A395
100
AcDbEntity
  8
AM_5
100
AcDbBlockReference
  2
_Open30
 10
-36.11022823910511
 20
1.075341205184046
 30
0.0
 41
2.5
 42
2.5
 43
2.5
 50
125.9107353808216
  0
INSERT
  5
1C419
330
1A395
100
AcDbEntity
  8
AM_5
100
AcDbBlockReference
  2
_Open30
 10
-41.97546946025548
 20
9.174658794815766
 30
0.0
 41
2.5
 42
2.5
 43
2.5
 50
305.9107353808216
  0
POINT
  5
1C41A
330
1A395
100
AcDbEntity
  8
Defpoints
 62
     0
100
AcDbPoint
 10
-41.97546946025548
 20
9.174658794815766
 30
0.0
  0
POINT
  5
1C41B
330
1A395
100
AcDbEntity
  8
Defpoints
 62
     0
100
AcDbPoint
 10
-36.11022823910511
 20
1.075341205184046
 30
0.0
  0
ENDBLK
  5
1A39F
330
1A395
100
AcDbEntity
  8
0
100
AcDbBlockEnd
  0
BLOCK
  5
1A586
330
1A57C
100
AcDbEntity
  8
0
100
AcDbBlockBegin
  2
*D4
 70
     1
 71
     0
 10
0.0
 20
0.0
 30
0.0
  3
*D4
  1

  0
LINE
  5
1C41C
330
1A57C
100
AcDbEntity
  8
AM_5
 62
     3
370
    13
100
AcDbLine
 10
19.0
 20
-44.86859067659771
 30
0.0
 11
19.0
 21
-56.69884226767996
 31
0.0
  0
LINE
  5
1C41D
330
1A57C
100
AcDbEntity
  8
AM_5
 62
     3
370
    13
100
AcDbLine
 10
0.0
 20
-40.86859067659771
 30
0.0
 11
-0.000000000000001
 21
-56.69884226767996
 31
0.0
  0
LINE
  5
1C41E
330
1A57C
100
AcDbEntity
  8
AM_5
 62
     3
370
    13
100
AcDbLine
 10
16.5
 20
-55.69884226767996
 30
0.0
 11
2.499999999999999
 21
-55.69884226767996
 31
0.0
  0
INSERT
  5
1C41F
330
1A57C
100
AcDbEntity
  8
AM_5
 62
     3
370
    13
100
AcDbBlockReference
  2
_Open30
 10
19.0
 20
-55.69884226767996
 30
0.0
 41
2.5
 42
2.5
 43
2.5
  0
INSERT
  5
1C420
330
1A57C
100
AcDbEntity
  8
AM_5
 62
     3
370
    13
100
AcDbBlockReference
  2
_Open30
 10
-0.0000000000000009
 20
-55.69884226767996
 30
0.0
 41
2.5
 42
2.5
 43
2.5
 50
180.0
  0
MTEXT
  5
1C421
330
1A57C
100
AcDbEntity
  8
AM_5
 62
     2
100
AcDbMText
 10
9.5
 20
-52.29884226767997
 30
0.0
 40
3.8
 41
0.0
 71
     5
 72
     1
  1
19
 73
     1
 44
1.0
  0
POINT
  5
1C422
330
1A57C
100
AcDbEntity
  8
Defpoints
 62
     0
100
AcDbPoint
 10
19.0
 20
-44.86859067659771
 30
0.0
  0
POINT
  5
1C423
330
1A57C
100
AcDbEntity
  8
Defpoints
 62
     0
100
AcDbPoint
 10
0.0
 20
-40.86859067659771
 30
0.0
  0
POINT
  5
1C424
330
1A57C
100
AcDbEntity
  8
Defpoints
 62
     0
100
AcDbPoint
 10
-0.0000000000000009
 20
-55.69884226767996
 30
0.0
  0
ENDBLK
  5
1A587
330
1A57C
100
AcDbEntity
  8
0
100
AcDbBlockEnd
  0
BLOCK
  5
1A8D6
330
1A8D0
100
AcDbEntity
  8
0
100
AcDbBlockBegin
  2
*D5
 70
     1
 71
     0
 10
0.0
 20
0.0
 30
0.0
  3
*D5
  1

  0
LINE
  5
1C425
330
1A8D0
100
AcDbEntity
  8
AM_5
100
AcDbLine
 10
72.10959836014715
 20
19.30186974638208
 30
0.0
 11
65.66959836014711
 21
19.30186974638208
 31
0.0
  0
LINE
  5
1C426
330
1A8D0
100
AcDbEntity
  8
AM_5
100
AcDbLine
 10
65.66959836014711
 20
19.30186974638208
 30
0.0
 11
63.23226276823317
 21
11.69036625068961
 31
0.0
  0
LINE
  5
1C427
330
1A8D0
100
AcDbEntity
  8
AM_5
100
AcDbLine
 10
59.26773723176666
 20
-0.6903662506894932
 30
0.0
 11
58.50532847475387
 21
-3.071276347108553
 31
0.0
  0
MTEXT
  5
1C428
330
1A8D0
100
AcDbEntity
  8
AM_5
 62
     2
100
AcDbMText
 10
69.63959836014715
 20
22.70186974638208
 30
0.0
 40
3.8
 41
0.0
 71
     5
 72
     1
  1
\U+22058
 73
     1
 44
1.0
  0
LINE
  5
1C429
330
1A8D0
100
AcDbEntity
  8
AM_5
100
AcDbLine
 10
60.03014598877945
 20
1.690543845729565
 30
0.0
 11
62.46985401122038
 21
9.309456154270549
 31
0.0
  0
INSERT
  5
1C42A
330
1A8D0
100
AcDbEntity
  8
AM_5
100
AcDbBlockReference
  2
_Open30
 10
60.03014598877945
 20
1.690543845729565
 30
0.0
 41
2.5
 42
2.5
 43
2.5
 50
72.24403183790341
  0
INSERT
  5
1C42B
330
1A8D0
100
AcDbEntity
  8
AM_5
100
AcDbBlockReference
  2
_Open30
 10
62.46985401122038
 20
9.309456154270549
 30
0.0
 41
2.5
 42
2.5
 43
2.5
 50
252.2440318379034
  0
POINT
  5
1C42C
330
1A8D0
100
AcDbEntity
  8
Defpoints
 62
     0
100
AcDbPoint
 10
62.46985401122038
 20
9.309456154270549
 30
0.0
  0
POINT
  5
1C42D
330
1A8D0
100
AcDbEntity
  8
Defpoints
 62
     0
100
AcDbPoint
 10
60.03014598877945
 20
1.690543845729565
 30
0.0
  0
ENDBLK
  5
1A8D7
330
1A8D0
100
AcDbEntity
  8
0
100
AcDbBlockEnd
  0
BLOCK
  5
1BAFF
330
1BAFE
100
AcDbEntity
  8
0
100
AcDbBlockBegin
  2
*U6
 70
     1
 71
     0
 10
0.0
 20
0.0
 30
0.0
  3
*U6
  1

  0
ENDBLK
  5
1BB00
330
1BAFE
100
AcDbEntity
  8
0
100
AcDbBlockEnd
  0
BLOCK
  5
1BED2
330
1BEA2
100
AcDbEntity
  8
0
100
AcDbBlockBegin
  2
*D7
 70
     1
 71
     0
 10
0.0
 20
0.0
 30
0.0
  3
*D7
  1

  0
LINE
  5
1C42E
330
1BEA2
100
AcDbEntity
  8
AM_5
 62
     3
370
    13
100
AcDbLine
 10
57.75
 20
3.563508326896276
 30
0.0
 11
57.75
 21
-8.081793753088377
 31
0.0
  0
LINE
  5
1C42F
330
1BEA2
100
AcDbEntity
  8
AM_5
 62
     3
370
    13
100
AcDbLine
 10
64.74999999999994
 20
3.563508326896155
 30
0.0
 11
64.74999999999994
 21
-8.081793753088377
 31
0.0
  0
LINE
  5
1C430
330
1BEA2
100
AcDbEntity
  8
AM_5
 62
     3
370
    13
100
AcDbLine
 10
55.25
 20
-7.081793753088377
 30
0.0
 11
52.75
 21
-7.081793753088377
 31
0.0
  0
LINE
  5
1C431
330
1BEA2
100
AcDbEntity
  8
AM_5
 62
     3
370
    13
100
AcDbLine
 10
67.24999999999994
 20
-7.081793753088377
 30
0.0
 11
69.74999999999994
 21
-7.081793753088377
 31
0.0
  0
LINE
  5
1C432
330
1BEA2
100
AcDbEntity
  8
AM_5
 62
     3
370
    13
100
AcDbLine
 10
57.75
 20
-7.081793753088377
 30
0.0
 11
64.74999999999994
 21
-7.081793753088377
 31
0.0
  0
INSERT
  5
1C433
330
1BEA2
100
AcDbEntity
  8
AM_5
 62
     3
370
    13
100
AcDbBlockReference
  2
_Open30
 10
57.75
 20
-7.081793753088377
 30
0.0
 41
2.5
 42
2.5
 43
2.5
  0
INSERT
  5
1C434
330
1BEA2
100
AcDbEntity
  8
AM_5
 62
     3
370
    13
100
AcDbBlockReference
  2
_Open30
 10
64.74999999999994
 20
-7.081793753088377
 30
0.0
 41
2.5
 42
2.5
 43
2.5
 50
180.0
  0
MTEXT
  5
1C435
330
1BEA2
100
AcDbEntity
  8
AM_5
 62
     2
100
AcDbMText
 10
61.24999999999997
 20
-3.681793753088377
 30
0.0
 40
3.8
 41
0.0
 71
     5
 72
     1
  1
7
 73
     1
 44
1.0
  0
POINT
  5
1C436
330
1BEA2
100
AcDbEntity
  8
Defpoints
 62
     0
100
AcDbPoint
 10
57.75
 20
3.563508326896276
 30
0.0
  0
POINT
  5
1C437
330
1BEA2
100
AcDbEntity
  8
Defpoints
 62
     0
100
AcDbPoint
 10
64.74999999999994
 20
3.563508326896155
 30
0.0
  0
POINT
  5
1C438
330
1BEA2
100
AcDbEntity
  8
Defpoints
 62
     0
100
AcDbPoint
 10
64.74999999999994
 20
-7.081793753088377
 30
0.0
  0
ENDBLK
  5
1BED3
330
1BEA2
100
AcDbEntity
  8
0
100
AcDbBlockEnd
  0
BLOCK
  5
1C0D1
330
1C0B2
100
AcDbEntity
  8
0
100
AcDbBlockBegin
  2
*D8
 70
     1
 71
     0
 10
0.0
 20
0.0
 30
0.0
  3
*D8
  1

  0
LINE
  5
1C439
330
1C0B2
100
AcDbEntity
  8
AM_5
 62
     3
370
    13
100
AcDbLine
 10
0.0
 20
0.0
 30
0.0
 11
-0.0000000000000015
 21
-24.15221926568474
 31
0.0
  0
LINE
  5
1C43A
330
1C0B2
100
AcDbEntity
  8
AM_5
 62
     3
370
    13
100
AcDbLine
 10
100.0
 20
2.499999999999986
 30
0.0
 11
100.0
 21
-24.15221926568474
 31
0.0
  0
LINE
  5
1C43B
330
1C0B2
100
AcDbEntity
  8
AM_5
 62
     3
370
    13
100
AcDbLine
 10
2.499999999999999
 20
-23.15221926568474
 30
0.0
 11
97.5
 21
-23.15221926568474
 31
0.0
  0
INSERT
  5
1C43C
330
1C0B2
100
AcDbEntity
  8
AM_5
 62
     3
370
    13
100
AcDbBlockReference
  2
_Open30
 10
-0.0000000000000014
 20
-23.15221926568474
 30
0.0
 41
2.5
 42
2.5
 43
2.5
 50
180.0
  0
INSERT
  5
1C43D
330
1C0B2
100
AcDbEntity
  8
AM_5
 62
     3
370
    13
100
AcDbBlockReference
  2
_Open30
 10
100.0
 20
-23.15221926568474
 30
0.0
 41
2.5
 42
2.5
 43
2.5
  0
MTEXT
  5
1C43E
330
1C0B2
100
AcDbEntity
  8
AM_5
 62
     2
100
AcDbMText
 10
50.0
 20
-19.75221926568474
 30
0.0
 40
3.8
 41
0.0
 71
     5
 72
     1
  1
100
 73
     1
 44
1.0
  0
POINT
  5
1C43F
330
1C0B2
100
AcDbEntity
  8
Defpoints
 62
     0
100
AcDbPoint
 10
0.0
 20
0.0
 30
0.0
  0
POINT
  5
1C440
330
1C0B2
100
AcDbEntity
  8
Defpoints
 62
     0
100
AcDbPoint
 10
100.0
 20
2.499999999999986
 30
0.0
  0
POINT
  5
1C441
330
1C0B2
100
AcDbEntity
  8
Defpoints
 62
     0
100
AcDbPoint
 10
100.0
 20
-23.15221926568474
 30
0.0
  0
ENDBLK
  5
1C0D2
330
1C0B2
100
AcDbEntity
  8
0
100
AcDbBlockEnd
  0
BLOCK
  5
1C134
330
1C10F
100
AcDbEntity
  8
0
100
AcDbBlockBegin
  2
*D9
 70
     1
 71
     0
 10
0.0
 20
0.0
 30
0.0
  3
*D9
  1

  0
LINE
  5
1C442
330
1C10F
100
AcDbEntity
  8
AM_5
 62
     3
370
    13
100
AcDbLine
 10
0.0
 20
0.0
 30
0.0
 11
-9.558650924599078
 21
0.0000000000000027
 31
0.0
  0
LINE
  5
1C443
330
1C10F
100
AcDbEntity
  8
AM_5
 62
     3
370
    13
100
AcDbLine
 10
-2.430078659907167
 20
5.499999999999972
 30
0.0
 11
-9.558650924599077
 21
5.499999999999973
 31
0.0
  0
LINE
  5
1C444
330
1C10F
100
AcDbEntity
  8
AM_5
 62
     3
370
    13
100
AcDbLine
 10
-8.558650924599077
 20
7.999999999999973
 30
0.0
 11
-8.558650924599077
 21
10.49999999999997
 31
0.0
  0
LINE
  5
1C445
330
1C10F
100
AcDbEntity
  8
AM_5
 62
     3
370
    13
100
AcDbLine
 10
-8.558650924599078
 20
-2.499999999999998
 30
0.0
 11
-8.558650924599082
 21
-13.47740115370185
 31
0.0
  0
LINE
  5
1C446
330
1C10F
100
AcDbEntity
  8
AM_5
 62
     3
370
    13
100
AcDbLine
 10
-8.558650924599077
 20
5.499999999999973
 30
0.0
 11
-8.558650924599078
 21
0.0000000000000024
 31
0.0
  0
INSERT
  5
1C447
330
1C10F
100
AcDbEntity
  8
AM_5
 62
     3
370
    13
100
AcDbBlockReference
  2
_Open30
 10
-8.558650924599077
 20
5.499999999999973
 30
0.0
 41
2.5
 42
2.5
 43
2.5
 50
270.0
  0
INSERT
  5
1C448
330
1C10F
100
AcDbEntity
  8
AM_5
 62
     3
370
    13
100
AcDbBlockReference
  2
_Open30
 10
-8.558650924599078
 20
0.0000000000000024
 30
0.0
 41
2.5
 42
2.5
 43
2.5
 50
90.0
  0
MTEXT
  5
1C449
330
1C10F
100
AcDbEntity
  8
AM_5
 62
     2
100
AcDbMText
 10
-11.95865092459908
 20
-9.23870057685096
 30
0.0
 40
3.8
 41
0.0
 71
     5
 72
     1
  1
5.5
 11
6.123031769111886E-17
 21
1.0
 31
0.0
 73
     1
 44
1.0
  0
POINT
  5
1C44A
330
1C10F
100
AcDbEntity
  8
Defpoints
 62
     0
100
AcDbPoint
 10
0.0
 20
0.0
 30
0.0
  0
POINT
  5
1C44B
330
1C10F
100
AcDbEntity
  8
Defpoints
 62
     0
100
AcDbPoint
 10
-2.430078659907167
 20
5.499999999999972
 30
0.0
  0
POINT
  5
1C44C
330
1C10F
100
AcDbEntity
  8
Defpoints
 62
     0
100
AcDbPoint
 10
-8.558650924599077
 20
5.499999999999973
 30
0.0
  0
ENDBLK
  5
1C135
330
1C10F
100
AcDbEntity
  8
0
100
AcDbBlockEnd
  0
BLOCK
  5
1C19E
330
1C15A
100
AcDbEntity
  8
0
100
AcDbBlockBegin
  2
*D10
 70
     1
 71
     0
 10
0.0
 20
0.0
 30
0.0
  3
*D10
  1

  0
LINE
  5
1C44D
330
1C15A
100
AcDbEntity
  8
AM_5
 62
     3
370
    13
100
AcDbLine
 10
0.480125147587501
 20
5.894135837109893
 30
0.0
 11
1.898522202174009
 21
22.10648835711511
 31
0.0
  0
LINE
  5
1C44E
330
1C15A
100
AcDbEntity
  8
AM_5
 62
     3
370
    13
100
AcDbLine
 10
-0.0355449194415396
 20
0.0000000000000005
 30
0.0
 11
-22.22647647073474
 21
0.0000000000003855
 31
0.0
  0
ARC
  5
1C44F
330
1C15A
100
AcDbEntity
  8
AM_5
 62
     3
370
    13
100
AcDbCircle
 10
-0.0355449194415396
 20
0.0000000000000005
 30
0.0
 40
21.1909315512932
100
AcDbArc
 50
91.76339529039022
 51
173.2366047096084
  0
INSERT
  5
1C450
330
1C15A
100
AcDbEntity
  8
AM_5
 62
     3
370
    13
100
AcDbBlockReference
  2
_Open30
 10
1.811366459426345
 20
21.11029365902336
 30
0.0
 41
2.5
 42
2.5
 43
2.5
 50
358.381697645195
  0
INSERT
  5
1C451
330
1C15A
100
AcDbEntity
  8
AM_5
 62
     3
370
    13
100
AcDbBlockReference
  2
_Open30
 10
-21.22647647073474
 20
0.0000000000003695
 30
0.0
 41
2.5
 42
2.5
 43
2.5
 50
266.6183023548037
  0
MTEXT
  5
1C452
330
1C15A
100
AcDbEntity
  8
AM_5
 62
     2
100
AcDbMText
 10
-16.64893747164198
 20
18.1303365238177
 30
0.0
 40
3.8
 41
0.0
 71
     5
 72
     1
  1
95°
 11
0.7372773368101324
 21
0.6755902076156511
 31
0.0
 73
     1
 44
1.0
  0
POINT
  5
1C453
330
1C15A
100
AcDbEntity
  8
Defpoints
 62
     0
100
AcDbPoint
 10
-9.546017627345844
 20
18.93690811309494
 30
0.0
  0
POINT
  5
1C454
330
1C15A
100
AcDbEntity
  8
Defpoints
 62
     0
100
AcDbPoint
 10
0.0014455141152894
 20
0.4228025902563388
 30
0.0
  0
POINT
  5
1C455
330
1C15A
100
AcDbEntity
  8
Defpoints
 62
     0
100
AcDbPoint
 10
0.0
 20
0.0
 30
0.0
  0
POINT
  5
1C456
330
1C15A
100
AcDbEntity
  8
Defpoints
 62
     0
100
AcDbPoint
 10
0.3999528515373073
 20
-0.000000000000007
 30
0.0
  0
POINT
  5
1C457
330
1C15A
100
AcDbEntity
  8
Defpoints
 62
     0
100
AcDbPoint
 10
0.480125147587501
 20
5.894135837109893
 30
0.0
  0
ENDBLK
  5
1C19F
330
1C15A
100
AcDbEntity
  8
0
100
AcDbBlockEnd
  0
BLOCK
  5
1C1DE
330
1C1AF
100
AcDbEntity
  8
0
100
AcDbBlockBegin
  2
*D11
 70
     1
 71
     0
 10
0.0
 20
0.0
 30
0.0
  3
*D11
  1

  0
LINE
  5
1C458
330
1C1AF
100
AcDbEntity
  8
AM_5
 62
     3
370
    13
100
AcDbLine
 10
-39.0428488496803
 20
-0.0009871290448
 30
0.0
 11
-42.44940289537568
 21
-14.7563937949662
 31
0.0
  0
LINE
  5
1C459
330
1C1AF
100
AcDbEntity
  8
AM_5
 62
     3
370
    13
100
AcDbLine
 10
-39.0428488496803
 20
-2.194777735745875
 30
0.0
 11
-39.0428488496803
 21
-15.14452160230966
 31
0.0
  0
ARC
  5
1C45A
330
1C1AF
100
AcDbEntity
  8
AM_5
 62
     3
370
    13
100
AcDbCircle
 10
-39.0428488496803
 20
-0.0009871290448
 30
0.0
 40
14.14353447326486
100
AcDbArc
 50
236.7184246485656
 51
246.8592123253666
  0
ARC
  5
1C45B
330
1C1AF
100
AcDbEntity
  8
AM_5
 62
     3
370
    13
100
AcDbCircle
 10
-39.0428488496803
 20
-0.0009871290448
 30
0.0
 40
14.14353447326486
100
AcDbArc
 50
280.140787676801
 51
290.281575353602
  0
ARC
  5
1C45C
330
1C1AF
100
AcDbEntity
  8
AM_5
 62
     3
370
    13
100
AcDbCircle
 10
-39.0428488496803
 20
-0.0009871290448
 30
0.0
 40
14.14353447326486
100
AcDbArc
 50
257.0000000021676
 51
270.0
  0
INSERT
  5
1C45D
330
1C1AF
100
AcDbEntity
  8
AM_5
 62
     3
370
    13
100
AcDbBlockReference
  2
_Open30
 10
-42.22445184106868
 20
-13.78202373017246
 30
0.0
 41
2.5
 42
2.5
 43
2.5
 50
341.9296061637671
  0
INSERT
  5
1C45E
330
1C1AF
100
AcDbEntity
  8
AM_5
 62
     3
370
    13
100
AcDbBlockReference
  2
_Open30
 10
-39.0428488496803
 20
-14.14452160230966
 30
0.0
 41
2.5
 42
2.5
 43
2.5
 50
185.0703938384005
  0
MTEXT
  5
1C45F
330
1C1AF
100
AcDbEntity
  8
AM_5
 62
     2
100
AcDbMText
 10
-41.45961825642489
 20
-10.46916550987372
 30
0.0
 40
3.8
 41
0.0
 71
     5
 72
     1
  1
13°
 11
0.9743700647937446
 21
-0.2249510543070071
 31
0.0
 73
     1
 44
1.0
  0
POINT
  5
1C460
330
1C1AF
100
AcDbEntity
  8
Defpoints
 62
     0
100
AcDbPoint
 10
-40.11151809024275
 20
-14.1040901014657
 30
0.0
  0
POINT
  5
1C461
330
1C1AF
100
AcDbEntity
  8
Defpoints
 62
     0
100
AcDbPoint
 10
-38.94500928205481
 20
0.422802597748559
 30
0.0
  0
POINT
  5
1C462
330
1C1AF
100
AcDbEntity
  8
Defpoints
 62
     0
100
AcDbPoint
 10
-39.0428488496803
 20
12.3945099645716
 30
0.0
  0
POINT
  5
1C463
330
1C1AF
100
AcDbEntity
  8
Defpoints
 62
     0
100
AcDbPoint
 10
-39.0428488496803
 20
-2.194777735745875
 30
0.0
  0
POINT
  5
1C464
330
1C1AF
100
AcDbEntity
  8
Defpoints
 62
     0
100
AcDbPoint
 10
-37.68185247252659
 20
5.894135844602118
 30
0.0
  0
ENDBLK
  5
1C1DF
330
1C1AF
100
AcDbEntity
  8
0
100
AcDbBlockEnd
  0
ENDSEC
  0
SECTION
  2
ENTITIES
  0
LINE
  5
19801
330
1F
100
AcDbEntity
  8
AM_0
100
AcDbLine
 10
0.2910566416222764
 20
-43.09820164300777
 30
0.0
 11
0.0001594745103262
 21
-40.7809357646855
 31
0.0
  0
LINE
  5
19802
330
1F
100
AcDbEntity
  8
AM_0
100
AcDbLine
 10
6.87572884544494
 20
-39.53288797439939
 30
0.0
 11
6.891582000562607
 21
-39.40766350816591
 31
0.0
  0
LINE
  5
19803
330
1F
100
AcDbEntity
  8
AM_0
100
AcDbLine
 10
100.0
 20
-37.86859067659772
 30
0.0
 11
99.5
 21
-37.36859067659772
 31
0.0
  0
LINE
  5
19804
330
1F
100
AcDbEntity
  8
AM_0
100
AcDbLine
 10
100.0
 20
-43.86859067659772
 30
0.0
 11
99.5
 21
-44.36859067659772
 31
0.0
  0
LINE
  5
19805
330
1F
100
AcDbEntity
  8
AM_0
100
AcDbLine
 10
10.25
 20
-44.61859067659771
 30
0.0
 11
9.689727677144674
 21
-44.9420640530177
 31
0.0
  0
LINE
  5
19806
330
1F
100
AcDbEntity
  8
AM_0
100
AcDbLine
 10
0.8150759237049101
 20
-45.36859067659771
 30
0.0
 11
2.193582197118531
 21
-45.36859067659771
 31
0.0
  0
LINE
  5
19807
330
1F
100
AcDbEntity
  8
AM_0
100
AcDbLine
 10
9.689727677144674
 20
-44.9420640530177
 30
0.0
 11
5.533915412427518
 21
-45.30565051392242
 31
0.0
  0
LINE
  5
19808
330
1F
100
AcDbEntity
  8
AM_0
100
AcDbLine
 10
17.25
 20
-44.61859067659771
 30
0.0
 11
17.5
 21
-44.86859067659771
 31
0.0
  0
LINE
  5
19809
330
1F
100
AcDbEntity
  8
AM_0
100
AcDbLine
 10
17.5
 20
-44.86859067659771
 30
0.0
 11
19.0
 21
-44.86859067659771
 31
0.0
  0
LINE
  5
1980A
330
1F
100
AcDbEntity
  8
AM_0
100
AcDbLine
 10
10.25
 20
-44.61859067659771
 30
0.0
 11
17.25
 21
-44.61859067659771
 31
0.0
  0
LINE
  5
1980B
330
1F
100
AcDbEntity
  8
AM_0
100
AcDbLine
 10
6.04881366751755
 20
-40.75771438967405
 30
0.0
 11
0.4357490513000926
 21
-40.86824831592671
 31
0.0
  0
LINE
  5
1980C
330
1F
100
AcDbEntity
  8
AM_0
100
AcDbLine
 10
0.4084183526379661
 20
-43.12172642631947
 30
0.0
 11
6.021482968855423
 21
-43.01119250006678
 31
0.0
  0
ELLIPSE
  5
1980D
330
1F
100
AcDbEntity
  8
AM_0
100
AcDbEllipse
 10
0.399999948002062
 20
-40.7785933397347
 30
0.0
 11
-0.3999999452294389
 21
0.0002093237824984204
 31
0.0
210
0.0
220
0.0
230
1.0
 40
0.2249933772307529
 41
6.198262300094651
 42
7.943591552088991
  0
ELLIPSE
  5
1980E
330
1F
100
AcDbEntity
  8
AM_0
100
AcDbEllipse
 10
0.3987864051491101
 20
-43.0975705190902
 30
0.0
 11
0.1077727302941522
 21
-5.639849661083110E-5
 31
0.0
210
0.0
220
0.0
230
1.0
 40
0.224993377230753
 41
3.169949120737534
 42
4.801998898499117
  0
LINE
  5
1980F
330
1F
100
AcDbEntity
  8
AM_0
100
AcDbLine
 10
0.0014455141152894
 20
-40.77075110897221
 30
0.0
 11
0.4801251475875006
 21
-39.50759429944401
 31
0.0
  0
ELLIPSE
  5
19810
330
1F
100
AcDbEntity
  8
AM_0
100
AcDbEllipse
 10
0.8786795814742163
 20
-39.5154365302065
 30
0.0
 11
-0.3999999452294389
 21
0.0002093237824984204
 31
0.0
210
0.0
220
0.0
230
1.0
 40
0.2249933772307529
 41
4.801998898499218
 42
6.198262300094652
  0
LINE
  5
19811
330
1F
100
AcDbEntity
  8
AM_0
100
AcDbLine
 10
0.8429304781761857
 20
-39.42578155401446
 30
0.0
 11
6.455995094393586
 21
-39.31524762776184
 31
0.0
  0
ELLIPSE
  5
19812
330
1F
100
AcDbEntity
  8
AM_0
100
AcDbEllipse
 10
6.491744197691673
 20
-39.40490260395382
 30
0.0
 11
-0.3999999452294389
 21
0.0002093237824984204
 31
0.0
210
0.0
220
0.0
230
1.0
 40
0.2249933772307529
 41
3.056669646504869
 42
4.801998898499199
  0
LINE
  5
19813
330
1F
100
AcDbEntity
  8
AM_0
100
AcDbLine
 10
6.500578254454013
 20
-40.44115280061567
 30
0.0
 11
6.411618998106292
 21
-40.6759016442445
 31
0.0
  0
LINE
  5
19814
330
1F
100
AcDbEntity
  8
AM_0
100
AcDbLine
 10
6.890298631578446
 20
-39.41274483471631
 30
0.0
 11
6.837804479605609
 21
-39.55126826644019
 31
0.0
  0
LINE
  5
19815
330
1F
100
AcDbEntity
  8
AM_0
100
AcDbLine
 10
6.119234284847209
 20
-42.98914953967903
 30
0.0
 11
6.246834135268955
 21
-42.65243452469946
 31
0.0
  0
ELLIPSE
  5
19816
330
1F
100
AcDbEntity
  8
AM_0
100
AcDbEllipse
 10
6.013064564219462
 20
-40.66805941348204
 30
0.0
 11
-0.3999999452294389
 21
0.0002093237824984204
 31
0.0
210
0.0
220
0.0
230
1.0
 40
0.2249933772307529
 41
1.660406244909396
 42
3.056669646504881
  0
ELLIPSE
  5
19817
330
1F
100
AcDbEntity
  8
AM_0
100
AcDbEllipse
 10
6.011851021366567
 20
-42.98703659283754
 30
0.0
 11
0.1077727302941522
 21
-5.639849661083110E-5
 31
0.0
210
0.0
220
0.0
230
1.0
 40
0.224993377230753
 41
4.801998898499183
 42
6.198262300094676
  0
ELLIPSE
  5
19818
330
1F
100
AcDbEntity
  8
AM_0
100
AcDbEllipse
 10
3.445872072846839
 20
-40.09174797184426
 30
0.0
 11
-1.249999828841996
 21
0.0006541368203075636
 31
0.0
210
0.0
220
0.0
230
1.0
 40
0.224993377230753
 41
0.0023258843912901
 42
6.285511191570874
  0
LINE
  5
19819
330
1F
100
AcDbEntity
  8
AM_0
100
AcDbLine
 10
100.0
 20
-43.86859067659772
 30
0.0
 11
100.0
 21
-37.86859067659772
 31
0.0
  0
SPLINE
  5
1981A
330
1F
100
AcDbEntity
  8
AM_0
100
AcDbSpline
210
0.0
220
0.0
230
1.0
 70
    28
 71
     2
 72
     6
 73
     3
 74
     0
 42
0.0000000001
 43
0.0000000001
 40
0.0
 40
0.0
 40
0.0
 40
2.0
 40
2.0
 40
2.0
 10
99.0
 20
-37.36859067659772
 30
0.0
 41
1.0
 10
99.49999999999994
 20
-37.36859067659769
 30
0.0
 41
1.071428571428571
 10
99.5
 20
-37.36859067659769
 30
0.0
 41
1.071428571428571
  0
LINE
  5
1981B
330
1F
100
AcDbEntity
  8
AM_0
100
AcDbLine
 10
10.27057628574403
 20
-37.36859067659771
 30
0.0
 11
12.99999999951638
 21
-37.36859067659771
 31
0.0
  0
SPLINE
  5
1981C
330
1F
100
AcDbEntity
  8
AM_0
100
AcDbSpline
210
0.0
220
0.0
230
1.0
 70
     8
 71
     3
 72
    27
 73
    23
 74
     0
 42
0.0000000001
 43
0.0000000001
 40
4.93430770306503
 40
4.93430770306503
 40
4.93430770306503
 40
4.93430770306503
 40
5.302232824968435
 40
5.302232824968435
 40
5.804262245566379
 40
5.804262245566379
 40
6.279430197929246
 40
6.279430197929246
 40
6.754598150292114
 40
6.754598150292114
 40
7.226227999024427
 40
7.226227999024427
 40
7.697857847756741
 40
7.697857847756741
 40
7.697857847756741
 40
8.168823405788904
 40
8.168823405788904
 40
8.639788963821067
 40
8.639788963821067
 40
9.115630235589862
 40
9.115630235589862
 40
9.273460088025725
 40
9.273460088025725
 40
9.273460088025725
 40
9.273460088025725
 10
2.483000177467488
 20
-45.28238000433598
 30
0.0
 10
2.406440336638866
 20
-45.3020001450378
 30
0.0
 10
2.341008604879562
 20
-45.32087223074416
 30
0.0
 10
2.226660178629402
 20
-45.35551738339024
 30
0.0
 10
2.193130413136146
 20
-45.36713390383866
 30
0.0
 10
2.193091771565264
 20
-45.36969809630486
 30
0.0
 10
2.223418968919532
 20
-45.36179868062337
 30
0.0
 10
2.350039132908478
 20
-45.3309275943933
 30
0.0
 10
2.446392856344005
 20
-45.30843331461807
 30
0.0
 10
2.669243601295193
 20
-45.26612236239754
 30
0.0
 10
2.809900236042722
 20
-45.2436216979155
 30
0.0
 10
3.118196219606659
 20
-45.21186319391509
 30
0.0
 10
3.285840147153294
 20
-45.20306256067997
 30
0.0
 10
3.443050096730758
 20
-45.20306256067997
 30
0.0
 10
3.600038616074812
 20
-45.20306256067997
 30
0.0
 10
3.767461641520981
 20
-45.21183794615939
 30
0.0
 10
4.075420397649111
 20
-45.2435218453445
 30
0.0
 10
4.215960651700016
 20
-45.26597537046433
 30
0.0
 10
4.439053914719125
 20
-45.30828672009258
 30
0.0
 10
4.535660060213786
 20
-45.33082913083345
 30
0.0
 10
4.620214473361671
 20
-45.3514346066292
 30
0.0
 10
4.637816602519933
 20
-45.35581739650669
 30
0.0
 10
4.651791234474615
 20
-45.35927195049462
 30
0.0
  0
LINE
  5
1981D
330
1F
100
AcDbEntity
  8
AM_0
100
AcDbLine
 10
0.9580618834763186
 20
-39.4235143564793
 30
0.0
 11
3.751583452251794
 21
-39.36850360421107
 31
0.0
  0
ELLIPSE
  5
1981E
330
1F
100
AcDbEntity
  8
AM_0
100
AcDbEllipse
 10
0.8150759237049101
 20
-40.86859067659771
 30
0.0
 11
-5.510728592200697E-16
 21
-4.499999999999999
 31
0.0
210
0.0
220
0.0
230
1.0
 40
0.0874886635259197
 41
5.847229155857177
 42
6.28318530717959
  0
LINE
  5
1981F
330
1F
100
AcDbEntity
  8
AM_0
100
AcDbLine
 10
1.159497599739552
 20
-38.89195863760637
 30
0.0
 11
0.9580618834763186
 21
-39.4235143564793
 31
0.0
  0
SPLINE
  5
19820
330
1F
100
AcDbEntity
  8
AM_0
100
AcDbSpline
210
0.0
220
0.0
230
1.0
 70
    28
 71
     2
 72
     6
 73
     3
 74
     0
 42
0.0000000001
 43
0.0000000001
 40
0.0
 40
0.0
 40
0.0
 40
1.999999999999986
 40
1.999999999999986
 40
1.999999999999986
 10
99.0
 20
-44.36859067659772
 30
0.0
 41
1.0
 10
99.49999999999972
 20
-44.36859067659761
 30
0.0
 41
1.071428571428571
 10
99.50000000000017
 20
-44.36859067659778
 30
0.0
 41
1.071428571428572
  0
SPLINE
  5
19821
330
1F
100
AcDbEntity
  8
AM_0
100
AcDbSpline
210
0.0
220
0.0
230
1.0
 70
    12
 71
     2
 72
     6
 73
     3
 74
     0
 42
0.0000000001
 43
0.0000000001
 40
2.927394529176593
 40
2.927394529176593
 40
2.927394529176593
 40
3.493077213587356
 40
3.493077213587356
 40
3.493077213587356
 10
6.971270256699031
 20
-40.62481535160799
 30
0.0
 41
1.001966279234436
 10
6.700683216585588
 20
-40.63021968125985
 30
0.0
 41
1.002071468381408
 10
6.426859793925189
 20
-40.63568369120216
 30
0.0
 41
1.002143888145864
  0
SPLINE
  5
19823
330
1F
100
AcDbEntity
  8
AM_0
100
AcDbSpline
210
0.0
220
0.0
230
1.0
 70
     8
 71
     3
 72
    10
 73
     6
 74
     0
 42
0.0000000001
 43
0.0000000001
 40
6.07484413000227
 40
6.07484413000227
 40
6.07484413000227
 40
6.07484413000227
 40
6.368377381024622
 40
6.368377381024622
 40
7.014029013001848
 40
7.014029013001848
 40
7.014029013001848
 40
7.014029013001848
 10
4.651791234474615
 20
-45.35927195049462
 30
0.0
 10
4.74358928981394
 20
-45.35615614331505
 30
0.0
 10
4.835453643115841
 20
-45.3522626712159
 30
0.0
 10
5.129512479228083
 20
-45.33733243674067
 30
0.0
 10
5.331790084899239
 20
-45.32338138041229
 30
0.0
 10
5.533915412427575
 20
-45.30565051392242
 30
0.0
  0
SPLINE
  5
19824
330
1F
100
AcDbEntity
  8
AM_0
100
AcDbSpline
210
0.0
220
0.0
230
1.0
 70
     8
 71
     3
 72
    26
 73
    22
 74
     0
 42
0.0000000001
 43
0.0000000001
 40
2.837810922887693
 40
2.837810922887693
 40
2.837810922887693
 40
2.837810922887693
 40
3.028745233694218
 40
3.028745233694218
 40
3.544476182820849
 40
3.544476182820849
 40
3.802341657384165
 40
3.802341657384165
 40
4.060207131947481
 40
4.060207131947481
 40
4.291857873557581
 40
4.291857873557581
 40
4.523508615167682
 40
4.523508615167682
 40
4.986810098387883
 40
4.986810098387883
 40
5.51901060667813
 40
5.51901060667813
 40
6.051211114968377
 40
6.051211114968377
 40
6.342049726009302
 40
6.342049726009302
 40
6.342049726009302
 40
6.342049726009302
 10
2.483000177467488
 20
-45.28238000433598
 30
0.0
 10
2.51990609077086
 20
-45.26031962942972
 30
0.0
 10
2.559383171527543
 20
-45.23817796281497
 30
0.0
 10
2.711627334308901
 20
-45.15832267269221
 30
0.0
 10
2.852370034674209
 20
-45.09511265536312
 30
0.0
 10
3.089254217295093
 20
-45.01892871921638
 30
0.0
 10
3.17251213367615
 20
-44.99665186539173
 30
0.0
 10
3.34260628658916
 20
-44.96200491917838
 30
0.0
 10
3.429456129189987
 20
-44.94967414393705
 30
0.0
 10
3.59200728225062
 20
-44.93711486259929
 30
0.0
 10
3.670562110918468
 20
-44.93559825183593
 30
0.0
 10
3.824713605968441
 20
-44.94190078382633
 30
0.0
 10
3.900315791309481
 20
-44.9496948295608
 30
0.0
 10
4.114840626879868
 20
-44.9839101321877
 30
0.0
 10
4.241415094256411
 20
-45.02126258920774
 30
0.0
 10
4.453034288890535
 20
-45.10245935461734
 30
0.0
 10
4.547452694090111
 20
-45.15317567947272
 30
0.0
 10
4.670042221193853
 20
-45.24490601502623
 30
0.0
 10
4.697964310951534
 20
-45.28559851935336
 30
0.0
 10
4.689399006390772
 20
-45.33220048826811
 30
0.0
 10
4.676400662271021
 20
-45.34699714959294
 30
0.0
 10
4.651791234474615
 20
-45.35927195049462
 30
0.0
  0
SPLINE
  5
19825
330
1F
100
AcDbEntity
  8
AM_0
100
AcDbSpline
210
0.0
220
0.0
230
1.0
 70
     8
 71
     3
 72
    10
 73
     6
 74
     0
 42
0.0000000001
 43
0.0000000001
 40
1.678064325888486
 40
1.678064325888486
 40
1.678064325888486
 40
1.678064325888486
 40
3.184188690512311
 40
3.184188690512311
 40
3.737390731677487
 40
3.737390731677487
 40
3.737390731677487
 40
3.737390731677487
 10
0.6488257735890102
 20
-44.94769080727662
 30
0.0
 10
1.083069893602385
 20
-45.0624808160465
 30
0.0
 10
1.528152673482339
 20
-45.15176941792001
 30
0.0
 10
2.147355218996154
 20
-45.24270448396163
 30
0.0
 10
2.314734251805135
 20
-45.26404199060042
 30
0.0
 10
2.483000177467488
 20
-45.28238000433598
 30
0.0
  0
ELLIPSE
  5
19826
330
1F
100
AcDbEntity
  8
AM_0
100
AcDbEllipse
 10
0.8774482809695883
 20
-40.86859067659771
 30
0.0
 11
1.162785938258896E-14
 21
-4.844306008576631
 31
0.0
210
0.0
220
0.0
230
1.0
 40
0.0874912265223406
 41
5.195717560075515
 42
5.713443255510208
  0
SPLINE
  5
19827
330
1F
100
AcDbEntity
  8
AM_0
100
AcDbSpline
210
0.0
220
0.0
230
1.0
 70
    12
 71
     2
 72
     6
 73
     3
 74
     0
 42
0.0000000001
 43
0.0000000001
 40
1.315183539228414
 40
1.315183539228414
 40
1.315183539228414
 40
1.445544594809881
 40
1.445544594809881
 40
1.445544594809881
 10
6.253457243997502
 20
-42.96020181220904
 30
0.0
 41
1.000731759452702
 10
6.191443974225876
 20
-42.96144014236756
 30
0.0
 41
1.000759660296621
 10
6.129264467549632
 20
-42.96268153750093
 30
0.0
 41
1.000785902828013
  0
LINE
  5
19828
330
1F
100
AcDbEntity
  8
AM_0
100
AcDbLine
 10
6.500578254401319
 20
-40.44115280075476
 30
0.0
 11
6.426859793925189
 21
-40.63568369120219
 31
0.0
  0
ELLIPSE
  5
19829
330
1F
100
AcDbEntity
  8
AM_0
100
AcDbEllipse
 10
6.626104491393448
 20
-40.92167446662839
 30
0.0
 11
-0.608560089198661
 21
-4.341329893845277
 31
0.0
210
0.0
220
0.0
230
0.9999999999999999
 40
0.05415897823235
 41
4.654058602473323
 42
4.976079650659067
  0
LINE
  5
1982A
330
1F
100
AcDbEntity
  8
AM_0
100
AcDbLine
 10
4.993916324641646
 20
-39.34403926262817
 30
0.0
 11
5.002793555130893
 21
-39.27810617853527
 31
0.0
  0
ELLIPSE
  5
1982B
330
1F
100
AcDbEntity
  8
AM_0
100
AcDbEllipse
 10
6.610498179046203
 20
-40.87606687278074
 30
0.0
 11
-0.08604725453319222
 21
-4.342750836439125
 31
0.0
210
0.0
220
0.0
230
1.0
 40
0.0829156752899967
 41
4.980923804995204
 42
5.214584669312462
  0
SPLINE
  5
1982C
330
1F
100
AcDbEntity
  8
AM_0
100
AcDbSpline
210
0.0
220
0.0
230
1.0
 70
    28
 71
     2
 72
     6
 73
     3
 74
     0
 42
0.0000000001
 43
0.0000000001
 40
0.0
 40
0.0
 40
0.0
 40
0.6411910719227605
 40
0.6411910719227605
 40
0.6411910719227605
 10
17.25
 20
-37.36859067659771
 30
0.0
 41
1.0
 10
17.35252667120323
 20
-37.36859067659771
 30
0.0
 41
1.002912458754656
 10
17.5
 20
-37.36859067659771
 30
0.0
 41
1.0
  0
LINE
  5
1982D
330
1F
100
AcDbEntity
  8
AM_0
100
AcDbLine
 10
17.5
 20
-44.86859067659771
 30
0.0
 11
17.5
 21
-37.36859067659771
 31
0.0
  0
LINE
  5
1982E
330
1F
100
AcDbEntity
  8
AM_0
100
AcDbLine
 10
17.5
 20
-37.36859067659771
 30
0.0
 11
99.5
 21
-37.36859067659772
 31
0.0
  0
LINE
  5
1982F
330
1F
100
AcDbEntity
  8
AM_0
100
AcDbLine
 10
99.0
 20
-44.36859067659775
 30
0.0
 11
99.0
 21
-37.36859067659772
 31
0.0
  0
LINE
  5
19830
330
1F
100
AcDbEntity
  8
AM_0
100
AcDbLine
 10
19.0
 20
-44.36859067659771
 30
0.0
 11
99.5
 21
-44.36859067659772
 31
0.0
  0
LINE
  5
19831
330
1F
100
AcDbEntity
  8
AM_0
100
AcDbLine
 10
19.0
 20
-44.36859067659771
 30
0.0
 11
19.0
 21
-44.86859067659771
 31
0.0
  0
SPLINE
  5
19833
330
1F
100
AcDbEntity
  8
AM_0
100
AcDbSpline
210
0.0
220
0.0
230
1.0
 70
     8
 71
     3
 72
    12
 73
     8
 74
     0
 42
0.0000000001
 43
0.0000000001
 40
22.62964212683349
 40
22.62964212683349
 40
22.62964212683349
 40
22.62964212683349
 40
23.30345367894325
 40
23.30345367894325
 40
24.40700201325115
 40
24.40700201325115
 40
25.22355782836084
 40
25.22355782836084
 40
25.22355782836084
 40
25.22355782836084
 10
9.689727677144674
 20
-40.22548939616075
 30
0.0
 10
9.46061850514127
 20
-40.29196870166032
 30
0.0
 10
9.226521525114379
 20
-40.35003183412783
 30
0.0
 10
8.602770158724638
 20
-40.48083772835417
 30
0.0
 10
8.209026813333765
 20
-40.53921298603987
 30
0.0
 10
7.532989680794003
 20
-40.60357475649255
 30
0.0
 10
7.248335994859644
 20
-40.61928162545237
 30
0.0
 10
6.97127025669937
 20
-40.62481535160799
 30
0.0
  0
ELLIPSE
  5
19834
330
1F
100
AcDbEntity
  8
AM_0
100
AcDbEllipse
 10
7.579434536172698
 20
-31.1165279799616
 30
0.0
 11
-1.583800696950934
 21
-10.1141210716177
 31
0.0
210
0.0
220
0.0
230
0.9999999999999999
 40
0.0918204509016148
 41
0.4123570247633124
 42
0.5948347105375157
  0
ELLIPSE
  5
19835
330
1F
100
AcDbEntity
  8
AM_0
100
AcDbEllipse
 10
5.466825474201585
 20
-30.29219451408707
 30
0.0
 11
-2.485093769365436
 21
-9.72466194022493
 31
0.0
210
0.0
220
0.0
230
1.0
 40
0.7067705351368017
 41
0.5287228972687457
 42
0.5759029632729621
  0
SPLINE
  5
19836
330
1F
100
AcDbEntity
  8
AM_0
100
AcDbSpline
210
0.0
220
0.0
230
1.0
 70
     8
 71
     3
 72
    24
 73
    20
 74
     0
 42
0.0000000001
 43
0.0000000001
 40
1.569723143556266
 40
1.569723143556266
 40
1.569723143556266
 40
1.569723143556266
 40
1.893860304320462
 40
1.893860304320462
 40
2.375810329227346
 40
2.375810329227346
 40
2.857760354134229
 40
2.857760354134229
 40
3.333363264872707
 40
3.333363264872707
 40
3.808966175611185
 40
3.808966175611185
 40
4.280496789383228
 40
4.280496789383228
 40
4.75202740315527
 40
4.75202740315527
 40
5.238041477914594
 40
5.238041477914594
 40
5.397675586923678
 40
5.397675586923678
 40
5.397675586923678
 40
5.397675586923678
 10
5.353852026783216
 20
-39.1335391067654
 30
0.0
 10
5.433435515214342
 20
-39.09813458563912
 30
0.0
 10
5.522946375638526
 20
-39.06319718937473
 30
0.0
 10
5.751202282646545
 20
-38.98260526677734
 30
0.0
 10
5.911883869446797
 20
-38.93336131931773
 30
0.0
 10
6.241990769842289
 20
-38.84873998940736
 30
0.0
 10
6.411453962943483
 20
-38.81353830495732
 30
0.0
 10
6.713276628919459
 20
-38.76826643341002
 30
0.0
 10
6.866339592318582
 20
-38.75490895940465
 30
0.0
 10
7.131292726127583
 20
-38.75979110594528
 30
0.0
 10
7.243165405617219
 20
-38.77832197795792
 30
0.0
 10
7.401020972515255
 20
-38.83991672774431
 30
0.0
 10
7.457229213076289
 20
-38.88654440640897
 30
0.0
 10
7.500768982148941
 20
-39.0005288368879
 30
0.0
 10
7.488178239869114
 20
-39.0676256245726
 30
0.0
 10
7.409184614536002
 20
-39.19896956607497
 30
0.0
 10
7.335757816582941
 20
-39.27223566844776
 30
0.0
 10
7.200665226483238
 20
-39.36229399072496
 30
0.0
 10
7.164329544026771
 20
-39.38400133818124
 30
0.0
 10
7.125615097268565
 20
-39.40479430532827
 30
0.0
  0
ELLIPSE
  5
19837
330
1F
100
AcDbEntity
  8
AM_0
100
AcDbEllipse
 10
4.171954977543919
 20
-29.78694008553109
 30
0.0
 11
2.485093769365492
 21
9.724661940224911
 31
0.0
210
0.0
220
0.0
230
1.0
 40
0.7067705351368122
 41
3.602461794320867
 42
3.650962557358786
  0
ELLIPSE
  5
19838
330
1F
100
AcDbEntity
  8
AM_0
100
AcDbEllipse
 10
3.079994229332726
 20
-29.36086040785892
 30
0.0
 11
10.82227969294067
 21
-2.173620707947543
 31
0.0
210
0.0
220
0.0
230
1.0
 40
0.9028719331445749
 41
4.952876918517772
 42
5.0675008477543
  0
SPLINE
  5
1983D
330
1F
100
AcDbEntity
  8
AM_0
100
AcDbSpline
210
0.0
220
0.0
230
1.0
 70
     8
 71
     3
 72
    10
 73
     6
 74
     0
 42
0.0000000001
 43
0.0000000001
 40
23.88385800614017
 40
23.88385800614017
 40
23.88385800614017
 40
23.88385800614017
 40
25.09807646884481
 40
25.09807646884481
 40
25.10486866855917
 40
25.10486866855917
 40
25.10486866855917
 40
25.10486866855917
 10
3.774198885549936
 20
-38.84211278729867
 30
0.0
 10
3.356979481997541
 20
-38.87589474394429
 30
0.0
 10
2.943437503032385
 20
-38.89258840243861
 30
0.0
 10
2.53643394889275
 20
-38.89258840243861
 30
0.0
 10
2.534167869914313
 20
-38.892587884759
 30
0.0
 10
2.531899797052631
 20
-38.8925868464973
 30
0.0
  0
LINE
  5
1983E
330
1F
100
AcDbEntity
  8
AM_0
100
AcDbLine
 10
2.531899797072356
 20
-38.89258687230961
 30
0.0
 11
1.159497599739552
 21
-38.89195863760637
 31
0.0
  0
LINE
  5
19843
330
1F
100
AcDbEntity
  8
AM_0
100
AcDbLine
 10
12.99999999951638
 20
-37.36859067659771
 30
0.0
 11
17.25
 21
-37.36859067659771
 31
0.0
  0
LINE
  5
19844
330
1F
100
AcDbEntity
  8
AM_0
100
AcDbLine
 10
17.25
 20
-44.61859067659771
 30
0.0
 11
17.25
 21
-37.36859067659771
 31
0.0
  0
ELLIPSE
  5
19845
330
1F
100
AcDbEntity
  8
AM_0
100
AcDbEllipse
 10
5.261177131254271
 20
-40.86859067659771
 30
0.0
 11
7.786921099650864
 21
3.421733513809072
 31
0.0
210
0.0
220
0.0
230
0.9999999999999998
 40
0.1970423465540672
 41
0.7887422438280256
 42
1.019513885183851
  0
SPLINE
  5
19846
330
1F
100
AcDbEntity
  8
AM_0
100
AcDbSpline
210
0.0
220
0.0
230
1.0
 70
     8
 71
     3
 72
    10
 73
     6
 74
     0
 42
0.0000000001
 43
0.0000000001
 40
18.90284137240264
 40
18.90284137240264
 40
18.90284137240264
 40
18.90284137240264
 40
18.96190061693806
 40
18.96190061693806
 40
20.87336169936208
 40
20.87336169936208
 40
20.87336169936208
 40
20.87336169936208
 10
8.76546941192936
 20
-37.7693105575417
 30
0.0
 10
8.747478487700448
 20
-37.77474701068729
 30
0.0
 10
8.729455015507938
 20
-37.78019245180843
 30
0.0
 10
8.127024608804675
 20
-37.96214707989009
 30
0.0
 10
7.508381993909097
 20
-38.146306051534
 30
0.0
 10
6.870054337451336
 20
-38.30822812065713
 30
0.0
  0
SPLINE
  5
19847
330
1F
100
AcDbEntity
  8
AM_0
100
AcDbSpline
210
0.0
220
0.0
230
1.0
 70
     8
 71
     3
 72
    10
 73
     6
 74
     0
 42
0.0000000001
 43
0.0000000001
 40
1.019177341026399
 40
1.019177341026399
 40
1.019177341026399
 40
1.019177341026399
 40
1.823239347089656
 40
1.823239347089656
 40
2.361598452198349
 40
2.361598452198349
 40
2.361598452198349
 40
2.361598452198349
 10
5.168778559201996
 20
-38.76833981037942
 30
0.0
 10
4.895922374334532
 20
-38.79024127434201
 30
0.0
 10
4.617308386315813
 20
-38.8076719418346
 30
0.0
 10
4.149831842162087
 20
-38.82973084595977
 30
0.0
 10
3.961756962596269
 20
-38.83670645020902
 30
0.0
 10
3.774198885549936
 20
-38.84211278729867
 30
0.0
  0
SPLINE
  5
19848
330
1F
100
AcDbEntity
  8
AM_0
100
AcDbSpline
210
0.0
220
0.0
230
1.0
 70
     8
 71
     3
 72
    16
 73
    12
 74
     0
 42
0.0000000001
 43
0.0000000001
 40
4.077500155866777
 40
4.077500155866777
 40
4.077500155866777
 40
4.077500155866777
 40
4.353039277862639
 40
4.353039277862639
 40
5.001909057709092
 40
5.001909057709092
 40
5.371521290496647
 40
5.371521290496647
 40
5.741133523284201
 40
5.741133523284201
 40
5.769616179337404
 40
5.769616179337404
 40
5.769616179337404
 40
5.769616179337404
 10
6.870054337451336
 20
-38.30822812065713
 30
0.0
 10
6.784878597500892
 20
-38.35016191629615
 30
0.0
 10
6.696136266365215
 20
-38.39017155079768
 30
0.0
 10
6.391995125541143
 20
-38.51509410405527
 30
0.0
 10
6.16729570577786
 20
-38.58677554760988
 30
0.0
 10
5.837958561339121
 20
-38.66874448972754
 30
0.0
 10
5.706012611642223
 20
-38.69645242086881
 30
0.0
 10
5.443509437909995
 20
-38.74006432355628
 30
0.0
 10
5.312975174481721
 20
-38.75600317507212
 30
0.0
 10
5.186862074583473
 20
-38.76686179330145
 30
0.0
 10
5.177825681660693
 20
-38.76761362113581
 30
0.0
 10
5.168778559201996
 20
-38.76833981037942
 30
0.0
  0
LINE
  5
19849
330
1F
100
AcDbEntity
  8
AM_0
100
AcDbLine
 10
0.7860655985466565
 20
6.577191456328272
 30
0.0
 11
0.5559341147018131
 21
6.091276821387559
 31
0.0
  0
LINE
  5
1984A
330
1F
100
AcDbEntity
  8
AM_0
100
AcDbLine
 10
6.581678014696763
 20
6.944005888865057
 30
0.0
 11
6.830038855825706
 21
6.560484505454006
 31
0.0
  0
LINE
  5
1984B
330
1F
100
AcDbEntity
  8
AM_0
100
AcDbLine
 10
100.0
 20
8.499999999999957
 30
0.0
 11
99.0
 21
9.499999999999957
 31
0.0
  0
LINE
  5
1984C
330
1F
100
AcDbEntity
  8
AM_0
100
AcDbLine
 10
100.0
 20
2.499999999999986
 30
0.0
 11
99.0
 21
1.499999999999986
 31
0.0
  0
LINE
  5
1984D
330
1F
100
AcDbEntity
  8
AM_0
100
AcDbLine
 10
10.25
 20
1.749999999999993
 30
0.0
 11
9.689727677144674
 21
1.426526623580024
 31
0.0
  0
LINE
  5
1984E
330
1F
100
AcDbEntity
  8
AM_0
100
AcDbLine
 10
9.689727677144674
 20
1.426526623579996
 30
0.0
 11
6.437331254051003
 21
1.141978807267059
 31
0.0
  0
LINE
  5
1984F
330
1F
100
AcDbEntity
  8
AM_0
100
AcDbLine
 10
17.25
 20
1.749999999999993
 30
0.0
 11
17.5
 21
1.499999999999993
 31
0.0
  0
LINE
  5
19850
330
1F
100
AcDbEntity
  8
AM_0
100
AcDbLine
 10
17.5
 20
1.499999999999993
 30
0.0
 11
54.75
 21
1.499999999999993
 31
0.0
  0
LINE
  5
19851
330
1F
100
AcDbEntity
  8
AM_0
100
AcDbLine
 10
29.56720591001226
 20
9.499999999999965
 30
0.0
 11
54.75
 21
9.499999999999965
 31
0.0
  0
LINE
  5
19852
330
1F
100
AcDbEntity
  8
AM_0
100
AcDbLine
 10
10.25
 20
1.749999999999993
 30
0.0
 11
17.25
 21
1.749999999999993
 31
0.0
  0
LINE
  5
19853
330
1F
100
AcDbEntity
  8
AM_0
100
AcDbLine
 10
10.25
 20
9.249999999999965
 30
0.0
 11
10.33662045662732
 21
9.249999999999965
 31
0.0
  0
LINE
  5
19854
330
1F
100
AcDbEntity
  8
AM_0
100
AcDbLine
 10
6.04881366751755
 20
0.4929644966114424
 30
0.0
 11
0.4357490513000926
 21
0.0015637636054393
 31
0.0
  0
ELLIPSE
  5
19855
330
1F
100
AcDbEntity
  8
AM_0
100
AcDbEllipse
 10
0.399999948002062
 20
0.3897441171234775
 30
0.0
 11
-0.399998972823268
 21
-0.0009064989412937453
 31
0.0
210
0.0
220
0.0
230
0.9999999999999999
 40
0.9743601593930731
 41
6.195936415703362
 42
7.941265667697703
  0
LINE
  5
19856
330
1F
100
AcDbEntity
  8
AM_0
100
AcDbLine
 10
0.0014455141152894
 20
0.4228025902563388
 30
0.0
 11
0.4801251475875006
 21
5.894135837109893
 31
0.0
  0
ELLIPSE
  5
19857
330
1F
100
AcDbEntity
  8
AM_0
100
AcDbEllipse
 10
0.8786795814742163
 20
5.861077363977039
 30
0.0
 11
-0.399998972823268
 21
-0.0009064989412937453
 31
0.0
210
0.0
220
0.0
230
0.9999999999999999
 40
0.9743601593930731
 41
4.799673014107928
 42
6.195936415703363
  0
ELLIPSE
  5
19858
330
1F
100
AcDbEntity
  8
AM_0
100
AcDbEllipse
 10
0.8774660386213213
 20
6.521561601786225
 30
0.0
 11
0.1077724682969463
 21
0.0002442396982228267
 31
0.0
210
0.0
220
0.0
230
1.0
 40
0.9743601593930731
 41
1.658080360518098
 42
2.580948854879709
  0
LINE
  5
19859
330
1F
100
AcDbEntity
  8
AM_0
100
AcDbLine
 10
5.010840740457468
 20
6.614141127543626
 30
0.0
 11
6.455995094393586
 21
6.74065845050108
 31
0.0
  0
LINE
  5
1985A
330
1F
100
AcDbEntity
  8
AM_0
100
AcDbLine
 10
0.8429304781761857
 20
6.249257717495077
 30
0.0
 11
3.751583452248724
 21
6.503898328506345
 31
0.0
  0
LINE
  5
1985B
330
1F
100
AcDbEntity
  8
AM_0
100
AcDbLine
 10
0.9800774611563838
 20
6.635976203106473
 30
0.0
 11
0.8678340911324085
 21
6.626149757470067
 31
0.0
  0
LINE
  5
1985C
330
1F
100
AcDbEntity
  8
AM_0
100
AcDbLine
 10
6.480898707349866
 20
6.99255049047607
 30
0.0
 11
5.304949203870763
 21
6.889600945530837
 31
0.0
  0
ELLIPSE
  5
1985D
330
1F
100
AcDbEntity
  8
AM_0
100
AcDbEllipse
 10
6.491744197691673
 20
6.352478096983042
 30
0.0
 11
-0.399998972823268
 21
-0.0009064989412937453
 31
0.0
210
0.0
220
0.0
230
0.9999999999999999
 40
0.9743601593930731
 41
3.054343762113579
 42
4.79967301410791
  0
ELLIPSE
  5
1985E
330
1F
100
AcDbEntity
  8
AM_0
100
AcDbEllipse
 10
6.490530654838722
 20
6.887962334792228
 30
0.0
 11
0.1077724682969463
 21
0.0002442396982228267
 31
0.0
210
0.0
220
0.0
230
1.0
 40
0.9743601593930731
 41
0.5606437987101216
 42
1.658080360518131
  0
LINE
  5
1985F
330
1F
100
AcDbEntity
  8
AM_0
100
AcDbLine
 10
6.890298631578446
 20
6.319419623850159
 30
0.0
 11
6.411618998106292
 21
0.8480863769965978
 31
0.0
  0
ELLIPSE
  5
19860
330
1F
100
AcDbEntity
  8
AM_0
100
AcDbEllipse
 10
6.013064564219462
 20
0.8811448501294805
 30
0.0
 11
-0.399998972823268
 21
-0.0009064989412937453
 31
0.0
210
0.0
220
0.0
230
0.9999999999999999
 40
0.9743601593930731
 41
1.658080360518108
 42
3.054343762113593
  0
LINE
  5
19863
330
1F
100
AcDbEntity
  8
AM_0
100
AcDbLine
 10
100.0
 20
2.499999999999986
 30
0.0
 11
100.0
 21
8.499999999999957
 31
0.0
  0
SPLINE
  5
19864
330
1F
100
AcDbEntity
  8
AM_0
100
AcDbSpline
210
0.0
220
0.0
230
1.0
 70
    12
 71
     2
 72
     6
 73
     3
 74
     0
 42
0.0000000001
 43
0.0000000001
 40
0.0
 40
0.0
 40
0.0
 40
0.6411910719227605
 40
0.6411910719227605
 40
0.6411910719227605
 10
17.5
 20
7.436491673103653
 30
0.0
 41
1.0
 10
17.35252667120323
 20
7.131872075002967
 30
0.0
 41
1.002912458754656
 10
17.25
 20
6.846291201783593
 30
0.0
 41
1.0
  0
SPLINE
  5
19865
330
1F
100
AcDbEntity
  8
AM_0
100
AcDbSpline
210
0.0
220
0.0
230
1.0
 70
    12
 71
     2
 72
     6
 73
     3
 74
     0
 42
0.0000000001
 43
0.0000000001
 40
0.0
 40
0.0
 40
0.0
 40
4.0
 40
4.0
 40
4.0
 10
99.0
 20
3.563508326896269
 30
0.0
 41
1.0
 10
99.93749999999977
 20
5.49999999999995
 30
0.0
 41
1.142857142857143
 10
99.0
 20
7.436491673103646
 30
0.0
 41
1.0
  0
LINE
  5
19869
330
1F
100
AcDbEntity
  8
AM_0
100
AcDbLine
 10
0.9580618834763186
 20
6.259336998747806
 30
0.0
 11
3.751583452251794
 21
6.503898328506629
 31
0.0
  0
LINE
  5
1986A
330
1F
100
AcDbEntity
  8
AM_0
100
AcDbLine
 10
1.159497599739552
 20
8.686757771281002
 30
0.0
 11
0.9470413915813083
 21
6.258372199985352
 31
0.0
  0
SPLINE
  5
1986B
330
1F
100
AcDbEntity
  8
AM_0
100
AcDbSpline
210
0.0
220
0.0
230
1.0
 70
    12
 71
     2
 72
     6
 73
     3
 74
     0
 42
0.0000000001
 43
0.0000000001
 40
2.927394529176593
 40
2.927394529176593
 40
2.927394529176593
 40
3.481690471509641
 40
3.481690471509641
 40
3.481690471509641
 10
6.971270256699031
 20
1.195589858523605
 30
0.0
 41
1.001966279234436
 10
6.706129358037515
 20
1.172055957038246
 30
0.0
 41
1.002069351007624
 10
6.437881390114171
 20
1.14826689124299
 30
0.0
 41
1.002140959363801
  0
LINE
  5
1986C
330
1F
100
AcDbEntity
  8
AM_0
100
AcDbLine
 10
9.689727677144674
 20
1.426526623579996
 30
0.0
 11
9.689727677144674
 21
1.477611891984701
 31
0.0
  0
LINE
  5
1986E
330
1F
100
AcDbEntity
  8
AM_0
100
AcDbLine
 10
6.500578254401319
 20
1.864895329264122
 30
0.0
 11
6.426859793925189
 21
1.022289470342734
 31
0.0
  0
ELLIPSE
  5
1986F
330
1F
100
AcDbEntity
  8
AM_0
100
AcDbEllipse
 10
6.238419236496839
 20
6.641190103516401
 30
0.0
 11
-1.249996790072715
 21
-0.00283280919154296
 31
0.0
210
0.0
220
0.0
230
1.0
 40
0.9743601593930727
 41
2.356212061315826
 42
2.871113476622405
  0
LINE
  5
19870
330
1F
100
AcDbEntity
  8
AM_0
100
AcDbLine
 10
7.124267679034119
 20
5.781989736547807
 30
0.0
 11
6.816963344643796
 21
5.481193458549051
 31
0.0
  0
LINE
  5
19871
330
1F
100
AcDbEntity
  8
AM_0
100
AcDbLine
 10
6.788073561973192
 20
4.878805117814885
 30
0.0
 11
6.765613209716321
 21
4.894258730574698
 31
0.0
  0
SPLINE
  5
19872
330
1F
100
AcDbEntity
  8
AM_0
100
AcDbSpline
210
0.0
220
0.0
230
1.0
 70
    12
 71
     2
 72
     6
 73
     3
 74
     0
 42
0.0000000001
 43
0.0000000001
 40
0.0
 40
0.0
 40
0.0
 40
0.6411910719227605
 40
0.6411910719227605
 40
0.6411910719227605
 10
17.25
 20
4.153708798216364
 30
0.0
 41
1.0
 10
17.35252667120323
 20
3.868127924996962
 30
0.0
 41
1.002912458754656
 10
17.5
 20
3.563508326896276
 30
0.0
 41
1.0
  0
SPLINE
  5
19873
330
1F
100
AcDbEntity
  8
AM_0
100
AcDbSpline
210
0.0
220
0.0
230
1.0
 70
    12
 71
     2
 72
     6
 73
     3
 74
     0
 42
0.0000000001
 43
0.0000000001
 40
0.0
 40
0.0
 40
0.0
 40
0.3688252596023173
 40
0.3688252596023173
 40
0.3688252596023173
 10
17.5
 20
8.89129261748419
 30
0.0
 41
1.0
 10
17.37025601302923
 20
8.753461479876044
 30
0.0
 41
1.000612689966304
 10
17.25
 20
8.624244788367939
 30
0.0
 41
1.0
  0
SPLINE
  5
19874
330
1F
100
AcDbEntity
  8
AM_0
100
AcDbSpline
210
0.0
220
0.0
230
1.0
 70
    12
 71
     2
 72
     6
 73
     3
 74
     0
 42
0.0000000001
 43
0.0000000001
 40
0.0
 40
0.0
 40
0.0
 40
0.3688252596023183
 40
0.3688252596023183
 40
0.3688252596023183
 10
17.25
 20
9.145189321368711
 30
0.0
 41
1.0
 10
17.37025601302901
 20
9.274406012876625
 30
0.0
 41
1.000612689974531
 10
17.5
 20
9.412237150484963
 30
0.0
 41
1.0
  0
LINE
  5
19875
330
1F
100
AcDbEntity
  8
AM_0
100
AcDbLine
 10
17.5
 20
9.412237150484963
 30
0.0
 11
27.05956749852771
 21
9.412237150484963
 31
0.0
  0
LINE
  5
19876
330
1F
100
AcDbEntity
  8
AM_0
100
AcDbLine
 10
17.5
 20
1.499999999999993
 30
0.0
 11
17.5
 21
3.563508326896276
 31
0.0
  0
LINE
  5
19877
330
1F
100
AcDbEntity
  8
AM_0
100
AcDbLine
 10
17.5
 20
3.563508326896276
 30
0.0
 11
54.75
 21
3.563508326896276
 31
0.0
  0
LINE
  5
19878
330
1F
100
AcDbEntity
  8
AM_0
100
AcDbLine
 10
99.0
 20
1.499999999999986
 30
0.0
 11
99.0
 21
3.563508326896269
 31
0.0
  0
LINE
  5
19879
330
1F
100
AcDbEntity
  8
AM_0
100
AcDbLine
 10
99.0
 20
7.436491673103646
 30
0.0
 11
99.0
 21
9.499999999999929
 31
0.0
  0
LINE
  5
1987A
330
1F
100
AcDbEntity
  8
AM_0
100
AcDbLine
 10
99.0
 20
7.436491673103646
 30
0.0
 11
67.74999999999994
 21
7.436491673103646
 31
0.0
  0
LINE
  5
1987B
330
1F
100
AcDbEntity
  8
AM_0
100
AcDbLine
 10
17.5
 20
7.436491673103653
 30
0.0
 11
17.5
 21
8.891292617484162
 31
0.0
  0
LINE
  5
1987C
330
1F
100
AcDbEntity
  8
AM_0
100
AcDbLine
 10
27.05956749852777
 20
8.891292617484162
 30
0.0
 11
17.5
 21
8.891292617484162
 31
0.0
  0
LINE
  5
1987D
330
1F
100
AcDbEntity
  8
AM_0
100
AcDbLine
 10
12.86234313625977
 20
9.145189321368711
 30
0.0
 11
12.86234313625977
 21
8.624244788367939
 31
0.0
  0
LINE
  5
1987E
330
1F
100
AcDbEntity
  8
AM_0
100
AcDbLine
 10
27.05956749852771
 20
8.891292617484162
 30
0.0
 11
27.05956749852771
 21
9.412237150484963
 31
0.0
  0
SPLINE
  5
1987F
330
1F
100
AcDbEntity
  8
AM_0
100
AcDbSpline
210
0.0
220
0.0
230
1.0
 70
     8
 71
     3
 72
    51
 73
    47
 74
     0
 42
0.0000000001
 43
0.0000000001
 40
4.438156387689694
 40
4.438156387689694
 40
4.438156387689694
 40
4.438156387689694
 40
4.683693861855219
 40
4.683693861855219
 40
5.018529888658483
 40
5.018529888658483
 40
5.353365915461746
 40
5.353365915461746
 40
5.688201942265009
 40
5.688201942265009
 40
6.023037969068272
 40
6.023037969068272
 40
6.357873995871536
 40
6.357873995871536
 40
6.692710022674799
 40
6.692710022674799
 40
7.027044735304256
 40
7.027044735304256
 40
7.361379447933713
 40
7.361379447933713
 40
7.69571416056317
 40
7.69571416056317
 40
8.030048873192627
 40
8.030048873192627
 40
8.364383585822083
 40
8.364383585822083
 40
8.698718298451539
 40
8.698718298451539
 40
9.033053011080995
 40
9.033053011080995
 40
9.367387723710452
 40
9.367387723710452
 40
9.70222375051371
 40
9.70222375051371
 40
10.03705977731697
 40
10.03705977731697
 40
10.37189580412023
 40
10.37189580412023
 40
10.70673183092349
 40
10.70673183092349
 40
10.70673183092349
 40
11.04156785772675
 40
11.04156785772675
 40
11.37640388453001
 40
11.37640388453001
 40
11.62194135869547
 40
11.62194135869547
 40
11.62194135869547
 40
11.62194135869547
 10
27.05956749852771
 20
9.412237150484963
 30
0.0
 10
27.13199228403693
 20
9.40245664502077
 30
0.0
 10
27.2082522663323
 20
9.392893839348311
 30
0.0
 10
27.39459624885859
 20
9.372602273044656
 30
0.0
 10
27.50713088965273
 20
9.362749850959169
 30
0.0
 10
27.73450145935334
 20
9.349492422225858
 30
0.0
 10
27.84934330845931
 20
9.346113360641105
 30
0.0
 10
28.07256732632817
 20
9.346113360641105
 30
0.0
 10
28.18740917543414
 20
9.349492422225858
 30
0.0
 10
28.41477974513475
 20
9.362749850959169
 30
0.0
 10
28.52731438592889
 20
9.372602273044656
 30
0.0
 10
28.74232998751529
 20
9.396015979657356
 30
0.0
 10
28.84501066038484
 20
9.409548962098533
 30
0.0
 10
29.0345838561156
 20
9.436359608200966
 30
0.0
 10
29.12147929755514
 20
9.449586484677234
 30
0.0
 10
29.27518991794517
 20
9.47213999914009
 30
0.0
 10
29.34751047637951
 20
9.482321004746801
 30
0.0
 10
29.47547562265976
 20
9.496530392924903
 30
0.0
 10
29.53113017824398
 20
9.500519243415475
 30
0.0
 10
29.62091066707524
 20
9.499369877085705
 30
0.0
 10
29.65510805500622
 20
9.494202464153226
 30
0.0
 10
29.70013747317751
 20
9.473815357006053
 30
0.0
 10
29.71095531739377
 20
9.4585832165751
 30
0.0
 10
29.71095531739377
 20
9.419878807522501
 30
0.0
 10
29.70013747317751
 20
9.39524641247521
 30
0.0
 10
29.65510805500622
 20
9.33665802576018
 30
0.0
 10
29.62091066707524
 20
9.302713150499038
 30
0.0
 10
29.53113017824398
 20
9.229129370633665
 30
0.0
 10
29.47547562265976
 20
9.189451071550188
 30
0.0
 10
29.34751047637946
 20
9.109394315070908
 30
0.0
 10
29.27518991794511
 20
9.069054258182455
 30
0.0
 10
29.12147929755514
 20
8.993117605482034
 30
0.0
 10
29.03458385611555
 20
8.954768752873768
 30
0.0
 10
28.84501066038479
 20
8.88353296389203
 30
0.0
 10
28.74232998751529
 20
8.850691699766422
 30
0.0
 10
28.52731438592889
 20
8.79612095285858
 30
0.0
 10
28.41477974513475
 20
8.774395059829139
 30
0.0
 10
28.18740917543414
 20
8.745491197645428
 30
0.0
 10
28.07256732632817
 20
8.73834473880688
 30
0.0
 10
27.96095531739377
 20
8.73834473880688
 30
0.0
 10
27.84934330845931
 20
8.73834473880688
 30
0.0
 10
27.73450145935334
 20
8.745491197645428
 30
0.0
 10
27.50713088965273
 20
8.774395059829139
 30
0.0
 10
27.39459624885865
 20
8.79612095285858
 30
0.0
 10
27.2082522663323
 20
8.843414871221789
 30
0.0
 10
27.13199228403698
 20
8.866397121847903
 30
0.0
 10
27.05956749852777
 20
8.891292617484162
 30
0.0
  0
SPLINE
  5
19880
330
1F
100
AcDbEntity
  8
AM_0
100
AcDbSpline
210
0.0
220
0.0
230
1.0
 70
     8
 71
     3
 72
    10
 73
     6
 74
     0
 42
0.0000000001
 43
0.0000000001
 40
9.614889259929251
 40
9.614889259929251
 40
9.614889259929251
 40
9.614889259929251
 40
9.761369825617754
 40
9.761369825617754
 40
10.35390349471554
 40
10.35390349471554
 40
10.35390349471554
 40
10.35390349471554
 10
10.25
 20
1.873833981883585
 30
0.0
 10
10.214347222539
 20
1.846548277666805
 30
0.0
 10
10.17877290401316
 20
1.819835195778602
 30
0.0
 10
10.00060981406921
 20
1.688190600957277
 30
0.0
 10
9.848676417421928
 20
1.582925329623002
 30
0.0
 10
9.689727677144674
 20
1.477611891984701
 30
0.0
  0
SPLINE
  5
19881
330
1F
100
AcDbEntity
  8
AM_0
100
AcDbSpline
210
0.0
220
0.0
230
1.0
 70
     8
 71
     3
 72
    12
 73
     8
 74
     0
 42
0.0000000001
 43
0.0000000001
 40
22.62964212683349
 40
22.62964212683349
 40
22.62964212683349
 40
22.62964212683349
 40
23.30345367894325
 40
23.30345367894325
 40
24.40700201325115
 40
24.40700201325115
 40
25.22355782836084
 40
25.22355782836084
 40
25.22355782836084
 40
25.22355782836084
 10
9.689727677144674
 20
1.477611891984701
 30
0.0
 10
9.46061850514127
 20
1.446684125196519
 30
0.0
 10
9.226521525114379
 20
1.41847889239164
 30
0.0
 10
8.602770158724638
 20
1.348620588269334
 30
0.0
 10
8.209026813333765
 20
1.30972259664815
 30
0.0
 10
7.532989680794003
 20
1.245983601062044
 30
0.0
 10
7.248335994859644
 20
1.22018220855167
 30
0.0
 10
6.97127025669937
 20
1.195589858523441
 30
0.0
  0
ELLIPSE
  5
19882
330
1F
100
AcDbEntity
  8
AM_0
100
AcDbEllipse
 10
7.579434536172698
 20
-2.197033002126467
 30
0.0
 11
1.201433494306439
 21
17.4590674427576
 31
0.0
210
0.0
220
0.0
230
1.0
 40
0.0795186108019132
 41
1.15898812733971
 42
1.341465813113913
  0
ELLIPSE
  5
19883
330
1F
100
AcDbEntity
  8
AM_0
100
AcDbEllipse
 10
5.466825474201585
 20
1.368051867083146
 30
0.0
 11
7.218952653737812
 21
7.416564166020423
 31
0.0
210
0.0
220
0.0
230
1.0
 40
0.1538506377192047
 41
1.185071030873485
 42
1.232251096877701
  0
SPLINE
  5
19884
330
1F
100
AcDbEntity
  8
AM_0
100
AcDbSpline
210
0.0
220
0.0
230
1.0
 70
     8
 71
     3
 72
    24
 73
    20
 74
     0
 42
0.0000000001
 43
0.0000000001
 40
1.569723143556266
 40
1.569723143556266
 40
1.569723143556266
 40
1.569723143556266
 40
1.893860304320462
 40
1.893860304320462
 40
2.375810329227346
 40
2.375810329227346
 40
2.857760354134229
 40
2.857760354134229
 40
3.333363264872707
 40
3.333363264872707
 40
3.808966175611185
 40
3.808966175611185
 40
4.280496789383228
 40
4.280496789383228
 40
4.75202740315527
 40
4.75202740315527
 40
5.238041477914594
 40
5.238041477914594
 40
5.397675586923678
 40
5.397675586923678
 40
5.397675586923678
 40
5.397675586923678
 10
5.353852026783216
 20
6.935037561561096
 30
0.0
 10
5.433435515214342
 20
7.008894828829504
 30
0.0
 10
5.522946375638526
 20
7.070311674817667
 30
0.0
 10
5.751202282646545
 20
7.18693747587735
 30
0.0
 10
5.911883869446797
 20
7.233396312720451
 30
0.0
 10
6.241990769842289
 20
7.258367681941074
 30
0.0
 10
6.411453962943483
 20
7.236974450877305
 30
0.0
 10
6.713276628919459
 20
7.14352841885232
 30
0.0
 10
6.866339592318582
 20
7.065740972164456
 30
0.0
 10
7.131292726127583
 20
6.859107468862185
 30
0.0
 10
7.243165405617219
 20
6.730245969452902
 30
0.0
 10
7.401020972515255
 20
6.463860435470814
 30
0.0
 10
7.457229213076289
 20
6.310091400739388
 30
0.0
 10
7.500768982148941
 20
5.999871225436202
 30
0.0
 10
7.488178239869114
 20
5.843335540528464
 30
0.0
 10
7.409184614536002
 20
5.563361173403983
 30
0.0
 10
7.335757816582941
 20
5.421394797011736
 30
0.0
 10
7.200665226483238
 20
5.260255625009613
 30
0.0
 10
7.164329544026771
 20
5.222534622954662
 30
0.0
 10
7.125615097268565
 20
5.187432054030317
 30
0.0
  0
ELLIPSE
  5
19885
330
1F
100
AcDbEntity
  8
AM_0
100
AcDbEllipse
 10
4.171954977543919
 20
3.553180814183826
 30
0.0
 11
7.218952653737915
 21
7.416564166020249
 31
0.0
210
0.0
220
0.0
230
1.0
 40
0.1538506377192083
 41
1.251604090377456
 42
1.300104853415375
  0
ELLIPSE
  5
19886
330
1F
100
AcDbEntity
  8
AM_0
100
AcDbEllipse
 10
3.079994229332726
 20
5.395894078694077
 30
0.0
 11
10.99834454027648
 21
1.036234927805876
 31
0.0
210
0.0
220
0.0
230
1.0
 40
0.0943849419874099
 41
1.38618158490664
 42
1.500805514143168
  0
LINE
  5
1988D
330
1F
100
AcDbEntity
  8
AM_0
100
AcDbLine
 10
1.159497606561217
 20
8.686757849253119
 30
0.0
 11
1.208774909571559
 21
9.249999999999965
 31
0.0
  0
LINE
  5
1988E
330
1F
100
AcDbEntity
  8
AM_0
100
AcDbLine
 10
1.208774909571559
 20
9.249999999999965
 30
0.0
 11
10.25
 21
9.249999999999965
 31
0.0
  0
LINE
  5
1988F
330
1F
100
AcDbEntity
  8
AM_0
100
AcDbLine
 10
10.25
 20
1.749999999999993
 30
0.0
 11
10.25
 21
1.873833981883585
 31
0.0
  0
LINE
  5
19894
330
1F
100
AcDbEntity
  8
AM_0
100
AcDbLine
 10
17.25
 20
1.749999999999993
 30
0.0
 11
17.25
 21
4.153708798216364
 31
0.0
  0
LINE
  5
19895
330
1F
100
AcDbEntity
  8
AM_0
100
AcDbLine
 10
12.86234313625977
 20
9.145189321368711
 30
0.0
 11
17.25
 21
9.145189321368711
 31
0.0
  0
SPLINE
  5
19896
330
1F
100
AcDbEntity
  8
AM_0
100
AcDbSpline
210
0.0
220
0.0
230
1.0
 70
     8
 71
     3
 72
    51
 73
    47
 74
     0
 42
0.0000000001
 43
0.0000000001
 40
9.814451767954838
 40
9.814451767954838
 40
9.814451767954838
 40
9.814451767954838
 40
10.06013193813936
 40
10.06013193813936
 40
10.39582684983427
 40
10.39582684983427
 40
10.73152176152918
 40
10.73152176152918
 40
10.73152176152918
 40
11.06721667322408
 40
11.06721667322408
 40
11.40291158491899
 40
11.40291158491899
 40
11.7386064966139
 40
11.7386064966139
 40
12.0743014083088
 40
12.0743014083088
 40
12.40932660670947
 40
12.40932660670947
 40
12.74435180511013
 40
12.74435180511013
 40
13.0793770035108
 40
13.0793770035108
 40
13.41440220191146
 40
13.41440220191146
 40
13.74942740031213
 40
13.74942740031213
 40
14.08445259871279
 40
14.08445259871279
 40
14.41947779711346
 40
14.41947779711346
 40
14.75450299551412
 40
14.75450299551412
 40
15.09019790720903
 40
15.09019790720903
 40
15.42589281890394
 40
15.42589281890394
 40
15.76158773059885
 40
15.76158773059885
 40
16.09728264229376
 40
16.09728264229376
 40
16.43297755398867
 40
16.43297755398867
 40
16.76867246568358
 40
16.76867246568358
 40
17.01435263586809
 40
17.01435263586809
 40
17.01435263586809
 40
17.01435263586809
 10
12.86234313625977
 20
8.624244788367939
 30
0.0
 10
12.79012639159532
 20
8.598056798939631
 30
0.0
 10
12.71408171726819
 20
8.573826227621076
 30
0.0
 10
12.52798719607381
 20
8.523806126507928
 30
0.0
 10
12.41544690127159
 20
8.500730038269175
 30
0.0
 10
12.18788359442942
 20
8.469985104733063
 30
0.0
 10
12.07285362129204
 20
8.462353496457347
 30
0.0
 10
11.96095531739377
 20
8.462353496457347
 30
0.0
 10
11.84905701349544
 20
8.462353496457347
 30
0.0
 10
11.73402704035806
 20
8.469985104733063
 30
0.0
 10
11.50646373351589
 20
8.500730038269175
 30
0.0
 10
11.39392343871361
 20
8.523806126507928
 30
0.0
 10
11.17901576273522
 20
8.581570877525017
 30
0.0
 10
11.07644472356662
 20
8.616252995241744
 30
0.0
 10
10.88710410216413
 20
8.691247134352402
 30
0.0
 10
10.80033077518078
 20
8.731510936502069
 30
0.0
 10
10.64685936648709
 20
8.810993908594405
 30
0.0
 10
10.57462649660664
 20
8.853111673596338
 30
0.0
 10
10.44673901685439
 20
8.936455200786234
 30
0.0
 10
10.39107441704834
 20
8.977641382394033
 30
0.0
 10
10.30121938410258
 20
9.05373576230209
 30
0.0
 10
10.26695733013514
 20
9.088685647333186
 30
0.0
 10
10.22181791456779
 20
9.148642120361977
 30
0.0
 10
10.21095531739377
 20
9.173636902070818
 30
0.0
 10
10.21095531739377
 20
9.212421245520652
 30
0.0
 10
10.22181791456779
 20
9.227350246705974
 30
0.0
 10
10.26695733013514
 20
9.246440536639902
 30
0.0
 10
10.30121938410258
 20
9.250615050804775
 30
0.0
 10
10.39107441704834
 20
9.249235798681973
 30
0.0
 10
10.44673901685439
 20
9.243710123303366
 30
0.0
 10
10.57462649660664
 20
9.22613558243841
 30
0.0
 10
10.64685936648709
 20
9.214127802068326
 30
0.0
 10
10.80033077518078
 20
9.187944890863257
 30
0.0
 10
10.88710410216413
 20
9.172774603867246
 30
0.0
 10
11.07644472356657
 20
9.142173471725322
 30
0.0
 10
11.17901576273522
 20
9.126796465063812
 30
0.0
 10
11.39392343871361
 20
9.100206692715794
 30
0.0
 10
11.50646373351589
 20
9.089025228550973
 30
0.0
 10
11.73402704035806
 20
9.073967304525262
 30
0.0
 10
11.84905701349544
 20
9.070122118291572
 30
0.0
 10
12.07285362129204
 20
9.070122118291572
 30
0.0
 10
12.18788359442942
 20
9.073967304525262
 30
0.0
 10
12.41544690127159
 20
9.089025228550973
 30
0.0
 10
12.52798719607381
 20
9.100206692715794
 30
0.0
 10
12.71408171726819
 20
9.123231514566577
 30
0.0
 10
12.79012639159532
 20
9.134072904167873
 30
0.0
 10
12.86234313625977
 20
9.145189321368711
 30
0.0
  0
LINE
  5
19897
330
1F
100
AcDbEntity
  8
AM_0
100
AcDbLine
 10
17.25
 20
8.624244788367939
 30
0.0
 11
12.86234313625977
 21
8.624244788367939
 31
0.0
  0
LINE
  5
19898
330
1F
100
AcDbEntity
  8
AM_0
100
AcDbLine
 10
17.25
 20
6.846291201783593
 30
0.0
 11
17.25
 21
8.624244788367967
 31
0.0
  0
CIRCLE
  5
19A59
330
1F
100
AcDbEntity
  8
AM_0
100
AcDbCircle
 10
3.445872072846839
 20
3.371111107053281
 30
0.0
 40
1.5
  0
ARC
  5
19A5B
330
1F
100
AcDbEntity
  8
AM_0
100
AcDbCircle
 10
4.418114923439248
 20
3.371111107053281
 30
0.0
 40
0.35
100
AcDbArc
 50
133.5311521673586
 51
226.4688478326414
  0
ARC
  5
19A5C
330
1F
100
AcDbEntity
  8
AM_0
100
AcDbCircle
 10
2.959750647550607
 20
4.213098114314306
 30
0.0
 40
0.35
100
AcDbArc
 50
253.5311521673709
 51
346.4688478326228
  0
ARC
  5
19A5D
330
1F
100
AcDbEntity
  8
AM_0
100
AcDbCircle
 10
2.818003655103212
 20
3.733611107053349
 30
0.0
 40
0.1499999999999773
100
AcDbArc
 50
73.53115216737599
 51
226.4688478326391
  0
ARC
  5
19A5E
330
1F
100
AcDbEntity
  8
AM_0
100
AcDbCircle
 10
2.473629222254374
 20
3.371111107053395
 30
0.0
 40
0.35
100
AcDbArc
 50
313.5311521673586
 51
46.46884783262533
  0
ARC
  5
19A5F
330
1F
100
AcDbEntity
  8
AM_0
100
AcDbCircle
 10
3.931993498143129
 20
4.213098114314192
 30
0.0
 40
0.35
100
AcDbArc
 50
193.5311521673574
 51
286.4688478326291
  0
ARC
  5
19A60
330
1F
100
AcDbEntity
  8
AM_0
100
AcDbCircle
 10
4.073740490590581
 20
3.733611107053235
 30
0.0
 40
0.1499999999999773
100
AcDbArc
 50
313.5311521673609
 51
106.4688478326342
  0
ARC
  5
19A61
330
1F
100
AcDbEntity
  8
AM_0
100
AcDbCircle
 10
3.445872072846839
 20
4.096111107053304
 30
0.0
 40
0.1499999999999773
100
AcDbArc
 50
13.53115216736375
 51
166.4688478326343
  0
ARC
  5
19A62
330
1F
100
AcDbEntity
  8
AM_0
100
AcDbCircle
 10
2.959750647550493
 20
2.529124099792483
 30
0.0
 40
0.35
100
AcDbArc
 50
13.53115216735743
 51
106.4688478326203
  0
ARC
  5
19A63
330
1F
100
AcDbEntity
  8
AM_0
100
AcDbCircle
 10
3.445872072846782
 20
2.646111107053372
 30
0.0
 40
0.1499999999999773
100
AcDbArc
 50
193.5311521673637
 51
346.4688478326311
  0
ARC
  5
19A64
330
1F
100
AcDbEntity
  8
AM_0
100
AcDbCircle
 10
3.931993498143015
 20
2.529124099792426
 30
0.0
 40
0.35
100
AcDbArc
 50
73.53115216735546
 51
166.4688478326327
  0
ARC
  5
19A65
330
1F
100
AcDbEntity
  8
AM_0
100
AcDbCircle
 10
4.073740490590581
 20
3.008611107053326
 30
0.0
 40
0.1499999999999773
100
AcDbArc
 50
253.5311521673554
 51
46.46884783263909
  0
ARC
  5
19A66
330
1F
100
AcDbEntity
  8
AM_0
100
AcDbCircle
 10
2.818003655103212
 20
3.008611107053326
 30
0.0
 40
0.1499999999999773
100
AcDbArc
 50
133.5311521673608
 51
286.4688478326256
  0
CIRCLE
  5
19A67
330
1F
100
AcDbEntity
  8
AM_0
100
AcDbCircle
 10
3.445872072846839
 20
3.371111107053281
 30
0.0
 40
0.875
  0
CIRCLE
  5
19A68
330
1F
100
AcDbEntity
  8
AM_0
100
AcDbCircle
 10
3.445872072846839
 20
3.371111107053281
 30
0.0
 40
1.1
  0
LINE
  5
19A74
330
1F
100
AcDbEntity
  8
AM_7
  6
AM_ISO08W050x2
100
AcDbLine
 10
3.445872072846839
 20
7.47111110705324
 30
0.0
 11
3.445872072846839
 21
-0.7288888929467206
 31
0.0
1001
GENIUS_GENODEF_13
1002
{
1000
HIER
1070
     0
1002
}
1002
{
1000
MANEDIT
1070
     0
1002
}
1002
{
1000
NOSEL
1070
     0
1002
}
1002
{
1000
BEHIND
1070
     0
1002
}
1002
{
1000
REACTOR
1002
}
1001
GENIUS_GENOBJ-N-CEN_13
1002
{
1000
OWNER
1000
GEN
1002
}
  0
LINE
  5
19A7C
330
1F
100
AcDbEntity
  8
AM_7
  6
AM_ISO08W050x2
100
AcDbLine
 10
7.320872072846839
 20
3.371111107053274
 30
0.0
 11
-0.4291279271531607
 21
3.371111107053281
 31
0.0
1001
GENIUS_GENODEF_13
1002
{
1000
HIER
1070
     0
1002
}
1002
{
1000
MANEDIT
1070
     0
1002
}
1002
{
1000
NOSEL
1070
     0
1002
}
1002
{
1000
BEHIND
1070
     0
1002
}
1002
{
1000
REACTOR
1002
}
1001
GENIUS_GENOBJ-N-CEN_13
1002
{
1000
OWNER
1000
GEN
1002
}
  0
LINE
  5
1A006
330
1F
100
AcDbEntity
  8
AM_7
100
AcDbLine
 10
105.4588124887482
 20
-40.86859067659772
 30
0.0
 11
-2.430078659907167
 21
-40.86859067659771
 31
0.0
1001
GENIUS_GENODEF_13
1002
{
1000
HIER
1070
     0
1002
}
1002
{
1000
MANEDIT
1070
     0
1002
}
1002
{
1000
NOSEL
1070
     0
1002
}
1002
{
1000
BEHIND
1070
     0
1002
}
1002
{
1000
REACTOR
1002
}
1001
GENIUS_GENOBJ-N-CEN_13
1002
{
1000
OWNER
1000
GEN
1002
}
  0
LINE
  5
1A007
330
1F
100
AcDbEntity
  8
AM_7
100
AcDbLine
 10
105.4588124887482
 20
5.499999999999957
 30
0.0
 11
-2.430078659907167
 21
5.499999999999972
 31
0.0
1001
GENIUS_GENODEF_13
1002
{
1000
HIER
1070
     0
1002
}
1002
{
1000
MANEDIT
1070
     0
1002
}
1002
{
1000
NOSEL
1070
     0
1002
}
1002
{
1000
BEHIND
1070
     0
1002
}
1002
{
1000
REACTOR
1002
}
1001
GENIUS_GENOBJ-N-CEN_13
1002
{
1000
OWNER
1000
GEN
1002
}
  0
ARC
  5
1A075
330
1F
100
AcDbEntity
  8
AM_0
100
AcDbCircle
 10
61.25
 20
5.499999999999965
 30
0.0
 40
4.0
100
AcDbArc
 50
208.9550243718599
 51
331.0449756281394
  0
LINE
  5
1A07E
330
1F
100
AcDbEntity
  8
AM_7
  6
AM_ISO08W050x2
100
AcDbLine
 10
61.25
 20
12.49999999999996
 30
0.0
 11
61.25
 21
-1.500000000000014
 31
0.0
1001
GENIUS_GENODEF_13
1002
{
1000
HIER
1070
     0
1002
}
1002
{
1000
MANEDIT
1070
     0
1002
}
1002
{
1000
NOSEL
1070
     0
1002
}
1002
{
1000
BEHIND
1070
     0
1002
}
1002
{
1000
REACTOR
1002
}
1001
GENIUS_GENOBJ-N-CEN_13
1002
{
1000
OWNER
1000
GEN
1002
}
  0
LINE
  5
1A091
330
1F
100
AcDbEntity
  8
AM_0
100
AcDbLine
 10
57.75
 20
7.436491673103681
 30
0.0
 11
57.75
 21
3.563508326896304
 31
0.0
  0
LINE
  5
1A093
330
1F
100
AcDbEntity
  8
AM_0
100
AcDbLine
 10
64.74999999999994
 20
7.436491673103703
 30
0.0
 11
64.74999999999994
 21
3.56350832689624
 31
0.0
  0
ARC
  5
1A095
330
1F
100
AcDbEntity
  8
AM_0
100
AcDbCircle
 10
61.25
 20
5.499999999999965
 30
0.0
 40
4.0
100
AcDbArc
 50
28.95502437186045
 51
151.04497562814
  0
LINE
  5
1A0A7
330
1F
100
AcDbEntity
  8
AM_0
100
AcDbLine
 10
67.74999999999994
 20
9.499999999999957
 30
0.0
 11
99.0
 21
9.499999999999957
 31
0.0
  0
LINE
  5
1A0A8
330
1F
100
AcDbEntity
  8
AM_0
100
AcDbLine
 10
54.75
 20
7.436491673103653
 30
0.0
 11
17.5
 21
7.436491673103653
 31
0.0
  0
LINE
  5
1A0A9
330
1F
100
AcDbEntity
  8
AM_0
100
AcDbLine
 10
67.74999999999994
 20
3.563508326896269
 30
0.0
 11
99.0
 21
3.563508326896269
 31
0.0
  0
LINE
  5
1A0AA
330
1F
100
AcDbEntity
  8
AM_0
100
AcDbLine
 10
67.74999999999994
 20
1.499999999999986
 30
0.0
 11
99.0
 21
1.499999999999986
 31
0.0
  0
LINE
  5
1A117
330
1F
100
AcDbEntity
  8
AM_7
  6
AM_ISO08W050x2
100
AcDbLine
 10
-31.01429393398746
 20
5.499999999999972
 30
0.0
 11
-47.77419334235549
 21
5.499999999999972
 31
0.0
1001
GENIUS_GENODEF_13
1002
{
1000
HIER
1070
     0
1002
}
1002
{
1000
MANEDIT
1070
     0
1002
}
1002
{
1000
NOSEL
1070
     0
1002
}
1002
{
1000
BEHIND
1070
     0
1002
}
1002
{
1000
REACTOR
1002
}
1001
GENIUS_GENOBJ-N-CEN_13
1002
{
1000
OWNER
1000
GEN
1002
}
  0
LINE
  5
1A11D
330
1F
100
AcDbEntity
  8
AM_7
  6
AM_ISO08W050x2
100
AcDbLine
 10
-39.0428488496803
 20
12.3945099645716
 30
0.0
 11
-39.0428488496803
 21
-2.194777735745873
 31
0.0
1001
GENIUS_GENODEF_13
1002
{
1000
HIER
1070
     0
1002
}
1002
{
1000
MANEDIT
1070
     0
1002
}
1002
{
1000
NOSEL
1070
     0
1002
}
1002
{
1000
BEHIND
1070
     0
1002
}
1002
{
1000
REACTOR
1002
}
1001
GENIUS_GENOBJ-N-CEN_13
1002
{
1000
OWNER
1000
GEN
1002
}
  0
LINE
  5
1A121
330
1F
100
AcDbEntity
  8
AM_5
100
AcDbLine
 10
0.0
 20
0.0
 30
0.0
 11
0.3999528515373072
 21
-0.0000000000000071
 31
0.0
  0
LINE
  5
1A122
330
1F
100
AcDbEntity
  8
AM_5
100
AcDbLine
 10
0.0
 20
-2.348215961328663
 30
0.0
 11
0.0
 21
0.3896982281923442
 31
0.0
  0
CIRCLE
  5
1A19B
330
1F
100
AcDbEntity
  8
AM_11
  6
ACJISTGB
100
AcDbCircle
 10
-39.0428488496803
 20
5.125000000000007
 30
0.0
 40
5.0
  0
DIMENSION
  5
1A394
330
1F
100
AcDbEntity
  8
AM_5
100
AcDbDimension
  2
*D3
 10
-36.11022823910511
 20
1.075341205184046
 30
0.0
 11
-58.0775832497435
 21
13.89492479288071
 31
0.0
 70
   163
  1
最小加工径\P<>
 71
     5
 42
9.999999999999965
  3
AM_JIS$3
100
AcDbDiametricDimension
 15
-41.97546946025548
 25
9.174658794815766
 35
0.0
 40
0.0
1001
ACAD
1000
DSTYLE
1002
{
1070
   271
1070
     0
1070
   288
1070
     1
1070
   289
1070
     3
1070
   172
1070
     1
1070
    74
1070
     1
1002
}
1001
GENIUS_GENDTOL_13
1000

1000
h7
1000

1040
0.0
  0
DIMENSION
  5
1A57B
330
1F
100
AcDbEntity
  8
AM_5
100
AcDbDimension
  2
*D4
 10
-0.0000000000000009
 20
-55.69884226767996
 30
0.0
 11
9.5
 21
-52.29884226767997
 31
0.0
 70
    32
  1
<>
 71
     5
 42
19.0
  3
AM_JIS$0
100
AcDbAlignedDimension
 13
19.0
 23
-44.86859067659771
 33
0.0
 14
0.0
 24
-40.86859067659771
 34
0.0
100
AcDbRotatedDimension
1001
ACAD
1000
DSTYLE
1002
{
1070
   271
1070
     0
1002
}
1001
GENIUS_GENDTOL_13
1000

1000
h7
1000

1040
0.0
  0
DIMENSION
  5
1A8CF
330
1F
100
AcDbEntity
  8
AM_5
100
AcDbDimension
  2
*D5
 10
60.03014598877945
 20
1.690543845729565
 30
0.0
 11
69.63959836014715
 21
19.30186974638208
 31
0.0
 70
   163
  1
<>
 71
     5
 42
7.999999999999996
  3
AM_JIS$3
100
AcDbDiametricDimension
 15
62.46985401122038
 25
9.309456154270549
 35
0.0
 40
0.0
1001
GENIUS_GENDTOL_13
1000

1000
h7
1000

1040
0.0
1001
ACAD
1000
DSTYLE
1002
{
1070
   271
1070
     0
1070
   289
1070
     3
1002
}
  0
LINE
  5
1B6A4
330
1F
100
AcDbEntity
  8
AM_0
100
AcDbLine
 10
-41.2960768525121
 20
0.8202188807078414
 30
0.0
 11
-39.0428488876741
 21
0.000000013830487
 31
0.0
  0
ELLIPSE
  5
1B6A6
330
1F
100
AcDbEntity
  8
AM_0
100
AcDbEllipse
 10
-38.95285151281729
 20
0.389744124615703
 30
0.0
 11
0.08999736259150043
 21
0.3897441144219808
 31
0.0
210
0.0
220
0.0
230
1.0
 40
0.0005098919550174
 41
3.141530046721814
 42
4.797429728647102
  0
ELLIPSE
  5
1B6A7
330
1F
100
AcDbEntity
  8
AM_0
100
AcDbEllipse
 10
-41.27182869217279
 20
0.9252283624248889
 30
0.0
 11
0.0242481570346099
 21
0.105009482696904
 31
0.0
210
0.0
220
0.0
230
1.0
 40
0.0005098919550174
 41
3.052100476653081
 42
4.79742972864709
  0
LINE
  5
1B6A8
330
1F
100
AcDbEntity
  8
AM_0
100
AcDbLine
 10
-38.9450092820548
 20
0.4228025977485572
 30
0.0
 11
-37.6818524725266
 21
5.894135844602118
 31
0.0
  0
LINE
  5
1B6A9
330
1F
100
AcDbEntity
  8
AM_0
100
AcDbLine
 10
-40.00655893580313
 20
6.40546861527028
 30
0.0
 11
-41.26971574533133
 21
0.9341353684167189
 31
0.0
  0
ELLIPSE
  5
1B6AA
330
1F
100
AcDbEntity
  8
AM_0
100
AcDbEllipse
 10
-186.5815098568273
 20
40.36745270512166
 30
0.0
 11
108.072932654829
 21
108.0729326548289
 31
0.0
210
0.0
220
0.0
230
1.0
 40
0.9999999999908397
 41
5.270275169474158
 42
5.272727142193343
  0
ELLIPSE
  5
1B6AB
330
1F
100
AcDbEntity
  8
AM_0
100
AcDbEllipse
 10
-40.00867188264459
 20
6.39656160927845
 30
0.0
 11
0.0242481570346099
 21
0.105009482696904
 31
0.0
210
0.0
220
0.0
230
1.0
 40
0.0005098919550174
 41
4.797429728647094
 42
6.193693130242568
  0
LINE
  5
1B6AD
330
1F
100
AcDbEntity
  8
AM_0
100
AcDbLine
 10
-39.98230564982089
 20
6.510976210598784
 30
0.0
 11
-39.98451597541532
 21
6.501149764962321
 31
0.0
  0
LINE
  5
1B6AE
330
1F
100
AcDbEntity
  8
AM_0
100
AcDbLine
 10
-39.9543603967997
 20
6.632020399881583
 30
0.0
 11
-41.24885998073603
 21
1.024926681822564
 31
0.0
  0
ARC
  5
1B6AF
330
1F
100
AcDbEntity
  8
AM_0
100
AcDbCircle
 10
-39.0428488496803
 20
4.750000000000007
 30
0.0
 40
4.5
100
AcDbArc
 50
90.0
 51
204.9784475235399
  0
LINE
  5
1B6B0
330
1F
100
AcDbEntity
  8
AM_0
100
AcDbLine
 10
-37.06621681068896
 20
8.686757771281009
 30
0.0
 11
-37.59777252830094
 21
6.25933700595138
 31
0.0
  0
LINE
  5
1B6B1
330
1F
100
AcDbEntity
  8
AM_0
100
AcDbLine
 10
-37.59777252956189
 20
6.259337006240003
 30
0.0
 11
-38.9804009770678
 21
6.405245452425191
 31
0.0
  0
ELLIPSE
  5
1B6B2
330
1F
100
AcDbEntity
  8
AM_0
100
AcDbEllipse
 10
-39.0428488496803
 20
5.462919305781497
 30
0.0
 11
-1.413543535135883E-13
 21
-4.844447923408356
 31
0.0
210
0.0
220
0.0
230
1.0
 40
0.999970705675039
 41
5.282131032054096
 42
5.816363838942976
  0
LINE
  5
1B6B3
330
1F
100
AcDbEntity
  8
AM_0
100
AcDbLine
 10
-39.9543603967997
 20
6.632020399881583
 30
0.0
 11
-38.9804009770678
 21
6.405245452425191
 31
0.0
  0
SPLINE
  5
1B6B4
330
1F
100
AcDbEntity
  8
AM_0
100
AcDbSpline
210
0.0
220
0.0
230
1.0
 70
     8
 71
     3
 72
    10
 73
     6
 74
     0
 42
0.0000000001
 43
0.0000000001
 40
9.614889259929251
 40
9.614889259929251
 40
9.614889259929251
 40
9.614889259929251
 40
9.761369825617754
 40
9.761369825617754
 40
10.35390349471554
 40
10.35390349471554
 40
10.35390349471554
 40
10.35390349471554
 10
-38.08711875752152
 20
1.873833981883593
 30
0.0
 10
-38.10987828565408
 20
1.846548277666813
 30
0.0
 10
-38.13195819117891
 20
1.819835195778609
 30
0.0
 10
-38.23970819274661
 20
1.688190600957285
 30
0.0
 10
-38.32232190821685
 20
1.582925329623009
 30
0.0
 10
-38.39974756924335
 20
1.477611891984708
 30
0.0
  0
SPLINE
  5
1B6B5
330
1F
100
AcDbEntity
  8
AM_0
100
AcDbSpline
210
0.0
220
0.0
230
1.0
 70
     8
 71
     3
 72
    10
 73
     6
 74
     0
 42
0.0000000001
 43
0.0000000001
 40
22.62964212683349
 40
22.62964212683349
 40
22.62964212683349
 40
22.62964212683349
 40
23.30345367894325
 40
23.30345367894325
 40
24.38468142962644
 40
24.38468142962644
 40
24.38468142962644
 40
24.38468142962644
 10
-38.39974756924335
 20
1.477611891984708
 30
0.0
 10
-38.46622687474292
 20
1.446684125196526
 30
0.0
 10
-38.52429000721043
 20
1.418478892391647
 30
0.0
 10
-38.65345320435387
 20
1.349497888432893
 30
0.0
 10
-38.71110039619674
 20
1.311297944679183
 30
0.0
 10
-38.74819121922837
 20
1.275315288651683
 30
0.0
  0
ELLIPSE
  5
1B6B6
330
1F
100
AcDbEntity
  8
AM_0
100
AcDbEllipse
 10
-29.29078615304417
 20
-2.07203300212646
 30
0.0
 11
-0.009002468232323056
 21
14.6774996187806
 31
0.0
210
0.0
220
0.0
230
0.9999999999999999
 40
0.6575754131074284
 41
1.067357311732432
 42
1.243313770147192
  0
SPLINE
  5
1B6B7
330
1F
100
AcDbEntity
  8
AM_0
100
AcDbSpline
210
0.0
220
0.0
230
1.0
 70
     8
 71
     3
 72
    24
 73
    20
 74
     0
 42
0.0000000001
 43
0.0000000001
 40
1.569723143556266
 40
1.569723143556266
 40
1.569723143556266
 40
1.569723143556266
 40
1.893860304320462
 40
1.893860304320462
 40
2.375810329227346
 40
2.375810329227346
 40
2.857760354134229
 40
2.857760354134229
 40
3.333363264872707
 40
3.333363264872707
 40
3.808966175611185
 40
3.808966175611185
 40
4.280496789383228
 40
4.280496789383228
 40
4.75202740315527
 40
4.75202740315527
 40
5.238041477914594
 40
5.238041477914594
 40
5.397675586923678
 40
5.397675586923678
 40
5.397675586923678
 40
5.397675586923678
 10
-37.30779727984799
 20
7.060037561561103
 30
0.0
 10
-37.27239275872171
 20
7.133894828829511
 30
0.0
 10
-37.23745536245735
 20
7.195311674817674
 30
0.0
 10
-37.15686343985993
 20
7.311937475877357
 30
0.0
 10
-37.10761949240032
 20
7.358396312720458
 30
0.0
 10
-37.02299816248996
 20
7.383367681941081
 30
0.0
 10
-36.98779647803991
 20
7.361974450877312
 30
0.0
 10
-36.94252460649261
 20
7.268528418852327
 30
0.0
 10
-36.92916713248724
 20
7.190740972164463
 30
0.0
 10
-36.93404927902787
 20
6.984107468862192
 30
0.0
 10
-36.95258015104048
 20
6.855245969452909
 30
0.0
 10
-37.0141749008269
 20
6.588860435470821
 30
0.0
 10
-37.06080257949157
 20
6.435091400739395
 30
0.0
 10
-37.17478700997049
 20
6.124871225436209
 30
0.0
 10
-37.24188379765519
 20
5.968335540528472
 30
0.0
 10
-37.37322773915759
 20
5.68836117340399
 30
0.0
 10
-37.44649384153036
 20
5.546394797011715
 30
0.0
 10
-37.53655216380753
 20
5.38525562500962
 30
0.0
 10
-37.55825951126383
 20
5.347534622954669
 30
0.0
 10
-37.57905247841086
 20
5.312432054030325
 30
0.0
  0
ELLIPSE
  5
1B6B8
330
1F
100
AcDbEntity
  8
AM_0
100
AcDbEllipse
 10
-27.96119825861365
 20
3.678180814183833
 30
0.0
 11
9.742266354138771
 21
-2.255715054247721
 31
0.0
210
0.0
220
0.0
230
1.0
 40
0.7341178333399719
 41
2.979276206388107
 42
3.027776969426026
  0
ELLIPSE
  5
1B6B9
330
1F
100
AcDbEntity
  8
AM_0
100
AcDbEllipse
 10
-27.53511858094151
 20
5.520894078694056
 30
0.0
 11
-9.979978595488403
 21
1.146858139774462
 31
0.0
210
0.0
220
0.0
230
1.0
 40
0.0671763965523855
 41
-0.1047272536110195
 42
-0.0438045655778142
  0
ELLIPSE
  5
1B6BA
330
1F
100
AcDbEntity
  8
AM_0
100
AcDbEllipse
 10
-28.46645268716969
 20
1.493051867083153
 30
0.0
 11
-9.742266354138771
 21
2.255715054247722
 31
0.0
210
0.0
220
0.0
230
1.0
 40
0.7341178333399892
 41
6.054335800473928
 42
6.101515866478144
  0
LINE
  5
1B6BB
330
1F
100
AcDbEntity
  8
AM_0
100
AcDbLine
 10
-37.74920949889878
 20
5.003805117814892
 30
0.0
 11
-37.88450787846358
 21
5.016338842841407
 31
0.0
  0
SPLINE
  5
1B6BC
330
1F
100
AcDbEntity
  8
AM_0
100
AcDbSpline
210
0.0
220
0.0
230
1.0
 70
    28
 71
     2
 72
     6
 73
     3
 74
     0
 42
0.0000000001
 43
0.0000000001
 40
0.0
 40
0.0
 40
0.0
 40
0.3688252596023173
 40
0.3688252596023173
 40
0.3688252596023173
 10
-36.92173254391179
 20
8.891292617484197
 30
0.0
 41
1.0
 10
-36.94603589225392
 20
8.753461479876052
 30
0.0
 41
1.000612689966304
 10
-36.96882028132461
 20
8.624244788367946
 30
0.0
 41
1.0
  0
SPLINE
  5
1B6BD
330
1F
100
AcDbEntity
  8
AM_0
100
AcDbSpline
210
0.0
220
0.0
230
1.0
 70
    28
 71
     2
 72
     6
 73
     3
 74
     0
 42
0.0000000001
 43
0.0000000001
 40
0.0263244304264368
 40
0.0263244304264368
 40
0.0263244304264368
 40
0.3688252596023183
 40
0.3688252596023183
 40
0.3688252596023183
 10
-39.91998180371979
 20
9.163687549083846
 30
0.0
 41
1.000081217584067
 10
-39.89872551730458
 20
9.284237939783804
 30
0.0
 41
1.000568960012475
 10
-39.8761558029484
 20
9.41223715048497
 30
0.0
 41
1.0
  0
ARC
  5
1B6BE
330
1F
100
AcDbEntity
  8
AM_0
100
AcDbCircle
 10
-39.0428488496803
 20
5.499999999999979
 30
0.0
 40
4.0
100
AcDbArc
 50
102.0243128370406
 51
142.0783492157067
  0
ARC
  5
1B6BF
330
1F
100
AcDbEntity
  8
AM_0
100
AcDbCircle
 10
-39.0428488496803
 20
5.499999999999979
 30
0.0
 40
4.0
100
AcDbArc
 50
280.179977081892
 51
331.0449756281407
  0
ARC
  5
1B6C0
330
1F
100
AcDbEntity
  8
AM_0
100
AcDbCircle
 10
-39.0428488496803
 20
5.499999999999979
 30
0.0
 40
4.0
100
AcDbArc
 50
28.95502437185925
 51
57.97568716295801
  0
SPLINE
  5
1B6C1
330
1F
100
AcDbEntity
  8
AM_0
100
AcDbSpline
210
0.0
220
0.0
230
1.0
 70
     8
 71
     3
 72
    30
 73
    26
 74
     0
 42
0.0000000001
 43
0.0000000001
 40
6.268575443233795
 40
6.268575443233795
 40
6.268575443233795
 40
6.268575443233795
 40
6.357873995871536
 40
6.357873995871536
 40
6.692710022674799
 40
6.692710022674799
 40
7.027044735304256
 40
7.027044735304256
 40
7.361379447933713
 40
7.361379447933713
 40
7.69571416056317
 40
7.69571416056317
 40
8.030048873192627
 40
8.030048873192627
 40
8.364383585822083
 40
8.364383585822083
 40
8.698718298451539
 40
8.698718298451539
 40
9.033053011080995
 40
9.033053011080995
 40
9.367387723710452
 40
9.367387723710452
 40
9.70222375051371
 40
9.70222375051371
 40
9.791522303151456
 40
9.791522303151456
 40
9.791522303151456
 40
9.791522303151456
 10
-39.8761558029484
 20
9.41223715048497
 30
0.0
 10
-39.85944817051797
 20
9.415794983428242
 30
0.0
 10
-39.84209968848262
 20
9.419379174199065
 30
0.0
 10
-39.75683990686747
 20
9.436359608200974
 30
0.0
 10
-39.68105590731869
 20
9.449586484677241
 30
0.0
 10
-39.52099725973562
 20
9.472139999140097
 30
0.0
 10
-39.43102290691411
 20
9.482321004746808
 30
0.0
 10
-39.23599258322076
 20
9.49653039292491
 30
0.0
 10
-39.13094027442196
 20
9.500519243415482
 30
0.0
 10
-38.91263783703323
 20
9.499369877085712
 30
0.0
 10
-38.7991923110327
 20
9.494202464153233
 30
0.0
 10
-38.57187821162194
 20
9.47381535700606
 30
0.0
 10
-38.45800794471211
 20
9.458583216575107
 30
0.0
 10
-38.23850433331307
 20
9.419878807522508
 30
0.0
 10
-38.12629158491762
 20
9.395246412475217
 30
0.0
 10
-37.90571340179224
 20
9.336658025760187
 30
0.0
 10
-37.79734211883664
 20
9.302713150499045
 30
0.0
 10
-37.59181182288603
 20
9.229129370633672
 30
0.0
 10
-37.49445921072771
 20
9.189451071550195
 30
0.0
 10
-37.31605055170485
 20
9.109394315070915
 30
0.0
 10
-37.2349844252953
 20
9.069054258182462
 30
0.0
 10
-37.09229225151762
 20
8.993117605482041
 30
0.0
 10
-37.02560244455611
 20
8.954768752873775
 30
0.0
 10
-36.95129210739361
 20
8.909651801616519
 30
0.0
 10
-36.93621573228433
 20
8.900350233685458
 30
0.0
 10
-36.92173254391179
 20
8.891292617484197
 30
0.0
  0
SPLINE
  5
1B6C2
330
1F
100
AcDbEntity
  8
AM_0
100
AcDbSpline
210
0.0
220
0.0
230
1.0
 70
     8
 71
     3
 72
    24
 73
    20
 74
     0
 42
0.0000000001
 43
0.0000000001
 40
2.870094743395724
 40
2.870094743395724
 40
2.870094743395724
 40
2.870094743395724
 40
2.992602102571006
 40
2.992602102571006
 40
3.765550142491625
 40
3.765550142491625
 40
4.001750366608357
 40
4.001750366608357
 40
4.23795059072509
 40
4.23795059072509
 40
4.474150814841822
 40
4.474150814841822
 40
4.710351038958556
 40
4.710351038958556
 40
5.366432623205894
 40
5.366432623205894
 40
6.022514207453233
 40
6.022514207453233
 40
6.416668597334576
 40
6.416668597334576
 40
6.416668597334576
 40
6.416668597334576
 10
-38.04138549213934
 20
1.88619713549528
 30
0.0
 10
-38.04056920982265
 20
1.914416548126241
 30
0.0
 10
-38.03939841654864
 20
1.943080145773934
 30
0.0
 10
-38.02800843560704
 20
2.155753710381561
 30
0.0
 10
-38.00314485986365
 20
2.356083257992225
 30
0.0
 10
-37.93751711761593
 20
2.639910714444682
 30
0.0
 10
-37.91888353855495
 20
2.711511626992007
 30
0.0
 10
-37.87443534205204
 20
2.860436989085457
 30
0.0
 10
-37.84858760971662
 20
2.937782391738409
 30
0.0
 10
-37.79053243597974
 20
3.092427189665472
 30
0.0
 10
-37.75821842513017
 20
3.16997812538898
 30
0.0
 10
-37.68956978022663
 20
3.319572435575907
 30
0.0
 10
-37.65324028108591
 20
3.39162657998358
 30
0.0
 10
-37.51577986752358
 20
3.64412815892905
 30
0.0
 10
-37.39740605852666
 20
3.820253572241711
 30
0.0
 10
-37.14443813568289
 20
4.134996933129401
 30
0.0
 10
-37.00971665995775
 20
4.273782910578888
 30
0.0
 10
-36.80523183769503
 20
4.457499481507483
 30
0.0
 10
-36.72565715814972
 20
4.52286678607399
 30
0.0
 10
-36.64338077506096
 20
4.584598500986999
 30
0.0
  0
ARC
  5
1B6C3
330
1F
100
AcDbEntity
  8
AM_0
100
AcDbCircle
 10
-34.5428488496803
 20
1.784997523980401
 30
0.0
 40
3.5
100
AcDbArc
 50
106.6015495990199
 51
126.8807830926321
  0
SPLINE
  5
1B6C4
330
1F
100
AcDbEntity
  8
AM_0
100
AcDbSpline
210
0.0
220
0.0
230
1.0
 70
    28
 71
     2
 72
     6
 73
     3
 74
     0
 42
0.0000000001
 43
0.0000000001
 40
0.0
 40
0.0
 40
0.0
 40
0.6411910719227605
 40
0.6411910719227605
 40
0.6411910719227605
 10
-35.5428488496803
 20
7.43649167310366
 30
0.0
 41
1.0
 10
-35.5428488496803
 20
7.131872075002974
 30
0.0
 41
1.002912458754656
 10
-35.5428488496803
 20
6.8462912017836
 30
0.0
 41
1.0
  0
SPLINE
  5
1B6C5
330
1F
100
AcDbEntity
  8
AM_0
100
AcDbSpline
210
0.0
220
0.0
230
1.0
 70
    28
 71
     2
 72
     6
 73
     3
 74
     0
 42
0.0000000001
 43
0.0000000001
 40
0.0
 40
0.0
 40
0.0
 40
0.6411910719227605
 40
0.6411910719227605
 40
0.6411910719227605
 10
-35.5428488496803
 20
4.153708798216371
 30
0.0
 41
1.0
 10
-35.5428488496803
 20
3.868127924996969
 30
0.0
 41
1.002912458754656
 10
-35.5428488496803
 20
3.563508326896283
 30
0.0
 41
1.0
  0
LINE
  5
1B6C6
330
1F
100
AcDbEntity
  8
AM_0
100
AcDbLine
 10
-35.5428488496803
 20
5.13909949023008
 30
0.0
 11
-35.5428488496803
 21
4.153708798216371
 31
0.0
  0
LINE
  5
1B6C7
330
1F
100
AcDbEntity
  8
AM_0
100
AcDbLine
 10
-35.5428488496803
 20
6.644342611753615
 30
0.0
 11
-35.5428488496803
 21
5.13909949023008
 31
0.0
  0
SPLINE
  5
1B6C8
330
1F
100
AcDbEntity
  8
AM_0
100
AcDbSpline
210
0.0
220
0.0
230
1.0
 70
     8
 71
     3
 72
     8
 73
     4
 74
     0
 42
0.0000000001
 43
0.0000000001
 40
23.88385800614017
 40
23.88385800614017
 40
23.88385800614017
 40
23.88385800614017
 40
24.96148496981584
 40
24.96148496981584
 40
24.96148496981584
 40
24.96148496981584
 10
-37.01637096038098
 20
8.65529513107424
 30
0.0
 10
-37.04635267165082
 20
8.674550786233937
 30
0.0
 10
-37.06287447628625
 20
8.684717210762983
 30
0.0
 10
-37.06621676208914
 20
8.686757849336033
 30
0.0
  0
ARC
  5
1B6C9
330
1F
100
AcDbEntity
  8
AM_0
100
AcDbCircle
 10
-39.0428488496803
 20
5.499999999999979
 30
0.0
 40
3.75
100
AcDbArc
 50
58.19015046473843
 51
90.0
  0
SPLINE
  5
1B6CA
330
1F
100
AcDbEntity
  8
AM_0
100
AcDbSpline
210
0.0
220
0.0
230
1.0
 70
     8
 71
     3
 72
     8
 73
     4
 74
     0
 42
0.0000000001
 43
0.0000000001
 40
11.99047068104193
 40
11.99047068104193
 40
11.99047068104193
 40
11.99047068104193
 40
12.11834088718139
 40
12.11834088718139
 40
12.11834088718139
 40
12.11834088718139
 10
-38.04138549213934
 20
1.88619713549528
 30
0.0
 10
-38.05692336701941
 20
1.881891252487861
 30
0.0
 10
-38.07216817163169
 20
1.877774431592428
 30
0.0
 10
-38.08711875752152
 20
1.873833981883593
 30
0.0
  0
SPLINE
  5
1B6CB
330
1F
100
AcDbEntity
  8
AM_0
100
AcDbSpline
210
0.0
220
0.0
230
1.0
 70
     8
 71
     3
 72
    24
 73
    20
 74
     0
 42
0.0000000001
 43
0.0000000001
 40
3.588744173807645
 40
3.588744173807645
 40
3.588744173807645
 40
3.588744173807645
 40
3.763172097910063
 40
3.763172097910063
 40
4.30424709392748
 40
4.30424709392748
 40
4.845322089944897
 40
4.845322089944897
 40
5.386397085962314
 40
5.386397085962314
 40
5.927472081979731
 40
5.927472081979731
 40
6.629357707321489
 40
6.629357707321489
 40
7.331243332663247
 40
7.331243332663247
 40
8.033128958005005
 40
8.033128958005005
 40
8.735014583346763
 40
8.735014583346763
 40
8.735014583346763
 40
8.735014583346763
 10
-35.5428488496803
 20
4.153708798216371
 30
0.0
 10
-35.5593175168342
 20
4.110894632185875
 30
0.0
 10
-35.57703693172721
 20
4.067171916194099
 30
0.0
 10
-35.6553537856081
 20
3.884457976688736
 30
0.0
 10
-35.73360615620425
 20
3.726445426508889
 30
0.0
 10
-35.92381519735278
 20
3.409972916273034
 30
0.0
 10
-36.03616566675612
 20
3.251692777789316
 30
0.0
 10
-36.26581163539152
 20
2.973521534154855
 30
0.0
 10
-36.39995003006578
 20
2.833228550410865
 30
0.0
 10
-36.67467285040323
 20
2.58652690660719
 30
0.0
 10
-36.81500612954841
 20
2.479765629532437
 30
0.0
 10
-37.100904039162
 20
2.286064968392736
 30
0.0
 10
-37.25353757739555
 20
2.200909455582945
 30
0.0
 10
-37.52659084536271
 20
2.066838933137007
 30
0.0
 10
-37.64684881412171
 20
2.017967086649918
 30
0.0
 10
-37.84245446237054
 20
1.94578846044061
 30
0.0
 10
-37.91779627162305
 20
1.922367669257682
 30
0.0
 10
-38.0172885858384
 20
1.892587835107065
 30
0.0
 10
-38.0413854921394
 20
1.886197135495223
 30
0.0
 10
-38.0413854921394
 20
1.886197135495223
 30
0.0
  0
SPLINE
  5
1B6CC
330
1F
100
AcDbEntity
  8
AM_0
100
AcDbSpline
210
0.0
220
0.0
230
1.0
 70
     8
 71
     3
 72
    16
 73
    12
 74
     0
 42
0.0000000001
 43
0.0000000001
 40
1.105695826962174
 40
1.105695826962174
 40
1.105695826962174
 40
1.105695826962174
 40
1.928941247978927
 40
1.928941247978927
 40
3.857882495957853
 40
3.857882495957853
 40
4.822353119947317
 40
4.822353119947317
 40
5.78682374393678
 40
5.78682374393678
 40
6.384746956609404
 40
6.384746956609404
 40
6.384746956609404
 40
6.384746956609404
 10
-36.24778930647051
 20
6.863894841703029
 30
0.0
 10
-36.32718872142192
 20
6.960590366615634
 30
0.0
 10
-36.3997288136249
 20
7.059512761213483
 30
0.0
 10
-36.6200530020252
 20
7.393960438792988
 30
0.0
 10
-36.73782660944244
 20
7.634901428453048
 30
0.0
 10
-36.86652251726133
 20
7.981204632390302
 30
0.0
 10
-36.90143734470928
 20
8.09396837052671
 30
0.0
 10
-36.95735340764549
 20
8.308200188357034
 30
0.0
 10
-36.97834175377517
 20
8.40979708765019
 30
0.0
 10
-37.00328376116084
 20
8.55711512173724
 30
0.0
 10
-37.01068516443428
 20
8.609333697615142
 30
0.0
 10
-37.01637096038127
 20
8.655295131074212
 30
0.0
  0
LINE
  5
1B6CD
330
1F
100
AcDbEntity
  8
AM_0
100
AcDbLine
 10
-35.5428488496803
 20
6.8462912017836
 30
0.0
 11
-35.5428488496803
 21
6.644342611753643
 31
0.0
  0
ELLIPSE
  5
1B6CE
330
1F
100
AcDbEntity
  8
AM_0
100
AcDbEllipse
 10
-34.45702043705455
 20
9.593833837904953
 30
0.0
 11
1.605930137489478
 21
2.885202299493318
 31
0.0
210
0.0
220
0.0
230
1.0
 40
0.4325710662255538
 41
3.076752303003002
 42
3.488562131302345
  0
SPLINE
  5
1B6CF
330
1F
100
AcDbEntity
  8
AM_0
100
AcDbSpline
210
0.0
220
0.0
230
1.0
 70
     8
 71
     3
 72
    10
 73
     6
 74
     0
 42
0.0000000001
 43
0.0000000001
 40
7.624988642335295
 40
7.624988642335295
 40
7.624988642335295
 40
7.624988642335295
 40
7.66955697284199
 40
7.66955697284199
 40
7.941136484289691
 40
7.941136484289691
 40
7.941136484289691
 40
7.941136484289691
 10
-36.14044350763879
 20
6.759706168545165
 30
0.0
 10
-36.14605442744363
 20
6.764032996358679
 30
0.0
 10
-36.15159229571748
 20
6.768446586585213
 30
0.0
 10
-36.19033316036405
 20
6.800354008448323
 30
0.0
 10
-36.22074010538171
 20
6.830953330744194
 30
0.0
 10
-36.24778930647051
 20
6.863894841703029
 30
0.0
  0
SPLINE
  5
1B6D0
330
1F
100
AcDbEntity
  8
AM_0
100
AcDbSpline
210
0.0
220
0.0
230
1.0
 70
     8
 71
     3
 72
    24
 73
    20
 74
     0
 42
0.0000000001
 43
0.0000000001
 40
0.9676422520976017
 40
0.9676422520976017
 40
0.9676422520976017
 40
0.9676422520976017
 40
1.481081040259633
 40
1.481081040259633
 40
1.994519828421665
 40
1.994519828421665
 40
2.507958616583696
 40
2.507958616583696
 40
3.021397404745728
 40
3.021397404745728
 40
3.393799051186519
 40
3.393799051186519
 40
3.76620069762731
 40
3.76620069762731
 40
4.138602344068101
 40
4.138602344068101
 40
4.511003990508892
 40
4.511003990508892
 40
4.580748851617531
 40
4.580748851617531
 40
4.580748851617531
 40
4.580748851617531
 10
-37.01637096038161
 20
8.655295131074638
 30
0.0
 10
-37.01637096038161
 20
8.655295131074638
 30
0.0
 10
-37.00237031675937
 20
8.646454087683281
 30
0.0
 10
-36.94397408577976
 20
8.607804803991428
 30
0.0
 10
-36.89961552861496
 20
8.578014551311384
 30
0.0
 10
-36.78372136835696
 20
8.493988360875875
 30
0.0
 10
-36.71223749197037
 20
8.439752471347163
 30
0.0
 10
-36.54878892070241
 20
8.302420198941491
 30
0.0
 10
-36.45693862081032
 20
8.219441719448156
 30
0.0
 10
-36.28742494111469
 20
8.045692967134329
 30
0.0
 10
-36.20673034569836
 20
7.956616093186653
 30
0.0
 10
-36.04748916001034
 20
7.759723809424997
 30
0.0
 10
-35.96908156862293
 20
7.65171185863673
 30
0.0
 10
-35.83351286659996
 20
7.443726258608081
 30
0.0
 10
-35.76633929250232
 20
7.32839177615287
 30
0.0
 10
-35.6504752330917
 20
7.103225512336309
 30
0.0
 10
-35.60154882339339
 20
6.993441571635827
 30
0.0
 10
-35.55635628612606
 20
6.881026742773543
 30
0.0
 10
-35.54948222702427
 20
6.863536223271581
 30
0.0
 10
-35.5428488496803
 20
6.8462912017836
 30
0.0
  0
LINE
  5
1B6F0
330
1F
100
AcDbEntity
  8
AM_0
100
AcDbLine
 10
9.689727677144674
 20
-44.9420640530177
 30
0.0
 11
9.689727677144674
 21
-40.22548939616075
 31
0.0
  0
SPLINE
  5
1B6F9
330
1F
100
AcDbEntity
  8
AM_0
100
AcDbSpline
210
0.0
220
0.0
230
1.0
 70
     8
 71
     3
 72
    10
 73
     6
 74
     0
 42
0.0000000001
 43
0.0000000001
 40
9.614889259929251
 40
9.614889259929251
 40
9.614889259929251
 40
9.614889259929251
 40
9.761369825617754
 40
9.761369825617754
 40
10.35390349471554
 40
10.35390349471554
 40
10.35390349471554
 40
10.35390349471554
 10
10.25
 20
-39.91286058443893
 30
0.0
 10
10.214347222539
 20
-39.93562011257149
 30
0.0
 10
10.17877290401316
 20
-39.95770001809632
 30
0.0
 10
10.00060981406921
 20
-40.06545001966401
 30
0.0
 10
9.848676417421871
 20
-40.14806373513426
 30
0.0
 10
9.689727677144674
 20
-40.22548939616075
 30
0.0
  0
SPLINE
  5
1B705
330
1F
100
AcDbEntity
  8
AM_0
100
AcDbSpline
210
0.0
220
0.0
230
1.0
 70
     8
 71
     3
 72
    24
 73
    20
 74
     0
 42
0.0000000001
 43
0.0000000001
 40
2.870094743395724
 40
2.870094743395724
 40
2.870094743395724
 40
2.870094743395724
 40
2.992602102571006
 40
2.992602102571006
 40
3.765550142491625
 40
3.765550142491625
 40
4.001750366608357
 40
4.001750366608357
 40
4.23795059072509
 40
4.23795059072509
 40
4.474150814841822
 40
4.474150814841822
 40
4.710351038958556
 40
4.710351038958556
 40
5.366432623205894
 40
5.366432623205894
 40
6.022514207453233
 40
6.022514207453233
 40
6.416668597334576
 40
6.416668597334576
 40
6.416668597334576
 40
6.416668597334576
 10
10.37489181678484
 20
-39.86712731905675
 30
0.0
 10
10.34093008014395
 20
-39.86631103674006
 30
0.0
 10
10.30732423051973
 20
-39.86514024346604
 30
0.0
 10
10.06537822666098
 20
-39.85375026252444
 30
0.0
 10
9.876243752755499
 20
-39.82888668678106
 30
0.0
 10
9.708052397279971
 20
-39.76325894453333
 30
0.0
 10
9.672393937856214
 20
-39.74462536547233
 30
0.0
 10
9.616361826094703
 20
-39.70017716896942
 30
0.0
 10
9.596070169793279
 20
-39.67432943663403
 30
0.0
 10
9.574409978439803
 20
-39.61627426289715
 30
0.0
 10
9.572999438301736
 20
-39.58396025204758
 30
0.0
 10
9.586876480791148
 20
-39.51531160714404
 30
0.0
 10
9.602073214339384
 20
-39.47898210800332
 30
0.0
 10
9.678300295803865
 20
-39.34152169444099
 30
0.0
 10
9.781670730645033
 20
-39.22314788544406
 30
0.0
 10
10.0277646341865
 20
-38.9701799626003
 30
0.0
 10
10.17014211382798
 20
-38.83545848687518
 30
0.0
 10
10.3869121436926
 20
-38.63097366461244
 30
0.0
 10
10.4716905823301
 20
-38.55139898506715
 30
0.0
 10
10.55895387902547
 20
-38.4691226019784
 30
0.0
  0
ELLIPSE
  5
1B706
330
1F
100
AcDbEntity
  8
AM_0
100
AcDbEllipse
 10
17.22229578571842
 20
-36.36859067659771
 30
0.0
 11
7.267793026340804
 21
3.1936179462218
 31
0.0
210
0.0
220
0.0
230
1.0
 40
0.1970423465540671
 41
2.282082251501134
 42
2.636021645745392
  0
LINE
  5
1B70F
330
1F
100
AcDbEntity
  8
AM_0
100
AcDbLine
 10
10.25
 20
-44.61859067659771
 30
0.0
 11
10.25
 21
-39.91286058443893
 31
0.0
  0
SPLINE
  5
1B710
330
1F
100
AcDbEntity
  8
AM_0
100
AcDbSpline
210
0.0
220
0.0
230
1.0
 70
     8
 71
     3
 72
     8
 73
     4
 74
     0
 42
0.0000000001
 43
0.0000000001
 40
11.99047068104193
 40
11.99047068104193
 40
11.99047068104193
 40
11.99047068104193
 40
12.11834088718139
 40
12.11834088718139
 40
12.11834088718139
 40
12.11834088718139
 10
10.37489181678484
 20
-39.86712731905675
 30
0.0
 10
10.33352826062082
 20
-39.88266519393682
 30
0.0
 10
10.29189182382925
 20
-39.8979099985491
 30
0.0
 10
10.25
 20
-39.91286058443893
 30
0.0
  0
LINE
  5
1B711
330
1F
100
AcDbEntity
  8
AM_0
100
AcDbLine
 10
13.96095531706999
 20
-39.86712731905683
 30
0.0
 11
10.37489181678484
 21
-39.86712731905683
 31
0.0
  0
SPLINE
  5
1B712
330
1F
100
AcDbEntity
  8
AM_0
100
AcDbSpline
210
0.0
220
0.0
230
1.0
 70
     8
 71
     3
 72
    24
 73
    20
 74
     0
 42
0.0000000001
 43
0.0000000001
 40
3.588744173807645
 40
3.588744173807645
 40
3.588744173807645
 40
3.588744173807645
 40
3.763172097910063
 40
3.763172097910063
 40
4.30424709392748
 40
4.30424709392748
 40
4.845322089944897
 40
4.845322089944897
 40
5.386397085962314
 40
5.386397085962314
 40
5.927472081979731
 40
5.927472081979731
 40
6.629357707321489
 40
6.629357707321489
 40
7.331243332663247
 40
7.331243332663247
 40
8.033128958005005
 40
8.033128958005005
 40
8.735014583346763
 40
8.735014583346763
 40
8.735014583346763
 40
8.735014583346763
 10
16.3356567507891
 20
-37.36859067659771
 30
0.0
 10
16.37142787107109
 20
-37.38505934375158
 30
0.0
 10
16.40544209781172
 20
-37.40277875864464
 30
0.0
 10
16.53721766841818
 20
-37.48109561252551
 30
0.0
 10
16.62561421430212
 20
-37.55934798312168
 30
0.0
 10
16.74302592740867
 20
-37.74955702427019
 30
0.0
 10
16.7718873767642
 20
-37.8619074936735
 30
0.0
 10
16.7718873767642
 20
-38.09155346230895
 30
0.0
 10
16.74302592740867
 20
-38.22569185698316
 30
0.0
 10
16.62561421430212
 20
-38.50041467732066
 30
0.0
 10
16.53721766841818
 20
-38.64074795646582
 30
0.0
 10
16.3082991825321
 20
-38.92664586607941
 30
0.0
 10
16.14853495801242
 20
-39.07927940431296
 30
0.0
 10
15.78418594487425
 20
-39.35233267228014
 30
0.0
 10
15.57946407735108
 20
-39.47259064103912
 30
0.0
 10
15.1422301703301
 20
-39.66819628928795
 30
0.0
 10
14.90945004676394
 20
-39.74353809854043
 30
0.0
 10
14.43579819077218
 20
-39.84303041275581
 30
0.0
 10
14.19491719218388
 20
-39.86712731905683
 30
0.0
 10
13.96095531706999
 20
-39.86712731905683
 30
0.0
  0
SPLINE
  5
1B750
330
1F
100
AcDbEntity
  8
AM_0
100
AcDbSpline
210
0.0
220
0.0
230
1.0
 70
     8
 71
     3
 72
    24
 73
    20
 74
     0
 42
0.0000000001
 43
0.0000000001
 40
2.870094743395724
 40
2.870094743395724
 40
2.870094743395724
 40
2.870094743395724
 40
2.992602102571006
 40
2.992602102571006
 40
3.765550142491625
 40
3.765550142491625
 40
4.001750366608357
 40
4.001750366608357
 40
4.23795059072509
 40
4.23795059072509
 40
4.474150814841822
 40
4.474150814841822
 40
4.710351038958556
 40
4.710351038958556
 40
5.366432623205894
 40
5.366432623205894
 40
6.022514207453233
 40
6.022514207453233
 40
6.416668597334576
 40
6.416668597334576
 40
6.416668597334576
 40
6.416668597334576
 10
10.37489181678484
 20
1.88619713549533
 30
0.0
 10
10.34093008014395
 20
1.91441654812629
 30
0.0
 10
10.30732423051973
 20
1.943080145773983
 30
0.0
 10
10.06537822666098
 20
2.15575371038161
 30
0.0
 10
9.876243752755499
 20
2.356083257992275
 30
0.0
 10
9.708052397279971
 20
2.639910714444731
 30
0.0
 10
9.672393937856214
 20
2.711511626992056
 30
0.0
 10
9.616361826094703
 20
2.860436989085507
 30
0.0
 10
9.596070169793279
 20
2.937782391738459
 30
0.0
 10
9.574409978439803
 20
3.092427189665521
 30
0.0
 10
9.572999438301736
 20
3.169978125389029
 30
0.0
 10
9.586876480791148
 20
3.319572435575957
 30
0.0
 10
9.602073214339384
 20
3.39162657998363
 30
0.0
 10
9.678300295803865
 20
3.6441281589291
 30
0.0
 10
9.781670730645033
 20
3.820253572241761
 30
0.0
 10
10.0277646341865
 20
4.13499693312945
 30
0.0
 10
10.17014211382798
 20
4.273782910578937
 30
0.0
 10
10.3869121436926
 20
4.457499481507533
 30
0.0
 10
10.4716905823301
 20
4.52286678607404
 30
0.0
 10
10.55895387902547
 20
4.584598500987049
 30
0.0
  0
ELLIPSE
  5
1B751
330
1F
100
AcDbEntity
  8
AM_0
100
AcDbEllipse
 10
17.22229578571842
 20
1.784997523980444
 30
0.0
 11
7.25126529078069
 21
-2.026323254923518
 31
0.0
210
0.0
220
0.0
230
1.0
 40
0.3935550262189939
 41
2.477987747837752
 42
2.831927142082011
  0
ARC
  5
1B757
330
1F
100
AcDbEntity
  8
AM_0
100
AcDbCircle
 10
13.96095531706999
 20
1.784997523980451
 30
0.0
 40
3.354101966249682
100
AcDbArc
 50
44.92764477905007
 51
90.0
  0
LINE
  5
1B758
330
1F
100
AcDbEntity
  8
AM_0
100
AcDbLine
 10
12.00112668052361
 20
5.13909949023013
 30
0.0
 11
13.96095531706999
 21
5.13909949023013
 31
0.0
  0
LINE
  5
1B759
330
1F
100
AcDbEntity
  8
AM_0
100
AcDbLine
 10
10.47528804121725
 20
6.644342611753665
 30
0.0
 11
12.00112668052361
 21
5.13909949023013
 31
0.0
  0
SPLINE
  5
1B75A
330
1F
100
AcDbEntity
  8
AM_0
100
AcDbSpline
210
0.0
220
0.0
230
1.0
 70
     8
 71
     3
 72
    10
 73
     6
 74
     0
 42
0.0000000001
 43
0.0000000001
 40
23.88385800614017
 40
23.88385800614017
 40
23.88385800614017
 40
23.88385800614017
 40
25.09807646884481
 40
25.09807646884481
 40
25.10486866855917
 40
25.10486866855917
 40
25.10486866855917
 40
25.10486866855917
 10
3.774198885549936
 20
8.655295131074261
 30
0.0
 10
3.356979481997541
 20
8.676991481290536
 30
0.0
 10
2.943437503032328
 20
8.687148413945941
 30
0.0
 10
2.53643394889275
 20
8.687148413945941
 30
0.0
 10
2.534167869914313
 20
8.687148092989609
 30
0.0
 10
2.531899797052574
 20
8.687147449276317
 30
0.0
  0
LINE
  5
1B75B
330
1F
100
AcDbEntity
  8
AM_0
100
AcDbLine
 10
2.531899797072356
 20
8.687147338187167
 30
0.0
 11
1.159497599739552
 21
8.686757771281059
 31
0.0
  0
SPLINE
  5
1B75F
330
1F
100
AcDbEntity
  8
AM_0
100
AcDbSpline
210
0.0
220
0.0
230
1.0
 70
     8
 71
     3
 72
     8
 73
     4
 74
     0
 42
0.0000000001
 43
0.0000000001
 40
11.99047068104193
 40
11.99047068104193
 40
11.99047068104193
 40
11.99047068104193
 40
12.11834088718139
 40
12.11834088718139
 40
12.11834088718139
 40
12.11834088718139
 10
10.37489181678484
 20
1.886197135495273
 30
0.0
 10
10.33352826062082
 20
1.881891252487854
 30
0.0
 10
10.29189182382925
 20
1.877774431592421
 30
0.0
 10
10.25
 20
1.873833981883585
 30
0.0
  0
LINE
  5
1B760
330
1F
100
AcDbEntity
  8
AM_0
100
AcDbLine
 10
13.96095531706999
 20
1.886197135495273
 30
0.0
 11
10.37489181678484
 21
1.886197135495273
 31
0.0
  0
SPLINE
  5
1B761
330
1F
100
AcDbEntity
  8
AM_0
100
AcDbSpline
210
0.0
220
0.0
230
1.0
 70
     8
 71
     3
 72
    24
 73
    20
 74
     0
 42
0.0000000001
 43
0.0000000001
 40
3.588744173807645
 40
3.588744173807645
 40
3.588744173807645
 40
3.588744173807645
 40
3.763172097910063
 40
3.763172097910063
 40
4.30424709392748
 40
4.30424709392748
 40
4.845322089944897
 40
4.845322089944897
 40
5.386397085962314
 40
5.386397085962314
 40
5.927472081979731
 40
5.927472081979731
 40
6.629357707321489
 40
6.629357707321489
 40
7.331243332663247
 40
7.331243332663247
 40
8.033128958005005
 40
8.033128958005005
 40
8.735014583346763
 40
8.735014583346763
 40
8.735014583346763
 40
8.735014583346763
 10
16.3356567507891
 20
4.153708798216421
 30
0.0
 10
16.37142787107109
 20
4.110894632185925
 30
0.0
 10
16.40544209781172
 20
4.067171916194148
 30
0.0
 10
16.53721766841818
 20
3.884457976688786
 30
0.0
 10
16.62561421430212
 20
3.726445426508938
 30
0.0
 10
16.74302592740867
 20
3.409972916273084
 30
0.0
 10
16.7718873767642
 20
3.251692777789366
 30
0.0
 10
16.7718873767642
 20
2.973521534154905
 30
0.0
 10
16.74302592740867
 20
2.833228550410915
 30
0.0
 10
16.62561421430212
 20
2.58652690660724
 30
0.0
 10
16.53721766841818
 20
2.479765629532487
 30
0.0
 10
16.3082991825321
 20
2.286064968392786
 30
0.0
 10
16.14853495801242
 20
2.200909455582995
 30
0.0
 10
15.78418594487425
 20
2.066838933137056
 30
0.0
 10
15.57946407735108
 20
2.017967086649968
 30
0.0
 10
15.1422301703301
 20
1.94578846044066
 30
0.0
 10
14.90945004676394
 20
1.922367669257731
 30
0.0
 10
14.43579819077218
 20
1.892587835107115
 30
0.0
 10
14.19491719218388
 20
1.886197135495273
 30
0.0
 10
13.96095531706999
 20
1.886197135495273
 30
0.0
  0
LINE
  5
1B762
330
1F
100
AcDbEntity
  8
AM_0
100
AcDbLine
 10
16.3356567507891
 20
4.153708798216421
 30
0.0
 11
17.25
 21
4.153708798216421
 31
0.0
  0
LINE
  5
1B768
330
1F
100
AcDbEntity
  8
AM_0
100
AcDbLine
 10
17.25
 20
6.84629120178365
 30
0.0
 11
10.76045358129704
 21
6.84629120178365
 31
0.0
  0
SPLINE
  5
1B769
330
1F
100
AcDbEntity
  8
AM_0
100
AcDbSpline
210
0.0
220
0.0
230
1.0
 70
     8
 71
     3
 72
    16
 73
    12
 74
     0
 42
0.0000000001
 43
0.0000000001
 40
1.105695826962174
 40
1.105695826962174
 40
1.105695826962174
 40
1.105695826962174
 40
1.928941247978927
 40
1.928941247978927
 40
3.857882495957853
 40
3.857882495957853
 40
4.822353119947317
 40
4.822353119947317
 40
5.78682374393678
 40
5.78682374393678
 40
6.384746956609404
 40
6.384746956609404
 40
6.384746956609404
 40
6.384746956609404
 10
8.960955317069988
 20
6.863894841703079
 30
0.0
 10
8.705720283885739
 20
6.960590366615683
 30
0.0
 10
8.445772867862388
 20
7.059512761213533
 30
0.0
 10
7.565036951261277
 20
7.393960438793037
 30
0.0
 10
6.928613826115679
 20
7.634901428453098
 30
0.0
 10
5.967926600430133
 20
7.981204632390352
 30
0.0
 10
5.646981608766964
 20
8.09396837052676
 30
0.0
 10
5.005937095890999
 20
8.308200188357084
 30
0.0
 10
4.685879508060225
 20
8.40979708765024
 30
0.0
 10
4.168878941429625
 20
8.55711512173729
 30
0.0
 10
3.971452023230086
 20
8.609333697615192
 30
0.0
 10
3.774198885549936
 20
8.655295131074261
 30
0.0
  0
LINE
  5
1B76A
330
1F
100
AcDbEntity
  8
AM_0
100
AcDbLine
 10
3.774198885549936
 20
8.655295131074688
 30
0.0
 11
8.960955317069988
 21
8.655295131074688
 31
0.0
  0
ARC
  5
1B76B
330
1F
100
AcDbEntity
  8
AM_0
100
AcDbCircle
 10
8.960955317069988
 20
9.084997523980434
 30
0.0
 40
2.872281323269007
100
AcDbArc
 50
301.8180142112903
 51
308.7927270436324
  0
ELLIPSE
  5
1B76C
330
1F
100
AcDbEntity
  8
AM_0
100
AcDbEllipse
 10
9.462923442522992
 20
9.593833837905002
 30
0.0
 11
-2.350698770776058
 21
2.318969427260832
 31
0.0
210
0.0
220
0.0
230
1.0
 40
0.787787427551692
 41
2.1666103679164
 42
2.578420196215743
  0
SPLINE
  5
1B76D
330
1F
100
AcDbEntity
  8
AM_0
100
AcDbSpline
210
0.0
220
0.0
230
1.0
 70
     8
 71
     3
 72
    10
 73
     6
 74
     0
 42
0.0000000001
 43
0.0000000001
 40
7.624988642335295
 40
7.624988642335295
 40
7.624988642335295
 40
7.624988642335295
 40
7.66955697284199
 40
7.66955697284199
 40
7.941136484289691
 40
7.941136484289691
 40
7.941136484289691
 40
7.941136484289691
 10
9.270021823316824
 20
6.759706168545215
 30
0.0
 10
9.255417329109946
 20
6.764032996358729
 30
0.0
 10
9.240800230467244
 20
6.768446586585263
 30
0.0
 10
9.137096342791779
 20
6.800354008448373
 30
0.0
 10
9.047906886445276
 20
6.830953330744244
 30
0.0
 10
8.960955317069988
 20
6.863894841703079
 30
0.0
  0
SPLINE
  5
1B76E
330
1F
100
AcDbEntity
  8
AM_0
100
AcDbSpline
210
0.0
220
0.0
230
1.0
 70
     8
 71
     3
 72
    24
 73
    20
 74
     0
 42
0.0000000001
 43
0.0000000001
 40
0.9676422520976017
 40
0.9676422520976017
 40
0.9676422520976017
 40
0.9676422520976017
 40
1.481081040259633
 40
1.481081040259633
 40
1.994519828421665
 40
1.994519828421665
 40
2.507958616583696
 40
2.507958616583696
 40
3.021397404745728
 40
3.021397404745728
 40
3.393799051186519
 40
3.393799051186519
 40
3.76620069762731
 40
3.76620069762731
 40
4.138602344068101
 40
4.138602344068101
 40
4.511003990508892
 40
4.511003990508892
 40
4.580748851617531
 40
4.580748851617531
 40
4.580748851617531
 40
4.580748851617531
 10
8.960955317069988
 20
8.655295131074688
 30
0.0
 10
9.132101579790628
 20
8.655295131074688
 30
0.0
 10
9.308994249434704
 20
8.646454087683331
 30
0.0
 10
9.658360838627118
 20
8.607804803991478
 30
0.0
 10
9.830842936381487
 20
8.578014551311433
 30
0.0
 10
10.15639340765722
 20
8.493988360875925
 30
0.0
 10
10.30956990458742
 20
8.439752471347212
 30
0.0
 10
10.58330665671508
 20
8.30242019894154
 30
0.0
 10
10.70399432933539
 20
8.219441719448206
 30
0.0
 10
10.87212180305244
 20
8.045692967134379
 30
0.0
 10
10.93536607701276
 20
7.956616093186703
 30
0.0
 10
11.01965238670982
 20
7.759723809425047
 30
0.0
 10
11.04049762626914
 20
7.65171185863678
 30
0.0
 10
11.04049762626914
 20
7.44372625860813
 30
0.0
 10
11.01965238670982
 20
7.32839177615292
 30
0.0
 10
10.93536607701276
 20
7.103225512336358
 30
0.0
 10
10.87212180305244
 20
6.993441571635877
 30
0.0
 10
10.7882049119022
 20
6.881026742773592
 30
0.0
 10
10.77453516417347
 20
6.86353622327163
 30
0.0
 10
10.76045358129704
 20
6.84629120178365
 30
0.0
  0
TEXT
  5
1BA4C
330
1F
100
AcDbEntity
  8
AM_0
100
AcDbText
 10
10.07714807343461
 20
-78.05058977607864
 30
0.0
 40
5.0
  1
B08H-SCLCR0602-10
100
AcDbText
  0
DIMENSION
  5
1BEA1
330
1F
100
AcDbEntity
  8
AM_5
100
AcDbDimension
  2
*D7
 10
64.74999999999994
 20
-7.081793753088377
 30
0.0
 11
61.24999999999997
 21
-7.081793753088377
 31
0.0
 70
   160
 71
     5
 42
6.999999999999943
  3
AM_JIS$0
100
AcDbAlignedDimension
 13
57.75
 23
3.563508326896276
 33
0.0
 14
64.74999999999994
 24
3.563508326896155
 34
0.0
100
AcDbRotatedDimension
1001
ACAD
1000
DSTYLE
1002
{
1070
   179
1070
     2
1070
   271
1070
     0
1002
}
  0
DIMENSION
  5
1C0B1
330
1F
100
AcDbEntity
  8
AM_5
100
AcDbDimension
  2
*D8
 10
100.0
 20
-23.15221926568474
 30
0.0
 11
50.0
 21
-19.75221926568474
 31
0.0
 70
    32
 71
     5
 42
100.0
  3
AM_JIS$0
100
AcDbAlignedDimension
 13
0.0
 23
0.0
 33
0.0
 14
100.0
 24
2.499999999999986
 34
0.0
100
AcDbRotatedDimension
1001
ACAD
1000
DSTYLE
1002
{
1070
   179
1070
     2
1070
   271
1070
     0
1002
}
  0
DIMENSION
  5
1C10E
330
1F
100
AcDbEntity
  8
AM_5
100
AcDbDimension
  2
*D9
 10
-8.558650924599077
 20
5.499999999999973
 30
0.0
 11
-8.558650924599078
 21
-9.23870057685096
 31
0.0
 70
   160
 71
     5
 42
5.499999999999971
  3
AM_JIS$0
100
AcDbAlignedDimension
 13
0.0
 23
0.0
 33
0.0
 14
-2.430078659907167
 24
5.499999999999972
 34
0.0
 50
90.0
100
AcDbRotatedDimension
1001
ACAD
1000
DSTYLE
1002
{
1070
   179
1070
     2
1070
   271
1070
     1
1002
}
  0
DIMENSION
  5
1C159
330
1F
100
AcDbEntity
  8
AM_5
100
AcDbDimension
  2
*D10
 10
0.4801251475875006
 20
5.894135837109893
 30
0.0
 11
-16.64893747164198
 21
18.1303365238177
 31
0.0
 70
    34
 71
     5
 42
1.658062789394602
  3
AM_JIS$2
100
AcDb2LineAngularDimension
 13
0.0
 23
0.0
 33
0.0
 14
0.3999528515373072
 24
-0.0000000000000071
 34
0.0
 15
0.0014455141152894
 25
0.4228025902563388
 35
0.0
 16
-9.546017627345844
 26
18.93690811309494
 36
0.0
1001
ACAD
1000
DSTYLE
1002
{
1070
   271
1070
     0
1002
}
  0
DIMENSION
  5
1C1AE
330
1F
100
AcDbEntity
  8
AM_5
100
AcDbDimension
  2
*D11
 10
-37.6818524725266
 20
5.894135844602118
 30
0.0
 11
-42.22445184106871
 21
-13.78202373017245
 31
0.0
 70
   162
 71
     5
 42
0.226892802721431
  3
AM_JIS$2
100
AcDb2LineAngularDimension
 13
-39.0428488496803
 23
12.3945099645716
 33
0.0
 14
-39.0428488496803
 24
-2.194777735745873
 34
0.0
 15
-38.9450092820548
 25
0.4228025977485572
 35
0.0
 16
-40.11151809024275
 26
-14.1040901014657
 36
0.0
1001
ACAD
1000
DSTYLE
1002
{
1070
   179
1070
     0
1070
   271
1070
     0
1002
}
  0
ENDSEC
  0
SECTION
  2
OBJECTS
  0
DICTIONARY
  5
C
330
0
100
AcDbDictionary
281
     1
  3
ACAD_COLOR
350
1BAAF
  3
ACAD_GROUP
350
D
  3
ACAD_LAYOUT
350
1A
  3
ACAD_MATERIAL
350
1BAAE
  3
ACAD_MLINESTYLE
350
17
  3
ACAD_PLOTSETTINGS
350
19
  3
ACAD_PLOTSTYLENAME
350
E
  3
ACAD_TABLESTYLE
350
1BAB0
  3
AcAmCatalogState
350
1BB17
  3
ACDBHEADERROUNDTRIPXREC
350
1C487
  3
AcDbVariableDictionary
350
30
  3
ACDMSYSVARMGR
350
1BACA
  3
ACGREF_MASTER
350
1BAC2
  3
ACGREFACAD_MASTER
350
1BAEA
  3
AcmDictionary
350
4D
  3
ACME_BOM_MANAGER_NAME
350
36
  3
ACME_COMMAND_HISTORY
350
2F
  3
ACME_SCOPE_NAME
350
2E
  3
ACMESTATEMGR
350
3B
  3
AcmeSysVarManager
350
32
  3
AcmSystemVariableManager
350
6A
  3
AD_APPL
350
1BAF5
  3
ADSYSVARMGR
350
1BAF4
  3
AmdtNamedDwgMgr
350
1BAE5
  3
AMG
350
3F
  3
AMGSNAPSETTINGS
350
73
  3
AMI_MASTER
350
1BAED
  3
AUTOCAD_ASSEMBLIES_PROJECT
350
1BAFD
  3
Designer_Assemblies_SysVars
350
1BAF8
  3
DWGPROPS
350
1C48A
  3
eng_data
350
2A40
  3
FILENAME
350
2916
  3
GREFAM_MODULE
350
1BAEE
  3
line_dic_data
350
2A3E
  3
table_dic_data
350
1688
  3
ZWKSIZE
350
2918
  0
DICTIONARY
  5
165
330
1F
100
AcDbDictionary
280
     1
281
     1
  0
DICTIONARY
  5
1BAAF
102
{ACAD_REACTORS
330
C
102
}
330
C
100
AcDbDictionary
281
     1
  0
DICTIONARY
  5
D
102
{ACAD_REACTORS
330
C
102
}
330
C
100
AcDbDictionary
281
     1
  0
DICTIONARY
  5
1A
102
{ACAD_REACTORS
330
C
102
}
330
C
100
AcDbDictionary
281
     1
  3
Model
350
22
  3
ﾚｲｱｳﾄ1
350
1E
  3
ﾚｲｱｳﾄ2
350
26
  0
DICTIONARY
  5
1BAAE
102
{ACAD_REACTORS
330
C
102
}
330
C
100
AcDbDictionary
281
     1
  0
DICTIONARY
  5
17
102
{ACAD_REACTORS
330
C
102
}
330
C
100
AcDbDictionary
281
     1
  3
Standard
350
18
  0
DICTIONARY
  5
19
102
{ACAD_REACTORS
330
C
102
}
330
C
100
AcDbDictionary
281
     1
  0
ACDBDICTIONARYWDFLT
  5
E
102
{ACAD_REACTORS
330
C
102
}
330
C
100
AcDbDictionary
281
     1
  3
Normal
350
F
100
AcDbDictionaryWithDefault
340
F
  0
DICTIONARY
  5
1BAB0
102
{ACAD_REACTORS
330
C
102
}
330
C
100
AcDbDictionary
281
     1
  3
Standard
350
1BAB1
  0
ACAD_PROXY_OBJECT
  5
1BB17
102
{ACAD_REACTORS
330
C
102
}
330
C
100
AcDbProxyObject
 90
      499
 91
      571
 95
       25
 70
     0
 93
      640
310
3FFFFFFFE00A0281402A1A19D2E2237B1BAB6B2B73A399030B7321029B2BA3A34B733B9AE20B236B4B734B9BA3930BA37B92E41B341AC41A741B3C1B141BB2E413BC1B7C0ADCAE7C6AC483ECB65400AA
  0
DICTIONARY
  5
1C487
102
{ACAD_REACTORS
330
C
102
}
330
C
100
AcDbDictionary
281
     1
  3
COLORDICT
350
1C488
  3
MATERIALDICT
350
1C489
  0
DICTIONARY
  5
30
102
{ACAD_REACTORS
330
C
102
}
330
C
100
AcDbDictionary
281
     1
  3
CTABLESTYLE
350
1BE2A
  3
HIDETEXT
350
1C486
  3
INDEXCTL
350
1C485
  0
ACAD_PROXY_OBJECT
  5
1BACA
102
{ACAD_REACTORS
330
C
102
}
330
C
100
AcDbProxyObject
 90
      499
 91
      507
 95
       25
 70
     0
 93
      240
310
4C51A47A0000000000000000000000000000000000000000000000000000
330
1BACB
330
1BACC
330
1BACD
330
1BACE
330
1BACF
330
1BAD0
330
1BAD1
330
1BAD2
330
1BAD3
330
1BAD4
330
1BAD5
330
1BAD6
330
1BAD7
330
1BAD8
330
1BAD9
330
1BADA
330
1BADB
330
1BADC
330
1BADD
330
1BADE
330
1BADF
330
1BAE0
330
1BAE1
330
1BAE2
330
1BAE3
330
1BAE4
 94
        0
  0
ACAD_PROXY_OBJECT
  5
1BAC2
102
{ACAD_REACTORS
330
C
102
}
330
C
100
AcDbProxyObject
 90
      499
 91
      535
 95
       25
 70
     0
 93
       34
310
0400004280
  0
ACAD_PROXY_OBJECT
  5
1BAEA
102
{ACAD_REACTORS
330
C
102
}
330
C
100
AcDbProxyObject
 90
      499
 91
      541
 95
       25
 70
     0
 93
      114
310
04000041C080000000000000000000
  0
DICTIONARY
  5
4D
102
{ACAD_REACTORS
330
C
102
}
330
C
100
AcDbDictionary
281
     1
  3
AcmBOMDATA
350
4E
  3
AcmStdDictionary
350
17E
  3
AMDTSECTSYM_ARROWCOLOR
350
1BB0B
  0
ACAD_PROXY_OBJECT
  5
36
102
{ACAD_REACTORS
330
C
102
}
330
C
100
AcDbProxyObject
 90
      499
 91
      510
 95
       25
 70
     0
 93
       50
310
00010040400000
330
0
330
0
330
37
 94
        0
  0
ACAD_PROXY_OBJECT
  5
2F
102
{ACAD_REACTORS
330
C
102
}
330
C
100
AcDbProxyObject
 90
      499
 91
      505
 95
       25
 70
     0
 93
     6874
310
47805055153415645408052D4D5347202D205050413A2020206465736B746F702E6172782046696C6556657273696F6E3A20392E322E302E34014B5354D1C80B481414104E88080819195CDADD1BDC0B985C9E08119A5B1955995C9CDA5BDB8E880E4B8C8B8C0B8D005055153415645404052D4D5347202D205050413A2020
310
206465736B746F702E6172782046696C6556657273696F6E3A20392E322E302E34014390535115149154D15511109353D1102014213880B4815539113C05084E202D20554E444F014115539113E014115539113D01014B5354D1C80B481414104E88080819195CDADD1BDC0B985C9E08119A5B1955995C9CDA5BDB8E880E4B
310
8C8B8C0B8D0050E414D4454524553455444424D4F4440805084E202D20554E444F014213880B4815539113C0504554E444F80504554E444F805054552415345404052D4D5347202D205050413A2020206465736B746F702E6172782046696C6556657273696F6E3A20392E322E302E34014154155491D1601415454D055915
310
01014B5354D1C80B481414104E88080819195CDADD1BDC0B985C9E08119A5B1955995C9CDA5BDB8E880E4B8C8B8C0B8D0050E414D4454524553455444424D4F4440805084E202D20554E444F014213880B4815539113C0504554E444F80504554E444F805055153415645404052D4D5347202D205050413A2020206465736B
310
746F702E6172782046696C6556657273696F6E3A20392E322E302E34014390535115149154D15511109353D1102014213880B4815539113C05084E202D20554E444F014115539113E014115539113E01419493D510551160142111493D411D153D36014311D4925417D4D514915510D2201411353D591601411693D3D36014
310
15454D05591501014B5354D1C80B481414104E88080819195CDADD1BDC0B985C9E08119A5B1955995C9CDA5BDB8E880E4B8C8B8C0B8D005055153415645404052D4D5347202D205050413A2020206465736B746F702E6172782046696C6556657273696F6E3A20392E322E302E34014390535115149154D15511109353D110
310
2014213880B4815539113C05084E202D20554E444F014115539113E014115539113E014154155491D1601415454D05591501014B5354D1C80B481414104E88080819195CDADD1BDC0B985C9E08119A5B1955995C9CDA5BDB8E880E4B8C8B8C0B8D00
  0
ACAD_PROXY_OBJECT
  5
2E
102
{ACAD_REACTORS
330
C
102
}
330
C
100
AcDbProxyObject
 90
      499
 91
      504
 95
       25
 70
     0
 93
      586
310
09000046408000000000000000001344E200000000000000000000000000000000000000000000000000000000000000000000000000000000000000000000000000000000AAA406AA80
360
33
360
34
360
35
360
37
360
6B
360
6C
360
1BAC3
360
1BAC4
360
1BAC5
360
1BAC6
360
1BAC7
360
1BAC8
360
1BACB
360
1BACC
360
1BACD
360
1BACE
360
1BACF
360
1BAD0
360
1BAD1
360
1BAD2
360
1BAD3
360
1BAD4
360
1BAD5
360
1BAD6
360
1BAD7
360
1BAD8
360
1BAD9
360
1BADA
360
1BADB
360
1BADC
360
1BADD
360
1BADE
360
1BADF
360
1BAE0
360
1BAE1
360
1BAE2
360
1BAE3
360
1BAE4
360
1BAF0
360
1BAF1
360
1BAF2
360
1BAF3
360
1BAF9
360
1BAFA
360
1BAFB
360
1BAFC
360
1BB01
360
1BB02
360
1BB03
360
1BB04
360
1BB05
360
1BB06
 94
        0
  0
ACAD_PROXY_OBJECT
  5
3B
102
{ACAD_REACTORS
330
C
102
}
330
C
100
AcDbProxyObject
 90
      499
 91
      515
 95
       25
 70
     0
 93
       50
310
09000042641280
  0
ACAD_PROXY_OBJECT
  5
32
102
{ACAD_REACTORS
330
C
102
}
330
C
100
AcDbProxyObject
 90
      499
 91
      507
 95
       25
 70
     0
 93
       48
310
903412000000
330
33
330
34
330
35
 94
        0
  0
ACAD_PROXY_OBJECT
  5
6A
102
{ACAD_REACTORS
330
C
102
}
330
C
100
AcDbProxyObject
 90
      499
 91
      507
 95
       25
 70
     0
 93
       40
310
90240E0000
330
6B
330
6C
 94
        0
  0
ACAD_PROXY_OBJECT
  5
1BAF5
102
{ACAD_REACTORS
330
C
102
}
330
C
100
AcDbProxyObject
 90
      499
 91
      551
 95
       25
 70
     0
 93
       42
310
000900004040
330
1BAF0
 94
        0
  0
ACAD_PROXY_OBJECT
  5
1BAF4
102
{ACAD_REACTORS
330
C
102
}
330
C
100
AcDbProxyObject
 90
      499
 91
      507
 95
       25
 70
     0
 93
        8
310
AA
  0
ACAD_PROXY_OBJECT
  5
1BAE5
102
{ACAD_REACTORS
330
C
102
}
330
C
100
AcDbProxyObject
 90
      499
 91
      540
 95
       25
 70
     0
 93
       42
310
000100005E80
330
1BAC3
 94
        0
  0
DICTIONARY
  5
3F
102
{ACAD_REACTORS
330
C
102
}
330
C
100
AcDbDictionary
281
     1
  3
AcMgSettings
350
40
  3
AMGLAYCFG
350
42
  0
DICTIONARY
  5
73
102
{ACAD_REACTORS
330
C
102
}
330
C
100
AcDbDictionary
281
     1
  3
DIMENSION
350
62F
  3
FEA
350
630
  3
HATCH (1)
350
631
  3
HATCH (2)
350
632
  3
SYMBOLS
350
633
  0
ACAD_PROXY_OBJECT
  5
1BAED
102
{ACAD_REACTORS
330
C
102
}
330
C
100
AcDbProxyObject
 90
      499
 91
      544
 95
       25
 70
     0
 93
       34
310
0500004280
  0
ACAD_PROXY_OBJECT
  5
1BAFD
102
{ACAD_REACTORS
330
C
102
}
330
C
100
AcDbProxyObject
 90
      499
 91
      554
 95
       25
 70
     0
 93
       98
310
0900004E400000000000000000
330
1BB04
330
0
330
1BB05
330
0
330
0
330
0
330
0
330
0
 94
        0
  0
ACAD_PROXY_OBJECT
  5
1BAF8
102
{ACAD_REACTORS
330
C
102
}
330
C
100
AcDbProxyObject
 90
      499
 91
      507
 95
       25
 70
     0
 93
       56
310
90441600000000
330
1BAF9
330
1BAFA
330
1BAFB
330
1BAFC
 94
        0
  0
XRECORD
  5
1C48A
102
{ACAD_REACTORS
330
C
102
}
330
C
100
AcDbXrecord
280
     1
  1
DWGPROPS COOKIE
  2

  3

  4

  6

  7

  8

  9

300
AmdtFileType=82
301
=
302
=
303
=
304
=
305
=
306
=
307
=
308
=
309
=
 40
0.0
 41
2451943.235431667
 42
2455478.203204931
  1

 90
        1
  0
DICTIONARY
  5
2A40
102
{ACAD_REACTORS
330
C
102
}
330
C
100
AcDbDictionary
281
     1
  3
eng_id
350
2A41
  0
DICTIONARY
  5
2916
102
{ACAD_REACTORS
330
C
102
}
330
C
100
AcDbDictionary
281
     1
  3
FILENAME
350
2917
  0
ACAD_PROXY_OBJECT
  5
1BAEE
102
{ACAD_REACTORS
330
C
102
}
330
C
100
AcDbProxyObject
 90
      499
 91
      545
 95
       25
 70
     0
 93
        8
310
05
  0
DICTIONARY
  5
2A3E
102
{ACAD_REACTORS
330
C
102
}
330
C
100
AcDbDictionary
281
     1
  3
line_data
350
2A3F
  0
DICTIONARY
  5
1688
102
{ACAD_REACTORS
330
C
102
}
330
C
100
AcDbDictionary
281
     1
  3
input_data
350
168A
  3
table_data
350
1689
  0
DICTIONARY
  5
2918
102
{ACAD_REACTORS
330
C
102
}
330
C
100
AcDbDictionary
281
     1
  3
ZWKSIZE
350
2919
  0
LAYOUT
  5
22
102
{ACAD_REACTORS
330
1A
102
}
330
1A
100
AcDbPlotSettings
  1

  2
SII LP-2150 (D-SCAN C2)
  4
User262
  6
AM_VIEW1
 40
3.174999952316284
 41
3.174999952316284
 42
3.17498779296875
 43
3.17498779296875
 44
296.9259948730469
 45
419.9889831542969
 46
0.0
 47
0.0
 48
0.0
 49
0.0
140
420.0
141
297.0
142
1.0
143
1.022107788374329
 70
 11952
 72
     1
 73
     1
 74
     4
  7
sei_cad.ctb
 75
     0
147
0.9783703943695685
148
0.0
149
0.0
100
AcDbLayout
  1
Model
 70
     1
 71
     0
 10
0.0
 20
0.0
 11
12.0
 21
9.0
 12
0.0
 22
0.0
 32
0.0
 14
0.0
 24
0.0
 34
0.0
 15
0.0
 25
0.0
 35
0.0
146
0.0
 13
0.0
 23
0.0
 33
0.0
 16
1.0
 26
0.0
 36
0.0
 17
0.0
 27
1.0
 37
0.0
 76
     0
330
1F
  0
LAYOUT
  5
1E
102
{ACAD_REACTORS
330
1A
102
}
330
1A
100
AcDbPlotSettings
  1

  2
Canon LASER SHOT LBP-2030
  4

  6

 40
0.0
 41
0.0
 42
0.0
 43
0.0
 44
0.0
 45
0.0
 46
0.0
 47
0.0
 48
0.0
 49
0.0
140
0.0
141
0.0
142
1.0
143
1.0
 70
   688
 72
     0
 73
     0
 74
     5
  7
sei_cad.ctb
 75
    16
147
1.0
148
0.0
149
0.0
100
AcDbLayout
  1
ﾚｲｱｳﾄ1
 70
     1
 71
     1
 10
0.0
 20
0.0
 11
420.0
 21
297.0
 12
0.0
 22
0.0
 32
0.0
 14
1.000000000000000E+20
 24
1.000000000000000E+20
 34
1.000000000000000E+20
 15
-1.000000000000000E+20
 25
-1.000000000000000E+20
 35
-1.000000000000000E+20
146
0.0
 13
0.0
 23
0.0
 33
0.0
 16
1.0
 26
0.0
 36
0.0
 17
0.0
 27
1.0
 37
0.0
 76
     0
330
1B
  0
LAYOUT
  5
26
102
{ACAD_REACTORS
330
1A
102
}
330
1A
100
AcDbPlotSettings
  1

  2
Canon LASER SHOT LBP-2030
  4

  6

 40
0.0
 41
0.0
 42
0.0
 43
0.0
 44
0.0
 45
0.0
 46
0.0
 47
0.0
 48
0.0
 49
0.0
140
0.0
141
0.0
142
1.0
143
1.0
 70
   688
 72
     0
 73
     0
 74
     5
  7
sei_cad.ctb
 75
    16
147
1.0
148
0.0
149
0.0
100
AcDbLayout
  1
ﾚｲｱｳﾄ2
 70
     1
 71
     2
 10
0.0
 20
0.0
 11
12.0
 21
9.0
 12
0.0
 22
0.0
 32
0.0
 14
0.0
 24
0.0
 34
0.0
 15
0.0
 25
0.0
 35
0.0
146
0.0
 13
0.0
 23
0.0
 33
0.0
 16
1.0
 26
0.0
 36
0.0
 17
0.0
 27
1.0
 37
0.0
 76
     0
330
23
  0
MLINESTYLE
  5
18
102
{ACAD_REACTORS
330
17
102
}
330
17
100
AcDbMlineStyle
  2
STANDARD
 70
     0
  3

 62
   256
 51
90.0
 52
90.0
 71
     2
 49
0.5
 62
   256
  6
BYLAYER
 49
-0.5
 62
   256
  6
BYLAYER
  0
ACDBPLACEHOLDER
  5
F
102
{ACAD_REACTORS
330
E
102
}
330
E
  0
TABLESTYLE
  5
1BAB1
102
{ACAD_REACTORS
330
1BAB0
102
}
330
1BAB0
100
AcDbTableStyle
  3
Standard
 70
     0
 71
     8
 40
1.5
 41
1.5
280
     0
281
     0
  7
STANDARD
140
4.5
170
     2
 62
     0
 63
     7
283
     0
274
    -2
284
     1
 64
     0
275
    -2
285
     1
 65
     0
276
    -2
286
     1
 66
     0
277
    -2
287
     1
 67
     0
278
    -2
288
     1
 68
     0
279
    -2
289
     1
 69
     0
  7
STANDARD
140
6.0
170
     5
 62
     0
 63
     7
283
     0
274
    -2
284
     1
 64
     0
275
    -2
285
     1
 65
     0
276
    -2
286
     1
 66
     0
277
    -2
287
     1
 67
     0
278
    -2
288
     1
 68
     0
279
    -2
289
     1
 69
     0
  7
STANDARD
140
4.5
170
     5
 62
     0
 63
     7
283
     0
274
    -2
284
     1
 64
     0
275
    -2
285
     1
 65
     0
276
    -2
286
     1
 66
     0
277
    -2
287
     1
 67
     0
278
    -2
288
     1
 68
     0
279
    -2
289
     1
 69
     0
  0
XRECORD
  5
1C488
102
{ACAD_REACTORS
330
1C487
102
}
330
1C487
100
AcDbXrecord
280
     1
340
1BAAF
  0
XRECORD
  5
1C489
102
{ACAD_REACTORS
330
1C487
102
}
330
1C487
100
AcDbXrecord
280
     1
340
1BAAE
  0
DICTIONARYVAR
  5
1BE2A
102
{ACAD_REACTORS
330
30
102
}
330
30
100
DictionaryVariables
280
     0
  1
STANDARD
  0
DICTIONARYVAR
  5
1C486
102
{ACAD_REACTORS
330
30
102
}
330
30
100
DictionaryVariables
280
     0
  1
0
  0
DICTIONARYVAR
  5
1C485
102
{ACAD_REACTORS
330
30
102
}
330
30
100
DictionaryVariables
280
     0
  1
1
  0
ACAD_PROXY_OBJECT
  5
4E
102
{ACAD_REACTORS
330
4D
102
}
330
4D
100
AcDbProxyObject
 90
      499
 91
      520
 95
       25
 70
     0
 93
      118
310
405010040CA904C415CD5B075DD0B8
350
4F
 94
        0
  0
DICTIONARY
  5
17E
102
{ACAD_REACTORS
330
4D
102
}
330
4D
100
AcDbDictionary
281
     1
  3
JIS
350
17F
  0
XRECORD
  5
1BB0B
102
{ACAD_REACTORS
330
4D
102
}
330
4D
100
AcDbXrecord
280
     1
 90
-1023410169
  0
ACAD_PROXY_OBJECT
  5
33
330
2E
100
AcDbProxyObject
 90
      499
 91
      508
 95
       25
 70
     0
 93
      156
310
00010143D050D351505391D5531054925390D490
330
2E
 94
        0
  0
ACAD_PROXY_OBJECT
  5
34
330
2E
100
AcDbProxyObject
 90
      499
 91
      508
 95
       25
 70
     0
 93
      148
310
000101439050D351531253915054925390D490
330
2E
 94
        0
  0
ACAD_PROXY_OBJECT
  5
35
330
2E
100
AcDbProxyObject
 90
      499
 91
      509
 95
       25
 70
     0
 93
      156
310
000101439050D35154D6535093D314D256915080
330
2E
 94
        0
  0
ACAD_PROXY_OBJECT
  5
37
330
2E
100
AcDbProxyObject
 90
      499
 91
      511
 95
       25
 70
     0
 93
       88
310
000101411093D34C402B00
330
2E
330
0
330
0
 94
        0
  0
ACAD_PROXY_OBJECT
  5
6B
330
2E
100
AcDbProxyObject
 90
      499
 91
      509
 95
       25
 70
     0
 93
      108
310
00010142505351D153D35054D4E0
330
2E
 94
        0
  0
ACAD_PROXY_OBJECT
  5
6C
330
2E
100
AcDbProxyObject
 90
      499
 91
      522
 95
       25
 70
     0
 93
      140
310
00010142105350D55494D511005034A49530
330
2E
 94
        0
  0
ACAD_PROXY_OBJECT
  5
1BAC3
330
2E
100
AcDbProxyObject
 90
      499
 91
      536
 95
       25
 70
     0
 93
      358
310
0001014124FEA55D00507392E322E302E32014124FEA55D00507392E322E302E3240501000041505391D311658
330
2E
330
1BAC4
330
1BACA
 94
        0
  0
ACAD_PROXY_OBJECT
  5
1BAC4
330
2E
100
AcDbProxyObject
 90
      499
 91
      537
 95
       25
 70
     0
 93
       56
310
000190240E0000
330
2E
330
1BAC5
330
1BAC7
 94
        0
  0
ACAD_PROXY_OBJECT
  5
1BAC5
330
2E
100
AcDbProxyObject
 90
      499
 91
      538
 95
       25
 70
     0
 93
       48
310
0001AA000000
330
2E
330
1E
330
1BAC6
330
0
 94
        0
  0
ACAD_PROXY_OBJECT
  5
1BAC6
330
2E
100
AcDbProxyObject
 90
      499
 91
      539
 95
       25
 70
     0
 93
       28
310
0001AAA0
330
2E
 94
        0
  0
ACAD_PROXY_OBJECT
  5
1BAC7
330
2E
100
AcDbProxyObject
 90
      499
 91
      538
 95
       25
 70
     0
 93
       48
310
0001AA000000
330
2E
330
26
330
1BAC8
330
0
 94
        0
  0
ACAD_PROXY_OBJECT
  5
1BAC8
330
2E
100
AcDbProxyObject
 90
      499
 91
      539
 95
       25
 70
     0
 93
       28
310
0001AAA0
330
2E
 94
        0
  0
ACAD_PROXY_OBJECT
  5
1BACB
330
2E
100
AcDbProxyObject
 90
      499
 91
      509
 95
       25
 70
     0
 93
      108
310
000101421053521310D05310D010
330
2E
 94
        0
  0
ACAD_PROXY_OBJECT
  5
1BACC
330
2E
100
AcDbProxyObject
 90
      499
 91
      509
 95
       25
 70
     0
 93
      124
310
00010142905354915554D15112535010
330
2E
 94
        0
  0
ACAD_PROXY_OBJECT
  5
1BACD
330
2E
100
AcDbProxyObject
 90
      499
 91
      509
 95
       25
 70
     0
 93
      132
310
00010143105354D150D51253D391125360
330
2E
 94
        0
  0
ACAD_PROXY_OBJECT
  5
1BACE
330
2E
100
AcDbProxyObject
 90
      499
 91
      509
 95
       25
 70
     0
 93
      124
310
00010142905355941093D49111549010
330
2E
 94
        0
  0
ACAD_PROXY_OBJECT
  5
1BACF
330
2E
100
AcDbProxyObject
 90
      499
 91
      509
 95
       25
 70
     0
 93
      116
310
0001014290535115D1D0D3D313D4A0
330
2E
 94
        0
  0
ACAD_PROXY_OBJECT
  5
1BAD0
330
2E
100
AcDbProxyObject
 90
      499
 91
      509
 95
       25
 70
     0
 93
      148
310
00010143505355925155D49151949154D21010
330
2E
 94
        0
  0
ACAD_PROXY_OBJECT
  5
1BAD1
330
2E
100
AcDbProxyObject
 90
      499
 91
      509
 95
       25
 70
     0
 93
      172
310
00010144105350539393D51154149154D15495915010
330
2E
 94
        0
  0
ACAD_PROXY_OBJECT
  5
1BAD2
330
2E
100
AcDbProxyObject
 90
      499
 91
      509
 95
       25
 70
     0
 93
      172
310
00010144105350555513D11253505494905391D15010
330
2E
 94
        0
  0
ACAD_PROXY_OBJECT
  5
1BAD3
330
2E
100
AcDbProxyObject
 90
      499
 91
      509
 95
       25
 70
     0
 93
      124
310
00010142D05351561514915191125360
330
2E
 94
        0
  0
ACAD_PROXY_OBJECT
  5
1BAD4
330
2E
100
AcDbProxyObject
 90
      499
 91
      509
 95
       25
 70
     0
 93
      132
310
00010142D05355105410539393D5115010
330
2E
 94
        0
  0
ACAD_PROXY_OBJECT
  5
1BAD5
330
2E
100
AcDbProxyObject
 90
      499
 91
      509
 95
       25
 70
     0
 93
      108
310
00010142105350555513D0D31010
330
2E
 94
        0
  0
ACAD_PROXY_OBJECT
  5
1BAD6
330
2E
100
AcDbProxyObject
 90
      499
 91
      509
 95
       25
 70
     0
 93
      108
310
00010142105350D3119150551050
330
2E
 94
        0
  0
ACAD_PROXY_OBJECT
  5
1BAD7
330
2E
100
AcDbProxyObject
 90
      499
 91
      509
 95
       25
 70
     0
 93
      108
310
00010142105350D315925155D3F0
330
2E
 94
        0
  0
ACAD_PROXY_OBJECT
  5
1BAD8
330
2E
100
AcDbProxyObject
 90
      499
 91
      509
 95
       25
 70
     0
 93
      148
310
0001014350535212511156915493D112535010
330
2E
 94
        0
  0
ACAD_PROXY_OBJECT
  5
1BAD9
330
2E
100
AcDbProxyObject
 90
      499
 91
      509
 95
       25
 70
     0
 93
      124
310
00010142905352105510D21254D3D010
330
2E
 94
        0
  0
ACAD_PROXY_OBJECT
  5
1BADA
330
2E
100
AcDbProxyObject
 90
      499
 91
      509
 95
       25
 70
     0
 93
      148
310
00010143905354D25391D31152105513105660
330
2E
 94
        0
  0
ACAD_PROXY_OBJECT
  5
1BADB
330
2E
100
AcDbProxyObject
 90
      499
 91
      509
 95
       25
 70
     0
 93
      124
310
00010142D0535115D1D193111254D420
330
2E
 94
        0
  0
ACAD_PROXY_OBJECT
  5
1BADC
330
2E
100
AcDbProxyObject
 90
      499
 91
      509
 95
       25
 70
     0
 93
      100
310
00010142105350555513D213A0
330
2E
 94
        0
  0
ACAD_PROXY_OBJECT
  5
1BADD
330
2E
100
AcDbProxyObject
 90
      499
 91
      509
 95
       25
 70
     0
 93
      116
310
000101425053521390D3D553951010
330
2E
 94
        0
  0
ACAD_PROXY_OBJECT
  5
1BADE
330
2E
100
AcDbProxyObject
 90
      499
 91
      509
 95
       25
 70
     0
 93
      108
310
0001014210535213941493D29010
330
2E
 94
        0
  0
ACAD_PROXY_OBJECT
  5
1BADF
330
2E
100
AcDbProxyObject
 90
      499
 91
      509
 95
       25
 70
     0
 93
      108
310
0001014210535213951654115070
330
2E
 94
        0
  0
ACAD_PROXY_OBJECT
  5
1BAE0
330
2E
100
AcDbProxyObject
 90
      499
 91
      509
 95
       25
 70
     0
 93
      108
310
000101421053521395925155D0F0
330
2E
 94
        0
  0
ACAD_PROXY_OBJECT
  5
1BAE1
330
2E
100
AcDbProxyObject
 90
      499
 91
      509
 95
       25
 70
     0
 93
      140
310
00010143505354D150D51253D390D3D41660
330
2E
 94
        0
  0
ACAD_PROXY_OBJECT
  5
1BAE2
330
2E
100
AcDbProxyObject
 90
      499
 91
      509
 95
       25
 70
     0
 93
      108
310
00010142105350D3141493D29030
330
2E
 94
        0
  0
ACAD_PROXY_OBJECT
  5
1BAE3
330
2E
100
AcDbProxyObject
 90
      499
 91
      508
 95
       25
 70
     0
 93
      212
310
00010143905350555513D2105510D21493D500000000000002E400
330
2E
 94
        0
  0
ACAD_PROXY_OBJECT
  5
1BAE4
330
2E
100
AcDbProxyObject
 90
      499
 91
      509
 95
       25
 70
     0
 93
      156
310
00010143905350555513D2105510D21111551010
330
2E
 94
        0
  0
ACAD_PROXY_OBJECT
  5
1BAF0
330
2E
100
AcDbProxyObject
 90
      499
 91
      547
 95
       25
 70
     0
 93
      698
310
0001000000009AA6A9AA4051E547565204A756E2030362030383A32383A343920323030362028555443290141CE4B8C8B8C0B8C80518467269204F63742030382031333A35323A333620323031300141CE4B8C8B8C0B8C80
330
2E
330
1BAF1
330
1BAF2
330
1BAF4
330
0
 94
        0
  0
ACAD_PROXY_OBJECT
  5
1BAF1
330
2E
100
AcDbProxyObject
 90
      499
 91
      548
 95
       25
 70
     0
 93
       70
310
0001AAA80820000000
330
2E
330
1BAF1
330
1BAF1
 94
        0
  0
ACAD_PROXY_OBJECT
  5
1BAF2
330
2E
100
AcDbProxyObject
 90
      499
 91
      549
 95
       25
 70
     0
 93
       48
310
000100000000
330
2E
330
0
330
1BAF3
330
0
330
0
 94
        0
  0
ACAD_PROXY_OBJECT
  5
1BAF3
330
2E
100
AcDbProxyObject
 90
      499
 91
      550
 95
       25
 70
     0
 93
       40
310
000100AAAA
330
2E
330
0
 94
        0
  0
ACAD_PROXY_OBJECT
  5
1BAF9
330
2E
100
AcDbProxyObject
 90
      499
 91
      522
 95
       25
 70
     0
 93
      180
310
00010143105050D3D35411119390535140504434F4D500
330
2E
 94
        0
  0
ACAD_PROXY_OBJECT
  5
1BAFA
330
2E
100
AcDbProxyObject
 90
      499
 91
      522
 95
       25
 70
     0
 93
      212
310
0001014390505193D311115491119390535140506466F6C6465720
330
2E
 94
        0
  0
ACAD_PROXY_OBJECT
  5
1BAFB
330
2E
100
AcDbProxyObject
 90
      499
 91
      522
 95
       25
 70
     0
 93
      180
310
00010143105050539393D1119390535140504284156290
330
2E
 94
        0
  0
ACAD_PROXY_OBJECT
  5
1BAFC
330
2E
100
AcDbProxyObject
 90
      499
 91
      522
 95
       25
 70
     0
 93
      436
310
00010143905050D3D35415925155D31254D50052295BD96CA0A90B396CA0A894591A496CA0A8DB691A496CA0A89BA96CA0A95E28F95310
330
2E
 94
        0
  0
ACAD_PROXY_OBJECT
  5
1BB01
330
2E
100
AcDbProxyObject
 90
      499
 91
      555
 95
       25
 70
     0
 93
       32
310
00010000
330
2E
340
1BAFE
330
1BB03
330
1BAFE
 94
        0
  0
ACAD_PROXY_OBJECT
  5
1BB02
330
2E
100
AcDbProxyObject
 90
      499
 91
      556
 95
       25
 70
     0
 93
       18
310
000180
330
2E
 94
        0
  0
ACAD_PROXY_OBJECT
  5
1BB03
330
2E
100
AcDbProxyObject
 90
      499
 91
      557
 95
       25
 70
     0
 93
      226
310
00010144508C0E120B54D0D310D48C0D8C0C8B4C4C1050055401550000
330
2E
330
1BB01
330
1BB02
 94
        0
  0
ACAD_PROXY_OBJECT
  5
1BB04
330
2E
100
AcDbProxyObject
 90
      499
 91
      558
 95
       25
 70
     0
 93
      178
310
000100AAAAAABEFADB0D7F306292EAC72DEBE65312CD40
330
2E
330
1BB03
 94
        0
  0
ACAD_PROXY_OBJECT
  5
1BB05
330
2E
100
AcDbProxyObject
 90
      499
 91
      559
 95
       25
 70
     0
 93
      108
310
000190140A000000000000AAAAA0
330
2E
330
1BB06
330
1BB06
330
1BB06
330
1BB06
330
1BB06
330
0
 94
        0
  0
ACAD_PROXY_OBJECT
  5
1BB06
330
2E
100
AcDbProxyObject
 90
      499
 91
      560
 95
       25
 70
     0
 93
       51
310
00010000AAAA80
330
2E
330
1BB05
330
1BB03
 94
        0
  0
DICTIONARY
  5
40
102
{ACAD_REACTORS
330
3F
102
}
330
3F
100
AcDbDictionary
281
     1
  3
DWGSETTINGS
350
41
  3
FEM
350
69
  3
Shaft
350
56
  3
TRANSSETTINGS
350
4C
  0
ACAD_PROXY_OBJECT
  5
42
102
{ACAD_REACTORS
330
3F
102
}
330
3F
100
AcDbProxyObject
 90
      499
 91
      519
 95
       25
 70
     0
 93
    23232
310
41502491013041105357CC201C00030C011E441013141105357CC603800030C011E441013241105357CCA01400030C011E441013341105357CCE01800030C010D9013441105357CD200C00030C010D9013541105357CD600C00030C010D9013641105357CDA00800030C011E9013741105357CDE01000030C010D901384110
310
5357CE200400030C011E9013941105357CE63F400030C0241102324141505357CC4C201C00030C011E902344141505357CC4C600C00030C010D902495041505357CC4CA01C00030C011E40902304E41505357CC13A01C00030C011E902314E41505357CC53A03800030C011E902324E41505357CC93A01400030C011E90233
310
4E41505357CCD3A01800030C010D902344E41505357CD13A00C00030C010D902354E41505357CD53A00C00030C010D902364E41505357CD93A00800030C011E902374E41505357CDD3A01000030C010D902384E41505357CE13A00400030C011E902394E41505357CE53A3F400030C024110332414E41905357CC4C13A01C0
310
0030C011E90334414E41905357CC4C53A00C00030C010D90349504E41905357CC4C93A01C00030C011E409044B4C494E41505357D0D3200400030C011E42504494E464F42105357D410549151A01000030C010D42D055241484D3541905357D093D4A01C00030C011E425045649455742105357D5925155D4E00400030C011
310
E42D06424548494E4441905357D25395A3F400030C0243505545241494C41505357D514A00C00030C010D4250348494441905357D21251201C00030C011E4250356495341905357D59254E01C00030C011E4250650415244494D42505357D41054911253600C00030C010D4250652454644494D42505357D49151911253601
310
000030C010D425774110531514901348070000C300479034110915312501348000000C0003FFFFFFFD034110921395901398000000C0003FFFFFFFE415092139594D06424548494E448000000C0003FFFFFFFE411093125110234418000000C0003FFFFFFFD03411093D05410234418000000C0003FFFFFFFD03411093D48C
310
9055241484D358010000C30047A411093D48CD055241484D358020000C30047A411093D48D5055241484D358000000C0003FFFFFFFE411093D48DD055241484D3581E0000C30047903411094105410234418000000C0003FFFFFFFD03411094115610234418000000C0003FFFFFFFD034110951112501358000000C0003FFF
310
FFFFD034110D0530C901348000000C0003FFFFFFFE4110D0530CD01348020000C30047A4110D0530D501348070000C30047A4110D0530DD013481E0000C30047A4110D15393901378000000C0003FFFFFFFE4110D15395D01378000000C0003FFFFFFFE4110D312539044B4C494E8000000C0003FFFFFFFE4110D3D38C5013
310
08000000C0003FFFFFFFD034110D3D38C901318000000C0003FFFFFFFD034110D3D38CD01328000000C0003FFFFFFFD034110D3D38D101328000000C0003FFFFFFFD034111115494101348000000C0003FFFFFFFD034111115510501348000000C0003FFFFFFFE4111125051D01358000000C0003FFFFFFFE4111125312501
310
358000000C0003FFFFFFFE411112535410650415244494D8000000C0003FFFFFFFE411112535490652454644494D8000000C0003FFFFFFFE411156135410234418000000C0003FFFFFFFD034111915353901388000000C0003FFFFFFFE415191535413901388030000C3004364151915354D410234418000000C0003FFFFFF
310
FE4151915354D510234418030000C300436415191535593901328000000C0003FFFFFFFE415191535595101328030000C3004364111931055101308000000C0003FFFFFFFD03411194905490234418000000C0003FFFFFFFD034111D49312501358000000C0003FFFFFFFD034111D5931250234418000000C0003FFFFFFFD0
310
34112105510D01388000000C0003FFFFFFFD014112125113901338000000C0003FFFFFFFD034112125115D01338000000C0003FFFFFFFD034112131253901348000000C0003FFFFFFFD01411213D0D3901378000000C0003FFFFFFFE411213D0D5D01378000000C0003FFFFFFFE4112539193D04494E464F8000000C0003FF
310
FFFFFE4113105112501348000000C0003FFFFFFFD034113115051101358000000C0003FFFFFFFE419397D0921395902394E8000000C0003FFFFFFFE419397D0D3D38C502304E8000000C0003FFFFFFFD03419397D0D3D38C902314E8000000C0003FFFFFFFD03419397D0D3D38CD02324E8000000C0003FFFFFFFD03419397
310
D0D3D38D102324E8000000C0003FFFFFFFD03419397D0D15393902374E8000000C0003FFFFFFFE419397D0D15395D02374E8000000C0003FFFFFFFE419397D1125312502354E8000000C0003FFFFFFFE419397D2105510D02384E8000000C0003FFFFFFFD01419397D2125113902334E8000000C0003FFFFFFFD03419397D2
310
125115D02334E8000000C0003FFFFFFFD03419397D3115051102354E8000000C0003FFFFFFFE419397D391D25410349504E8000000C0003FFFFFFFE419397D412105390334414E8000000C0003FFFFFFFE419397D510D3D3902304E8000000C0003FFFFFFFD03419397D5121312502344E8000000C0003FFFFFFFD01419397
310
D5131153902304E8000000C0003FFFFFFFD03419397D516150CD02364E8000000C0003FFFFFFFD03419397D594131250332414E8000000C0003FFFFFFFE411391D25410249508000000C0003FFFFFFFE411410530C9055241484D358010000C30047A411410530CD055241484D358020000C30047A411410530D5055241484
310
D358000000C0003FFFFFFFE411410530DD055241484D3581E0000C30047903411412105390234418000000C0003FFFFFFFE411413D4D3901368070000C30047A419413D4D49151901368050000C30047903411413D4D6101368000000C0003FFFFFFFD03411414D150D0234418000000C0003FFFFFFFD03411490D1D390137
310
8000000C0003FFFFFFFE411490D1D5D01378000000C0003FFFFFFFE4114919112501348000000C0003FFFFFFFD034114945514901348070000C30047903411494D093D01348000000C0003FFFFFFFD034114D09492D01348000000C0003FFFFFFFD014114D0D153901378000000C0003FFFFFFFD034114D150D51013480000
310
00C0003FFFFFFFD014114D15313901378000000C0003FFFFFFFD034114D15315D01378000000C0003FFFFFFFD034114D4D654D01308000000C0003FFFFFFFD034114D51312501348070000C300479034114D6508C501358000000C0003FFFFFFFD034114D6508C901358000000C0003FFFFFFFD034114D6508CD0135802000
310
0C30047A4114D6508D501358070000C300479034114D65353901378000000C0003FFFFFFFD034114D65355D01378000000C0003FFFFFFFD03411510D3D3901308000000C0003FFFFFFFD034115121312501348000000C0003FFFFFFFD01411512550C9055241484D358010000C30047A411512550CD055241484D358020000
310
C30047A411512550D5055241484D358000000C0003FFFFFFFE411512550DD055241484D3581E0000C300479034115131153901308000000C0003FFFFFFFD03415514905253105545241494C8000000C0003FFFFFFFE41151492D3901378000000C0003FFFFFFFD0341151492D5D01378000000C0003FFFFFFFD03411514931
310
2501348000000C0003FFFFFFFD01411516150C501368030000C300436411516150C901368030000C300436411516150CD01368000000C0003FFFFFFFE411516150D501368070000C30047A411516150DD013681E0000C30047A4115925155D04564945578000000C0003FFFFFFFE41159151121034849448000000C0003FFF
310
FFFFD0241159151159035649538000000C0003FFFFFFFD02411594131250232418000000C0003FFFFFFFE4116925690501348000000C0003FFFFFFFD01411354D653501358020000C30047AAAA3F400030C01013F90A4051E4091E40D0D4110D4151E4190D41D1E4391E4791E7F6
340
16
340
16
340
16
340
43
340
16
340
16
340
16
340
44
340
16
340
16
340
44
340
45
340
16
340
16
340
16
340
16
340
43
340
16
340
16
340
16
340
44
340
16
340
16
340
44
340
45
340
16
340
46
340
16
340
16
340
16
340
16
340
16
340
43
340
16
340
16
340
16
340
47
340
15
340
15
340
15
340
15
340
15
340
15
340
15
340
15
340
15
340
15
340
15
340
15
340
15
340
15
340
15
340
15
340
48
340
15
340
15
340
15
340
15
340
15
340
15
340
15
340
15
340
15
340
15
340
15
340
15
340
15
340
15
340
15
340
16
340
15
340
15
340
15
340
15
340
15
340
15
340
15
340
15
340
47
340
15
340
15
340
48
340
15
340
15
340
15
340
15
340
15
340
15
340
15
340
15
340
15
340
48
340
15
340
15
340
15
340
47
340
15
340
15
340
15
340
15
340
15
340
15
340
15
340
15
340
15
340
15
340
15
340
15
340
15
340
15
340
15
340
15
340
15
340
15
340
15
340
48
340
15
340
15
340
48
340
15
340
15
340
16
340
15
340
48
340
15
340
15
340
47
340
15
340
15
340
16
340
15
340
48
340
15
340
15
340
15
340
15
340
15
340
15
340
15
340
15
340
15
340
48
340
15
340
15
340
15
340
15
340
15
340
15
340
15
340
15
340
15
340
15
340
15
340
4B
340
16
 94
        0
  0
ACAD_PROXY_OBJECT
  5
62F
102
{ACAD_REACTORS
330
73
102
}
330
73
100
AcDbProxyObject
 90
      499
 91
      523
 95
       25
 70
     0
 93
      253
310
43D1444494D454E53494F4E2C414D44545F2A5F44494D404A9012A404A9012A0
  0
ACAD_PROXY_OBJECT
  5
630
102
{ACAD_REACTORS
330
73
102
}
330
73
100
AcDbProxyObject
 90
      499
 91
      523
 95
       25
 70
     0
 93
      181
310
43D012A42D05357D191504B505357CA9012A404A9012A8
  0
ACAD_PROXY_OBJECT
  5
631
102
{ACAD_REACTORS
330
73
102
}
330
73
100
AcDbProxyObject
 90
      499
 91
      523
 95
       25
 70
     0
 93
      133
310
43D054841544348404A9012A404A9012A8
  0
ACAD_PROXY_OBJECT
  5
632
102
{ACAD_REACTORS
330
73
102
}
330
73
100
AcDbProxyObject
 90
      499
 91
      523
 95
       25
 70
     0
 93
      549
310
43D044C494E4549CE0B0E138B0A8B4E0B0A8B4E138B105357CE0B105357CE138B0A8B505357CE0B0A8B505357CE139012A404A910494E534552542C5354445041525432448
  0
ACAD_PROXY_OBJECT
  5
633
102
{ACAD_REACTORS
330
73
102
}
330
73
100
AcDbProxyObject
 90
      499
 91
      523
 95
       25
 70
     0
 93
      909
310
43D6641434D46434652414D452C41434D444154554D5441524745542C41434D444154554D49442C41434D57454C4453594D2C41434D5355524653594D2C41434D4645415449442C41434D504152545245462C41434D42414C4C4F4F4E2C414D44544544474553594D404A9012A404A9012A8
  0
XRECORD
  5
2A41
102
{ACAD_REACTORS
330
2A40
102
}
330
2A40
100
AcDbXrecord
280
     1
  1
LINE
  0

  0
XRECORD
  5
2917
102
{ACAD_REACTORS
330
2916
102
}
330
2916
100
AcDbXrecord
280
     1
  1
25000259__00___
  0

  0
XRECORD
  5
2A3F
102
{ACAD_REACTORS
330
2A3E
102
}
330
2A3E
100
AcDbXrecord
280
     1
  1
110 ^M^J ^M^J ^M^J ^M^J ^M^J ^M^J ^M^J ^M^J ^M^J ^M^J ^M^Jボーリングクイル ^M^J鋼 ^M^J特型 ^M^J直付け ^M^Jストレート ^M^J25 ^M^J2 ^M^J ^M^Jアルミ ^M^J ^M^J
  0

  0
XRECORD
  5
168A
102
{ACAD_REACTORS
330
1688
102
}
330
1688
100
AcDbXrecord
280
     1
  1
1,,,,,,,,,^M^J2,,,,,,,,,^M^J3,,,,,,,,,^M^J4,,,,,,,,,^M^J5,,,,,,,,,^M^J6,,,,,,,,,^M^J7,,,,,,,,,^M^J8,,,,,,,,,^M^J9,,,,,,,,,^M^J10,,,,,,,,,
  0

  0
XRECORD
  5
1689
102
{ACAD_REACTORS
330
1688
102
}
330
1688
100
AcDbXrecord
280
     1
  1
10,10
  0

  0
XRECORD
  5
2919
102
{ACAD_REACTORS
330
2918
102
}
330
2918
100
AcDbXrecord
280
     1
  1
3
  0

  0
ACAD_PROXY_OBJECT
  5
4F
102
{ACAD_REACTORS
330
4E
102
}
330
4E
100
AcDbProxyObject
 90
      499
 91
      521
 95
       25
 70
     0
 93
      157
310
057356C1D77406406AA8FFFFFFFF05DD01009010
330
1F
330
0
330
1BB03
 94
        0
  0
ACAD_PROXY_OBJECT
  5
17F
102
{ACAD_REACTORS
330
17E
102
}
330
17E
100
AcDbProxyObject
 90
      499
 91
      526
 95
       25
 70
     0
 93
     2379
310
5DC33333333333309408000000C00040D29254D01640600800030C0200800030C003333333333330940C8121E8720B1B6A9BAB9332A32BC3A29BA3220480A1282C6DA8C868CA6E8C88120286A0B1B6ABB2B63234B733A9BA3220480A1082C6DA92C8A6E8C88120285A0B1B6A230BA3AB6A9BA3220480A1282C6DA849E9AA6E
310
8C88120286A0B1A0B6B3AA34BA3632A9BA3220480A2082DAC8E888CAE8C2D2D8A6F2DAA6E8C88120288A0B6B23A29B2B1BA34B7B729BCB6A9BA3220480A2282DAC8E886CADCE8CAE498D2DCCAA6E8C88120288A0B6B23A2A343932B0B22634B732A9BA3220480A1682DAC8E89CDEE8CAA6E8C88120285A0B1A0B6B3A630BCA
310
9BA3220480A1682C682DACE88D2DAA6E8C88120288A0B1A0B6B3A437B632A1B430B93A29BA3220480C812020
340
180
360
181
360
182
360
183
360
184
360
185
360
186
360
1BB08
360
1BB09
360
1BB0A
360
1BB0C
360
1BB0D
360
1BB0E
360
1BB14
360
1BB15
360
1BB16
340
0
340
0
 94
        0
  0
ACAD_PROXY_OBJECT
  5
41
102
{ACAD_REACTORS
330
40
102
}
330
40
100
AcDbProxyObject
 90
      499
 91
      518
 95
       25
 70
     0
 93
     2954
310
4050B44574753455454494E4753A0E8482A68AA6A88882A069492A684A1A0A723A0A92920ACA0A811C1820C868A9C829C8E82A12686AF87260F862666A8321A2A72224A0A50000000000000122020E868A9C889282A682A106260F86460F8666083A1A2A72224A9AA250000000000000042020C868A9C988A9C94000000000
310
000048808321A2A727A323250000000000000122020E868A9C9E8C8C62940000000000000488083A1A2A727A32319250000000000000122021CC6D0C2DACCCAE4C8D2DADADEC8CA9FC84A1A624A720A92920ACA0A819898182108698929C8AA8B2A082A0AB098929C8A84A22BA3AAA9A1A0A622A50A0E9882A6A89E849482A
310
02608426A0A5A2AB24A2ABA7E8120CA0A68682988A0C00800010652455649534941501304154D0D0531150540CC4E8C5085354414E44415244415034A4953425512535154D510535412826DD8A409E4ADCD050756455253494F4E4150531352E3030441ED115D1D4D15515125391D4D153911F40
  0
ACAD_PROXY_OBJECT
  5
69
102
{ACAD_REACTORS
330
40
102
}
330
40
100
AcDbProxyObject
 90
      499
 91
      518
 95
       25
 70
     0
 93
      411
310
4050346454D21092DCC6E486DECACC942842630BCA3B937BAB820A8320A6AFA322A0A20F688AE8EA68AA8A8929C8EA68A9C88FA0
  0
ACAD_PROXY_OBJECT
  5
56
102
{ACAD_REACTORS
330
40
102
}
330
40
100
AcDbProxyObject
 90
      499
 91
      518
 95
       25
 70
     0
 93
      583
310
40505536861667421292DCE8CAE4E4EAE0E89FA0484A634B3B43A2634B732A7F21A98D2CED0E898D2DCCAACD2CAEE9FC8229B4B232A7E80A20F688AE8EA68AA8A8929C8EA68A9C88FA
  0
ACAD_PROXY_OBJECT
  5
4C
102
{ACAD_REACTORS
330
40
102
}
330
40
100
AcDbProxyObject
 90
      499
 91
      518
 95
       25
 70
     0
 93
      852
310
4050D5452414E5353455454494E4753A2488A482AE929C8EA8A4829CA69882A8929E9C0C00800050D4F524947494E414C4C595F4F4E0600400028529A7AAA921A2A620A723A0A81A52827212AAA0A48AA68AA4AC8A0C0080001107B44574753455454494E4753454E447D0
  0
ACAD_PROXY_OBJECT
  5
181
330
17F
100
AcDbProxyObject
 90
      499
 91
      527
 95
       25
 70
     0
 93
       86
310
5DEA0C80A0280A0280A034
  0
ACAD_PROXY_OBJECT
  5
182
330
17F
100
AcDbProxyObject
 90
      499
 91
      528
 95
       25
 70
     0
 93
      282
310
5DD0E4050140501405014050140501405014050141101405014041000000000000001000
340
187
 94
        0
  0
ACAD_PROXY_OBJECT
  5
183
330
17F
100
AcDbProxyObject
 90
      499
 91
      529
 95
       25
 70
     0
 93
      323
310
5DCC199999999999E99F91740501405014050140501405014050140501405014050140501405014040
340
0
 94
        0
  0
ACAD_PROXY_OBJECT
  5
184
330
17F
100
AcDbProxyObject
 90
      499
 91
      530
 95
       25
 70
     0
 93
       10
310
5DC0
  0
ACAD_PROXY_OBJECT
  5
185
330
17F
100
AcDbProxyObject
 90
      499
 91
      531
 95
       25
 70
     0
 93
      257
310
5DE0C16A22A7D90F49F80000000000001081400000000000004204010000618000
340
188
340
189
 94
        0
  0
ACAD_PROXY_OBJECT
  5
186
330
17F
100
AcDbProxyObject
 90
      499
 91
      532
 95
       25
 70
     0
 93
     5277
310
5DD06411255115350141236025B6901405014069010000000000000910240690120281A8AA2CA0282484A4BE52028120280A032020000000000001220480D202405044E414D454050496BC914F4051C40640A80000000000004E4090193C3D3C4946284953424C414E4B28504152543A4E414D45292C424C4F434B3A4E414D
310
452C504152543A4E414D45293E3C41435F44455343524950544E3E40480A109A82A88AA492829880A091BBD2F7E80A3A80C81D0E27A15AF46E08A81203480901411393D5115014124A363B7D0147501904A0000000000000F902406428F4F1050D7D393D5114F901202832B22A72227A92028366EF6EE06F582028EA0320B4
310
0000000000001F20480C879E9E20A1AFAB27222FA620A122A61F20240506445020000000000000490201C00030C00010180000000000003E400000000000000F901073D3C4954454D3E4050180000000000003E400000000000000F901073D3C4954454D3E40501800000000000034400000000000000D101073D3C4954454
310
D3E40501800000000000034400000000000000D101073D3C4954454D3E405029010000000000000F9000000000000003E4041CF4F125511534F901418F4F1455164F9014060000000000000F9000000000000003E4041CF4F125511534F901800000000000034400000000000000D101073D3C4954454D3E40640400000000
310
0000003E400000000000000F90288800000000000020810000001800120881A068120480A032208521122080D21480D211480A1485214852050000000000003C2FC000000000000F0BF40600800030C0200400030C00CDCCCCCCCCCCEC3F3373333333333B0FC3333333333330940C80D069014090341504901A1999999999
310
9984A040100006180400800061804010000618008098A02808
340
0
340
0
 94
        0
  0
ACAD_PROXY_OBJECT
  5
1BB08
330
17F
100
AcDbProxyObject
 90
      499
 91
      561
 95
       25
 70
     0
 93
     3042
310
5DD9740D29254D064A49535F413342929254D7D512551311505134A49535F42525F5265766973696F6E6C6973744190F4134522028323937783231306D6D2941D29254D7D04D1490E41312028353934783834316D6D2941929254D7D04C50F41344C2028323130783239376D6D2941D29254D7D04D1310E413320283239377
310
83432306D6D2941929254D7D04CD0E41322028343230783539346D6D2941929254D7D04C90F4130202838343178313138396D6D2941929254D7D04C10243129254C82557247A25E4C81050A4A49535F5449544C454143129254C82557247A25E4C81090A4A49535F5449544C45424110E979A97F0838A835883675F42525F4
310
4D29254D7D09497D4995D9A5CDA5BDB9B1A5CDD10E979A97F0838A835883675F54525F44D29254D7D51497D4995D9A5CDA5BDB9B1A5CDD10E979A97F0838A835883675F424C5F44D29254D7D09317D4995D9A5CDA5BDB9B1A5CDD10E979A97F0838A835883675F544C5F44D29254D7D51317D4995D9A5CDA5BDB9B1A5CDD00
  0
ACAD_PROXY_OBJECT
  5
1BB09
330
17F
100
AcDbProxyObject
 90
      499
 91
      562
 95
       25
 70
     0
 93
      898
310
5DC4000000000000124048CF4F11115510525317D3105091530F880A0F11115510525317D05094D4D0D053114F8A50241C9A9999999999B93F26A666666666724FC000000000000E03F400000000000000400000000000000510000000000000024408070000C300000000000000049000
340
16
340
180
 94
        0
  0
ACAD_PROXY_OBJECT
  5
1BB0A
330
17F
100
AcDbProxyObject
 90
      499
 91
      563
 95
       25
 70
     0
 93
      823
310
5DC0B00000000000002480959E9E29A2A1AA24A7A72FA620A122A62FA324A929AA1F169E29A2A1AA24A7A72FA620A122A62FA620A9AA1F000000000000048803FFFE01C00030C008140380006180000000000000048800000000000000A2000000000000002480
340
652
340
180
 94
        0
  0
ACAD_PROXY_OBJECT
  5
1BB0C
330
17F
100
AcDbProxyObject
 90
      499
 91
      564
 95
       25
 70
     0
 93
      152
310
5DE8273108AC1C5A0640A3D0A5723F0BD1F200
  0
ACAD_PROXY_OBJECT
  5
1BB0D
330
17F
100
AcDbProxyObject
 90
      499
 91
      565
 95
       25
 70
     0
 93
       14
310
5DE0
340
0
 94
        0
  0
ACAD_PROXY_OBJECT
  5
1BB0E
330
17F
100
AcDbProxyObject
 90
      499
 91
      566
 95
       25
 70
     0
 93
     6059
310
5DD084050BA4050AA405024050E836583938376838C815B83672031405983D3C486F6C653A6469613E3C696628657175616C28486F6C653A7465726D696E6174696F6E2C223022292C2220905B82B320222C22208368838A838B22293E3C696628657175616C28486F6C653A7465726D696E6174696F6E2C223022292C486F
310
6C653A64657074682C2222293E2C203C486F6C653A63746469613E2082B482AE82E882CC905B82B3203C486F6C653A637464657074683E406901405034050E836583938376838C815B83672031405EF3D3C486F6C653A6374616E676C653E252564202525633C486F6C653A63746469613E208E4D8C8A2C203C69662865717
310
5616C28486F6C653A7461707065642C223022292C22252563222C486F6C653A6E6F6D696E616C202220782022293E3C696628657175616C28486F6C653A7461707065642C223022292C486F6C653A6469612C486F6C653A706974636864657363293E203C696628657175616C28486F6C653A7465726D696E6174696F6E2C2
310
23022292C22905B82B320222C222022293E3C696628657175616C28486F6C653A7465726D696E6174696F6E2C223022292C486F6C653A64657074682C2222293E406901405014050E836583938376838C815B83672031405C73D3C696628657175616C28486F6C653A7461707065642C223022292C22252563222C486F6C65
310
3A6E6F6D696E616C202220782022293E3C696628657175616C28486F6C653A7461707065642C223022292C486F6C653A6469612C486F6C653A706974636864657363293E203C696628657175616C28486F6C653A7465726D696E6174696F6E2C223022292C22905B82B320222C222022293E3C696628657175616C28486F6C
310
653A7465726D696E6174696F6E2C223022292C486F6C653A64657074682C2222293E4069014051E4090E836583938376838C815B83672032405173D3C535444503A444553433E203C535444503A5354443E40690E836583938376838C815B836720314050C3D3C535444503A444553433E40690240515AAABBA120
360
1BB12
330
1BB12
360
1BB13
330
1BB13
360
1BB11
330
1BB11
360
1BB10
360
1BB0F
330
1BB10
330
1BB0F
 94
        0
  0
ACAD_PROXY_OBJECT
  5
1BB14
330
17F
100
AcDbProxyObject
 90
      499
 91
      568
 95
       25
 70
     0
 93
       26
310
5DD02A80
340
42
 94
        0
  0
ACAD_PROXY_OBJECT
  5
1BB15
330
17F
100
AcDbProxyObject
 90
      499
 91
      569
 95
       25
 70
     0
 93
      250
310
5DD020000000000000A1000000000000002440408F0F9023C3E409A0DCFFFF80
340
58
340
1B97
340
1B98
340
5F
340
60
340
61
340
62
340
63
340
68
340
0
 94
        0
  0
ACAD_PROXY_OBJECT
  5
1BB16
330
17F
100
AcDbProxyObject
 90
      499
 91
      570
 95
       25
 70
     0
 93
    13889
310
5DD1D003FFFFFFFD030300030CCCCCCCCCCCC250200800030C01030300030CCCCCCCCCCCC250200800030C00050C8DC0955782CC838A83588367014ED1D15395149050D3CB1294138B0C0B23702555E0B320E2A0D620D9CB11D15395149055160B095CCB0A11D1539354D1C819D95B991A5B5E880CCC0A78000C0000000000
310
00000000000000000000010CCCCCCCCCCCC250200800030C010CCCCCCCCCCCC250200800030C020143CF4F111959985D5B1D151A5D1B194F8050A8C8A8365815B8375838B014E51D15395149050D3CB1294138B0C0B2322A0D96056E0DD60E2CB11D15395149055160B095CCB0A11D1539354D1C819D95B991A5B5E880CCC4
310
A78000C000000000000000000000000000000010CCCCCCCCCCCC250200800030C010CCCCCCCCCCCC250200800030C020143CF4F111959985D5B1D151A5D1B194F90D44111409034110541D0C4350F4050E44D03449074510F000141232D24D7C053247454E545241434F2C4A504E2C302C8CB4935F2C47454E54524154582C
310
25732C2847454E4D53472067656E64696D7A20312900010104002214000281464500A608E8A9CA8A482869E5894A09C5860591914588E8A9CA8A482A8B0584AE658508E8A9C9AA68E40CECADCC8D2DAF4406452029E9E9E27B934B3B4B71F1E24A31427A91424A9A12620A7259427B934B3B4B7149624A9A12620A7259424B
310
A32B6949496111116111711149F1E24BA32B69F00808200111A000140560052F47454E545241434F2C4A504E2C302C582C47454E54524154582C25732C2847454E4D53472067656E64696D7A20332900010100002054000280AC80A5E8E8A9CA8A482869E5894A09C586058B2588E8A9CA8A482A8B0584AE658508E8A9C9AA
310
68E40CECADCC8D2DAF4406852000202000040E800050152014BD1D15395149050D3CB1294138B0C0B148B11D15395149055160B095CCB0A11D1539354D1C819D95B991A5B5E880D8A400040400008250000A0507A6029823A2A72A2920A1A79625282716181641E99623A2A72A2920AA2C1612B9961423A2A726A9A39033B2
310
B73234B6BD101B948000808180105A000140A0F4C053047454E545241434F2C4A504E2C302C83D32C47454E54524154582C25732C2847454E4D53472067656E64696D7A203829000101010020F400028248704B5F00A668E8A9CA8A482869E5894A09C58605921C12D7C588E8A9CA8A482A8B0584AE658508E8A9C9AA68E40
310
CECADCC8D2DAF440646052000200080043280005048B4B8A69014CD1D15395149050D3CB1294138B0C0B22D2E29A4B11D15395149055160B095CCB0A11D1539354D1C819D95B991A5B5E880C8C4A4000400100086D0000A09196926BE029923A2A72A2920A1A796252827161816465A49AF9623A2A72A2920AA2C1612B9961
310
423A2A726A9A39033B2B73234B6BD10189480A02620202080043E80005048D8096DA014CD1D15395149050D3CB1294138B0C0B236025B68B11D15395149055160B095CCB0A11D1539354D1C819D95B991A5B5E880C4D0A4000404140280D0000A190687072706CD06C5069D06B0029DA3A2A72A2920A1A7962528271618164
310
1A1C1C9C1B341B141A741AC1623A2A72A2920AA2C1612B9961423A2A726A9A39033B2B73234B6BD10189A94800080820050EA000143A322A0D0E0E4E0D9A0D8A0D3A0D60053D47454E545241434F2C4A504E2C302C8C8A8343839383668362834E83582C47454E54524154582C25732C2847454E4D53472067656E64696D7A
310
2031372900010105002274000281464500A628E8A9CA8A482869E5894A09C5860591914588E8A9CA8A482A8B0584AE658508E8A9C9AA68E40CECADCC8D2DAF440626C52000202080044A8000504909497CA014CD1D15395149050D3CB1294138B0C0B242525F28B11D15395149055160B095CCB0A11D1539354D1C819D95B9
310
91A5B5E880C4E4A400040418008A521E000000000000001CA040C00000000000034408080000000000006881010000000000000D102040000000000001A204080000000000003440818000000000000728103000000000000125020600000000004028A040000000000000034408000000000000004881000000000000000D
310
102000000000000001A204000000000000003440818000000000000508143C0000000000000039408180000000000006881030000000000000D102060000000000001A2040C00000000000034408180000000000006881030000000000000E5020600000000000024A040C0000000000805140800000000000000688100000
310
00000000009102000000000000001A2040000000000000034408180000000000006881030000000000000A10284220000000878000002020000008380000020400000081800000208000000828000002028900000000
340
0
340
0
340
0
340
0
340
180
340
180
 94
        0
  0
ACAD_PROXY_OBJECT
  5
1BB12
330
1BB0E
100
AcDbProxyObject
 90
      499
 91
      567
 95
       25
 70
     0
 93
     1376
310
5DE0143A0D960E4E0DDA0E32056E0D9C80C405983D3C486F6C653A6469613E3C696628657175616C28486F6C653A7465726D696E6174696F6E2C223022292C2220905B82B320222C22208368838A838B22293E3C696628657175616C28486F6C653A7465726D696E6174696F6E2C223022292C486F6C653A64657074682C22
310
22293E2C203C486F6C653A63746469613E2082B482AE82E882CC905B82B3203C486F6C653A637464657074683E
  0
ACAD_PROXY_OBJECT
  5
1BB13
330
1BB0E
100
AcDbProxyObject
 90
      499
 91
      567
 95
       25
 70
     0
 93
     2072
310
5DE0143A0D960E4E0DDA0E32056E0D9C80C405EF3D3C486F6C653A6374616E676C653E252564202525633C486F6C653A63746469613E208E4D8C8A2C203C696628657175616C28486F6C653A7461707065642C223022292C22252563222C486F6C653A6E6F6D696E616C202220782022293E3C696628657175616C28486F6C
310
653A7461707065642C223022292C486F6C653A6469612C486F6C653A706974636864657363293E203C696628657175616C28486F6C653A7465726D696E6174696F6E2C223022292C22905B82B320222C222022293E3C696628657175616C28486F6C653A7465726D696E6174696F6E2C223022292C486F6C653A6465707468
310
2C2222293E
  0
ACAD_PROXY_OBJECT
  5
1BB11
330
1BB0E
100
AcDbProxyObject
 90
      499
 91
      567
 95
       25
 70
     0
 93
     1752
310
5DE0143A0D960E4E0DDA0E32056E0D9C80C405C73D3C696628657175616C28486F6C653A7461707065642C223022292C22252563222C486F6C653A6E6F6D696E616C202220782022293E3C696628657175616C28486F6C653A7461707065642C223022292C486F6C653A6469612C486F6C653A706974636864657363293E20
310
3C696628657175616C28486F6C653A7465726D696E6174696F6E2C223022292C22905B82B320222C222022293E3C696628657175616C28486F6C653A7465726D696E6174696F6E2C223022292C486F6C653A64657074682C2222293E
  0
ACAD_PROXY_OBJECT
  5
1BB10
330
1BB0E
100
AcDbProxyObject
 90
      499
 91
      567
 95
       25
 70
     0
 93
      344
310
5DE0143A0D960E4E0DDA0E32056E0D9C80C805173D3C535444503A444553433E203C535444503A5354443E
  0
ACAD_PROXY_OBJECT
  5
1BB0F
330
1BB0E
100
AcDbProxyObject
 90
      499
 91
      567
 95
       25
 70
     0
 93
      256
310
5DE0143A0D960E4E0DDA0E32056E0D9C80C4050C3D3C535444503A444553433E
  0
ENDSEC
  0
EOF
