  0
SECTION
  2
HEADER
  9
$ACADVER
  1
AC1015
  9
$ACADMAINTVER
 70
     6
  9
$DWGCODEPAGE
  3
ANSI_932
  9
$INSBASE
 10
0.0
 20
0.0
 30
0.0
  9
$EXTMIN
 10
-106.742967917776
 20
-99.2453156743011
 30
0.0
  9
$EXTMAX
 10
209.5196742146413
 20
39.96466579636908
 30
0.0
  9
$LIMMIN
 10
0.0
 20
0.0
  9
$LIMMAX
 10
420.0
 20
297.0
  9
$ORTHOMODE
 70
     0
  9
$REGENMODE
 70
     1
  9
$FILLMODE
 70
     1
  9
$QTEXTMODE
 70
     0
  9
$MIRRTEXT
 70
     1
  9
$LTSCALE
 40
1.0
  9
$ATTMODE
 70
     1
  9
$TEXTSIZE
 40
4.0
  9
$TRACEWID
 40
1.0
  9
$TEXTSTYLE
  7
STANDARD
  9
$CLAYER
  8
AM_0
  9
$CELTYPE
  6
ByLayer
  9
$CECOLOR
 62
   256
  9
$CELTSCALE
 40
1.0
  9
$DISPSILH
 70
     0
  9
$DIMSCALE
 40
1.0
  9
$DIMASZ
 40
2.5
  9
$DIMEXO
 40
0.0
  9
$DIMDLI
 40
10.0
  9
$DIMRND
 40
0.0
  9
$DIMDLE
 40
0.0
  9
$DIMEXE
 40
1.0
  9
$DIMTP
 40
0.1
  9
$DIMTM
 40
0.1000000001
  9
$DIMTXT
 40
3.8
  9
$DIMCEN
 40
0.0
  9
$DIMTSZ
 40
0.0
  9
$DIMTOL
 70
     0
  9
$DIMLIM
 70
     0
  9
$DIMTIH
 70
     0
  9
$DIMTOH
 70
     0
  9
$DIMSE1
 70
     0
  9
$DIMSE2
 70
     0
  9
$DIMTAD
 70
     3
  9
$DIMZIN
 70
     1
  9
$DIMBLK
  1
Open30
  9
$DIMASO
 70
     1
  9
$DIMSHO
 70
     1
  9
$DIMPOST
  1

  9
$DIMAPOST
  1
"
  9
$DIMALT
 70
     0
  9
$DIMALTD
 70
     2
  9
$DIMALTF
 40
0.0393701
  9
$DIMLFAC
 40
1.0
  9
$DIMTOFL
 70
     1
  9
$DIMTVP
 40
0.0
  9
$DIMTIX
 70
     0
  9
$DIMSOXD
 70
     0
  9
$DIMSAH
 70
     0
  9
$DIMBLK1
  1

  9
$DIMBLK2
  1

  9
$DIMSTYLE
  2
AM_JIS
  9
$DIMCLRD
 70
   256
  9
$DIMCLRE
 70
   256
  9
$DIMCLRT
 70
     2
  9
$DIMTFAC
 40
0.71
  9
$DIMGAP
 40
1.5
  9
$DIMJUST
 70
     0
  9
$DIMSD1
 70
     0
  9
$DIMSD2
 70
     0
  9
$DIMTOLJ
 70
     0
  9
$DIMTZIN
 70
     8
  9
$DIMALTZ
 70
     0
  9
$DIMALTTZ
 70
     0
  9
$DIMUPT
 70
     0
  9
$DIMDEC
 70
     1
  9
$DIMTDEC
 70
     3
  9
$DIMALTU
 70
     2
  9
$DIMALTTD
 70
     2
  9
$DIMTXSTY
  7
STANDARD
  9
$DIMAUNIT
 70
     1
  9
$DIMADEC
 70
     0
  9
$DIMALTRND
 40
0.0
  9
$DIMAZIN
 70
     2
  9
$DIMDSEP
 70
    46
  9
$DIMATFIT
 70
     3
  9
$DIMFRAC
 70
     0
  9
$DIMLDRBLK
  1
Open30
  9
$DIMLUNIT
 70
     2
  9
$DIMLWD
 70
    -1
  9
$DIMLWE
 70
    -1
  9
$DIMTMOVE
 70
     0
  9
$LUNITS
 70
     2
  9
$LUPREC
 70
     4
  9
$SKETCHINC
 40
1.0
  9
$FILLETRAD
 40
0.2
  9
$AUNITS
 70
     0
  9
$AUPREC
 70
     4
  9
$MENU
  1
.
  9
$ELEVATION
 40
0.0
  9
$PELEVATION
 40
0.0
  9
$THICKNESS
 40
0.0
  9
$LIMCHECK
 70
     0
  9
$CHAMFERA
 40
1.0
  9
$CHAMFERB
 40
1.0
  9
$CHAMFERC
 40
20.0
  9
$CHAMFERD
 40
0.0
  9
$SKPOLY
 70
     0
  9
$TDCREATE
 40
2451943.610431667
  9
$TDUCREATE
 40
2451943.235431667
  9
$TDUPDATE
 40
2455482.593004375
  9
$TDUUPDATE
 40
2455482.218004375
  9
$TDINDWG
 40
1.8606153241
  9
$TDUSRTIMER
 40
1.8606151505
  9
$USRTIMER
 70
     1
  9
$ANGBASE
 50
0.0
  9
$ANGDIR
 70
     0
  9
$PDMODE
 70
     0
  9
$PDSIZE
 40
0.0
  9
$PLINEWID
 40
0.0
  9
$SPLFRAME
 70
     0
  9
$SPLINETYPE
 70
     6
  9
$SPLINESEGS
 70
    32
  9
$HANDSEED
  5
1D529
  9
$SURFTAB1
 70
     6
  9
$SURFTAB2
 70
     6
  9
$SURFTYPE
 70
     6
  9
$SURFU
 70
     6
  9
$SURFV
 70
     6
  9
$UCSBASE
  2

  9
$UCSNAME
  2

  9
$UCSORG
 10
0.0
 20
0.0
 30
0.0
  9
$UCSXDIR
 10
1.0
 20
0.0
 30
0.0
  9
$UCSYDIR
 10
0.0
 20
1.0
 30
0.0
  9
$UCSORTHOREF
  2

  9
$UCSORTHOVIEW
 70
     0
  9
$UCSORGTOP
 10
0.0
 20
0.0
 30
0.0
  9
$UCSORGBOTTOM
 10
0.0
 20
0.0
 30
0.0
  9
$UCSORGLEFT
 10
0.0
 20
0.0
 30
0.0
  9
$UCSORGRIGHT
 10
0.0
 20
0.0
 30
0.0
  9
$UCSORGFRONT
 10
0.0
 20
0.0
 30
0.0
  9
$UCSORGBACK
 10
0.0
 20
0.0
 30
0.0
  9
$PUCSBASE
  2

  9
$PUCSNAME
  2

  9
$PUCSORG
 10
0.0
 20
0.0
 30
0.0
  9
$PUCSXDIR
 10
1.0
 20
0.0
 30
0.0
  9
$PUCSYDIR
 10
0.0
 20
1.0
 30
0.0
  9
$PUCSORTHOREF
  2

  9
$PUCSORTHOVIEW
 70
     0
  9
$PUCSORGTOP
 10
0.0
 20
0.0
 30
0.0
  9
$PUCSORGBOTTOM
 10
0.0
 20
0.0
 30
0.0
  9
$PUCSORGLEFT
 10
0.0
 20
0.0
 30
0.0
  9
$PUCSORGRIGHT
 10
0.0
 20
0.0
 30
0.0
  9
$PUCSORGFRONT
 10
0.0
 20
0.0
 30
0.0
  9
$PUCSORGBACK
 10
0.0
 20
0.0
 30
0.0
  9
$USERI1
 70
     0
  9
$USERI2
 70
     0
  9
$USERI3
 70
     0
  9
$USERI4
 70
     0
  9
$USERI5
 70
     0
  9
$USERR1
 40
0.0
  9
$USERR2
 40
0.0
  9
$USERR3
 40
0.0
  9
$USERR4
 40
0.0
  9
$USERR5
 40
0.0
  9
$WORLDVIEW
 70
     1
  9
$SHADEDGE
 70
     3
  9
$SHADEDIF
 70
    70
  9
$TILEMODE
 70
     1
  9
$MAXACTVP
 70
    64
  9
$PINSBASE
 10
0.0
 20
0.0
 30
0.0
  9
$PLIMCHECK
 70
     0
  9
$PEXTMIN
 10
1.000000000000000E+20
 20
1.000000000000000E+20
 30
1.000000000000000E+20
  9
$PEXTMAX
 10
-1.000000000000000E+20
 20
-1.000000000000000E+20
 30
-1.000000000000000E+20
  9
$PLIMMIN
 10
0.0
 20
0.0
  9
$PLIMMAX
 10
420.0
 20
297.0
  9
$UNITMODE
 70
     0
  9
$VISRETAIN
 70
     1
  9
$PLINEGEN
 70
     0
  9
$PSLTSCALE
 70
     1
  9
$TREEDEPTH
 70
  3020
  9
$CMLSTYLE
  2
Standard
  9
$CMLJUST
 70
     0
  9
$CMLSCALE
 40
20.0
  9
$PROXYGRAPHICS
 70
     1
  9
$MEASUREMENT
 70
     1
  9
$CELWEIGHT
370
    -1
  9
$ENDCAPS
280
     0
  9
$JOINSTYLE
280
     0
  9
$LWDISPLAY
290
     0
  9
$INSUNITS
 70
     4
  9
$HYPERLINKBASE
  1

  9
$STYLESHEET
  1
sei_cad.ctb
  9
$XEDIT
290
     1
  9
$CEPSNTYPE
380
     0
  9
$PSTYLEMODE
290
     1
  9
$FINGERPRINTGUID
  2
{C77AB3BE-9CA2-11D3-BAF3-006094EB760E}
  9
$VERSIONGUID
  2
{51064125-FA06-4BBE-AFB5-F20A29539E39}
  9
$EXTNAMES
290
     1
  9
$PSVPSCALE
 40
0.0
  9
$OLESTARTUP
290
     0
  0
ENDSEC
  0
SECTION
  2
CLASSES
  0
CLASS
  1
ACDBDICTIONARYWDFLT
  2
AcDbDictionaryWithDefault
  3
ObjectDBX Classes
 90
        0
280
     0
281
     0
  0
CLASS
  1
ACDBPLACEHOLDER
  2
AcDbPlaceHolder
  3
ObjectDBX Classes
 90
        0
280
     0
281
     0
  0
CLASS
  1
LAYOUT
  2
AcDbLayout
  3
ObjectDBX Classes
 90
        0
280
     0
281
     0
  0
CLASS
  1
ACME_DOCUMENT
  2
AcMeDbDoc
  3
AcMeServices
 90
        0
280
     1
281
     0
  0
CLASS
  1
ACMESCOPE
  2
AcMeScope
  3
AcMeServices
 90
        0
280
     1
281
     0
  0
CLASS
  1
ACMECOMMANDHISTORY
  2
AcMeCommandHistory
  3
AcMeServices
 90
        0
280
     1
281
     0
  0
CLASS
  1
DICTIONARYVAR
  2
AcDbDictionaryVar
  3
ObjectDBX Classes
 90
        0
280
     0
281
     0
  0
CLASS
  1
ACIMSYSVARMAN
  2
AcImSysVarManager
  3
AcMeServices
 90
        0
280
     1
281
     0
  0
CLASS
  1
ACIMREALSYSVAR
  2
AcImRealSysVar
  3
AcMeServices
 90
        0
280
     1
281
     0
  0
CLASS
  1
ACIMINTSYSVAR
  2
AcImIntSysVar
  3
AcMeServices
 90
        0
280
     1
281
     0
  0
CLASS
  1
ACMEDRAWINGMAN
  2
AcMeDrawingMan
  3
AcMeServices
 90
        0
280
     1
281
     0
  0
CLASS
  1
ACMEVIEW
  2
AcMeView
  3
AcMeServices
 90
        0
280
     1
281
     0
  0
CLASS
  1
ACDBENTITYCACHE
  2
AcMeEntityCache
  3
AcMeServices
 90
        0
280
     1
281
     0
  0
CLASS
  1
GSMANAGER
  2
AcMeGSManager
  3
AcMeServices
 90
        0
280
     1
281
     0
  0
CLASS
  1
AMDTINTERNALREACTOR
  2
AmdtInternalReactor
  3
AcMeServices
 90
        0
280
     1
281
     0
  0
CLASS
  1
ACMESTATEMGR
  2
AcMeStateMgr
  3
AcMeServices
 90
        0
280
     1
281
     0
  0
CLASS
  1
ACME_DATABASE
  2
AcMeDbDatabase
  3
AcMeServices
 90
        0
280
     1
281
     0
  0
CLASS
  1
ACRFINSADJUSTERMGR
  2
AcRfInsAdjusterMgr
  3
AcMeServices
 90
        0
280
     1
281
     0
  0
CLASS
  1
AMGSETTINGSOBJ
  2
AmgSettingsObj
  3
"AcadM|Product Description: AutoCAD Mechanical 2000|Company: Autodesk"
 90
        0
280
     1
281
     0
  0
CLASS
  1
AMGOBJPROPCFG
  2
AmgObjPropCfg
  3
"AmgLay|Product Description: AutoCAD Mechanical 2000|Company: Autodesk"
 90
        1
280
     1
281
     0
  0
CLASS
  1
ACMDATADICTIONARY
  2
AcmDataDictionary
  3
"AcmSymBB|Product Description: AutoCAD Mechanical 2004 DX|Company: Autodesk"
 90
        0
280
     1
281
     0
  0
CLASS
  1
ACMDATAENTRYBLOCK
  2
AcmDataEntryBlock
  3
"AcmSymBB|Product Description: AutoCAD Mechanical 2004 DX|Company: Autodesk"
 90
        0
280
     1
281
     0
  0
CLASS
  1
ACIMSTRSYSVAR
  2
AcImStrSysVar
  3
AcMeServices
 90
        0
280
     1
281
     0
  0
CLASS
  1
ACAMGFILTERDAT
  2
AcAmgFilterDat
  3
"AcadM|Product Description: AutoCAD Mechanical 2000|Company: Autodesk"
 90
        0
280
     1
281
     0
  0
CLASS
  1
LAYER_INDEX
  2
AcDbLayerIndex
  3
ObjectDBX Classes
 90
        0
280
     0
281
     0
  0
CLASS
  1
IDBUFFER
  2
AcDbIdBuffer
  3
ObjectDBX Classes
 90
        0
280
     0
281
     0
  0
CLASS
  1
ACMSTANDARDJIS
  2
AcmStandardJIS
  3
"Amdt_StdImp|Product Description: AutoCAD Mechanical 2004 DX|Company: Autodesk"
 90
        0
280
     1
281
     0
  0
CLASS
  1
ACMSURFSTANDARDJIS
  2
AcmSurfTextStdJIS
  3
"Amdt_StdImp|Product Description: AutoCAD Mechanical 2004 DX|Company: Autodesk"
 90
        0
280
     1
281
     0
  0
CLASS
  1
ACMFCFSTANDARDJIS
  2
AcmFCFStdJIS
  3
"Amdt_StdImp|Product Description: AutoCAD Mechanical 2004 DX|Company: Autodesk"
 90
        0
280
     1
281
     0
  0
CLASS
  1
ACMWELDSTANDARDJIS
  2
AcmWeldingStdJIS
  3
"Amdt_StdImp|Product Description: AutoCAD Mechanical 2004 DX|Company: Autodesk"
 90
        0
280
     1
281
     0
  0
CLASS
  1
ACMIDSTANDARDJIS
  2
AcmIdStdJIS
  3
"Amdt_StdImp|Product Description: AutoCAD Mechanical 2004 DX|Company: Autodesk"
 90
        0
280
     1
281
     0
  0
CLASS
  1
ACMDATUMSTANDARDJIS
  2
AcmDatumStdJIS
  3
"Amdt_StdImp|Product Description: AutoCAD Mechanical 2004 DX|Company: Autodesk"
 90
        0
280
     1
281
     0
  0
CLASS
  1
ACMBOMSTANDARDJIS
  2
AcmBOMStdJIS
  3
"Amdt_StdImp|Product Description: AutoCAD Mechanical 2004 DX|Company: Autodesk"
 90
        0
280
     1
281
     0
  0
CLASS
  1
AMDTNOTE
  2
AmdtNote
  3
"AcmSymBB|Product Description: AutoCAD Mechanical 2004 DX|Company: Autodesk"
 90
     1023
280
     1
281
     1
  0
CLASS
  1
TABLESTYLE
  2
AcDbTableStyle
  3
ObjectDBX Classes
 90
     2047
280
     0
281
     0
  0
CLASS
  1
ACGREFMASTER
  2
AcGrefMaster
  3
AcAttribServices
 90
        0
280
     1
281
     0
  0
CLASS
  1
AM_DRAWING_MGR
  2
AcDmDwgMgr
  3
AcMechDwgViewMgmt
 90
        0
280
     1
281
     0
  0
CLASS
  1
AM_DWG_DOCUMENT
  2
AcDmDwgDocument
  3
AcMechDwgViewMgmt
 90
        0
280
     1
281
     0
  0
CLASS
  1
AM_DWG_SHEET
  2
AcDmSheet
  3
AcMechDwgViewMgmt
 90
        0
280
     1
281
     0
  0
CLASS
  1
AM_VIEWDIMPARMAP
  2
AcDmViewDimParMap
  3
AcMechDwgViewMgmt
 90
        0
280
     1
281
     0
  0
CLASS
  1
AM_DWGMGR_NAME
  2
AcDmDwgMgrName
  3
AcMechDwgViewMgmt
 90
        0
280
     1
281
     0
  0
CLASS
  1
ACGREFACADMASTER
  2
AcGrefacadMaster
  3
AcGrefServices
 90
        0
280
     1
281
     0
  0
CLASS
  1
AMDTMENUSTATEMGR
  2
AmdtMenuStateMgr
  3
McadcomServices
 90
        0
280
     1
281
     0
  0
CLASS
  1
AMDTMCOMMENUSTATE
  2
AmdtMcomMenuState
  3
McadcomServices
 90
        0
280
     1
281
     0
  0
CLASS
  1
AMIMASTER
  2
AmiMaster
  3
AmiServices
 90
        0
280
     1
281
     0
  0
CLASS
  1
MAPIAMMOUDLE
  2
MApiAmModule
  3
MApiAmServices
 90
        0
280
     1
281
     0
  0
CLASS
  1
AMDTADMENUSTATE
  2
AmdtAdMenuState
  3
DesignerServices
 90
        0
280
     1
281
     0
  0
CLASS
  1
ADAPPL
  2
AcAdAppl
  3
DesignerServices
 90
        0
280
     1
281
     0
  0
CLASS
  1
DEPMGR
  2
AcAdDepMgr
  3
DesignerServices
 90
        0
280
     1
281
     0
  0
CLASS
  1
PARAMMGR
  2
AcAdParamMgr
  3
DesignerServices
 90
        0
280
     1
281
     0
  0
CLASS
  1
PARAMSCOPE
  2
AcAdParamScope
  3
DesignerServices
 90
        0
280
     1
281
     0
  0
CLASS
  1
NAMEDAPPL
  2
AcAdNamedAppl
  3
DesignerServices
 90
        0
280
     1
281
     0
  0
CLASS
  1
AMDTDMMENUSTATE
  2
AmdtDmMenuState
  3
AcMechDwgViewMgmt
 90
        0
280
     1
281
     0
  0
CLASS
  1
AMDTAMMENUSTATE
  2
AmdtAmMenuState
  3
DesignerAssemblies
 90
        0
280
     1
281
     0
  0
CLASS
  1
ACAMPROJECT
  2
AcAmProject
  3
DesignerAssemblies
 90
        0
280
     1
281
     0
  0
CLASS
  1
ACAMGRCOMPDEF
  2
AcAmGrCompDef
  3
DesignerAssemblies
 90
        0
280
     1
281
     0
  0
CLASS
  1
ACCMCONTEXT
  2
AcCmContext
  3
DesignerAssemblies
 90
        0
280
     1
281
     0
  0
CLASS
  1
ACAMCOMPDEF
  2
AcAmCompDef
  3
DesignerAssemblies
 90
        0
280
     1
281
     0
  0
CLASS
  1
ACAMCOMPDEFMGR
  2
AcAmCompDefMgr
  3
DesignerAssemblies
 90
        0
280
     1
281
     0
  0
CLASS
  1
AMCONTEXTMGR
  2
AcAmContextMgr
  3
DesignerAssemblies
 90
        0
280
     1
281
     0
  0
CLASS
  1
ACAMCONTEXTMODELER
  2
AcAmContextModeler
  3
DesignerAssemblies
 90
        0
280
     1
281
     0
  0
CLASS
  1
ACAMGTITLESTD
  2
AcAmgTitleStd
  3
"TITLEAPP"
 90
        0
280
     1
281
     0
  0
CLASS
  1
ACMDETAILSTANDARDJIS
  2
AmdtDetailSymStdJIS
  3
"Amdt_StdImp|Product Description: AutoCAD Mechanical 2004 DX|Company: Autodesk"
 90
        0
280
     1
281
     0
  0
CLASS
  1
ACMSECTIONSTANDARDJIS
  2
AmdtSectionSymStdJIS
  3
"Amdt_StdImp|Product Description: AutoCAD Mechanical 2004 DX|Company: Autodesk"
 90
        0
280
     1
281
     0
  0
CLASS
  1
ACMCENTERLINESTANDARDJIS
  2
AmdtCenterLineStdJIS
  3
"Amdt_StdImp|Product Description: AutoCAD Mechanical 2004 DX|Company: Autodesk"
 90
        0
280
     1
281
     0
  0
CLASS
  1
ACMTHREADLINESTANDARDJIS
  2
AmdtThreadLineStdJIS
  3
"Amdt_StdImp|Product Description: AutoCAD Mechanical 2004 DX|Company: Autodesk"
 90
        0
280
     1
281
     0
  0
CLASS
  1
ACMNOTESTANDARDJIS
  2
AmdtNoteStdJIS
  3
"Amdt_StdImp|Product Description: AutoCAD Mechanical 2004 DX|Company: Autodesk"
 90
        0
280
     1
281
     0
  0
CLASS
  1
AMDTNOTETEMPLATEDB
  2
AmdtNoteTemplateDB
  3
AMDT_STDIMP_MODULE_NAME
 90
        0
280
     1
281
     0
  0
CLASS
  1
ACAMGLAYSTD
  2
AcAmgLayStd
  3
"AcAmgLayStd|Product Description: AutoCAD Mechanical 2000|Company: Autodesk"
 90
        0
280
     1
281
     0
  0
CLASS
  1
ACAMGDIMSTD
  2
AcAmgDimStd
  3
"AcAmgDimStd|Product Description: AutoCAD Mechanical 2000|Company: Autodesk"
 90
        0
280
     1
281
     0
  0
CLASS
  1
ACAMGHOLECHARTSTDJIS
  2
AcAmgHoleChartStdJIS
  3
ACMSYMBB_MODULE_NAME
 90
        0
280
     1
281
     0
  0
CLASS
  1
CATALOGSTATE
  2
AcAmCatalogState
  3
DesignerAssemblies
 90
        0
280
     1
281
     0
  0
CLASS
  1
ACAMGRCOMPDEFSET
  2
AcAmGrCompDefSet
  3
DesignerAssemblies
 90
        0
280
     1
281
     0
  0
CLASS
  1
AMDTBROWSERDBTAB
  2
AmdtBrowserDbTab
  3
McadcomServices
 90
        0
280
     1
281
     0
  0
CLASS
  1
CBROWSERAPPOBJECT
  2
CBrowserAppObject
  3
McadcomServices
 90
        0
280
     1
281
     0
  0
CLASS
  1
DM_PLACEHOLDER
  2
AcDmSelsetPlaceholder
  3
AcMechDwgViewMgmt
 90
        0
280
     1
281
     0
  0
CLASS
  1
SORTENTSTABLE
  2
AcDbSortentsTable
  3
ObjectDBX Classes
 90
        0
280
     0
281
     0
  0
ENDSEC
  0
SECTION
  2
TABLES
  0
TABLE
  2
VPORT
  5
8
330
0
100
AcDbSymbolTable
 70
     3
  0
VPORT
  5
1D521
330
8
100
AcDbSymbolTableRecord
100
AcDbViewportTableRecord
  2
*Active
 70
     0
 10
0.0
 20
0.0
 11
1.0
 21
1.0
 12
45.86854978791118
 22
-39.60535676042804
 13
0.0
 23
0.0
 14
2.5
 24
2.5
 15
10.0
 25
10.0
 16
0.0
 26
0.0
 36
1.0
 17
0.0
 27
0.0
 37
0.0
 40
229.5075042651557
 41
1.610603290676417
 42
50.0
 43
0.0
 44
0.0
 50
0.0
 51
0.0
 71
    16
 72
 20000
 73
     1
 74
     3
 75
     0
 76
     0
 77
     0
 78
     0
281
     0
 65
     1
110
0.0
120
0.0
130
0.0
111
1.0
121
0.0
131
0.0
112
0.0
122
1.0
132
0.0
 79
     0
146
0.0
  0
ENDTAB
  0
TABLE
  2
LTYPE
  5
5
330
0
100
AcDbSymbolTable
 70
    13
  0
LTYPE
  5
14
330
5
100
AcDbSymbolTableRecord
100
AcDbLinetypeTableRecord
  2
ByBlock
 70
     0
  3

 72
    65
 73
     0
 40
0.0
  0
LTYPE
  5
15
330
5
100
AcDbSymbolTableRecord
100
AcDbLinetypeTableRecord
  2
ByLayer
 70
     0
  3

 72
    65
 73
     0
 40
0.0
  0
LTYPE
  5
16
330
5
100
AcDbSymbolTableRecord
100
AcDbLinetypeTableRecord
  2
Continuous
 70
     0
  3
Solid line
 72
    65
 73
     0
 40
0.0
  0
LTYPE
  5
43
330
5
100
AcDbSymbolTableRecord
100
AcDbLinetypeTableRecord
  2
AM_ISO02W050
 70
     0
  3
__ __ __ __ __ __ __ __ __ __ __ __ __ __ __
 72
    65
 73
     2
 40
7.5
 49
6.0
 74
     0
 49
-1.5
 74
     0
  0
LTYPE
  5
44
330
5
100
AcDbSymbolTableRecord
100
AcDbLinetypeTableRecord
  2
AM_ISO08W050
 70
     0
  3
____ . ____ . ____ . ____ . ____ . ____ . ____
 72
    65
 73
     4
 40
18.0
 49
12.0
 74
     0
 49
-1.5
 74
     0
 49
3.0
 74
     0
 49
-1.5
 74
     0
  0
LTYPE
  5
45
330
5
100
AcDbSymbolTableRecord
100
AcDbLinetypeTableRecord
  2
AM_ISO09W050
 70
     0
  3
_____ . . _____ . . _____ . . ____ .. ____
 72
    65
 73
     6
 40
22.5
 49
12.0
 74
     0
 49
-1.5
 74
     0
 49
3.0
 74
     0
 49
-1.5
 74
     0
 49
3.0
 74
     0
 49
-1.5
 74
     0
  0
LTYPE
  5
46
330
5
100
AcDbSymbolTableRecord
100
AcDbLinetypeTableRecord
  2
Amconstr
 70
     0
  3
_______________________
 72
    65
 73
     2
 40
9999.0
 49
9999.0
 74
     0
 49
0.0
 74
     0
  0
LTYPE
  5
47
330
5
100
AcDbSymbolTableRecord
100
AcDbLinetypeTableRecord
  2
AM_ISO02W050x2
 70
     0
  3
 _ _ _ _ _ _ _ _ _ _ _ _
 72
    65
 73
     2
 40
3.75
 49
3.0
 74
     0
 49
-0.75
 74
     0
  0
LTYPE
  5
48
330
5
100
AcDbSymbolTableRecord
100
AcDbLinetypeTableRecord
  2
AM_ISO08W050x2
 70
     0
  3
__ . __ . __ . __ . __ . __
 72
    65
 73
     4
 40
9.0
 49
6.0
 74
     0
 49
-0.75
 74
     0
 49
1.5
 74
     0
 49
-0.75
 74
     0
  0
LTYPE
  5
4B
330
5
100
AcDbSymbolTableRecord
100
AcDbLinetypeTableRecord
  2
Amzigzag
 70
     0
  3
/\/-/\/-/\/-/\/-/\/-/\/
 72
    65
 73
     2
 40
11.0001
 49
0.0001
 74
     4
 75
   135
340
4A
 46
0.04
 50
0.0
 44
0.0
 45
0.0
 49
-11.0
 74
     0
  0
LTYPE
  5
188
330
5
100
AcDbSymbolTableRecord
100
AcDbLinetypeTableRecord
  2
ACJISTGB
 70
     0
  3
__ . . __ . .
 72
    65
 73
     6
 40
9.0
 49
4.0
 74
     0
 49
-1.0
 74
     0
 49
1.0
 74
     0
 49
-1.0
 74
     0
 49
1.0
 74
     0
 49
-1.0
 74
     0
  0
LTYPE
  5
189
330
5
100
AcDbSymbolTableRecord
100
AcDbLinetypeTableRecord
  2
ACJISTGL
 70
     0
  3
_ _ _ _ _
 72
    65
 73
     2
 40
3.0
 49
2.0
 74
     0
 49
-1.0
 74
     0
  0
LTYPE
  5
652
330
5
100
AcDbSymbolTableRecord
100
AcDbLinetypeTableRecord
  2
CENTER
 70
     0
  3
____ _ ____ _ ____ _ ____ _ ____ _ ____ _ ____
 72
    65
 73
     4
 40
17.5
 49
13.0
 74
     0
 49
-1.5
 74
     0
 49
1.5
 74
     0
 49
-1.5
 74
     0
  0
LTYPE
  5
12AB
330
5
100
AcDbSymbolTableRecord
100
AcDbLinetypeTableRecord
  2
HIDDEN
 70
     0
  3
Hidden __ __ __ __ __ __ __ __ __ __ __ __ __ _
 72
    65
 73
     2
 40
0.375
 49
0.25
 74
     0
 49
-0.125
 74
     0
  0
LTYPE
  5
12AC
330
5
100
AcDbSymbolTableRecord
100
AcDbLinetypeTableRecord
  2
PHANTOM2
 70
     0
  3
Phantom (.5x) ___ _ _ ___ _ _ ___ _ _ ___ _ _
 72
    65
 73
     6
 40
1.25
 49
0.625
 74
     0
 49
-0.125
 74
     0
 49
0.125
 74
     0
 49
-0.125
 74
     0
 49
0.125
 74
     0
 49
-0.125
 74
     0
  0
ENDTAB
  0
TABLE
  2
LAYER
  5
2
102
{ACAD_XDICTIONARY
360
1CF13
102
}
330
0
100
AcDbSymbolTable
 70
     7
  0
LAYER
  5
10
330
2
100
AcDbSymbolTableRecord
100
AcDbLayerTableRecord
  2
0
 70
     0
 62
     7
  6
Continuous
370
    -3
390
F
  0
LAYER
  5
7D
330
2
100
AcDbSymbolTableRecord
100
AcDbLayerTableRecord
  2
AM_5
 70
     0
 62
     3
  6
Continuous
370
    13
390
F
  0
LAYER
  5
7F
330
2
100
AcDbSymbolTableRecord
100
AcDbLayerTableRecord
  2
Defpoints
 70
     0
 62
     7
  6
Continuous
290
     0
370
    -3
390
F
  0
LAYER
  5
12B1
330
2
100
AcDbSymbolTableRecord
100
AcDbLayerTableRecord
  2
AM_0
 70
     0
 62
     7
  6
Continuous
370
    30
390
F
  0
LAYER
  5
1AFF
330
2
100
AcDbSymbolTableRecord
100
AcDbLayerTableRecord
  2
AM_7
 70
     0
 62
     4
  6
AM_ISO08W050
370
    13
390
F
  0
LAYER
  5
361D
330
2
100
AcDbSymbolTableRecord
100
AcDbLayerTableRecord
  2
AM_11
 70
     0
 62
     3
  6
AM_ISO09W050
370
    13
390
F
  0
ENDTAB
  0
TABLE
  2
STYLE
  5
3
330
0
100
AcDbSymbolTable
 70
     4
  0
STYLE
  5
11
330
3
100
AcDbSymbolTableRecord
100
AcDbTextStyleTableRecord
  2
STANDARD
 70
     0
 40
0.0
 41
1.0
 50
0.0
 71
     0
 42
4.0
  3
ISOCP.SHX
  4
EXTFONT.SHX
  0
STYLE
  5
4A
330
3
100
AcDbSymbolTableRecord
100
AcDbTextStyleTableRecord
  2

 70
     1
 40
0.0
 41
1.0
 50
0.0
 71
     0
 42
2.5
  3
ltypeshp.shx
  4

  0
STYLE
  5
180
330
3
100
AcDbSymbolTableRecord
100
AcDbTextStyleTableRecord
  2
ACJISTS
 70
     0
 40
1.0
 41
1.0
 50
0.0
 71
     0
 42
2.5
  3
isocp.shx
  4
bigfont.shx
  0
STYLE
  5
187
330
3
100
AcDbSymbolTableRecord
100
AcDbTextStyleTableRecord
  2
ACJISGDT
 70
     0
 40
0.0
 41
1.0
 50
0.0
 71
     0
 42
2.5
  3
amgdt.shx
  4

  0
ENDTAB
  0
TABLE
  2
VIEW
  5
6
330
0
100
AcDbSymbolTable
 70
     6
  0
VIEW
  5
A30
330
6
100
AcDbSymbolTableRecord
100
AcDbViewTableRecord
  2
AM_VIEW1
 70
     0
 40
148.5
 10
108.6929657794677
 20
222.75
 41
217.3859315589354
 11
0.0
 21
0.0
 31
1.0
 12
0.0
 22
0.0
 32
0.0
 42
50.0
 43
0.0
 44
0.0
 50
0.0
 71
    16
281
     0
 72
     0
  0
VIEW
  5
A31
330
6
100
AcDbSymbolTableRecord
100
AcDbViewTableRecord
  2
AM_VIEW2
 70
     0
 40
148.5
 10
311.3070342205323
 20
222.75
 41
217.3859315589354
 11
0.0
 21
0.0
 31
1.0
 12
0.0
 22
0.0
 32
0.0
 42
50.0
 43
0.0
 44
0.0
 50
0.0
 71
    16
281
     0
 72
     0
  0
VIEW
  5
A32
330
6
100
AcDbSymbolTableRecord
100
AcDbViewTableRecord
  2
AM_VIEW3
 70
     0
 40
148.5
 10
108.6929657794677
 20
74.25
 41
217.3859315589354
 11
0.0
 21
0.0
 31
1.0
 12
0.0
 22
0.0
 32
0.0
 42
50.0
 43
0.0
 44
0.0
 50
0.0
 71
    16
281
     0
 72
     0
  0
VIEW
  5
A33
330
6
100
AcDbSymbolTableRecord
100
AcDbViewTableRecord
  2
AM_VIEW4
 70
     0
 40
148.5
 10
311.3070342205323
 20
74.25
 41
217.3859315589354
 11
0.0
 21
0.0
 31
1.0
 12
0.0
 22
0.0
 32
0.0
 42
50.0
 43
0.0
 44
0.0
 50
0.0
 71
    16
281
     0
 72
     0
  0
VIEW
  5
A34
330
6
100
AcDbSymbolTableRecord
100
AcDbViewTableRecord
  2
AM_VIEW5
 70
     0
 40
148.5
 10
210.0
 20
148.5
 41
217.3859315589353
 11
0.0
 21
0.0
 31
1.0
 12
0.0
 22
0.0
 32
0.0
 42
50.0
 43
0.0
 44
0.0
 50
0.0
 71
    16
281
     0
 72
     0
  0
VIEW
  5
A35
330
6
100
AcDbSymbolTableRecord
100
AcDbViewTableRecord
  2
AM_VIEW6
 70
     0
 40
296.99703
 10
210.0
 20
148.5
 41
434.7675153992395
 11
0.0
 21
0.0
 31
1.0
 12
0.0
 22
0.0
 32
0.0
 42
50.0
 43
0.0
 44
0.0
 50
0.0
 71
    16
281
     0
 72
     0
  0
ENDTAB
  0
TABLE
  2
UCS
  5
7
330
0
100
AcDbSymbolTable
 70
     0
  0
ENDTAB
  0
TABLE
  2
APPID
  5
9
330
0
100
AcDbSymbolTable
 70
    42
  0
APPID
  5
12
330
9
100
AcDbSymbolTableRecord
100
AcDbRegAppTableRecord
  2
ACAD
 70
     0
  0
APPID
  5
2C
330
9
100
AcDbSymbolTableRecord
100
AcDbRegAppTableRecord
  2
MCAD_NO_VIS
 70
     0
  0
APPID
  5
2D
330
9
100
AcDbSymbolTableRecord
100
AcDbRegAppTableRecord
  2
ACAD_TEMP_GRAPHIC
 70
     0
  0
APPID
  5
B9
330
9
100
AcDbSymbolTableRecord
100
AcDbRegAppTableRecord
  2
GENIUS_GENDTOL_13
 70
     0
  0
APPID
  5
359
330
9
100
AcDbSymbolTableRecord
100
AcDbRegAppTableRecord
  2
GENIUS_GENREC_14
 70
     0
  0
APPID
  5
35A
330
9
100
AcDbSymbolTableRecord
100
AcDbRegAppTableRecord
  2
GENIUS_GENODEF_13
 70
     0
  0
APPID
  5
35B
330
9
100
AcDbSymbolTableRecord
100
AcDbRegAppTableRecord
  2
GENIUS_GENOBJ-N-REC_13
 70
     0
  0
APPID
  5
667
330
9
100
AcDbSymbolTableRecord
100
AcDbRegAppTableRecord
  2
GENIUS_GENCFG_13
 70
     0
  0
APPID
  5
668
330
9
100
AcDbSymbolTableRecord
100
AcDbRegAppTableRecord
  2
GENIUS_GENCFG0_13
 70
     0
  0
APPID
  5
669
330
9
100
AcDbSymbolTableRecord
100
AcDbRegAppTableRecord
  2
GENIUS_GENCFG1_13
 70
     0
  0
APPID
  5
66A
330
9
100
AcDbSymbolTableRecord
100
AcDbRegAppTableRecord
  2
GENIUS_GENCFG2_13
 70
     0
  0
APPID
  5
66B
330
9
100
AcDbSymbolTableRecord
100
AcDbRegAppTableRecord
  2
GENIUS_GENCFG3_13
 70
     0
  0
APPID
  5
66C
330
9
100
AcDbSymbolTableRecord
100
AcDbRegAppTableRecord
  2
GENIUS_GENCFG4_13
 70
     0
  0
APPID
  5
A76
330
9
100
AcDbSymbolTableRecord
100
AcDbRegAppTableRecord
  2
GENIUS_GENBLLY_14
 70
     0
  0
APPID
  5
A77
330
9
100
AcDbSymbolTableRecord
100
AcDbRegAppTableRecord
  2
GENIUS_GENOBJ-N-CEN_13
 70
     0
  0
APPID
  5
A83
330
9
100
AcDbSymbolTableRecord
100
AcDbRegAppTableRecord
  2
GENIUS_GENTRA_14
 70
     0
  0
APPID
  5
A8D
330
9
100
AcDbSymbolTableRecord
100
AcDbRegAppTableRecord
  2
GENIUS_GENOBJ-N-TIT_13
 70
     0
  0
APPID
  5
A8E
330
9
100
AcDbSymbolTableRecord
100
AcDbRegAppTableRecord
  2
GENIUS_GENTITLE_13
 70
     0
  0
APPID
  5
A8F
330
9
100
AcDbSymbolTableRecord
100
AcDbRegAppTableRecord
  2
GENIUS_GENOENT_13
 70
     0
  0
APPID
  5
A90
330
9
100
AcDbSymbolTableRecord
100
AcDbRegAppTableRecord
  2
GENIUS_GENOREF_13
 70
     0
  0
APPID
  5
A91
330
9
100
AcDbSymbolTableRecord
100
AcDbRegAppTableRecord
  2
GENIUS_GENOLIS_13
 70
     0
  0
APPID
  5
A92
330
9
100
AcDbSymbolTableRecord
100
AcDbRegAppTableRecord
  2
GENIUS_GENZVEED_13
 70
     0
  0
APPID
  5
A93
330
9
100
AcDbSymbolTableRecord
100
AcDbRegAppTableRecord
  2
GENIUS_GENSCREG_15
 70
     0
  0
APPID
  5
A94
330
9
100
AcDbSymbolTableRecord
100
AcDbRegAppTableRecord
  2
GENIUS_GENOBJ-N-SDF_13
 70
     0
  0
APPID
  5
12B5
330
9
100
AcDbSymbolTableRecord
100
AcDbRegAppTableRecord
  2
GENIUS_GENOBJ-N-RSBK_13
 70
     0
  0
APPID
  5
12B6
330
9
100
AcDbSymbolTableRecord
100
AcDbRegAppTableRecord
  2
GENIUS_GENOBJ-N-LIB_13
 70
     0
  0
APPID
  5
12B7
330
9
100
AcDbSymbolTableRecord
100
AcDbRegAppTableRecord
  2
GENIUS_GENSCALE_13
 70
     0
  0
APPID
  5
12B8
330
9
100
AcDbSymbolTableRecord
100
AcDbRegAppTableRecord
  2
GENIUS_GENOBJ-N-HTC_13
 70
     0
  0
APPID
  5
12B9
330
9
100
AcDbSymbolTableRecord
100
AcDbRegAppTableRecord
  2
GENIUS_GENHATCH_13
 70
     0
  0
APPID
  5
1687
330
9
100
AcDbSymbolTableRecord
100
AcDbRegAppTableRecord
  2
BASE_TYPE
 70
     0
  0
APPID
  5
1ABF
330
9
100
AcDbSymbolTableRecord
100
AcDbRegAppTableRecord
  2
GENIUS_GENFIL_13
 70
     0
  0
APPID
  5
1AC0
330
9
100
AcDbSymbolTableRecord
100
AcDbRegAppTableRecord
  2
GENIUS_GENOBJ-N-CHA_13
 70
     0
  0
APPID
  5
1AE7
330
9
100
AcDbSymbolTableRecord
100
AcDbRegAppTableRecord
  2
GENIUS_GENOBJ-N-FIL_13
 70
     0
  0
APPID
  5
20E9
330
9
100
AcDbSymbolTableRecord
100
AcDbRegAppTableRecord
  2
GENIUS_GENDIMSH_14
 70
     0
  0
APPID
  5
1CA5B
330
9
100
AcDbSymbolTableRecord
100
AcDbRegAppTableRecord
  2
AD_DRAW
 70
     0
  0
APPID
  5
1CA5E
330
9
100
AcDbSymbolTableRecord
100
AcDbRegAppTableRecord
  2
ACATTRIBSERVICES
 70
     0
  0
APPID
  5
1CA7C
330
9
100
AcDbSymbolTableRecord
100
AcDbRegAppTableRecord
  2
DESIGNERASSEMBLIES
 70
     0
  0
APPID
  5
1CA8F
330
9
100
AcDbSymbolTableRecord
100
AcDbRegAppTableRecord
  2
ACADM_DIM_EDIT
 70
     0
  0
APPID
  5
1CA90
330
9
100
AcDbSymbolTableRecord
100
AcDbRegAppTableRecord
  2
AMDT_DM_ADJ
 70
     0
  0
APPID
  5
1CB97
330
9
100
AcDbSymbolTableRecord
100
AcDbRegAppTableRecord
  2
DCO15
 70
     0
  0
APPID
  5
1CD5A
330
9
100
AcDbSymbolTableRecord
100
AcDbRegAppTableRecord
  2
ACAD_DSTYLE_DIMTEXT_FILL
 70
     0
  0
APPID
  5
1CD5B
330
9
100
AcDbSymbolTableRecord
100
AcDbRegAppTableRecord
  2
ACAD_PSEXT
 70
     0
  0
ENDTAB
  0
TABLE
  2
DIMSTYLE
  5
A
330
0
100
AcDbSymbolTable
 70
    10
100
AcDbDimStyleTable
  0
DIMSTYLE
105
58
330
A
100
AcDbSymbolTableRecord
100
AcDbDimStyleTableRecord
  2
AM_JIS
 70
     0
  4
"
 41
2.5
 42
0.0
 43
10.0
 44
1.0
 47
0.1
 48
0.1000000001
 73
     0
 74
     0
 77
     3
 78
     1
 79
     2
140
3.8
141
0.0
143
0.0393701
146
0.71
147
1.5
172
     1
176
   256
177
   256
178
     2
179
     2
271
     3
272
     3
275
     1
283
     0
284
     8
340
11
341
59
342
59
371
    -1
372
    -1
  0
DIMSTYLE
105
5F
102
{ACAD_REACTORS
330
1B220
330
1C17A
102
}
330
A
100
AcDbSymbolTableRecord
100
AcDbDimStyleTableRecord
  2
AM_JIS$3
 70
     0
  4
"
 41
2.5
 42
0.0
 43
10.0
 44
1.0
 47
0.1
 48
0.1000000001
 73
     0
 77
     3
 78
     1
 79
     2
140
3.8
141
0.0
143
0.0393701
146
0.71
147
1.5
172
     1
176
   256
177
   256
178
     2
179
     2
271
     3
272
     3
275
     1
283
     0
284
     8
288
     1
289
     0
340
11
341
59
342
59
371
    -1
372
    -1
  0
DIMSTYLE
105
60
330
A
100
AcDbSymbolTableRecord
100
AcDbDimStyleTableRecord
  2
AM_JIS$4
 70
     0
  4
"
 41
2.5
 42
0.0
 43
10.0
 44
1.0
 47
0.1
 48
0.1000000001
 73
     0
 77
     3
 78
     1
 79
     2
140
3.8
141
0.0
143
0.0393701
146
0.71
147
1.5
172
     1
176
   256
177
   256
178
     2
179
     2
271
     3
272
     3
275
     1
283
     0
284
     8
288
     1
289
     0
340
11
341
59
342
59
371
    -1
372
    -1
  0
DIMSTYLE
105
61
330
A
100
AcDbSymbolTableRecord
100
AcDbDimStyleTableRecord
  2
AM_JIS$6
 70
     0
  4
"
 41
2.5
 42
0.0
 43
10.0
 44
1.0
 47
0.1
 48
0.1000000001
 73
     0
 74
     0
 78
     1
 79
     2
140
3.8
141
0.0
143
0.0393701
146
0.71
147
1.5
172
     1
176
   256
177
   256
178
     2
179
     2
271
     3
272
     3
275
     1
283
     0
284
     8
340
11
341
59
342
59
371
    -1
372
    -1
  0
DIMSTYLE
105
62
330
A
100
AcDbSymbolTableRecord
100
AcDbDimStyleTableRecord
  2
AM_JIS$7
 70
     0
  4
"
 41
2.5
 42
0.0
 43
10.0
 44
1.0
 47
0.1
 48
0.1000000001
 73
     0
 74
     0
 77
     3
 78
     1
 79
     2
140
5.0
141
0.0
143
0.0393701
146
0.71
147
1.5
172
     1
176
   256
177
   256
178
     2
179
     2
271
     3
272
     3
275
     1
283
     0
284
     8
340
11
341
59
342
59
371
    -1
372
    -1
  0
DIMSTYLE
105
63
330
A
100
AcDbSymbolTableRecord
100
AcDbDimStyleTableRecord
  2
AM_JIS$SF
 70
     0
  4
"
 41
2.5
 42
1.0
 43
10.0
 44
1.0
 47
0.1
 48
0.1
 73
     0
 74
     0
 75
     1
 76
     1
 77
     3
 78
     8
 79
     2
140
3.5
141
0.0
143
0.0393701
146
0.71
147
1.5
176
   256
177
   256
178
     2
271
     2
272
     3
274
     4
340
11
341
59
342
59
343
59
344
59
371
    -1
372
    -1
  0
DIMSTYLE
105
68
330
A
100
AcDbSymbolTableRecord
100
AcDbDimStyleTableRecord
  2
AM_JIS$SH
 70
     0
  4
"
 41
2.5
 42
1.0
 43
10.0
 44
1.0
 47
0.1
 48
0.1
 73
     0
 74
     0
 75
     1
 76
     1
 77
     3
 78
     8
 79
     2
140
3.5
141
0.0
143
0.0393701
144
2.0
146
0.71
147
1.5
173
     1
176
   256
177
   256
178
     2
271
     2
272
     3
274
     4
340
11
341
59
342
59
343
64
344
59
371
    -1
372
    -1
  0
DIMSTYLE
105
65F
330
A
100
AcDbSymbolTableRecord
100
AcDbDimStyleTableRecord
  2
STANDARD
 70
     0
340
11
  0
DIMSTYLE
105
1B97
102
{ACAD_REACTORS
330
1B6A8
330
1C17F
330
1CFEA
330
1D155
102
}
330
A
100
AcDbSymbolTableRecord
100
AcDbDimStyleTableRecord
  2
AM_JIS$0
 70
     0
  4
"
 41
2.5
 42
0.0
 43
10.0
 44
1.0
 47
0.1
 48
0.1000000001
 73
     0
 74
     0
 77
     3
 78
     1
 79
     2
140
3.8
141
0.0
143
0.0393701
146
0.71
147
1.5
172
     1
176
     3
177
     3
178
     2
271
     3
272
     3
275
     1
283
     0
284
     8
289
     0
340
11
341
59
342
59
371
    13
372
    13
  0
DIMSTYLE
105
1B98
102
{ACAD_REACTORS
330
1D181
330
1D1F3
102
}
330
A
100
AcDbSymbolTableRecord
100
AcDbDimStyleTableRecord
  2
AM_JIS$2
 70
     0
  4
"
 41
2.5
 42
0.0
 43
10.0
 44
1.0
 47
0.1
 48
0.1000000001
 73
     0
 74
     0
 77
     3
 78
     1
 79
     2
140
3.8
141
0.0
143
0.0393701
146
0.71
147
1.5
172
     1
176
     3
177
     3
178
     2
271
     3
272
     3
275
     1
283
     0
284
     8
289
     0
340
11
341
59
342
59
371
    13
372
    13
  0
ENDTAB
  0
TABLE
  2
BLOCK_RECORD
  5
1
330
0
100
AcDbSymbolTable
 70
    12
  0
BLOCK_RECORD
  5
1F
102
{ACAD_XDICTIONARY
360
165
102
}
330
1
100
AcDbSymbolTableRecord
100
AcDbBlockTableRecord
  2
*Model_Space
340
22
  0
BLOCK_RECORD
  5
1B
330
1
100
AcDbSymbolTableRecord
100
AcDbBlockTableRecord
  2
*Paper_Space
340
1E
  0
BLOCK_RECORD
  5
23
330
1
100
AcDbSymbolTableRecord
100
AcDbBlockTableRecord
  2
*Paper_Space0
340
26
  0
BLOCK_RECORD
  5
59
330
1
100
AcDbSymbolTableRecord
100
AcDbBlockTableRecord
  2
_Open30
340
0
102
{BLKREFS
331
1D500
331
1D501
331
1D4AF
331
1D4B0
331
1D4BA
331
1D4BB
331
1D4C1
331
1D4C2
331
1D4CA
331
1D4CB
331
1D4D3
331
1D4D4
331
1D4DC
331
1D4DD
331
1D4E9
331
1D4EA
102
}
  0
BLOCK_RECORD
  5
64
330
1
100
AcDbSymbolTableRecord
100
AcDbBlockTableRecord
  2
GENAXEH
340
0
  0
BLOCK_RECORD
  5
1B221
330
1
100
AcDbSymbolTableRecord
100
AcDbBlockTableRecord
  2
*D3
340
0
  0
BLOCK_RECORD
  5
1B6A9
330
1
100
AcDbSymbolTableRecord
100
AcDbBlockTableRecord
  2
*D4
340
0
  0
BLOCK_RECORD
  5
1C1AE
330
1
100
AcDbSymbolTableRecord
100
AcDbBlockTableRecord
  2
*D5
340
0
  0
BLOCK_RECORD
  5
1C1C7
330
1
100
AcDbSymbolTableRecord
100
AcDbBlockTableRecord
  2
*D6
340
0
  0
BLOCK_RECORD
  5
1CA73
330
1
100
AcDbSymbolTableRecord
100
AcDbBlockTableRecord
  2
*U7
340
0
  0
BLOCK_RECORD
  5
1CFEB
330
1
100
AcDbSymbolTableRecord
100
AcDbBlockTableRecord
  2
*D8
340
0
  0
BLOCK_RECORD
  5
1D156
330
1
100
AcDbSymbolTableRecord
100
AcDbBlockTableRecord
  2
*D9
340
0
  0
BLOCK_RECORD
  5
1D182
330
1
100
AcDbSymbolTableRecord
100
AcDbBlockTableRecord
  2
*D10
340
0
  0
BLOCK_RECORD
  5
1D1F4
330
1
100
AcDbSymbolTableRecord
100
AcDbBlockTableRecord
  2
*D11
340
0
  0
ENDTAB
  0
ENDSEC
  0
SECTION
  2
BLOCKS
  0
BLOCK
  5
20
330
1F
100
AcDbEntity
  8
0
100
AcDbBlockBegin
  2
*Model_Space
 70
     0
 71
     0
 10
0.0
 20
0.0
 30
0.0
  3
*Model_Space
  1

  0
ENDBLK
  5
21
330
1F
100
AcDbEntity
  8
0
100
AcDbBlockEnd
  0
BLOCK
  5
1C
330
1B
100
AcDbEntity
 67
     1
  8
0
100
AcDbBlockBegin
  2
*Paper_Space
 70
     0
 71
     0
 10
0.0
 20
0.0
 30
0.0
  3
*Paper_Space
  1

  0
ENDBLK
  5
1D
330
1B
100
AcDbEntity
 67
     1
  8
0
100
AcDbBlockEnd
  0
BLOCK
  5
24
330
23
100
AcDbEntity
  8
0
100
AcDbBlockBegin
  2
*Paper_Space0
 70
     0
 71
     0
 10
0.0
 20
0.0
 30
0.0
  3
*Paper_Space0
  1

  0
ENDBLK
  5
25
330
23
100
AcDbEntity
  8
0
100
AcDbBlockEnd
  0
BLOCK
  5
5D
330
59
100
AcDbEntity
  8
0
100
AcDbBlockBegin
  2
_Open30
 70
     0
 71
     0
 10
0.0
 20
0.0
 30
0.0
  3
_Open30
  1

  0
LINE
  5
5A
330
59
100
AcDbEntity
  8
0
 62
     0
370
    -2
100
AcDbLine
 10
-1.0
 20
0.26794919
 30
0.0
 11
0.0
 21
0.0
 31
0.0
  0
LINE
  5
5B
330
59
100
AcDbEntity
  8
0
 62
     0
370
    -2
100
AcDbLine
 10
0.0
 20
0.0
 30
0.0
 11
-1.0
 21
-0.26794919
 31
0.0
  0
LINE
  5
5C
330
59
100
AcDbEntity
  8
0
 62
     0
370
    -2
100
AcDbLine
 10
0.0
 20
0.0
 30
0.0
 11
-1.0
 21
0.0
 31
0.0
  0
ENDBLK
  5
5E
330
59
100
AcDbEntity
  8
0
100
AcDbBlockEnd
  0
BLOCK
  5
66
330
64
100
AcDbEntity
  8
0
100
AcDbBlockBegin
  2
GENAXEH
 70
     0
 71
     0
 10
0.0
 20
0.0
 30
0.0
  3
GENAXEH
  1

  0
LINE
  5
65
330
64
100
AcDbEntity
  8
0
100
AcDbLine
 10
-1.0
 20
0.0
 30
0.0
 11
1.0
 21
0.0
 31
0.0
  0
ENDBLK
  5
67
330
64
100
AcDbEntity
  8
0
100
AcDbBlockEnd
  0
BLOCK
  5
1B227
330
1B221
100
AcDbEntity
  8
0
100
AcDbBlockBegin
  2
*D3
 70
     1
 71
     0
 10
0.0
 20
0.0
 30
0.0
  3
*D3
  1

  0
LINE
  5
1D4FB
330
1B221
100
AcDbEntity
  8
AM_5
100
AcDbLine
 10
-106.742967917776
 20
-4.330287556884272
 30
0.0
 11
-82.87524190828697
 21
-4.330287556884279
 31
0.0
  0
LINE
  5
1D4FC
330
1B221
100
AcDbEntity
  8
AM_5
100
AcDbLine
 10
-82.87524190828697
 20
-4.330287556884279
 30
0.0
 11
-68.33455738876478
 21
4.70696719597364
 31
0.0
  0
LINE
  5
1D4FD
330
1B221
100
AcDbEntity
  8
AM_5
100
AcDbLine
 10
-42.8547805832775
 20
20.54303280402627
 30
0.0
 11
-40.73146584948688
 21
21.86270493803066
 31
0.0
  0
MTEXT
  5
1D4FE
330
1B221
100
AcDbEntity
  8
AM_5
 62
     2
100
AcDbMText
 10
-95.55910491303148
 20
2.236753125530411
 30
0.0
 40
3.8
 41
0.0
 71
     5
 72
     1
  1
最小加工径\P\U+220525
 73
     1
 44
1.0
  0
LINE
  5
1D4FF
330
1B221
100
AcDbEntity
  8
AM_5
100
AcDbLine
 10
-44.97809531706811
 20
19.22336067002188
 30
0.0
 11
-66.21124265497416
 21
6.026639329978032
 31
0.0
  0
INSERT
  5
1D500
330
1B221
100
AcDbEntity
  8
AM_5
100
AcDbBlockReference
  2
_Open30
 10
-44.97809531706811
 20
19.22336067002188
 30
0.0
 41
2.5
 42
2.5
 43
2.5
 50
211.8615746217135
  0
INSERT
  5
1D501
330
1B221
100
AcDbEntity
  8
AM_5
100
AcDbBlockReference
  2
_Open30
 10
-66.21124265497416
 20
6.026639329978032
 30
0.0
 41
2.5
 42
2.5
 43
2.5
 50
31.86157462171351
  0
POINT
  5
1D502
330
1B221
100
AcDbEntity
  8
Defpoints
 62
     0
100
AcDbPoint
 10
-66.21124265497416
 20
6.026639329978032
 30
0.0
  0
POINT
  5
1D503
330
1B221
100
AcDbEntity
  8
Defpoints
 62
     0
100
AcDbPoint
 10
-44.97809531706811
 20
19.22336067002188
 30
0.0
  0
ENDBLK
  5
1B228
330
1B221
100
AcDbEntity
  8
0
100
AcDbBlockEnd
  0
BLOCK
  5
1B6B5
330
1B6A9
100
AcDbEntity
  8
0
100
AcDbBlockBegin
  2
*D4
 70
     1
 71
     0
 10
0.0
 20
0.0
 30
0.0
  3
*D4
  1

  0
LINE
  5
1D4AC
330
1B6A9
100
AcDbEntity
  8
AM_5
 62
     3
370
    13
100
AcDbLine
 10
18.14810823570133
 20
8.75
 30
0.0
 11
21.66881888807473
 21
8.749999999999998
 31
0.0
  0
LINE
  5
1D4AD
330
1B6A9
100
AcDbEntity
  8
AM_5
 62
     3
370
    13
100
AcDbLine
 10
0.4020998172295549
 20
0.0
 30
0.0
 11
21.66881888807473
 21
-0.000000000000006
 31
0.0
  0
LINE
  5
1D4AE
330
1B6A9
100
AcDbEntity
  8
AM_5
 62
     3
370
    13
100
AcDbLine
 10
20.66881888807473
 20
6.249999999999999
 30
0.0
 11
20.66881888807473
 21
2.499999999999994
 31
0.0
  0
INSERT
  5
1D4AF
330
1B6A9
100
AcDbEntity
  8
AM_5
 62
     3
370
    13
100
AcDbBlockReference
  2
_Open30
 10
20.66881888807473
 20
8.749999999999998
 30
0.0
 41
2.5
 42
2.5
 43
2.5
 50
90.0
  0
INSERT
  5
1D4B0
330
1B6A9
100
AcDbEntity
  8
AM_5
 62
     3
370
    13
100
AcDbBlockReference
  2
_Open30
 10
20.66881888807473
 20
-0.0000000000000057
 30
0.0
 41
2.5
 42
2.5
 43
2.5
 50
270.0
  0
MTEXT
  5
1D4B1
330
1B6A9
100
AcDbEntity
  8
AM_5
 62
     2
100
AcDbMText
 10
17.07790050593731
 20
4.375
 30
0.0
 40
3.8
 41
0.0
 71
     5
 72
     1
  1
(9)
 11
6.123031769111886E-17
 21
1.0
 31
0.0
 73
     1
 44
1.0
  0
POINT
  5
1D4B2
330
1B6A9
100
AcDbEntity
  8
Defpoints
 62
     0
100
AcDbPoint
 10
18.14810823570133
 20
8.75
 30
0.0
  0
POINT
  5
1D4B3
330
1B6A9
100
AcDbEntity
  8
Defpoints
 62
     0
100
AcDbPoint
 10
0.4020998172295549
 20
0.0
 30
0.0
  0
POINT
  5
1D4B4
330
1B6A9
100
AcDbEntity
  8
Defpoints
 62
     0
100
AcDbPoint
 10
20.66881888807473
 20
-0.0000000000000057
 30
0.0
  0
ENDBLK
  5
1B6B6
330
1B6A9
100
AcDbEntity
  8
0
100
AcDbBlockEnd
  0
BLOCK
  5
1C1B8
330
1C1AE
100
AcDbEntity
  8
0
100
AcDbBlockBegin
  2
*D5
 70
     1
 71
     0
 10
0.0
 20
0.0
 30
0.0
  3
*D5
  1

  0
LINE
  5
1D4B5
330
1C1AE
100
AcDbEntity
  8
AM_5
100
AcDbLine
 10
114.3453931779934
 20
33.21962979819905
 30
0.0
 11
105.8168892409854
 21
33.21962979819906
 31
0.0
  0
LINE
  5
1D4B6
330
1C1AE
100
AcDbEntity
  8
AM_5
100
AcDbLine
 10
105.8168892409854
 20
33.21962979819906
 30
0.0
 11
104.0166741237046
 21
26.6289443819787
 31
0.0
  0
LINE
  5
1D4B7
330
1C1AE
100
AcDbEntity
  8
AM_5
100
AcDbLine
 10
98.48332587629525
 20
6.371055618021
 30
0.0
 11
97.82459394207984
 21
3.959402193740299
 31
0.0
  0
MTEXT
  5
1D4B8
330
1C1AE
100
AcDbEntity
  8
AM_5
 62
     2
100
AcDbMText
 10
110.8311412094894
 20
36.61962979819905
 30
0.0
 40
3.8
 41
0.0
 71
     5
 72
     1
  1
\U+220516
 73
     1
 44
1.0
  0
LINE
  5
1D4B9
330
1C1AE
100
AcDbEntity
  8
AM_5
100
AcDbLine
 10
99.14205781051066
 20
8.782709042301697
 30
0.0
 11
103.3579421894892
 21
24.217290957698
 31
0.0
  0
INSERT
  5
1D4BA
330
1C1AE
100
AcDbEntity
  8
AM_5
100
AcDbBlockReference
  2
_Open30
 10
99.14205781051066
 20
8.782709042301697
 30
0.0
 41
2.5
 42
2.5
 43
2.5
 50
74.72258761494453
  0
INSERT
  5
1D4BB
330
1C1AE
100
AcDbEntity
  8
AM_5
100
AcDbBlockReference
  2
_Open30
 10
103.3579421894892
 20
24.217290957698
 30
0.0
 41
2.5
 42
2.5
 43
2.5
 50
254.7225876149445
  0
POINT
  5
1D4BC
330
1C1AE
100
AcDbEntity
  8
Defpoints
 62
     0
100
AcDbPoint
 10
103.3579421894892
 20
24.217290957698
 30
0.0
  0
POINT
  5
1D4BD
330
1C1AE
100
AcDbEntity
  8
Defpoints
 62
     0
100
AcDbPoint
 10
99.14205781051066
 20
8.782709042301697
 30
0.0
  0
ENDBLK
  5
1C1B9
330
1C1AE
100
AcDbEntity
  8
0
100
AcDbBlockEnd
  0
BLOCK
  5
1C1D1
330
1C1C7
100
AcDbEntity
  8
0
100
AcDbBlockBegin
  2
*D6
 70
     1
 71
     0
 10
0.0
 20
0.0
 30
0.0
  3
*D6
  1

  0
LINE
  5
1D4BE
330
1C1C7
100
AcDbEntity
  8
AM_5
 62
     3
370
    13
100
AcDbLine
 10
93.75
 20
13.71611781858498
 30
0.0
 11
93.75
 21
-8.027023094404953
 31
0.0
  0
LINE
  5
1D4BF
330
1C1C7
100
AcDbEntity
  8
AM_5
 62
     3
370
    13
100
AcDbLine
 10
108.7499999999999
 20
13.71611781858498
 30
0.0
 11
108.7499999999999
 21
-8.027023094404953
 31
0.0
  0
LINE
  5
1D4C0
330
1C1C7
100
AcDbEntity
  8
AM_5
 62
     3
370
    13
100
AcDbLine
 10
96.25
 20
-7.027023094404953
 30
0.0
 11
106.2499999999999
 21
-7.027023094404953
 31
0.0
  0
INSERT
  5
1D4C1
330
1C1C7
100
AcDbEntity
  8
AM_5
 62
     3
370
    13
100
AcDbBlockReference
  2
_Open30
 10
93.75
 20
-7.027023094404953
 30
0.0
 41
2.5
 42
2.5
 43
2.5
 50
180.0
  0
INSERT
  5
1D4C2
330
1C1C7
100
AcDbEntity
  8
AM_5
 62
     3
370
    13
100
AcDbBlockReference
  2
_Open30
 10
108.7499999999999
 20
-7.027023094404953
 30
0.0
 41
2.5
 42
2.5
 43
2.5
  0
MTEXT
  5
1D4C3
330
1C1C7
100
AcDbEntity
  8
AM_5
 62
     2
100
AcDbMText
 10
101.2499999999999
 20
-3.627023094404953
 30
0.0
 40
3.8
 41
0.0
 71
     5
 72
     1
  1
15
 73
     1
 44
1.0
  0
POINT
  5
1D4C4
330
1C1C7
100
AcDbEntity
  8
Defpoints
 62
     0
100
AcDbPoint
 10
93.75
 20
13.71611781858498
 30
0.0
  0
POINT
  5
1D4C5
330
1C1C7
100
AcDbEntity
  8
Defpoints
 62
     0
100
AcDbPoint
 10
108.7499999999999
 20
13.71611781858498
 30
0.0
  0
POINT
  5
1D4C6
330
1C1C7
100
AcDbEntity
  8
Defpoints
 62
     0
100
AcDbPoint
 10
108.7499999999999
 20
-7.027023094404953
 30
0.0
  0
ENDBLK
  5
1C1D2
330
1C1C7
100
AcDbEntity
  8
0
100
AcDbBlockEnd
  0
BLOCK
  5
1CA74
330
1CA73
100
AcDbEntity
  8
0
100
AcDbBlockBegin
  2
*U7
 70
     1
 71
     0
 10
0.0
 20
0.0
 30
0.0
  3
*U7
  1

  0
ENDBLK
  5
1CA75
330
1CA73
100
AcDbEntity
  8
0
100
AcDbBlockEnd
  0
BLOCK
  5
1D013
330
1CFEB
100
AcDbEntity
  8
0
100
AcDbBlockBegin
  2
*D8
 70
     1
 71
     0
 10
0.0
 20
0.0
 30
0.0
  3
*D8
  1

  0
LINE
  5
1D4C7
330
1CFEB
100
AcDbEntity
  8
AM_5
 62
     3
370
    13
100
AcDbLine
 10
0.0
 20
0.0
 30
0.0
 11
-0.000000000000002
 21
-32.02521539496182
 31
0.0
  0
LINE
  5
1D4C8
330
1CFEB
100
AcDbEntity
  8
AM_5
 62
     3
370
    13
100
AcDbLine
 10
199.9999999999999
 20
9.499999999999979
 30
0.0
 11
199.9999999999999
 21
-32.02521539496182
 31
0.0
  0
LINE
  5
1D4C9
330
1CFEB
100
AcDbEntity
  8
AM_5
 62
     3
370
    13
100
AcDbLine
 10
2.499999999999998
 20
-31.02521539496182
 30
0.0
 11
197.4999999999999
 21
-31.02521539496182
 31
0.0
  0
INSERT
  5
1D4CA
330
1CFEB
100
AcDbEntity
  8
AM_5
 62
     3
370
    13
100
AcDbBlockReference
  2
_Open30
 10
-0.0000000000000019
 20
-31.02521539496182
 30
0.0
 41
2.5
 42
2.5
 43
2.5
 50
180.0
  0
INSERT
  5
1D4CB
330
1CFEB
100
AcDbEntity
  8
AM_5
 62
     3
370
    13
100
AcDbBlockReference
  2
_Open30
 10
199.9999999999999
 20
-31.02521539496182
 30
0.0
 41
2.5
 42
2.5
 43
2.5
  0
MTEXT
  5
1D4CC
330
1CFEB
100
AcDbEntity
  8
AM_5
 62
     2
100
AcDbMText
 10
99.99999999999997
 20
-27.62484137921379
 30
0.0
 40
3.8
 41
0.0
 71
     5
 72
     1
  1
200
 73
     1
 44
1.0
  0
POINT
  5
1D4CD
330
1CFEB
100
AcDbEntity
  8
Defpoints
 62
     0
100
AcDbPoint
 10
0.0
 20
0.0
 30
0.0
  0
POINT
  5
1D4CE
330
1CFEB
100
AcDbEntity
  8
Defpoints
 62
     0
100
AcDbPoint
 10
199.9999999999999
 20
9.499999999999979
 30
0.0
  0
POINT
  5
1D4CF
330
1CFEB
100
AcDbEntity
  8
Defpoints
 62
     0
100
AcDbPoint
 10
199.9999999999999
 20
-31.02521539496182
 30
0.0
  0
ENDBLK
  5
1D014
330
1CFEB
100
AcDbEntity
  8
0
100
AcDbBlockEnd
  0
BLOCK
  5
1D17E
330
1D156
100
AcDbEntity
  8
0
100
AcDbBlockBegin
  2
*D9
 70
     1
 71
     0
 10
0.0
 20
0.0
 30
0.0
  3
*D9
  1

  0
LINE
  5
1D4D0
330
1D156
100
AcDbEntity
  8
AM_5
 62
     3
370
    13
100
AcDbLine
 10
-5.593347524906562
 20
0.0
 30
0.0
 11
-13.00000101000001
 21
0.0000000000000021
 31
0.0
  0
LINE
  5
1D4D1
330
1D156
100
AcDbEntity
  8
AM_5
 62
     3
370
    13
100
AcDbLine
 10
-2.165548451965833
 20
16.50000000000001
 30
0.0
 11
-13.00000101000001
 21
16.50000000000001
 31
0.0
  0
LINE
  5
1D4D2
330
1D156
100
AcDbEntity
  8
AM_5
 62
     3
370
    13
100
AcDbLine
 10
-12.00000101000001
 20
2.500000000000002
 30
0.0
 11
-12.00000101000001
 21
14.00000000000001
 31
0.0
  0
INSERT
  5
1D4D3
330
1D156
100
AcDbEntity
  8
AM_5
 62
     3
370
    13
100
AcDbBlockReference
  2
_Open30
 10
-12.00000101000001
 20
0.0000000000000018
 30
0.0
 41
2.5
 42
2.5
 43
2.5
 50
270.0
  0
INSERT
  5
1D4D4
330
1D156
100
AcDbEntity
  8
AM_5
 62
     3
370
    13
100
AcDbBlockReference
  2
_Open30
 10
-12.00000101000001
 20
16.50000000000001
 30
0.0
 41
2.5
 42
2.5
 43
2.5
 50
90.0
  0
MTEXT
  5
1D4D5
330
1D156
100
AcDbEntity
  8
AM_5
 62
     2
100
AcDbMText
 10
-15.40000101000001
 20
8.250000000000005
 30
0.0
 40
3.8
 41
0.0
 71
     5
 72
     1
  1
16.5
 11
6.123031769111886E-17
 21
1.0
 31
0.0
 73
     1
 44
1.0
  0
POINT
  5
1D4D6
330
1D156
100
AcDbEntity
  8
Defpoints
 62
     0
100
AcDbPoint
 10
-5.593347524906562
 20
0.0
 30
0.0
  0
POINT
  5
1D4D7
330
1D156
100
AcDbEntity
  8
Defpoints
 62
     0
100
AcDbPoint
 10
-2.165548451965833
 20
16.50000000000001
 30
0.0
  0
POINT
  5
1D4D8
330
1D156
100
AcDbEntity
  8
Defpoints
 62
     0
100
AcDbPoint
 10
-12.00000101000001
 20
16.50000000000001
 30
0.0
  0
ENDBLK
  5
1D17F
330
1D156
100
AcDbEntity
  8
0
100
AcDbBlockEnd
  0
BLOCK
  5
1D1D1
330
1D182
100
AcDbEntity
  8
0
100
AcDbBlockBegin
  2
*D10
 70
     1
 71
     0
 10
0.0
 20
0.0
 30
0.0
  3
*D10
  1

  0
LINE
  5
1D4D9
330
1D182
100
AcDbEntity
  8
AM_5
 62
     3
370
    13
100
AcDbLine
 10
0.5090021295516181
 20
10.1217957200754
 30
0.0
 11
1.791299557971122
 21
34.58948822606909
 31
0.0
  0
LINE
  5
1D4DA
330
1D182
100
AcDbEntity
  8
AM_5
 62
     3
370
    13
100
AcDbLine
 10
-5.593347524906563
 20
0.0
 30
0.0
 11
-34.65841567830043
 21
0.0
 31
0.0
  0
ARC
  5
1D4DB
330
1D182
100
AcDbEntity
  8
AM_5
 62
     3
370
    13
100
AcDbCircle
 10
-0.0214587064941503
 20
0.0
 30
0.0
 40
33.63695697180628
100
AcDbArc
 50
91.25937571637832
 51
175.7406242836215
  0
INSERT
  5
1D4DC
330
1D182
100
AcDbEntity
  8
AM_5
 62
     3
370
    13
100
AcDbBlockReference
  2
_Open30
 10
1.738963601728177
 20
33.59085869131452
 30
0.0
 41
2.5
 42
2.5
 43
2.5
 50
359.1296878581891
  0
INSERT
  5
1D4DD
330
1D182
100
AcDbEntity
  8
AM_5
 62
     3
370
    13
100
AcDbBlockReference
  2
_Open30
 10
-33.65841567830043
 20
0.0
 30
0.0
 41
2.5
 42
2.5
 43
2.5
 50
267.8703121418108
  0
MTEXT
  5
1D4DE
330
1D182
100
AcDbEntity
  8
AM_5
 62
     2
100
AcDbMText
 10
-25.51601750780964
 20
26.86565936763317
 30
0.0
 40
3.8
 41
0.0
 71
     5
 72
     1
  1
93°
 11
0.7253743710122885
 21
0.688354575693753
 31
0.0
 73
     1
 44
1.0
  0
POINT
  5
1D4DF
330
1D182
100
AcDbEntity
  8
Defpoints
 62
     0
100
AcDbPoint
 10
-15.81305346340975
 20
29.69967018935568
 30
0.0
  0
POINT
  5
1D4E0
330
1D182
100
AcDbEntity
  8
Defpoints
 62
     0
100
AcDbPoint
 10
0.0005391563458943
 20
0.4197442276887671
 30
0.0
  0
POINT
  5
1D4E1
330
1D182
100
AcDbEntity
  8
Defpoints
 62
     0
100
AcDbPoint
 10
-5.593347524906563
 20
0.0
 30
0.0
  0
POINT
  5
1D4E2
330
1D182
100
AcDbEntity
  8
Defpoints
 62
     0
100
AcDbPoint
 10
0.4020998172312603
 20
0.0
 30
0.0
  0
POINT
  5
1D4E3
330
1D182
100
AcDbEntity
  8
Defpoints
 62
     0
100
AcDbPoint
 10
0.5090021295516181
 20
10.1217957200754
 30
0.0
  0
ENDBLK
  5
1D1D2
330
1D182
100
AcDbEntity
  8
0
100
AcDbBlockEnd
  0
BLOCK
  5
1D223
330
1D1F4
100
AcDbEntity
  8
0
100
AcDbBlockBegin
  2
*D11
 70
     1
 71
     0
 10
0.0
 20
0.0
 30
0.0
  3
*D11
  1

  0
LINE
  5
1D4E4
330
1D1F4
100
AcDbEntity
  8
AM_5
 62
     3
370
    13
100
AcDbLine
 10
-55.59466898602125
 20
-0.1720026296861903
 30
0.0
 11
-59.21618581342441
 21
-21.37253436044188
 31
0.0
  0
LINE
  5
1D4E5
330
1D1F4
100
AcDbEntity
  8
AM_5
 62
     3
370
    13
100
AcDbLine
 10
-55.59466898602125
 20
-2.894879724441481
 30
0.0
 11
-55.59466898602125
 21
-21.67962755197696
 31
0.0
  0
ARC
  5
1D4E6
330
1D1F4
100
AcDbEntity
  8
AM_5
 62
     3
370
    13
100
AcDbCircle
 10
-55.59466898602125
 20
-0.1720026296861903
 30
0.0
 40
20.50762492229077
100
AcDbArc
 50
246.3281387451533
 51
253.3171632303074
  0
ARC
  5
1D4E7
330
1D1F4
100
AcDbEntity
  8
AM_5
 62
     3
370
    13
100
AcDbCircle
 10
-55.59466898602125
 20
-0.1720026296861903
 30
0.0
 40
20.50762492229077
100
AcDbArc
 50
276.9890244851541
 51
283.9780489703082
  0
ARC
  5
1D4E8
330
1D1F4
100
AcDbEntity
  8
AM_5
 62
     3
370
    13
100
AcDbCircle
 10
-55.59466898602125
 20
-0.1720026296861903
 30
0.0
 40
20.50762492229077
100
AcDbArc
 50
260.3061877154615
 51
270.0
  0
INSERT
  5
1D4E9
330
1D1F4
100
AcDbEntity
  8
AM_5
 62
     3
370
    13
100
AcDbBlockReference
  2
_Open30
 10
-59.04780288688148
 20
-20.38681270092088
 30
0.0
 41
2.5
 42
2.5
 43
2.5
 50
346.8116754728845
  0
INSERT
  5
1D4EA
330
1D1F4
100
AcDbEntity
  8
AM_5
 62
     3
370
    13
100
AcDbBlockReference
  2
_Open30
 10
-55.59466898602125
 20
-20.67962755197695
 30
0.0
 41
2.5
 42
2.5
 43
2.5
 50
183.4945122425771
  0
MTEXT
  5
1D4EB
330
1D1F4
100
AcDbEntity
  8
AM_5
 62
     2
100
AcDbMText
 10
-62.09722484541527
 20
-15.99564310137426
 30
0.0
 40
3.8
 41
0.0
 71
     5
 72
     1
  1
10°
 11
0.9249466564508494
 21
-0.3800969385832967
 31
0.0
 73
     1
 44
1.0
  0
POINT
  5
1D4EC
330
1D1F4
100
AcDbEntity
  8
Defpoints
 62
     0
100
AcDbPoint
 10
-56.75061045540218
 20
-20.64702349103641
 30
0.0
  0
POINT
  5
1D4ED
330
1D1F4
100
AcDbEntity
  8
Defpoints
 62
     0
100
AcDbPoint
 10
-54.23757357875411
 20
7.772498421841549
 30
0.0
  0
POINT
  5
1D4EE
330
1D1F4
100
AcDbEntity
  8
Defpoints
 62
     0
100
AcDbPoint
 10
-55.59466898602125
 20
32.97866351642649
 30
0.0
  0
POINT
  5
1D4EF
330
1D1F4
100
AcDbEntity
  8
Defpoints
 62
     0
100
AcDbPoint
 10
-55.59466898602125
 20
-2.894879724441481
 30
0.0
  0
POINT
  5
1D4F0
330
1D1F4
100
AcDbEntity
  8
Defpoints
 62
     0
100
AcDbPoint
 10
-55.53957407201415
 20
0.1505256169789817
 30
0.0
  0
ENDBLK
  5
1D224
330
1D1F4
100
AcDbEntity
  8
0
100
AcDbBlockEnd
  0
ENDSEC
  0
SECTION
  2
ENTITIES
  0
LINE
  5
EF21
330
1F
100
AcDbEntity
  8
AM_7
100
AcDbLine
 10
209.5196742146413
 20
16.49999999999995
 30
0.0
 11
-2.165548451965833
 21
16.50000000000001
 31
0.0
1001
GENIUS_GENODEF_13
1002
{
1000
HIER
1070
     0
1002
}
1002
{
1000
MANEDIT
1070
     0
1002
}
1002
{
1000
NOSEL
1070
     0
1002
}
1002
{
1000
BEHIND
1070
     0
1002
}
1002
{
1000
REACTOR
1002
}
1001
GENIUS_GENOBJ-N-CEN_13
1002
{
1000
OWNER
1000
GEN
1002
}
  0
LINE
  5
EF96
330
1F
100
AcDbEntity
  8
AM_7
100
AcDbLine
 10
-1.773854710452497
 20
-57.28105490027674
 30
0.0
 11
209.5196742146413
 21
-57.2810549002768
 31
0.0
1001
GENIUS_GENODEF_13
1002
{
1000
HIER
1070
     0
1002
}
1002
{
1000
MANEDIT
1070
     0
1002
}
1002
{
1000
NOSEL
1070
     0
1002
}
1002
{
1000
BEHIND
1070
     0
1002
}
1002
{
1000
REACTOR
1002
}
1001
GENIUS_GENOBJ-N-CEN_13
1002
{
1000
OWNER
1000
GEN
1002
}
  0
LINE
  5
15AD4
330
1F
100
AcDbEntity
  8
AM_7
100
AcDbLine
 10
-39.98806867572648
 20
16.50000000000001
 30
0.0
 11
-71.29806826344429
 21
16.50000000000004
 31
0.0
1001
GENIUS_GENODEF_13
1002
{
1000
HIER
1070
     0
1002
}
1002
{
1000
MANEDIT
1070
     0
1002
}
1002
{
1000
NOSEL
1070
     0
1002
}
1002
{
1000
BEHIND
1070
     0
1002
}
1002
{
1000
REACTOR
1002
}
1001
GENIUS_GENOBJ-N-CEN_13
1002
{
1000
OWNER
1000
GEN
1002
}
  0
CIRCLE
  5
19939
330
1F
100
AcDbEntity
  8
AM_0
100
AcDbCircle
 10
3.623963402493018
 20
8.947151213799742
 30
0.0
 40
1.09375
  0
ARC
  5
1993A
330
1F
100
AcDbEntity
  8
AM_0
100
AcDbCircle
 10
3.016311620872671
 20
7.894667454723759
 30
0.0
 40
0.4375
100
AcDbArc
 50
13.53115216735703
 51
106.4688478326188
  0
ARC
  5
1993B
330
1F
100
AcDbEntity
  8
AM_0
100
AcDbCircle
 10
3.016311620872784
 20
9.999634972876009
 30
0.0
 40
0.4375
100
AcDbArc
 50
253.5311521673709
 51
346.4688478326224
  0
CIRCLE
  5
1993C
330
1F
100
AcDbEntity
  8
AM_0
100
AcDbCircle
 10
3.623963402493018
 20
8.947151213799742
 30
0.0
 40
1.3
  0
CIRCLE
  5
1993D
330
1F
100
AcDbEntity
  8
AM_0
100
AcDbCircle
 10
3.623963402493018
 20
8.947151213799742
 30
0.0
 40
1.725
  0
ARC
  5
1994D
330
1F
100
AcDbEntity
  8
AM_0
100
AcDbCircle
 10
2.839127880313527
 20
8.494026213799799
 30
0.0
 40
0.1874999999999716
100
AcDbArc
 50
133.5311521673627
 51
286.4688478326257
  0
ARC
  5
1994E
330
1F
100
AcDbEntity
  8
AM_0
100
AcDbCircle
 10
2.40865983925255
 20
8.947151213799856
 30
0.0
 40
0.4375
100
AcDbArc
 50
313.5311521673586
 51
46.46884783262349
  0
ARC
  5
1994F
330
1F
100
AcDbEntity
  8
AM_0
100
AcDbCircle
 10
2.839127880313527
 20
9.400276213799856
 30
0.0
 40
0.1874999999999716
100
AcDbArc
 50
73.5311521673776
 51
226.4688478326373
  0
ARC
  5
19961
330
1F
100
AcDbEntity
  8
AM_0
100
AcDbCircle
 10
3.623963402493018
 20
9.853401213799742
 30
0.0
 40
0.1874999999999716
100
AcDbArc
 50
13.53115216736414
 51
166.4688478326343
  0
ARC
  5
19962
330
1F
100
AcDbEntity
  8
AM_0
100
AcDbCircle
 10
4.408798924672738
 20
8.494026213799799
 30
0.0
 40
0.1874999999999716
100
AcDbArc
 50
253.5311521673539
 51
46.46884783263732
  0
ARC
  5
19963
330
1F
100
AcDbEntity
  8
AM_0
100
AcDbCircle
 10
4.231615184113366
 20
7.894667454723702
 30
0.0
 40
0.4375
100
AcDbArc
 50
73.53115216735387
 51
166.4688478326327
  0
ARC
  5
19964
330
1F
100
AcDbEntity
  8
AM_0
100
AcDbCircle
 10
3.623963402493018
 20
8.040901213799856
 30
0.0
 40
0.1874999999999716
100
AcDbArc
 50
193.5311521673641
 51
346.4688478326311
  0
ARC
  5
19965
330
1F
100
AcDbEntity
  8
AM_0
100
AcDbCircle
 10
4.408798924672738
 20
9.400276213799685
 30
0.0
 40
0.1874999999999716
100
AcDbArc
 50
313.5311521673627
 51
106.4688478326358
  0
ARC
  5
19966
330
1F
100
AcDbEntity
  8
AM_0
100
AcDbCircle
 10
4.839266965733714
 20
8.947151213799742
 30
0.0
 40
0.4375
100
AcDbArc
 50
133.5311521673586
 51
226.4688478326414
  0
ARC
  5
19967
330
1F
100
AcDbEntity
  8
AM_0
100
AcDbCircle
 10
4.23161518411348
 20
9.999634972875896
 30
0.0
 40
0.4375
100
AcDbArc
 50
193.531152167357
 51
286.4688478326291
  0
LINE
  5
19A33
330
1F
100
AcDbEntity
  8
AM_7
100
AcDbLine
 10
-55.59466898602125
 20
32.97866351642649
 30
0.0
 11
-55.59466898602125
 21
-2.894879724441481
 31
0.0
1001
GENIUS_GENODEF_13
1002
{
1000
HIER
1070
     0
1002
}
1002
{
1000
MANEDIT
1070
     0
1002
}
1002
{
1000
NOSEL
1070
     0
1002
}
1002
{
1000
BEHIND
1070
     0
1002
}
1002
{
1000
REACTOR
1002
}
1001
GENIUS_GENOBJ-N-CEN_13
1002
{
1000
OWNER
1000
GEN
1002
}
  0
LINE
  5
19D80
330
1F
100
AcDbEntity
  8
AM_7
  6
AM_ISO08W050x2
100
AcDbLine
 10
-0.3033919040108231
 20
-1.467382694403938
 30
0.0
 11
7.804938018022313
 21
20.0342592876419
 31
0.0
1001
GENIUS_GENODEF_13
1002
{
1000
HIER
1070
     0
1002
}
1002
{
1000
MANEDIT
1070
     0
1002
}
1002
{
1000
NOSEL
1070
     0
1002
}
1002
{
1000
BEHIND
1070
     0
1002
}
1002
{
1000
REACTOR
1002
}
1001
GENIUS_GENOBJ-N-CEN_13
1002
{
1000
OWNER
1000
GEN
1002
}
  0
LINE
  5
19D92
330
1F
100
AcDbEntity
  8
AM_7
  6
AM_ISO08W050x2
100
AcDbLine
 10
-1.412902450038928
 20
10.846567543156
 30
0.0
 11
8.517878475056705
 21
7.101642027042828
 31
0.0
1001
GENIUS_GENODEF_13
1002
{
1000
HIER
1070
     0
1002
}
1002
{
1000
MANEDIT
1070
     0
1002
}
1002
{
1000
NOSEL
1070
     0
1002
}
1002
{
1000
BEHIND
1070
     0
1002
}
1002
{
1000
REACTOR
1002
}
1001
GENIUS_GENOBJ-N-CEN_13
1002
{
1000
OWNER
1000
GEN
1002
}
  0
CIRCLE
  5
1B216
330
1F
100
AcDbEntity
  8
AM_11
  6
ACJISTGB
100
AcDbCircle
 10
-55.59466898602125
 20
12.62500000000006
 30
0.0
 40
12.5
  0
DIMENSION
  5
1B220
330
1F
100
AcDbEntity
  8
AM_5
100
AcDbDimension
  2
*D3
 10
-44.97809531706811
 20
19.22336067002188
 30
0.0
 11
-95.55910491303148
 21
-4.330287556884287
 31
0.0
 70
   163
  1
最小加工径\P<>
 71
     5
 42
24.99999999999991
  3
AM_JIS$3
100
AcDbDiametricDimension
 15
-66.21124265497416
 25
6.026639329978032
 35
0.0
 40
0.0
1001
GENIUS_GENDTOL_13
1000

1000
h7
1000

1040
0.0
1001
ACAD
1000
DSTYLE
1002
{
1070
   271
1070
     0
1070
   288
1070
     1
1070
   289
1070
     3
1070
   172
1070
     1
1070
    74
1070
     1
1002
}
  0
DIMENSION
  5
1B6A8
330
1F
100
AcDbEntity
  8
AM_5
100
AcDbDimension
  2
*D4
 10
20.66881888807473
 20
-0.0000000000000057
 30
0.0
 11
17.07790050593731
 21
4.375
 31
0.0
 70
    32
  1
(<>)
 71
     5
 42
8.750000000000004
  3
AM_JIS$0
100
AcDbAlignedDimension
 13
18.14810823570133
 23
8.75
 33
0.0
 14
0.4020998172295549
 24
0.0
 34
0.0
 50
90.0
100
AcDbRotatedDimension
1001
GENIUS_GENDTOL_13
1000

1000
h7
1000

1040
0.0
1001
ACAD
1000
DSTYLE
1002
{
1070
   271
1070
     0
1002
}
  0
TEXT
  5
1BCA1
330
1F
100
AcDbEntity
  8
AM_0
100
AcDbText
 10
-0.7855691719013294
 20
-99.28820889311454
 30
0.0
 40
5.0
  1
B16R-SVUBR1103-25
100
AcDbText
  0
LINE
  5
1BF1F
330
1F
100
AcDbEntity
  8
AM_0
100
AcDbLine
 10
198.9999999999999
 20
-64.78105490027683
 30
0.0
 11
40.25
 21
-64.78105490027677
 31
0.0
  0
LINE
  5
1BF20
330
1F
100
AcDbEntity
  8
AM_0
100
AcDbLine
 10
40.25
 20
-49.78105490027677
 30
0.0
 11
198.9999999999999
 21
-49.7810549002768
 31
0.0
  0
LINE
  5
1BF21
330
1F
100
AcDbEntity
  8
AM_0
100
AcDbLine
 10
58.59371025317353
 20
24.49999999999999
 30
0.0
 11
88.75
 21
24.49999999999999
 31
0.0
  0
LINE
  5
1BF22
330
1F
100
AcDbEntity
  8
AM_0
100
AcDbLine
 10
40.25
 20
8.5
 30
0.0
 11
88.75
 21
8.499999999999993
 31
0.0
  0
LINE
  5
1BF23
330
1F
100
AcDbEntity
  8
AM_0
100
AcDbLine
 10
88.75
 20
19.28388218141503
 30
0.0
 11
40.25
 21
19.28388218141504
 31
0.0
  0
LINE
  5
1BF24
330
1F
100
AcDbEntity
  8
AM_0
100
AcDbLine
 10
40.25
 20
13.71611781858496
 30
0.0
 11
88.75
 21
13.71611781858496
 31
0.0
  0
SPLINE
  5
1BF25
330
1F
100
AcDbEntity
  8
AM_0
100
AcDbSpline
210
0.0
220
0.0
230
1.0
 70
    28
 71
     2
 72
     6
 73
     3
 74
     0
 42
0.0000000001
 43
0.0000000001
 40
1.73917663765309
 40
1.73917663765309
 40
1.73917663765309
 40
8.310468446234722
 40
8.310468446234722
 40
8.310468446234722
 10
4.723954987514389
 20
-64.78105490027686
 30
0.0
 41
1.015437972334643
 10
3.448251436740976
 20
-64.78105490027677
 30
0.0
 41
1.037701601109793
 10
1.183394369375947
 20
-64.78105490027674
 30
0.0
 41
1.00781034154736
  0
LINE
  5
1BF26
330
1F
100
AcDbEntity
  8
AM_0
100
AcDbLine
 10
6.45466982693938
 20
-54.17423247904831
 30
0.0
 11
1.085293485247576
 21
-54.84855756315717
 31
0.0
  0
LINE
  5
1BF27
330
1F
100
AcDbEntity
  8
AM_0
100
AcDbLine
 10
6.738924675434646
 20
-55.92395949300969
 30
0.0
 11
0.7144400278486955
 21
-57.2259599862697
 31
0.0
  0
LINE
  5
1BF28
330
1F
100
AcDbEntity
  8
AM_0
100
AcDbLine
 10
0.6515777908937253
 20
-60.36330088146308
 30
0.0
 11
6.622149206677932
 21
-59.07295201626842
 31
0.0
  0
LINE
  5
1BF29
330
1F
100
AcDbEntity
  8
AM_0
100
AcDbLine
 10
0.5090021295516181
 20
-55.92372228521889
 30
0.0
 11
6.533486777137568
 21
-54.62172179195885
 31
0.0
  0
ELLIPSE
  5
1BF2A
330
1F
100
AcDbEntity
  8
AM_0
100
AcDbEllipse
 10
3.623963402493018
 20
-55.92384088911429
 30
0.0
 11
-1.248465487104898
 21
-0.06191871694349613
 31
0.0
210
0.0
220
0.0
230
0.9999999999999999
 40
0.1303379353271464
 41
5.919586222283172
 42
12.20277152946276
  0
ELLIPSE
  5
1BF2B
330
1F
100
AcDbEntity
  8
AM_0
100
AcDbEllipse
 10
0.6880785406423229
 20
-54.68931293772576
 30
0.0
 11
2.042515776900248
 21
-15.58856777991124
 31
0.0
210
0.0
220
0.0
230
1.0
 40
0.0679165536603422
 41
5.15722118836743
 42
5.407599806490595
  0
LINE
  5
1BF2C
330
1F
100
AcDbEntity
  8
AM_0
100
AcDbLine
 10
0.0005391563458943
 20
-57.22593280409411
 30
0.0
 11
0.5090021295516181
 21
-55.92372228521889
 31
0.0
  0
LINE
  5
1BF2D
330
1F
100
AcDbEntity
  8
AM_0
100
AcDbLine
 10
0.4340753482595119
 20
-60.36441052826577
 30
0.0
 11
0.0000644728277166
 21
-57.22960456396253
 31
0.0
  0
LINE
  5
1BF2E
330
1F
100
AcDbEntity
  8
AM_0
100
AcDbLine
 10
0.6112961555578522
 20
-61.52239452462938
 30
0.0
 11
0.6112961555578522
 21
-60.36962032522713
 31
0.0
  0
ELLIPSE
  5
1BF2F
330
1F
100
AcDbEntity
  8
AM_0
100
AcDbEllipse
 10
1.120901631317224
 20
-57.28105490027676
 30
0.0
 11
2.047325779119584
 21
-15.74937345951549
 31
0.0
210
0.0
220
0.0
230
1.0
 40
0.0686180816121575
 41
4.900849373846865
 42
4.976126450462102
  0
ELLIPSE
  5
1BF30
330
1F
100
AcDbEntity
  8
AM_0
100
AcDbEllipse
 10
0.3995173027594774
 20
-57.20919300402156
 30
0.0
 11
-0.3995089558735677
 21
-0.01981398942191876
 31
0.0
210
0.0
220
0.0
230
0.9999999999999999
 40
0.1303379353271464
 41
6.224763057141982
 42
8.755490472533719
  0
LINE
  5
1BF31
330
1F
100
AcDbEntity
  8
AM_0
100
AcDbLine
 10
0.7144400278486955
 20
-57.2259599862697
 30
0.0
 11
0.6515777908937253
 21
-60.36330088146305
 31
0.0
  0
ELLIPSE
  5
1BF32
330
1F
100
AcDbEntity
  8
AM_0
100
AcDbEllipse
 10
0.5556948040439238
 20
-60.35819592011752
 30
0.0
 11
0.1216365441762416
 21
0.006032668765477005
 31
0.0
210
0.0
220
0.0
230
0.9999999999999999
 40
0.1303379353271463
 41
3.153094108461158
 42
5.613897818943787
  0
LINE
  5
1BF33
330
1F
100
AcDbEntity
  8
AM_0
100
AcDbLine
 10
0.6799049048260031
 20
-55.88678709312804
 30
0.0
 11
1.085293485247576
 21
-54.84855756315717
 31
0.0
  0
LINE
  5
1BF34
330
1F
100
AcDbEntity
  8
AM_0
100
AcDbLine
 10
24.99999999606166
 20
-49.78105490027677
 30
0.0
 11
40.0
 21
-49.78105490027677
 31
0.0
  0
LINE
  5
1BF35
330
1F
100
AcDbEntity
  8
AM_0
100
AcDbLine
 10
40.0
 20
-64.78105490027677
 30
0.0
 11
9.300244110440872
 21
-64.78105490027677
 31
0.0
  0
LINE
  5
1BF36
330
1F
100
AcDbEntity
  8
AM_0
100
AcDbLine
 10
5.360190342407122
 20
-64.78105490027674
 30
0.0
 11
5.360190342407122
 21
-59.34568423485128
 31
0.0
  0
LINE
  5
1BF37
330
1F
100
AcDbEntity
  8
AM_0
100
AcDbLine
 10
9.300244110440872
 20
-64.7810549002768
 30
0.0
 11
9.300244110440872
 21
-55.97304241490714
 31
0.0
  0
SPLINE
  5
1BF38
330
1F
100
AcDbEntity
  8
AM_0
100
AcDbSpline
210
0.0
220
0.0
230
1.0
 70
    24
 71
     3
 72
    20
 73
    16
 74
     0
 42
0.0000000001
 43
0.0000000001
 40
17.70191994753794
 40
17.70191994753794
 40
17.70191994753794
 40
17.70191994753794
 40
17.99086410092313
 40
17.99086410092313
 40
18.27980825430833
 40
18.27980825430833
 40
18.69758768362531
 40
18.69758768362531
 40
19.11536711294229
 40
19.11536711294229
 40
20.4628915631649
 40
20.4628915631649
 40
21.81041601338751
 40
21.81041601338751
 40
23.27042638332235
 40
23.27042638332235
 40
23.27042638332235
 40
23.27042638332235
 10
9.300244110440872
 20
-64.78105490027677
 30
0.0
 10
9.203929392645705
 20
-64.78105490027677
 30
0.0
 10
9.099236165940056
 20
-64.78105490027677
 30
0.0
 10
8.895139164631701
 20
-64.78105490027677
 30
0.0
 10
8.795646789991906
 20
-64.78105490027677
 30
0.0
 10
8.580422722991443
 20
-64.78105490027677
 30
0.0
 10
8.448269826738169
 20
-64.78105490027677
 30
0.0
 10
8.196055865949575
 20
-64.78105490027677
 30
0.0
 10
8.075732584795787
 20
-64.78105490027677
 30
0.0
 10
7.627308905152177
 20
-64.78105490027677
 30
0.0
 10
7.291767631391735
 20
-64.78105490027677
 30
0.0
 10
6.665482664129513
 20
-64.78105490027677
 30
0.0
 10
6.376175272070441
 20
-64.78105490027677
 30
0.0
 10
5.864108479593142
 20
-64.78105490027677
 30
0.0
 10
5.596023553657801
 20
-64.78105490027677
 30
0.0
 10
5.360190342407122
 20
-64.78105490027677
 30
0.0
  0
SPLINE
  5
1BF39
330
1F
100
AcDbEntity
  8
AM_0
100
AcDbSpline
210
0.0
220
0.0
230
1.0
 70
    28
 71
     2
 72
     6
 73
     3
 74
     0
 42
0.0000000001
 43
0.0000000001
 40
0.0
 40
0.0
 40
0.0
 40
0.1376386194655368
 40
0.1376386194655368
 40
0.1376386194655368
 10
5.360190342407122
 20
-64.78105490027677
 30
0.0
 41
1.0
 10
5.337102982924648
 20
-64.7810549002768
 30
0.0
 41
1.000755441159158
 10
5.313660650880365
 20
-64.7810549002768
 30
0.0
 41
1.001488001364236
  0
SPLINE
  5
1BF3A
330
1F
100
AcDbEntity
  8
AM_0
100
AcDbSpline
210
0.0
220
0.0
230
1.0
 70
     8
 71
     3
 72
    20
 73
    16
 74
     0
 42
0.0000000001
 43
0.0000000001
 40
1.414238701045486
 40
1.414238701045486
 40
1.414238701045486
 40
1.414238701045486
 40
1.528481548154048
 40
1.528481548154048
 40
1.746836055033198
 40
1.746836055033198
 40
1.929255422803863
 40
1.929255422803863
 40
2.111674790574527
 40
2.111674790574527
 40
2.32156257549766
 40
2.32156257549766
 40
2.531450360420793
 40
2.531450360420793
 40
2.915305059172433
 40
2.915305059172433
 40
2.915305059172433
 40
2.915305059172433
 10
4.723954987514389
 20
-64.78105490027686
 30
0.0
 10
4.74565142195604
 20
-64.75288201717838
 30
0.0
 10
4.767530008300355
 20
-64.72557228951361
 30
0.0
 10
4.831957004462765
 20
-64.64903362371136
 30
0.0
 10
4.875131371034058
 20
-64.60237249439852
 30
0.0
 10
4.957378382680417
 20
-64.52749057211356
 30
0.0
 10
4.998074899390872
 20
-64.496171240317
 30
0.0
 10
5.074609269510802
 20
-64.45405229840141
 30
0.0
 10
5.110391775298467
 20
-64.44344706102386
 30
0.0
 10
5.173534477661178
 20
-64.44164482852735
 30
0.0
 10
5.203947087821007
 20
-64.45320650338142
 30
0.0
 10
5.251851865965364
 20
-64.49651757659849
 30
0.0
 10
5.269542675719094
 20
-64.52789867088548
 30
0.0
 10
5.304130299234885
 20
-64.62151499852702
 30
0.0
 10
5.313329450832384
 20
-64.69708439713595
 30
0.0
 10
5.313660650880365
 20
-64.78105490027677
 30
0.0
  0
LINE
  5
1BF3B
330
1F
100
AcDbEntity
  8
AM_0
100
AcDbLine
 10
5.313660650880252
 20
-64.78105490027677
 30
0.0
 11
4.723954987514617
 21
-64.78105490027677
 31
0.0
  0
SPLINE
  5
1BF3C
330
1F
100
AcDbEntity
  8
AM_0
100
AcDbSpline
210
0.0
220
0.0
230
1.0
 70
     8
 71
     3
 72
    28
 73
    24
 74
     0
 42
0.0000000001
 43
0.0000000001
 40
3.499060948080014
 40
3.499060948080014
 40
3.499060948080014
 40
3.499060948080014
 40
3.547043097099354
 40
3.547043097099354
 40
4.121710759598292
 40
4.121710759598292
 40
4.636813032005478
 40
4.636813032005478
 40
5.151915304412662
 40
5.151915304412662
 40
5.667017576819847
 40
5.667017576819847
 40
6.182119849227032
 40
6.182119849227032
 40
6.697222121634219
 40
6.697222121634219
 40
7.212324394041406
 40
7.212324394041406
 40
7.727426666448594
 40
7.727426666448594
 40
8.242528938855781
 40
8.242528938855781
 40
8.466050755756717
 40
8.466050755756717
 40
8.466050755756717
 40
8.466050755756717
 10
22.38777051976649
 20
-51.27413298580962
 30
0.0
 10
22.3762541578576
 20
-51.28361987141622
 30
0.0
 10
22.36466255261075
 20
-51.29312396647894
 30
0.0
 10
22.21336783858374
 20
-51.41658629651434
 30
0.0
 10
22.06352693580766
 20
-51.53198372122765
 30
0.0
 10
21.7923240533728
 20
-51.73017676163994
 30
0.0
 10
21.65333862927923
 20
-51.82727159234614
 30
0.0
 10
21.35995128777086
 20
-52.02142014727291
 30
0.0
 10
21.20554533739278
 20
-52.11846050959984
 30
0.0
 10
20.88910077091305
 20
-52.30634142509334
 30
0.0
 10
20.72696560104794
 20
-52.39723191588038
 30
0.0
 10
20.40394913042883
 20
-52.56804029492342
 30
0.0
 10
20.24306860384854
 20
-52.64795939753375
 30
0.0
 10
19.93262863025393
 20
-52.79350876903328
 30
0.0
 10
19.7691771308032
 20
-52.86565230835463
 30
0.0
 10
19.43511676641174
 20
-53.0029135353461
 30
0.0
 10
19.26450770534757
 20
-53.06802973764391
 30
0.0
 10
18.92570008845542
 20
-53.18736294267478
 30
0.0
 10
18.75740460937959
 20
-53.24162071922852
 30
0.0
 10
18.43244043168897
 20
-53.33738545717776
 30
0.0
 10
18.27578085395783
 20
-53.37890339500237
 30
0.0
 10
18.0656649834857
 20
-53.42926651293685
 30
0.0
 10
18.00041471601548
 20
-53.44416236760301
 30
0.0
 10
17.93473228142284
 20
-53.45832898195366
 30
0.0
  0
LINE
  5
1BF3D
330
1F
100
AcDbEntity
  8
AM_0
100
AcDbLine
 10
25.93473228142284
 20
-55.25762429672689
 30
0.0
 11
17.34368231996473
 21
-55.25762429672689
 31
0.0
  0
SPLINE
  5
1BF3E
330
1F
100
AcDbEntity
  8
AM_0
100
AcDbSpline
210
0.0
220
0.0
230
1.0
 70
     8
 71
     3
 72
    28
 73
    24
 74
     0
 42
0.0000000001
 43
0.0000000001
 40
12.0883383160686
 40
12.0883383160686
 40
12.0883383160686
 40
12.0883383160686
 40
12.34496903075991
 40
12.34496903075991
 40
12.85745945850826
 40
12.85745945850826
 40
13.36994988625662
 40
13.36994988625662
 40
14.39493074175334
 40
14.39493074175334
 40
15.41468736498422
 40
15.41468736498422
 40
16.4344439882151
 40
16.4344439882151
 40
17.45420061144598
 40
17.45420061144598
 40
18.47395723467686
 40
18.47395723467686
 40
20.02795244138761
 40
20.02795244138761
 40
21.58194764809837
 40
21.58194764809837
 40
23.08260543702986
 40
23.08260543702986
 40
23.08260543702986
 40
23.08260543702986
 10
17.34368231996473
 20
-55.25762429671485
 30
0.0
 10
17.32950954451064
 20
-55.25019002878499
 30
0.0
 10
17.32216975591132
 20
-55.24091142455092
 30
0.0
 10
17.32216975591132
 20
-55.20745583167098
 30
0.0
 10
17.35184578871758
 20
-55.17813326068929
 30
0.0
 10
17.45919650469284
 20
-55.10808009180136
 30
0.0
 10
17.53653484225629
 20
-55.06735771207028
 30
0.0
 10
17.81234580769319
 20
-54.93312143708948
 30
0.0
 10
18.05367984833151
 20
-54.82675371113929
 30
0.0
 10
18.51741198396746
 20
-54.61605400246879
 30
0.0
 10
18.77228839982456
 20
-54.49802957134656
 30
0.0
 10
19.30533124453132
 20
-54.23732923370716
 30
0.0
 10
19.58361333378139
 20
-54.09462573703952
 30
0.0
 10
20.14460179064895
 20
-53.78867693295945
 30
0.0
 10
20.42735768334887
 20
-53.62541138876428
 30
0.0
 10
20.9806575280486
 20
-53.28614416568537
 30
0.0
 10
21.25122493550157
 20
-53.11013549511017
 30
0.0
 10
21.89978952949264
 20
-52.66459298497696
 30
0.0
 10
22.30577296203751
 20
-52.36288535518244
 30
0.0
 10
23.11581992914694
 20
-51.70140306477958
 30
0.0
 10
23.51986427051884
 20
-51.34158322085909
 30
0.0
 10
24.28616562334355
 20
-50.59147587618163
 30
0.0
 10
24.64967679624124
 20
-50.20235688991721
 30
0.0
 10
24.99059976818319
 20
-49.80263177116616
 30
0.0
  0
ELLIPSE
  5
1BF3F
330
1F
100
AcDbEntity
  8
AM_0
100
AcDbEllipse
 10
-37.34561116796999
 20
-57.28105490027674
 30
0.0
 11
-157.6107850036771
 21
-7.684044337084056
 31
0.0
210
0.0
220
0.0
230
1.0
 40
0.0064014739795058
 41
4.377479602146085
 42
4.430467986149638
  0
ELLIPSE
  5
1BF40
330
1F
100
AcDbEntity
  8
AM_0
100
AcDbEllipse
 10
-37.34561116796999
 20
-57.28105490027674
 30
0.0
 11
-157.6107850036771
 21
-7.684044337084056
 31
0.0
210
0.0
220
0.0
230
1.0
 40
0.0064014739795058
 41
1.870940403708821
 42
1.905081519213793
  0
LINE
  5
1BF41
330
1F
100
AcDbEntity
  8
AM_0
100
AcDbLine
 10
6.686065741085258
 20
-58.01305522628427
 30
0.0
 11
6.755102810755034
 21
-56.15138668808781
 31
0.0
  0
SPLINE
  5
1BF42
330
1F
100
AcDbEntity
  8
AM_0
100
AcDbSpline
210
0.0
220
0.0
230
1.0
 70
     8
 71
     3
 72
    15
 73
    11
 74
     0
 42
0.0000000001
 43
0.0000000001
 40
-2.345951551019864
 40
-2.345951551019864
 40
-2.345951551019864
 40
-2.345951551019864
 40
-1.756548558643658
 40
-1.756548558643658
 40
-0.878274279321829
 40
-0.878274279321829
 40
0.0
 40
0.0
 40
0.0
 40
0.5299338390698978
 40
0.5299338390698978
 40
0.5299338390698978
 40
0.5299338390698978
 10
7.120351284771687
 20
-56.15140059519345
 30
0.0
 10
7.185230319009975
 20
-56.34615098531855
 30
0.0
 10
7.244375231613162
 20
-56.54116781029202
 30
0.0
 10
7.373783889895549
 20
-57.02717082982537
 30
0.0
 10
7.435208402812805
 20
-57.31845194607709
 30
0.0
 10
7.518236706461721
 20
-57.90046734175888
 30
0.0
 10
7.539756776360036
 20
-58.19121038631374
 30
0.0
 10
7.539756776360036
 20
-58.48071574609553
 30
0.0
 10
7.539756776360036
 20
-58.65539772227606
 30
0.0
 10
7.531979559224055
 20
-58.82967048555236
 30
0.0
 10
7.516630005676575
 20
-59.00333746983986
 30
0.0
  0
LINE
  5
1BF43
330
1F
100
AcDbEntity
  8
AM_0
100
AcDbLine
 10
6.738924675434646
 20
-55.92395949300966
 30
0.0
 11
6.622149206677932
 21
-59.07295201626842
 31
0.0
  0
SPLINE
  5
1BF44
330
1F
100
AcDbEntity
  8
AM_0
100
AcDbSpline
210
0.0
220
0.0
230
1.0
 70
     8
 71
     3
 72
    10
 73
     6
 74
     0
 42
0.0000000001
 43
0.0000000001
 40
17.40999950824415
 40
17.40999950824415
 40
17.40999950824415
 40
17.40999950824415
 40
17.60204368922011
 40
17.60204368922011
 40
17.98134912579769
 40
17.98134912579769
 40
17.98134912579769
 40
17.98134912579769
 10
6.699285963997227
 20
-59.09523023778186
 30
0.0
 10
6.639879683400977
 20
-59.10283279808158
 30
0.0
 10
6.581024198011164
 20
-59.11058801061446
 30
0.0
 10
6.408355196469756
 20
-59.1340170122885
 30
0.0
 10
6.296905774350762
 20
-59.15004590939441
 30
0.0
 10
6.190426308583938
 20
-59.16625517150104
 30
0.0
  0
SPLINE
  5
1BF45
330
1F
100
AcDbEntity
  8
AM_0
100
AcDbSpline
210
0.0
220
0.0
230
1.0
 70
     8
 71
     3
 72
    10
 73
     6
 74
     0
 42
0.0000000001
 43
0.0000000001
 40
16.53912606431825
 40
16.53912606431825
 40
16.53912606431825
 40
16.53912606431825
 40
16.67704582135848
 40
16.67704582135848
 40
17.40999950824417
 40
17.40999950824417
 40
17.40999950824417
 40
17.40999950824417
 10
7.516630005676575
 20
-59.00333746983986
 30
0.0
 10
7.472600339207247
 20
-59.00766190243157
 30
0.0
 10
7.429304894690972
 20
-59.01200774330158
 30
0.0
 10
7.161134323596684
 20
-59.03948304532946
 30
0.0
 10
6.926015314326833
 20
-59.06621439063088
 30
0.0
 10
6.699285963997227
 20
-59.09523023778186
 30
0.0
  0
LINE
  5
1BF46
330
1F
100
AcDbEntity
  8
AM_0
100
AcDbLine
 10
7.516630005676575
 20
-59.00333746983985
 30
0.0
 11
6.735178162872899
 21
-59.00330771562317
 31
0.0
  0
LINE
  5
1BF47
330
1F
100
AcDbEntity
  8
AM_0
100
AcDbLine
 10
6.735178162872899
 20
-59.00330771562317
 30
0.0
 11
6.686065741085258
 21
-58.01305522628427
 31
0.0
  0
LINE
  5
1BF48
330
1F
100
AcDbEntity
  8
AM_0
100
AcDbLine
 10
6.622149206677932
 20
-59.07295201626842
 30
0.0
 11
6.725504223605185
 21
-58.80825232855544
 31
0.0
  0
SPLINE
  5
1BF49
330
1F
100
AcDbEntity
  8
AM_0
100
AcDbSpline
210
0.0
220
0.0
230
1.0
 70
     8
 71
     3
 72
    12
 73
     8
 74
     0
 42
0.0000000001
 43
0.0000000001
 40
14.97305150390918
 40
14.97305150390918
 40
14.97305150390918
 40
14.97305150390918
 40
15.89254717674549
 40
15.89254717674549
 40
16.81204284958179
 40
16.81204284958179
 40
17.12467724547305
 40
17.12467724547305
 40
17.12467724547305
 40
17.12467724547305
 10
9.300244110440872
 20
-55.97304241490716
 30
0.0
 10
8.99415085391388
 20
-55.98857340605804
 30
0.0
 10
8.660529240820551
 20
-56.0095922643294
 30
0.0
 10
8.008638096161121
 20
-56.0600995575596
 30
0.0
 10
7.690346225071608
 20
-56.08957580440517
 30
0.0
 10
7.314534998011027
 20
-56.12938217897589
 30
0.0
 10
7.217558454605182
 20
-56.14011708983209
 30
0.0
 10
7.120351284771687
 20
-56.15140059519345
 30
0.0
  0
LINE
  5
1BF4A
330
1F
100
AcDbEntity
  8
AM_0
100
AcDbLine
 10
8.033527362547943
 20
-54.84204160413817
 30
0.0
 11
7.124929619038539
 21
-55.20423343347373
 31
0.0
  0
ELLIPSE
  5
1BF4B
330
1F
100
AcDbEntity
  8
AM_0
100
AcDbEllipse
 10
7.097845042369954
 20
-54.84200597981906
 30
0.0
 11
-0.9987723896798797
 21
-0.04953497363532187
 31
0.0
210
0.0
220
0.0
230
0.9999999999999999
 40
0.130337935326633
 41
2.777737784442633
 42
4.558465721400683
  0
LINE
  5
1BF4C
330
1F
100
AcDbEntity
  8
AM_0
100
AcDbLine
 10
7.22697624247985
 20
-55.16355486753433
 30
0.0
 11
7.247921736196076
 21
-54.61927497633842
 31
0.0
  0
LINE
  5
1BF4D
330
1F
100
AcDbEntity
  8
AM_0
100
AcDbLine
 10
6.755102810755034
 20
-56.15138668808781
 30
0.0
 11
7.120351285008383
 21
-56.15140059509913
 31
0.0
  0
LINE
  5
1BF4E
330
1F
100
AcDbEntity
  8
AM_0
100
AcDbLine
 10
6.755102810755034
 20
-56.15138668808781
 30
0.0
 11
7.124929619038539
 21
-55.20423343347373
 31
0.0
  0
LINE
  5
1BF4F
330
1F
100
AcDbEntity
  8
AM_0
100
AcDbLine
 10
7.247387648640256
 20
-54.62174897413446
 30
0.0
 11
6.738924675434646
 21
-55.92395949300969
 31
0.0
  0
LINE
  5
1BF50
330
1F
100
AcDbEntity
  8
AM_0
100
AcDbLine
 10
7.247387648640142
 20
-54.62174897413446
 30
0.0
 11
7.226583682665705
 21
-55.16371135257764
 31
0.0
  0
ELLIPSE
  5
1BF51
330
1F
100
AcDbEntity
  8
AM_0
100
AcDbEllipse
 10
6.848409502226787
 20
-54.63848877420702
 30
0.0
 11
-0.3995089558735677
 21
-0.01981398942191876
 31
0.0
210
0.0
220
0.0
230
0.9999999999999999
 40
0.1303379353271464
 41
3.083170403552113
 42
5.61389781894397
  0
SPLINE
  5
1BF52
330
1F
100
AcDbEntity
  8
AM_0
100
AcDbSpline
210
0.0
220
0.0
230
1.0
 70
     8
 71
     3
 72
    14
 73
    10
 74
     0
 42
0.0000000001
 43
0.0000000001
 40
1.180144286913546
 40
1.180144286913546
 40
1.180144286913546
 40
1.180144286913546
 40
1.554368819958706
 40
1.554368819958706
 40
3.108737639917412
 40
3.108737639917412
 40
4.663106459876119
 40
4.663106459876119
 40
4.877711634036128
 40
4.877711634036128
 40
4.877711634036128
 40
4.877711634036128
 10
17.93473228142284
 20
-53.45832898195366
 30
0.0
 10
17.82671851979126
 20
-53.48162576312646
 30
0.0
 10
17.71820198744297
 20
-53.50368466240937
 30
0.0
 10
17.15750587893081
 20
-53.6107590255119
 30
0.0
 10
16.70074658773365
 20
-53.67449134189528
 30
0.0
 10
15.80945297378048
 20
-53.75766324772255
 30
0.0
 10
15.37281633886482
 20
-53.77737929844896
 30
0.0
 10
14.89651259947277
 20
-53.78100812195348
 30
0.0
 10
14.8391402415632
 20
-53.78114289636913
 30
0.0
 10
14.78207179227002
 20
-53.78100047146205
 30
0.0
  0
SPLINE
  5
1BF53
330
1F
100
AcDbEntity
  8
AM_0
100
AcDbSpline
210
0.0
220
0.0
230
1.0
 70
     8
 71
     3
 72
    12
 73
     8
 74
     0
 42
0.0000000001
 43
0.0000000001
 40
12.36835880838692
 40
12.36835880838692
 40
12.36835880838692
 40
12.36835880838692
 40
12.48135518559694
 40
12.48135518559694
 40
14.18203618535209
 40
14.18203618535209
 40
15.15808467973156
 40
15.15808467973156
 40
15.15808467973156
 40
15.15808467973156
 10
17.34368231996473
 20
-55.25762429671485
 30
0.0
 10
17.30443360716697
 20
-55.26797738377377
 30
0.0
 10
17.26513066423877
 20
-55.27816488210524
 30
0.0
 10
16.63349946621679
 20
-55.43900314034167
 30
0.0
 10
16.02951859301061
 20
-55.5515698634419
 30
0.0
 10
15.08859845762913
 20
-55.66678107059892
 30
0.0
 10
14.7475346056392
 20
-55.69595165686539
 30
0.0
 10
14.41201032438039
 20
-55.71305741469908
 30
0.0
  0
SPLINE
  5
1BF55
330
1F
100
AcDbEntity
  8
AM_0
100
AcDbSpline
210
0.0
220
0.0
230
1.0
 70
     8
 71
     3
 72
     8
 73
     4
 74
     0
 42
0.0000000001
 43
0.0000000001
 40
16.12661388386459
 40
16.12661388386459
 40
16.12661388386459
 40
16.12661388386459
 40
16.48341663962438
 40
16.48341663962438
 40
16.48341663962438
 40
16.48341663962438
 10
14.41201032438016
 20
-53.80255100632331
 30
0.0
 10
14.53467821021195
 20
-53.79684444726466
 30
0.0
 10
14.65808961336234
 20
-53.78967449006217
 30
0.0
 10
14.78207179227002
 20
-53.78100047146205
 30
0.0
  0
LINE
  5
1BF56
330
1F
100
AcDbEntity
  8
AM_0
100
AcDbLine
 10
14.78207179227002
 20
-53.78100047180077
 30
0.0
 11
14.86880702380506
 21
-53.78100047180077
 31
0.0
  0
SPLINE
  5
1BF57
330
1F
100
AcDbEntity
  8
AM_0
100
AcDbSpline
210
0.0
220
0.0
230
1.0
 70
     8
 71
     3
 72
    16
 73
    12
 74
     0
 42
0.0000000001
 43
0.0000000001
 40
24.4235526392746
 40
24.4235526392746
 40
24.4235526392746
 40
24.4235526392746
 40
24.57005533996063
 40
24.57005533996063
 40
25.36536592668921
 40
25.36536592668921
 40
26.72503790595727
 40
26.72503790595727
 40
28.08470988522532
 40
28.08470988522532
 40
28.26441674473461
 40
28.26441674473461
 40
28.26441674473461
 40
28.26441674473461
 10
22.38777051976649
 20
-51.27413298580962
 30
0.0
 10
22.42525012307033
 20
-51.2509092290276
 30
0.0
 10
22.4623076867299
 20
-51.22776764080891
 30
0.0
 10
22.69764994675029
 20
-51.07971717864587
 30
0.0
 10
22.88301469484009
 20
-50.95803625395203
 30
0.0
 10
23.34008449129306
 20
-50.64942222454195
 30
0.0
 10
23.61185307651715
 20
-50.45537687994592
 30
0.0
 10
24.09196124032064
 20
-50.10523370431562
 30
0.0
 10
24.30046812017417
 20
-49.94942924043727
 30
0.0
 10
24.49334098066697
 20
-49.81149792420489
 30
0.0
 10
24.51520934365669
 20
-49.79597445521874
 30
0.0
 10
24.5364231870999
 20
-49.78105490027677
 30
0.0
  0
SPLINE
  5
1BF59
330
1F
100
AcDbEntity
  8
AM_0
100
AcDbSpline
210
0.0
220
0.0
230
1.0
 70
     8
 71
     3
 72
    38
 73
    34
 74
     0
 42
0.0000000001
 43
0.0000000001
 40
0.9436332430643031
 40
0.9436332430643031
 40
0.9436332430643031
 40
0.9436332430643031
 40
2.149834853568791
 40
2.149834853568791
 40
3.356036464073279
 40
3.356036464073279
 40
4.562238074577767
 40
4.562238074577767
 40
5.768439685082255
 40
5.768439685082255
 40
6.249049964474819
 40
6.249049964474819
 40
6.729660243867384
 40
6.729660243867384
 40
7.210270523259949
 40
7.210270523259949
 40
7.690880802652512
 40
7.690880802652512
 40
8.171491082045076
 40
8.171491082045076
 40
8.652101361437641
 40
8.652101361437641
 40
9.132711640830205
 40
9.132711640830205
 40
9.61332192022277
 40
9.61332192022277
 40
10.81952353072726
 40
10.81952353072726
 40
12.02572514123175
 40
12.02572514123175
 40
13.23192675173624
 40
13.23192675173624
 40
14.43812836224073
 40
14.43812836224073
 40
14.43812836224073
 40
14.43812836224073
 10
25.93473228142284
 20
-49.80263177116616
 30
0.0
 10
26.33679948492431
 20
-49.80263177116616
 30
0.0
 10
26.75052036366503
 20
-49.81370615584984
 30
0.0
 10
27.56328062942123
 20
-49.86449374202286
 30
0.0
 10
27.96233701188339
 20
-49.90425189711846
 30
0.0
 10
28.71081330090783
 20
-50.02459654343555
 30
0.0
 10
29.06077049331225
 20
-50.10539375559074
 30
0.0
 10
29.68213458657328
 20
-50.32351459548511
 30
0.0
 10
29.95370404505775
 20
-50.46088055871748
 30
0.0
 10
30.26029733309269
 20
-50.7032448248614
 30
0.0
 10
30.34300511109791
 20
-50.78109916047106
 30
0.0
 10
30.48933253977657
 20
-50.95315199934404
 30
0.0
 10
30.55294114949493
 20
-51.04737912169554
 30
0.0
 10
30.65509432324302
 20
-51.24866463637507
 30
0.0
 10
30.6936892460667
 20
-51.35585804374375
 30
0.0
 10
30.74415490198089
 20
-51.57720356339269
 30
0.0
 10
30.7560224561098
 20
-51.69135999722022
 30
0.0
 10
30.7560224561098
 20
-51.9180764077141
 30
0.0
 10
30.74415490198089
 20
-52.03940614429348
 30
0.0
 10
30.6936892460667
 20
-52.29089013475769
 30
0.0
 10
30.65509432324302
 20
-52.42104122498506
 30
0.0
 10
30.55294114949493
 20
-52.68186825492188
 30
0.0
 10
30.48933253977657
 20
-52.81268368415589
 30
0.0
 10
30.34300511109791
 20
-53.06659428780029
 30
0.0
 10
30.26029733309269
 20
-53.1896764583521
 30
0.0
 10
29.95370404505775
 20
-53.59424488176813
 30
0.0
 10
29.68213458657328
 20
-53.86627480667897
 30
0.0
 10
29.06077049331225
 20
-54.35096316193095
 30
0.0
 10
28.71081330090783
 20
-54.56339402070798
 30
0.0
 10
27.96233701188339
 20
-54.90814768406975
 30
0.0
 10
27.56328062942123
 20
-55.04053540978195
 30
0.0
 10
26.75052036366503
 20
-55.21531975754009
 30
0.0
 10
26.33679948492431
 20
-55.2576242967269
 30
0.0
 10
25.93473228142284
 20
-55.2576242967269
 30
0.0
  0
LINE
  5
1BF5A
330
1F
100
AcDbEntity
  8
AM_0
100
AcDbLine
 10
24.5364231870999
 20
-49.78105490027677
 30
0.0
 11
24.99999999606166
 21
-49.78105490027677
 31
0.0
  0
SPLINE
  5
1BF5B
330
1F
100
AcDbEntity
  8
AM_0
100
AcDbSpline
210
0.0
220
0.0
230
1.0
 70
     8
 71
     3
 72
     8
 73
     4
 74
     0
 42
0.0000000001
 43
0.0000000001
 40
0.9902161508302089
 40
0.9902161508302089
 40
0.9902161508302089
 40
0.9902161508302089
 40
1.072739846063068
 40
1.072739846063068
 40
1.072739846063068
 40
1.072739846063068
 10
24.99999999606166
 20
-49.78105490027677
 30
0.0
 10
24.99700066649257
 20
-49.78809932319587
 30
0.0
 10
24.99386742254364
 20
-49.7952918822071
 30
0.0
 10
24.99059976818319
 20
-49.80263177116616
 30
0.0
  0
LINE
  5
1BF5C
330
1F
100
AcDbEntity
  8
AM_0
100
AcDbLine
 10
24.99059976818319
 20
-49.80263177116616
 30
0.0
 11
25.93473228142284
 21
-49.80263177116616
 31
0.0
  0
LINE
  5
1BF5D
330
1F
100
AcDbEntity
  8
AM_0
100
AcDbLine
 10
40.25
 20
-64.7810549002768
 30
0.0
 11
40.25
 21
-49.78105490027677
 31
0.0
  0
LINE
  5
1BF5E
330
1F
100
AcDbEntity
  8
AM_0
100
AcDbLine
 10
40.0
 20
-64.7810549002768
 30
0.0
 11
40.0
 21
-49.78105490027677
 31
0.0
  0
SPLINE
  5
1BF5F
330
1F
100
AcDbEntity
  8
AM_0
100
AcDbSpline
210
0.0
220
0.0
230
1.0
 70
    28
 71
     2
 72
     6
 73
     3
 74
     0
 42
0.0000000001
 43
0.0000000001
 40
0.0
 40
0.0
 40
0.0
 40
0.8683077351808815
 40
0.8683077351808815
 40
0.8683077351808815
 10
40.25
 20
-64.78105490027677
 30
0.0
 41
1.0
 10
40.10306055405067
 20
-64.78105490027674
 30
0.0
 41
1.001395898062751
 10
40.0
 20
-64.78105490027677
 30
0.0
 41
1.0
  0
SPLINE
  5
1BF60
330
1F
100
AcDbEntity
  8
AM_0
100
AcDbSpline
210
0.0
220
0.0
230
1.0
 70
    28
 71
     2
 72
     6
 73
     3
 74
     0
 42
0.0000000001
 43
0.0000000001
 40
0.0
 40
0.0
 40
0.0
 40
0.8683077351808815
 40
0.8683077351808815
 40
0.8683077351808815
 10
40.0
 20
-49.78105490027677
 30
0.0
 41
1.0
 10
40.10306055405067
 20
-49.78105490027677
 30
0.0
 41
1.001395898062751
 10
40.25
 20
-49.78105490027677
 30
0.0
 41
1.0
  0
LINE
  5
1BF63
330
1F
100
AcDbEntity
  8
AM_0
100
AcDbLine
 10
6.45466982693938
 20
23.60001087625591
 30
0.0
 11
1.085293485247576
 21
20.49999999999974
 31
0.0
  0
LINE
  5
1BF64
330
1F
100
AcDbEntity
  8
AM_0
100
AcDbLine
 10
6.738924675434646
 20
7.77250670752403
 30
0.0
 11
0.7144400278486955
 21
0.1505339026614649
 31
0.0
  0
LINE
  5
1BF65
330
1F
100
AcDbEntity
  8
AM_0
100
AcDbLine
 10
0.5090021295516181
 20
10.1217957200754
 30
0.0
 11
6.533486777137568
 21
17.74376852493805
 31
0.0
  0
LINE
  5
1BF68
330
1F
100
AcDbEntity
  8
AM_0
100
AcDbLine
 10
-48.09466898602125
 20
18.45256241897662
 30
0.0
 11
-48.09466898602125
 21
14.54743758102311
 31
0.0
  0
LINE
  5
1BF69
330
1F
100
AcDbEntity
  8
AM_0
100
AcDbLine
 10
-63.09466898602125
 20
18.45256241897648
 30
0.0
 11
-63.09466898602125
 21
3.489129724225833
 31
0.0
  0
LINE
  5
1BF6A
330
1F
100
AcDbEntity
  8
AM_0
100
AcDbLine
 10
-53.51777626611556
 20
16.22762707916593
 30
0.0
 11
-53.15558443677401
 21
18.63704014948502
 31
0.0
  0
LINE
  5
1BF6B
330
1F
100
AcDbEntity
  8
AM_0
100
AcDbLine
 10
-54.46476552744366
 20
10.79509230673158
 30
0.0
 11
-53.16217164890168
 21
20.49999999999952
 31
0.0
  0
LINE
  5
1BF6C
330
1F
100
AcDbEntity
  8
AM_0
100
AcDbLine
 10
-52.93536305987891
 20
17.47454991422823
 30
0.0
 11
-54.23757357875411
 21
7.772498421841576
 31
0.0
  0
LINE
  5
1BF6D
330
1F
100
AcDbEntity
  8
AM_0
100
AcDbLine
 10
-54.23733637096348
 20
10.12178743439291
 30
0.0
 11
-52.93533587770344
 21
17.74376023925556
 31
0.0
  0
LINE
  5
1BF6E
330
1F
100
AcDbEntity
  8
AM_0
100
AcDbLine
 10
0.5766808249018141
 20
10.79509230673176
 30
0.0
 11
1.085293485247576
 21
20.49999999999972
 31
0.0
  0
ELLIPSE
  5
1BF6F
330
1F
100
AcDbEntity
  8
AM_0
100
AcDbEllipse
 10
-53.00292702347019
 20
15.10223574063395
 30
0.0
 11
-13.77598127380677
 21
7.429587721483367
 31
0.0
210
0.0
220
0.0
230
1.0
 40
0.9821432094642142
 41
1.353798840040048
 42
1.604177458163212
  0
LINE
  5
1BF70
330
1F
100
AcDbEntity
  8
AM_0
100
AcDbLine
 10
-58.66234043967961
 20
0.9266296052649778
 30
0.0
 11
-57.31670211106348
 21
10.95223772709092
 31
0.0
  0
LINE
  5
1BF71
330
1F
100
AcDbEntity
  8
AM_0
100
AcDbLine
 10
-54.23757357875411
 20
7.772498421841547
 30
0.0
 11
-55.53957407201415
 21
0.1505256169789817
 31
0.0
  0
LINE
  5
1BF72
330
1F
100
AcDbEntity
  8
AM_0
100
AcDbLine
 10
-55.53954688983868
 20
0.4197359420062838
 30
0.0
 11
-54.23733637096348
 21
10.12178743439291
 31
0.0
  0
LINE
  5
1BF73
330
1F
100
AcDbEntity
  8
AM_0
100
AcDbLine
 10
-57.38634967989663
 20
10.43333215126826
 30
0.0
 11
-58.67690669118315
 21
0.8181045088307002
 31
0.0
  0
ARC
  5
1BF74
330
1F
100
AcDbEntity
  8
AM_0
100
AcDbCircle
 10
-55.59466898602125
 20
16.49999999999981
 30
0.0
 40
15.75
100
AcDbArc
 50
254.3778943357905
 51
258.8291610405093
  0
LINE
  5
1BF75
330
1F
100
AcDbEntity
  8
AM_0
100
AcDbLine
 10
-58.68772789025468
 20
0.6903140278826498
 30
0.0
 11
-55.57508856007985
 21
0.0000146981984841
 31
0.0
  0
ELLIPSE
  5
1BF76
330
1F
100
AcDbEntity
  8
AM_0
100
AcDbEllipse
 10
-55.52280708976605
 20
0.3965795653900699
 30
0.0
 11
0.05219816390505563
 21
0.3965795653900249
 31
0.0
210
0.0
220
0.0
230
1.0
 40
0.0491124217875818
 41
1.518838208446096
 42
4.049565623837832
  0
ELLIPSE
  5
1BF77
330
1F
100
AcDbEntity
  8
AM_0
100
AcDbEllipse
 10
-58.67181000586197
 20
0.8110541997303784
 30
0.0
 11
0.01589252049650003
 21
0.120744646936587
 31
0.0
210
0.0
220
0.0
230
1.0
 40
0.0491124217875818
 41
1.518838208446082
 42
3.137290668801088
  0
LINE
  5
1BF78
330
1F
100
AcDbEntity
  8
AM_0
100
AcDbLine
 10
-57.31670211106348
 20
11.07724601277324
 30
0.0
 11
-54.46476552744366
 21
10.79509230673158
 31
0.0
  0
LINE
  5
1BF79
330
1F
100
AcDbEntity
  8
AM_0
100
AcDbLine
 10
-54.48579325664252
 20
10.56071844025807
 30
0.0
 11
-56.32645758656804
 21
10.74301653588286
 31
0.0
  0
LINE
  5
1BF7A
330
1F
100
AcDbEntity
  8
AM_0
100
AcDbLine
 10
-54.23733637096348
 20
10.12178743439294
 30
0.0
 11
-57.38634967989651
 21
10.43333215126826
 31
0.0
  0
LINE
  5
1BF7B
330
1F
100
AcDbEntity
  8
AM_0
100
AcDbLine
 10
-57.31130570601636
 20
10.87264314311859
 30
0.0
 11
-57.38634967989663
 21
10.43333215126823
 31
0.0
  0
LINE
  5
1BF7C
330
1F
100
AcDbEntity
  8
AM_0
100
AcDbLine
 10
-57.31670211106348
 20
10.95223772709092
 30
0.0
 11
-57.31670211106348
 21
11.07724601277322
 31
0.0
  0
LINE
  5
1BF7D
330
1F
100
AcDbEntity
  8
AM_0
100
AcDbLine
 10
-56.32645758656804
 20
10.74301653588289
 30
0.0
 11
-57.31130570601647
 21
10.87264314311865
 31
0.0
  0
ARC
  5
1BF7E
330
1F
100
AcDbEntity
  8
AM_0
100
AcDbCircle
 10
-55.59466898602125
 20
16.49999999999981
 30
0.0
 40
8.0
100
AcDbArc
 50
280.6108624314645
 51
339.635865193682
  0
SPLINE
  5
1BF7F
330
1F
100
AcDbEntity
  8
AM_0
100
AcDbSpline
210
0.0
220
0.0
230
1.0
 70
     8
 71
     3
 72
    28
 73
    24
 74
     0
 42
0.0000000001
 43
0.0000000001
 40
12.0883383160686
 40
12.0883383160686
 40
12.0883383160686
 40
12.0883383160686
 40
12.34496903075991
 40
12.34496903075991
 40
12.85745945850826
 40
12.85745945850826
 40
13.36994988625662
 40
13.36994988625662
 40
14.39493074175334
 40
14.39493074175334
 40
15.41468736498422
 40
15.41468736498422
 40
16.4344439882151
 40
16.4344439882151
 40
17.45420061144598
 40
17.45420061144598
 40
18.47395723467686
 40
18.47395723467686
 40
20.02795244138761
 40
20.02795244138761
 40
21.58194764809837
 40
21.58194764809837
 40
23.08260543702986
 40
23.08260543702986
 40
23.08260543702986
 40
23.08260543702986
 10
-53.57123838245934
 20
9.018808344086423
 30
0.0
 10
-53.56380411452949
 20
9.102683283615775
 30
0.0
 10
-53.55452551029543
 20
9.187234590696434
 30
0.0
 10
-53.5210699174155
 20
9.441416031030585
 30
0.0
 10
-53.49174734643384
 20
9.607760050432901
 30
0.0
 10
-53.42169417754576
 20
9.928785511573508
 30
0.0
 10
-53.38097179781471
 20
10.08358112211651
 30
0.0
 10
-53.24673552283389
 20
10.52602145213173
 30
0.0
 10
-53.14036779688377
 20
10.79296646457071
 30
0.0
 10
-52.92966808821325
 20
11.24585529189231
 30
0.0
 10
-52.81164365709105
 20
11.46289008986589
 30
0.0
 10
-52.55094331945156
 20
11.87961256084422
 30
0.0
 10
-52.40823982278403
 20
12.07913500380973
 30
0.0
 10
-52.10229101870391
 20
12.45648412982443
 30
0.0
 10
-51.93902547450875
 20
12.63423358784989
 30
0.0
 10
-51.59975825142988
 20
12.96289132087237
 30
0.0
 10
-51.42374958085475
 20
13.11375288878186
 30
0.0
 10
-50.97820707072151
 20
13.45562697767296
 30
0.0
 10
-50.67649944092693
 20
13.65054981571641
 30
0.0
 10
-50.01501715052405
 20
13.99183934503598
 30
0.0
 10
-49.65519730660367
 20
14.13816401446227
 30
0.0
 10
-48.90508996192614
 20
14.35679330419368
 30
0.0
 10
-48.51597097566173
 20
14.43148108452358
 30
0.0
 10
-48.11624585691061
 20
14.46636101975197
 30
0.0
  0
SPLINE
  5
1BF80
330
1F
100
AcDbEntity
  8
AM_0
100
AcDbSpline
210
0.0
220
0.0
230
1.0
 70
     8
 71
     3
 72
    38
 73
    34
 74
     0
 42
0.0000000001
 43
0.0000000001
 40
0.9436332430643031
 40
0.9436332430643031
 40
0.9436332430643031
 40
0.9436332430643031
 40
2.149834853568791
 40
2.149834853568791
 40
3.356036464073279
 40
3.356036464073279
 40
4.562238074577767
 40
4.562238074577767
 40
5.768439685082255
 40
5.768439685082255
 40
6.249049964474819
 40
6.249049964474819
 40
6.729660243867384
 40
6.729660243867384
 40
7.210270523259949
 40
7.210270523259949
 40
7.690880802652512
 40
7.690880802652512
 40
8.171491082045076
 40
8.171491082045076
 40
8.652101361437641
 40
8.652101361437641
 40
9.132711640830205
 40
9.132711640830205
 40
9.61332192022277
 40
9.61332192022277
 40
10.81952353072726
 40
10.81952353072726
 40
12.02572514123175
 40
12.02572514123175
 40
13.23192675173624
 40
13.23192675173624
 40
14.43812836224073
 40
14.43812836224073
 40
14.43812836224073
 40
14.43812836224073
 10
-48.11624585691061
 20
14.46636101975197
 30
0.0
 10
-48.11624585691061
 20
14.46636101975197
 30
0.0
 10
-48.12732024159436
 20
14.42407155539761
 30
0.0
 10
-48.17810782776735
 20
14.24935635935029
 30
0.0
 10
-48.21786598286303
 20
14.11702277195455
 30
0.0
 10
-48.33821062918003
 20
13.77243303292708
 30
0.0
 10
-48.41900784133532
 20
13.56011224769772
 30
0.0
 10
-48.63712868122957
 20
13.07572113062382
 30
0.0
 10
-48.77449464446204
 20
12.80387842833447
 30
0.0
 10
-49.01685891060583
 20
12.39964040494921
 30
0.0
 10
-49.09471324621563
 20
12.27666437474356
 30
0.0
 10
-49.26676608508853
 20
12.02298835096683
 30
0.0
 10
-49.36099320744006
 20
11.89230140032554
 30
0.0
 10
-49.56227872211957
 20
11.63174884033761
 30
0.0
 10
-49.66947212948821
 20
11.50174392560398
 30
0.0
 10
-49.89081764913726
 20
11.25056179152487
 30
0.0
 10
-50.00497408296474
 20
11.12938774173777
 30
0.0
 10
-50.23169049345859
 20
10.9029805408447
 30
0.0
 10
-50.35302023003806
 20
10.78898959055651
 30
0.0
 10
-50.60450422050212
 20
10.56798708810597
 30
0.0
 10
-50.73465531072952
 20
10.46097121007456
 30
0.0
 10
-50.9954823406664
 20
10.26004148258163
 30
0.0
 10
-51.12629776990036
 20
10.16599280832786
 30
0.0
 10
-51.38020837354475
 20
9.994286344383212
 30
0.0
 10
-51.50329054409667
 20
9.916599917829998
 30
0.0
 10
-51.90785896751254
 20
9.67478757772183
 30
0.0
 10
-52.17988889242338
 20
9.537792750827791
 30
0.0
 10
-52.66457724767543
 20
9.320333206591485
 30
0.0
 10
-52.87700810645242
 20
9.239825843128742
 30
0.0
 10
-53.22176176981429
 20
9.119951601780414
 30
0.0
 10
-53.35414949552637
 20
9.080374091368739
 30
0.0
 10
-53.52893384328456
 20
9.029825002179123
 30
0.0
 10
-53.57123838247139
 20
9.018808344079091
 30
0.0
 10
-53.57123838247139
 20
9.018808344079091
 30
0.0
  0
ARC
  5
1BF81
330
1F
100
AcDbEntity
  8
AM_0
100
AcDbCircle
 10
-55.59466898602125
 20
16.49999999999981
 30
0.0
 40
7.750000000000001
100
AcDbArc
 50
281.2216033698161
 51
281.6727912060685
  0
SPLINE
  5
1BF82
330
1F
100
AcDbEntity
  8
AM_0
100
AcDbSpline
210
0.0
220
0.0
230
1.0
 70
     8
 71
     3
 72
    12
 73
     8
 74
     0
 42
0.0000000001
 43
0.0000000001
 40
12.36835880838692
 40
12.36835880838692
 40
12.36835880838692
 40
12.36835880838692
 40
12.48135518559694
 40
12.48135518559694
 40
14.18203618535209
 40
14.18203618535209
 40
15.15808467973156
 40
15.15808467973156
 40
15.15808467973156
 40
15.15808467973156
 10
-53.57123838245934
 20
9.018808344086423
 30
0.0
 10
-53.58159146951834
 20
9.016008154736923
 30
0.0
 10
-53.59177896784968
 20
9.013275789050979
 30
0.0
 10
-53.75261722608616
 20
8.970478297512145
 30
0.0
 10
-53.8651839491863
 20
8.945068084308545
 30
0.0
 10
-53.98039515634332
 20
8.919863498620302
 30
0.0
 10
-54.00956574260988
 20
8.913811707875723
 30
0.0
 10
-54.02667150044363
 20
8.910277746503184
 30
0.0
  0
ELLIPSE
  5
1BF83
330
1F
100
AcDbEntity
  8
AM_0
100
AcDbEllipse
 10
-54.23745497485879
 20
8.947142928117259
 30
0.0
 11
0.1631192622032989
 21
1.239311141843828
 31
0.0
210
0.0
220
0.0
230
1.0
 40
0.0491124217875818
 41
1.213661373587287
 42
7.496846680766873
  0
LINE
  5
1BF84
330
1F
100
AcDbEntity
  8
AM_0
100
AcDbLine
 10
-53.51777626611556
 20
16.22762707916593
 30
0.0
 11
-54.48577603333865
 21
10.56091041021752
 31
0.0
  0
LINE
  5
1BF85
330
1F
100
AcDbEntity
  8
AM_0
100
AcDbLine
 10
-54.46476552744366
 20
10.79509230673158
 30
0.0
 11
-54.48577603333865
 21
10.56091041021752
 31
0.0
  0
SPLINE
  5
1BF86
330
1F
100
AcDbEntity
  8
AM_0
100
AcDbSpline
210
0.0
220
0.0
230
1.0
 70
    28
 71
     2
 72
     6
 73
     3
 74
     0
 42
0.0000000001
 43
0.0000000001
 40
0.0
 40
0.0
 40
0.0
 40
0.8683077351808815
 40
0.8683077351808815
 40
0.8683077351808815
 10
-48.09466898602125
 20
14.54743758102314
 30
0.0
 41
1.0
 10
-48.09466898602124
 20
14.13837547569634
 30
0.0
 41
1.001395898062751
 10
-48.09466898602125
 20
13.7161178185848
 30
0.0
 41
1.0
  0
SPLINE
  5
1BF87
330
1F
100
AcDbEntity
  8
AM_0
100
AcDbSpline
210
0.0
220
0.0
230
1.0
 70
     8
 71
     3
 72
     8
 73
     4
 74
     0
 42
0.0000000001
 43
0.0000000001
 40
0.9902161508302089
 40
0.9902161508302089
 40
0.9902161508302089
 40
0.9902161508302089
 40
1.072739846063068
 40
1.072739846063068
 40
1.072739846063068
 40
1.072739846063068
 10
-48.09466898602125
 20
14.54743758102314
 30
0.0
 10
-48.10171340894044
 20
14.52037920307851
 30
0.0
 10
-48.10890596795161
 20
14.4933524355783
 30
0.0
 10
-48.11624585691061
 20
14.46636101975197
 30
0.0
  0
LINE
  5
1BF88
330
1F
100
AcDbEntity
  8
AM_0
100
AcDbLine
 10
0.0005391563458943
 20
0.4197442276887671
 30
0.0
 11
0.5090021295516181
 21
10.1217957200754
 31
0.0
  0
ELLIPSE
  5
1BF89
330
1F
100
AcDbEntity
  8
AM_0
100
AcDbEllipse
 10
0.3995173027594774
 20
0.3965878510725531
 30
0.0
 11
-0.3743086651870545
 21
0.1410426288959678
 31
0.0
210
0.0
220
0.0
230
1.0
 40
0.9902524893383581
 41
0.3051768348587876
 42
2.835904250250525
  0
LINE
  5
1BF8C
330
1F
100
AcDbEntity
  8
AM_0
100
AcDbLine
 10
0.5766808249018141
 20
10.79509230673176
 30
0.0
 11
0.8584089312960259
 21
10.68885330616229
 31
0.0
  0
ARC
  5
1BF8D
330
1F
100
AcDbEntity
  8
AM_0
100
AcDbCircle
 10
-55.59466898602125
 20
16.49999999999981
 30
0.0
 40
8.0
100
AcDbArc
 50
102.0243128370437
 51
159.635865193682
  0
ARC
  5
1BF8E
330
1F
100
AcDbEntity
  8
AM_0
100
AcDbCircle
 10
-55.59466898602125
 20
16.49999999999981
 30
0.0
 40
7.750000000000001
100
AcDbArc
 50
142.9391184841226
 51
165.407449397966
  0
SPLINE
  5
1BF8F
330
1F
100
AcDbEntity
  8
AM_0
100
AcDbSpline
210
0.0
220
0.0
230
1.0
 70
    28
 71
     2
 72
     6
 73
     3
 74
     0
 42
0.0000000001
 43
0.0000000001
 40
0.0
 40
0.0
 40
0.0
 40
0.8683077351808815
 40
0.8683077351808815
 40
0.8683077351808815
 10
-63.09466898602125
 20
18.45256241897648
 30
0.0
 41
1.0
 10
-63.09466898602136
 20
18.86162452430327
 30
0.0
 41
1.001395898062751
 10
-63.09466898602125
 20
19.28388218141483
 30
0.0
 41
1.0
  0
LINE
  5
1BF90
330
1F
100
AcDbEntity
  8
AM_0
100
AcDbLine
 10
-53.16217164890168
 20
20.49999999999955
 30
0.0
 11
-61.77913473837634
 21
21.1706405725494
 31
0.0
  0
SPLINE
  5
1BF91
330
1F
100
AcDbEntity
  8
AM_0
100
AcDbSpline
210
0.0
220
0.0
230
1.0
 70
     8
 71
     3
 72
    38
 73
    34
 74
     0
 42
0.0000000001
 43
0.0000000001
 40
-9.138107654842825
 40
-9.138107654842825
 40
-9.138107654842825
 40
-9.138107654842825
 40
-8.566757165328989
 40
-8.566757165328989
 40
-7.995406675815152
 40
-7.995406675815152
 40
-7.424056186301316
 40
-7.424056186301316
 40
-6.85270569678748
 40
-6.85270569678748
 40
-6.28179272944595
 40
-6.28179272944595
 40
-5.710879762104423
 40
-5.710879762104423
 40
-5.139966794762895
 40
-5.139966794762895
 40
-4.569053827421366
 40
-4.569053827421366
 40
-3.99814086007984
 40
-3.99814086007984
 40
-3.427227892738312
 40
-3.427227892738312
 40
-2.856314925396784
 40
-2.856314925396784
 40
-2.285401958055257
 40
-2.285401958055257
 40
-1.714051468541442
 40
-1.714051468541442
 40
-1.142700979027627
 40
-1.142700979027627
 40
-0.5713504895138151
 40
-0.5713504895138151
 40
0.0
 40
0.0
 40
0.0
 40
0.0
 10
-57.26128289255757
 20
24.3244743009698
 30
0.0
 10
-57.26128289255757
 20
24.3244743009698
 30
0.0
 10
-57.24182640985032
 20
24.32870234917551
 30
0.0
 10
-57.16085341937651
 20
24.34530269449014
 30
0.0
 10
-57.09936650144095
 20
24.35764522241772
 30
0.0
 10
-56.93824252483807
 20
24.38679354184485
 30
0.0
 10
-56.83848878746517
 20
24.4035597081873
 30
0.0
 10
-56.60977251814529
 20
24.43617720165594
 30
0.0
 10
-56.48080179627686
 20
24.45195353906357
 30
0.0
 10
-56.20791253332766
 20
24.47763749615749
 30
0.0
 10
-56.05437152651712
 20
24.48851814773179
 30
0.0
 10
-55.7214370547897
 20
24.50072987162353
 30
0.0
 10
-55.54205239322619
 20
24.50200013337335
 30
0.0
 10
-55.16925967992552
 20
24.49085737365079
 30
0.0
 10
-54.9755287968128
 20
24.47839142503018
 30
0.0
 10
-54.58734859276933
 20
24.43872596392223
 30
0.0
 10
-54.39289673686358
 20
24.41150802289258
 30
0.0
 10
-54.01807039250821
 20
24.34541602530241
 30
0.0
 10
-53.82603633432348
 20
24.30448607201416
 30
0.0
 10
-53.44769987435529
 20
24.2089939640942
 30
0.0
 10
-53.26138878754205
 20
24.15444825961524
 30
0.0
 10
-52.9072671774934
 20
24.0374164114679
 30
0.0
 10
-52.73913518984568
 20
23.97486958821677
 30
0.0
 10
-52.4304557791138
 20
23.84952402565035
 30
0.0
 10
-52.28989583003681
 20
23.78678544050093
 30
0.0
 10
-52.04224823403831
 20
23.6693167907213
 30
0.0
 10
-51.92645122358226
 20
23.61038129809803
 30
0.0
 10
-51.72268407283991
 20
23.50150530896332
 30
0.0
 10
-51.63468058855028
 20
23.45163247861891
 30
0.0
 10
-51.49324288909315
 20
23.36913437237406
 30
0.0
 10
-51.43968547920485
 20
23.33650642547364
 30
0.0
 10
-51.36927341005753
 20
23.29321280967168
 30
0.0
 10
-51.35243637448434
 20
23.28258523496829
 30
0.0
 10
-51.35243637448434
 20
23.28258523496829
 30
0.0
  0
ARC
  5
1BF92
330
1F
100
AcDbEntity
  8
AM_0
100
AcDbCircle
 10
-55.59466898602125
 20
16.49999999999981
 30
0.0
 40
7.75
100
AcDbArc
 50
66.36677740094747
 51
142.9391184841252
  0
SPLINE
  5
1BF93
330
1F
100
AcDbEntity
  8
AM_0
100
AcDbSpline
210
0.0
220
0.0
230
1.0
 70
    28
 71
     2
 72
     6
 73
     3
 74
     0
 42
0.0000000001
 43
0.0000000001
 40
0.0
 40
0.0
 40
0.0
 40
0.3682577903369497
 40
0.3682577903369497
 40
0.3682577903369497
 10
-57.30823658239615
 20
24.05818669342396
 30
0.0
 41
1.0
 10
-57.28513238580888
 20
24.18921710348608
 30
0.0
 41
1.000147402142568
 10
-57.26128289255757
 20
24.3244743009698
 30
0.0
 41
1.0
  0
ARC
  5
1BF94
330
1F
100
AcDbEntity
  8
AM_0
100
AcDbCircle
 10
-55.59466898602125
 20
16.49999999999981
 30
0.0
 40
8.0
100
AcDbArc
 50
20.36413480631802
 51
57.97568716295801
  0
LINE
  5
1BF95
330
1F
100
AcDbEntity
  8
AM_0
100
AcDbLine
 10
-52.48784656479279
 20
23.60001087625572
 30
0.0
 11
-53.16217164890168
 21
20.49999999999955
 31
0.0
  0
SPLINE
  5
1BF96
330
1F
100
AcDbEntity
  8
AM_0
100
AcDbSpline
210
0.0
220
0.0
230
1.0
 70
     8
 71
     3
 72
    22
 73
    18
 74
     0
 42
0.0000000001
 43
0.0000000001
 40
0.9442851017818588
 40
0.9442851017818588
 40
0.9442851017818588
 40
0.9442851017818588
 40
2.062674014454922
 40
2.062674014454922
 40
3.181062927127986
 40
3.181062927127986
 40
4.29945183980105
 40
4.29945183980105
 40
5.417840752474113
 40
5.417840752474113
 40
5.855341375896928
 40
5.855341375896928
 40
6.292841999319743
 40
6.292841999319743
 40
6.730342622742557
 40
6.730342622742557
 40
6.741413485049337
 40
6.741413485049337
 40
6.741413485049337
 40
6.741413485049337
 10
-52.09461455754536
 20
23.41463079258055
 30
0.0
 10
-52.09461455754536
 20
23.41463079258055
 30
0.0
 10
-52.05928002399992
 20
23.39712397792989
 30
0.0
 10
-51.9133834326982
 20
23.32036883014434
 30
0.0
 10
-51.80290927151953
 20
23.26111535664411
 30
0.0
 10
-51.51652845239573
 20
23.09233626025031
 30
0.0
 10
-51.34062006971908
 20
22.9826546136711
 30
0.0
 10
-50.94221254028457
 20
22.70293414822573
 30
0.0
 10
-50.71992539490816
 20
22.53293168637118
 30
0.0
 10
-50.39429605877012
 20
22.24747320976756
 30
0.0
 10
-50.29693135392893
 20
22.15825468104035
 30
0.0
 10
-50.09718821552133
 20
21.96439157065365
 30
0.0
 10
-49.99482379311394
 20
21.85972397522529
 30
0.0
 10
-49.79202940203084
 20
21.63948270493041
 30
0.0
 10
-49.69149455970546
 20
21.52376750929398
 30
0.0
 10
-49.59261975665618
 20
21.40284814259486
 30
0.0
 10
-49.59018209374517
 20
21.39986244827581
 30
0.0
 10
-49.58774707155408
 20
21.39687544394426
 30
0.0
  0
SPLINE
  5
1BF97
330
1F
100
AcDbEntity
  8
AM_0
100
AcDbSpline
210
0.0
220
0.0
230
1.0
 70
     8
 71
     3
 72
    14
 73
    10
 74
     0
 42
0.0000000001
 43
0.0000000001
 40
1.180144286913546
 40
1.180144286913546
 40
1.180144286913546
 40
1.180144286913546
 40
1.554368819958706
 40
1.554368819958706
 40
3.108737639917412
 40
3.108737639917412
 40
4.663106459876119
 40
4.663106459876119
 40
4.877711634036128
 40
4.877711634036128
 40
4.877711634036128
 40
4.877711634036128
 10
-51.7719430676982
 20
21.44779654076081
 30
0.0
 10
-51.79523984887101
 20
21.51592806764973
 30
0.0
 10
-51.81729874815392
 20
21.58445075078351
 30
0.0
 10
-51.92437311125639
 20
21.93872139911216
 30
0.0
 10
-51.98810542763977
 20
22.22817941879303
 30
0.0
 10
-52.07127733346704
 20
22.78870903066534
 30
0.0
 10
-52.09099338419344
 20
23.06239684615196
 30
0.0
 10
-52.09462220769797
 20
23.3471771129959
 30
0.0
 10
-52.09475698211361
 20
23.38119354348721
 30
0.0
 10
-52.09461455720657
 20
23.41463079223835
 30
0.0
  0
SPLINE
  5
1BF98
330
1F
100
AcDbEntity
  8
AM_0
100
AcDbSpline
210
0.0
220
0.0
230
1.0
 70
     8
 71
     3
 72
    28
 73
    24
 74
     0
 42
0.0000000001
 43
0.0000000001
 40
3.499060948080014
 40
3.499060948080014
 40
3.499060948080014
 40
3.499060948080014
 40
3.547043097099354
 40
3.547043097099354
 40
4.121710759598292
 40
4.121710759598292
 40
4.636813032005478
 40
4.636813032005478
 40
5.151915304412662
 40
5.151915304412662
 40
5.667017576819847
 40
5.667017576819847
 40
6.182119849227032
 40
6.182119849227032
 40
6.697222121634219
 40
6.697222121634219
 40
7.212324394041406
 40
7.212324394041406
 40
7.727426666448594
 40
7.727426666448594
 40
8.242528938855781
 40
8.242528938855781
 40
8.466050755756717
 40
8.466050755756717
 40
8.466050755756717
 40
8.466050755756717
 10
-49.58774707155408
 20
21.39687544394426
 30
0.0
 10
-49.59723395716071
 20
21.38776773440504
 30
0.0
 10
-49.60673805222336
 20
21.37875218744021
 30
0.0
 10
-49.73020038225877
 20
21.26302635718643
 30
0.0
 10
-49.84559780697214
 20
21.17090349386638
 30
0.0
 10
-50.04379084738434
 20
21.0326142845799
 30
0.0
 10
-50.14088567809063
 20
20.97381423963018
 30
0.0
 10
-50.33503423301738
 20
20.87500166849367
 30
0.0
 10
-50.43207459534438
 20
20.83497486404011
 30
0.0
 10
-50.61995551083783
 20
20.77598836522441
 30
0.0
 10
-50.71084600162487
 20
20.75700282298829
 30
0.0
 10
-50.8816543806679
 20
20.73932027409419
 30
0.0
 10
-50.96157348327824
 20
20.74062085562449
 30
0.0
 10
-51.1071228547778
 20
20.75977819657908
 30
0.0
 10
-51.17926639409916
 20
20.77849223859497
 30
0.0
 10
-51.31652762109059
 20
20.83672318986107
 30
0.0
 10
-51.38164382338846
 20
20.87624247525142
 30
0.0
 10
-51.50097702841924
 20
20.97566477665647
 30
0.0
 10
-51.555234804973
 20
21.03560558006772
 30
0.0
 10
-51.65099954292225
 20
21.17257680308766
 30
0.0
 10
-51.6925174807468
 20
21.24962118698611
 30
0.0
 10
-51.74288059868127
 20
21.36766046540894
 30
0.0
 10
-51.75777645334756
 20
21.4063662221517
 30
0.0
 10
-51.7719430676982
 20
21.44779654076081
 30
0.0
  0
LINE
  5
1BF99
330
1F
100
AcDbEntity
  8
AM_0
100
AcDbLine
 10
-53.26484985712295
 20
17.91017247717657
 30
0.0
 11
-52.90003135188772
 21
17.89429414186015
 31
0.0
  0
ELLIPSE
  5
1BF9A
330
1F
100
AcDbEntity
  8
AM_0
100
AcDbEllipse
 10
-53.15562006556354
 20
18.28419656654473
 30
0.0
 11
0.1304954097626321
 21
0.9914489134750171
 31
0.0
210
0.0
220
0.0
230
1.0
 40
0.0491124218674254
 41
4.327040131435538
 42
7.496590896526668
  0
ELLIPSE
  5
1BF9B
330
1F
100
AcDbEntity
  8
AM_0
100
AcDbEllipse
 10
-52.95210285995154
 20
17.4977062908445
 30
0.0
 11
0.05219816390505563
 21
0.3965795653900249
 31
0.0
210
0.0
220
0.0
230
1.0
 40
0.0491124217875818
 41
4.660430862035813
 42
7.191158277427669
  0
SPLINE
  5
1BF9C
330
1F
100
AcDbEntity
  8
AM_0
100
AcDbSpline
210
0.0
220
0.0
230
1.0
 70
    28
 71
     2
 72
     6
 73
     3
 74
     0
 42
0.0000000001
 43
0.0000000001
 40
0.0
 40
0.0
 40
0.0
 40
0.8683077351808815
 40
0.8683077351808815
 40
0.8683077351808815
 10
-48.09466898602125
 20
19.28388218141482
 30
0.0
 41
1.0
 10
-48.09466898602124
 20
18.86162452430327
 30
0.0
 41
1.001395898062751
 10
-48.09466898602125
 20
18.45256241897648
 30
0.0
 41
1.0
  0
SPLINE
  5
1BF9D
330
1F
100
AcDbEntity
  8
AM_0
100
AcDbSpline
210
0.0
220
0.0
230
1.0
 70
     8
 71
     3
 72
    16
 73
    12
 74
     0
 42
0.0000000001
 43
0.0000000001
 40
24.4235526392746
 40
24.4235526392746
 40
24.4235526392746
 40
24.4235526392746
 40
24.57005533996063
 40
24.57005533996063
 40
25.36536592668921
 40
25.36536592668921
 40
26.72503790595727
 40
26.72503790595727
 40
28.08470988522532
 40
28.08470988522532
 40
28.26441674473461
 40
28.26441674473461
 40
28.26441674473461
 40
28.26441674473461
 10
-49.58774707155408
 20
21.39687544394426
 30
0.0
 10
-49.56452331477203
 20
21.36838721810575
 30
0.0
 10
-49.54138172655348
 20
21.33958572034135
 30
0.0
 10
-49.39333126439033
 20
21.15257765084386
 30
0.0
 10
-49.27165033969652
 20
20.98595146798514
 30
0.0
 10
-48.9630363102865
 20
20.52569174686807
 30
0.0
 10
-48.76899096569036
 20
20.19312716484726
 30
0.0
 10
-48.41884779006011
 20
19.45578400136402
 30
0.0
 10
-48.26304332618179
 20
19.05097508252599
 30
0.0
 10
-48.12511200994936
 20
18.56680308685231
 30
0.0
 10
-48.10958854096316
 20
18.50987001691917
 30
0.0
 10
-48.09466898602125
 20
18.45256241897648
 30
0.0
  0
SPLINE
  5
1BF9E
330
1F
100
AcDbEntity
  8
AM_0
100
AcDbSpline
210
0.0
220
0.0
230
1.0
 70
    28
 71
     2
 72
     6
 73
     3
 74
     0
 42
0.0000000001
 43
0.0000000001
 40
0.0
 40
0.0
 40
0.0
 40
0.3682577903369505
 40
0.3682577903369505
 40
0.3682577903369505
 10
-51.35243637448434
 20
23.28258523496826
 30
0.0
 41
1.0
 10
-51.37628586773553
 20
23.14732803748186
 30
0.0
 41
1.000147402166093
 10
-51.39939006432292
 20
23.01629762742244
 30
0.0
 41
1.0
  0
SPLINE
  5
1BF9F
330
1F
100
AcDbEntity
  8
AM_0
100
AcDbSpline
210
0.0
220
0.0
230
1.0
 70
     8
 71
     3
 72
     8
 73
     4
 74
     0
 42
0.0000000001
 43
0.0000000001
 40
16.12661388386459
 40
16.12661388386459
 40
16.12661388386459
 40
16.12661388386459
 40
16.48341663962438
 40
16.48341663962438
 40
16.48341663962438
 40
16.48341663962438
 10
-52.11616509206783
 20
23.42549714170384
 30
0.0
 10
-52.11045853300914
 20
23.42263087990336
 30
0.0
 10
-52.10328857580657
 20
23.41902141527073
 30
0.0
 10
-52.09461455720657
 20
23.41463079223835
 30
0.0
  0
ARC
  5
1BFA0
330
1F
100
AcDbEntity
  8
AM_0
100
AcDbCircle
 10
-55.59466898602125
 20
16.49999999999981
 30
0.0
 40
7.750000000000001
100
AcDbArc
 50
63.3307666343266
 51
66.36677740094747
  0
ELLIPSE
  5
1BFA1
330
1F
100
AcDbEntity
  8
AM_0
100
AcDbEllipse
 10
13.67532399636923
 20
-60.82873776613822
 30
0.0
 11
-4.378697857206927E-13
 21
114.9465718930957
 31
0.0
210
0.0
220
0.0
230
1.0
 40
0.1304954097626376
 41
5.427564127731078
 42
5.473495474892262
  0
LINE
  5
1BFA2
330
1F
100
AcDbEntity
  8
AM_0
100
AcDbLine
 10
8.038460184494625
 20
17.81972745757858
 30
0.0
 11
7.140713193243528
 21
15.43908833539763
 31
0.0
  0
LINE
  5
1BFA3
330
1F
100
AcDbEntity
  8
AM_0
100
AcDbLine
 10
8.033527362547943
 20
17.80635298301624
 30
0.0
 11
7.140695319601377
 21
15.43874728598888
 31
0.0
  0
LINE
  5
1BFA4
330
1F
100
AcDbEntity
  8
AM_0
100
AcDbLine
 10
5.269306757337063
 20
16.14437101709805
 30
0.0
 11
6.16216272197039
 21
18.51204014948522
 31
0.0
  0
LINE
  5
1BFA5
330
1F
100
AcDbEntity
  8
AM_0
100
AcDbLine
 10
7.247387648640256
 20
17.47455819991072
 30
0.0
 11
6.738924675434646
 21
7.772506707524059
 31
0.0
  0
LINE
  5
1BFA6
330
1F
100
AcDbEntity
  8
AM_0
100
AcDbLine
 10
9.300244110440872
 20
8.75
 30
0.0
 11
40.0
 21
8.75
 31
0.0
  0
LINE
  5
1BFA7
330
1F
100
AcDbEntity
  8
AM_0
100
AcDbLine
 10
24.99999999606166
 20
14.54743758102333
 30
0.0
 11
40.0
 21
14.54743758102333
 31
0.0
  0
LINE
  5
1BFA8
330
1F
100
AcDbEntity
  8
AM_0
100
AcDbLine
 10
25.93473228142284
 20
9.018808344079275
 30
0.0
 11
17.34368231996473
 21
9.018808344079275
 31
0.0
  0
SPLINE
  5
1BFA9
330
1F
100
AcDbEntity
  8
AM_0
100
AcDbSpline
210
0.0
220
0.0
230
1.0
 70
     8
 71
     3
 72
    28
 73
    24
 74
     0
 42
0.0000000001
 43
0.0000000001
 40
12.0883383160686
 40
12.0883383160686
 40
12.0883383160686
 40
12.0883383160686
 40
12.34496903075991
 40
12.34496903075991
 40
12.85745945850826
 40
12.85745945850826
 40
13.36994988625662
 40
13.36994988625662
 40
14.39493074175334
 40
14.39493074175334
 40
15.41468736498422
 40
15.41468736498422
 40
16.4344439882151
 40
16.4344439882151
 40
17.45420061144598
 40
17.45420061144598
 40
18.47395723467686
 40
18.47395723467686
 40
20.02795244138761
 40
20.02795244138761
 40
21.58194764809837
 40
21.58194764809837
 40
23.08260543702986
 40
23.08260543702986
 40
23.08260543702986
 40
23.08260543702986
 10
17.34368231996473
 20
9.018808344086608
 30
0.0
 10
17.32950954451064
 20
9.10268328361596
 30
0.0
 10
17.32216975591132
 20
9.187234590696619
 30
0.0
 10
17.32216975591132
 20
9.441416031030769
 30
0.0
 10
17.35184578871758
 20
9.607760050433086
 30
0.0
 10
17.45919650469284
 20
9.928785511573693
 30
0.0
 10
17.53653484225629
 20
10.0835811221167
 30
0.0
 10
17.81234580769319
 20
10.52602145213191
 30
0.0
 10
18.05367984833151
 20
10.7929664645709
 30
0.0
 10
18.51741198396746
 20
11.2458552918925
 30
0.0
 10
18.77228839982456
 20
11.46289008986608
 30
0.0
 10
19.30533124453132
 20
11.87961256084441
 30
0.0
 10
19.58361333378139
 20
12.07913500380991
 30
0.0
 10
20.14460179064895
 20
12.45648412982462
 30
0.0
 10
20.42735768334887
 20
12.63423358785008
 30
0.0
 10
20.9806575280486
 20
12.96289132087256
 30
0.0
 10
21.25122493550157
 20
13.11375288878205
 30
0.0
 10
21.89978952949264
 20
13.45562697767315
 30
0.0
 10
22.30577296203751
 20
13.6505498157166
 30
0.0
 10
23.11581992914694
 20
13.99183934503617
 30
0.0
 10
23.51986427051884
 20
14.13816401446246
 30
0.0
 10
24.28616562334355
 20
14.35679330419387
 30
0.0
 10
24.64967679624124
 20
14.43148108452377
 30
0.0
 10
24.99059976818319
 20
14.46636101975216
 30
0.0
  0
ELLIPSE
  5
1BFAA
330
1F
100
AcDbEntity
  8
AM_0
100
AcDbEllipse
 10
-37.34561116796999
 20
16.50000000000001
 30
0.0
 11
-157.6107849316333
 21
1.013748640780537
 31
0.0
210
0.0
220
0.0
230
1.0
 40
0.0487492755994664
 41
1.871566050734144
 42
1.905707166239114
  0
ARC
  5
1BFAB
330
1F
100
AcDbEntity
  8
AM_0
100
AcDbCircle
 10
9.300244110440872
 20
3.749999999999972
 30
0.0
 40
5.0
100
AcDbArc
 50
90.0
 51
112.0685231840854
  0
SPLINE
  5
1BFAC
330
1F
100
AcDbEntity
  8
AM_0
100
AcDbSpline
210
0.0
220
0.0
230
1.0
 70
     8
 71
     3
 72
    12
 73
     8
 74
     0
 42
0.0000000001
 43
0.0000000001
 40
14.97305150390918
 40
14.97305150390918
 40
14.97305150390918
 40
14.97305150390918
 40
15.89254717674549
 40
15.89254717674549
 40
16.81204284958179
 40
16.81204284958179
 40
17.12467724547305
 40
17.12467724547305
 40
17.12467724547305
 40
17.12467724547305
 10
9.300244110440872
 20
8.861177882806999
 30
0.0
 10
8.99415085391388
 20
8.858518476680757
 30
0.0
 10
8.660529240820551
 20
8.824537492489668
 30
0.0
 10
8.008638096161121
 20
8.686442471285858
 30
0.0
 10
7.690346225071608
 20
8.582429452119982
 30
0.0
 10
7.314534998011027
 20
8.421606266363853
 30
0.0
 10
7.217558454605182
 20
8.376588526344847
 30
0.0
 10
7.120351284771687
 20
8.327489699337491
 30
0.0
  0
SPLINE
  5
1BFAE
330
1F
100
AcDbEntity
  8
AM_0
100
AcDbSpline
210
0.0
220
0.0
230
1.0
 70
     8
 71
     3
 72
     8
 73
     4
 74
     0
 42
0.0000000001
 43
0.0000000001
 40
17.10015910482546
 40
17.10015910482546
 40
17.10015910482546
 40
17.10015910482546
 40
17.34751882815347
 40
17.34751882815347
 40
17.34751882815347
 40
17.34751882815347
 10
6.989911317989026
 20
8.376678302081274
 30
0.0
 10
6.912123543054349
 20
8.337073075669707
 30
0.0
 10
6.834394426782865
 20
8.295046090145434
 30
0.0
 10
6.757433544052447
 20
8.250676030925121
 30
0.0
  0
SPLINE
  5
1BFAF
330
1F
100
AcDbEntity
  8
AM_0
100
AcDbSpline
210
0.0
220
0.0
230
1.0
 70
     8
 71
     3
 72
    10
 73
     6
 74
     0
 42
0.0000000001
 43
0.0000000001
 40
-2.345951551019864
 40
-2.345951551019864
 40
-2.345951551019864
 40
-2.345951551019864
 40
-1.756548558643658
 40
-1.756548558643658
 40
-1.208572581246926
 40
-1.208572581246926
 40
-1.208572581246926
 40
-1.208572581246926
 10
7.120351286047821
 20
8.327489699522374
 30
0.0
 10
7.185230319009975
 20
8.332299192604523
 30
0.0
 10
7.244375231613162
 20
8.339311094553437
 30
0.0
 10
7.34466068896495
 20
8.35810934673583
 30
0.0
 10
7.38674270741717
 20
8.369543544171989
 30
0.0
 10
7.421668132539708
 20
8.383675894498055
 30
0.0
  0
LINE
  5
1BFB0
330
1F
100
AcDbEntity
  8
AM_0
100
AcDbLine
 10
6.768414404705027
 20
8.460204262617054
 30
0.0
 11
7.120351285008383
 21
8.327489699964787
 31
0.0
  0
SPLINE
  5
1BFB1
330
1F
100
AcDbEntity
  8
AM_0
100
AcDbSpline
210
0.0
220
0.0
230
1.0
 70
     8
 71
     3
 72
    12
 73
     8
 74
     0
 42
0.0000000001
 43
0.0000000001
 40
12.36835880838692
 40
12.36835880838692
 40
12.36835880838692
 40
12.36835880838692
 40
12.48135518559694
 40
12.48135518559694
 40
14.18203618535209
 40
14.18203618535209
 40
15.15808467973156
 40
15.15808467973156
 40
15.15808467973156
 40
15.15808467973156
 10
17.34368231996473
 20
9.018808344086608
 30
0.0
 10
17.30443360716697
 20
9.016008154737108
 30
0.0
 10
17.26513066423877
 20
9.013275789051164
 30
0.0
 10
16.63349946621679
 20
8.970478297512329
 30
0.0
 10
16.02951859301061
 20
8.94506808430873
 30
0.0
 10
15.08859845762913
 20
8.919863498620487
 30
0.0
 10
14.7475346056392
 20
8.913811707875908
 30
0.0
 10
14.41201032438039
 20
8.910277746503368
 30
0.0
  0
SPLINE
  5
1BFB2
330
1F
100
AcDbEntity
  8
AM_0
100
AcDbSpline
210
0.0
220
0.0
230
1.0
 70
     8
 71
     3
 72
    38
 73
    34
 74
     0
 42
0.0000000001
 43
0.0000000001
 40
0.9436332430643031
 40
0.9436332430643031
 40
0.9436332430643031
 40
0.9436332430643031
 40
2.149834853568791
 40
2.149834853568791
 40
3.356036464073279
 40
3.356036464073279
 40
4.562238074577767
 40
4.562238074577767
 40
5.768439685082255
 40
5.768439685082255
 40
6.249049964474819
 40
6.249049964474819
 40
6.729660243867384
 40
6.729660243867384
 40
7.210270523259949
 40
7.210270523259949
 40
7.690880802652512
 40
7.690880802652512
 40
8.171491082045076
 40
8.171491082045076
 40
8.652101361437641
 40
8.652101361437641
 40
9.132711640830205
 40
9.132711640830205
 40
9.61332192022277
 40
9.61332192022277
 40
10.81952353072726
 40
10.81952353072726
 40
12.02572514123175
 40
12.02572514123175
 40
13.23192675173624
 40
13.23192675173624
 40
14.43812836224073
 40
14.43812836224073
 40
14.43812836224073
 40
14.43812836224073
 10
25.93473228142284
 20
14.46636101975216
 30
0.0
 10
26.33679948492431
 20
14.46636101975216
 30
0.0
 10
26.75052036366503
 20
14.4240715553978
 30
0.0
 10
27.56328062942123
 20
14.24935635935049
 30
0.0
 10
27.96233701188339
 20
14.11702277195474
 30
0.0
 10
28.71081330090783
 20
13.77243303292727
 30
0.0
 10
29.06077049331225
 20
13.5601122476979
 30
0.0
 10
29.68213458657328
 20
13.075721130624
 30
0.0
 10
29.95370404505775
 20
12.80387842833466
 30
0.0
 10
30.26029733309269
 20
12.3996404049494
 30
0.0
 10
30.34300511109791
 20
12.27666437474375
 30
0.0
 10
30.48933253977657
 20
12.02298835096701
 30
0.0
 10
30.55294114949493
 20
11.89230140032572
 30
0.0
 10
30.65509432324302
 20
11.63174884033779
 30
0.0
 10
30.6936892460667
 20
11.50174392560416
 30
0.0
 10
30.74415490198089
 20
11.25056179152506
 30
0.0
 10
30.7560224561098
 20
11.12938774173796
 30
0.0
 10
30.7560224561098
 20
10.90298054084488
 30
0.0
 10
30.74415490198089
 20
10.7889895905567
 30
0.0
 10
30.6936892460667
 20
10.56798708810615
 30
0.0
 10
30.65509432324302
 20
10.46097121007475
 30
0.0
 10
30.55294114949493
 20
10.26004148258181
 30
0.0
 10
30.48933253977657
 20
10.16599280832804
 30
0.0
 10
30.34300511109791
 20
9.994286344383397
 30
0.0
 10
30.26029733309269
 20
9.916599917830183
 30
0.0
 10
29.95370404505775
 20
9.674787577722015
 30
0.0
 10
29.68213458657328
 20
9.537792750827975
 30
0.0
 10
29.06077049331225
 20
9.32033320659167
 30
0.0
 10
28.71081330090783
 20
9.239825843128926
 30
0.0
 10
27.96233701188339
 20
9.119951601780599
 30
0.0
 10
27.56328062942123
 20
9.080374091368924
 30
0.0
 10
26.75052036366503
 20
9.029825002179308
 30
0.0
 10
26.33679948492431
 20
9.018808344079275
 30
0.0
 10
25.93473228142284
 20
9.018808344079275
 30
0.0
  0
SPLINE
  5
1BFB3
330
1F
100
AcDbEntity
  8
AM_0
100
AcDbSpline
210
0.0
220
0.0
230
1.0
 70
     8
 71
     3
 72
     8
 73
     4
 74
     0
 42
0.0000000001
 43
0.0000000001
 40
0.9902161508302089
 40
0.9902161508302089
 40
0.9902161508302089
 40
0.9902161508302089
 40
1.072739846063068
 40
1.072739846063068
 40
1.072739846063068
 40
1.072739846063068
 10
24.99999999606166
 20
14.54743758102333
 30
0.0
 10
24.99700066649257
 20
14.5203792030787
 30
0.0
 10
24.99386742254364
 20
14.49335243557849
 30
0.0
 10
24.99059976818319
 20
14.46636101975216
 30
0.0
  0
LINE
  5
1BFB4
330
1F
100
AcDbEntity
  8
AM_0
100
AcDbLine
 10
24.99059976818319
 20
14.46636101975216
 30
0.0
 11
25.93473228142284
 21
14.46636101975216
 31
0.0
  0
LINE
  5
1BFB5
330
1F
100
AcDbEntity
  8
AM_0
100
AcDbLine
 10
40.25
 20
8.5
 30
0.0
 11
40.25
 21
13.71611781858499
 31
0.0
  0
LINE
  5
1BFB6
330
1F
100
AcDbEntity
  8
AM_0
100
AcDbLine
 10
40.0
 20
8.75
 30
0.0
 11
40.0
 21
14.54743758102333
 31
0.0
  0
LINE
  5
1BFB7
330
1F
100
AcDbEntity
  8
AM_0
100
AcDbLine
 10
40.0
 20
8.75
 30
0.0
 11
40.25
 21
8.5
 31
0.0
  0
SPLINE
  5
1BFB8
330
1F
100
AcDbEntity
  8
AM_0
100
AcDbSpline
210
0.0
220
0.0
230
1.0
 70
    12
 71
     2
 72
     6
 73
     3
 74
     0
 42
0.0000000001
 43
0.0000000001
 40
0.0
 40
0.0
 40
0.0
 40
0.8683077351808815
 40
0.8683077351808815
 40
0.8683077351808815
 10
40.0
 20
14.54743758102333
 30
0.0
 41
1.0
 10
40.10306055405067
 20
14.13837547569654
 30
0.0
 41
1.001395898062751
 10
40.25
 20
13.71611781858499
 30
0.0
 41
1.0
  0
LINE
  5
1BFB9
330
1F
100
AcDbEntity
  8
AM_0
100
AcDbLine
 10
23.93473227937432
 20
24.05818669342415
 30
0.0
 11
40.0
 21
24.05818669342415
 31
0.0
  0
LINE
  5
1BFBA
330
1F
100
AcDbEntity
  8
AM_0
100
AcDbLine
 10
40.0
 20
23.0162976274226
 30
0.0
 11
23.93473227937432
 21
23.0162976274226
 31
0.0
  0
LINE
  5
1BFBB
330
1F
100
AcDbEntity
  8
AM_0
100
AcDbLine
 10
40.0
 20
18.45256241897667
 30
0.0
 11
24.5364231870999
 21
18.45256241897667
 31
0.0
  0
LINE
  5
1BFBC
330
1F
100
AcDbEntity
  8
AM_0
100
AcDbLine
 10
7.580484013631462
 20
24.25
 30
0.0
 11
21.25352098259509
 21
24.25
 31
0.0
  0
SPLINE
  5
1BFBD
330
1F
100
AcDbEntity
  8
AM_0
100
AcDbSpline
210
0.0
220
0.0
230
1.0
 70
     8
 71
     3
 72
    22
 73
    18
 74
     0
 42
0.0000000001
 43
0.0000000001
 40
0.9442851017818588
 40
0.9442851017818588
 40
0.9442851017818588
 40
0.9442851017818588
 40
2.062674014454922
 40
2.062674014454922
 40
3.181062927127986
 40
3.181062927127986
 40
4.29945183980105
 40
4.29945183980105
 40
5.417840752474113
 40
5.417840752474113
 40
5.855341375896928
 40
5.855341375896928
 40
6.292841999319743
 40
6.292841999319743
 40
6.730342622742557
 40
6.730342622742557
 40
6.741413485049337
 40
6.741413485049337
 40
6.741413485049337
 40
6.741413485049337
 10
17.93473228142284
 20
23.41463079258074
 30
0.0
 10
18.30752858564733
 20
23.41463079258074
 30
0.0
 10
18.69160086401212
 20
23.39712397793008
 30
0.0
 10
19.44712820933728
 20
23.32036883014453
 30
0.0
 10
19.81859972475013
 20
23.2611153566443
 30
0.0
 10
20.51634489452908
 20
23.09233626025051
 30
0.0
 10
20.84306483389241
 20
22.98265461367129
 30
0.0
 10
21.42387418165276
 20
22.70293414822592
 30
0.0
 10
21.6781264912604
 20
22.53293168637137
 30
0.0
 10
21.9635313091685
 20
22.24747320976775
 30
0.0
 10
22.03960508478053
 20
22.15825468104055
 30
0.0
 10
22.17431075654667
 20
21.96439157065385
 30
0.0
 10
22.23293030646869
 20
21.85972397522548
 30
0.0
 10
22.32712131707353
 20
21.6394827049306
 30
0.0
 10
22.36273717684071
 20
21.52376750929417
 30
0.0
 10
22.38661521013682
 20
21.40284814259505
 30
0.0
 10
22.38719675054119
 20
21.399862448276
 30
0.0
 10
22.38777051976649
 20
21.39687544394445
 30
0.0
  0
SPLINE
  5
1BFBE
330
1F
100
AcDbEntity
  8
AM_0
100
AcDbSpline
210
0.0
220
0.0
230
1.0
 70
     8
 71
     3
 72
    28
 73
    24
 74
     0
 42
0.0000000001
 43
0.0000000001
 40
3.499060948080014
 40
3.499060948080014
 40
3.499060948080014
 40
3.499060948080014
 40
3.547043097099354
 40
3.547043097099354
 40
4.121710759598292
 40
4.121710759598292
 40
4.636813032005478
 40
4.636813032005478
 40
5.151915304412662
 40
5.151915304412662
 40
5.667017576819847
 40
5.667017576819847
 40
6.182119849227032
 40
6.182119849227032
 40
6.697222121634219
 40
6.697222121634219
 40
7.212324394041406
 40
7.212324394041406
 40
7.727426666448594
 40
7.727426666448594
 40
8.242528938855781
 40
8.242528938855781
 40
8.466050755756717
 40
8.466050755756717
 40
8.466050755756717
 40
8.466050755756717
 10
22.38777051976649
 20
21.39687544394445
 30
0.0
 10
22.3762541578576
 20
21.38776773440523
 30
0.0
 10
22.36466255261075
 20
21.3787521874404
 30
0.0
 10
22.21336783858374
 20
21.26302635718662
 30
0.0
 10
22.06352693580766
 20
21.17090349386658
 30
0.0
 10
21.7923240533728
 20
21.03261428458009
 30
0.0
 10
21.65333862927923
 20
20.97381423963037
 30
0.0
 10
21.35995128777086
 20
20.87500166849387
 30
0.0
 10
21.20554533739278
 20
20.83497486404031
 30
0.0
 10
20.88910077091305
 20
20.77598836522461
 30
0.0
 10
20.72696560104794
 20
20.75700282298848
 30
0.0
 10
20.40394913042883
 20
20.73932027409438
 30
0.0
 10
20.24306860384854
 20
20.74062085562468
 30
0.0
 10
19.93262863025393
 20
20.75977819657928
 30
0.0
 10
19.7691771308032
 20
20.77849223859516
 30
0.0
 10
19.43511676641174
 20
20.83672318986126
 30
0.0
 10
19.26450770534757
 20
20.87624247525162
 30
0.0
 10
18.92570008845542
 20
20.97566477665666
 30
0.0
 10
18.75740460937959
 20
21.03560558006791
 30
0.0
 10
18.43244043168897
 20
21.17257680308785
 30
0.0
 10
18.27578085395783
 20
21.2496211869863
 30
0.0
 10
18.0656649834857
 20
21.36766046540913
 30
0.0
 10
18.00041471601548
 20
21.40636622215189
 30
0.0
 10
17.93473228142284
 20
21.447796540761
 30
0.0
  0
ELLIPSE
  5
1BFBF
330
1F
100
AcDbEntity
  8
AM_0
100
AcDbEllipse
 10
-37.34561116796999
 20
16.50000000000001
 30
0.0
 11
-157.6107849316333
 21
1.013748640780537
 31
0.0
210
0.0
220
0.0
230
1.0
 40
0.0487492755994664
 41
4.378105249171411
 42
4.431093633174963
  0
ELLIPSE
  5
1BFC0
330
1F
100
AcDbEntity
  8
AM_0
100
AcDbEllipse
 10
7.097845042369954
 20
18.15919656654492
 30
0.0
 11
-0.9357716627779882
 21
0.3526065727430915
 31
0.0
210
0.0
220
0.0
230
1.0
 40
0.990252489334466
 41
3.141336869882036
 42
6.282929523471855
  0
LINE
  5
1BFC1
330
1F
100
AcDbEntity
  8
AM_0
100
AcDbLine
 10
6.941802410851778
 20
18.0160093074328
 30
0.0
 11
6.642196745787601
 21
17.83870632911635
 31
0.0
  0
LINE
  5
1BFC2
330
1F
100
AcDbEntity
  8
AM_0
100
AcDbLine
 10
7.120272204220555
 20
17.94876039984288
 30
0.0
 11
7.228371577427424
 21
17.61783076053763
 31
0.0
  0
ELLIPSE
  5
1BFC3
330
1F
100
AcDbEntity
  8
AM_0
100
AcDbEllipse
 10
6.848409502226787
 20
17.49771457652699
 30
0.0
 11
-0.3743086651870545
 21
0.1410426288959678
 31
0.0
210
0.0
220
0.0
230
1.0
 40
0.9902524893383581
 41
3.44676948844853
 42
5.977496903840386
  0
ELLIPSE
  5
1BFC4
330
1F
100
AcDbEntity
  8
AM_0
100
AcDbEllipse
 10
7.004587003511233
 20
17.9121892108673
 30
0.0
 11
0.1139639345231197
 21
-0.04294256163275341
 31
0.0
210
0.0
220
0.0
230
1.0
 40
0.9902524893383582
 41
0.671306035857715
 42
2.470286617733271
  0
LINE
  5
1BFC5
330
1F
100
AcDbEntity
  8
AM_0
100
AcDbLine
 10
6.45466982693938
 20
23.60001087625591
 30
0.0
 11
7.580484013631462
 21
24.25
 31
0.0
  0
SPLINE
  5
1BFC6
330
1F
100
AcDbEntity
  8
AM_0
100
AcDbSpline
210
0.0
220
0.0
230
1.0
 70
     8
 71
     3
 72
    14
 73
    10
 74
     0
 42
0.0000000001
 43
0.0000000001
 40
1.180144286913546
 40
1.180144286913546
 40
1.180144286913546
 40
1.180144286913546
 40
1.554368819958706
 40
1.554368819958706
 40
3.108737639917412
 40
3.108737639917412
 40
4.663106459876119
 40
4.663106459876119
 40
4.877711634036128
 40
4.877711634036128
 40
4.877711634036128
 40
4.877711634036128
 10
17.93473228142284
 20
21.447796540761
 30
0.0
 10
17.82671851979126
 20
21.51592806764992
 30
0.0
 10
17.71820198744297
 20
21.5844507507837
 30
0.0
 10
17.15750587893081
 20
21.93872139911235
 30
0.0
 10
16.70074658773365
 20
22.22817941879322
 30
0.0
 10
15.80945297378048
 20
22.78870903066553
 30
0.0
 10
15.37281633886482
 20
23.06239684615215
 30
0.0
 10
14.89651259947277
 20
23.34717711299609
 30
0.0
 10
14.8391402415632
 20
23.3811935434874
 30
0.0
 10
14.78207179227002
 20
23.41463079223854
 30
0.0
  0
LINE
  5
1BFC7
330
1F
100
AcDbEntity
  8
AM_0
100
AcDbLine
 10
14.78207179227002
 20
23.41463079258074
 30
0.0
 11
17.93473228142284
 21
23.41463079258074
 31
0.0
  0
SPLINE
  5
1BFC8
330
1F
100
AcDbEntity
  8
AM_0
100
AcDbSpline
210
0.0
220
0.0
230
1.0
 70
     8
 71
     3
 72
     8
 73
     4
 74
     0
 42
0.0000000001
 43
0.0000000001
 40
16.12661388386459
 40
16.12661388386459
 40
16.12661388386459
 40
16.12661388386459
 40
16.48341663962438
 40
16.48341663962438
 40
16.48341663962438
 40
16.48341663962438
 10
14.41201032438016
 20
23.42549714170403
 30
0.0
 10
14.53467821021195
 20
23.42263087990355
 30
0.0
 10
14.65808961336234
 20
23.41902141527092
 30
0.0
 10
14.78207179227002
 20
23.41463079223854
 30
0.0
  0
SPLINE
  5
1BFC9
330
1F
100
AcDbEntity
  8
AM_0
100
AcDbSpline
210
0.0
220
0.0
230
1.0
 70
     8
 71
     3
 72
    16
 73
    12
 74
     0
 42
0.0000000001
 43
0.0000000001
 40
24.4235526392746
 40
24.4235526392746
 40
24.4235526392746
 40
24.4235526392746
 40
24.57005533996063
 40
24.57005533996063
 40
25.36536592668921
 40
25.36536592668921
 40
26.72503790595727
 40
26.72503790595727
 40
28.08470988522532
 40
28.08470988522532
 40
28.26441674473461
 40
28.26441674473461
 40
28.26441674473461
 40
28.26441674473461
 10
22.38777051976649
 20
21.39687544394445
 30
0.0
 10
22.42525012307033
 20
21.36838721810594
 30
0.0
 10
22.4623076867299
 20
21.33958572034155
 30
0.0
 10
22.69764994675029
 20
21.15257765084405
 30
0.0
 10
22.88301469484009
 20
20.98595146798533
 30
0.0
 10
23.34008449129306
 20
20.52569174686826
 30
0.0
 10
23.61185307651715
 20
20.19312716484745
 30
0.0
 10
24.09196124032064
 20
19.45578400136421
 30
0.0
 10
24.30046812017417
 20
19.05097508252618
 30
0.0
 10
24.49334098066697
 20
18.5668030868525
 30
0.0
 10
24.51520934365669
 20
18.50987001691937
 30
0.0
 10
24.5364231870999
 20
18.45256241897667
 30
0.0
  0
SPLINE
  5
1BFCA
330
1F
100
AcDbEntity
  8
AM_0
100
AcDbSpline
210
0.0
220
0.0
230
1.0
 70
     8
 71
     3
 72
    38
 73
    34
 74
     0
 42
0.0000000001
 43
0.0000000001
 40
0.0
 40
0.0
 40
0.0
 40
0.0
 40
0.5718157009076235
 40
0.5718157009076235
 40
1.143631401815247
 40
1.143631401815247
 40
1.71544710272287
 40
1.71544710272287
 40
2.287262803630494
 40
2.287262803630494
 40
2.85857653112219
 40
2.85857653112219
 40
3.429890258613886
 40
3.429890258613886
 40
4.001203986105582
 40
4.001203986105582
 40
4.572517713597278
 40
4.572517713597278
 40
5.143831441088974
 40
5.143831441088974
 40
5.715145168580671
 40
5.715145168580671
 40
6.286458896072368
 40
6.286458896072368
 40
6.857772623564064
 40
6.857772623564064
 40
7.429588324471677
 40
7.429588324471677
 40
8.001404025379291
 40
8.001404025379291
 40
8.573219726286904
 40
8.573219726286904
 40
9.145035427194518
 40
9.145035427194518
 40
9.145035427194518
 40
9.145035427194518
 10
23.93473227937432
 20
23.0162976274226
 30
0.0
 10
23.74412704573842
 20
23.0162976274226
 30
0.0
 10
23.54774600743258
 20
23.02722475470995
 30
0.0
 10
23.15848511968113
 20
23.07168173201697
 30
0.0
 10
22.96559741114425
 20
23.10517085592608
 30
0.0
 10
22.59673663478293
 20
23.18974340241911
 30
0.0
 10
22.42043191826735
 20
23.24082799104809
 30
0.0
 10
22.09483551919902
 20
23.35221309627889
 30
0.0
 10
21.94554144982521
 20
23.41244379195226
 30
0.0
 10
21.68139841285392
 20
23.53234144966021
 30
0.0
 10
21.55718943987245
 20
23.59631060904195
 30
0.0
 10
21.33761379980945
 20
23.72394087483556
 30
0.0
 10
21.24223031575457
 20
23.78754059519176
 30
0.0
 10
21.08851525626778
 20
23.90632523223198
 30
0.0
 10
21.03006153135812
 20
23.96157199619492
 30
0.0
 10
20.9531586964448
 20
24.05801330592524
 30
0.0
 10
20.93473227937432
 20
24.09919088995963
 30
0.0
 10
20.93473227937432
 20
24.16532928172964
 30
0.0
 10
20.95315869644492
 20
24.19233391554303
 30
0.0
 10
21.03006153135812
 20
24.23109114818345
 30
0.0
 10
21.08851525626778
 20
24.24286274243656
 30
0.0
 10
21.24223031575457
 20
24.2522415929314
 30
0.0
 10
21.33761379980956
 20
24.24990133626019
 30
0.0
 10
21.55718943987245
 20
24.23535962867379
 30
0.0
 10
21.68139841285392
 20
24.22322045809497
 30
0.0
 10
21.94554144982521
 20
24.19505871441396
 30
0.0
 10
22.09483551919902
 20
24.1779704240453
 30
0.0
 10
22.42043191826747
 20
24.14282593509228
 30
0.0
 10
22.59673663478293
 20
24.12484712194137
 30
0.0
 10
22.96559741114425
 20
24.0936359268018
 30
0.0
 10
23.15848511968102
 20
24.08044468120593
 30
0.0
 10
23.54774600743258
 20
24.06270396936094
 30
0.0
 10
23.74412704573842
 20
24.05818669342415
 30
0.0
 10
23.93473227937432
 20
24.05818669342415
 30
0.0
  0
LINE
  5
1BFCB
330
1F
100
AcDbEntity
  8
AM_0
100
AcDbLine
 10
55.93473227937432
 20
23.28258523496851
 30
0.0
 11
40.25
 21
23.28258523496851
 31
0.0
  0
LINE
  5
1BFCC
330
1F
100
AcDbEntity
  8
AM_0
100
AcDbLine
 10
40.25
 20
24.32447430097
 30
0.0
 11
55.93473227937432
 21
24.32447430097
 31
0.0
  0
LINE
  5
1BFCD
330
1F
100
AcDbEntity
  8
AM_0
100
AcDbLine
 10
40.25
 20
19.28388218141501
 30
0.0
 11
40.25
 21
23.28258523496845
 31
0.0
  0
LINE
  5
1BFCE
330
1F
100
AcDbEntity
  8
AM_0
100
AcDbLine
 10
40.0
 20
18.45256241897667
 30
0.0
 11
40.0
 21
23.01629762742263
 31
0.0
  0
SPLINE
  5
1BFCF
330
1F
100
AcDbEntity
  8
AM_0
100
AcDbSpline
210
0.0
220
0.0
230
1.0
 70
    12
 71
     2
 72
     6
 73
     3
 74
     0
 42
0.0000000001
 43
0.0000000001
 40
0.0
 40
0.0
 40
0.0
 40
0.8683077351808815
 40
0.8683077351808815
 40
0.8683077351808815
 10
40.25
 20
19.28388218141501
 30
0.0
 41
1.0
 10
40.10306055405067
 20
18.86162452430346
 30
0.0
 41
1.001395898062751
 10
40.0
 20
18.45256241897667
 30
0.0
 41
1.0
  0
SPLINE
  5
1BFD0
330
1F
100
AcDbEntity
  8
AM_0
100
AcDbSpline
210
0.0
220
0.0
230
1.0
 70
    12
 71
     2
 72
     6
 73
     3
 74
     0
 42
0.0000000001
 43
0.0000000001
 40
0.0
 40
0.0
 40
0.0
 40
0.3682577903369505
 40
0.3682577903369505
 40
0.3682577903369505
 10
40.25
 20
23.28258523496845
 30
0.0
 41
1.0
 10
40.12267892892089
 20
23.14732803748199
 30
0.0
 41
1.000147402166093
 10
40.0
 20
23.01629762742263
 30
0.0
 41
1.0
  0
SPLINE
  5
1BFD1
330
1F
100
AcDbEntity
  8
AM_0
100
AcDbSpline
210
0.0
220
0.0
230
1.0
 70
    12
 71
     2
 72
     6
 73
     3
 74
     0
 42
0.0000000001
 43
0.0000000001
 40
0.0
 40
0.0
 40
0.0
 40
0.3682577903369497
 40
0.3682577903369497
 40
0.3682577903369497
 10
40.0
 20
24.05818669342415
 30
0.0
 41
1.0
 10
40.12267892892294
 20
24.18921710348628
 30
0.0
 41
1.000147402142568
 10
40.25
 20
24.32447430097
 30
0.0
 41
1.0
  0
SPLINE
  5
1BFD2
330
1F
100
AcDbEntity
  8
AM_0
100
AcDbSpline
210
0.0
220
0.0
230
1.0
 70
     8
 71
     3
 72
    38
 73
    34
 74
     0
 42
0.0000000001
 43
0.0000000001
 40
-9.138107654842825
 40
-9.138107654842825
 40
-9.138107654842825
 40
-9.138107654842825
 40
-8.566757165328989
 40
-8.566757165328989
 40
-7.995406675815152
 40
-7.995406675815152
 40
-7.424056186301316
 40
-7.424056186301316
 40
-6.85270569678748
 40
-6.85270569678748
 40
-6.28179272944595
 40
-6.28179272944595
 40
-5.710879762104423
 40
-5.710879762104423
 40
-5.139966794762895
 40
-5.139966794762895
 40
-4.569053827421366
 40
-4.569053827421366
 40
-3.99814086007984
 40
-3.99814086007984
 40
-3.427227892738312
 40
-3.427227892738312
 40
-2.856314925396784
 40
-2.856314925396784
 40
-2.285401958055257
 40
-2.285401958055257
 40
-1.714051468541442
 40
-1.714051468541442
 40
-1.142700979027627
 40
-1.142700979027627
 40
-0.5713504895138151
 40
-0.5713504895138151
 40
0.0
 40
0.0
 40
0.0
 40
0.0
 10
55.93473227937432
 20
24.32447430097
 30
0.0
 10
56.12518244254557
 20
24.32447430097
 30
0.0
 10
56.32145747558548
 20
24.32870234917569
 30
0.0
 10
56.71060442309977
 20
24.34530269449032
 30
0.0
 10
56.90348376330758
 20
24.35764522241791
 30
0.0
 10
57.27239834220131
 20
24.38679354184503
 30
0.0
 10
57.44876285865598
 20
24.40355970818748
 30
0.0
 10
57.77449294237442
 20
24.43617720165613
 30
0.0
 10
57.92386026380495
 20
24.45195353906376
 30
0.0
 10
58.18814375332647
 20
24.47763749615768
 30
0.0
 10
58.3124029604146
 20
24.48851814773197
 30
0.0
 10
58.53202398694384
 20
24.50072987162371
 30
0.0
 10
58.62740252849926
 20
24.50200013337354
 30
0.0
 10
58.78107561481852
 20
24.49085737365098
 30
0.0
 10
58.83949224968455
 20
24.47839142503036
 30
0.0
 10
58.9163317429859
 20
24.43872596392242
 30
0.0
 10
58.93473227937432
 20
24.41150802289277
 30
0.0
 10
58.93473227937432
 20
24.34541602530259
 30
0.0
 10
58.9163317429859
 20
24.30448607201435
 30
0.0
 10
58.83949224968455
 20
24.20899396409438
 30
0.0
 10
58.78107561481852
 20
24.15444825961543
 30
0.0
 10
58.62740252849926
 20
24.03741641146808
 30
0.0
 10
58.53202398694384
 20
23.97486958821695
 30
0.0
 10
58.3124029604146
 20
23.84952402565053
 30
0.0
 10
58.18814375332636
 20
23.78678544050111
 30
0.0
 10
57.92386026380495
 20
23.66931679072149
 30
0.0
 10
57.77449294237431
 20
23.61038129809821
 30
0.0
 10
57.44876285865598
 20
23.50150530896351
 30
0.0
 10
57.27239834220131
 20
23.4516324786191
 30
0.0
 10
56.90348376330758
 20
23.36913437237424
 30
0.0
 10
56.71060442309977
 20
23.33650642547382
 30
0.0
 10
56.32145747558548
 20
23.29321280967186
 30
0.0
 10
56.12518244254557
 20
23.28258523496848
 30
0.0
 10
55.93473227937432
 20
23.28258523496848
 30
0.0
  0
DIMENSION
  5
1C17A
330
1F
100
AcDbEntity
  8
AM_5
100
AcDbDimension
  2
*D5
 10
99.14205781051066
 20
8.782709042301697
 30
0.0
 11
110.8311412094894
 21
33.21962979819905
 31
0.0
 70
   163
  1
<>
 71
     5
 42
15.99999999999981
  3
AM_JIS$3
100
AcDbDiametricDimension
 15
103.3579421894892
 25
24.217290957698
 35
0.0
 40
0.0
1001
GENIUS_GENDTOL_13
1000

1000
h7
1000

1040
0.0
1001
ACAD
1000
DSTYLE
1002
{
1070
   271
1070
     0
1070
   289
1070
     3
1002
}
  0
LINE
  5
1C17C
330
1F
100
AcDbEntity
  8
AM_7
  6
AM_ISO08W050x2
100
AcDbLine
 10
101.25
 20
27.70813857451881
 30
0.0
 11
101.2499999999999
 21
5.316095409499113
 31
0.0
1001
GENIUS_GENODEF_13
1002
{
1000
HIER
1070
     0
1002
}
1002
{
1000
MANEDIT
1070
     0
1002
}
1002
{
1000
NOSEL
1070
     0
1002
}
1002
{
1000
BEHIND
1070
     0
1002
}
1002
{
1000
REACTOR
1002
}
1001
GENIUS_GENOBJ-N-CEN_13
1002
{
1000
OWNER
1000
GEN
1002
}
  0
LINE
  5
1C17D
330
1F
100
AcDbEntity
  8
AM_0
100
AcDbLine
 10
93.75
 20
19.283882181415
 30
0.0
 11
93.75
 21
13.71611781858498
 31
0.0
  0
LINE
  5
1C17E
330
1F
100
AcDbEntity
  8
AM_0
100
AcDbLine
 10
108.7499999999999
 20
19.283882181415
 30
0.0
 11
108.7499999999999
 21
13.71611781858498
 31
0.0
  0
DIMENSION
  5
1C17F
330
1F
100
AcDbEntity
  8
AM_5
100
AcDbDimension
  2
*D6
 10
108.7499999999999
 20
-7.027023094404953
 30
0.0
 11
101.2499999999999
 21
-7.027023094404953
 31
0.0
 70
   160
  1
<>
 71
     5
 42
14.99999999999994
  3
AM_JIS$0
100
AcDbAlignedDimension
 13
93.75
 23
13.71611781858498
 33
0.0
 14
108.7499999999999
 24
13.71611781858498
 34
0.0
100
AcDbRotatedDimension
1001
GENIUS_GENDTOL_13
1000

1000
h7
1000

1040
0.0
1001
ACAD
1000
DSTYLE
1002
{
1070
   271
1070
     0
1002
}
  0
ARC
  5
1C181
330
1F
100
AcDbEntity
  8
AM_0
100
AcDbCircle
 10
101.2499999999999
 20
16.50000000000002
 30
0.0
 40
8.0
100
AcDbArc
 50
200.3641348063164
 51
339.6358651936804
  0
ARC
  5
1C185
330
1F
100
AcDbEntity
  8
AM_0
100
AcDbCircle
 10
101.2499999999999
 20
16.50000000000002
 30
0.0
 40
8.0
100
AcDbArc
 50
20.3641348063165
 51
159.6358651936835
  0
SPLINE
  5
1C187
330
1F
100
AcDbEntity
  8
AM_0
100
AcDbSpline
210
0.0
220
0.0
230
1.0
 70
    12
 71
     2
 72
     6
 73
     3
 74
     0
 42
0.0000000001
 43
0.0000000001
 40
0.0
 40
0.0
 40
0.0
 40
5.656854249492205
 40
5.656854249492205
 40
5.656854249492205
 10
198.9999999999999
 20
19.28388218141485
 30
0.0
 41
1.0
 10
199.9687499999999
 20
16.49999999999992
 30
0.0
 41
1.066666666666671
 10
198.9999999999999
 20
13.716117818585
 30
0.0
 41
1.0
  0
LINE
  5
1C188
330
1F
100
AcDbEntity
  8
AM_0
100
AcDbLine
 10
199.9999999999999
 20
9.499999999999979
 30
0.0
 11
199.9999999999999
 21
23.49999999999992
 31
0.0
  0
LINE
  5
1C189
330
1F
100
AcDbEntity
  8
AM_0
100
AcDbLine
 10
113.7499999999999
 20
8.500000000000014
 30
0.0
 11
198.9999999999999
 21
8.499999999999979
 31
0.0
  0
LINE
  5
1C18A
330
1F
100
AcDbEntity
  8
AM_0
100
AcDbLine
 10
198.9999999999999
 20
13.716117818585
 30
0.0
 11
113.7499999999999
 21
13.71611781858504
 31
0.0
  0
LINE
  5
1C18B
330
1F
100
AcDbEntity
  8
AM_0
100
AcDbLine
 10
198.9999999999999
 20
8.499999999999979
 30
0.0
 11
198.9999999999999
 21
13.716117818585
 31
0.0
  0
LINE
  5
1C18C
330
1F
100
AcDbEntity
  8
AM_0
100
AcDbLine
 10
199.9999999999999
 20
9.499999999999979
 30
0.0
 11
198.9999999999999
 21
8.499999999999979
 31
0.0
  0
LINE
  5
1C18E
330
1F
100
AcDbEntity
  8
AM_0
100
AcDbLine
 10
113.7499999999999
 20
19.28388218141489
 30
0.0
 11
199.0
 21
19.28388218141485
 31
0.0
  0
LINE
  5
1C18F
330
1F
100
AcDbEntity
  8
AM_0
100
AcDbLine
 10
113.7499999999999
 20
24.49999999999996
 30
0.0
 11
199.0
 21
24.49999999999992
 31
0.0
  0
LINE
  5
1C192
330
1F
100
AcDbEntity
  8
AM_0
100
AcDbLine
 10
198.9999999999999
 20
19.28388218141485
 30
0.0
 11
198.9999999999999
 21
24.49999999999992
 31
0.0
  0
LINE
  5
1C193
330
1F
100
AcDbEntity
  8
AM_0
100
AcDbLine
 10
199.9999999999999
 20
23.49999999999992
 30
0.0
 11
198.9999999999999
 21
24.49999999999992
 31
0.0
  0
LINE
  5
1C199
330
1F
100
AcDbEntity
  8
AM_0
100
AcDbLine
 10
198.9999999999999
 20
-64.78105490027691
 30
0.0
 11
198.9999999999999
 21
-49.78105490027686
 31
0.0
  0
LINE
  5
1C19A
330
1F
100
AcDbEntity
  8
AM_0
100
AcDbLine
 10
199.9999999999999
 20
-64.2810549002768
 30
0.0
 11
199.9999999999999
 21
-50.28105490027686
 31
0.0
  0
SPLINE
  5
1C19B
330
1F
100
AcDbEntity
  8
AM_0
100
AcDbSpline
210
0.0
220
0.0
230
1.0
 70
    28
 71
     2
 72
     6
 73
     3
 74
     0
 42
0.0000000001
 43
0.0000000001
 40
0.0
 40
0.0
 40
0.0
 40
2.828427124746073
 40
2.828427124746073
 40
2.828427124746073
 10
198.9999999999999
 20
-64.78105490027686
 30
0.0
 41
1.0
 10
199.4999999999999
 20
-64.78105490027689
 30
0.0
 41
1.033333333333335
 10
199.4999999999999
 20
-64.78105490027686
 30
0.0
 41
1.033333333333335
  0
LINE
  5
1C19C
330
1F
100
AcDbEntity
  8
AM_0
100
AcDbLine
 10
199.9999999999999
 20
-64.2810549002768
 30
0.0
 11
199.4999999999999
 21
-64.78105490027686
 31
0.0
  0
SPLINE
  5
1C19F
330
1F
100
AcDbEntity
  8
AM_0
100
AcDbSpline
210
0.0
220
0.0
230
1.0
 70
    28
 71
     2
 72
     6
 73
     3
 74
     0
 42
0.0000000001
 43
0.0000000001
 40
2.828427124746073
 40
2.828427124746073
 40
2.828427124746073
 40
5.656854249492205
 40
5.656854249492205
 40
5.656854249492205
 10
199.4999999999999
 20
-49.78105490027687
 30
0.0
 41
1.033333333333335
 10
199.4999999999998
 20
-49.78105490027691
 30
0.0
 41
1.033333333333336
 10
198.9999999999999
 20
-49.78105490027686
 30
0.0
 41
1.0
  0
LINE
  5
1C1A0
330
1F
100
AcDbEntity
  8
AM_0
100
AcDbLine
 10
199.9999999999999
 20
-50.28105490027686
 30
0.0
 11
199.4999999999999
 21
-49.78105490027686
 31
0.0
  0
LINE
  5
1C43B
330
1F
100
AcDbEntity
  8
AM_5
100
AcDbLine
 10
-5.593347524906562
 20
0.0
 30
0.0
 11
0.4020998172312602
 21
0.0
 31
0.0
  0
LINE
  5
1C43D
330
1F
100
AcDbEntity
  8
AM_5
100
AcDbLine
 10
0.0
 20
-4.01657238910704
 30
0.0
 11
0.0
 21
0.3991514293147986
 31
0.0
  0
DIMENSION
  5
1CFEA
330
1F
100
AcDbEntity
  8
AM_5
100
AcDbDimension
  2
*D8
 10
199.9999999999999
 20
-31.02521539496182
 30
0.0
 11
99.99999999999997
 21
-27.62484137921379
 31
0.0
 70
    32
 71
     5
 42
199.9999999999999
  3
AM_JIS$0
100
AcDbAlignedDimension
 13
0.0
 23
0.0
 33
0.0
 14
199.9999999999999
 24
9.499999999999979
 34
0.0
100
AcDbRotatedDimension
1001
ACAD
1000
DSTYLE
1002
{
1070
   179
1070
     2
1070
   271
1070
     0
1002
}
  0
DIMENSION
  5
1D155
330
1F
100
AcDbEntity
  8
AM_5
100
AcDbDimension
  2
*D9
 10
-12.00000101000001
 20
16.50000000000001
 30
0.0
 11
-15.40000101000001
 21
8.250000000000005
 31
0.0
 70
    32
 71
     5
 42
16.50000000000001
  3
AM_JIS$0
100
AcDbAlignedDimension
 13
-5.593347524906562
 23
0.0
 33
0.0
 14
-2.165548451965833
 24
16.50000000000001
 34
0.0
 50
90.0
100
AcDbRotatedDimension
1001
ACAD
1000
DSTYLE
1002
{
1070
   179
1070
     2
1070
   271
1070
     1
1002
}
  0
DIMENSION
  5
1D181
330
1F
100
AcDbEntity
  8
AM_5
100
AcDbDimension
  2
*D10
 10
0.5090021295516181
 20
10.1217957200754
 30
0.0
 11
-25.51601750780964
 21
26.86565936763318
 31
0.0
 70
    34
 71
     5
 42
1.623156204354729
  3
AM_JIS$2
100
AcDb2LineAngularDimension
 13
-5.593347524906562
 23
0.0
 33
0.0
 14
0.4020998172312602
 24
0.0
 34
0.0
 15
0.0005391563458943
 25
0.4197442276887671
 35
0.0
 16
-15.81305346340975
 26
29.69967018935568
 36
0.0
1001
ACAD
1000
DSTYLE
1002
{
1070
   271
1070
     1
1002
}
  0
DIMENSION
  5
1D1F3
330
1F
100
AcDbEntity
  8
AM_5
100
AcDbDimension
  2
*D11
 10
-55.53957407201415
 20
0.1505256169789817
 30
0.0
 11
-63.38955443659848
 21
-19.14046173330715
 31
0.0
 70
   162
 71
     5
 42
0.1691889414354701
  3
AM_JIS$2
100
AcDb2LineAngularDimension
 13
-55.59466898602125
 23
32.97866351642649
 33
0.0
 14
-55.59466898602125
 24
-2.894879724441481
 34
0.0
 15
-54.23757357875411
 25
7.772498421841547
 35
0.0
 16
-56.75061045540218
 26
-20.64702349103641
 36
0.0
1001
ACAD
1000
DSTYLE
1002
{
1070
   179
1070
     0
1070
   271
1070
     1
1002
}
  0
ENDSEC
  0
SECTION
  2
OBJECTS
  0
DICTIONARY
  5
C
330
0
100
AcDbDictionary
281
     1
  3
ACAD_COLOR
350
1CA24
  3
ACAD_GROUP
350
D
  3
ACAD_LAYOUT
350
1A
  3
ACAD_MATERIAL
350
1CA23
  3
ACAD_MLINESTYLE
350
17
  3
ACAD_PLOTSETTINGS
350
19
  3
ACAD_PLOTSTYLENAME
350
E
  3
ACAD_TABLESTYLE
350
1CA25
  3
AcAmCatalogState
350
1CA8C
  3
ACDBHEADERROUNDTRIPXREC
350
1D525
  3
AcDbVariableDictionary
350
30
  3
ACDMSYSVARMGR
350
1CA3F
  3
ACGREF_MASTER
350
1CA37
  3
ACGREFACAD_MASTER
350
1CA5F
  3
AcmDictionary
350
4D
  3
ACME_BOM_MANAGER_NAME
350
36
  3
ACME_COMMAND_HISTORY
350
2F
  3
ACME_SCOPE_NAME
350
2E
  3
ACMESTATEMGR
350
3B
  3
AcmeSysVarManager
350
32
  3
AcmSystemVariableManager
350
6A
  3
AD_APPL
350
1CA6A
  3
ADSYSVARMGR
350
1CA69
  3
AmdtNamedDwgMgr
350
1CA5A
  3
AMG
350
3F
  3
AMGSNAPSETTINGS
350
73
  3
AMI_MASTER
350
1CA62
  3
ASE_INDEX_DICTIONARY
350
1CB96
  3
AUTOCAD_ASSEMBLIES_PROJECT
350
1CA72
  3
Designer_Assemblies_SysVars
350
1CA6D
  3
DWGPROPS
350
1D528
  3
eng_data
350
2A40
  3
FILENAME
350
2916
  3
GREFAM_MODULE
350
1CA63
  3
line_dic_data
350
2A3E
  3
table_dic_data
350
1688
  3
ZWKSIZE
350
2918
  0
DICTIONARY
  5
1CF13
330
2
100
AcDbDictionary
280
     1
281
     1
  3
ACAD_LAYERSTATES
360
1CF14
  0
DICTIONARY
  5
165
330
1F
100
AcDbDictionary
280
     1
281
     1
  0
DICTIONARY
  5
1CA24
102
{ACAD_REACTORS
330
C
102
}
330
C
100
AcDbDictionary
281
     1
  0
DICTIONARY
  5
D
102
{ACAD_REACTORS
330
C
102
}
330
C
100
AcDbDictionary
281
     1
  0
DICTIONARY
  5
1A
102
{ACAD_REACTORS
330
C
102
}
330
C
100
AcDbDictionary
281
     1
  3
Model
350
22
  3
ﾚｲｱｳﾄ1
350
1E
  3
ﾚｲｱｳﾄ2
350
26
  0
DICTIONARY
  5
1CA23
102
{ACAD_REACTORS
330
C
102
}
330
C
100
AcDbDictionary
281
     1
  0
DICTIONARY
  5
17
102
{ACAD_REACTORS
330
C
102
}
330
C
100
AcDbDictionary
281
     1
  3
Standard
350
18
  0
DICTIONARY
  5
19
102
{ACAD_REACTORS
330
C
102
}
330
C
100
AcDbDictionary
281
     1
  0
ACDBDICTIONARYWDFLT
  5
E
102
{ACAD_REACTORS
330
C
102
}
330
C
100
AcDbDictionary
281
     1
  3
Normal
350
F
100
AcDbDictionaryWithDefault
340
F
  0
DICTIONARY
  5
1CA25
102
{ACAD_REACTORS
330
C
102
}
330
C
100
AcDbDictionary
281
     1
  3
Standard
350
1CA26
  0
ACAD_PROXY_OBJECT
  5
1CA8C
102
{ACAD_REACTORS
330
C
102
}
330
C
100
AcDbProxyObject
 90
      499
 91
      571
 95
       25
 70
     0
 93
      648
310
3FFFFFFFE00A02814029F2E2E2816B9B2B93B32B92E483ECB652E4AABC7C0483ECB652E487CC6F6CBB846A445F7AE41BDC1B341A12E4B34482AE76F586C6EDC6F14413BC1B7C0AD94C009B12632935F901
  0
DICTIONARY
  5
1D525
102
{ACAD_REACTORS
330
C
102
}
330
C
100
AcDbDictionary
281
     1
  3
COLORDICT
350
1D526
  3
MATERIALDICT
350
1D527
  0
DICTIONARY
  5
30
102
{ACAD_REACTORS
330
C
102
}
330
C
100
AcDbDictionary
281
     1
  3
CTABLESTYLE
350
1CA97
  3
HIDETEXT
350
1D524
  3
INDEXCTL
350
1D523
  0
ACAD_PROXY_OBJECT
  5
1CA3F
102
{ACAD_REACTORS
330
C
102
}
330
C
100
AcDbProxyObject
 90
      499
 91
      507
 95
       25
 70
     0
 93
      240
310
4C51A47A0000000000000000000000000000000000000000000000000000
330
1CA40
330
1CA41
330
1CA42
330
1CA43
330
1CA44
330
1CA45
330
1CA46
330
1CA47
330
1CA48
330
1CA49
330
1CA4A
330
1CA4B
330
1CA4C
330
1CA4D
330
1CA4E
330
1CA4F
330
1CA50
330
1CA51
330
1CA52
330
1CA53
330
1CA54
330
1CA55
330
1CA56
330
1CA57
330
1CA58
330
1CA59
 94
        0
  0
ACAD_PROXY_OBJECT
  5
1CA37
102
{ACAD_REACTORS
330
C
102
}
330
C
100
AcDbProxyObject
 90
      499
 91
      535
 95
       25
 70
     0
 93
       34
310
0400004280
  0
ACAD_PROXY_OBJECT
  5
1CA5F
102
{ACAD_REACTORS
330
C
102
}
330
C
100
AcDbProxyObject
 90
      499
 91
      541
 95
       25
 70
     0
 93
      114
310
04000041C080000000000000000000
  0
DICTIONARY
  5
4D
102
{ACAD_REACTORS
330
C
102
}
330
C
100
AcDbDictionary
281
     1
  3
AcmBOMDATA
350
4E
  3
AcmStdDictionary
350
17E
  3
AMDTSECTSYM_ARROWCOLOR
350
1CA80
  0
ACAD_PROXY_OBJECT
  5
36
102
{ACAD_REACTORS
330
C
102
}
330
C
100
AcDbProxyObject
 90
      499
 91
      510
 95
       25
 70
     0
 93
       50
310
00010040400000
330
0
330
0
330
37
 94
        0
  0
ACAD_PROXY_OBJECT
  5
2F
102
{ACAD_REACTORS
330
C
102
}
330
C
100
AcDbProxyObject
 90
      499
 91
      505
 95
       25
 70
     0
 93
     6654
310
478050C475249505F535452455443488050C475249505F53545245544348805055153415645408052D4D5347202D205050413A2020206465736B746F702E6172782046696C6556657273696F6E3A20392E322E302E34014B5354D1C80B481414104E88080819195CDADD1BDC0B985C9E08119A5B1955995C9CDA5BDB8E880E
310
4B8C8B8C0B8D0050E414D4454524553455444424D4F4440805084E202D20554E444F014213880B4815539113C0504554E444F80504554E444F805045A4F4F4D805055055524745805055153415645404052D4D5347202D205050413A2020206465736B746F702E6172782046696C6556657273696F6E3A20392E322E302E34
310
01415454D05591501014B5354D1C80B481414104E88080819195CDADD1BDC0B985C9E08119A5B1955995C9CDA5BDB8E880E4B8C8B8C0B8D005074F5054494F4E5340405184D5347202D20436F6D6D616E642043414E43454C4C45442E01415454D05591501014B5354D1C80B481414104E88080819195CDADD1BDC0B985C9E
310
08119A5B1955995C9CDA5BDB8E880E4B8C8B8C0B8D0050E414D4454524553455444424D4F4440805084E202D20554E444F014213880B4815539113C0504554E444F80504554E444F805055153415645404052D4D5347202D205050413A2020206465736B746F702E6172782046696C6556657273696F6E3A20392E322E302E
310
34014390535115149154D15511109353D1102014213880B4815539113C05084E202D20554E444F014115539113E014115539113E01419493D510551160142111493D411D153D3601411353D591601411693D3D3501014B5354D1C80B481414104E88080819195CDADD1BDC0B985C9E08119A5B1955995C9CDA5BDB8E880E4B
310
8C8B8C0B8D0050C475249505F535452455443488050C475249505F53545245544348805055153415645404052D4D5347202D205050413A2020206465736B746F702E6172782046696C6556657273696F6E3A20392E322E302E34014390535115149154D15511109353D1102014213880B4815539113C05084E202D20554E44
310
4F014115539113E014115539113E014154155491D1501014B5354D1C80B481414104E88080819195CDADD1BDC0B985C9E08119A5B1955995C9CDA5BDB8E880E4B8C8B8C0B8D0
  0
ACAD_PROXY_OBJECT
  5
2E
102
{ACAD_REACTORS
330
C
102
}
330
C
100
AcDbProxyObject
 90
      499
 91
      504
 95
       25
 70
     0
 93
      586
310
09000046408000000000000000001344E200000000000000000000000000000000000000000000000000000000000000000000000000000000000000000000000000000000AAA406AA80
360
33
360
34
360
35
360
37
360
6B
360
6C
360
1CA38
360
1CA39
360
1CA3A
360
1CA3B
360
1CA3C
360
1CA3D
360
1CA40
360
1CA41
360
1CA42
360
1CA43
360
1CA44
360
1CA45
360
1CA46
360
1CA47
360
1CA48
360
1CA49
360
1CA4A
360
1CA4B
360
1CA4C
360
1CA4D
360
1CA4E
360
1CA4F
360
1CA50
360
1CA51
360
1CA52
360
1CA53
360
1CA54
360
1CA55
360
1CA56
360
1CA57
360
1CA58
360
1CA59
360
1CA65
360
1CA66
360
1CA67
360
1CA68
360
1CA6E
360
1CA6F
360
1CA70
360
1CA71
360
1CA76
360
1CA77
360
1CA78
360
1CA79
360
1CA7A
360
1CA7B
 94
        0
  0
ACAD_PROXY_OBJECT
  5
3B
102
{ACAD_REACTORS
330
C
102
}
330
C
100
AcDbProxyObject
 90
      499
 91
      515
 95
       25
 70
     0
 93
       50
310
09000042641280
  0
ACAD_PROXY_OBJECT
  5
32
102
{ACAD_REACTORS
330
C
102
}
330
C
100
AcDbProxyObject
 90
      499
 91
      507
 95
       25
 70
     0
 93
       48
310
903412000000
330
33
330
34
330
35
 94
        0
  0
ACAD_PROXY_OBJECT
  5
6A
102
{ACAD_REACTORS
330
C
102
}
330
C
100
AcDbProxyObject
 90
      499
 91
      507
 95
       25
 70
     0
 93
       40
310
90240E0000
330
6B
330
6C
 94
        0
  0
ACAD_PROXY_OBJECT
  5
1CA6A
102
{ACAD_REACTORS
330
C
102
}
330
C
100
AcDbProxyObject
 90
      499
 91
      551
 95
       25
 70
     0
 93
       42
310
000900004040
330
1CA65
 94
        0
  0
ACAD_PROXY_OBJECT
  5
1CA69
102
{ACAD_REACTORS
330
C
102
}
330
C
100
AcDbProxyObject
 90
      499
 91
      507
 95
       25
 70
     0
 93
        8
310
AA
  0
ACAD_PROXY_OBJECT
  5
1CA5A
102
{ACAD_REACTORS
330
C
102
}
330
C
100
AcDbProxyObject
 90
      499
 91
      540
 95
       25
 70
     0
 93
       42
310
000100005E80
330
1CA38
 94
        0
  0
DICTIONARY
  5
3F
102
{ACAD_REACTORS
330
C
102
}
330
C
100
AcDbDictionary
281
     1
  3
AcMgSettings
350
40
  3
AMGLAYCFG
350
42
  0
DICTIONARY
  5
73
102
{ACAD_REACTORS
330
C
102
}
330
C
100
AcDbDictionary
281
     1
  3
DIMENSION
350
62F
  3
FEA
350
630
  3
HATCH (1)
350
631
  3
HATCH (2)
350
632
  3
SYMBOLS
350
633
  0
ACAD_PROXY_OBJECT
  5
1CA62
102
{ACAD_REACTORS
330
C
102
}
330
C
100
AcDbProxyObject
 90
      499
 91
      544
 95
       25
 70
     0
 93
       34
310
0500004280
  0
DICTIONARY
  5
1CB96
102
{ACAD_REACTORS
330
C
102
}
330
C
100
AcDbDictionary
281
     1
  3
ASEBlockHierarchyIndexRecord
350
1CB98
1001
DCO15
1040
1562583754.734
  0
ACAD_PROXY_OBJECT
  5
1CA72
102
{ACAD_REACTORS
330
C
102
}
330
C
100
AcDbProxyObject
 90
      499
 91
      554
 95
       25
 70
     0
 93
       98
310
0900004E400000000000000000
330
1CA79
330
0
330
1CA7A
330
0
330
0
330
0
330
0
330
0
 94
        0
  0
ACAD_PROXY_OBJECT
  5
1CA6D
102
{ACAD_REACTORS
330
C
102
}
330
C
100
AcDbProxyObject
 90
      499
 91
      507
 95
       25
 70
     0
 93
       56
310
90441600000000
330
1CA6E
330
1CA6F
330
1CA70
330
1CA71
 94
        0
  0
XRECORD
  5
1D528
102
{ACAD_REACTORS
330
C
102
}
330
C
100
AcDbXrecord
280
     1
  1
DWGPROPS COOKIE
  2

  3

  4

  6

  7

  8

  9

300
AmdtFileType=82
301
=
302
=
303
=
304
=
305
=
306
=
307
=
308
=
309
=
 40
0.0
 41
2451943.235431667
 42
2455482.218004375
  1

 90
        1
  0
DICTIONARY
  5
2A40
102
{ACAD_REACTORS
330
C
102
}
330
C
100
AcDbDictionary
281
     1
  3
eng_id
350
2A41
  0
DICTIONARY
  5
2916
102
{ACAD_REACTORS
330
C
102
}
330
C
100
AcDbDictionary
281
     1
  3
FILENAME
350
2917
  0
ACAD_PROXY_OBJECT
  5
1CA63
102
{ACAD_REACTORS
330
C
102
}
330
C
100
AcDbProxyObject
 90
      499
 91
      545
 95
       25
 70
     0
 93
        8
310
05
  0
DICTIONARY
  5
2A3E
102
{ACAD_REACTORS
330
C
102
}
330
C
100
AcDbDictionary
281
     1
  3
line_data
350
2A3F
  0
DICTIONARY
  5
1688
102
{ACAD_REACTORS
330
C
102
}
330
C
100
AcDbDictionary
281
     1
  3
input_data
350
168A
  3
table_data
350
1689
  0
DICTIONARY
  5
2918
102
{ACAD_REACTORS
330
C
102
}
330
C
100
AcDbDictionary
281
     1
  3
ZWKSIZE
350
2919
  0
DICTIONARY
  5
1CF14
102
{ACAD_REACTORS
330
1CF13
102
}
330
1CF13
100
AcDbDictionary
281
     1
  0
LAYOUT
  5
22
102
{ACAD_REACTORS
330
1A
102
}
330
1A
100
AcDbPlotSettings
  1

  2
SII LP-2150 (D-SCAN C2)
  4
User262
  6
AM_VIEW1
 40
3.174999952316284
 41
3.174999952316284
 42
3.17498779296875
 43
3.17498779296875
 44
296.9259948730469
 45
419.9889831542969
 46
0.0
 47
0.0
 48
0.0
 49
0.0
140
420.0
141
297.0
142
1.0
143
1.022107788374329
 70
 11952
 72
     1
 73
     1
 74
     4
  7
sei_cad.ctb
 75
     0
147
0.9783703943695685
148
0.0
149
0.0
100
AcDbLayout
  1
Model
 70
     1
 71
     0
 10
0.0
 20
0.0
 11
12.0
 21
9.0
 12
0.0
 22
0.0
 32
0.0
 14
0.0
 24
0.0
 34
0.0
 15
0.0
 25
0.0
 35
0.0
146
0.0
 13
0.0
 23
0.0
 33
0.0
 16
1.0
 26
0.0
 36
0.0
 17
0.0
 27
1.0
 37
0.0
 76
     0
330
1F
  0
LAYOUT
  5
1E
102
{ACAD_REACTORS
330
1A
102
}
330
1A
100
AcDbPlotSettings
  1

  2
Canon LASER SHOT LBP-2030
  4

  6

 40
0.0
 41
0.0
 42
0.0
 43
0.0
 44
0.0
 45
0.0
 46
0.0
 47
0.0
 48
0.0
 49
0.0
140
0.0
141
0.0
142
1.0
143
1.0
 70
   688
 72
     0
 73
     0
 74
     5
  7
sei_cad.ctb
 75
    16
147
1.0
148
0.0
149
0.0
100
AcDbLayout
  1
ﾚｲｱｳﾄ1
 70
     1
 71
     1
 10
0.0
 20
0.0
 11
420.0
 21
297.0
 12
0.0
 22
0.0
 32
0.0
 14
1.000000000000000E+20
 24
1.000000000000000E+20
 34
1.000000000000000E+20
 15
-1.000000000000000E+20
 25
-1.000000000000000E+20
 35
-1.000000000000000E+20
146
0.0
 13
0.0
 23
0.0
 33
0.0
 16
1.0
 26
0.0
 36
0.0
 17
0.0
 27
1.0
 37
0.0
 76
     0
330
1B
  0
LAYOUT
  5
26
102
{ACAD_REACTORS
330
1A
102
}
330
1A
100
AcDbPlotSettings
  1

  2
Canon LASER SHOT LBP-2030
  4

  6

 40
0.0
 41
0.0
 42
0.0
 43
0.0
 44
0.0
 45
0.0
 46
0.0
 47
0.0
 48
0.0
 49
0.0
140
0.0
141
0.0
142
1.0
143
1.0
 70
   688
 72
     0
 73
     0
 74
     5
  7
sei_cad.ctb
 75
    16
147
1.0
148
0.0
149
0.0
100
AcDbLayout
  1
ﾚｲｱｳﾄ2
 70
     1
 71
     2
 10
0.0
 20
0.0
 11
12.0
 21
9.0
 12
0.0
 22
0.0
 32
0.0
 14
0.0
 24
0.0
 34
0.0
 15
0.0
 25
0.0
 35
0.0
146
0.0
 13
0.0
 23
0.0
 33
0.0
 16
1.0
 26
0.0
 36
0.0
 17
0.0
 27
1.0
 37
0.0
 76
     0
330
23
  0
MLINESTYLE
  5
18
102
{ACAD_REACTORS
330
17
102
}
330
17
100
AcDbMlineStyle
  2
STANDARD
 70
     0
  3

 62
   256
 51
90.0
 52
90.0
 71
     2
 49
0.5
 62
   256
  6
BYLAYER
 49
-0.5
 62
   256
  6
BYLAYER
  0
ACDBPLACEHOLDER
  5
F
102
{ACAD_REACTORS
330
E
102
}
330
E
  0
TABLESTYLE
  5
1CA26
102
{ACAD_REACTORS
330
1CA25
102
}
330
1CA25
100
AcDbTableStyle
  3
Standard
 70
     0
 71
     8
 40
1.5
 41
1.5
280
     0
281
     0
  7
STANDARD
140
4.5
170
     2
 62
     0
 63
     7
283
     0
274
    -2
284
     1
 64
     0
275
    -2
285
     1
 65
     0
276
    -2
286
     1
 66
     0
277
    -2
287
     1
 67
     0
278
    -2
288
     1
 68
     0
279
    -2
289
     1
 69
     0
  7
STANDARD
140
6.0
170
     5
 62
     0
 63
     7
283
     0
274
    -2
284
     1
 64
     0
275
    -2
285
     1
 65
     0
276
    -2
286
     1
 66
     0
277
    -2
287
     1
 67
     0
278
    -2
288
     1
 68
     0
279
    -2
289
     1
 69
     0
  7
STANDARD
140
4.5
170
     5
 62
     0
 63
     7
283
     0
274
    -2
284
     1
 64
     0
275
    -2
285
     1
 65
     0
276
    -2
286
     1
 66
     0
277
    -2
287
     1
 67
     0
278
    -2
288
     1
 68
     0
279
    -2
289
     1
 69
     0
  0
XRECORD
  5
1D526
102
{ACAD_REACTORS
330
1D525
102
}
330
1D525
100
AcDbXrecord
280
     1
340
1CA24
  0
XRECORD
  5
1D527
102
{ACAD_REACTORS
330
1D525
102
}
330
1D525
100
AcDbXrecord
280
     1
340
1CA23
  0
DICTIONARYVAR
  5
1CA97
102
{ACAD_REACTORS
330
30
102
}
330
30
100
DictionaryVariables
280
     0
  1
STANDARD
  0
DICTIONARYVAR
  5
1D524
102
{ACAD_REACTORS
330
30
102
}
330
30
100
DictionaryVariables
280
     0
  1
0
  0
DICTIONARYVAR
  5
1D523
102
{ACAD_REACTORS
330
30
102
}
330
30
100
DictionaryVariables
280
     0
  1
1
  0
ACAD_PROXY_OBJECT
  5
4E
102
{ACAD_REACTORS
330
4D
102
}
330
4D
100
AcDbProxyObject
 90
      499
 91
      520
 95
       25
 70
     0
 93
      118
310
405010040CA904C415CD5B075DD0D8
350
4F
 94
        0
  0
DICTIONARY
  5
17E
102
{ACAD_REACTORS
330
4D
102
}
330
4D
100
AcDbDictionary
281
     1
  3
JIS
350
17F
  0
XRECORD
  5
1CA80
102
{ACAD_REACTORS
330
4D
102
}
330
4D
100
AcDbXrecord
280
     1
 90
-1023410169
  0
ACAD_PROXY_OBJECT
  5
33
330
2E
100
AcDbProxyObject
 90
      499
 91
      508
 95
       25
 70
     0
 93
      156
310
00010143D050D351505391D5531054925390D490
330
2E
 94
        0
  0
ACAD_PROXY_OBJECT
  5
34
330
2E
100
AcDbProxyObject
 90
      499
 91
      508
 95
       25
 70
     0
 93
      148
310
000101439050D351531253915054925390D490
330
2E
 94
        0
  0
ACAD_PROXY_OBJECT
  5
35
330
2E
100
AcDbProxyObject
 90
      499
 91
      509
 95
       25
 70
     0
 93
      156
310
000101439050D35154D6535093D314D256915080
330
2E
 94
        0
  0
ACAD_PROXY_OBJECT
  5
37
330
2E
100
AcDbProxyObject
 90
      499
 91
      511
 95
       25
 70
     0
 93
       88
310
000101411093D34C402B00
330
2E
330
0
330
0
 94
        0
  0
ACAD_PROXY_OBJECT
  5
6B
330
2E
100
AcDbProxyObject
 90
      499
 91
      509
 95
       25
 70
     0
 93
      108
310
00010142505351D153D35054D4E0
330
2E
 94
        0
  0
ACAD_PROXY_OBJECT
  5
6C
330
2E
100
AcDbProxyObject
 90
      499
 91
      522
 95
       25
 70
     0
 93
      140
310
00010142105350D55494D511005034A49530
330
2E
 94
        0
  0
ACAD_PROXY_OBJECT
  5
1CA38
330
2E
100
AcDbProxyObject
 90
      499
 91
      536
 95
       25
 70
     0
 93
      358
310
0001014124FEA55D00507392E322E302E32014124FEA55D00507392E322E302E3240501000041505391D311658
330
2E
330
1CA39
330
1CA3F
 94
        0
  0
ACAD_PROXY_OBJECT
  5
1CA39
330
2E
100
AcDbProxyObject
 90
      499
 91
      537
 95
       25
 70
     0
 93
       56
310
000190240E0000
330
2E
330
1CA3A
330
1CA3C
 94
        0
  0
ACAD_PROXY_OBJECT
  5
1CA3A
330
2E
100
AcDbProxyObject
 90
      499
 91
      538
 95
       25
 70
     0
 93
       48
310
0001AA000000
330
2E
330
1E
330
1CA3B
330
0
 94
        0
  0
ACAD_PROXY_OBJECT
  5
1CA3B
330
2E
100
AcDbProxyObject
 90
      499
 91
      539
 95
       25
 70
     0
 93
       28
310
0001AAA0
330
2E
 94
        0
  0
ACAD_PROXY_OBJECT
  5
1CA3C
330
2E
100
AcDbProxyObject
 90
      499
 91
      538
 95
       25
 70
     0
 93
       48
310
0001AA000000
330
2E
330
26
330
1CA3D
330
0
 94
        0
  0
ACAD_PROXY_OBJECT
  5
1CA3D
330
2E
100
AcDbProxyObject
 90
      499
 91
      539
 95
       25
 70
     0
 93
       28
310
0001AAA0
330
2E
 94
        0
  0
ACAD_PROXY_OBJECT
  5
1CA40
330
2E
100
AcDbProxyObject
 90
      499
 91
      509
 95
       25
 70
     0
 93
      108
310
000101421053521310D05310D010
330
2E
 94
        0
  0
ACAD_PROXY_OBJECT
  5
1CA41
330
2E
100
AcDbProxyObject
 90
      499
 91
      509
 95
       25
 70
     0
 93
      124
310
00010142905354915554D15112535010
330
2E
 94
        0
  0
ACAD_PROXY_OBJECT
  5
1CA42
330
2E
100
AcDbProxyObject
 90
      499
 91
      509
 95
       25
 70
     0
 93
      132
310
00010143105354D150D51253D391125360
330
2E
 94
        0
  0
ACAD_PROXY_OBJECT
  5
1CA43
330
2E
100
AcDbProxyObject
 90
      499
 91
      509
 95
       25
 70
     0
 93
      124
310
00010142905355941093D49111549010
330
2E
 94
        0
  0
ACAD_PROXY_OBJECT
  5
1CA44
330
2E
100
AcDbProxyObject
 90
      499
 91
      509
 95
       25
 70
     0
 93
      116
310
0001014290535115D1D0D3D313D4A0
330
2E
 94
        0
  0
ACAD_PROXY_OBJECT
  5
1CA45
330
2E
100
AcDbProxyObject
 90
      499
 91
      509
 95
       25
 70
     0
 93
      148
310
00010143505355925155D49151949154D21010
330
2E
 94
        0
  0
ACAD_PROXY_OBJECT
  5
1CA46
330
2E
100
AcDbProxyObject
 90
      499
 91
      509
 95
       25
 70
     0
 93
      172
310
00010144105350539393D51154149154D15495915010
330
2E
 94
        0
  0
ACAD_PROXY_OBJECT
  5
1CA47
330
2E
100
AcDbProxyObject
 90
      499
 91
      509
 95
       25
 70
     0
 93
      172
310
00010144105350555513D11253505494905391D15010
330
2E
 94
        0
  0
ACAD_PROXY_OBJECT
  5
1CA48
330
2E
100
AcDbProxyObject
 90
      499
 91
      509
 95
       25
 70
     0
 93
      124
310
00010142D05351561514915191125360
330
2E
 94
        0
  0
ACAD_PROXY_OBJECT
  5
1CA49
330
2E
100
AcDbProxyObject
 90
      499
 91
      509
 95
       25
 70
     0
 93
      132
310
00010142D05355105410539393D5115010
330
2E
 94
        0
  0
ACAD_PROXY_OBJECT
  5
1CA4A
330
2E
100
AcDbProxyObject
 90
      499
 91
      509
 95
       25
 70
     0
 93
      108
310
00010142105350555513D0D31010
330
2E
 94
        0
  0
ACAD_PROXY_OBJECT
  5
1CA4B
330
2E
100
AcDbProxyObject
 90
      499
 91
      509
 95
       25
 70
     0
 93
      108
310
00010142105350D3119150551050
330
2E
 94
        0
  0
ACAD_PROXY_OBJECT
  5
1CA4C
330
2E
100
AcDbProxyObject
 90
      499
 91
      509
 95
       25
 70
     0
 93
      108
310
00010142105350D315925155D3F0
330
2E
 94
        0
  0
ACAD_PROXY_OBJECT
  5
1CA4D
330
2E
100
AcDbProxyObject
 90
      499
 91
      509
 95
       25
 70
     0
 93
      148
310
0001014350535212511156915493D112535010
330
2E
 94
        0
  0
ACAD_PROXY_OBJECT
  5
1CA4E
330
2E
100
AcDbProxyObject
 90
      499
 91
      509
 95
       25
 70
     0
 93
      124
310
00010142905352105510D21254D3D010
330
2E
 94
        0
  0
ACAD_PROXY_OBJECT
  5
1CA4F
330
2E
100
AcDbProxyObject
 90
      499
 91
      509
 95
       25
 70
     0
 93
      148
310
00010143905354D25391D31152105513105660
330
2E
 94
        0
  0
ACAD_PROXY_OBJECT
  5
1CA50
330
2E
100
AcDbProxyObject
 90
      499
 91
      509
 95
       25
 70
     0
 93
      124
310
00010142D0535115D1D193111254D420
330
2E
 94
        0
  0
ACAD_PROXY_OBJECT
  5
1CA51
330
2E
100
AcDbProxyObject
 90
      499
 91
      509
 95
       25
 70
     0
 93
      100
310
00010142105350555513D213A0
330
2E
 94
        0
  0
ACAD_PROXY_OBJECT
  5
1CA52
330
2E
100
AcDbProxyObject
 90
      499
 91
      509
 95
       25
 70
     0
 93
      116
310
000101425053521390D3D553951010
330
2E
 94
        0
  0
ACAD_PROXY_OBJECT
  5
1CA53
330
2E
100
AcDbProxyObject
 90
      499
 91
      509
 95
       25
 70
     0
 93
      108
310
0001014210535213941493D29010
330
2E
 94
        0
  0
ACAD_PROXY_OBJECT
  5
1CA54
330
2E
100
AcDbProxyObject
 90
      499
 91
      509
 95
       25
 70
     0
 93
      108
310
0001014210535213951654115070
330
2E
 94
        0
  0
ACAD_PROXY_OBJECT
  5
1CA55
330
2E
100
AcDbProxyObject
 90
      499
 91
      509
 95
       25
 70
     0
 93
      108
310
000101421053521395925155D0F0
330
2E
 94
        0
  0
ACAD_PROXY_OBJECT
  5
1CA56
330
2E
100
AcDbProxyObject
 90
      499
 91
      509
 95
       25
 70
     0
 93
      140
310
00010143505354D150D51253D390D3D41660
330
2E
 94
        0
  0
ACAD_PROXY_OBJECT
  5
1CA57
330
2E
100
AcDbProxyObject
 90
      499
 91
      509
 95
       25
 70
     0
 93
      108
310
00010142105350D3141493D29030
330
2E
 94
        0
  0
ACAD_PROXY_OBJECT
  5
1CA58
330
2E
100
AcDbProxyObject
 90
      499
 91
      508
 95
       25
 70
     0
 93
      212
310
00010143905350555513D2105510D21493D500000000000002E400
330
2E
 94
        0
  0
ACAD_PROXY_OBJECT
  5
1CA59
330
2E
100
AcDbProxyObject
 90
      499
 91
      509
 95
       25
 70
     0
 93
      156
310
00010143905350555513D2105510D21111551010
330
2E
 94
        0
  0
ACAD_PROXY_OBJECT
  5
1CA65
330
2E
100
AcDbProxyObject
 90
      499
 91
      547
 95
       25
 70
     0
 93
      698
310
0001000000009AA6A9AA4051E546875205365702030382030343A33333A353020323030352028555443290141CE4B8C8B8C0B8C80518547565204F63742031322031343A31333A353520323031300141CE4B8C8B8C0B8C80
330
2E
330
1CA66
330
1CA67
330
1CA69
330
0
 94
        0
  0
ACAD_PROXY_OBJECT
  5
1CA66
330
2E
100
AcDbProxyObject
 90
      499
 91
      548
 95
       25
 70
     0
 93
       70
310
0001AAA80820000000
330
2E
330
1CA66
330
1CA66
 94
        0
  0
ACAD_PROXY_OBJECT
  5
1CA67
330
2E
100
AcDbProxyObject
 90
      499
 91
      549
 95
       25
 70
     0
 93
       48
310
000100000000
330
2E
330
0
330
1CA68
330
0
330
0
 94
        0
  0
ACAD_PROXY_OBJECT
  5
1CA68
330
2E
100
AcDbProxyObject
 90
      499
 91
      550
 95
       25
 70
     0
 93
       40
310
000100AAAA
330
2E
330
0
 94
        0
  0
ACAD_PROXY_OBJECT
  5
1CA6E
330
2E
100
AcDbProxyObject
 90
      499
 91
      522
 95
       25
 70
     0
 93
      180
310
00010143105050D3D35411119390535140504434F4D500
330
2E
 94
        0
  0
ACAD_PROXY_OBJECT
  5
1CA6F
330
2E
100
AcDbProxyObject
 90
      499
 91
      522
 95
       25
 70
     0
 93
      212
310
0001014390505193D311115491119390535140506466F6C6465720
330
2E
 94
        0
  0
ACAD_PROXY_OBJECT
  5
1CA70
330
2E
100
AcDbProxyObject
 90
      499
 91
      522
 95
       25
 70
     0
 93
      180
310
00010143105050539393D1119390535140504284156290
330
2E
 94
        0
  0
ACAD_PROXY_OBJECT
  5
1CA71
330
2E
100
AcDbProxyObject
 90
      499
 91
      522
 95
       25
 70
     0
 93
      436
310
00010143905050D3D35415925155D31254D50052295BD96CA0A90B396CA0A894591A496CA0A8DB691A496CA0A89BA96CA0A95E28F95310
330
2E
 94
        0
  0
ACAD_PROXY_OBJECT
  5
1CA76
330
2E
100
AcDbProxyObject
 90
      499
 91
      555
 95
       25
 70
     0
 93
       32
310
00010000
330
2E
340
1CA73
330
1CA78
330
1CA73
 94
        0
  0
ACAD_PROXY_OBJECT
  5
1CA77
330
2E
100
AcDbProxyObject
 90
      499
 91
      556
 95
       25
 70
     0
 93
       18
310
000180
330
2E
 94
        0
  0
ACAD_PROXY_OBJECT
  5
1CA78
330
2E
100
AcDbProxyObject
 90
      499
 91
      557
 95
       25
 70
     0
 93
      226
310
00010144508C4D948B54D59550948C4C4C0CCB4C8D5050055401550000
330
2E
330
1CA76
330
1CA77
 94
        0
  0
ACAD_PROXY_OBJECT
  5
1CA79
330
2E
100
AcDbProxyObject
 90
      499
 91
      558
 95
       25
 70
     0
 93
      178
310
000100AAAAAA83536386917EC0516D120122AA0CEE6580
330
2E
330
1CA78
 94
        0
  0
ACAD_PROXY_OBJECT
  5
1CA7A
330
2E
100
AcDbProxyObject
 90
      499
 91
      559
 95
       25
 70
     0
 93
      108
310
000190140A000000000000AAAAA0
330
2E
330
1CA7B
330
1CA7B
330
1CA7B
330
1CA7B
330
1CA7B
330
0
 94
        0
  0
ACAD_PROXY_OBJECT
  5
1CA7B
330
2E
100
AcDbProxyObject
 90
      499
 91
      560
 95
       25
 70
     0
 93
       51
310
00010000AAAA80
330
2E
330
1CA7A
330
1CA78
 94
        0
  0
DICTIONARY
  5
40
102
{ACAD_REACTORS
330
3F
102
}
330
3F
100
AcDbDictionary
281
     1
  3
DWGSETTINGS
350
41
  3
FEM
350
69
  3
Shaft
350
56
  3
TRANSSETTINGS
350
4C
  0
ACAD_PROXY_OBJECT
  5
42
102
{ACAD_REACTORS
330
3F
102
}
330
3F
100
AcDbProxyObject
 90
      499
 91
      519
 95
       25
 70
     0
 93
    23232
310
41502491013041105357CC201C00030C011E441013141105357CC603800030C011E441013241105357CCA01400030C011E441013341105357CCE01800030C010D9013441105357CD200C00030C010D9013541105357CD600C00030C010D9013641105357CDA00800030C011E9013741105357CDE01000030C010D901384110
310
5357CE200400030C011E9013941105357CE63F400030C0241102324141505357CC4C201C00030C011E902344141505357CC4C600C00030C010D902495041505357CC4CA01C00030C011E40902304E41505357CC13A01C00030C011E902314E41505357CC53A03800030C011E902324E41505357CC93A01400030C011E90233
310
4E41505357CCD3A01800030C010D902344E41505357CD13A00C00030C010D902354E41505357CD53A00C00030C010D902364E41505357CD93A00800030C011E902374E41505357CDD3A01000030C010D902384E41505357CE13A00400030C011E902394E41505357CE53A3F400030C024110332414E41905357CC4C13A01C0
310
0030C011E90334414E41905357CC4C53A00C00030C010D90349504E41905357CC4C93A01C00030C011E409044B4C494E41505357D0D3200400030C011E42504494E464F42105357D410549151A01000030C010D42D055241484D3541905357D093D4A01C00030C011E425045649455742105357D5925155D4E00400030C011
310
E42D06424548494E4441905357D25395A3F400030C0243505545241494C41505357D514A00C00030C010D4250348494441905357D21251201C00030C011E4250356495341905357D59254E01C00030C011E4250650415244494D42505357D41054911253600C00030C010D4250652454644494D42505357D49151911253601
310
000030C010D425774110531514901348070000C300479034110915312501348000000C0003FFFFFFFD034110921395901398000000C0003FFFFFFFE415092139594D06424548494E448000000C0003FFFFFFFE411093125110234418000000C0003FFFFFFFD03411093D05410234418000000C0003FFFFFFFD03411093D48C
310
9055241484D358010000C30047A411093D48CD055241484D358020000C30047A411093D48D5055241484D358000000C0003FFFFFFFE411093D48DD055241484D3581E0000C30047903411094105410234418000000C0003FFFFFFFD03411094115610234418000000C0003FFFFFFFD034110951112501358000000C0003FFF
310
FFFFD034110D0530C901348000000C0003FFFFFFFE4110D0530CD01348020000C30047A4110D0530D501348070000C30047A4110D0530DD013481E0000C30047A4110D15393901378000000C0003FFFFFFFE4110D15395D01378000000C0003FFFFFFFE4110D312539044B4C494E8000000C0003FFFFFFFE4110D3D38C5013
310
08000000C0003FFFFFFFD034110D3D38C901318000000C0003FFFFFFFD034110D3D38CD01328000000C0003FFFFFFFD034110D3D38D101328000000C0003FFFFFFFD034111115494101348000000C0003FFFFFFFD034111115510501348000000C0003FFFFFFFE4111125051D01358000000C0003FFFFFFFE4111125312501
310
358000000C0003FFFFFFFE411112535410650415244494D8000000C0003FFFFFFFE411112535490652454644494D8000000C0003FFFFFFFE411156135410234418000000C0003FFFFFFFD034111915353901388000000C0003FFFFFFFE415191535413901388030000C3004364151915354D410234418000000C0003FFFFFF
310
FE4151915354D510234418030000C300436415191535593901328000000C0003FFFFFFFE415191535595101328030000C3004364111931055101308000000C0003FFFFFFFD03411194905490234418000000C0003FFFFFFFD034111D49312501358000000C0003FFFFFFFD034111D5931250234418000000C0003FFFFFFFD0
310
34112105510D01388000000C0003FFFFFFFD014112125113901338000000C0003FFFFFFFD034112125115D01338000000C0003FFFFFFFD034112131253901348000000C0003FFFFFFFD01411213D0D3901378000000C0003FFFFFFFE411213D0D5D01378000000C0003FFFFFFFE4112539193D04494E464F8000000C0003FF
310
FFFFFE4113105112501348000000C0003FFFFFFFD034113115051101358000000C0003FFFFFFFE419397D0921395902394E8000000C0003FFFFFFFE419397D0D3D38C502304E8000000C0003FFFFFFFD03419397D0D3D38C902314E8000000C0003FFFFFFFD03419397D0D3D38CD02324E8000000C0003FFFFFFFD03419397
310
D0D3D38D102324E8000000C0003FFFFFFFD03419397D0D15393902374E8000000C0003FFFFFFFE419397D0D15395D02374E8000000C0003FFFFFFFE419397D1125312502354E8000000C0003FFFFFFFE419397D2105510D02384E8000000C0003FFFFFFFD01419397D2125113902334E8000000C0003FFFFFFFD03419397D2
310
125115D02334E8000000C0003FFFFFFFD03419397D3115051102354E8000000C0003FFFFFFFE419397D391D25410349504E8000000C0003FFFFFFFE419397D412105390334414E8000000C0003FFFFFFFE419397D510D3D3902304E8000000C0003FFFFFFFD03419397D5121312502344E8000000C0003FFFFFFFD01419397
310
D5131153902304E8000000C0003FFFFFFFD03419397D516150CD02364E8000000C0003FFFFFFFD03419397D594131250332414E8000000C0003FFFFFFFE411391D25410249508000000C0003FFFFFFFE411410530C9055241484D358010000C30047A411410530CD055241484D358020000C30047A411410530D5055241484
310
D358000000C0003FFFFFFFE411410530DD055241484D3581E0000C30047903411412105390234418000000C0003FFFFFFFE411413D4D3901368070000C30047A419413D4D49151901368050000C30047903411413D4D6101368000000C0003FFFFFFFD03411414D150D0234418000000C0003FFFFFFFD03411490D1D390137
310
8000000C0003FFFFFFFE411490D1D5D01378000000C0003FFFFFFFE4114919112501348000000C0003FFFFFFFD034114945514901348070000C30047903411494D093D01348000000C0003FFFFFFFD034114D09492D01348000000C0003FFFFFFFD014114D0D153901378000000C0003FFFFFFFD034114D150D51013480000
310
00C0003FFFFFFFD014114D15313901378000000C0003FFFFFFFD034114D15315D01378000000C0003FFFFFFFD034114D4D654D01308000000C0003FFFFFFFD034114D51312501348070000C300479034114D6508C501358000000C0003FFFFFFFD034114D6508C901358000000C0003FFFFFFFD034114D6508CD0135802000
310
0C30047A4114D6508D501358070000C300479034114D65353901378000000C0003FFFFFFFD034114D65355D01378000000C0003FFFFFFFD03411510D3D3901308000000C0003FFFFFFFD034115121312501348000000C0003FFFFFFFD01411512550C9055241484D358010000C30047A411512550CD055241484D358020000
310
C30047A411512550D5055241484D358000000C0003FFFFFFFE411512550DD055241484D3581E0000C300479034115131153901308000000C0003FFFFFFFD03415514905253105545241494C8000000C0003FFFFFFFE41151492D3901378000000C0003FFFFFFFD0341151492D5D01378000000C0003FFFFFFFD03411514931
310
2501348000000C0003FFFFFFFD01411516150C501368030000C300436411516150C901368030000C300436411516150CD01368000000C0003FFFFFFFE411516150D501368070000C30047A411516150DD013681E0000C30047A4115925155D04564945578000000C0003FFFFFFFE41159151121034849448000000C0003FFF
310
FFFFD0241159151159035649538000000C0003FFFFFFFD02411594131250232418000000C0003FFFFFFFE4116925690501348000000C0003FFFFFFFD01411354D653501358020000C30047AAAA3F400030C01013F90A4051E4091E40D0D4110D4151E4190D41D1E4391E4791E7F6
340
16
340
16
340
16
340
43
340
16
340
16
340
16
340
44
340
16
340
16
340
44
340
45
340
16
340
16
340
16
340
16
340
43
340
16
340
16
340
16
340
44
340
16
340
16
340
44
340
45
340
16
340
46
340
16
340
16
340
16
340
16
340
16
340
43
340
16
340
16
340
16
340
47
340
15
340
15
340
15
340
15
340
15
340
15
340
15
340
15
340
15
340
15
340
15
340
15
340
15
340
15
340
15
340
15
340
48
340
15
340
15
340
15
340
15
340
15
340
15
340
15
340
15
340
15
340
15
340
15
340
15
340
15
340
15
340
15
340
16
340
15
340
15
340
15
340
15
340
15
340
15
340
15
340
15
340
47
340
15
340
15
340
48
340
15
340
15
340
15
340
15
340
15
340
15
340
15
340
15
340
15
340
48
340
15
340
15
340
15
340
47
340
15
340
15
340
15
340
15
340
15
340
15
340
15
340
15
340
15
340
15
340
15
340
15
340
15
340
15
340
15
340
15
340
15
340
15
340
15
340
48
340
15
340
15
340
48
340
15
340
15
340
16
340
15
340
48
340
15
340
15
340
47
340
15
340
15
340
16
340
15
340
48
340
15
340
15
340
15
340
15
340
15
340
15
340
15
340
15
340
15
340
48
340
15
340
15
340
15
340
15
340
15
340
15
340
15
340
15
340
15
340
15
340
15
340
4B
340
16
 94
        0
  0
ACAD_PROXY_OBJECT
  5
62F
102
{ACAD_REACTORS
330
73
102
}
330
73
100
AcDbProxyObject
 90
      499
 91
      523
 95
       25
 70
     0
 93
      253
310
43D1444494D454E53494F4E2C414D44545F2A5F44494D404A9012A404A9012A0
  0
ACAD_PROXY_OBJECT
  5
630
102
{ACAD_REACTORS
330
73
102
}
330
73
100
AcDbProxyObject
 90
      499
 91
      523
 95
       25
 70
     0
 93
      181
310
43D012A42D05357D191504B505357CA9012A404A9012A8
  0
ACAD_PROXY_OBJECT
  5
631
102
{ACAD_REACTORS
330
73
102
}
330
73
100
AcDbProxyObject
 90
      499
 91
      523
 95
       25
 70
     0
 93
      133
310
43D054841544348404A9012A404A9012A8
  0
ACAD_PROXY_OBJECT
  5
632
102
{ACAD_REACTORS
330
73
102
}
330
73
100
AcDbProxyObject
 90
      499
 91
      523
 95
       25
 70
     0
 93
      549
310
43D044C494E4549CE0B0E138B0A8B4E0B0A8B4E138B105357CE0B105357CE138B0A8B505357CE0B0A8B505357CE139012A404A910494E534552542C5354445041525432448
  0
ACAD_PROXY_OBJECT
  5
633
102
{ACAD_REACTORS
330
73
102
}
330
73
100
AcDbProxyObject
 90
      499
 91
      523
 95
       25
 70
     0
 93
      909
310
43D6641434D46434652414D452C41434D444154554D5441524745542C41434D444154554D49442C41434D57454C4453594D2C41434D5355524653594D2C41434D4645415449442C41434D504152545245462C41434D42414C4C4F4F4E2C414D44544544474553594D404A9012A404A9012A8
  0
XRECORD
  5
1CB98
102
{ACAD_REACTORS
330
1CB96
102
}
330
1CB96
100
AcDbXrecord
280
     1
330
0
330
0
330
0
330
0
330
0
330
0
330
0
330
0
330
0
330
0
330
0
330
0
330
0
330
0
330
0
330
0
330
0
330
0
330
0
330
0
330
0
330
0
330
0
330
0
330
0
330
0
330
0
330
0
330
0
330
0
330
0
330
0
330
0
330
0
330
0
330
0
330
0
330
0
330
0
330
0
330
0
330
0
330
0
330
0
330
0
330
0
330
0
330
0
330
0
330
0
330
0
330
0
330
0
330
0
330
0
330
0
330
0
330
0
330
0
330
0
330
0
330
0
330
0
330
0
330
0
  0
XRECORD
  5
2A41
102
{ACAD_REACTORS
330
2A40
102
}
330
2A40
100
AcDbXrecord
280
     1
  1
LINE
  0

  0
XRECORD
  5
2917
102
{ACAD_REACTORS
330
2916
102
}
330
2916
100
AcDbXrecord
280
     1
  1
25000259__00___
  0

  0
XRECORD
  5
2A3F
102
{ACAD_REACTORS
330
2A3E
102
}
330
2A3E
100
AcDbXrecord
280
     1
  1
110 ^M^J ^M^J ^M^J ^M^J ^M^J ^M^J ^M^J ^M^J ^M^J ^M^J ^M^Jボーリングクイル ^M^J鋼 ^M^J特型 ^M^J直付け ^M^Jストレート ^M^J25 ^M^J2 ^M^J ^M^Jアルミ ^M^J ^M^J
  0

  0
XRECORD
  5
168A
102
{ACAD_REACTORS
330
1688
102
}
330
1688
100
AcDbXrecord
280
     1
  1
1,,,,,,,,,^M^J2,,,,,,,,,^M^J3,,,,,,,,,^M^J4,,,,,,,,,^M^J5,,,,,,,,,^M^J6,,,,,,,,,^M^J7,,,,,,,,,^M^J8,,,,,,,,,^M^J9,,,,,,,,,^M^J10,,,,,,,,,
  0

  0
XRECORD
  5
1689
102
{ACAD_REACTORS
330
1688
102
}
330
1688
100
AcDbXrecord
280
     1
  1
10,10
  0

  0
XRECORD
  5
2919
102
{ACAD_REACTORS
330
2918
102
}
330
2918
100
AcDbXrecord
280
     1
  1
3
  0

  0
ACAD_PROXY_OBJECT
  5
4F
102
{ACAD_REACTORS
330
4E
102
}
330
4E
100
AcDbProxyObject
 90
      499
 91
      521
 95
       25
 70
     0
 93
      157
310
057356C1D77406406AA8FFFFFFFF05DD01009010
330
1F
330
0
330
1CA78
 94
        0
  0
ACAD_PROXY_OBJECT
  5
17F
102
{ACAD_REACTORS
330
17E
102
}
330
17E
100
AcDbProxyObject
 90
      499
 91
      526
 95
       25
 70
     0
 93
     2379
310
5DC33333333333309408000000C00040D29254D01640600800030C0200800030C003333333333330940C8121E8720B1B6A9BAB9332A32BC3A29BA3220480A1282C6DA8C868CA6E8C88120286A0B1B6ABB2B63234B733A9BA3220480A1082C6DA92C8A6E8C88120285A0B1B6A230BA3AB6A9BA3220480A1282C6DA849E9AA6E
310
8C88120286A0B1A0B6B3AA34BA3632A9BA3220480A2082DAC8E888CAE8C2D2D8A6F2DAA6E8C88120288A0B6B23A29B2B1BA34B7B729BCB6A9BA3220480A2282DAC8E886CADCE8CAE498D2DCCAA6E8C88120288A0B6B23A2A343932B0B22634B732A9BA3220480A1682DAC8E89CDEE8CAA6E8C88120285A0B1A0B6B3A630BCA
310
9BA3220480A1682C682DACE88D2DAA6E8C88120288A0B1A0B6B3A437B632A1B430B93A29BA3220480C812020
340
180
360
181
360
182
360
183
360
184
360
185
360
186
360
1CA7D
360
1CA7E
360
1CA7F
360
1CA81
360
1CA82
360
1CA83
360
1CA89
360
1CA8A
360
1CA8B
340
0
340
0
 94
        0
  0
ACAD_PROXY_OBJECT
  5
41
102
{ACAD_REACTORS
330
40
102
}
330
40
100
AcDbProxyObject
 90
      499
 91
      518
 95
       25
 70
     0
 93
     2946
310
4050B44574753455454494E4753A0E8482A68AA6A88882A069492A684A1A0A723A0A92920ACA0A811A1AA0C868A9C829C8E82A12686AF87260F862666A8321A2A72224A0A50000000000000122020E868A9C889282A682A106260F86460F8666083A1A2A72224A9AA250000000000000042020C868A9C988A9C94000000000
310
000048808321A2A727A323250000000000000122020E868A9C9E8C8C62940000000000000488083A1A2A727A32319250000000000000122021CC6D0C2DACCCAE4C8D2DADADEC8CA9FC84A1A624A720A92920ACA0A81189BA108698929C8AA8B2A082A0AB098929C8A84A22BA3AAA9A1A0A622A50A0E9882A6A89E849482A02
310
608426A0A5A2AB24A2ABA7E8120CA0A68682988A0C00800010652455649534941501304154D0D0531150540CC4E8C5085354414E44415244415034A4953425512535154D51053541280BF750909E4ADCD050756455253494F4E4150531352E3030441ED115D1D4D15515125391D4D153911F40
  0
ACAD_PROXY_OBJECT
  5
69
102
{ACAD_REACTORS
330
40
102
}
330
40
100
AcDbProxyObject
 90
      499
 91
      518
 95
       25
 70
     0
 93
      411
310
4050346454D21092DCC6E486DECACC942842630BCA3B937BAB820A8320A6AFA322A0A20F688AE8EA68AA8A8929C8EA68A9C88FA0
  0
ACAD_PROXY_OBJECT
  5
56
102
{ACAD_REACTORS
330
40
102
}
330
40
100
AcDbProxyObject
 90
      499
 91
      518
 95
       25
 70
     0
 93
      583
310
40505536861667421292DCE8CAE4E4EAE0E89FA0484A634B3B43A2634B732A7F21A98D2CED0E898D2DCCAACD2CAEE9FC8229B4B232A7E80A20F688AE8EA68AA8A8929C8EA68A9C88FA
  0
ACAD_PROXY_OBJECT
  5
4C
102
{ACAD_REACTORS
330
40
102
}
330
40
100
AcDbProxyObject
 90
      499
 91
      518
 95
       25
 70
     0
 93
      852
310
4050D5452414E5353455454494E4753A2488A482AE929C8EA8A4829CA69882A8929E9C0C00800050D4F524947494E414C4C595F4F4E0600400028529A7AAA921A2A620A723A0A81A52827212AAA0A48AA68AA4AC8A0C0080001107B44574753455454494E4753454E447D0
  0
ACAD_PROXY_OBJECT
  5
181
330
17F
100
AcDbProxyObject
 90
      499
 91
      527
 95
       25
 70
     0
 93
       86
310
5DEA0C80A0280A0280A034
  0
ACAD_PROXY_OBJECT
  5
182
330
17F
100
AcDbProxyObject
 90
      499
 91
      528
 95
       25
 70
     0
 93
      282
310
5DD0E4050140501405014050140501405014050141101405014041000000000000001000
340
187
 94
        0
  0
ACAD_PROXY_OBJECT
  5
183
330
17F
100
AcDbProxyObject
 90
      499
 91
      529
 95
       25
 70
     0
 93
      323
310
5DCC199999999999E99F91740501405014050140501405014050140501405014050140501405014040
340
0
 94
        0
  0
ACAD_PROXY_OBJECT
  5
184
330
17F
100
AcDbProxyObject
 90
      499
 91
      530
 95
       25
 70
     0
 93
       10
310
5DC0
  0
ACAD_PROXY_OBJECT
  5
185
330
17F
100
AcDbProxyObject
 90
      499
 91
      531
 95
       25
 70
     0
 93
      257
310
5DE0C16A22A7D90F49F80000000000001081400000000000004204010000618000
340
188
340
189
 94
        0
  0
ACAD_PROXY_OBJECT
  5
186
330
17F
100
AcDbProxyObject
 90
      499
 91
      532
 95
       25
 70
     0
 93
     5277
310
5DD06411255115350141236025B6901405014069010000000000000910240690120281A8AA2CA0282484A4BE52028120280A032020000000000001220480D202405044E414D454050496BC914F4051C40640A80000000000004E4090193C3D3C4946284953424C414E4B28504152543A4E414D45292C424C4F434B3A4E414D
310
452C504152543A4E414D45293E3C41435F44455343524950544E3E40480A109A82A88AA492829880A091BBD2F7E80A3A80C81D0E27A15AF46E08A81203480901411393D5115014124A363B7D0147501904A0000000000000F902406428F4F1050D7D393D5114F901202832B22A72227A92028366EF6EE06F582028EA0320B4
310
0000000000001F20480C879E9E20A1AFAB27222FA620A122A61F20240506445020000000000000490201C00030C00010180000000000003E400000000000000F901073D3C4954454D3E4050180000000000003E400000000000000F901073D3C4954454D3E40501800000000000034400000000000000D101073D3C4954454
310
D3E40501800000000000034400000000000000D101073D3C4954454D3E405029010000000000000F9000000000000003E4041CF4F125511534F901418F4F1455164F9014060000000000000F9000000000000003E4041CF4F125511534F901800000000000034400000000000000D101073D3C4954454D3E40640400000000
310
0000003E400000000000000F90288800000000000020810000001800120881A068120480A032208521122080D21480D211480A1485214852050000000000003C2FC000000000000F0BF40600800030C0200400030C00CDCCCCCCCCCCEC3F3373333333333B0FC3333333333330940C80D069014090341504901A1999999999
310
9984A040100006180400800061804010000618008098A02808
340
0
340
0
 94
        0
  0
ACAD_PROXY_OBJECT
  5
1CA7D
330
17F
100
AcDbProxyObject
 90
      499
 91
      561
 95
       25
 70
     0
 93
     3042
310
5DD9740D29254D064A49535F413342929254D7D512551311505134A49535F42525F5265766973696F6E6C6973744190F4134522028323937783231306D6D2941D29254D7D04D1490E41312028353934783834316D6D2941929254D7D04C50F41344C2028323130783239376D6D2941D29254D7D04D1310E413320283239377
310
83432306D6D2941929254D7D04CD0E41322028343230783539346D6D2941929254D7D04C90F4130202838343178313138396D6D2941929254D7D04C10243129254C82557247A25E4C81050A4A49535F5449544C454143129254C82557247A25E4C81090A4A49535F5449544C45424110E979A97F0838A835883675F42525F4
310
4D29254D7D09497D4995D9A5CDA5BDB9B1A5CDD10E979A97F0838A835883675F54525F44D29254D7D51497D4995D9A5CDA5BDB9B1A5CDD10E979A97F0838A835883675F424C5F44D29254D7D09317D4995D9A5CDA5BDB9B1A5CDD10E979A97F0838A835883675F544C5F44D29254D7D51317D4995D9A5CDA5BDB9B1A5CDD00
  0
ACAD_PROXY_OBJECT
  5
1CA7E
330
17F
100
AcDbProxyObject
 90
      499
 91
      562
 95
       25
 70
     0
 93
      898
310
5DC4000000000000124048CF4F11115510525317D3105091530F880A0F11115510525317D05094D4D0D053114F8A50241C9A9999999999B93F26A666666666724FC000000000000E03F400000000000000400000000000000510000000000000024408070000C300000000000000049000
340
16
340
180
 94
        0
  0
ACAD_PROXY_OBJECT
  5
1CA7F
330
17F
100
AcDbProxyObject
 90
      499
 91
      563
 95
       25
 70
     0
 93
      823
310
5DC0B00000000000002480959E9E29A2A1AA24A7A72FA620A122A62FA324A929AA1F169E29A2A1AA24A7A72FA620A122A62FA620A9AA1F000000000000048803FFFE01C00030C008140380006180000000000000048800000000000000A2000000000000002480
340
652
340
180
 94
        0
  0
ACAD_PROXY_OBJECT
  5
1CA81
330
17F
100
AcDbProxyObject
 90
      499
 91
      564
 95
       25
 70
     0
 93
      152
310
5DE8273108AC1C5A0640A3D0A5723F0BD1F200
  0
ACAD_PROXY_OBJECT
  5
1CA82
330
17F
100
AcDbProxyObject
 90
      499
 91
      565
 95
       25
 70
     0
 93
       14
310
5DE0
340
0
 94
        0
  0
ACAD_PROXY_OBJECT
  5
1CA83
330
17F
100
AcDbProxyObject
 90
      499
 91
      566
 95
       25
 70
     0
 93
     6059
310
5DD084050BA4050AA405024050E836583938376838C815B83672031405983D3C486F6C653A6469613E3C696628657175616C28486F6C653A7465726D696E6174696F6E2C223022292C2220905B82B320222C22208368838A838B22293E3C696628657175616C28486F6C653A7465726D696E6174696F6E2C223022292C486F
310
6C653A64657074682C2222293E2C203C486F6C653A63746469613E2082B482AE82E882CC905B82B3203C486F6C653A637464657074683E406901405034050E836583938376838C815B83672031405EF3D3C486F6C653A6374616E676C653E252564202525633C486F6C653A63746469613E208E4D8C8A2C203C69662865717
310
5616C28486F6C653A7461707065642C223022292C22252563222C486F6C653A6E6F6D696E616C202220782022293E3C696628657175616C28486F6C653A7461707065642C223022292C486F6C653A6469612C486F6C653A706974636864657363293E203C696628657175616C28486F6C653A7465726D696E6174696F6E2C2
310
23022292C22905B82B320222C222022293E3C696628657175616C28486F6C653A7465726D696E6174696F6E2C223022292C486F6C653A64657074682C2222293E406901405014050E836583938376838C815B83672031405C73D3C696628657175616C28486F6C653A7461707065642C223022292C22252563222C486F6C65
310
3A6E6F6D696E616C202220782022293E3C696628657175616C28486F6C653A7461707065642C223022292C486F6C653A6469612C486F6C653A706974636864657363293E203C696628657175616C28486F6C653A7465726D696E6174696F6E2C223022292C22905B82B320222C222022293E3C696628657175616C28486F6C
310
653A7465726D696E6174696F6E2C223022292C486F6C653A64657074682C2222293E4069014051E4090E836583938376838C815B83672032405173D3C535444503A444553433E203C535444503A5354443E40690E836583938376838C815B836720314050C3D3C535444503A444553433E40690240515AAABBA120
360
1CA87
330
1CA87
360
1CA88
330
1CA88
360
1CA86
330
1CA86
360
1CA85
360
1CA84
330
1CA85
330
1CA84
 94
        0
  0
ACAD_PROXY_OBJECT
  5
1CA89
330
17F
100
AcDbProxyObject
 90
      499
 91
      568
 95
       25
 70
     0
 93
       26
310
5DD02A80
340
42
 94
        0
  0
ACAD_PROXY_OBJECT
  5
1CA8A
330
17F
100
AcDbProxyObject
 90
      499
 91
      569
 95
       25
 70
     0
 93
      250
310
5DD020000000000000A1000000000000002440408F0F9023C3E409A0DCFFFF80
340
58
340
1B97
340
1B98
340
5F
340
60
340
61
340
62
340
63
340
68
340
0
 94
        0
  0
ACAD_PROXY_OBJECT
  5
1CA8B
330
17F
100
AcDbProxyObject
 90
      499
 91
      570
 95
       25
 70
     0
 93
    13889
310
5DD1D003FFFFFFFD030300030CCCCCCCCCCCC250200800030C01030300030CCCCCCCCCCCC250200800030C00050C8DC0955782CC838A83588367014ED1D15395149050D3CB1294138B0C0B23702555E0B320E2A0D620D9CB11D15395149055160B095CCB0A11D1539354D1C819D95B991A5B5E880CCC0A78000C0000000000
310
00000000000000000000010CCCCCCCCCCCC250200800030C010CCCCCCCCCCCC250200800030C020143CF4F111959985D5B1D151A5D1B194F8050A8C8A8365815B8375838B014E51D15395149050D3CB1294138B0C0B2322A0D96056E0DD60E2CB11D15395149055160B095CCB0A11D1539354D1C819D95B991A5B5E880CCC4
310
A78000C000000000000000000000000000000010CCCCCCCCCCCC250200800030C010CCCCCCCCCCCC250200800030C020143CF4F111959985D5B1D151A5D1B194F90D44111409034110541D0C4350F4050E44D03449074510F000141232D24D7C053247454E545241434F2C4A504E2C302C8CB4935F2C47454E54524154582C
310
25732C2847454E4D53472067656E64696D7A20312900010104002214000281464500A608E8A9CA8A482869E5894A09C5860591914588E8A9CA8A482A8B0584AE658508E8A9C9AA68E40CECADCC8D2DAF4406452029E9E9E27B934B3B4B71F1E24A31427A91424A9A12620A7259427B934B3B4B7149624A9A12620A7259424B
310
A32B6949496111116111711149F1E24BA32B69F00808200111A000140560052F47454E545241434F2C4A504E2C302C582C47454E54524154582C25732C2847454E4D53472067656E64696D7A20332900010100002054000280AC80A5E8E8A9CA8A482869E5894A09C586058B2588E8A9CA8A482A8B0584AE658508E8A9C9AA
310
68E40CECADCC8D2DAF4406852000202000040E800050152014BD1D15395149050D3CB1294138B0C0B148B11D15395149055160B095CCB0A11D1539354D1C819D95B991A5B5E880D8A400040400008250000A0507A6029823A2A72A2920A1A79625282716181641E99623A2A72A2920AA2C1612B9961423A2A726A9A39033B2
310
B73234B6BD101B948000808180105A000140A0F4C053047454E545241434F2C4A504E2C302C83D32C47454E54524154582C25732C2847454E4D53472067656E64696D7A203829000101010020F400028248704B5F00A668E8A9CA8A482869E5894A09C58605921C12D7C588E8A9CA8A482A8B0584AE658508E8A9C9AA68E40
310
CECADCC8D2DAF440646052000200080043280005048B4B8A69014CD1D15395149050D3CB1294138B0C0B22D2E29A4B11D15395149055160B095CCB0A11D1539354D1C819D95B991A5B5E880C8C4A4000400100086D0000A09196926BE029923A2A72A2920A1A796252827161816465A49AF9623A2A72A2920AA2C1612B9961
310
423A2A726A9A39033B2B73234B6BD10189480A02620202080043E80005048D8096DA014CD1D15395149050D3CB1294138B0C0B236025B68B11D15395149055160B095CCB0A11D1539354D1C819D95B991A5B5E880C4D0A4000404140280D0000A190687072706CD06C5069D06B0029DA3A2A72A2920A1A7962528271618164
310
1A1C1C9C1B341B141A741AC1623A2A72A2920AA2C1612B9961423A2A726A9A39033B2B73234B6BD10189A94800080820050EA000143A322A0D0E0E4E0D9A0D8A0D3A0D60053D47454E545241434F2C4A504E2C302C8C8A8343839383668362834E83582C47454E54524154582C25732C2847454E4D53472067656E64696D7A
310
2031372900010105002274000281464500A628E8A9CA8A482869E5894A09C5860591914588E8A9CA8A482A8B0584AE658508E8A9C9AA68E40CECADCC8D2DAF440626C52000202080044A8000504909497CA014CD1D15395149050D3CB1294138B0C0B242525F28B11D15395149055160B095CCB0A11D1539354D1C819D95B9
310
91A5B5E880C4E4A400040418008A521E000000000000001CA040C00000000000034408080000000000006881010000000000000D102040000000000001A204080000000000003440818000000000000728103000000000000125020600000000004028A040000000000000034408000000000000004881000000000000000D
310
102000000000000001A204000000000000003440818000000000000508143C0000000000000039408180000000000006881030000000000000D102060000000000001A2040C00000000000034408180000000000006881030000000000000E5020600000000000024A040C0000000000805140800000000000000688100000
310
00000000009102000000000000001A2040000000000000034408180000000000006881030000000000000A10284220000000878000002020000008380000020400000081800000208000000828000002028900000000
340
0
340
0
340
0
340
0
340
180
340
180
 94
        0
  0
ACAD_PROXY_OBJECT
  5
1CA87
330
1CA83
100
AcDbProxyObject
 90
      499
 91
      567
 95
       25
 70
     0
 93
     1376
310
5DE0143A0D960E4E0DDA0E32056E0D9C80C405983D3C486F6C653A6469613E3C696628657175616C28486F6C653A7465726D696E6174696F6E2C223022292C2220905B82B320222C22208368838A838B22293E3C696628657175616C28486F6C653A7465726D696E6174696F6E2C223022292C486F6C653A64657074682C22
310
22293E2C203C486F6C653A63746469613E2082B482AE82E882CC905B82B3203C486F6C653A637464657074683E
  0
ACAD_PROXY_OBJECT
  5
1CA88
330
1CA83
100
AcDbProxyObject
 90
      499
 91
      567
 95
       25
 70
     0
 93
     2072
310
5DE0143A0D960E4E0DDA0E32056E0D9C80C405EF3D3C486F6C653A6374616E676C653E252564202525633C486F6C653A63746469613E208E4D8C8A2C203C696628657175616C28486F6C653A7461707065642C223022292C22252563222C486F6C653A6E6F6D696E616C202220782022293E3C696628657175616C28486F6C
310
653A7461707065642C223022292C486F6C653A6469612C486F6C653A706974636864657363293E203C696628657175616C28486F6C653A7465726D696E6174696F6E2C223022292C22905B82B320222C222022293E3C696628657175616C28486F6C653A7465726D696E6174696F6E2C223022292C486F6C653A6465707468
310
2C2222293E
  0
ACAD_PROXY_OBJECT
  5
1CA86
330
1CA83
100
AcDbProxyObject
 90
      499
 91
      567
 95
       25
 70
     0
 93
     1752
310
5DE0143A0D960E4E0DDA0E32056E0D9C80C405C73D3C696628657175616C28486F6C653A7461707065642C223022292C22252563222C486F6C653A6E6F6D696E616C202220782022293E3C696628657175616C28486F6C653A7461707065642C223022292C486F6C653A6469612C486F6C653A706974636864657363293E20
310
3C696628657175616C28486F6C653A7465726D696E6174696F6E2C223022292C22905B82B320222C222022293E3C696628657175616C28486F6C653A7465726D696E6174696F6E2C223022292C486F6C653A64657074682C2222293E
  0
ACAD_PROXY_OBJECT
  5
1CA85
330
1CA83
100
AcDbProxyObject
 90
      499
 91
      567
 95
       25
 70
     0
 93
      344
310
5DE0143A0D960E4E0DDA0E32056E0D9C80C805173D3C535444503A444553433E203C535444503A5354443E
  0
ACAD_PROXY_OBJECT
  5
1CA84
330
1CA83
100
AcDbProxyObject
 90
      499
 91
      567
 95
       25
 70
     0
 93
      256
310
5DE0143A0D960E4E0DDA0E32056E0D9C80C4050C3D3C535444503A444553433E
  0
ENDSEC
  0
EOF
