  0
SECTION
  2
HEADER
  9
$ACADVER
  1
AC1015
  9
$ACADMAINTVER
 70
     6
  9
$DWGCODEPAGE
  3
ANSI_932
  9
$INSBASE
 10
0.0
 20
0.0
 30
0.0
  9
$EXTMIN
 10
-100.109733162887
 20
-132.2674327606945
 30
0.0
  9
$EXTMAX
 10
257.3187252102965
 20
44.16622438137588
 30
0.0
  9
$LIMMIN
 10
0.0
 20
0.0
  9
$LIMMAX
 10
420.0
 20
297.0
  9
$ORTHOMODE
 70
     0
  9
$REGENMODE
 70
     1
  9
$FILLMODE
 70
     1
  9
$QTEXTMODE
 70
     0
  9
$MIRRTEXT
 70
     1
  9
$LTSCALE
 40
1.0
  9
$ATTMODE
 70
     1
  9
$TEXTSIZE
 40
4.0
  9
$TRACEWID
 40
1.0
  9
$TEXTSTYLE
  7
STANDARD
  9
$CLAYER
  8
AM_0
  9
$CELTYPE
  6
ByLayer
  9
$CECOLOR
 62
   256
  9
$CELTSCALE
 40
1.0
  9
$DISPSILH
 70
     0
  9
$DIMSCALE
 40
1.0
  9
$DIMASZ
 40
2.5
  9
$DIMEXO
 40
0.0
  9
$DIMDLI
 40
10.0
  9
$DIMRND
 40
0.0
  9
$DIMDLE
 40
0.0
  9
$DIMEXE
 40
1.0
  9
$DIMTP
 40
0.1
  9
$DIMTM
 40
0.1000000001
  9
$DIMTXT
 40
3.8
  9
$DIMCEN
 40
0.0
  9
$DIMTSZ
 40
0.0
  9
$DIMTOL
 70
     0
  9
$DIMLIM
 70
     0
  9
$DIMTIH
 70
     0
  9
$DIMTOH
 70
     0
  9
$DIMSE1
 70
     0
  9
$DIMSE2
 70
     0
  9
$DIMTAD
 70
     3
  9
$DIMZIN
 70
     1
  9
$DIMBLK
  1
Open30
  9
$DIMASO
 70
     1
  9
$DIMSHO
 70
     1
  9
$DIMPOST
  1

  9
$DIMAPOST
  1
"
  9
$DIMALT
 70
     0
  9
$DIMALTD
 70
     2
  9
$DIMALTF
 40
0.0393701
  9
$DIMLFAC
 40
1.0
  9
$DIMTOFL
 70
     1
  9
$DIMTVP
 40
0.0
  9
$DIMTIX
 70
     0
  9
$DIMSOXD
 70
     0
  9
$DIMSAH
 70
     0
  9
$DIMBLK1
  1

  9
$DIMBLK2
  1

  9
$DIMSTYLE
  2
AM_JIS
  9
$DIMCLRD
 70
   256
  9
$DIMCLRE
 70
   256
  9
$DIMCLRT
 70
     2
  9
$DIMTFAC
 40
0.71
  9
$DIMGAP
 40
1.5
  9
$DIMJUST
 70
     0
  9
$DIMSD1
 70
     0
  9
$DIMSD2
 70
     0
  9
$DIMTOLJ
 70
     0
  9
$DIMTZIN
 70
     8
  9
$DIMALTZ
 70
     0
  9
$DIMALTTZ
 70
     0
  9
$DIMUPT
 70
     0
  9
$DIMDEC
 70
     0
  9
$DIMTDEC
 70
     3
  9
$DIMALTU
 70
     2
  9
$DIMALTTD
 70
     2
  9
$DIMTXSTY
  7
STANDARD
  9
$DIMAUNIT
 70
     1
  9
$DIMADEC
 70
     0
  9
$DIMALTRND
 40
0.0
  9
$DIMAZIN
 70
     2
  9
$DIMDSEP
 70
    46
  9
$DIMATFIT
 70
     3
  9
$DIMFRAC
 70
     0
  9
$DIMLDRBLK
  1
Open30
  9
$DIMLUNIT
 70
     2
  9
$DIMLWD
 70
    -1
  9
$DIMLWE
 70
    -1
  9
$DIMTMOVE
 70
     0
  9
$LUNITS
 70
     2
  9
$LUPREC
 70
     4
  9
$SKETCHINC
 40
1.0
  9
$FILLETRAD
 40
0.2
  9
$AUNITS
 70
     0
  9
$AUPREC
 70
     4
  9
$MENU
  1
.
  9
$ELEVATION
 40
0.0
  9
$PELEVATION
 40
0.0
  9
$THICKNESS
 40
0.0
  9
$LIMCHECK
 70
     0
  9
$CHAMFERA
 40
2.0
  9
$CHAMFERB
 40
2.0
  9
$CHAMFERC
 40
20.0
  9
$CHAMFERD
 40
0.0
  9
$SKPOLY
 70
     0
  9
$TDCREATE
 40
2451943.610431667
  9
$TDUCREATE
 40
2451943.235431667
  9
$TDUPDATE
 40
2455482.586951678
  9
$TDUUPDATE
 40
2455482.211951678
  9
$TDINDWG
 40
1.4386580556
  9
$TDUSRTIMER
 40
1.4386578819
  9
$USRTIMER
 70
     1
  9
$ANGBASE
 50
0.0
  9
$ANGDIR
 70
     0
  9
$PDMODE
 70
     0
  9
$PDSIZE
 40
0.0
  9
$PLINEWID
 40
0.0
  9
$SPLFRAME
 70
     0
  9
$SPLINETYPE
 70
     6
  9
$SPLINESEGS
 70
     8
  9
$HANDSEED
  5
19B65
  9
$SURFTAB1
 70
     6
  9
$SURFTAB2
 70
     6
  9
$SURFTYPE
 70
     6
  9
$SURFU
 70
     6
  9
$SURFV
 70
     6
  9
$UCSBASE
  2

  9
$UCSNAME
  2

  9
$UCSORG
 10
0.0
 20
0.0
 30
0.0
  9
$UCSXDIR
 10
1.0
 20
0.0
 30
0.0
  9
$UCSYDIR
 10
0.0
 20
1.0
 30
0.0
  9
$UCSORTHOREF
  2

  9
$UCSORTHOVIEW
 70
     0
  9
$UCSORGTOP
 10
0.0
 20
0.0
 30
0.0
  9
$UCSORGBOTTOM
 10
0.0
 20
0.0
 30
0.0
  9
$UCSORGLEFT
 10
0.0
 20
0.0
 30
0.0
  9
$UCSORGRIGHT
 10
0.0
 20
0.0
 30
0.0
  9
$UCSORGFRONT
 10
0.0
 20
0.0
 30
0.0
  9
$UCSORGBACK
 10
0.0
 20
0.0
 30
0.0
  9
$PUCSBASE
  2

  9
$PUCSNAME
  2

  9
$PUCSORG
 10
0.0
 20
0.0
 30
0.0
  9
$PUCSXDIR
 10
1.0
 20
0.0
 30
0.0
  9
$PUCSYDIR
 10
0.0
 20
1.0
 30
0.0
  9
$PUCSORTHOREF
  2

  9
$PUCSORTHOVIEW
 70
     0
  9
$PUCSORGTOP
 10
0.0
 20
0.0
 30
0.0
  9
$PUCSORGBOTTOM
 10
0.0
 20
0.0
 30
0.0
  9
$PUCSORGLEFT
 10
0.0
 20
0.0
 30
0.0
  9
$PUCSORGRIGHT
 10
0.0
 20
0.0
 30
0.0
  9
$PUCSORGFRONT
 10
0.0
 20
0.0
 30
0.0
  9
$PUCSORGBACK
 10
0.0
 20
0.0
 30
0.0
  9
$USERI1
 70
     0
  9
$USERI2
 70
     0
  9
$USERI3
 70
     0
  9
$USERI4
 70
     0
  9
$USERI5
 70
     0
  9
$USERR1
 40
0.0
  9
$USERR2
 40
0.0
  9
$USERR3
 40
0.0
  9
$USERR4
 40
0.0
  9
$USERR5
 40
0.0
  9
$WORLDVIEW
 70
     1
  9
$SHADEDGE
 70
     3
  9
$SHADEDIF
 70
    70
  9
$TILEMODE
 70
     1
  9
$MAXACTVP
 70
    64
  9
$PINSBASE
 10
0.0
 20
0.0
 30
0.0
  9
$PLIMCHECK
 70
     0
  9
$PEXTMIN
 10
1.000000000000000E+20
 20
1.000000000000000E+20
 30
1.000000000000000E+20
  9
$PEXTMAX
 10
-1.000000000000000E+20
 20
-1.000000000000000E+20
 30
-1.000000000000000E+20
  9
$PLIMMIN
 10
0.0
 20
0.0
  9
$PLIMMAX
 10
420.0
 20
297.0
  9
$UNITMODE
 70
     0
  9
$VISRETAIN
 70
     1
  9
$PLINEGEN
 70
     0
  9
$PSLTSCALE
 70
     1
  9
$TREEDEPTH
 70
  3020
  9
$CMLSTYLE
  2
Standard
  9
$CMLJUST
 70
     0
  9
$CMLSCALE
 40
20.0
  9
$PROXYGRAPHICS
 70
     1
  9
$MEASUREMENT
 70
     1
  9
$CELWEIGHT
370
    -1
  9
$ENDCAPS
280
     0
  9
$JOINSTYLE
280
     0
  9
$LWDISPLAY
290
     0
  9
$INSUNITS
 70
     4
  9
$HYPERLINKBASE
  1

  9
$STYLESHEET
  1
sei_cad.ctb
  9
$XEDIT
290
     1
  9
$CEPSNTYPE
380
     0
  9
$PSTYLEMODE
290
     1
  9
$FINGERPRINTGUID
  2
{C77AB3BE-9CA2-11D3-BAF3-006094EB760E}
  9
$VERSIONGUID
  2
{C32567B5-76D2-465F-AC2B-C7E1E872DFA3}
  9
$EXTNAMES
290
     1
  9
$PSVPSCALE
 40
0.0
  9
$OLESTARTUP
290
     0
  0
ENDSEC
  0
SECTION
  2
CLASSES
  0
CLASS
  1
ACDBDICTIONARYWDFLT
  2
AcDbDictionaryWithDefault
  3
ObjectDBX Classes
 90
        0
280
     0
281
     0
  0
CLASS
  1
ACDBPLACEHOLDER
  2
AcDbPlaceHolder
  3
ObjectDBX Classes
 90
        0
280
     0
281
     0
  0
CLASS
  1
LAYOUT
  2
AcDbLayout
  3
ObjectDBX Classes
 90
        0
280
     0
281
     0
  0
CLASS
  1
ACME_DOCUMENT
  2
AcMeDbDoc
  3
AcMeServices
 90
        0
280
     1
281
     0
  0
CLASS
  1
ACMESCOPE
  2
AcMeScope
  3
AcMeServices
 90
        0
280
     1
281
     0
  0
CLASS
  1
ACMECOMMANDHISTORY
  2
AcMeCommandHistory
  3
AcMeServices
 90
        0
280
     1
281
     0
  0
CLASS
  1
DICTIONARYVAR
  2
AcDbDictionaryVar
  3
ObjectDBX Classes
 90
        0
280
     0
281
     0
  0
CLASS
  1
ACIMSYSVARMAN
  2
AcImSysVarManager
  3
AcMeServices
 90
        0
280
     1
281
     0
  0
CLASS
  1
ACIMREALSYSVAR
  2
AcImRealSysVar
  3
AcMeServices
 90
        0
280
     1
281
     0
  0
CLASS
  1
ACIMINTSYSVAR
  2
AcImIntSysVar
  3
AcMeServices
 90
        0
280
     1
281
     0
  0
CLASS
  1
ACMEDRAWINGMAN
  2
AcMeDrawingMan
  3
AcMeServices
 90
        0
280
     1
281
     0
  0
CLASS
  1
ACMEVIEW
  2
AcMeView
  3
AcMeServices
 90
        0
280
     1
281
     0
  0
CLASS
  1
ACDBENTITYCACHE
  2
AcMeEntityCache
  3
AcMeServices
 90
        0
280
     1
281
     0
  0
CLASS
  1
GSMANAGER
  2
AcMeGSManager
  3
AcMeServices
 90
        0
280
     1
281
     0
  0
CLASS
  1
AMDTINTERNALREACTOR
  2
AmdtInternalReactor
  3
AcMeServices
 90
        0
280
     1
281
     0
  0
CLASS
  1
ACMESTATEMGR
  2
AcMeStateMgr
  3
AcMeServices
 90
        0
280
     1
281
     0
  0
CLASS
  1
ACME_DATABASE
  2
AcMeDbDatabase
  3
AcMeServices
 90
        0
280
     1
281
     0
  0
CLASS
  1
ACRFINSADJUSTERMGR
  2
AcRfInsAdjusterMgr
  3
AcMeServices
 90
        0
280
     1
281
     0
  0
CLASS
  1
AMGSETTINGSOBJ
  2
AmgSettingsObj
  3
"AcadM|Product Description: AutoCAD Mechanical 2000|Company: Autodesk"
 90
        0
280
     1
281
     0
  0
CLASS
  1
AMGOBJPROPCFG
  2
AmgObjPropCfg
  3
"AmgLay|Product Description: AutoCAD Mechanical 2000|Company: Autodesk"
 90
        1
280
     1
281
     0
  0
CLASS
  1
ACMDATADICTIONARY
  2
AcmDataDictionary
  3
"AcmSymBB|Product Description: AutoCAD Mechanical 2004 DX|Company: Autodesk"
 90
        0
280
     1
281
     0
  0
CLASS
  1
ACMDATAENTRYBLOCK
  2
AcmDataEntryBlock
  3
"AcmSymBB|Product Description: AutoCAD Mechanical 2004 DX|Company: Autodesk"
 90
        0
280
     1
281
     0
  0
CLASS
  1
ACIMSTRSYSVAR
  2
AcImStrSysVar
  3
AcMeServices
 90
        0
280
     1
281
     0
  0
CLASS
  1
ACAMGFILTERDAT
  2
AcAmgFilterDat
  3
"AcadM|Product Description: AutoCAD Mechanical 2000|Company: Autodesk"
 90
        0
280
     1
281
     0
  0
CLASS
  1
LAYER_INDEX
  2
AcDbLayerIndex
  3
ObjectDBX Classes
 90
        0
280
     0
281
     0
  0
CLASS
  1
IDBUFFER
  2
AcDbIdBuffer
  3
ObjectDBX Classes
 90
        0
280
     0
281
     0
  0
CLASS
  1
ACMSTANDARDJIS
  2
AcmStandardJIS
  3
"Amdt_StdImp|Product Description: AutoCAD Mechanical 2004 DX|Company: Autodesk"
 90
        0
280
     1
281
     0
  0
CLASS
  1
ACMSURFSTANDARDJIS
  2
AcmSurfTextStdJIS
  3
"Amdt_StdImp|Product Description: AutoCAD Mechanical 2004 DX|Company: Autodesk"
 90
        0
280
     1
281
     0
  0
CLASS
  1
ACMFCFSTANDARDJIS
  2
AcmFCFStdJIS
  3
"Amdt_StdImp|Product Description: AutoCAD Mechanical 2004 DX|Company: Autodesk"
 90
        0
280
     1
281
     0
  0
CLASS
  1
ACMWELDSTANDARDJIS
  2
AcmWeldingStdJIS
  3
"Amdt_StdImp|Product Description: AutoCAD Mechanical 2004 DX|Company: Autodesk"
 90
        0
280
     1
281
     0
  0
CLASS
  1
ACMIDSTANDARDJIS
  2
AcmIdStdJIS
  3
"Amdt_StdImp|Product Description: AutoCAD Mechanical 2004 DX|Company: Autodesk"
 90
        0
280
     1
281
     0
  0
CLASS
  1
ACMDATUMSTANDARDJIS
  2
AcmDatumStdJIS
  3
"Amdt_StdImp|Product Description: AutoCAD Mechanical 2004 DX|Company: Autodesk"
 90
        0
280
     1
281
     0
  0
CLASS
  1
ACMBOMSTANDARDJIS
  2
AcmBOMStdJIS
  3
"Amdt_StdImp|Product Description: AutoCAD Mechanical 2004 DX|Company: Autodesk"
 90
        0
280
     1
281
     0
  0
CLASS
  1
AMDTNOTE
  2
AmdtNote
  3
"AcmSymBB|Product Description: AutoCAD Mechanical 2004 DX|Company: Autodesk"
 90
     1023
280
     1
281
     1
  0
CLASS
  1
TABLESTYLE
  2
AcDbTableStyle
  3
ObjectDBX Classes
 90
     2047
280
     0
281
     0
  0
CLASS
  1
ACGREFMASTER
  2
AcGrefMaster
  3
AcAttribServices
 90
        0
280
     1
281
     0
  0
CLASS
  1
AM_DRAWING_MGR
  2
AcDmDwgMgr
  3
AcMechDwgViewMgmt
 90
        0
280
     1
281
     0
  0
CLASS
  1
AM_DWG_DOCUMENT
  2
AcDmDwgDocument
  3
AcMechDwgViewMgmt
 90
        0
280
     1
281
     0
  0
CLASS
  1
AM_DWG_SHEET
  2
AcDmSheet
  3
AcMechDwgViewMgmt
 90
        0
280
     1
281
     0
  0
CLASS
  1
AM_VIEWDIMPARMAP
  2
AcDmViewDimParMap
  3
AcMechDwgViewMgmt
 90
        0
280
     1
281
     0
  0
CLASS
  1
AM_DWGMGR_NAME
  2
AcDmDwgMgrName
  3
AcMechDwgViewMgmt
 90
        0
280
     1
281
     0
  0
CLASS
  1
ACGREFACADMASTER
  2
AcGrefacadMaster
  3
AcGrefServices
 90
        0
280
     1
281
     0
  0
CLASS
  1
AMDTMENUSTATEMGR
  2
AmdtMenuStateMgr
  3
McadcomServices
 90
        0
280
     1
281
     0
  0
CLASS
  1
AMDTMCOMMENUSTATE
  2
AmdtMcomMenuState
  3
McadcomServices
 90
        0
280
     1
281
     0
  0
CLASS
  1
AMIMASTER
  2
AmiMaster
  3
AmiServices
 90
        0
280
     1
281
     0
  0
CLASS
  1
MAPIAMMOUDLE
  2
MApiAmModule
  3
MApiAmServices
 90
        0
280
     1
281
     0
  0
CLASS
  1
AMDTADMENUSTATE
  2
AmdtAdMenuState
  3
DesignerServices
 90
        0
280
     1
281
     0
  0
CLASS
  1
ADAPPL
  2
AcAdAppl
  3
DesignerServices
 90
        0
280
     1
281
     0
  0
CLASS
  1
DEPMGR
  2
AcAdDepMgr
  3
DesignerServices
 90
        0
280
     1
281
     0
  0
CLASS
  1
PARAMMGR
  2
AcAdParamMgr
  3
DesignerServices
 90
        0
280
     1
281
     0
  0
CLASS
  1
PARAMSCOPE
  2
AcAdParamScope
  3
DesignerServices
 90
        0
280
     1
281
     0
  0
CLASS
  1
NAMEDAPPL
  2
AcAdNamedAppl
  3
DesignerServices
 90
        0
280
     1
281
     0
  0
CLASS
  1
AMDTDMMENUSTATE
  2
AmdtDmMenuState
  3
AcMechDwgViewMgmt
 90
        0
280
     1
281
     0
  0
CLASS
  1
AMDTAMMENUSTATE
  2
AmdtAmMenuState
  3
DesignerAssemblies
 90
        0
280
     1
281
     0
  0
CLASS
  1
ACAMPROJECT
  2
AcAmProject
  3
DesignerAssemblies
 90
        0
280
     1
281
     0
  0
CLASS
  1
ACAMGRCOMPDEF
  2
AcAmGrCompDef
  3
DesignerAssemblies
 90
        0
280
     1
281
     0
  0
CLASS
  1
ACCMCONTEXT
  2
AcCmContext
  3
DesignerAssemblies
 90
        0
280
     1
281
     0
  0
CLASS
  1
ACAMCOMPDEF
  2
AcAmCompDef
  3
DesignerAssemblies
 90
        0
280
     1
281
     0
  0
CLASS
  1
ACAMCOMPDEFMGR
  2
AcAmCompDefMgr
  3
DesignerAssemblies
 90
        0
280
     1
281
     0
  0
CLASS
  1
AMCONTEXTMGR
  2
AcAmContextMgr
  3
DesignerAssemblies
 90
        0
280
     1
281
     0
  0
CLASS
  1
ACAMCONTEXTMODELER
  2
AcAmContextModeler
  3
DesignerAssemblies
 90
        0
280
     1
281
     0
  0
CLASS
  1
ACAMGTITLESTD
  2
AcAmgTitleStd
  3
"TITLEAPP"
 90
        0
280
     1
281
     0
  0
CLASS
  1
ACMDETAILSTANDARDJIS
  2
AmdtDetailSymStdJIS
  3
"Amdt_StdImp|Product Description: AutoCAD Mechanical 2004 DX|Company: Autodesk"
 90
        0
280
     1
281
     0
  0
CLASS
  1
ACMSECTIONSTANDARDJIS
  2
AmdtSectionSymStdJIS
  3
"Amdt_StdImp|Product Description: AutoCAD Mechanical 2004 DX|Company: Autodesk"
 90
        0
280
     1
281
     0
  0
CLASS
  1
ACMCENTERLINESTANDARDJIS
  2
AmdtCenterLineStdJIS
  3
"Amdt_StdImp|Product Description: AutoCAD Mechanical 2004 DX|Company: Autodesk"
 90
        0
280
     1
281
     0
  0
CLASS
  1
ACMTHREADLINESTANDARDJIS
  2
AmdtThreadLineStdJIS
  3
"Amdt_StdImp|Product Description: AutoCAD Mechanical 2004 DX|Company: Autodesk"
 90
        0
280
     1
281
     0
  0
CLASS
  1
ACMNOTESTANDARDJIS
  2
AmdtNoteStdJIS
  3
"Amdt_StdImp|Product Description: AutoCAD Mechanical 2004 DX|Company: Autodesk"
 90
        0
280
     1
281
     0
  0
CLASS
  1
AMDTNOTETEMPLATEDB
  2
AmdtNoteTemplateDB
  3
AMDT_STDIMP_MODULE_NAME
 90
        0
280
     1
281
     0
  0
CLASS
  1
ACAMGLAYSTD
  2
AcAmgLayStd
  3
"AcAmgLayStd|Product Description: AutoCAD Mechanical 2000|Company: Autodesk"
 90
        0
280
     1
281
     0
  0
CLASS
  1
ACAMGDIMSTD
  2
AcAmgDimStd
  3
"AcAmgDimStd|Product Description: AutoCAD Mechanical 2000|Company: Autodesk"
 90
        0
280
     1
281
     0
  0
CLASS
  1
ACAMGHOLECHARTSTDJIS
  2
AcAmgHoleChartStdJIS
  3
ACMSYMBB_MODULE_NAME
 90
        0
280
     1
281
     0
  0
CLASS
  1
CATALOGSTATE
  2
AcAmCatalogState
  3
DesignerAssemblies
 90
        0
280
     1
281
     0
  0
CLASS
  1
ACAMGRCOMPDEFSET
  2
AcAmGrCompDefSet
  3
DesignerAssemblies
 90
        0
280
     1
281
     0
  0
CLASS
  1
AMDTBROWSERDBTAB
  2
AmdtBrowserDbTab
  3
McadcomServices
 90
        0
280
     1
281
     0
  0
CLASS
  1
CBROWSERAPPOBJECT
  2
CBrowserAppObject
  3
McadcomServices
 90
        0
280
     1
281
     0
  0
CLASS
  1
DM_PLACEHOLDER
  2
AcDmSelsetPlaceholder
  3
AcMechDwgViewMgmt
 90
        0
280
     1
281
     0
  0
CLASS
  1
SORTENTSTABLE
  2
AcDbSortentsTable
  3
ObjectDBX Classes
 90
        0
280
     0
281
     0
  0
ENDSEC
  0
SECTION
  2
TABLES
  0
TABLE
  2
VPORT
  5
8
330
0
100
AcDbSymbolTable
 70
     3
  0
VPORT
  5
19B5D
330
8
100
AcDbSymbolTableRecord
100
AcDbViewportTableRecord
  2
*Active
 70
     0
 10
0.0
 20
0.0
 11
1.0
 21
1.0
 12
167.8431090144596
 22
-65.55461739442998
 13
0.0
 23
0.0
 14
2.5
 24
2.5
 15
10.0
 25
10.0
 16
0.0
 26
0.0
 36
1.0
 17
0.0
 27
0.0
 37
0.0
 40
430.0898883188158
 41
1.610603290676417
 42
50.0
 43
0.0
 44
0.0
 50
0.0
 51
0.0
 71
    16
 72
  2000
 73
     1
 74
     3
 75
     0
 76
     0
 77
     0
 78
     0
281
     0
 65
     1
110
0.0
120
0.0
130
0.0
111
1.0
121
0.0
131
0.0
112
0.0
122
1.0
132
0.0
 79
     0
146
0.0
  0
ENDTAB
  0
TABLE
  2
LTYPE
  5
5
330
0
100
AcDbSymbolTable
 70
    13
  0
LTYPE
  5
14
330
5
100
AcDbSymbolTableRecord
100
AcDbLinetypeTableRecord
  2
ByBlock
 70
     0
  3

 72
    65
 73
     0
 40
0.0
  0
LTYPE
  5
15
330
5
100
AcDbSymbolTableRecord
100
AcDbLinetypeTableRecord
  2
ByLayer
 70
     0
  3

 72
    65
 73
     0
 40
0.0
  0
LTYPE
  5
16
330
5
100
AcDbSymbolTableRecord
100
AcDbLinetypeTableRecord
  2
Continuous
 70
     0
  3
Solid line
 72
    65
 73
     0
 40
0.0
  0
LTYPE
  5
43
330
5
100
AcDbSymbolTableRecord
100
AcDbLinetypeTableRecord
  2
AM_ISO02W050
 70
     0
  3
__ __ __ __ __ __ __ __ __ __ __ __ __ __ __
 72
    65
 73
     2
 40
7.5
 49
6.0
 74
     0
 49
-1.5
 74
     0
  0
LTYPE
  5
44
330
5
100
AcDbSymbolTableRecord
100
AcDbLinetypeTableRecord
  2
AM_ISO08W050
 70
     0
  3
____ . ____ . ____ . ____ . ____ . ____ . ____
 72
    65
 73
     4
 40
18.0
 49
12.0
 74
     0
 49
-1.5
 74
     0
 49
3.0
 74
     0
 49
-1.5
 74
     0
  0
LTYPE
  5
45
330
5
100
AcDbSymbolTableRecord
100
AcDbLinetypeTableRecord
  2
AM_ISO09W050
 70
     0
  3
_____ . . _____ . . _____ . . ____ .. ____
 72
    65
 73
     6
 40
22.5
 49
12.0
 74
     0
 49
-1.5
 74
     0
 49
3.0
 74
     0
 49
-1.5
 74
     0
 49
3.0
 74
     0
 49
-1.5
 74
     0
  0
LTYPE
  5
46
330
5
100
AcDbSymbolTableRecord
100
AcDbLinetypeTableRecord
  2
Amconstr
 70
     0
  3
_______________________
 72
    65
 73
     2
 40
9999.0
 49
9999.0
 74
     0
 49
0.0
 74
     0
  0
LTYPE
  5
47
330
5
100
AcDbSymbolTableRecord
100
AcDbLinetypeTableRecord
  2
AM_ISO02W050x2
 70
     0
  3
 _ _ _ _ _ _ _ _ _ _ _ _
 72
    65
 73
     2
 40
3.75
 49
3.0
 74
     0
 49
-0.75
 74
     0
  0
LTYPE
  5
48
330
5
100
AcDbSymbolTableRecord
100
AcDbLinetypeTableRecord
  2
AM_ISO08W050x2
 70
     0
  3
__ . __ . __ . __ . __ . __
 72
    65
 73
     4
 40
9.0
 49
6.0
 74
     0
 49
-0.75
 74
     0
 49
1.5
 74
     0
 49
-0.75
 74
     0
  0
LTYPE
  5
4B
330
5
100
AcDbSymbolTableRecord
100
AcDbLinetypeTableRecord
  2
Amzigzag
 70
     0
  3
/\/-/\/-/\/-/\/-/\/-/\/
 72
    65
 73
     2
 40
11.0001
 49
0.0001
 74
     4
 75
   135
340
4A
 46
0.04
 50
0.0
 44
0.0
 45
0.0
 49
-11.0
 74
     0
  0
LTYPE
  5
188
330
5
100
AcDbSymbolTableRecord
100
AcDbLinetypeTableRecord
  2
ACJISTGB
 70
     0
  3
__ . . __ . .
 72
    65
 73
     6
 40
9.0
 49
4.0
 74
     0
 49
-1.0
 74
     0
 49
1.0
 74
     0
 49
-1.0
 74
     0
 49
1.0
 74
     0
 49
-1.0
 74
     0
  0
LTYPE
  5
189
330
5
100
AcDbSymbolTableRecord
100
AcDbLinetypeTableRecord
  2
ACJISTGL
 70
     0
  3
_ _ _ _ _
 72
    65
 73
     2
 40
3.0
 49
2.0
 74
     0
 49
-1.0
 74
     0
  0
LTYPE
  5
652
330
5
100
AcDbSymbolTableRecord
100
AcDbLinetypeTableRecord
  2
CENTER
 70
     0
  3
____ _ ____ _ ____ _ ____ _ ____ _ ____ _ ____
 72
    65
 73
     4
 40
17.5
 49
13.0
 74
     0
 49
-1.5
 74
     0
 49
1.5
 74
     0
 49
-1.5
 74
     0
  0
LTYPE
  5
12AB
330
5
100
AcDbSymbolTableRecord
100
AcDbLinetypeTableRecord
  2
HIDDEN
 70
     0
  3
Hidden __ __ __ __ __ __ __ __ __ __ __ __ __ _
 72
    65
 73
     2
 40
0.375
 49
0.25
 74
     0
 49
-0.125
 74
     0
  0
LTYPE
  5
12AC
330
5
100
AcDbSymbolTableRecord
100
AcDbLinetypeTableRecord
  2
PHANTOM2
 70
     0
  3
Phantom (.5x) ___ _ _ ___ _ _ ___ _ _ ___ _ _
 72
    65
 73
     6
 40
1.25
 49
0.625
 74
     0
 49
-0.125
 74
     0
 49
0.125
 74
     0
 49
-0.125
 74
     0
 49
0.125
 74
     0
 49
-0.125
 74
     0
  0
ENDTAB
  0
TABLE
  2
LAYER
  5
2
102
{ACAD_XDICTIONARY
360
18F7E
102
}
330
0
100
AcDbSymbolTable
 70
     7
  0
LAYER
  5
10
330
2
100
AcDbSymbolTableRecord
100
AcDbLayerTableRecord
  2
0
 70
     0
 62
     7
  6
Continuous
370
    -3
390
F
  0
LAYER
  5
7D
330
2
100
AcDbSymbolTableRecord
100
AcDbLayerTableRecord
  2
AM_5
 70
     0
 62
     3
  6
Continuous
370
    13
390
F
  0
LAYER
  5
7F
330
2
100
AcDbSymbolTableRecord
100
AcDbLayerTableRecord
  2
Defpoints
 70
     0
 62
     7
  6
Continuous
290
     0
370
    -3
390
F
  0
LAYER
  5
12B1
330
2
100
AcDbSymbolTableRecord
100
AcDbLayerTableRecord
  2
AM_0
 70
     0
 62
     7
  6
Continuous
370
    30
390
F
  0
LAYER
  5
1AFF
330
2
100
AcDbSymbolTableRecord
100
AcDbLayerTableRecord
  2
AM_7
 70
     0
 62
     4
  6
AM_ISO08W050
370
    13
390
F
  0
LAYER
  5
361D
330
2
100
AcDbSymbolTableRecord
100
AcDbLayerTableRecord
  2
AM_11
 70
     0
 62
     3
  6
AM_ISO09W050
370
    13
390
F
  0
ENDTAB
  0
TABLE
  2
STYLE
  5
3
330
0
100
AcDbSymbolTable
 70
     4
  0
STYLE
  5
11
330
3
100
AcDbSymbolTableRecord
100
AcDbTextStyleTableRecord
  2
STANDARD
 70
     0
 40
0.0
 41
1.0
 50
0.0
 71
     0
 42
4.0
  3
ISOCP.SHX
  4
EXTFONT.SHX
  0
STYLE
  5
4A
330
3
100
AcDbSymbolTableRecord
100
AcDbTextStyleTableRecord
  2

 70
     1
 40
0.0
 41
1.0
 50
0.0
 71
     0
 42
2.5
  3
ltypeshp.shx
  4

  0
STYLE
  5
180
330
3
100
AcDbSymbolTableRecord
100
AcDbTextStyleTableRecord
  2
ACJISTS
 70
     0
 40
1.0
 41
1.0
 50
0.0
 71
     0
 42
2.5
  3
isocp.shx
  4
bigfont.shx
  0
STYLE
  5
187
330
3
100
AcDbSymbolTableRecord
100
AcDbTextStyleTableRecord
  2
ACJISGDT
 70
     0
 40
0.0
 41
1.0
 50
0.0
 71
     0
 42
2.5
  3
amgdt.shx
  4

  0
ENDTAB
  0
TABLE
  2
VIEW
  5
6
330
0
100
AcDbSymbolTable
 70
     6
  0
VIEW
  5
A30
330
6
100
AcDbSymbolTableRecord
100
AcDbViewTableRecord
  2
AM_VIEW1
 70
     0
 40
148.5
 10
108.6929657794677
 20
222.75
 41
217.3859315589354
 11
0.0
 21
0.0
 31
1.0
 12
0.0
 22
0.0
 32
0.0
 42
50.0
 43
0.0
 44
0.0
 50
0.0
 71
    16
281
     0
 72
     0
  0
VIEW
  5
A31
330
6
100
AcDbSymbolTableRecord
100
AcDbViewTableRecord
  2
AM_VIEW2
 70
     0
 40
148.5
 10
311.3070342205323
 20
222.75
 41
217.3859315589354
 11
0.0
 21
0.0
 31
1.0
 12
0.0
 22
0.0
 32
0.0
 42
50.0
 43
0.0
 44
0.0
 50
0.0
 71
    16
281
     0
 72
     0
  0
VIEW
  5
A32
330
6
100
AcDbSymbolTableRecord
100
AcDbViewTableRecord
  2
AM_VIEW3
 70
     0
 40
148.5
 10
108.6929657794677
 20
74.25
 41
217.3859315589354
 11
0.0
 21
0.0
 31
1.0
 12
0.0
 22
0.0
 32
0.0
 42
50.0
 43
0.0
 44
0.0
 50
0.0
 71
    16
281
     0
 72
     0
  0
VIEW
  5
A33
330
6
100
AcDbSymbolTableRecord
100
AcDbViewTableRecord
  2
AM_VIEW4
 70
     0
 40
148.5
 10
311.3070342205323
 20
74.25
 41
217.3859315589354
 11
0.0
 21
0.0
 31
1.0
 12
0.0
 22
0.0
 32
0.0
 42
50.0
 43
0.0
 44
0.0
 50
0.0
 71
    16
281
     0
 72
     0
  0
VIEW
  5
A34
330
6
100
AcDbSymbolTableRecord
100
AcDbViewTableRecord
  2
AM_VIEW5
 70
     0
 40
148.5
 10
210.0
 20
148.5
 41
217.3859315589353
 11
0.0
 21
0.0
 31
1.0
 12
0.0
 22
0.0
 32
0.0
 42
50.0
 43
0.0
 44
0.0
 50
0.0
 71
    16
281
     0
 72
     0
  0
VIEW
  5
A35
330
6
100
AcDbSymbolTableRecord
100
AcDbViewTableRecord
  2
AM_VIEW6
 70
     0
 40
296.99703
 10
210.0
 20
148.5
 41
434.7675153992395
 11
0.0
 21
0.0
 31
1.0
 12
0.0
 22
0.0
 32
0.0
 42
50.0
 43
0.0
 44
0.0
 50
0.0
 71
    16
281
     0
 72
     0
  0
ENDTAB
  0
TABLE
  2
UCS
  5
7
330
0
100
AcDbSymbolTable
 70
     0
  0
ENDTAB
  0
TABLE
  2
APPID
  5
9
330
0
100
AcDbSymbolTable
 70
    43
  0
APPID
  5
12
330
9
100
AcDbSymbolTableRecord
100
AcDbRegAppTableRecord
  2
ACAD
 70
     0
  0
APPID
  5
2C
330
9
100
AcDbSymbolTableRecord
100
AcDbRegAppTableRecord
  2
MCAD_NO_VIS
 70
     0
  0
APPID
  5
2D
330
9
100
AcDbSymbolTableRecord
100
AcDbRegAppTableRecord
  2
ACAD_TEMP_GRAPHIC
 70
     0
  0
APPID
  5
B9
330
9
100
AcDbSymbolTableRecord
100
AcDbRegAppTableRecord
  2
GENIUS_GENDTOL_13
 70
     0
  0
APPID
  5
359
330
9
100
AcDbSymbolTableRecord
100
AcDbRegAppTableRecord
  2
GENIUS_GENREC_14
 70
     0
  0
APPID
  5
35A
330
9
100
AcDbSymbolTableRecord
100
AcDbRegAppTableRecord
  2
GENIUS_GENODEF_13
 70
     0
  0
APPID
  5
35B
330
9
100
AcDbSymbolTableRecord
100
AcDbRegAppTableRecord
  2
GENIUS_GENOBJ-N-REC_13
 70
     0
  0
APPID
  5
667
330
9
100
AcDbSymbolTableRecord
100
AcDbRegAppTableRecord
  2
GENIUS_GENCFG_13
 70
     0
  0
APPID
  5
668
330
9
100
AcDbSymbolTableRecord
100
AcDbRegAppTableRecord
  2
GENIUS_GENCFG0_13
 70
     0
  0
APPID
  5
669
330
9
100
AcDbSymbolTableRecord
100
AcDbRegAppTableRecord
  2
GENIUS_GENCFG1_13
 70
     0
  0
APPID
  5
66A
330
9
100
AcDbSymbolTableRecord
100
AcDbRegAppTableRecord
  2
GENIUS_GENCFG2_13
 70
     0
  0
APPID
  5
66B
330
9
100
AcDbSymbolTableRecord
100
AcDbRegAppTableRecord
  2
GENIUS_GENCFG3_13
 70
     0
  0
APPID
  5
66C
330
9
100
AcDbSymbolTableRecord
100
AcDbRegAppTableRecord
  2
GENIUS_GENCFG4_13
 70
     0
  0
APPID
  5
A76
330
9
100
AcDbSymbolTableRecord
100
AcDbRegAppTableRecord
  2
GENIUS_GENBLLY_14
 70
     0
  0
APPID
  5
A77
330
9
100
AcDbSymbolTableRecord
100
AcDbRegAppTableRecord
  2
GENIUS_GENOBJ-N-CEN_13
 70
     0
  0
APPID
  5
A83
330
9
100
AcDbSymbolTableRecord
100
AcDbRegAppTableRecord
  2
GENIUS_GENTRA_14
 70
     0
  0
APPID
  5
A8D
330
9
100
AcDbSymbolTableRecord
100
AcDbRegAppTableRecord
  2
GENIUS_GENOBJ-N-TIT_13
 70
     0
  0
APPID
  5
A8E
330
9
100
AcDbSymbolTableRecord
100
AcDbRegAppTableRecord
  2
GENIUS_GENTITLE_13
 70
     0
  0
APPID
  5
A8F
330
9
100
AcDbSymbolTableRecord
100
AcDbRegAppTableRecord
  2
GENIUS_GENOENT_13
 70
     0
  0
APPID
  5
A90
330
9
100
AcDbSymbolTableRecord
100
AcDbRegAppTableRecord
  2
GENIUS_GENOREF_13
 70
     0
  0
APPID
  5
A91
330
9
100
AcDbSymbolTableRecord
100
AcDbRegAppTableRecord
  2
GENIUS_GENOLIS_13
 70
     0
  0
APPID
  5
A92
330
9
100
AcDbSymbolTableRecord
100
AcDbRegAppTableRecord
  2
GENIUS_GENZVEED_13
 70
     0
  0
APPID
  5
A93
330
9
100
AcDbSymbolTableRecord
100
AcDbRegAppTableRecord
  2
GENIUS_GENSCREG_15
 70
     0
  0
APPID
  5
A94
330
9
100
AcDbSymbolTableRecord
100
AcDbRegAppTableRecord
  2
GENIUS_GENOBJ-N-SDF_13
 70
     0
  0
APPID
  5
12B5
330
9
100
AcDbSymbolTableRecord
100
AcDbRegAppTableRecord
  2
GENIUS_GENOBJ-N-RSBK_13
 70
     0
  0
APPID
  5
12B6
330
9
100
AcDbSymbolTableRecord
100
AcDbRegAppTableRecord
  2
GENIUS_GENOBJ-N-LIB_13
 70
     0
  0
APPID
  5
12B7
330
9
100
AcDbSymbolTableRecord
100
AcDbRegAppTableRecord
  2
GENIUS_GENSCALE_13
 70
     0
  0
APPID
  5
12B8
330
9
100
AcDbSymbolTableRecord
100
AcDbRegAppTableRecord
  2
GENIUS_GENOBJ-N-HTC_13
 70
     0
  0
APPID
  5
12B9
330
9
100
AcDbSymbolTableRecord
100
AcDbRegAppTableRecord
  2
GENIUS_GENHATCH_13
 70
     0
  0
APPID
  5
1687
330
9
100
AcDbSymbolTableRecord
100
AcDbRegAppTableRecord
  2
BASE_TYPE
 70
     0
  0
APPID
  5
1ABF
330
9
100
AcDbSymbolTableRecord
100
AcDbRegAppTableRecord
  2
GENIUS_GENFIL_13
 70
     0
  0
APPID
  5
1AC0
330
9
100
AcDbSymbolTableRecord
100
AcDbRegAppTableRecord
  2
GENIUS_GENOBJ-N-CHA_13
 70
     0
  0
APPID
  5
1AE7
330
9
100
AcDbSymbolTableRecord
100
AcDbRegAppTableRecord
  2
GENIUS_GENOBJ-N-FIL_13
 70
     0
  0
APPID
  5
20E9
330
9
100
AcDbSymbolTableRecord
100
AcDbRegAppTableRecord
  2
GENIUS_GENDIMSH_14
 70
     0
  0
APPID
  5
18F06
330
9
100
AcDbSymbolTableRecord
100
AcDbRegAppTableRecord
  2
AD_DRAW
 70
     0
  0
APPID
  5
18F09
330
9
100
AcDbSymbolTableRecord
100
AcDbRegAppTableRecord
  2
ACATTRIBSERVICES
 70
     0
  0
APPID
  5
18F27
330
9
100
AcDbSymbolTableRecord
100
AcDbRegAppTableRecord
  2
DESIGNERASSEMBLIES
 70
     0
  0
APPID
  5
18F3A
330
9
100
AcDbSymbolTableRecord
100
AcDbRegAppTableRecord
  2
ACADM_DIM_EDIT
 70
     0
  0
APPID
  5
18F3B
330
9
100
AcDbSymbolTableRecord
100
AcDbRegAppTableRecord
  2
AMDT_DM_ADJ
 70
     0
  0
APPID
  5
18FD8
330
9
100
AcDbSymbolTableRecord
100
AcDbRegAppTableRecord
  2
GENIUS_GENCEN_19
 70
     0
  0
APPID
  5
1924C
330
9
100
AcDbSymbolTableRecord
100
AcDbRegAppTableRecord
  2
ACAD_DSTYLE_DIMTEXT_FILL
 70
     0
  0
APPID
  5
1924D
330
9
100
AcDbSymbolTableRecord
100
AcDbRegAppTableRecord
  2
ACAD_PSEXT
 70
     0
  0
APPID
  5
1956E
330
9
100
AcDbSymbolTableRecord
100
AcDbRegAppTableRecord
  2
DCO15
 70
     0
  0
ENDTAB
  0
TABLE
  2
DIMSTYLE
  5
A
330
0
100
AcDbSymbolTable
 70
    10
100
AcDbDimStyleTable
  0
DIMSTYLE
105
58
330
A
100
AcDbSymbolTableRecord
100
AcDbDimStyleTableRecord
  2
AM_JIS
 70
     0
  4
"
 41
2.5
 42
0.0
 43
10.0
 44
1.0
 47
0.1
 48
0.1000000001
 73
     0
 74
     0
 77
     3
 78
     1
 79
     2
140
3.8
141
0.0
143
0.0393701
146
0.71
147
1.5
172
     1
176
   256
177
   256
178
     2
179
     2
271
     3
272
     3
275
     1
283
     0
284
     8
340
11
341
59
342
59
371
    -1
372
    -1
  0
DIMSTYLE
105
5F
102
{ACAD_REACTORS
330
15FAE
330
170CD
102
}
330
A
100
AcDbSymbolTableRecord
100
AcDbDimStyleTableRecord
  2
AM_JIS$3
 70
     0
  4
"
 41
2.5
 42
0.0
 43
10.0
 44
1.0
 47
0.1
 48
0.1000000001
 73
     0
 77
     3
 78
     1
 79
     2
140
3.8
141
0.0
143
0.0393701
146
0.71
147
1.5
172
     1
176
   256
177
   256
178
     2
179
     2
271
     3
272
     3
275
     1
283
     0
284
     8
288
     1
289
     0
340
11
341
59
342
59
371
    -1
372
    -1
  0
DIMSTYLE
105
60
330
A
100
AcDbSymbolTableRecord
100
AcDbDimStyleTableRecord
  2
AM_JIS$4
 70
     0
  4
"
 41
2.5
 42
0.0
 43
10.0
 44
1.0
 47
0.1
 48
0.1000000001
 73
     0
 77
     3
 78
     1
 79
     2
140
3.8
141
0.0
143
0.0393701
146
0.71
147
1.5
172
     1
176
   256
177
   256
178
     2
179
     2
271
     3
272
     3
275
     1
283
     0
284
     8
288
     1
289
     0
340
11
341
59
342
59
371
    -1
372
    -1
  0
DIMSTYLE
105
61
330
A
100
AcDbSymbolTableRecord
100
AcDbDimStyleTableRecord
  2
AM_JIS$6
 70
     0
  4
"
 41
2.5
 42
0.0
 43
10.0
 44
1.0
 47
0.1
 48
0.1000000001
 73
     0
 74
     0
 78
     1
 79
     2
140
3.8
141
0.0
143
0.0393701
146
0.71
147
1.5
172
     1
176
   256
177
   256
178
     2
179
     2
271
     3
272
     3
275
     1
283
     0
284
     8
340
11
341
59
342
59
371
    -1
372
    -1
  0
DIMSTYLE
105
62
330
A
100
AcDbSymbolTableRecord
100
AcDbDimStyleTableRecord
  2
AM_JIS$7
 70
     0
  4
"
 41
2.5
 42
0.0
 43
10.0
 44
1.0
 47
0.1
 48
0.1000000001
 73
     0
 74
     0
 77
     3
 78
     1
 79
     2
140
5.0
141
0.0
143
0.0393701
146
0.71
147
1.5
172
     1
176
   256
177
   256
178
     2
179
     2
271
     3
272
     3
275
     1
283
     0
284
     8
340
11
341
59
342
59
371
    -1
372
    -1
  0
DIMSTYLE
105
63
330
A
100
AcDbSymbolTableRecord
100
AcDbDimStyleTableRecord
  2
AM_JIS$SF
 70
     0
  4
"
 41
2.5
 42
1.0
 43
10.0
 44
1.0
 47
0.1
 48
0.1
 73
     0
 74
     0
 75
     1
 76
     1
 77
     3
 78
     8
 79
     2
140
3.5
141
0.0
143
0.0393701
146
0.71
147
1.5
176
   256
177
   256
178
     2
271
     2
272
     3
274
     4
340
11
341
59
342
59
343
59
344
59
371
    -1
372
    -1
  0
DIMSTYLE
105
68
330
A
100
AcDbSymbolTableRecord
100
AcDbDimStyleTableRecord
  2
AM_JIS$SH
 70
     0
  4
"
 41
2.5
 42
1.0
 43
10.0
 44
1.0
 47
0.1
 48
0.1
 73
     0
 74
     0
 75
     1
 76
     1
 77
     3
 78
     8
 79
     2
140
3.5
141
0.0
143
0.0393701
144
2.0
146
0.71
147
1.5
173
     1
176
   256
177
   256
178
     2
271
     2
272
     3
274
     4
340
11
341
59
342
59
343
64
344
59
371
    -1
372
    -1
  0
DIMSTYLE
105
65F
330
A
100
AcDbSymbolTableRecord
100
AcDbDimStyleTableRecord
  2
STANDARD
 70
     0
340
11
  0
DIMSTYLE
105
1B97
102
{ACAD_REACTORS
330
F478
330
185EB
330
197B7
330
19881
102
}
330
A
100
AcDbSymbolTableRecord
100
AcDbDimStyleTableRecord
  2
AM_JIS$0
 70
     0
  4
"
 41
2.5
 42
0.0
 43
10.0
 44
1.0
 47
0.1
 48
0.1000000001
 73
     0
 74
     0
 77
     3
 78
     1
 79
     2
140
3.8
141
0.0
143
0.0393701
146
0.71
147
1.5
172
     1
176
     3
177
     3
178
     2
271
     3
272
     3
275
     1
283
     0
284
     8
289
     0
340
11
341
59
342
59
371
    13
372
    13
  0
DIMSTYLE
105
1B98
102
{ACAD_REACTORS
330
197E8
330
19842
102
}
330
A
100
AcDbSymbolTableRecord
100
AcDbDimStyleTableRecord
  2
AM_JIS$2
 70
     0
  4
"
 41
2.5
 42
0.0
 43
10.0
 44
1.0
 47
0.1
 48
0.1000000001
 73
     0
 74
     0
 77
     3
 78
     1
 79
     2
140
3.8
141
0.0
143
0.0393701
146
0.71
147
1.5
172
     1
176
     3
177
     3
178
     2
271
     3
272
     3
275
     1
283
     0
284
     8
289
     0
340
11
341
59
342
59
371
    13
372
    13
  0
ENDTAB
  0
TABLE
  2
BLOCK_RECORD
  5
1
330
0
100
AcDbSymbolTable
 70
    12
  0
BLOCK_RECORD
  5
1F
102
{ACAD_XDICTIONARY
360
165
102
}
330
1
100
AcDbSymbolTableRecord
100
AcDbBlockTableRecord
  2
*Model_Space
340
22
  0
BLOCK_RECORD
  5
1B
330
1
100
AcDbSymbolTableRecord
100
AcDbBlockTableRecord
  2
*Paper_Space
340
1E
  0
BLOCK_RECORD
  5
23
330
1
100
AcDbSymbolTableRecord
100
AcDbBlockTableRecord
  2
*Paper_Space0
340
26
  0
BLOCK_RECORD
  5
59
330
1
100
AcDbSymbolTableRecord
100
AcDbBlockTableRecord
  2
_Open30
340
0
102
{BLKREFS
331
19AE9
331
19AEA
331
19AF4
331
19AF5
331
19B3B
331
19B3C
331
19B06
331
19B07
331
19B0F
331
19B10
331
19B18
331
19B19
331
19B25
331
19B26
331
19B30
331
19B31
102
}
  0
BLOCK_RECORD
  5
64
330
1
100
AcDbSymbolTableRecord
100
AcDbBlockTableRecord
  2
GENAXEH
340
0
  0
BLOCK_RECORD
  5
F479
330
1
100
AcDbSymbolTableRecord
100
AcDbBlockTableRecord
  2
*D3
340
0
  0
BLOCK_RECORD
  5
15FAF
330
1
100
AcDbSymbolTableRecord
100
AcDbBlockTableRecord
  2
*D4
340
0
  0
BLOCK_RECORD
  5
170CE
330
1
100
AcDbSymbolTableRecord
100
AcDbBlockTableRecord
  2
*D5
340
0
  0
BLOCK_RECORD
  5
185EC
330
1
100
AcDbSymbolTableRecord
100
AcDbBlockTableRecord
  2
*D6
340
0
  0
BLOCK_RECORD
  5
18F1E
330
1
100
AcDbSymbolTableRecord
100
AcDbBlockTableRecord
  2
*U7
340
0
  0
BLOCK_RECORD
  5
197B8
330
1
100
AcDbSymbolTableRecord
100
AcDbBlockTableRecord
  2
*D8
340
0
  0
BLOCK_RECORD
  5
197E9
330
1
100
AcDbSymbolTableRecord
100
AcDbBlockTableRecord
  2
*D9
340
0
  0
BLOCK_RECORD
  5
19843
330
1
100
AcDbSymbolTableRecord
100
AcDbBlockTableRecord
  2
*D10
340
0
  0
BLOCK_RECORD
  5
19882
330
1
100
AcDbSymbolTableRecord
100
AcDbBlockTableRecord
  2
*D11
340
0
  0
ENDTAB
  0
ENDSEC
  0
SECTION
  2
BLOCKS
  0
BLOCK
  5
20
330
1F
100
AcDbEntity
  8
0
100
AcDbBlockBegin
  2
*Model_Space
 70
     0
 71
     0
 10
0.0
 20
0.0
 30
0.0
  3
*Model_Space
  1

  0
ENDBLK
  5
21
330
1F
100
AcDbEntity
  8
0
100
AcDbBlockEnd
  0
BLOCK
  5
1C
330
1B
100
AcDbEntity
 67
     1
  8
0
100
AcDbBlockBegin
  2
*Paper_Space
 70
     0
 71
     0
 10
0.0
 20
0.0
 30
0.0
  3
*Paper_Space
  1

  0
ENDBLK
  5
1D
330
1B
100
AcDbEntity
 67
     1
  8
0
100
AcDbBlockEnd
  0
BLOCK
  5
24
330
23
100
AcDbEntity
  8
0
100
AcDbBlockBegin
  2
*Paper_Space0
 70
     0
 71
     0
 10
0.0
 20
0.0
 30
0.0
  3
*Paper_Space0
  1

  0
ENDBLK
  5
25
330
23
100
AcDbEntity
  8
0
100
AcDbBlockEnd
  0
BLOCK
  5
5D
330
59
100
AcDbEntity
  8
0
100
AcDbBlockBegin
  2
_Open30
 70
     0
 71
     0
 10
0.0
 20
0.0
 30
0.0
  3
_Open30
  1

  0
LINE
  5
5A
330
59
100
AcDbEntity
  8
0
 62
     0
370
    -2
100
AcDbLine
 10
-1.0
 20
0.26794919
 30
0.0
 11
0.0
 21
0.0
 31
0.0
  0
LINE
  5
5B
330
59
100
AcDbEntity
  8
0
 62
     0
370
    -2
100
AcDbLine
 10
0.0
 20
0.0
 30
0.0
 11
-1.0
 21
-0.26794919
 31
0.0
  0
LINE
  5
5C
330
59
100
AcDbEntity
  8
0
 62
     0
370
    -2
100
AcDbLine
 10
0.0
 20
0.0
 30
0.0
 11
-1.0
 21
0.0
 31
0.0
  0
ENDBLK
  5
5E
330
59
100
AcDbEntity
  8
0
100
AcDbBlockEnd
  0
BLOCK
  5
66
330
64
100
AcDbEntity
  8
0
100
AcDbBlockBegin
  2
GENAXEH
 70
     0
 71
     0
 10
0.0
 20
0.0
 30
0.0
  3
GENAXEH
  1

  0
LINE
  5
65
330
64
100
AcDbEntity
  8
0
100
AcDbLine
 10
-1.0
 20
0.0
 30
0.0
 11
1.0
 21
0.0
 31
0.0
  0
ENDBLK
  5
67
330
64
100
AcDbEntity
  8
0
100
AcDbBlockEnd
  0
BLOCK
  5
F484
330
F479
100
AcDbEntity
  8
0
100
AcDbBlockBegin
  2
*D3
 70
     1
 71
     0
 10
0.0
 20
0.0
 30
0.0
  3
*D3
  1

  0
LINE
  5
19AE6
330
F479
100
AcDbEntity
  8
AM_5
 62
     3
370
    13
100
AcDbLine
 10
102.2499999999999
 20
8.641101056459306
 30
0.0
 11
102.2499999999999
 21
-17.51724740481573
 31
0.0
  0
LINE
  5
19AE7
330
F479
100
AcDbEntity
  8
AM_5
 62
     3
370
    13
100
AcDbLine
 10
120.2499999999999
 20
8.641101056459306
 30
0.0
 11
120.2499999999999
 21
-17.51724740481573
 31
0.0
  0
LINE
  5
19AE8
330
F479
100
AcDbEntity
  8
AM_5
 62
     3
370
    13
100
AcDbLine
 10
104.7499999999999
 20
-16.51724740481573
 30
0.0
 11
117.7499999999999
 21
-16.51724740481573
 31
0.0
  0
INSERT
  5
19AE9
330
F479
100
AcDbEntity
  8
AM_5
 62
     3
370
    13
100
AcDbBlockReference
  2
_Open30
 10
102.2499999999999
 20
-16.51724740481573
 30
0.0
 41
2.5
 42
2.5
 43
2.5
 50
180.0
  0
INSERT
  5
19AEA
330
F479
100
AcDbEntity
  8
AM_5
 62
     3
370
    13
100
AcDbBlockReference
  2
_Open30
 10
120.2499999999999
 20
-16.51724740481573
 30
0.0
 41
2.5
 42
2.5
 43
2.5
  0
MTEXT
  5
19AEB
330
F479
100
AcDbEntity
  8
AM_5
 62
     2
100
AcDbMText
 10
111.2499999999999
 20
-13.11724740481573
 30
0.0
 40
3.8
 41
0.0
 71
     5
 72
     1
  1
18
 73
     1
 44
1.0
  0
POINT
  5
19AEC
330
F479
100
AcDbEntity
  8
Defpoints
 62
     0
100
AcDbPoint
 10
102.2499999999999
 20
8.641101056459306
 30
0.0
  0
POINT
  5
19AED
330
F479
100
AcDbEntity
  8
Defpoints
 62
     0
100
AcDbPoint
 10
120.2499999999999
 20
8.641101056459306
 30
0.0
  0
POINT
  5
19AEE
330
F479
100
AcDbEntity
  8
Defpoints
 62
     0
100
AcDbPoint
 10
120.2499999999999
 20
-16.51724740481573
 30
0.0
  0
ENDBLK
  5
F485
330
F479
100
AcDbEntity
  8
0
100
AcDbBlockEnd
  0
BLOCK
  5
15FB8
330
15FAF
100
AcDbEntity
  8
0
100
AcDbBlockBegin
  2
*D4
 70
     1
 71
     0
 10
0.0
 20
0.0
 30
0.0
  3
*D4
  1

  0
LINE
  5
19AEF
330
15FAF
100
AcDbEntity
  8
AM_5
100
AcDbLine
 10
128.2535725244046
 20
36.02239896498753
 30
0.0
 11
119.1505803984202
 21
36.02239896498753
 31
0.0
  0
LINE
  5
19AF0
330
15FAF
100
AcDbEntity
  8
AM_5
100
AcDbLine
 10
119.1505803984202
 20
36.02239896498753
 30
0.0
 11
115.3073563156109
 21
24.82319160498444
 31
0.0
  0
LINE
  5
19AF1
330
15FAF
100
AcDbEntity
  8
AM_5
100
AcDbLine
 10
107.192643684389
 20
1.176808395015655
 30
0.0
 11
106.3811724212668
 21
-1.187829925981212
 31
0.0
  0
MTEXT
  5
19AF2
330
15FAF
100
AcDbEntity
  8
AM_5
 62
     2
100
AcDbMText
 10
124.4520764614125
 20
39.4227729807356
 30
0.0
 40
3.8
 41
0.0
 71
     5
 72
     1
  1
\U+220520
 73
     1
 44
1.0
  0
LINE
  5
19AF3
330
15FAF
100
AcDbEntity
  8
AM_5
100
AcDbLine
 10
108.0041149475112
 20
3.541446716012523
 30
0.0
 11
114.4958850524887
 21
22.45855328398758
 31
0.0
  0
INSERT
  5
19AF4
330
15FAF
100
AcDbEntity
  8
AM_5
100
AcDbBlockReference
  2
_Open30
 10
108.0041149475112
 20
3.541446716012523
 30
0.0
 41
2.5
 42
2.5
 43
2.5
 50
71.05935342546479
  0
INSERT
  5
19AF5
330
15FAF
100
AcDbEntity
  8
AM_5
100
AcDbBlockReference
  2
_Open30
 10
114.4958850524887
 20
22.45855328398758
 30
0.0
 41
2.5
 42
2.5
 43
2.5
 50
251.0593534254648
  0
POINT
  5
19AF6
330
15FAF
100
AcDbEntity
  8
Defpoints
 62
     0
100
AcDbPoint
 10
114.4958850524887
 20
22.45855328398758
 30
0.0
  0
POINT
  5
19AF7
330
15FAF
100
AcDbEntity
  8
Defpoints
 62
     0
100
AcDbPoint
 10
108.0041149475112
 20
3.541446716012523
 30
0.0
  0
ENDBLK
  5
15FB9
330
15FAF
100
AcDbEntity
  8
0
100
AcDbBlockEnd
  0
BLOCK
  5
170D4
330
170CE
100
AcDbEntity
  8
0
100
AcDbBlockBegin
  2
*D5
 70
     1
 71
     0
 10
0.0
 20
0.0
 30
0.0
  3
*D5
  1

  0
LINE
  5
19B36
330
170CE
100
AcDbEntity
  8
AM_5
100
AcDbLine
 10
-100.109733162887
 20
32.53214301654648
 30
0.0
 11
-76.24200715339789
 21
32.53214301654647
 31
0.0
  0
LINE
  5
19B37
330
170CE
100
AcDbEntity
  8
AM_5
100
AcDbLine
 10
-76.24200715339789
 20
32.53214301654647
 30
0.0
 11
-71.30953331966597
 21
25.09869625518435
 31
0.0
  0
LINE
  5
19B38
330
170CE
100
AcDbEntity
  8
AM_5
100
AcDbLine
 10
-54.72247910010708
 20
0.1013037448159686
 30
0.0
 11
-53.3402245818105
 21
-1.981812297714722
 31
0.0
  0
MTEXT
  5
19B39
330
170CE
100
AcDbEntity
  8
AM_5
 62
     2
100
AcDbMText
 10
-88.92587015814242
 20
39.09918369896117
 30
0.0
 40
3.8
 41
0.0
 71
     5
 72
     1
  1
最小加工径\P\U+220525\P
 73
     1
 44
1.0
  0
LINE
  5
19B3A
330
170CE
100
AcDbEntity
  8
AM_5
100
AcDbLine
 10
-56.10473361840364
 20
2.184419787346656
 30
0.0
 11
-69.92727880136941
 21
23.01558021265366
 31
0.0
  0
INSERT
  5
19B3B
330
170CE
100
AcDbEntity
  8
AM_5
100
AcDbBlockReference
  2
_Open30
 10
-56.10473361840364
 20
2.184419787346656
 30
0.0
 41
2.5
 42
2.5
 43
2.5
 50
123.5663177419167
  0
INSERT
  5
19B3C
330
170CE
100
AcDbEntity
  8
AM_5
100
AcDbBlockReference
  2
_Open30
 10
-69.92727880136941
 20
23.01558021265366
 30
0.0
 41
2.5
 42
2.5
 43
2.5
 50
303.5663177419166
  0
POINT
  5
19B3D
330
170CE
100
AcDbEntity
  8
Defpoints
 62
     0
100
AcDbPoint
 10
-69.92727880136941
 20
23.01558021265366
 30
0.0
  0
POINT
  5
19B3E
330
170CE
100
AcDbEntity
  8
Defpoints
 62
     0
100
AcDbPoint
 10
-56.10473361840364
 20
2.184419787346656
 30
0.0
  0
ENDBLK
  5
170D5
330
170CE
100
AcDbEntity
  8
0
100
AcDbBlockEnd
  0
BLOCK
  5
185F8
330
185EC
100
AcDbEntity
  8
0
100
AcDbBlockBegin
  2
*D6
 70
     1
 71
     0
 10
0.0
 20
0.0
 30
0.0
  3
*D6
  1

  0
LINE
  5
19B01
330
185EC
100
AcDbEntity
  8
AM_5
 62
     3
370
    13
100
AcDbLine
 10
0.799997476253111
 20
0.0
 30
0.0
 11
26.12100267896153
 21
-0.0000000000000072
 31
0.0
  0
LINE
  5
19B02
330
185EC
100
AcDbEntity
  8
AM_5
 62
     3
370
    13
100
AcDbLine
 10
16.56319292833757
 20
4.499999999999005
 30
0.0
 11
26.12100267896153
 21
4.499999999999002
 31
0.0
  0
LINE
  5
19B03
330
185EC
100
AcDbEntity
  8
AM_5
 62
     3
370
    13
100
AcDbLine
 10
25.12100267896153
 20
6.999999999999003
 30
0.0
 11
25.12100267896154
 21
9.499999999999004
 31
0.0
  0
LINE
  5
19B04
330
185EC
100
AcDbEntity
  8
AM_5
 62
     3
370
    13
100
AcDbLine
 10
25.12100267896153
 20
-2.500000000000007
 30
0.0
 11
25.12100267896153
 21
-15.29720451385875
 31
0.0
  0
LINE
  5
19B05
330
185EC
100
AcDbEntity
  8
AM_5
 62
     3
370
    13
100
AcDbLine
 10
25.12100267896153
 20
4.499999999999003
 30
0.0
 11
25.12100267896153
 21
-0.0000000000000069
 31
0.0
  0
INSERT
  5
19B06
330
185EC
100
AcDbEntity
  8
AM_5
 62
     3
370
    13
100
AcDbBlockReference
  2
_Open30
 10
25.12100267896153
 20
4.499999999999003
 30
0.0
 41
2.5
 42
2.5
 43
2.5
 50
270.0
  0
INSERT
  5
19B07
330
185EC
100
AcDbEntity
  8
AM_5
 62
     3
370
    13
100
AcDbBlockReference
  2
_Open30
 10
25.12100267896153
 20
-0.0000000000000069
 30
0.0
 41
2.5
 42
2.5
 43
2.5
 50
90.0
  0
MTEXT
  5
19B08
330
185EC
100
AcDbEntity
  8
AM_5
 62
     2
100
AcDbMText
 10
21.72100267896153
 20
-10.86850393700786
 30
0.0
 40
3.8
 41
0.0
 71
     5
 72
     1
  1
4.5
 11
6.123031769111886E-17
 21
1.0
 31
0.0
 73
     1
 44
1.0
  0
POINT
  5
19B09
330
185EC
100
AcDbEntity
  8
Defpoints
 62
     0
100
AcDbPoint
 10
0.799997476253111
 20
0.0
 30
0.0
  0
POINT
  5
19B0A
330
185EC
100
AcDbEntity
  8
Defpoints
 62
     0
100
AcDbPoint
 10
16.56319292833757
 20
4.499999999999005
 30
0.0
  0
POINT
  5
19B0B
330
185EC
100
AcDbEntity
  8
Defpoints
 62
     0
100
AcDbPoint
 10
25.12100267896153
 20
4.499999999999003
 30
0.0
  0
ENDBLK
  5
185F9
330
185EC
100
AcDbEntity
  8
0
100
AcDbBlockEnd
  0
BLOCK
  5
18F1F
330
18F1E
100
AcDbEntity
  8
0
100
AcDbBlockBegin
  2
*U7
 70
     1
 71
     0
 10
0.0
 20
0.0
 30
0.0
  3
*U7
  1

  0
ENDBLK
  5
18F20
330
18F1E
100
AcDbEntity
  8
0
100
AcDbBlockEnd
  0
BLOCK
  5
197E5
330
197B8
100
AcDbEntity
  8
0
100
AcDbBlockBegin
  2
*D8
 70
     1
 71
     0
 10
0.0
 20
0.0
 30
0.0
  3
*D8
  1

  0
LINE
  5
19B0C
330
197B8
100
AcDbEntity
  8
AM_5
 62
     3
370
    13
100
AcDbLine
 10
0.0
 20
0.0
 30
0.0
 11
-9.074273130314399
 21
0.0000000000000026
 31
0.0
  0
LINE
  5
19B0D
330
197B8
100
AcDbEntity
  8
AM_5
 62
     3
370
    13
100
AcDbLine
 10
-4.516423715498377
 20
13.0
 30
0.0
 11
-9.074273130314396
 21
13.0
 31
0.0
  0
LINE
  5
19B0E
330
197B8
100
AcDbEntity
  8
AM_5
 62
     3
370
    13
100
AcDbLine
 10
-8.074273130314399
 20
2.500000000000002
 30
0.0
 11
-8.074273130314397
 21
10.5
 31
0.0
  0
INSERT
  5
19B0F
330
197B8
100
AcDbEntity
  8
AM_5
 62
     3
370
    13
100
AcDbBlockReference
  2
_Open30
 10
-8.074273130314399
 20
0.0000000000000023
 30
0.0
 41
2.5
 42
2.5
 43
2.5
 50
270.0
  0
INSERT
  5
19B10
330
197B8
100
AcDbEntity
  8
AM_5
 62
     3
370
    13
100
AcDbBlockReference
  2
_Open30
 10
-8.074273130314396
 20
13.0
 30
0.0
 41
2.5
 42
2.5
 43
2.5
 50
90.0
  0
MTEXT
  5
19B11
330
197B8
100
AcDbEntity
  8
AM_5
 62
     2
100
AcDbMText
 10
-11.4742731303144
 20
6.5
 30
0.0
 40
3.8
 41
0.0
 71
     5
 72
     1
  1
13
 11
6.123031769111886E-17
 21
1.0
 31
0.0
 73
     1
 44
1.0
  0
POINT
  5
19B12
330
197B8
100
AcDbEntity
  8
Defpoints
 62
     0
100
AcDbPoint
 10
0.0
 20
0.0
 30
0.0
  0
POINT
  5
19B13
330
197B8
100
AcDbEntity
  8
Defpoints
 62
     0
100
AcDbPoint
 10
-4.516423715498377
 20
13.0
 30
0.0
  0
POINT
  5
19B14
330
197B8
100
AcDbEntity
  8
Defpoints
 62
     0
100
AcDbPoint
 10
-8.074273130314396
 20
13.0
 30
0.0
  0
ENDBLK
  5
197E6
330
197B8
100
AcDbEntity
  8
0
100
AcDbBlockEnd
  0
BLOCK
  5
1982D
330
197E9
100
AcDbEntity
  8
0
100
AcDbBlockBegin
  2
*D9
 70
     1
 71
     0
 10
0.0
 20
0.0
 30
0.0
  3
*D9
  1

  0
LINE
  5
19B15
330
197E9
100
AcDbEntity
  8
AM_5
 62
     3
370
    13
100
AcDbLine
 10
0.5263261049999528
 20
10.85923522666496
 30
0.0
 11
1.242772354117868
 21
24.52984403549386
 31
0.0
  0
LINE
  5
19B16
330
197E9
100
AcDbEntity
  8
AM_5
 62
     3
370
    13
100
AcDbLine
 10
-6.039511676956409
 20
0.0
 30
0.0
 11
-24.60628976672734
 21
-0.0000000000000018
 31
0.0
  0
ARC
  5
19B17
330
197E9
100
AcDbEntity
  8
AM_5
 62
     3
370
    13
100
AcDbCircle
 10
-0.0427822979417476
 20
-0.0000000000000003
 30
0.0
 40
23.5635074687856
100
AcDbArc
 50
93.08172259484547
 51
173.9182774051545
  0
INSERT
  5
19B18
330
197E9
100
AcDbEntity
  8
AM_5
 62
     3
370
    13
100
AcDbBlockReference
  2
_Open30
 10
1.190436397874926
 20
23.53121450073928
 30
0.0
 41
2.5
 42
2.5
 43
2.5
 50
0.0408612974227061
  0
INSERT
  5
19B19
330
197E9
100
AcDbEntity
  8
AM_5
 62
     3
370
    13
100
AcDbBlockReference
  2
_Open30
 10
-23.60628976672734
 20
-0.0000000000000018
 30
0.0
 41
2.5
 42
2.5
 43
2.5
 50
266.9591387025773
  0
MTEXT
  5
19B1A
330
197E9
100
AcDbEntity
  8
AM_5
 62
     2
100
AcDbMText
 10
-18.60323604083301
 20
19.55863727045548
 30
0.0
 40
3.8
 41
0.0
 71
     5
 72
     1
  1
93°
 11
0.7253743710122885
 21
0.688354575693753
 31
0.0
 73
     1
 44
1.0
  0
POINT
  5
19B1B
330
197E9
100
AcDbEntity
  8
Defpoints
 62
     0
100
AcDbPoint
 10
-11.10517897402951
 20
20.8053421988776
 30
0.0
  0
POINT
  5
19B1C
330
197E9
100
AcDbEntity
  8
Defpoints
 62
     0
100
AcDbPoint
 10
0.0010844173613122
 20
0.8370267907393159
 30
0.0
  0
POINT
  5
19B1D
330
197E9
100
AcDbEntity
  8
Defpoints
 62
     0
100
AcDbPoint
 10
-6.039511676956409
 20
0.0
 30
0.0
  0
POINT
  5
19B1E
330
197E9
100
AcDbEntity
  8
Defpoints
 62
     0
100
AcDbPoint
 10
0.7999974762531111
 20
0.0
 30
0.0
  0
POINT
  5
19B1F
330
197E9
100
AcDbEntity
  8
Defpoints
 62
     0
100
AcDbPoint
 10
0.5263261049999528
 20
10.85923522666496
 30
0.0
  0
ENDBLK
  5
1982E
330
197E9
100
AcDbEntity
  8
0
100
AcDbBlockEnd
  0
BLOCK
  5
19870
330
19843
100
AcDbEntity
  8
0
100
AcDbBlockBegin
  2
*D10
 70
     1
 71
     0
 10
0.0
 20
0.0
 30
0.0
  3
*D10
  1

  0
LINE
  5
19B20
330
19843
100
AcDbEntity
  8
AM_5
 62
     3
370
    13
100
AcDbLine
 10
-63.01600620988665
 20
0.0997580621929419
 30
0.0
 11
-64.886307325687
 21
-17.69496839259181
 31
0.0
  0
LINE
  5
19B21
330
19843
100
AcDbEntity
  8
AM_5
 62
     3
370
    13
100
AcDbLine
 10
-63.01600620988666
 20
-3.075659642478143
 30
0.0
 11
-63.01600620988665
 21
-17.79298672066194
 31
0.0
  0
ARC
  5
19B22
330
19843
100
AcDbEntity
  8
AM_5
 62
     3
370
    13
100
AcDbCircle
 10
-63.01600620988665
 20
0.0997580621929419
 30
0.0
 40
16.89274478285488
100
AcDbArc
 50
247.0257911986648
 51
255.5128955993192
  0
ARC
  5
19B23
330
19843
100
AcDbEntity
  8
AM_5
 62
     3
370
    13
100
AcDbCircle
 10
-63.01600620988665
 20
0.0997580621929419
 30
0.0
 40
16.89274478285488
100
AcDbArc
 50
278.4871044006544
 51
286.9742088013088
  0
ARC
  5
19B24
330
19843
100
AcDbEntity
  8
AM_5
 62
     3
370
    13
100
AcDbCircle
 10
-63.01600620988665
 20
0.0997580621929419
 30
0.0
 40
16.89274478285488
100
AcDbArc
 50
263.9999999999736
 51
270.0
  0
INSERT
  5
19B25
330
19843
100
AcDbEntity
  8
AM_5
 62
     3
370
    13
100
AcDbBlockReference
  2
_Open30
 10
-64.78177886241889
 20
-16.70044649722359
 30
0.0
 41
2.5
 42
2.5
 43
2.5
 50
349.7564477996464
  0
INSERT
  5
19B26
330
19843
100
AcDbEntity
  8
AM_5
 62
     3
370
    13
100
AcDbBlockReference
  2
_Open30
 10
-63.01600620988665
 20
-16.79298672066194
 30
0.0
 41
2.5
 42
2.5
 43
2.5
 50
184.2435522003272
  0
MTEXT
  5
19B27
330
19843
100
AcDbEntity
  8
AM_5
 62
     2
100
AcDbMText
 10
-64.42638208730729
 20
-13.31907205297163
 30
0.0
 40
3.8
 41
0.0
 71
     5
 72
     1
  1
6°
 11
0.9945218953682253
 21
-0.1045284632681098
 31
0.0
 73
     1
 44
1.0
  0
POINT
  5
19B28
330
19843
100
AcDbEntity
  8
Defpoints
 62
     0
100
AcDbPoint
 10
-63.60555450073468
 20
-16.78269611696682
 30
0.0
  0
POINT
  5
19B29
330
19843
100
AcDbEntity
  8
Defpoints
 62
     0
100
AcDbPoint
 10
-62.92800572046053
 20
0.9370267907392815
 30
0.0
  0
POINT
  5
19B2A
330
19843
100
AcDbEntity
  8
Defpoints
 62
     0
100
AcDbPoint
 10
-63.01600620988666
 20
-3.075659642478143
 30
0.0
  0
POINT
  5
19B2B
330
19843
100
AcDbEntity
  8
Defpoints
 62
     0
100
AcDbPoint
 10
-63.01600620988665
 20
29.47866351642642
 30
0.0
  0
POINT
  5
19B2C
330
19843
100
AcDbEntity
  8
Defpoints
 62
     0
100
AcDbPoint
 10
-61.87462916712467
 20
10.95923522666493
 30
0.0
  0
ENDBLK
  5
19871
330
19843
100
AcDbEntity
  8
0
100
AcDbBlockEnd
  0
BLOCK
  5
19898
330
19882
100
AcDbEntity
  8
0
100
AcDbBlockBegin
  2
*D11
 70
     1
 71
     0
 10
0.0
 20
0.0
 30
0.0
  3
*D11
  1

  0
LINE
  5
19B2D
330
19882
100
AcDbEntity
  8
AM_5
 62
     3
370
    13
100
AcDbLine
 10
0.0
 20
0.0
 30
0.0
 11
-0.0000000000000026
 21
-41.80668988894809
 31
0.0
  0
LINE
  5
19B2E
330
19882
100
AcDbEntity
  8
AM_5
 62
     3
370
    13
100
AcDbLine
 10
249.9999999999999
 20
5.499999999998977
 30
0.0
 11
249.9999999999999
 21
-41.80668988894809
 31
0.0
  0
LINE
  5
19B2F
330
19882
100
AcDbEntity
  8
AM_5
 62
     3
370
    13
100
AcDbLine
 10
2.499999999999997
 20
-40.80668988894809
 30
0.0
 11
247.4999999999999
 21
-40.80668988894809
 31
0.0
  0
INSERT
  5
19B30
330
19882
100
AcDbEntity
  8
AM_5
 62
     3
370
    13
100
AcDbBlockReference
  2
_Open30
 10
-0.0000000000000025
 20
-40.80668988894809
 30
0.0
 41
2.5
 42
2.5
 43
2.5
 50
180.0
  0
INSERT
  5
19B31
330
19882
100
AcDbEntity
  8
AM_5
 62
     3
370
    13
100
AcDbBlockReference
  2
_Open30
 10
249.9999999999999
 20
-40.80668988894809
 30
0.0
 41
2.5
 42
2.5
 43
2.5
  0
MTEXT
  5
19B32
330
19882
100
AcDbEntity
  8
AM_5
 62
     2
100
AcDbMText
 10
124.9999999999999
 20
-37.40631587320006
 30
0.0
 40
3.8
 41
0.0
 71
     5
 72
     1
  1
250
 73
     1
 44
1.0
  0
POINT
  5
19B33
330
19882
100
AcDbEntity
  8
Defpoints
 62
     0
100
AcDbPoint
 10
0.0
 20
0.0
 30
0.0
  0
POINT
  5
19B34
330
19882
100
AcDbEntity
  8
Defpoints
 62
     0
100
AcDbPoint
 10
249.9999999999999
 20
5.499999999998977
 30
0.0
  0
POINT
  5
19B35
330
19882
100
AcDbEntity
  8
Defpoints
 62
     0
100
AcDbPoint
 10
249.9999999999999
 20
-40.80668988894809
 30
0.0
  0
ENDBLK
  5
19899
330
19882
100
AcDbEntity
  8
0
100
AcDbBlockEnd
  0
ENDSEC
  0
SECTION
  2
ENTITIES
  0
DIMENSION
  5
F478
330
1F
100
AcDbEntity
  8
AM_5
100
AcDbDimension
  2
*D3
 10
120.2499999999999
 20
-16.51724740481573
 30
0.0
 11
111.2499999999999
 21
-16.51724740481573
 31
0.0
 70
   160
  1
<>
 71
     5
 42
18.0
  3
AM_JIS$0
100
AcDbAlignedDimension
 13
102.2499999999999
 23
8.641101056459306
 33
0.0
 14
120.2499999999999
 24
8.641101056459306
 34
0.0
100
AcDbRotatedDimension
1001
GENIUS_GENDTOL_13
1000

1000
h7
1000

1040
0.0
1001
ACAD
1000
DSTYLE
1002
{
1070
   271
1070
     0
1002
}
  0
CIRCLE
  5
15AC1
330
1F
100
AcDbEntity
  8
AM_11
  6
ACJISTGB
100
AcDbCircle
 10
-63.01600620988666
 20
12.59999999999998
 30
0.0
 40
12.5
  0
LINE
  5
15AD4
330
1F
100
AcDbEntity
  8
AM_7
100
AcDbLine
 10
-47.40940589959189
 20
12.99999999999997
 30
0.0
 11
-78.7194054873097
 21
12.99999999999997
 31
0.0
1001
GENIUS_GENODEF_13
1002
{
1000
HIER
1070
     0
1002
}
1002
{
1000
MANEDIT
1070
     0
1002
}
1002
{
1000
NOSEL
1070
     0
1002
}
1002
{
1000
BEHIND
1070
     0
1002
}
1002
{
1000
REACTOR
1002
}
1001
GENIUS_GENOBJ-N-CEN_13
1002
{
1000
OWNER
1000
GEN
1002
}
  0
LINE
  5
15ADA
330
1F
100
AcDbEntity
  8
AM_7
100
AcDbLine
 10
-63.01600620988666
 20
-3.075659642478144
 30
0.0
 11
-63.01600620988666
 21
29.47866351642642
 31
0.0
1001
GENIUS_GENODEF_13
1002
{
1000
HIER
1070
     0
1002
}
1002
{
1000
MANEDIT
1070
     0
1002
}
1002
{
1000
NOSEL
1070
     0
1002
}
1002
{
1000
BEHIND
1070
     0
1002
}
1002
{
1000
REACTOR
1002
}
1001
GENIUS_GENOBJ-N-CEN_13
1002
{
1000
OWNER
1000
GEN
1002
}
  0
ARC
  5
15ED6
330
1F
100
AcDbEntity
  8
AM_0
100
AcDbCircle
 10
111.2499999999999
 20
12.99999999999999
 30
0.0
 40
10.0
100
AcDbArc
 50
205.8419327631672
 51
238.2116693829593
  0
LINE
  5
15F4D
330
1F
100
AcDbEntity
  8
AM_0
100
AcDbLine
 10
120.2499999999999
 20
17.35889894354067
 30
0.0
 11
120.2499999999999
 21
8.641101056459306
 31
0.0
  0
LINE
  5
15F4E
330
1F
100
AcDbEntity
  8
AM_0
100
AcDbLine
 10
102.2499999999999
 20
17.35889894354067
 30
0.0
 11
102.2499999999999
 21
8.641101056459306
 31
0.0
  0
ARC
  5
15F60
330
1F
100
AcDbEntity
  8
AM_0
100
AcDbCircle
 10
111.2499999999999
 20
12.99999999999999
 30
0.0
 40
10.0
100
AcDbArc
 50
25.84193276316717
 51
154.1580672368328
  0
LINE
  5
15F69
330
1F
100
AcDbEntity
  8
AM_7
  6
AM_ISO08W050x2
100
AcDbLine
 10
111.2499999999999
 20
25.99999999999999
 30
0.0
 11
111.2499999999999
 21
-0.0000000000000142
 31
0.0
1001
GENIUS_GENODEF_13
1002
{
1000
HIER
1070
     0
1002
}
1002
{
1000
MANEDIT
1070
     0
1002
}
1002
{
1000
NOSEL
1070
     0
1002
}
1002
{
1000
BEHIND
1070
     0
1002
}
1002
{
1000
REACTOR
1002
}
1001
GENIUS_GENOBJ-N-CEN_13
1002
{
1000
OWNER
1000
GEN
1002
}
  0
DIMENSION
  5
15FAE
330
1F
100
AcDbEntity
  8
AM_5
100
AcDbDimension
  2
*D4
 10
108.0041149475112
 20
3.541446716012523
 30
0.0
 11
124.4520764614125
 21
36.02239896498757
 31
0.0
 70
   163
  1
<>
 71
     5
 42
20.00000000000011
  3
AM_JIS$3
100
AcDbDiametricDimension
 15
114.4958850524887
 25
22.45855328398758
 35
0.0
 40
0.0
1001
GENIUS_GENDTOL_13
1000

1000
h7
1000

1040
0.0
1001
ACAD
1000
DSTYLE
1002
{
1070
   271
1070
     0
1070
   289
1070
     3
1002
}
  0
DIMENSION
  5
170CD
330
1F
100
AcDbEntity
  8
AM_5
100
AcDbDimension
  2
*D5
 10
-56.10473361840364
 20
2.184419787346656
 30
0.0
 11
-88.92587015814242
 21
32.53214301654647
 31
0.0
 70
   163
  1
最小加工径\P<>\P
 71
     5
 42
25.00000000000014
  3
AM_JIS$3
100
AcDbDiametricDimension
 15
-69.92727880136941
 25
23.01558021265366
 35
0.0
 40
0.0
1001
ACAD
1000
DSTYLE
1002
{
1070
   271
1070
     0
1070
   288
1070
     1
1070
   289
1070
     3
1070
   172
1070
     1
1070
    74
1070
     1
1002
}
1001
GENIUS_GENDTOL_13
1000

1000
h7
1000

1040
0.0
  0
LINE
  5
17F99
330
1F
100
AcDbEntity
  8
AM_0
100
AcDbLine
 10
-66.91330383656714
 20
0.999768473836582
 30
0.0
 11
-63.01600621256353
 21
0.1000000000185821
 31
0.0
  0
LINE
  5
17F9A
330
1F
100
AcDbEntity
  8
AM_0
100
AcDbLine
 10
-67.14282228529316
 20
1.197900897588681
 30
0.0
 11
-66.89521422356904
 21
1.171875850041914
 31
0.0
  0
LINE
  5
17F9B
330
1F
100
AcDbEntity
  8
AM_0
100
AcDbLine
 10
-66.90833949975263
 20
1.047047844157191
 30
0.0
 11
-66.89522528544865
 21
1.171877012709786
 31
0.0
  0
ELLIPSE
  5
17F9C
330
1F
100
AcDbEntity
  8
AM_0
100
AcDbEllipse
 10
-62.9323821974001
 20
0.8956173854993494
 30
0.0
 11
0.08362401507599329
 21
0.7956173854954216
 31
0.0
210
0.0
220
0.0
230
1.0
 40
0.0000300100735457
 41
3.141588968823346
 42
4.764462544750301
  0
ELLIPSE
  5
17F9D
330
1F
100
AcDbEntity
  8
AM_0
100
AcDbEllipse
 10
-66.88063347114326
 20
1.310601560127111
 30
0.0
 11
0.03267036538972627
 21
0.310833086296238
 31
0.0
210
0.0
220
0.0
230
1.0
 40
0.0000300100735457
 41
2.582800979756578
 42
4.764462544750301
  0
LINE
  5
17F9E
330
1F
100
AcDbEntity
  8
AM_0
100
AcDbLine
 10
-61.87462916712468
 20
10.95923522666493
 30
0.0
 11
-65.85203555072701
 21
11.0969671983718
 31
0.0
  0
LINE
  5
17F9F
330
1F
100
AcDbEntity
  8
AM_0
100
AcDbLine
 10
-62.92800572046053
 20
0.9370267907392815
 30
0.0
 11
-61.87462916712468
 21
10.95923522666493
 31
0.0
  0
LINE
  5
17FA0
330
1F
100
AcDbEntity
  8
AM_0
100
AcDbLine
 10
-65.85203555072701
 20
11.0969671983718
 30
0.0
 11
-66.87892366205779
 21
1.326779453505338
 31
0.0
  0
ARC
  5
17FA5
330
1F
100
AcDbEntity
  8
AM_0
100
AcDbCircle
 10
-63.01600620988666
 20
12.99999999999999
 30
0.0
 40
10.0
100
AcDbArc
 50
25.84193276316749
 51
57.97568716295761
  0
LINE
  5
17FA6
330
1F
100
AcDbEntity
  8
AM_0
100
AcDbLine
 10
-72.01600620988666
 20
16.74999999999997
 30
0.0
 11
-72.01600620988666
 21
4.792863417322337
 31
0.0
  0
LINE
  5
17FA7
330
1F
100
AcDbEntity
  8
AM_0
100
AcDbLine
 10
-61.87462916712468
 20
10.95923522666493
 30
0.0
 11
-64.34923716550327
 21
11.04492741045169
 31
0.0
  0
LINE
  5
17FA8
330
1F
100
AcDbEntity
  8
AM_0
100
AcDbLine
 10
-66.86221403906325
 20
1.485760896567172
 30
0.0
 11
-65.82856539491399
 21
11.32027081457343
 31
0.0
  0
SPLINE
  5
17FA9
330
1F
100
AcDbEntity
  8
AM_0
100
AcDbSpline
210
0.0
220
0.0
230
1.0
 70
     8
 71
     3
 72
    20
 73
    16
 74
     0
 42
0.0000000001
 43
0.0000000001
 40
22.48459358891212
 40
22.48459358891212
 40
22.48459358891212
 40
22.48459358891212
 40
22.78000632284001
 40
22.78000632284001
 40
23.73321841067555
 40
23.73321841067555
 40
24.68643049851109
 40
24.68643049851109
 40
25.63964258634663
 40
25.63964258634663
 40
26.59285467418216
 40
26.59285467418216
 40
27.54323749550747
 40
27.54323749550747
 40
27.56909075184033
 40
27.56909075184033
 40
27.56909075184033
 40
27.56909075184033
 10
-62.31350327615121
 20
6.783627003882771
 30
0.0
 10
-62.31219657329314
 20
6.78949256129502
 30
0.0
 10
-62.31021889558883
 20
6.792216134217085
 30
0.0
 10
-62.29916565474855
 20
6.791054374311472
 30
0.0
 10
-62.28338377212049
 20
6.758475948529281
 30
0.0
 10
-62.23757388264346
 20
6.624621225457389
 30
0.0
 10
-62.20756749030898
 20
6.523386546802726
 30
0.0
 10
-62.13835923292959
 20
6.258071920809613
 30
0.0
 10
-62.09916147749084
 20
6.093793109094918
 30
0.0
 10
-62.01956289573536
 20
5.716519950315046
 30
0.0
 10
-61.97925780030789
 20
5.503506895198569
 30
0.0
 10
-61.90620172065133
 20
5.052362771550378
 30
0.0
 10
-61.87076919319179
 20
4.79845003860828
 30
0.0
 10
-61.84053907694693
 20
4.515057986160031
 30
0.0
 10
-61.83974294153757
 20
4.507536950881928
 30
0.0
 10
-61.83895133966951
 20
4.499999999999972
 30
0.0
  0
LINE
  5
17FAA
330
1F
100
AcDbEntity
  8
AM_0
100
AcDbLine
 10
-65.82856539491399
 20
11.32027081457346
 30
0.0
 11
-64.34923716550327
 21
11.04492741045169
 31
0.0
  0
LINE
  5
17FAB
330
1F
100
AcDbEntity
  8
AM_0
100
AcDbLine
 10
-61.87462916712468
 20
10.95923522666493
 30
0.0
 11
-61.13461496993443
 21
18.0
 31
0.0
  0
LINE
  5
17FAC
330
1F
100
AcDbEntity
  8
AM_0
100
AcDbLine
 10
-60.66581248003877
 20
22.46250967881011
 30
0.0
 11
-61.13461496993443
 21
18.0
 31
0.0
  0
LINE
  5
17FAD
330
1F
100
AcDbEntity
  8
AM_0
100
AcDbLine
 10
-61.13461496993443
 20
17.99999999999997
 30
0.0
 11
-70.93593483523625
 21
18.68658338278505
 31
0.0
  0
LINE
  5
17FAE
330
1F
100
AcDbEntity
  8
AM_0
100
AcDbLine
 10
-62.55352214602749
 20
4.499999999999972
 30
0.0
 11
-61.83895133966962
 21
4.499999999999972
 31
0.0
  0
LINE
  5
17FAF
330
1F
100
AcDbEntity
  8
AM_0
100
AcDbLine
 10
-61.83895133966951
 20
4.499999999999972
 30
0.0
 11
-60.76473583620634
 21
4.499999999999972
 31
0.0
  0
ELLIPSE
  5
17FB0
330
1F
100
AcDbEntity
  8
AM_0
100
AcDbEllipse
 10
-62.09691712139852
 20
12.49100478189826
 30
0.0
 11
-11.01642586869878
 21
6.10094076621772
 31
0.0
210
0.0
220
0.0
230
1.0
 40
0.9965137262393113
 41
1.167015309146837
 42
1.599338497169434
  0
SPLINE
  5
17FB1
330
1F
100
AcDbEntity
  8
AM_0
100
AcDbSpline
210
0.0
220
0.0
230
1.0
 70
     8
 71
     3
 72
    14
 73
    10
 74
     0
 42
0.0000000001
 43
0.0000000001
 40
0.2976182142145351
 40
0.2976182142145351
 40
0.2976182142145351
 40
0.2976182142145351
 40
0.3161200943214183
 40
0.3161200943214183
 40
0.5207512460620372
 40
0.5207512460620372
 40
0.9511184242096022
 40
0.9511184242096022
 40
1.007744277109782
 40
1.007744277109782
 40
1.007744277109782
 40
1.007744277109782
 10
-67.14282228529316
 20
1.197900897588681
 30
0.0
 10
-67.14907741227171
 20
1.198551590774486
 30
0.0
 10
-67.15535490840352
 20
1.19924496802048
 30
0.0
 10
-67.23115983792889
 20
1.207838800473326
 30
0.0
 10
-67.30196497738541
 20
1.218869576573496
 30
0.0
 10
-67.50243506587674
 20
1.25440366284974
 30
0.0
 10
-67.65199787935057
 20
1.287786491511099
 30
0.0
 10
-67.82057807248475
 20
1.33261253956826
 30
0.0
 10
-67.84017067188586
 20
1.337930810938559
 30
0.0
 10
-67.85972207384214
 20
1.3433460895005
 30
0.0
  0
ELLIPSE
  5
17FB2
330
1F
100
AcDbEntity
  8
AM_0
100
AcDbEllipse
 10
-69.29377407116931
 20
1.72563097516661
 30
0.0
 11
-2.431584170902965
 21
0.2396330196837236
 31
0.0
210
0.0
220
0.0
230
1.0
 40
0.1226125894704484
 41
2.213588012536206
 42
3.140797280655857
  0
ELLIPSE
  5
17FB3
330
1F
100
AcDbEntity
  8
AM_0
100
AcDbEllipse
 10
-66.86385521791556
 20
1.470232369602712
 30
0.0
 11
0.03135900565349749
 21
0.2983565195607831
 31
0.0
210
0.0
220
0.0
230
1.0
 40
0.0000300100735457
 41
3.141592653593874
 42
4.764462544748657
  0
SPLINE
  5
17FB4
330
1F
100
AcDbEntity
  8
AM_0
100
AcDbSpline
210
0.0
220
0.0
230
1.0
 70
    28
 71
     2
 72
     6
 73
     3
 74
     0
 42
0.0000000001
 43
0.0000000001
 40
0.0
 40
0.0
 40
0.0
 40
0.6582629195149808
 40
0.6582629195149808
 40
0.6582629195149808
 10
-72.01600620988666
 20
16.74999999999997
 30
0.0
 41
1.0
 10
-72.01600620988666
 20
17.05059568098849
 30
0.0
 41
1.000475593577811
 10
-72.01600620988666
 20
17.35889894354065
 30
0.0
 41
1.0
  0
ARC
  5
17FB5
330
1F
100
AcDbEntity
  8
AM_0
100
AcDbCircle
 10
-63.01600620988666
 20
12.99999999999999
 30
0.0
 40
10.0
100
AcDbArc
 50
102.0243128370406
 51
154.1580672368325
  0
SPLINE
  5
17FB6
330
1F
100
AcDbEntity
  8
AM_0
100
AcDbSpline
210
0.0
220
0.0
230
1.0
 70
    28
 71
     2
 72
     6
 73
     3
 74
     0
 42
0.0000000001
 43
0.0000000001
 40
0.0
 40
0.0
 40
0.0
 40
0.3681495330393909
 40
0.3681495330393909
 40
0.3681495330393909
 10
-57.71321544546527
 20
21.47823154371048
 30
0.0
 41
1.0
 10
-57.7369765045146
 20
21.34347588150875
 30
0.0
 41
1.000093631540707
 10
-57.76014353708843
 20
21.21208911085884
 30
0.0
 41
1.0
  0
SPLINE
  5
17FB7
330
1F
100
AcDbEntity
  8
AM_0
100
AcDbSpline
210
0.0
220
0.0
230
1.0
 70
     8
 71
     3
 72
    38
 73
    34
 74
     0
 42
0.0000000001
 43
0.0000000001
 40
-11.42263456855353
 40
-11.42263456855353
 40
-11.42263456855353
 40
-11.42263456855353
 40
-10.70844645666124
 40
-10.70844645666124
 40
-9.994258344768937
 40
-9.994258344768937
 40
-9.280070232876639
 40
-9.280070232876639
 40
-8.565882120984343
 40
-8.565882120984343
 40
-7.852240911807435
 40
-7.852240911807435
 40
-7.138599702630529
 40
-7.138599702630529
 40
-6.424958493453623
 40
-6.424958493453623
 40
-5.711317284276717
 40
-5.711317284276717
 40
-4.997676075099808
 40
-4.997676075099808
 40
-4.284034865922898
 40
-4.284034865922898
 40
-3.570393656745992
 40
-3.570393656745992
 40
-2.856752447569082
 40
-2.856752447569082
 40
-2.142564335676809
 40
-2.142564335676809
 40
-1.428376223784539
 40
-1.428376223784539
 40
-0.7141881118922697
 40
-0.7141881118922697
 40
0.0
 40
0.0
 40
0.0
 40
0.0
 10
-65.09927359305686
 20
22.78059287621251
 30
0.0
 10
-65.09927359305686
 20
22.78059287621251
 30
0.0
 10
-65.07495298967274
 20
22.78587793646965
 30
0.0
 10
-64.97373675158065
 20
22.8066283681129
 30
0.0
 10
-64.89687810416103
 20
22.8220565280224
 30
0.0
 10
-64.69547313340752
 20
22.85849192730628
 30
0.0
 10
-64.57078096169141
 20
22.87944963523437
 30
0.0
 10
-64.28488562504163
 20
22.92022150207015
 30
0.0
 10
-64.12367222270586
 20
22.93994192382968
 30
0.0
 10
-63.78256064401944
 20
22.97204687019706
 30
0.0
 10
-63.59063438550629
 20
22.98564768466494
 30
0.0
 10
-63.17446629584697
 20
23.00091233952961
 30
0.0
 10
-62.95023546889263
 20
23.00250016671689
 30
0.0
 10
-62.48424457726685
 20
22.98857171706365
 30
0.0
 10
-62.24208097337589
 20
22.97298928128791
 30
0.0
 10
-61.7568557183215
 20
22.92340745490296
 30
0.0
 10
-61.51379089843942
 20
22.88938502861592
 30
0.0
 10
-61.0452579679951
 20
22.80677003162816
 30
0.0
 10
-60.80521539526421
 20
22.75560759001786
 30
0.0
 10
-60.33229482030413
 20
22.6362424551179
 30
0.0
 10
-60.09940596178751
 20
22.56806032451922
 30
0.0
 10
-59.65675394922664
 20
22.42177051433504
 30
0.0
 10
-59.44658896466706
 20
22.34358698527109
 30
0.0
 10
-59.06073970125226
 20
22.18690503206307
 30
0.0
 10
-58.88503976490608
 20
22.10848180062629
 30
0.0
 10
-58.57548026990787
 20
21.96164598840176
 30
0.0
 10
-58.43073400683784
 20
21.88797662262263
 30
0.0
 10
-58.17602506840979
 20
21.75188163620427
 30
0.0
 10
-58.06602071304769
 20
21.68954059827377
 30
0.0
 10
-57.88922358872628
 20
21.58641796546769
 30
0.0
 10
-57.82227682636597
 20
21.54563303184216
 30
0.0
 10
-57.73426173993187
 20
21.49151601208973
 30
0.0
 10
-57.71321544546527
 20
21.47823154371048
 30
0.0
 10
-57.71321544546527
 20
21.47823154371048
 30
0.0
  0
SPLINE
  5
17FB8
330
1F
100
AcDbEntity
  8
AM_0
100
AcDbSpline
210
0.0
220
0.0
230
1.0
 70
    28
 71
     2
 72
     6
 73
     3
 74
     0
 42
0.0000000001
 43
0.0000000001
 40
0.0
 40
0.0
 40
0.0
 40
0.3681495330393946
 40
0.3681495330393946
 40
0.3681495330393946
 10
-65.14620168468002
 20
22.51445044336084
 30
0.0
 41
1.0
 10
-65.12303465210599
 20
22.64583721401301
 30
0.0
 41
1.000093631576999
 10
-65.09927359305686
 20
22.78059287621248
 30
0.0
 41
1.0
  0
LINE
  5
17FB9
330
1F
100
AcDbEntity
  8
AM_0
100
AcDbLine
 10
-54.01600620988666
 20
16.75
 30
0.0
 11
-54.01600620988666
 21
10.44798542990012
 31
0.0
  0
SPLINE
  5
17FBA
330
1F
100
AcDbEntity
  8
AM_0
100
AcDbSpline
210
0.0
220
0.0
230
1.0
 70
    28
 71
     2
 72
     6
 73
     3
 74
     0
 42
0.0000000001
 43
0.0000000001
 40
0.0
 40
0.0
 40
0.0
 40
0.6582629195149845
 40
0.6582629195149845
 40
0.6582629195149845
 10
-54.01600620988666
 20
17.35889894354065
 30
0.0
 41
1.0
 10
-54.01600620988666
 20
17.05059568098847
 30
0.0
 41
1.000475593576181
 10
-54.01600620988666
 20
16.74999999999997
 30
0.0
 41
1.0
  0
SPLINE
  5
17FBB
330
1F
100
AcDbEntity
  8
AM_0
100
AcDbSpline
210
0.0
220
0.0
230
1.0
 70
     8
 71
     3
 72
    20
 73
    16
 74
     0
 42
0.0000000001
 43
0.0000000001
 40
16.18913415098994
 40
16.18913415098994
 40
16.18913415098994
 40
16.18913415098994
 40
16.86900267747188
 40
16.86900267747188
 40
18.77167425982235
 40
18.77167425982235
 40
20.67434584217281
 40
20.67434584217281
 40
22.57701742452328
 40
22.57701742452328
 40
24.41592861595317
 40
24.41592861595317
 40
26.25483980738306
 40
26.25483980738306
 40
27.27857386867534
 40
27.27857386867534
 40
27.27857386867534
 40
27.27857386867534
 10
-60.76473583620634
 20
4.499999999999972
 30
0.0
 10
-60.71265157498385
 20
4.702882042987682
 30
0.0
 10
-60.65352259003714
 20
4.900224258124382
 30
0.0
 10
-60.40428161359682
 20
5.631165131459994
 30
0.0
 10
-60.17036332896726
 20
6.131553069036386
 30
0.0
 10
-59.61512552123452
 20
7.065598646304181
 30
0.0
 10
-59.29388660966004
 20
7.49745644032862
 30
0.0
 10
-58.58346189792781
 20
8.279842781230997
 30
0.0
 10
-58.19402105815198
 20
8.629965013711797
 30
0.0
 10
-57.39403376989935
 20
9.224359778127592
 30
0.0
 10
-56.95477231309576
 20
9.494048968965956
 30
0.0
 10
-55.99962431418237
 20
9.952413049877777
 30
0.0
 10
-55.48366118005777
 20
10.1410702318781
 30
0.0
 10
-54.64053420503092
 20
10.35020949574215
 30
0.0
 10
-54.33088534999888
 20
10.40831438714875
 30
0.0
 10
-54.01600620988666
 20
10.44798542990014
 30
0.0
  0
SPLINE
  5
17FBC
330
1F
100
AcDbEntity
  8
AM_0
100
AcDbSpline
210
0.0
220
0.0
230
1.0
 70
     8
 71
     3
 72
    24
 73
    20
 74
     0
 42
0.0000000001
 43
0.0000000001
 40
6.040204704103884
 40
6.040204704103884
 40
6.040204704103884
 40
6.040204704103884
 40
7.264222897072244
 40
7.264222897072244
 40
7.927655252210133
 40
7.927655252210133
 40
8.591087607348023
 40
8.591087607348023
 40
9.254519962485912
 40
9.254519962485912
 40
9.917952317623803
 40
9.917952317623803
 40
10.58138467276169
 40
10.58138467276169
 40
11.24481702789958
 40
11.24481702789958
 40
11.90824938303747
 40
11.90824938303747
 40
11.9432896981353
 40
11.9432896981353
 40
11.9432896981353
 40
11.9432896981353
 10
-54.01600620988666
 20
8.641101056459291
 30
0.0
 10
-54.14258735542012
 20
8.379743698888717
 30
0.0
 10
-54.29254363654673
 20
8.099140333181339
 30
0.0
 10
-54.56673451890856
 20
7.647968067545946
 30
0.0
 10
-54.6756013491281
 20
7.478909357951238
 30
0.0
 10
-54.91667175849887
 20
7.130964595833461
 30
0.0
 10
-55.04891615301256
 20
6.952098935922095
 30
0.0
 10
-55.33184815279356
 20
6.596458076412489
 30
0.0
 10
-55.48272844839858
 20
6.419491160133021
 30
0.0
 10
-55.7946494218736
 20
6.078628996279605
 30
0.0
 10
-55.9556963510837
 20
5.914738577950459
 30
0.0
 10
-56.27581822419722
 20
5.609548685048907
 30
0.0
 10
-56.44720882089791
 20
5.456508017281522
 30
0.0
 10
-56.80257086657139
 20
5.161212360464248
 30
0.0
 10
-56.98653779018832
 20
5.018950896693326
 30
0.0
 10
-57.35527800564944
 20
4.753316578589306
 30
0.0
 10
-57.54025199301793
 20
4.629760404430385
 30
0.0
 10
-57.72926143038797
 20
4.511746080798616
 30
0.0
 10
-57.73872836802639
 20
4.505857182320114
 30
0.0
 10
-57.74817933346026
 20
4.499999999999972
 30
0.0
  0
LINE
  5
17FBD
330
1F
100
AcDbEntity
  8
AM_0
100
AcDbLine
 10
-57.74817933346026
 20
4.499999999999972
 30
0.0
 11
-60.76473583620634
 21
4.499999999999972
 31
0.0
  0
LINE
  5
17FBE
330
1F
100
AcDbEntity
  8
AM_0
100
AcDbLine
 10
-54.01600620988666
 20
10.44798542990012
 30
0.0
 11
-54.01600620988666
 21
8.641101056459291
 31
0.0
  0
SPLINE
  5
17FBF
330
1F
100
AcDbEntity
  8
AM_0
100
AcDbSpline
210
0.0
220
0.0
230
1.0
 70
     8
 71
     3
 72
    12
 73
     8
 74
     0
 42
0.0000000001
 43
0.0000000001
 40
-20.87046672221073
 40
-20.87046672221073
 40
-20.87046672221073
 40
-20.87046672221073
 40
-18.77484889900038
 40
-18.77484889900038
 40
-16.62416532936656
 40
-16.62416532936656
 40
-15.18603473958983
 40
-15.18603473958983
 40
-15.18603473958983
 40
-15.18603473958983
 10
-60.66581247998136
 20
22.4625096793564
 30
0.0
 10
-60.66324770217136
 20
22.46189818714885
 30
0.0
 10
-60.61183125899686
 20
22.44958218399032
 30
0.0
 10
-60.39591857255925
 20
22.39204178640068
 30
0.0
 10
-60.22848824487562
 20
22.3459292360142
 30
0.0
 10
-59.85911424930066
 20
22.22609087610655
 30
0.0
 10
-59.68709318652543
 20
22.1664242173519
 30
0.0
 10
-59.49486285657201
 20
22.09197720440432
 30
0.0
  0
ARC
  5
17FC0
330
1F
100
AcDbEntity
  8
AM_0
100
AcDbCircle
 10
-63.01600620988666
 20
12.99999999999999
 30
0.0
 40
9.75
100
AcDbArc
 50
76.05174453839692
 51
144.3212967208812
  0
ARC
  5
17FC1
330
1F
100
AcDbEntity
  8
AM_0
100
AcDbCircle
 10
-63.01600620988666
 20
12.99999999999999
 30
0.0
 40
9.749999999999998
100
AcDbArc
 50
144.3212967208812
 51
157.3801350519591
  0
SPLINE
  5
17FC2
330
1F
100
AcDbEntity
  8
AM_0
100
AcDbSpline
210
0.0
220
0.0
230
1.0
 70
     8
 71
     3
 72
     8
 73
     4
 74
     0
 42
0.0000000001
 43
0.0000000001
 40
-6.109120816358542
 40
-6.109120816358542
 40
-6.109120816358542
 40
-6.109120816358542
 40
-4.78438566513478
 40
-4.78438566513478
 40
-4.78438566513478
 40
-4.78438566513478
 10
-54.59365233747963
 20
17.91186881420404
 30
0.0
 10
-54.38059868755943
 20
17.5465469171194
 30
0.0
 10
-54.1856627980311
 20
17.15717581154655
 30
0.0
 10
-54.01600620988666
 20
16.74999999999997
 30
0.0
  0
SPLINE
  5
17FC3
330
1F
100
AcDbEntity
  8
AM_0
100
AcDbSpline
210
0.0
220
0.0
230
1.0
 70
     8
 71
     3
 72
    26
 73
    22
 74
     0
 42
0.0000000001
 43
0.0000000001
 40
0.9407895397566745
 40
0.9407895397566745
 40
0.9407895397566745
 40
0.9407895397566745
 40
2.587128468790986
 40
2.587128468790986
 40
4.233467397825298
 40
4.233467397825298
 40
5.87980632685961
 40
5.87980632685961
 40
7.526145255893922
 40
7.526145255893922
 40
8.180459818582511
 40
8.180459818582511
 40
8.834774381271101
 40
8.834774381271101
 40
9.489088943959692
 40
9.489088943959692
 40
10.14340350664828
 40
10.14340350664828
 40
10.79771806933687
 40
10.79771806933687
 40
11.17276966246531
 40
11.17276966246531
 40
11.17276966246531
 40
11.17276966246531
 10
-59.49486285894443
 20
22.09197720532313
 30
0.0
 10
-59.49486285894443
 20
22.09197720532313
 30
0.0
 10
-59.43873519245108
 20
22.07089597286469
 30
0.0
 10
-59.20812392215203
 20
21.97652796129088
 30
0.0
 10
-59.03377445153774
 20
21.90317726437425
 30
0.0
 10
-58.58365395068336
 20
21.68786522355944
 30
0.0
 10
-58.30784285703612
 20
21.54558982256998
 30
0.0
 10
-57.68627401473918
 20
21.17238412667041
 30
0.0
 10
-57.34084938712783
 20
20.94145231833227
 30
0.0
 10
-56.83607796265505
 20
20.54350087695386
 30
0.0
 10
-56.6837817130712
 20
20.41680027394369
 30
0.0
 10
-56.37243050274287
 20
20.1392503259591
 30
0.0
 10
-56.2134005824247
 20
19.98836288101273
 30
0.0
 10
-55.89968804016485
 20
19.66863387260165
 30
0.0
 10
-55.74483954565289
 20
19.49957816823411
 30
0.0
 10
-55.4492583881206
 20
19.15294307087689
 30
0.0
 10
-55.30853142078354
 20
18.97535790583106
 30
0.0
 10
-55.04904071555416
 20
18.62472493012356
 30
0.0
 10
-54.92033505013433
 20
18.43824323700301
 30
0.0
 10
-54.72752385796468
 20
18.13620541852257
 30
0.0
 10
-54.65925304611108
 20
18.0243539809041
 30
0.0
 10
-54.59365233747963
 20
17.91186881420404
 30
0.0
  0
SPLINE
  5
17FC4
330
1F
100
AcDbEntity
  8
AM_0
100
AcDbSpline
210
0.0
220
0.0
230
1.0
 70
     8
 71
     3
 72
    34
 73
    30
 74
     0
 42
0.0000000001
 43
0.0000000001
 40
6.868367555994572
 40
6.868367555994572
 40
6.868367555994572
 40
6.868367555994572
 40
7.065791795727092
 40
7.065791795727092
 40
7.833390793117137
 40
7.833390793117137
 40
8.600989790507182
 40
8.600989790507182
 40
9.368588787897226
 40
9.368588787897226
 40
10.13618778528727
 40
10.13618778528727
 40
10.90378678267732
 40
10.90378678267732
 40
11.67138578006736
 40
11.67138578006736
 40
12.43898477745741
 40
12.43898477745741
 40
13.26259676837245
 40
13.26259676837245
 40
14.08620875928749
 40
14.08620875928749
 40
14.83022009855871
 40
14.83022009855871
 40
15.57423143782994
 40
15.57423143782994
 40
16.31824277710117
 40
16.31824277710117
 40
16.51803023290671
 40
16.51803023290671
 40
16.51803023290671
 40
16.51803023290671
 10
-54.59365233747963
 20
17.91186881420404
 30
0.0
 10
-54.64942463382329
 20
17.89372188453018
 30
0.0
 10
-54.7055145664873
 20
17.876429194938
 30
0.0
 10
-54.98066229723531
 20
17.79629180972646
 30
0.0
 10
-55.20250993383866
 20
17.74629327454193
 30
0.0
 10
-55.63887895349285
 20
17.67613342231738
 30
0.0
 10
-55.85351977392133
 20
17.65593707862615
 30
0.0
 10
-56.26403930368872
 20
17.64362628205063
 30
0.0
 10
-56.4599201665327
 20
17.65150963989436
 30
0.0
 10
-56.82347042412323
 20
17.68972088662659
 30
0.0
 10
-57.00741950216741
 20
17.72175986492357
 30
0.0
 10
-57.36644749975324
 20
17.81495458284408
 30
0.0
 10
-57.54152368063251
 20
17.87611245023606
 30
0.0
 10
-57.87264391015151
 20
18.0269398867965
 30
0.0
 10
-58.02879228094434
 20
18.11666800104428
 30
0.0
 10
-58.31541327151979
 20
18.32028583996288
 30
0.0
 10
-58.44590145600398
 20
18.43420381971515
 30
0.0
 10
-58.68626416899417
 20
18.68629279257917
 30
0.0
 10
-58.8110515261119
 20
18.84481974173812
 30
0.0
 10
-59.0308686381195
 20
19.19980846062856
 30
0.0
 10
-59.12596321914657
 20
19.39655827831766
 30
0.0
 10
-59.26825622776914
 20
19.76789938683641
 30
0.0
 10
-59.32806790948939
 20
19.96418011371182
 30
0.0
 10
-59.42431193863149
 20
20.38896050910805
 30
0.0
 10
-59.46078986456757
 20
20.61750163617509
 30
0.0
 10
-59.50751958047226
 20
21.09462324936069
 30
0.0
 10
-59.51785535340491
 20
21.34372163991242
 30
0.0
 10
-59.5148271945809
 20
21.66265372622885
 30
0.0
 10
-59.51327829183776
 20
21.73032984820904
 30
0.0
 10
-59.51084710453893
 20
21.7979928223244
 30
0.0
  0
SPLINE
  5
17FC5
330
1F
100
AcDbEntity
  8
AM_0
100
AcDbSpline
210
0.0
220
0.0
230
1.0
 70
     8
 71
     3
 72
     8
 73
     4
 74
     0
 42
0.0000000001
 43
0.0000000001
 40
2.375939754259144
 40
2.375939754259144
 40
2.375939754259144
 40
2.375939754259144
 40
2.665539975631796
 40
2.665539975631796
 40
2.665539975631796
 40
2.665539975631796
 10
-59.51084710453893
 20
21.7979928223244
 30
0.0
 10
-59.50731444075746
 20
21.8963112604435
 30
0.0
 10
-59.50196617602342
 20
21.99446877048771
 30
0.0
 10
-59.4948628576916
 20
22.0919772044256
 30
0.0
  0
LINE
  5
17FC6
330
1F
100
AcDbEntity
  8
AM_0
100
AcDbLine
 10
10.27384403349117
 20
-80.79074731346253
 30
0.0
 11
10.306589261569
 21
-80.52560769681855
 31
0.0
  0
LINE
  5
17FC7
330
1F
100
AcDbEntity
  8
AM_0
100
AcDbLine
 10
0.4873615819285533
 20
-86.01897496376643
 30
0.0
 11
0.0000665896586725
 21
-82.07136655789623
 31
0.0
  0
LINE
  5
17FC8
330
1F
100
AcDbEntity
  8
AM_0
100
AcDbLine
 10
0.5263261049999528
 20
-81.01255846693266
 30
0.0
 11
9.082526277014154
 21
-80.45358720491055
 31
0.0
  0
ELLIPSE
  5
17FC9
330
1F
100
AcDbEntity
  8
AM_0
100
AcDbEllipse
 10
9.506655916718387
 20
-80.52450435953938
 30
0.0
 11
-0.7999999996357788
 21
2.414030590505856E-5
 31
0.0
210
0.0
220
0.0
230
0.9999999999999999
 40
0.1045300187979214
 41
3.089522243457424
 42
5.27118380845033
  0
LINE
  5
17FCA
330
1F
100
AcDbEntity
  8
AM_0
100
AcDbLine
 10
10.30557149899687
 20
-80.528880836479
 30
0.0
 11
9.780329811358229
 21
-81.58225738981486
 31
0.0
  0
LINE
  5
17FCB
330
1F
100
AcDbEntity
  8
AM_0
100
AcDbLine
 10
9.306624564986578
 20
-85.50135355369872
 30
0.0
 11
9.494128156810348
 21
-85.12531354784676
 31
0.0
  0
LINE
  5
17FCC
330
1F
100
AcDbEntity
  8
AM_0
100
AcDbLine
 10
9.780329811358229
 20
-81.58225738981486
 30
0.0
 11
1.224129639344028
 21
-82.14122865183697
 31
0.0
  0
LINE
  5
17FCD
330
1F
100
AcDbEntity
  8
AM_0
100
AcDbLine
 10
9.780329811358229
 20
-81.58225738981486
 30
0.0
 11
9.306624564986578
 21
-85.50135355369872
 31
0.0
  0
LINE
  5
17FCE
330
1F
100
AcDbEntity
  8
AM_0
100
AcDbLine
 10
0.9655805129011696
 20
-86.04626879956061
 30
0.0
 11
9.306624564986578
 21
-85.50135355369878
 31
0.0
  0
ELLIPSE
  5
17FCF
330
1F
100
AcDbEntity
  8
AM_0
100
AcDbEllipse
 10
0.7999999996397946
 20
-82.07031149720814
 30
0.0
 11
-0.7999999996357788
 21
2.414030590505856E-5
 31
0.0
210
0.0
220
0.0
230
0.9999999999999999
 40
0.1045300187979214
 41
6.231114897047215
 42
8.412776462040132
  0
ELLIPSE
  5
17FD0
330
1F
100
AcDbEntity
  8
AM_0
100
AcDbEllipse
 10
0.7998808596478284
 20
-86.01856277095129
 30
0.0
 11
0.3125452930731731
 21
-9.431173734259516E-6
 31
0.0
210
0.0
220
0.0
230
1.0
 40
0.1045300187979214
 41
3.154498383390149
 42
5.271183808450356
  0
LINE
  5
17FD1
330
1F
100
AcDbEntity
  8
AM_0
100
AcDbLine
 10
0.0010844173613123
 20
-82.06593502026851
 30
0.0
 11
0.5263261049999528
 21
-81.01255846693266
 31
0.0
  0
ELLIPSE
  5
17FD2
330
1F
100
AcDbEntity
  8
AM_0
100
AcDbEllipse
 10
5.153327958179148
 20
-81.29740792837373
 30
0.0
 11
-1.999999999089446
 21
6.035076476264637E-5
 31
0.0
210
0.0
220
0.0
230
1.0
 40
0.1045300187979214
 41
0.0002886767064994
 42
6.283473983886081
  0
LINE
  5
17FD7
330
1F
100
AcDbEntity
  8
AM_0
100
AcDbLine
 10
7.152702619785714
 20
-91.15393550969463
 30
0.0
 11
4.027496216083137
 21
-91.15393550969463
 31
0.0
  0
LINE
  5
17FD8
330
1F
100
AcDbEntity
  8
AM_0
100
AcDbLine
 10
9.494116995013656
 20
-85.49521098440101
 30
0.0
 11
5.702504715270266
 21
-85.7429146681036
 31
0.0
  0
ELLIPSE
  5
17FD9
330
1F
100
AcDbEntity
  8
AM_0
100
AcDbEllipse
 10
12.40101109610225
 20
-59.20332972955157
 30
0.0
 11
-4.997499542379036
 21
-40.4746529597563
 31
0.0
210
0.0
220
0.0
230
1.0
 40
0.0047655257017105
 41
0.9734151807246345
 42
0.9871817029431103
  0
LINE
  5
17FDA
330
1F
100
AcDbEntity
  8
AM_0
100
AcDbLine
 10
9.494162010124114
 20
-84.00342838378452
 30
0.0
 11
9.749499901885088
 21
-81.98916745429352
 31
0.0
  0
ELLIPSE
  5
17FDB
330
1F
100
AcDbEntity
  8
AM_0
100
AcDbEllipse
 10
12.40032399706058
 20
-81.97351479855661
 30
0.0
 11
-4.999999997723617
 21
0.0001508769119069641
 31
0.0
210
0.0
220
0.0
230
0.9999999999999999
 40
0.1045300187979214
 41
4.792633043126164
 42
5.257417286231315
  0
LINE
  5
17FDC
330
1F
100
AcDbEntity
  8
AM_0
100
AcDbLine
 10
10.16956092949772
 20
-80.80165115971875
 30
0.0
 11
9.808126007370333
 21
-81.52651188857203
 31
0.0
  0
SPLINE
  5
17FDD
330
1F
100
AcDbEntity
  8
AM_0
100
AcDbSpline
210
0.0
220
0.0
230
1.0
 70
     8
 71
     3
 72
    20
 73
    16
 74
     0
 42
0.0000000001
 43
0.0000000001
 40
22.38361295445567
 40
22.38361295445567
 40
22.38361295445567
 40
22.38361295445567
 40
22.78000632284001
 40
22.78000632284001
 40
23.73321841067555
 40
23.73321841067555
 40
24.68643049851109
 40
24.68643049851109
 40
25.63964258634663
 40
25.63964258634663
 40
26.59285467418216
 40
26.59285467418216
 40
27.54323749550747
 40
27.54323749550747
 40
27.56909075184033
 40
27.56909075184033
 40
27.56909075184033
 40
27.56909075184033
 10
11.99954984894168
 20
-81.45253440839241
 30
0.0
 10
12.13433704305555
 20
-81.45140344830037
 30
0.0
 10
12.26824015260809
 20
-81.4490421094481
 30
0.0
 10
12.71794821661263
 20
-81.43709495455659
 30
0.0
 10
13.04533839999397
 20
-81.42131307192852
 30
0.0
 10
13.69454840997878
 20
-81.37550318245144
 30
0.0
 10
14.0163783418393
 20
-81.34549679011701
 30
0.0
 10
14.63199275431066
 20
-81.27628853273757
 30
0.0
 10
14.92630379600655
 20
-81.23709077729887
 30
0.0
 10
15.46974930315344
 20
-81.1574921955434
 30
0.0
 10
15.71888479836457
 20
-81.11718710011587
 30
0.0
 10
16.1590690626208
 20
-81.04413102045936
 30
0.0
 10
16.36574539430876
 20
-81.00869849299977
 30
0.0
 10
16.55331127435227
 20
-80.97846837675496
 30
0.0
 10
16.55826096106978
 20
-80.9776722413456
 30
0.0
 10
16.56319292833757
 20
-80.97688063947754
 30
0.0
  0
SPLINE
  5
17FDE
330
1F
100
AcDbEntity
  8
AM_0
100
AcDbSpline
210
0.0
220
0.0
230
1.0
 70
     8
 71
     3
 72
    10
 73
     6
 74
     0
 42
0.0000000001
 43
0.0000000001
 40
5.220956609736569
 40
5.220956609736569
 40
5.220956609736569
 40
5.220956609736569
 40
5.297247726512397
 40
5.297247726512397
 40
5.373538845416049
 40
5.373538845416049
 40
5.373538845416049
 40
5.373538845416049
 10
11.99954984894168
 20
-80.52635836029003
 30
0.0
 10
12.00068285150121
 20
-80.52905301091067
 30
0.0
 10
12.00123765977332
 20
-80.53173221086013
 30
0.0
 10
12.00123765977332
 20
-80.53704868551711
 30
0.0
 10
12.00068285147211
 20
-80.53972805777624
 30
0.0
 10
11.99954984894168
 20
-80.54242267451252
 30
0.0
  0
ELLIPSE
  5
17FDF
330
1F
100
AcDbEntity
  8
AM_0
100
AcDbEllipse
 10
10.25123766055776
 20
-80.53433833816587
 30
0.0
 11
-1.74999999920326
 21
5.280691916743726E-5
 31
0.0
210
0.0
220
0.0
230
1.0
 40
0.1045300187979214
 41
2.356483957619797
 42
3.097672729556224
  0
LINE
  5
17FE0
330
1F
100
AcDbEntity
  8
AM_0
100
AcDbLine
 10
9.494162010124114
 20
-84.00342838378452
 30
0.0
 11
9.494116995013656
 21
-85.49521098440101
 31
0.0
  0
LINE
  5
17FE1
330
1F
100
AcDbEntity
  8
AM_0
100
AcDbLine
 10
11.48902877085436
 20
-80.66368754019408
 30
0.0
 11
10.16956092949772
 21
-80.80165115971875
 31
0.0
  0
ELLIPSE
  5
17FE2
330
1F
100
AcDbEntity
  8
AM_0
100
AcDbEllipse
 10
10.25123766055776
 20
-80.53433833816587
 30
0.0
 11
-1.74999999920326
 21
5.280691916743726E-5
 31
0.0
210
0.0
220
0.0
230
1.0
 40
0.1045300187979214
 41
3.185518886089912
 42
5.498076611209607
  0
LINE
  5
17FE3
330
1F
100
AcDbEntity
  8
AM_0
100
AcDbLine
 10
7.659633063593333
 20
-80.54654393795073
 30
0.0
 11
9.013446550261051
 21
-80.40498913613766
 31
0.0
  0
LINE
  5
17FE4
330
1F
100
AcDbEntity
  8
AM_0
100
AcDbLine
 10
0.5263261049999528
 20
-81.01255846693266
 30
0.0
 11
7.659633063593333
 21
-80.54654393795073
 31
0.0
  0
LINE
  5
17FE5
330
1F
100
AcDbEntity
  8
AM_0
100
AcDbLine
 10
0.5263261049999528
 20
-81.01255846693266
 30
0.0
 11
0.8953169512246859
 21
-80.27254426974247
 31
0.0
  0
SPLINE
  5
17FE6
330
1F
100
AcDbEntity
  8
AM_0
100
AcDbSpline
210
0.0
220
0.0
230
1.0
 70
    28
 71
     2
 72
     6
 73
     3
 74
     0
 42
0.0000000001
 43
0.0000000001
 40
4.496611670767367
 40
4.496611670767367
 40
4.496611670767367
 40
8.993223341534733
 40
8.993223341534733
 40
8.993223341534733
 10
249.9999999999998
 20
-91.15393550969469
 30
0.0
 41
1.0
 10
249.9999999999997
 20
-91.15393550969469
 30
0.0
 41
1.027402333828149
 10
248.9999999999998
 20
-91.15393550969469
 30
0.0
 41
1.0
  0
LINE
  5
17FE7
330
1F
100
AcDbEntity
  8
AM_0
100
AcDbLine
 10
249.9999999999998
 20
-79.19589561814485
 30
0.0
 11
249.9999999999998
 21
-73.15393550969469
 31
0.0
  0
LINE
  5
17FE8
330
1F
100
AcDbEntity
  8
AM_0
100
AcDbLine
 10
249.9999999999998
 20
-91.15393550969469
 30
0.0
 11
249.9999999999998
 21
-85.11197540124454
 31
0.0
  0
LINE
  5
17FE9
330
1F
100
AcDbEntity
  8
AM_0
100
AcDbLine
 10
248.9999999999998
 20
-91.15393550969469
 30
0.0
 11
248.9999999999998
 21
-87.42176238612109
 31
0.0
  0
LINE
  5
17FEB
330
1F
100
AcDbEntity
  8
AM_0
100
AcDbLine
 10
30.24999999999989
 20
-91.15393550969466
 30
0.0
 11
30.24999999999989
 21
-87.42176238612106
 31
0.0
  0
SPLINE
  5
17FEC
330
1F
100
AcDbEntity
  8
AM_0
100
AcDbSpline
210
0.0
220
0.0
230
1.0
 70
    28
 71
     2
 72
     6
 73
     3
 74
     0
 42
0.0000000001
 43
0.0000000001
 40
0.0
 40
0.0
 40
0.0
 40
0.6582629195149808
 40
0.6582629195149808
 40
0.6582629195149808
 10
30.25
 20
-91.15393550969466
 30
0.0
 41
1.0
 10
30.11561372345705
 20
-91.15393550969466
 30
0.0
 41
1.000475593577811
 10
30.0
 20
-91.15393550969466
 30
0.0
 41
1.0
  0
LINE
  5
17FED
330
1F
100
AcDbEntity
  8
AM_0
100
AcDbLine
 10
29.99999999999989
 20
-91.15393550969466
 30
0.0
 11
29.99999999999989
 21
-86.93017880333039
 31
0.0
  0
LINE
  5
17FEE
330
1F
100
AcDbEntity
  8
AM_0
100
AcDbLine
 10
30.0
 20
-91.15393550969466
 30
0.0
 11
7.152702619785714
 21
-91.15393550969463
 31
0.0
  0
SPLINE
  5
17FEF
330
1F
100
AcDbEntity
  8
AM_0
100
AcDbSpline
210
0.0
220
0.0
230
1.0
 70
     8
 71
     3
 72
    20
 73
    16
 74
     0
 42
0.0000000001
 43
0.0000000001
 40
6.553932633965715
 40
6.553932633965715
 40
6.553932633965715
 40
6.553932633965715
 40
6.887225544681391
 40
6.887225544681391
 40
7.268437213134485
 40
7.268437213134485
 40
7.649648881587579
 40
7.649648881587579
 40
8.030860550040673
 40
8.030860550040673
 40
8.946446844655165
 40
8.946446844655165
 40
9.404239991962411
 40
9.404239991962411
 40
9.820942194453336
 40
9.820942194453336
 40
9.820942194453336
 40
9.820942194453336
 10
5.201087219383339
 20
-89.95381900837992
 30
0.0
 10
5.312604718538637
 20
-89.95601148183323
 30
0.0
 10
5.425342447516641
 20
-89.9659942393414
 30
0.0
 10
5.662744004915453
 20
-90.0034832523375
 30
0.0
 10
5.786803708646858
 20
-90.03330488255568
 30
0.0
 10
6.021705877022214
 20
-90.10774460021713
 30
0.0
 10
6.132817208525466
 20
-90.1523821080882
 30
0.0
 10
6.336688183590582
 20
-90.24954734800861
 30
0.0
 10
6.429460892378415
 20
-90.30204104923388
 30
0.0
 10
6.70805619267685
 20
-90.48081210194613
 30
0.0
 10
6.873721407872608
 20
-90.62835104761803
 30
0.0
 10
7.040742115205376
 20
-90.84325471002609
 30
0.0
 10
7.08316937463303
 20
-90.91391889183728
 30
0.0
 10
7.136812159444276
 20
-91.04207640904809
 30
0.0
 10
7.150482792335424
 20
-91.10019206664151
 30
0.0
 10
7.152702619785714
 20
-91.15393550969407
 30
0.0
  0
LINE
  5
17FF0
330
1F
100
AcDbEntity
  8
AM_0
100
AcDbLine
 10
5.702504715270266
 20
-85.74291466808649
 30
0.0
 11
5.609078320256685
 21
-85.74291196153513
 31
0.0
  0
ELLIPSE
  5
17FF1
330
1F
100
AcDbEntity
  8
AM_0
100
AcDbEllipse
 10
20.72160597548509
 20
-82.15393550969463
 30
0.0
 11
15.55994391157152
 21
1.6513047858455
 31
0.0
210
0.0
220
0.0
230
1.0
 40
0.6175566151688426
 41
3.34837291097944
 42
3.866413965846537
  0
SPLINE
  5
17FF2
330
1F
100
AcDbEntity
  8
AM_0
100
AcDbSpline
210
0.0
220
0.0
230
1.0
 70
     8
 71
     3
 72
    34
 73
    30
 74
     0
 42
0.0000000001
 43
0.0000000001
 40
3.7969167045717
 40
3.7969167045717
 40
3.7969167045717
 40
3.7969167045717
 40
4.280616853561485
 40
4.280616853561485
 40
5.70748913808198
 40
5.70748913808198
 40
6.216444111055591
 40
6.216444111055591
 40
6.725399084029201
 40
6.725399084029201
 40
7.234354057002811
 40
7.234354057002811
 40
7.743309029976421
 40
7.743309029976421
 40
8.4695476471615
 40
8.4695476471615
 40
9.195786264346578
 40
9.195786264346578
 40
9.922024881531657
 40
9.922024881531657
 40
10.64826349871674
 40
10.64826349871674
 40
11.37449371332791
 40
11.37449371332791
 40
12.10072392793909
 40
12.10072392793909
 40
12.82695414255027
 40
12.82695414255027
 40
13.42303104375951
 40
13.42303104375951
 40
13.42303104375951
 40
13.42303104375951
 10
16.9155949317817
 20
-86.93017880558216
 30
0.0
 10
16.88415409461561
 20
-87.07568802474594
 30
0.0
 10
16.84932210528086
 20
-87.21788344041778
 30
0.0
 10
16.69666559273117
 20
-87.76451753779691
 30
0.0
 10
16.54909742577331
 20
-88.13931255519344
 30
0.0
 10
16.29136035982344
 20
-88.58990026382924
 30
0.0
 10
16.21443892547961
 20
-88.70946185950038
 30
0.0
 10
16.04225755618893
 20
-88.94195008636751
 30
0.0
 10
15.94696370230645
 20
-89.05487113800626
 30
0.0
 10
15.74022650157986
 20
-89.26752445218398
 30
0.0
 10
15.62869878239462
 20
-89.36732237994937
 30
0.0
 10
15.39454260314108
 20
-89.54975547566068
 30
0.0
 10
15.27190333218903
 20
-89.63240798694835
 30
0.0
 10
14.97102718531528
 20
-89.81018839660032
 30
0.0
 10
14.77365849448233
 20
-89.90597843929129
 30
0.0
 10
14.34670186741221
 20
-90.07117616657814
 30
0.0
 10
14.11711087356616
 20
-90.14066796576879
 30
0.0
 10
13.6395881873201
 20
-90.25045804247657
 30
0.0
 10
13.39126161997319
 20
-90.29092150844633
 30
0.0
 10
12.89253484418225
 20
-90.34367638865308
 30
0.0
 10
12.6421348207557
 20
-90.35598355388606
 30
0.0
 10
12.15797854349034
 20
-90.35598355388606
 30
0.0
 10
11.90758130203176
 20
-90.34367666838637
 30
0.0
 10
11.40886045012712
 20
-90.29092246866372
 30
0.0
 10
11.16053702556997
 20
-90.2504594042789
 30
0.0
 10
10.68302136285445
 20
-90.14066985484811
 30
0.0
 10
10.4534342279826
 20
-90.07117817190925
 30
0.0
 10
10.06474462933272
 20
-89.9207832278961
 30
0.0
 10
9.900325377023137
 20
-89.8441622483345
 30
0.0
 10
9.749265383503598
 20
-89.761012016434
 30
0.0
  0
LINE
  5
17FF3
330
1F
100
AcDbEntity
  8
AM_0
100
AcDbLine
 10
8.624610444191717
 20
-79.8037417798468
 30
0.0
 11
0.8953169512246859
 21
-80.27254426974247
 31
0.0
  0
SPLINE
  5
17FF4
330
1F
100
AcDbEntity
  8
AM_0
100
AcDbSpline
210
0.0
220
0.0
230
1.0
 70
    12
 71
     2
 72
     6
 73
     3
 74
     0
 42
0.0000000001
 43
0.0000000001
 40
0.0
 40
0.0
 40
0.0
 40
2.519162529224027
 40
2.519162529224027
 40
2.519162529224027
 10
248.9999999999998
 20
-76.88610863326829
 30
0.0
 41
1.0
 10
249.64039778725
 20
-78.10178599372972
 30
0.0
 41
1.007472283039057
 10
249.9999999999998
 20
-79.19589561814485
 30
0.0
 41
1.0
  0
LINE
  5
17FF5
330
1F
100
AcDbEntity
  8
AM_0
100
AcDbLine
 10
249.9999999999999
 20
-79.19589561814485
 30
0.0
 11
249.9999999999999
 21
-85.11197540124454
 31
0.0
  0
SPLINE
  5
17FF6
330
1F
100
AcDbEntity
  8
AM_0
100
AcDbSpline
210
0.0
220
0.0
230
1.0
 70
    12
 71
     2
 72
     6
 73
     3
 74
     0
 42
0.0000000001
 43
0.0000000001
 40
0.0
 40
0.0
 40
0.0
 40
2.519162529224027
 40
2.519162529224027
 40
2.519162529224027
 10
249.9999999999998
 20
-85.11197540124454
 30
0.0
 41
1.0
 10
249.64039778725
 20
-86.20608502565969
 30
0.0
 41
1.007472283039057
 10
248.9999999999998
 20
-87.42176238612109
 30
0.0
 41
1.0
  0
SPLINE
  5
17FF8
330
1F
100
AcDbEntity
  8
AM_0
100
AcDbSpline
210
0.0
220
0.0
230
1.0
 70
    12
 71
     2
 72
     6
 73
     3
 74
     0
 42
0.0000000001
 43
0.0000000001
 40
0.0
 40
0.0
 40
0.0
 40
0.5515167900486291
 40
0.5515167900486291
 40
0.5515167900486291
 10
30.25
 20
-87.42176238612106
 30
0.0
 41
1.0
 10
30.11888216661089
 20
-87.17285930622697
 30
0.0
 41
1.000309907719662
 10
30.0
 20
-86.93017880333039
 30
0.0
 41
1.0
  0
LINE
  5
17FF9
330
1F
100
AcDbEntity
  8
AM_0
100
AcDbLine
 10
30.0
 20
-86.93017880333039
 30
0.0
 11
16.9155949317817
 21
-86.93017880333036
 31
0.0
  0
ELLIPSE
  5
17FFA
330
1F
100
AcDbEntity
  8
AM_0
100
AcDbEllipse
 10
12.39955455102745
 20
-107.4726459467436
 30
0.0
 11
0.001443383571931573
 21
47.83314932134161
 31
0.0
210
0.0
220
0.0
230
1.0
 40
0.1045300187979214
 41
5.156287868279912
 42
5.299458035639117
  0
ELLIPSE
  5
17FFB
330
1F
100
AcDbEntity
  8
AM_0
100
AcDbEllipse
 10
11.99977492442588
 20
-66.60918119959203
 30
0.0
 11
-1.566969890926488E-15
 21
-15.08262667133251
 31
0.0
210
0.0
220
0.0
230
1.0
 40
0.9945217318692768
 41
0.309127770382763
 42
0.4920266684844993
  0
LINE
  5
17FFC
330
1F
100
AcDbEntity
  8
AM_0
100
AcDbLine
 10
5.201087219383339
 20
-89.95381900837992
 30
0.0
 11
5.201087219383339
 21
-85.76956576767395
 31
0.0
  0
SPLINE
  5
17FFD
330
1F
100
AcDbEntity
  8
AM_0
100
AcDbSpline
210
0.0
220
0.0
230
1.0
 70
     8
 71
     3
 72
    12
 73
     8
 74
     0
 42
0.0000000001
 43
0.0000000001
 40
5.325708555228272
 40
5.325708555228272
 40
5.325708555228272
 40
5.325708555228272
 40
5.785516237128344
 40
5.785516237128344
 40
6.850617543112868
 40
6.850617543112868
 40
7.014537579030257
 40
7.014537579030257
 40
7.014537579030257
 40
7.014537579030257
 10
4.027496216083932
 20
-91.1539355097251
 30
0.0
 10
4.118672171154458
 20
-91.04334854397285
 30
0.0
 10
4.213072353939083
 20
-90.93337863088033
 30
0.0
 10
4.528532976897168
 20
-90.58031231057748
 30
0.0
 10
4.789594278478944
 20
-90.3109075488133
 30
0.0
 10
5.113405580943663
 20
-90.02751434739082
 30
0.0
 10
5.157052273608429
 20
-89.99029245669249
 30
0.0
 10
5.201087219383339
 20
-89.95381900837992
 30
0.0
  0
SPLINE
  5
17FFE
330
1F
100
AcDbEntity
  8
AM_0
100
AcDbSpline
210
0.0
220
0.0
230
1.0
 70
    28
 71
     2
 72
     6
 73
     3
 74
     0
 42
0.0000000001
 43
0.0000000001
 40
2.443331861907977
 40
2.443331861907977
 40
2.443331861907977
 40
6.27599683450032
 40
6.27599683450032
 40
6.27599683450032
 10
4.027496216083534
 20
-91.1539355097251
 30
0.0
 41
1.013930135306876
 10
2.952741010928435
 20
-91.15393550970282
 30
0.0
 41
1.019764444461336
 10
1.311966147605518
 20
-91.15393550969685
 30
0.0
 41
1.009626251331852
  0
ELLIPSE
  5
17FFF
330
1F
100
AcDbEntity
  8
AM_0
100
AcDbEllipse
 10
0.6513699472185408
 20
-81.23484642120656
 30
0.0
 11
1.478089610066296
 21
-12.58233599825132
 31
0.0
210
0.0
220
0.0
230
1.0
 40
0.0636885550977921
 41
5.180645541027373
 42
5.612968729049971
  0
SPLINE
  5
18000
330
1F
100
AcDbEntity
  8
AM_0
100
AcDbSpline
210
0.0
220
0.0
230
1.0
 70
     8
 71
     3
 72
    18
 73
    14
 74
     0
 42
0.0000000001
 43
0.0000000001
 40
0.0444154678232773
 40
0.0444154678232773
 40
0.0444154678232773
 40
0.0444154678232773
 40
0.0557444712903997
 40
0.0557444712903997
 40
0.1114889425807994
 40
0.1114889425807994
 40
0.3161200943214183
 40
0.3161200943214183
 40
0.5207512460620372
 40
0.5207512460620372
 40
0.9511184242096022
 40
0.9511184242096022
 40
1.007744277109782
 40
1.007744277109782
 40
1.007744277109782
 40
1.007744277109782
 10
0.9176457967134866
 20
-86.04882876061208
 30
0.0
 10
0.9149548504468612
 20
-86.05134569638761
 30
0.0
 10
0.9123200846382815
 20
-86.05402413161971
 30
0.0
 10
0.897031584432284
 20
-86.07061995865621
 30
0.0
 10
0.8856564056070511
 20
-86.08736523280163
 30
0.0
 10
0.8408197260881707
 20
-86.16152735166702
 30
0.0
 10
0.8137987839519383
 20
-86.23005055695893
 30
0.0
 10
0.7638448620912186
 20
-86.36908913773692
 30
0.0
 10
0.7419800031483419
 20
-86.43989427719339
 30
0.0
 10
0.6840868736808261
 20
-86.64036436568472
 30
0.0
 10
0.6474386026784487
 20
-86.78992717915861
 30
0.0
 10
0.6114855440946485
 20
-86.95850737229279
 30
0.0
 10
0.6073906760949512
 20
-86.97809997169384
 30
0.0
 10
0.6033873037514468
 20
-86.99765137365012
 30
0.0
  0
ELLIPSE
  5
18001
330
1F
100
AcDbEntity
  8
AM_0
100
AcDbEllipse
 10
0.7956111125026837
 20
-88.43170337097729
 30
0.0
 11
0.2993128551820417
 21
-2.431760537175443
 31
0.0
210
0.0
220
0.0
230
1.0
 40
0.0078874292871148
 41
3.28854342010942
 42
4.080709374769953
  0
LINE
  5
18002
330
1F
100
AcDbEntity
  8
AM_0
100
AcDbLine
 10
248.9999999999998
 20
-76.88610863326829
 30
0.0
 11
248.9999999999998
 21
-73.15393550969469
 31
0.0
  0
LINE
  5
18003
330
1F
100
AcDbEntity
  8
AM_0
100
AcDbLine
 10
36.05700115593834
 20
-76.88610863326829
 30
0.0
 11
248.9999999999998
 21
-76.88610863326835
 31
0.0
  0
LINE
  5
18004
330
1F
100
AcDbEntity
  8
AM_0
100
AcDbLine
 10
24.81872007371112
 20
-73.15393550969466
 30
0.0
 11
25.19651408086236
 21
-73.15393550969466
 31
0.0
  0
SPLINE
  5
18005
330
1F
100
AcDbEntity
  8
AM_0
100
AcDbSpline
210
0.0
220
0.0
230
1.0
 70
    28
 71
     2
 72
     6
 73
     3
 74
     0
 42
0.0000000001
 43
0.0000000001
 40
0.0
 40
0.0
 40
0.0
 40
4.496611670767367
 40
4.496611670767367
 40
4.496611670767367
 10
248.9999999999998
 20
-73.15393550969469
 30
0.0
 41
1.0
 10
250.0000000000003
 20
-73.15393550969461
 30
0.0
 41
1.027402333828208
 10
249.9999999999998
 20
-73.15393550969469
 30
0.0
 41
1.0
  0
LINE
  5
18006
330
1F
100
AcDbEntity
  8
AM_0
100
AcDbLine
 10
34.96277783191135
 20
-73.15393550969466
 30
0.0
 11
248.9999999999999
 21
-73.15393550969469
 31
0.0
  0
LINE
  5
18007
330
1F
100
AcDbEntity
  8
AM_0
100
AcDbLine
 10
29.92109467438809
 20
-79.90266513601435
 30
0.0
 11
19.08597167298592
 21
-79.90266513601432
 31
0.0
  0
SPLINE
  5
18008
330
1F
100
AcDbEntity
  8
AM_0
100
AcDbSpline
210
0.0
220
0.0
230
1.0
 70
     8
 71
     3
 72
    20
 73
    16
 74
     0
 42
0.0000000001
 43
0.0000000001
 40
16.18913415098994
 40
16.18913415098994
 40
16.18913415098994
 40
16.18913415098994
 40
16.86900267747188
 40
16.86900267747188
 40
18.77167425982235
 40
18.77167425982235
 40
20.67434584217281
 40
20.67434584217281
 40
22.57701742452328
 40
22.57701742452328
 40
24.41592861595317
 40
24.41592861595317
 40
26.25483980738306
 40
26.25483980738306
 40
27.27857386867534
 40
27.27857386867534
 40
27.27857386867534
 40
27.27857386867534
 10
19.08597167298581
 20
-79.90266513601432
 30
0.0
 10
19.14304629104038
 20
-79.85058087479189
 30
0.0
 10
19.21340106579044
 20
-79.79145188984518
 30
0.0
 10
19.52148886471605
 20
-79.54221091340486
 30
0.0
 10
19.83121059972018
 20
-79.30829262877529
 30
0.0
 10
20.52981694109531
 20
-78.75305482104255
 30
0.0
 10
20.9182659394105
 20
-78.43181590946807
 30
0.0
 10
21.70709804582145
 20
-77.72139119773578
 30
0.0
 10
22.10765437626787
 20
-77.33195035796001
 30
0.0
 10
22.85746016423889
 20
-76.53196306970739
 30
0.0
 10
23.23657606335246
 20
-76.09270161290382
 30
0.0
 10
23.97510077741379
 20
-75.13755361399041
 30
0.0
 10
24.33442152022553
 20
-74.62159047986583
 30
0.0
 10
24.85233570884532
 20
-73.77846350483893
 30
0.0
 10
25.02954699307827
 20
-73.46881464980694
 30
0.0
 10
25.19651408086236
 20
-73.15393550969466
 30
0.0
  0
LINE
  5
18009
330
1F
100
AcDbEntity
  8
AM_0
100
AcDbLine
 10
25.19651408086236
 20
-73.15393550969466
 30
0.0
 11
29.92109467438809
 21
-73.15393550969466
 31
0.0
  0
SPLINE
  5
1800A
330
1F
100
AcDbEntity
  8
AM_0
100
AcDbSpline
210
0.0
220
0.0
230
1.0
 70
     8
 71
     3
 72
    24
 73
    20
 74
     0
 42
0.0000000001
 43
0.0000000001
 40
6.040204704103884
 40
6.040204704103884
 40
6.040204704103884
 40
6.040204704103884
 40
7.264222897072244
 40
7.264222897072244
 40
7.927655252210133
 40
7.927655252210133
 40
8.591087607348023
 40
8.591087607348023
 40
9.254519962485912
 40
9.254519962485912
 40
9.917952317623803
 40
9.917952317623803
 40
10.58138467276169
 40
10.58138467276169
 40
11.24481702789958
 40
11.24481702789958
 40
11.90824938303747
 40
11.90824938303747
 40
11.9432896981353
 40
11.9432896981353
 40
11.9432896981353
 40
11.9432896981353
 10
34.96277783191135
 20
-73.15393550969466
 30
0.0
 10
35.25546501542328
 20
-73.28051665522813
 30
0.0
 10
35.51632548493274
 20
-73.43047293635473
 30
0.0
 10
35.85851388208425
 20
-73.70466381871663
 30
0.0
 10
35.97236626991469
 20
-73.81353064893611
 30
0.0
 10
36.17376224847465
 20
-74.05460105830693
 30
0.0
 10
36.26129221211716
 20
-74.18684545282056
 30
0.0
 10
36.40185749953207
 20
-74.46977745260162
 30
0.0
 10
36.45496454789031
 20
-74.62065774820664
 30
0.0
 10
36.52441395829976
 20
-74.93257872168164
 30
0.0
 10
36.54075194540167
 20
-75.09362565089168
 30
0.0
 10
36.54075194540167
 20
-75.41374752400529
 30
0.0
 10
36.52441395829976
 20
-75.58513812070592
 30
0.0
 10
36.45496454789031
 20
-75.94050016637945
 30
0.0
 10
36.40185749953207
 20
-76.12446708999639
 30
0.0
 10
36.26129221211716
 20
-76.49320730545742
 30
0.0
 10
36.17376224847465
 20
-76.67818129282594
 30
0.0
 10
36.06774572257712
 20
-76.86719073019597
 30
0.0
 10
36.06239108429054
 20
-76.87665766783437
 30
0.0
 10
36.05700115593834
 20
-76.88610863326829
 30
0.0
  0
ARC
  5
1800B
330
1F
100
AcDbEntity
  8
AM_0
100
AcDbCircle
 10
29.92109467438806
 20
-72.15393550969466
 30
0.0
 40
7.74872962631965
100
AcDbArc
 50
270.0
 51
322.3596416972911
  0
LINE
  5
1800C
330
1F
100
AcDbEntity
  8
AM_0
100
AcDbLine
 10
29.92109467438809
 20
-73.15393550969466
 30
0.0
 11
34.96277783191135
 21
-73.15393550969466
 31
0.0
  0
SPLINE
  5
1800D
330
1F
100
AcDbEntity
  8
AM_0
100
AcDbSpline
210
0.0
220
0.0
230
1.0
 70
     8
 71
     3
 72
    14
 73
    10
 74
     0
 42
0.0000000001
 43
0.0000000001
 40
-20.92575754316229
 40
-20.92575754316229
 40
-20.92575754316229
 40
-20.92575754316229
 40
-20.92553246863419
 40
-20.92553246863419
 40
-18.77484889900038
 40
-18.77484889900038
 40
-16.62416532936656
 40
-16.62416532936656
 40
-15.18603473958983
 40
-15.18603473958983
 40
-15.18603473958983
 40
-15.18603473958983
 10
11.99954984894168
 20
-79.80384102872165
 30
0.0
 10
11.99962487442178
 20
-79.80384102982481
 30
0.0
 10
11.99969989958322
 20
-79.80384103037642
 30
0.0
 10
12.71666944763717
 20
-79.80384103037642
 30
0.0
 10
13.46266485021044
 20
-79.75256049977486
 30
0.0
 10
14.96201784916411
 20
-79.53384787236723
 30
0.0
 10
15.71537446184584
 20
-79.36641754468366
 30
0.0
 10
16.93861673213894
 20
-78.9970435491087
 30
0.0
 10
17.42014820594852
 20
-78.82502248633347
 30
0.0
 10
17.88644993082596
 20
-78.63279215749964
 30
0.0
  0
LINE
  5
1800E
330
1F
100
AcDbEntity
  8
AM_0
100
AcDbLine
 10
8.624610444191717
 20
-79.8037417798468
 30
0.0
 11
11.99954984894168
 21
-79.80384102903082
 31
0.0
  0
SPLINE
  5
1800F
330
1F
100
AcDbEntity
  8
AM_0
100
AcDbSpline
210
0.0
220
0.0
230
1.0
 70
     8
 71
     3
 72
     8
 73
     4
 74
     0
 42
0.0000000001
 43
0.0000000001
 40
-6.109120816358542
 40
-6.109120816358542
 40
-6.109120816358542
 40
-6.109120816358542
 40
-4.78438566513478
 40
-4.78438566513478
 40
-4.78438566513478
 40
-4.78438566513478
 10
24.36906192816684
 20
-73.73158163728763
 30
0.0
 10
24.54061229006913
 20
-73.51852798736744
 30
0.0
 10
24.69033079654651
 20
-73.32359209783908
 30
0.0
 10
24.81872007371112
 20
-73.15393550969466
 30
0.0
  0
SPLINE
  5
18010
330
1F
100
AcDbEntity
  8
AM_0
100
AcDbSpline
210
0.0
220
0.0
230
1.0
 70
     8
 71
     3
 72
     8
 73
     4
 74
     0
 42
0.0000000001
 43
0.0000000001
 40
0.9407895397566745
 40
0.9407895397566745
 40
0.9407895397566745
 40
0.9407895397566745
 40
1.190261930426714
 40
1.190261930426714
 40
1.190261930426714
 40
1.190261930426714
 10
17.92109467438809
 20
-78.63279215875252
 30
0.0
 10
18.00425213794472
 20
-78.63279215875252
 30
0.0
 10
18.08777068209849
 20
-78.63150336485973
 30
0.0
 10
18.17156172565808
 20
-78.6289678179615
 30
0.0
  0
SPLINE
  5
18011
330
1F
100
AcDbEntity
  8
AM_0
100
AcDbSpline
210
0.0
220
0.0
230
1.0
 70
     8
 71
     3
 72
    34
 73
    30
 74
     0
 42
0.0000000001
 43
0.0000000001
 40
6.868367555994572
 40
6.868367555994572
 40
6.868367555994572
 40
6.868367555994572
 40
7.065791795727092
 40
7.065791795727092
 40
7.833390793117137
 40
7.833390793117137
 40
8.600989790507182
 40
8.600989790507182
 40
9.368588787897226
 40
9.368588787897226
 40
10.13618778528727
 40
10.13618778528727
 40
10.90378678267732
 40
10.90378678267732
 40
11.67138578006736
 40
11.67138578006736
 40
12.43898477745741
 40
12.43898477745741
 40
13.26259676837245
 40
13.26259676837245
 40
14.08620875928749
 40
14.08620875928749
 40
14.83022009855871
 40
14.83022009855871
 40
15.57423143782994
 40
15.57423143782994
 40
16.31824277710117
 40
16.31824277710117
 40
16.51803023290671
 40
16.51803023290671
 40
16.51803023290671
 40
16.51803023290671
 10
24.36906192816684
 20
-73.73158163728763
 30
0.0
 10
24.33231302877766
 20
-73.78735393363135
 30
0.0
 10
24.29477385813084
 20
-73.84344386629536
 30
0.0
 10
24.10762979312256
 20
-74.11859159704332
 30
0.0
 10
23.94735518840741
 20
-74.34043923364666
 30
0.0
 10
23.61098909923942
 20
-74.77680825330089
 30
0.0
 10
23.43479009006194
 20
-74.99144907372934
 30
0.0
 10
23.07628429840906
 20
-75.40196860349673
 30
0.0
 10
22.89398005706823
 20
-75.59784946634071
 30
0.0
 10
22.53587192928831
 20
-75.96139972393124
 30
0.0
 10
22.34403205666888
 20
-76.14534880197547
 30
0.0
 10
21.94450998696232
 20
-76.50437679956133
 30
0.0
 10
21.73682582513811
 20
-76.67945298044049
 30
0.0
 10
21.31719151993389
 20
-77.01057320995949
 30
0.0
 10
21.10512849129384
 20
-77.16672158075232
 30
0.0
 10
20.68935060343949
 20
-77.45334257132777
 30
0.0
 10
20.48566031219798
 20
-77.58383075581202
 30
0.0
 10
20.08565411044299
 20
-77.82419346880221
 30
0.0
 10
19.86155438594199
 20
-77.94898082591988
 30
0.0
 10
19.42994620760146
 20
-78.16879793792748
 30
0.0
 10
19.22270777573351
 20
-78.26389251895466
 30
0.0
 10
18.88372740384421
 20
-78.40618552757718
 30
0.0
 10
18.726000654426
 20
-78.46599720929743
 30
0.0
 10
18.4391035231813
 20
-78.56224123843947
 30
0.0
 10
18.31000982339265
 20
-78.59871916437561
 30
0.0
 10
18.09792756385366
 20
-78.6454488802803
 30
0.0
 10
18.01481847920979
 20
-78.65578465321289
 30
0.0
 10
17.94477470426511
 20
-78.65275649438888
 30
0.0
 10
17.9319289975615
 20
-78.6512075916458
 30
0.0
 10
17.92109467438809
 20
-78.6487764043469
 30
0.0
  0
LINE
  5
18012
330
1F
100
AcDbEntity
  8
AM_0
100
AcDbLine
 10
17.88644993082596
 20
-78.63279215875252
 30
0.0
 11
17.92109467438809
 21
-78.63279215875252
 31
0.0
  0
SPLINE
  5
18013
330
1F
100
AcDbEntity
  8
AM_0
100
AcDbSpline
210
0.0
220
0.0
230
1.0
 70
     8
 71
     3
 72
     8
 73
     4
 74
     0
 42
0.0000000001
 43
0.0000000001
 40
2.375939754259144
 40
2.375939754259144
 40
2.375939754259144
 40
2.375939754259144
 40
2.665539975631796
 40
2.665539975631796
 40
2.665539975631796
 40
2.665539975631796
 10
17.92109467438809
 20
-78.6487764043469
 30
0.0
 10
17.905351740436
 20
-78.64524374056549
 30
0.0
 10
17.89378140227291
 20
-78.6398954758314
 30
0.0
 10
17.88644993082596
 20
-78.63279215749964
 30
0.0
  0
LINE
  5
18014
330
1F
100
AcDbEntity
  8
AM_0
100
AcDbLine
 10
249.9999999999999
 20
21.99999999999895
 30
0.0
 11
248.9999999999999
 21
22.99999999999895
 31
0.0
  0
LINE
  5
18015
330
1F
100
AcDbEntity
  8
AM_0
100
AcDbLine
 10
68.24481713771991
 20
22.99999999999896
 30
0.0
 11
97.24999999999989
 21
22.99999999999896
 31
0.0
  0
LINE
  5
18016
330
1F
100
AcDbEntity
  8
AM_0
100
AcDbLine
 10
9.122558287176958
 20
22.74999999999898
 30
0.0
 11
21.57505000822721
 21
22.74999999999898
 31
0.0
  0
LINE
  5
18017
330
1F
100
AcDbEntity
  8
AM_0
100
AcDbLine
 10
0.5263261049999528
 20
10.85923522666496
 30
0.0
 11
9.082526277014154
 21
16.1798679589015
 31
0.0
  0
ELLIPSE
  5
18018
330
1F
100
AcDbEntity
  8
AM_0
100
AcDbEllipse
 10
9.506655916718387
 20
15.50526822135061
 30
0.0
 11
-0.7999999670305257
 21
-0.0002296762032881629
 31
0.0
210
0.0
220
0.0
230
0.9999999999999999
 40
0.9945217314214417
 41
3.089233566750926
 42
5.27089513174383
  0
LINE
  5
18019
330
1F
100
AcDbEntity
  8
AM_0
100
AcDbLine
 10
10.30557149899687
 20
15.46385881611067
 30
0.0
 11
9.780329811358229
 21
5.441650380185052
 31
0.0
  0
LINE
  5
1801A
330
1F
100
AcDbEntity
  8
AM_0
100
AcDbLine
 10
9.780329811358229
 20
5.441650380185052
 30
0.0
 11
1.224129639344028
 21
0.1210176479484915
 31
0.0
  0
ELLIPSE
  5
1801B
330
1F
100
AcDbEntity
  8
AM_0
100
AcDbEllipse
 10
0.7999999996397946
 20
0.7956173854993835
 30
0.0
 11
-0.7999999670305257
 21
-0.0002296762032881629
 31
0.0
210
0.0
220
0.0
230
0.9999999999999999
 40
0.9945217314214417
 41
6.230826220340716
 42
8.412487785333633
  0
LINE
  5
1801C
330
1F
100
AcDbEntity
  8
AM_0
100
AcDbLine
 10
0.0010844173613123
 20
0.8370267907393156
 30
0.0
 11
0.5263261049999528
 21
10.85923522666496
 31
0.0
  0
LINE
  5
18023
330
1F
100
AcDbEntity
  8
AM_0
100
AcDbLine
 10
248.9999999999999
 20
17.35889894353963
 30
0.0
 11
248.9999999999999
 21
22.99999999999895
 31
0.0
  0
LINE
  5
18024
330
1F
100
AcDbEntity
  8
AM_0
100
AcDbLine
 10
30.24999999999989
 20
17.35889894353966
 30
0.0
 11
30.24999999999989
 21
21.47823154370948
 31
0.0
  0
ELLIPSE
  5
18027
330
1F
100
AcDbEntity
  8
AM_0
100
AcDbEllipse
 10
12.40032399706058
 20
1.81989299575983
 30
0.0
 11
-4.999999793940785
 21
-0.001435476270554809
 31
0.0
210
0.0
220
0.0
230
1.0
 40
0.9945217314214412
 41
4.792344366419673
 42
5.255863406649517
  0
LINE
  5
18028
330
1F
100
AcDbEntity
  8
AM_0
100
AcDbLine
 10
10.16956092949772
 20
12.86862254852295
 30
0.0
 11
9.808126007370333
 21
5.972033395690147
 31
0.0
  0
SPLINE
  5
18029
330
1F
100
AcDbEntity
  8
AM_0
100
AcDbSpline
210
0.0
220
0.0
230
1.0
 70
     8
 71
     3
 72
    20
 73
    16
 74
     0
 42
0.0000000001
 43
0.0000000001
 40
22.38361295445567
 40
22.38361295445567
 40
22.38361295445567
 40
22.38361295445567
 40
22.78000632284001
 40
22.78000632284001
 40
23.73321841067555
 40
23.73321841067555
 40
24.68643049851109
 40
24.68643049851109
 40
25.63964258634663
 40
25.63964258634663
 40
26.59285467418216
 40
26.59285467418216
 40
27.54323749550747
 40
27.54323749550747
 40
27.56909075184033
 40
27.56909075184033
 40
27.56909075184033
 40
27.56909075184033
 10
11.99954984894168
 20
6.776500657786755
 30
0.0
 10
12.13433704305555
 20
6.787280210761594
 30
0.0
 10
12.26824015260809
 20
6.79231008978249
 30
0.0
 10
12.71794821661263
 20
6.791054374310477
 30
0.0
 10
13.04533839999397
 20
6.758475948528286
 30
0.0
 10
13.69454840997878
 20
6.624621225456394
 30
0.0
 10
14.0163783418393
 20
6.523386546801731
 30
0.0
 10
14.63199275431066
 20
6.258071920808618
 30
0.0
 10
14.92630379600655
 20
6.093793109093923
 30
0.0
 10
15.46974930315344
 20
5.716519950314051
 30
0.0
 10
15.71888479836457
 20
5.503506895197575
 30
0.0
 10
16.1590690626208
 20
5.052362771549383
 30
0.0
 10
16.36574539430876
 20
4.798450038607285
 30
0.0
 10
16.55331127435227
 20
4.515057986159036
 30
0.0
 10
16.55826096106978
 20
4.507536950880933
 30
0.0
 10
16.56319292833757
 20
4.499999999998977
 30
0.0
  0
SPLINE
  5
1802A
330
1F
100
AcDbEntity
  8
AM_0
100
AcDbSpline
210
0.0
220
0.0
230
1.0
 70
     8
 71
     3
 72
    10
 73
     6
 74
     0
 42
0.0000000001
 43
0.0000000001
 40
5.220956609736569
 40
5.220956609736569
 40
5.220956609736569
 40
5.220956609736569
 40
5.297247726512397
 40
5.297247726512397
 40
5.373538845416049
 40
5.373538845416049
 40
5.373538845416049
 40
5.373538845416049
 10
11.99954984894168
 20
15.48834454294484
 30
0.0
 10
12.00068285150121
 20
15.4627072032518
 30
0.0
 10
12.00123765977332
 20
15.43721587324768
 30
0.0
 10
12.00123765977332
 20
15.38663375682086
 30
0.0
 10
12.00068285147211
 20
15.36114244497614
 30
0.0
 10
11.99954984894168
 20
15.33550510238618
 30
0.0
  0
ELLIPSE
  5
1802B
330
1F
100
AcDbEntity
  8
AM_0
100
AcDbEllipse
 10
10.25123766055776
 20
15.41191933832437
 30
0.0
 11
-1.74999992787927
 21
-0.000502416694694182
 31
0.0
210
0.0
220
0.0
230
1.0
 40
0.9945217314214412
 41
2.356195280913306
 42
3.097384052849733
  0
ELLIPSE
  5
1802C
330
1F
100
AcDbEntity
  8
AM_0
100
AcDbEllipse
 10
10.2511185205658
 20
15.8269035129521
 30
0.0
 11
1.74999992787927
 21
0.0005024166946928552
 31
0.0
210
0.0
220
0.0
230
0.9999999999999999
 40
0.9945217314214412
 41
5.497787934503101
 42
6.163681033453392
  0
LINE
  5
1802D
330
1F
100
AcDbEntity
  8
AM_0
100
AcDbLine
 10
10.19251248110709
 20
13.3065642419767
 30
0.0
 11
11.4889096308624
 21
14.59660194374021
 31
0.0
  0
LINE
  5
1802E
330
1F
100
AcDbEntity
  8
AM_0
100
AcDbLine
 10
11.48902877085436
 20
14.18161776911248
 30
0.0
 11
10.16956092949772
 21
12.86862254852295
 31
0.0
  0
ELLIPSE
  5
1802F
330
1F
100
AcDbEntity
  8
AM_0
100
AcDbEllipse
 10
10.25123766055776
 20
15.41191933832437
 30
0.0
 11
-1.74999992787927
 21
-0.000502416694694182
 31
0.0
210
0.0
220
0.0
230
1.0
 40
0.9945217314214412
 41
3.185230209383421
 42
5.497787934503116
  0
LINE
  5
18030
330
1F
100
AcDbEntity
  8
AM_0
100
AcDbLine
 10
7.659633063593333
 20
15.29504852345087
 30
0.0
 11
9.013446550261051
 21
16.64222090753626
 31
0.0
  0
LINE
  5
18031
330
1F
100
AcDbEntity
  8
AM_0
100
AcDbLine
 10
0.5263261049999528
 20
10.85923522666496
 30
0.0
 11
7.659633063593333
 21
15.29504852345087
 31
0.0
  0
LINE
  5
18033
330
1F
100
AcDbEntity
  8
AM_0
100
AcDbLine
 10
249.9999999999999
 20
5.499999999998977
 30
0.0
 11
249.9999999999999
 21
12.99999999999892
 31
0.0
  0
LINE
  5
18034
330
1F
100
AcDbEntity
  8
AM_0
100
AcDbLine
 10
249.9999999999999
 20
12.99999999999892
 30
0.0
 11
249.9999999999999
 21
21.99999999999895
 31
0.0
  0
LINE
  5
18036
330
1F
100
AcDbEntity
  8
AM_0
100
AcDbLine
 10
8.624610444191717
 20
22.46250967880911
 30
0.0
 11
0.90072125052518
 21
18.00312017365491
 31
0.0
  0
LINE
  5
18038
330
1F
100
AcDbEntity
  8
AM_0
100
AcDbLine
 10
16.56319292833757
 20
4.499999999998977
 30
0.0
 11
19.08597167298581
 21
4.499999999998977
 31
0.0
  0
LINE
  5
1803A
330
1F
100
AcDbEntity
  8
AM_0
100
AcDbLine
 10
64.92109467047101
 20
21.47823154370947
 30
0.0
 11
30.24999999999989
 21
21.47823154370948
 31
0.0
  0
SPLINE
  5
1803B
330
1F
100
AcDbEntity
  8
AM_0
100
AcDbSpline
210
0.0
220
0.0
230
1.0
 70
    12
 71
     2
 72
     6
 73
     3
 74
     0
 42
0.0000000001
 43
0.0000000001
 40
0.0
 40
0.0
 40
0.0
 40
0.3681495330393909
 40
0.3681495330393909
 40
0.3681495330393909
 10
30.25
 20
21.47823154370948
 30
0.0
 41
1.0
 10
30.12315103695431
 20
21.34347588150776
 30
0.0
 41
1.000093631540707
 10
30.0
 20
21.21208911085785
 30
0.0
 41
1.0
  0
SPLINE
  5
1803C
330
1F
100
AcDbEntity
  8
AM_0
100
AcDbSpline
210
0.0
220
0.0
230
1.0
 70
     8
 71
     3
 72
    38
 73
    34
 74
     0
 42
0.0000000001
 43
0.0000000001
 40
-11.42263456855353
 40
-11.42263456855353
 40
-11.42263456855353
 40
-11.42263456855353
 40
-10.70844645666124
 40
-10.70844645666124
 40
-9.994258344768937
 40
-9.994258344768937
 40
-9.280070232876639
 40
-9.280070232876639
 40
-8.565882120984343
 40
-8.565882120984343
 40
-7.852240911807435
 40
-7.852240911807435
 40
-7.138599702630529
 40
-7.138599702630529
 40
-6.424958493453623
 40
-6.424958493453623
 40
-5.711317284276717
 40
-5.711317284276717
 40
-4.997676075099808
 40
-4.997676075099808
 40
-4.284034865922898
 40
-4.284034865922898
 40
-3.570393656745992
 40
-3.570393656745992
 40
-2.856752447569082
 40
-2.856752447569082
 40
-2.142564335676809
 40
-2.142564335676809
 40
-1.428376223784539
 40
-1.428376223784539
 40
-0.7141881118922697
 40
-0.7141881118922697
 40
0.0
 40
0.0
 40
0.0
 40
0.0
 10
64.92109467047101
 20
22.78059287621149
 30
0.0
 10
65.15915737443504
 20
22.78059287621149
 30
0.0
 10
65.40450116573504
 20
22.78587793646862
 30
0.0
 10
65.89093485012779
 20
22.80662836811187
 30
0.0
 10
66.1320340253875
 20
22.82205652802138
 30
0.0
 10
66.59317724900473
 20
22.85849192730525
 30
0.0
 10
66.81363289457306
 20
22.87944963523334
 30
0.0
 10
67.22079549922103
 20
22.92022150206914
 30
0.0
 10
67.40750465100939
 20
22.93994192382867
 30
0.0
 10
67.73785901291114
 20
22.97204687019605
 30
0.0
 10
67.89318302177139
 20
22.98564768466393
 30
0.0
 10
68.16770930493283
 20
23.0009123395286
 30
0.0
 10
68.28693248187722
 20
23.00250016671588
 30
0.0
 10
68.47902383977623
 20
22.98857171706264
 30
0.0
 10
68.55204463335883
 20
22.9729892812869
 30
0.0
 10
68.64809399998546
 20
22.92340745490195
 30
0.0
 10
68.67109467047101
 20
22.88938502861491
 30
0.0
 10
68.67109467047101
 20
22.80677003162715
 30
0.0
 10
68.64809399998546
 20
22.75560759001685
 30
0.0
 10
68.55204463335883
 20
22.63624245511689
 30
0.0
 10
68.47902383977623
 20
22.56806032451821
 30
0.0
 10
68.28693248187722
 20
22.42177051433403
 30
0.0
 10
68.16770930493283
 20
22.34358698527008
 30
0.0
 10
67.89318302177128
 20
22.18690503206206
 30
0.0
 10
67.73785901291114
 20
22.10848180062529
 30
0.0
 10
67.40750465100928
 20
21.96164598840075
 30
0.0
 10
67.22079549922103
 20
21.88797662262162
 30
0.0
 10
66.81363289457306
 20
21.75188163620327
 30
0.0
 10
66.59317724900473
 20
21.68954059827276
 30
0.0
 10
66.1320340253875
 20
21.58641796546668
 30
0.0
 10
65.89093485012779
 20
21.54563303184115
 30
0.0
 10
65.40450116573493
 20
21.49151601208872
 30
0.0
 10
65.15915737443504
 20
21.47823154370947
 30
0.0
 10
64.92109467047101
 20
21.47823154370947
 30
0.0
  0
SPLINE
  5
1803D
330
1F
100
AcDbEntity
  8
AM_0
100
AcDbSpline
210
0.0
220
0.0
230
1.0
 70
    12
 71
     2
 72
     6
 73
     3
 74
     0
 42
0.0000000001
 43
0.0000000001
 40
0.0
 40
0.0
 40
0.0
 40
0.3681495330393946
 40
0.3681495330393946
 40
0.3681495330393946
 10
29.99999999999989
 20
22.51445044335983
 30
0.0
 41
1.0
 10
30.12315103695687
 20
22.64583721401201
 30
0.0
 41
1.000093631576999
 10
30.25
 20
22.78059287621147
 30
0.0
 41
1.0
  0
LINE
  5
1803E
330
1F
100
AcDbEntity
  8
AM_0
100
AcDbLine
 10
30.24999999999989
 20
22.7805928762115
 30
0.0
 11
64.92109467047101
 21
22.78059287621149
 31
0.0
  0
LINE
  5
1803F
330
1F
100
AcDbEntity
  8
AM_0
100
AcDbLine
 10
248.9999999999999
 20
4.499999999998948
 30
0.0
 11
248.9999999999999
 21
8.641101056458268
 31
0.0
  0
LINE
  5
18040
330
1F
100
AcDbEntity
  8
AM_0
100
AcDbLine
 10
36.05700115593834
 20
4.499999999998977
 30
0.0
 11
97.24999999999989
 21
4.499999999998963
 31
0.0
  0
ELLIPSE
  5
18041
330
1F
100
AcDbEntity
  8
AM_0
100
AcDbEllipse
 10
11.99977492442588
 20
-57.76824086575948
 30
0.0
 11
-7.777944543259028E-15
 21
143.4994479485842
 31
0.0
210
0.0
220
0.0
230
1.0
 40
0.1045300188449914
 41
5.207780600255974
 42
5.258412285274069
  0
SPLINE
  5
18042
330
1F
100
AcDbEntity
  8
AM_0
100
AcDbSpline
210
0.0
220
0.0
230
1.0
 70
    12
 71
     2
 72
     6
 73
     3
 74
     0
 42
0.0000000001
 43
0.0000000001
 40
0.0
 40
0.0
 40
0.0
 40
0.6582629195149845
 40
0.6582629195149845
 40
0.6582629195149845
 10
30.24999999999989
 20
17.35889894353966
 30
0.0
 41
1.0
 10
30.11561372345705
 20
17.05059568098747
 30
0.0
 41
1.000475593576181
 10
29.99999999999989
 20
16.74999999999898
 30
0.0
 41
1.0
  0
LINE
  5
18043
330
1F
100
AcDbEntity
  8
AM_0
100
AcDbLine
 10
97.24999999999989
 20
17.35889894353964
 30
0.0
 11
30.24999999999989
 21
17.35889894353966
 31
0.0
  0
SPLINE
  5
18044
330
1F
100
AcDbEntity
  8
AM_0
100
AcDbSpline
210
0.0
220
0.0
230
1.0
 70
    12
 71
     2
 72
     6
 73
     3
 74
     0
 42
0.0000000001
 43
0.0000000001
 40
4.496611670767367
 40
4.496611670767367
 40
4.496611670767367
 40
8.993223341534733
 40
8.993223341534733
 40
8.993223341534733
 10
249.9999999999999
 20
12.99999999999895
 30
0.0
 41
1.0
 10
250.0000000000003
 20
15.064741604834
 30
0.0
 41
1.027402333828208
 10
248.9999999999999
 20
17.35889894353963
 30
0.0
 41
1.0
  0
SPLINE
  5
18045
330
1F
100
AcDbEntity
  8
AM_0
100
AcDbSpline
210
0.0
220
0.0
230
1.0
 70
    12
 71
     2
 72
     6
 73
     3
 74
     0
 42
0.0000000001
 43
0.0000000001
 40
0.0
 40
0.0
 40
0.0
 40
4.496611670767367
 40
4.496611670767367
 40
4.496611670767367
 10
248.9999999999999
 20
8.641101056458268
 30
0.0
 41
1.0
 10
250.0000000000003
 20
10.93525839516389
 30
0.0
 41
1.027402333828208
 10
249.9999999999999
 20
12.99999999999895
 30
0.0
 41
1.0
  0
LINE
  5
18046
330
1F
100
AcDbEntity
  8
AM_0
100
AcDbLine
 10
34.96277783191135
 20
8.641101056458297
 30
0.0
 11
97.24999999999989
 21
8.641101056458282
 31
0.0
  0
LINE
  5
18047
330
1F
100
AcDbEntity
  8
AM_0
100
AcDbLine
 10
29.92109467438809
 20
4.499999999998977
 30
0.0
 11
19.08597167298592
 21
4.499999999998977
 31
0.0
  0
SPLINE
  5
18048
330
1F
100
AcDbEntity
  8
AM_0
100
AcDbSpline
210
0.0
220
0.0
230
1.0
 70
     8
 71
     3
 72
    20
 73
    16
 74
     0
 42
0.0000000001
 43
0.0000000001
 40
16.18913415098994
 40
16.18913415098994
 40
16.18913415098994
 40
16.18913415098994
 40
16.86900267747188
 40
16.86900267747188
 40
18.77167425982235
 40
18.77167425982235
 40
20.67434584217281
 40
20.67434584217281
 40
22.57701742452328
 40
22.57701742452328
 40
24.41592861595317
 40
24.41592861595317
 40
26.25483980738306
 40
26.25483980738306
 40
27.27857386867534
 40
27.27857386867534
 40
27.27857386867534
 40
27.27857386867534
 10
19.08597167298581
 20
4.499999999998977
 30
0.0
 10
19.14304629104038
 20
4.702882042986687
 30
0.0
 10
19.21340106579044
 20
4.900224258123387
 30
0.0
 10
19.52148886471605
 20
5.631165131458999
 30
0.0
 10
19.83121059972018
 20
6.131553069035391
 30
0.0
 10
20.52981694109531
 20
7.065598646303187
 30
0.0
 10
20.9182659394105
 20
7.497456440327625
 30
0.0
 10
21.70709804582145
 20
8.279842781230002
 30
0.0
 10
22.10765437626787
 20
8.629965013710802
 30
0.0
 10
22.85746016423889
 20
9.224359778126598
 30
0.0
 10
23.23657606335246
 20
9.494048968964961
 30
0.0
 10
23.97510077741379
 20
9.952413049876782
 30
0.0
 10
24.33442152022553
 20
10.14107023187711
 30
0.0
 10
24.85233570884532
 20
10.35020949574115
 30
0.0
 10
25.02954699307827
 20
10.40831438714776
 30
0.0
 10
25.19651408086236
 20
10.44798542989915
 30
0.0
  0
LINE
  5
18049
330
1F
100
AcDbEntity
  8
AM_0
100
AcDbLine
 10
25.19651408086236
 20
10.44798542989912
 30
0.0
 11
29.92109467438809
 21
10.44798542989912
 31
0.0
  0
SPLINE
  5
1804A
330
1F
100
AcDbEntity
  8
AM_0
100
AcDbSpline
210
0.0
220
0.0
230
1.0
 70
     8
 71
     3
 72
    24
 73
    20
 74
     0
 42
0.0000000001
 43
0.0000000001
 40
6.040204704103884
 40
6.040204704103884
 40
6.040204704103884
 40
6.040204704103884
 40
7.264222897072244
 40
7.264222897072244
 40
7.927655252210133
 40
7.927655252210133
 40
8.591087607348023
 40
8.591087607348023
 40
9.254519962485912
 40
9.254519962485912
 40
9.917952317623803
 40
9.917952317623803
 40
10.58138467276169
 40
10.58138467276169
 40
11.24481702789958
 40
11.24481702789958
 40
11.90824938303747
 40
11.90824938303747
 40
11.9432896981353
 40
11.9432896981353
 40
11.9432896981353
 40
11.9432896981353
 10
34.96277783191135
 20
8.641101056458297
 30
0.0
 10
35.25546501542328
 20
8.379743698887722
 30
0.0
 10
35.51632548493274
 20
8.099140333180344
 30
0.0
 10
35.85851388208425
 20
7.647968067544952
 30
0.0
 10
35.97236626991469
 20
7.478909357950244
 30
0.0
 10
36.17376224847465
 20
7.130964595832467
 30
0.0
 10
36.26129221211716
 20
6.9520989359211
 30
0.0
 10
36.40185749953207
 20
6.596458076411494
 30
0.0
 10
36.45496454789031
 20
6.419491160132026
 30
0.0
 10
36.52441395829976
 20
6.07862899627861
 30
0.0
 10
36.54075194540167
 20
5.914738577949464
 30
0.0
 10
36.54075194540167
 20
5.609548685047912
 30
0.0
 10
36.52441395829976
 20
5.456508017280527
 30
0.0
 10
36.45496454789031
 20
5.161212360463253
 30
0.0
 10
36.40185749953207
 20
5.018950896692331
 30
0.0
 10
36.26129221211716
 20
4.753316578588311
 30
0.0
 10
36.17376224847465
 20
4.629760404429391
 30
0.0
 10
36.06774572257712
 20
4.511746080797622
 30
0.0
 10
36.06239108429054
 20
4.505857182319119
 30
0.0
 10
36.05700115593834
 20
4.499999999998977
 30
0.0
  0
LINE
  5
1804B
330
1F
100
AcDbEntity
  8
AM_0
100
AcDbLine
 10
36.05700115593834
 20
4.499999999998977
 30
0.0
 11
29.92109467438797
 21
4.499999999998977
 31
0.0
  0
ARC
  5
1804C
330
1F
100
AcDbEntity
  8
AM_0
100
AcDbCircle
 10
29.92109467438809
 20
2.510731496705347
 30
0.0
 40
7.937253933193771
100
AcDbArc
 50
50.56574615861234
 51
90.0
  0
SPLINE
  5
1804D
330
1F
100
AcDbEntity
  8
AM_0
100
AcDbSpline
210
0.0
220
0.0
230
1.0
 70
     8
 71
     3
 72
    14
 73
    10
 74
     0
 42
0.0000000001
 43
0.0000000001
 40
-20.92575754316229
 40
-20.92575754316229
 40
-20.92575754316229
 40
-20.92575754316229
 40
-20.92553246863419
 40
-20.92553246863419
 40
-18.77484889900038
 40
-18.77484889900038
 40
-16.62416532936656
 40
-16.62416532936656
 40
-15.18603473958983
 40
-15.18603473958983
 40
-15.18603473958983
 40
-15.18603473958983
 10
11.99954984894168
 20
22.46253432915734
 30
0.0
 10
11.99962487442178
 20
22.46253432943132
 30
0.0
 10
11.99969989958322
 20
22.46253432956831
 30
0.0
 10
12.71666944763717
 20
22.46253432956831
 30
0.0
 10
13.46266485021044
 20
22.45032836393503
 30
0.0
 10
14.96201784916411
 20
22.39204178639969
 30
0.0
 10
15.71537446184584
 20
22.34592923601321
 30
0.0
 10
16.93861673213894
 20
22.22609087610556
 30
0.0
 10
17.42014820594852
 20
22.16642421735091
 30
0.0
 10
17.88644993082596
 20
22.09197720442461
 30
0.0
  0
LINE
  5
1804E
330
1F
100
AcDbEntity
  8
AM_0
100
AcDbLine
 10
8.624610444191717
 20
22.46250967880911
 30
0.0
 11
11.99954984894168
 21
22.46253432923413
 31
0.0
  0
LINE
  5
1804F
330
1F
100
AcDbEntity
  8
AM_0
100
AcDbLine
 10
8.624610444970472
 20
22.46250967925872
 30
0.0
 11
9.122558287176958
 21
22.74999999999898
 31
0.0
  0
LINE
  5
18050
330
1F
100
AcDbEntity
  8
AM_0
100
AcDbLine
 10
24.92109467047101
 20
22.51445044335983
 30
0.0
 11
29.99999999999989
 21
22.51445044335983
 31
0.0
  0
SPLINE
  5
18051
330
1F
100
AcDbEntity
  8
AM_0
100
AcDbSpline
210
0.0
220
0.0
230
1.0
 70
     8
 71
     3
 72
    38
 73
    34
 74
     0
 42
0.0000000001
 43
0.0000000001
 40
0.0
 40
0.0
 40
0.0
 40
0.0
 40
0.7146481072901179
 40
0.7146481072901179
 40
1.429296214580236
 40
1.429296214580236
 40
2.143944321870354
 40
2.143944321870354
 40
2.858592429160471
 40
2.858592429160471
 40
3.57263033156009
 40
3.57263033156009
 40
4.286668233959709
 40
4.286668233959709
 40
5.000706136359328
 40
5.000706136359328
 40
5.714744038758948
 40
5.714744038758948
 40
6.428781941158565
 40
6.428781941158565
 40
7.142819843558184
 40
7.142819843558184
 40
7.856857745957802
 40
7.856857745957802
 40
8.57089564835742
 40
8.57089564835742
 40
9.285543755647524
 40
9.285543755647524
 40
10.00019186293763
 40
10.00019186293763
 40
10.71483997022773
 40
10.71483997022773
 40
11.42948807751784
 40
11.42948807751784
 40
11.42948807751784
 40
11.42948807751784
 10
24.92109467047101
 20
21.21208911085785
 30
0.0
 10
24.68287863470766
 20
21.21208911085785
 30
0.0
 10
24.43742996491471
 20
21.22567055749897
 30
0.0
 10
23.95088347244007
 20
21.28094135081898
 30
0.0
 10
23.70977594096917
 20
21.32258048411563
 30
0.0
 10
23.24868584209685
 20
21.42776133418226
 30
0.0
 10
23.02828932989985
 20
21.49130490383652
 30
0.0
 10
22.62125902815308
 20
21.62989046533019
 30
0.0
 10
22.43462241761336
 20
21.70484572977648
 30
0.0
 10
22.10440710241744
 20
21.85409357648072
 30
0.0
 10
21.94913280723483
 20
21.93373897772634
 30
0.0
 10
21.67465145482095
 20
22.09269018400011
 30
0.0
 10
21.55542339970384
 20
22.17191956609793
 30
0.0
 10
21.36329051520079
 20
22.31995043359521
 30
0.0
 10
21.29023301501059
 20
22.38882892117604
 30
0.0
 10
21.19412095752352
 20
22.50913680588323
 30
0.0
 10
21.17109467047101
 20
22.56054513168908
 30
0.0
 10
21.17109467047101
 20
22.64320605204694
 30
0.0
 10
21.19412095752364
 20
22.67701656832483
 30
0.0
 10
21.29023301501059
 20
22.72569619617192
 30
0.0
 10
21.36329051520079
 20
22.74058890684572
 30
0.0
 10
21.55542339970396
 20
22.75276528111732
 30
0.0
 10
21.67465145482095
 20
22.75011467181727
 30
0.0
 10
21.94913280723483
 20
22.73253594640016
 30
0.0
 10
22.10440710241755
 20
22.71768530951613
 30
0.0
 10
22.43462241761347
 20
22.68312003825483
 30
0.0
 10
22.62125902815308
 20
22.66209713522156
 30
0.0
 10
23.02828932989985
 20
22.6188170077676
 30
0.0
 10
23.24868584209685
 20
22.59665590284092
 30
0.0
 10
23.70977594096917
 20
22.55817374991514
 30
0.0
 10
23.95088347244007
 20
22.54190372521586
 30
0.0
 10
24.43742996491471
 20
22.5200222725307
 30
0.0
 10
24.68287863470766
 20
22.51445044335983
 30
0.0
 10
24.92109467047101
 20
22.51445044335983
 30
0.0
  0
LINE
  5
18052
330
1F
100
AcDbEntity
  8
AM_0
100
AcDbLine
 10
29.99999999999989
 20
21.21208911085785
 30
0.0
 11
24.92109467047101
 21
21.21208911085785
 31
0.0
  0
LINE
  5
18053
330
1F
100
AcDbEntity
  8
AM_0
100
AcDbLine
 10
29.99999999999989
 20
16.74999999999898
 30
0.0
 11
29.99999999999989
 21
21.21208911085785
 31
0.0
  0
LINE
  5
18054
330
1F
100
AcDbEntity
  8
AM_0
100
AcDbLine
 10
29.99999999999989
 20
16.74999999999898
 30
0.0
 11
24.81872007371112
 21
16.74999999999898
 31
0.0
  0
SPLINE
  5
18055
330
1F
100
AcDbEntity
  8
AM_0
100
AcDbSpline
210
0.0
220
0.0
230
1.0
 70
     8
 71
     3
 72
     8
 73
     4
 74
     0
 42
0.0000000001
 43
0.0000000001
 40
-6.109120816358542
 40
-6.109120816358542
 40
-6.109120816358542
 40
-6.109120816358542
 40
-4.78438566513478
 40
-4.78438566513478
 40
-4.78438566513478
 40
-4.78438566513478
 10
24.36906192816684
 20
17.91186881420305
 30
0.0
 10
24.54061229006913
 20
17.54654691711841
 30
0.0
 10
24.69033079654651
 20
17.15717581154556
 30
0.0
 10
24.81872007371112
 20
16.74999999999898
 30
0.0
  0
SPLINE
  5
18056
330
1F
100
AcDbEntity
  8
AM_0
100
AcDbSpline
210
0.0
220
0.0
230
1.0
 70
     8
 71
     3
 72
    26
 73
    22
 74
     0
 42
0.0000000001
 43
0.0000000001
 40
0.9407895397566745
 40
0.9407895397566745
 40
0.9407895397566745
 40
0.9407895397566745
 40
2.587128468790986
 40
2.587128468790986
 40
4.233467397825298
 40
4.233467397825298
 40
5.87980632685961
 40
5.87980632685961
 40
7.526145255893922
 40
7.526145255893922
 40
8.180459818582511
 40
8.180459818582511
 40
8.834774381271101
 40
8.834774381271101
 40
9.489088943959692
 40
9.489088943959692
 40
10.14340350664828
 40
10.14340350664828
 40
10.79771806933687
 40
10.79771806933687
 40
11.17276966246531
 40
11.17276966246531
 40
11.17276966246531
 40
11.17276966246531
 10
17.92109467438809
 20
22.09197720532214
 30
0.0
 10
18.46987431739944
 20
22.09197720532214
 30
0.0
 10
19.03437921442321
 20
22.0708959728637
 30
0.0
 10
20.14307127031145
 20
21.97652796128989
 30
0.0
 10
20.68728088372905
 20
21.90317726437326
 30
0.0
 10
21.70786351012498
 20
21.68786522355845
 30
0.0
 10
22.18496976083122
 20
21.54558982256899
 30
0.0
 10
23.03227919177982
 20
21.17238412666941
 30
0.0
 10
23.40272602592927
 20
20.94145231833127
 30
0.0
 10
23.82099901268441
 20
20.54350087695286
 30
0.0
 10
23.93365136158309
 20
20.4168002739427
 30
0.0
 10
24.13298726636231
 20
20.1392503259581
 30
0.0
 10
24.21965688172168
 20
19.98836288101174
 30
0.0
 10
24.35887503154606
 20
19.66863387260065
 30
0.0
 10
24.41149498011248
 20
19.49957816823311
 30
0.0
 10
24.48031919122718
 20
19.15294307087589
 30
0.0
 10
24.49651884373577
 20
18.97535790583007
 30
0.0
 10
24.49651884373577
 20
18.62472493012257
 30
0.0
 10
24.48031919122718
 20
18.43824323700201
 30
0.0
 10
24.42618214640038
 20
18.13620541852157
 30
0.0
 10
24.40053276136109
 20
18.0243539809031
 30
0.0
 10
24.36906192816684
 20
17.91186881420305
 30
0.0
  0
SPLINE
  5
18057
330
1F
100
AcDbEntity
  8
AM_0
100
AcDbSpline
210
0.0
220
0.0
230
1.0
 70
     8
 71
     3
 72
    34
 73
    30
 74
     0
 42
0.0000000001
 43
0.0000000001
 40
6.868367555994572
 40
6.868367555994572
 40
6.868367555994572
 40
6.868367555994572
 40
7.065791795727092
 40
7.065791795727092
 40
7.833390793117137
 40
7.833390793117137
 40
8.600989790507182
 40
8.600989790507182
 40
9.368588787897226
 40
9.368588787897226
 40
10.13618778528727
 40
10.13618778528727
 40
10.90378678267732
 40
10.90378678267732
 40
11.67138578006736
 40
11.67138578006736
 40
12.43898477745741
 40
12.43898477745741
 40
13.26259676837245
 40
13.26259676837245
 40
14.08620875928749
 40
14.08620875928749
 40
14.83022009855871
 40
14.83022009855871
 40
15.57423143782994
 40
15.57423143782994
 40
16.31824277710117
 40
16.31824277710117
 40
16.51803023290671
 40
16.51803023290671
 40
16.51803023290671
 40
16.51803023290671
 10
24.36906192816684
 20
17.91186881420305
 30
0.0
 10
24.33231302877766
 20
17.89372188452919
 30
0.0
 10
24.29477385813084
 20
17.876429194937
 30
0.0
 10
24.10762979312256
 20
17.79629180972546
 30
0.0
 10
23.94735518840741
 20
17.74629327454093
 30
0.0
 10
23.61098909923942
 20
17.67613342231638
 30
0.0
 10
23.43479009006194
 20
17.65593707862516
 30
0.0
 10
23.07628429840906
 20
17.64362628204964
 30
0.0
 10
22.89398005706823
 20
17.65150963989336
 30
0.0
 10
22.53587192928831
 20
17.68972088662559
 30
0.0
 10
22.34403205666888
 20
17.72175986492258
 30
0.0
 10
21.94450998696232
 20
17.81495458284309
 30
0.0
 10
21.73682582513811
 20
17.87611245023507
 30
0.0
 10
21.31719151993389
 20
18.0269398867955
 30
0.0
 10
21.10512849129384
 20
18.11666800104328
 30
0.0
 10
20.68935060343949
 20
18.32028583996188
 30
0.0
 10
20.48566031219798
 20
18.43420381971416
 30
0.0
 10
20.08565411044299
 20
18.68629279257817
 30
0.0
 10
19.86155438594199
 20
18.84481974173713
 30
0.0
 10
19.42994620760146
 20
19.19980846062757
 30
0.0
 10
19.22270777573351
 20
19.39655827831666
 30
0.0
 10
18.88372740384421
 20
19.76789938683541
 30
0.0
 10
18.726000654426
 20
19.96418011371083
 30
0.0
 10
18.4391035231813
 20
20.38896050910705
 30
0.0
 10
18.31000982339265
 20
20.6175016361741
 30
0.0
 10
18.09792756385366
 20
21.0946232493597
 30
0.0
 10
18.01481847920979
 20
21.34372163991142
 30
0.0
 10
17.94477470426511
 20
21.66265372622786
 30
0.0
 10
17.9319289975615
 20
21.73032984820804
 30
0.0
 10
17.92109467438809
 20
21.79799282232341
 30
0.0
  0
LINE
  5
18058
330
1F
100
AcDbEntity
  8
AM_0
100
AcDbLine
 10
17.88644993082596
 20
22.09197720532214
 30
0.0
 11
17.92109467438809
 21
22.09197720532214
 31
0.0
  0
SPLINE
  5
18059
330
1F
100
AcDbEntity
  8
AM_0
100
AcDbSpline
210
0.0
220
0.0
230
1.0
 70
     8
 71
     3
 72
     8
 73
     4
 74
     0
 42
0.0000000001
 43
0.0000000001
 40
2.375939754259144
 40
2.375939754259144
 40
2.375939754259144
 40
2.375939754259144
 40
2.665539975631796
 40
2.665539975631796
 40
2.665539975631796
 40
2.665539975631796
 10
17.92109467438809
 20
21.79799282232341
 30
0.0
 10
17.905351740436
 20
21.8963112604425
 30
0.0
 10
17.89378140227291
 20
21.99446877048672
 30
0.0
 10
17.88644993082596
 20
22.09197720442461
 30
0.0
  0
CIRCLE
  5
18070
330
1F
100
AcDbEntity
  8
AM_0
100
AcDbCircle
 10
5.153327958179148
 20
8.150442803425023
 30
0.0
 40
1.706099999999583
  0
CIRCLE
  5
18071
330
1F
100
AcDbEntity
  8
AM_0
100
AcDbCircle
 10
5.153327958179148
 20
8.150442803425023
 30
0.0
 40
2.35
  0
CIRCLE
  5
18072
330
1F
100
AcDbEntity
  8
AM_0
100
AcDbCircle
 10
5.153327958179148
 20
8.150442803425023
 30
0.0
 40
2.8
  0
ARC
  5
18073
330
1F
100
AcDbEntity
  8
AM_0
100
AcDbCircle
 10
6.137033107021352
 20
6.446615505963479
 30
0.0
 40
0.726
100
AcDbArc
 50
76.97221509006506
 51
163.0277849099374
  0
ARC
  5
18074
330
1F
100
AcDbEntity
  8
AM_0
100
AcDbCircle
 10
6.137033107021352
 20
9.854270100886566
 30
0.0
 40
0.726
100
AcDbArc
 50
196.9722150900651
 51
283.0277849099353
  0
ARC
  5
18075
330
1F
100
AcDbEntity
  8
AM_0
100
AcDbCircle
 10
4.16962280933717
 20
6.446615505963365
 30
0.0
 40
0.726
100
AcDbArc
 50
16.97221509006504
 51
103.0277849099353
  0
ARC
  5
18076
330
1F
100
AcDbEntity
  8
AM_0
100
AcDbCircle
 10
5.153327958179148
 20
6.746842803425324
 30
0.0
 40
0.3024999999998347
100
AcDbArc
 50
196.9722150900682
 51
343.0277849099334
  0
ARC
  5
18077
330
1F
100
AcDbEntity
  8
AM_0
100
AcDbCircle
 10
3.937774701427543
 20
8.852242803424957
 30
0.0
 40
0.3024999999998347
100
AcDbArc
 50
76.97221509006819
 51
223.0277849099411
  0
ARC
  5
18078
330
1F
100
AcDbEntity
  8
AM_0
100
AcDbCircle
 10
4.169622809337056
 20
9.85427010088668
 30
0.0
 40
0.726
100
AcDbArc
 50
256.9722150900651
 51
343.0277849099375
  0
ARC
  5
18079
330
1F
100
AcDbEntity
  8
AM_0
100
AcDbCircle
 10
5.153327958179148
 20
9.554042803424778
 30
0.0
 40
0.3024999999998347
100
AcDbArc
 50
16.97221509006815
 51
163.0277849099319
  0
ARC
  5
1807A
330
1F
100
AcDbEntity
  8
AM_0
100
AcDbCircle
 10
3.937774701427543
 20
7.448642803425202
 30
0.0
 40
0.3024999999998347
100
AcDbArc
 50
136.9722150900634
 51
283.0277849099385
  0
ARC
  5
1807B
330
1F
100
AcDbEntity
  8
AM_0
100
AcDbCircle
 10
3.185917660494965
 20
8.150442803425023
 30
0.0
 40
0.726
100
AcDbArc
 50
316.9722150900635
 51
43.02778490993659
  0
ARC
  5
1807C
330
1F
100
AcDbEntity
  8
AM_0
100
AcDbCircle
 10
6.368881214930752
 20
8.852242803424957
 30
0.0
 40
0.3024999999998347
100
AcDbArc
 50
316.9722150900681
 51
103.0277849099416
  0
ARC
  5
1807D
330
1F
100
AcDbEntity
  8
AM_0
100
AcDbCircle
 10
6.368881214930752
 20
7.448642803425202
 30
0.0
 40
0.3024999999998347
100
AcDbArc
 50
256.9722150900615
 51
43.02778490993659
  0
ARC
  5
1807E
330
1F
100
AcDbEntity
  8
AM_0
100
AcDbCircle
 10
7.12073825586333
 20
8.150442803425023
 30
0.0
 40
0.726
100
AcDbArc
 50
136.9722150900634
 51
223.0277849099365
  0
LINE
  5
18089
330
1F
100
AcDbEntity
  8
AM_7
  6
AM_ISO08W050x2
100
AcDbLine
 10
5.153327958179148
 20
13.50044280342502
 30
0.0
 11
5.153327958179148
 21
2.800442803425028
 31
0.0
1001
GENIUS_GENODEF_13
1002
{
1000
HIER
1070
     0
1002
}
1002
{
1000
MANEDIT
1070
     0
1002
}
1002
{
1000
NOSEL
1070
     0
1002
}
1002
{
1000
BEHIND
1070
     0
1002
}
1002
{
1000
REACTOR
1002
}
1001
GENIUS_GENOBJ-N-CEN_13
1002
{
1000
OWNER
1000
GEN
1002
}
  0
LINE
  5
18091
330
1F
100
AcDbEntity
  8
AM_7
  6
AM_ISO08W050x2
100
AcDbLine
 10
10.50332795817917
 20
8.150442803425023
 30
0.0
 11
-0.1966720418208752
 21
8.150442803425023
 31
0.0
1001
GENIUS_GENODEF_13
1002
{
1000
HIER
1070
     0
1002
}
1002
{
1000
MANEDIT
1070
     0
1002
}
1002
{
1000
NOSEL
1070
     0
1002
}
1002
{
1000
BEHIND
1070
     0
1002
}
1002
{
1000
REACTOR
1002
}
1001
GENIUS_GENOBJ-N-CEN_13
1002
{
1000
OWNER
1000
GEN
1002
}
  0
LINE
  5
18158
330
1F
100
AcDbEntity
  8
AM_0
100
AcDbLine
 10
125.2499999999999
 20
22.99999999999896
 30
0.0
 11
248.9999999999998
 21
22.99999999999895
 31
0.0
  0
LINE
  5
18159
330
1F
100
AcDbEntity
  8
AM_0
100
AcDbLine
 10
125.2499999999999
 20
17.35889894353964
 30
0.0
 11
248.9999999999999
 21
17.35889894353957
 31
0.0
  0
LINE
  5
1815A
330
1F
100
AcDbEntity
  8
AM_0
100
AcDbLine
 10
125.2499999999999
 20
8.641101056458282
 30
0.0
 11
248.9999999999998
 21
8.641101056458268
 31
0.0
  0
LINE
  5
1815B
330
1F
100
AcDbEntity
  8
AM_0
100
AcDbLine
 10
125.2499999999999
 20
4.499999999998963
 30
0.0
 11
248.9999999999998
 21
4.499999999999034
 31
0.0
  0
LINE
  5
181F3
330
1F
100
AcDbEntity
  8
AM_0
100
AcDbLine
 10
116.5178268764247
 20
4.499999999998991
 30
0.0
 11
105.9821731235751
 21
4.499999999998991
 31
0.0
  0
ARC
  5
181F4
330
1F
100
AcDbEntity
  8
AM_0
100
AcDbCircle
 10
111.2499999999999
 20
12.99999999999999
 30
0.0
 40
10.0
100
AcDbArc
 50
301.7883306170407
 51
334.1580672368328
  0
LINE
  5
1820B
330
1F
100
AcDbEntity
  8
AM_5
100
AcDbLine
 10
-6.039511676956408
 20
0.0
 30
0.0
 11
0.799997476253111
 21
0.0
 31
0.0
  0
LINE
  5
1820C
330
1F
100
AcDbEntity
  8
AM_5
100
AcDbLine
 10
0.0
 20
-4.250338305892655
 30
0.0
 11
0.0
 21
0.7956148759365362
 31
0.0
  0
LINE
  5
182D4
330
1F
100
AcDbEntity
  8
AM_7
100
AcDbLine
 10
257.3187252102965
 20
12.99999999999997
 30
0.0
 11
-4.516423715498377
 21
13.0
 31
0.0
1001
GENIUS_GENODEF_13
1002
{
1000
HIER
1070
     0
1002
}
1002
{
1000
MANEDIT
1070
     0
1002
}
1002
{
1000
NOSEL
1070
     0
1002
}
1002
{
1000
BEHIND
1070
     0
1002
}
1002
{
1000
REACTOR
1002
}
1001
GENIUS_GENOBJ-N-CEN_13
1002
{
1000
OWNER
1000
GEN
1002
}
  0
LINE
  5
182DB
330
1F
100
AcDbEntity
  8
AM_7
100
AcDbLine
 10
257.3187252102965
 20
-82.15393550969463
 30
0.0
 11
-3.706968095034654
 21
-82.15393550969461
 31
0.0
1001
GENIUS_GENODEF_13
1002
{
1000
HIER
1070
     0
1002
}
1002
{
1000
MANEDIT
1070
     0
1002
}
1002
{
1000
NOSEL
1070
     0
1002
}
1002
{
1000
BEHIND
1070
     0
1002
}
1002
{
1000
REACTOR
1002
}
1001
GENIUS_GENOBJ-N-CEN_13
1002
{
1000
OWNER
1000
GEN
1002
}
  0
DIMENSION
  5
185EB
330
1F
100
AcDbEntity
  8
AM_5
100
AcDbDimension
  2
*D6
 10
25.12100267896153
 20
4.499999999999003
 30
0.0
 11
25.12100267896153
 21
-10.86850393700786
 31
0.0
 70
   160
  1
4.5
 71
     5
 42
4.499999999999009
  3
AM_JIS$0
100
AcDbAlignedDimension
 13
0.799997476253111
 23
0.0
 33
0.0
 14
16.56319292833757
 24
4.499999999999005
 34
0.0
 50
90.0
100
AcDbRotatedDimension
1001
ACAD
1000
DSTYLE
1002
{
1070
   271
1070
     0
1002
}
  0
TEXT
  5
18D9B
330
1F
100
AcDbEntity
  8
AM_0
100
AcDbText
 10
-2.461885716401412
 20
-132.2326609365629
 30
0.0
 40
5.0
  1
B20S-SDUCR11T3-25
100
AcDbText
  0
LINE
  5
18EAF
330
1F
100
AcDbEntity
  8
AM_0
100
AcDbLine
 10
248.9999999999998
 20
-87.42176238612103
 30
0.0
 11
30.25
 21
-87.42176238612106
 31
0.0
  0
LINE
  5
18EB0
330
1F
100
AcDbEntity
  8
AM_0
100
AcDbLine
 10
248.9999999999998
 20
-91.15393550969469
 30
0.0
 11
30.25
 21
-91.15393550969466
 31
0.0
  0
LINE
  5
1971B
330
1F
100
AcDbEntity
  8
AM_0
100
AcDbLine
 10
248.9999999999999
 20
4.499999999999034
 30
0.0
 11
249.9999999999999
 21
5.499999999998977
 31
0.0
  0
LINE
  5
1978D
330
1F
100
AcDbEntity
  8
AM_0
100
AcDbLine
 10
0.5263261049999528
 20
10.85923522666499
 30
0.0
 11
0.90072125052518
 21
18.00312017365491
 31
0.0
  0
DIMENSION
  5
197B7
330
1F
100
AcDbEntity
  8
AM_5
100
AcDbDimension
  2
*D8
 10
-8.074273130314396
 20
13.0
 30
0.0
 11
-11.4742731303144
 21
6.5
 31
0.0
 70
    32
 71
     5
 42
13.0
  3
AM_JIS$0
100
AcDbAlignedDimension
 13
0.0
 23
0.0
 33
0.0
 14
-4.516423715498377
 24
13.0
 34
0.0
 50
90.0
100
AcDbRotatedDimension
1001
ACAD
1000
DSTYLE
1002
{
1070
   179
1070
     2
1070
   271
1070
     0
1002
}
  0
DIMENSION
  5
197E8
330
1F
100
AcDbEntity
  8
AM_5
100
AcDbDimension
  2
*D9
 10
0.5263261049999528
 20
10.85923522666496
 30
0.0
 11
-18.60323604083301
 21
19.55863727045548
 31
0.0
 70
    34
 71
     5
 42
1.623156204354728
  3
AM_JIS$2
100
AcDb2LineAngularDimension
 13
-6.039511676956408
 23
0.0
 33
0.0
 14
0.799997476253111
 24
0.0
 34
0.0
 15
0.0010844173613123
 25
0.8370267907393156
 35
0.0
 16
-11.10517897402951
 26
20.8053421988776
 36
0.0
1001
ACAD
1000
DSTYLE
1002
{
1070
   271
1070
     0
1002
}
  0
DIMENSION
  5
19842
330
1F
100
AcDbEntity
  8
AM_5
100
AcDbDimension
  2
*D10
 10
-61.87462916712468
 20
10.95923522666493
 30
0.0
 11
-64.78177886241886
 21
-16.7004464972236
 31
0.0
 70
   162
 71
     5
 42
0.1047197551201213
  3
AM_JIS$2
100
AcDb2LineAngularDimension
 13
-63.01600620988666
 23
-3.075659642478144
 33
0.0
 14
-63.01600620988666
 24
29.47866351642642
 34
0.0
 15
-62.92800572046053
 25
0.9370267907392815
 35
0.0
 16
-63.60555450073468
 26
-16.78269611696682
 36
0.0
1001
ACAD
1000
DSTYLE
1002
{
1070
   179
1070
     0
1070
   271
1070
     0
1002
}
  0
DIMENSION
  5
19881
330
1F
100
AcDbEntity
  8
AM_5
100
AcDbDimension
  2
*D11
 10
249.9999999999999
 20
-40.80668988894809
 30
0.0
 11
124.9999999999999
 21
-37.40631587320006
 31
0.0
 70
    32
 71
     5
 42
249.9999999999999
  3
AM_JIS$0
100
AcDbAlignedDimension
 13
0.0
 23
0.0
 33
0.0
 14
249.9999999999999
 24
5.499999999998977
 34
0.0
100
AcDbRotatedDimension
1001
ACAD
1000
DSTYLE
1002
{
1070
   179
1070
     0
1070
   271
1070
     0
1002
}
  0
ENDSEC
  0
SECTION
  2
OBJECTS
  0
DICTIONARY
  5
C
330
0
100
AcDbDictionary
281
     1
  3
ACAD_COLOR
350
18ECF
  3
ACAD_GROUP
350
D
  3
ACAD_LAYOUT
350
1A
  3
ACAD_MATERIAL
350
18ECE
  3
ACAD_MLINESTYLE
350
17
  3
ACAD_PLOTSETTINGS
350
19
  3
ACAD_PLOTSTYLENAME
350
E
  3
ACAD_TABLESTYLE
350
18ED0
  3
AcAmCatalogState
350
18F37
  3
ACDBHEADERROUNDTRIPXREC
350
19B61
  3
AcDbVariableDictionary
350
30
  3
ACDMSYSVARMGR
350
18EEA
  3
ACGREF_MASTER
350
18EE2
  3
ACGREFACAD_MASTER
350
18F0A
  3
AcmDictionary
350
4D
  3
ACME_BOM_MANAGER_NAME
350
36
  3
ACME_COMMAND_HISTORY
350
2F
  3
ACME_SCOPE_NAME
350
2E
  3
ACMESTATEMGR
350
3B
  3
AcmeSysVarManager
350
32
  3
AcmSystemVariableManager
350
6A
  3
AD_APPL
350
18F15
  3
ADSYSVARMGR
350
18F14
  3
AmdtNamedDwgMgr
350
18F05
  3
AMG
350
3F
  3
AMGSNAPSETTINGS
350
73
  3
AMI_MASTER
350
18F0D
  3
ASE_INDEX_DICTIONARY
350
1957F
  3
AUTOCAD_ASSEMBLIES_PROJECT
350
18F1D
  3
Designer_Assemblies_SysVars
350
18F18
  3
DWGPROPS
350
19B64
  3
eng_data
350
2A40
  3
FILENAME
350
2916
  3
GREFAM_MODULE
350
18F0E
  3
line_dic_data
350
2A3E
  3
table_dic_data
350
1688
  3
ZWKSIZE
350
2918
  0
DICTIONARY
  5
18F7E
330
2
100
AcDbDictionary
280
     1
281
     1
  3
ACAD_LAYERSTATES
360
18F7F
  0
DICTIONARY
  5
165
330
1F
100
AcDbDictionary
280
     1
281
     1
  3
ACAD_SORTENTS
360
193CC
  0
DICTIONARY
  5
18ECF
102
{ACAD_REACTORS
330
C
102
}
330
C
100
AcDbDictionary
281
     1
  0
DICTIONARY
  5
D
102
{ACAD_REACTORS
330
C
102
}
330
C
100
AcDbDictionary
281
     1
  0
DICTIONARY
  5
1A
102
{ACAD_REACTORS
330
C
102
}
330
C
100
AcDbDictionary
281
     1
  3
Model
350
22
  3
ﾚｲｱｳﾄ1
350
1E
  3
ﾚｲｱｳﾄ2
350
26
  0
DICTIONARY
  5
18ECE
102
{ACAD_REACTORS
330
C
102
}
330
C
100
AcDbDictionary
281
     1
  0
DICTIONARY
  5
17
102
{ACAD_REACTORS
330
C
102
}
330
C
100
AcDbDictionary
281
     1
  3
Standard
350
18
  0
DICTIONARY
  5
19
102
{ACAD_REACTORS
330
C
102
}
330
C
100
AcDbDictionary
281
     1
  0
ACDBDICTIONARYWDFLT
  5
E
102
{ACAD_REACTORS
330
C
102
}
330
C
100
AcDbDictionary
281
     1
  3
Normal
350
F
100
AcDbDictionaryWithDefault
340
F
  0
DICTIONARY
  5
18ED0
102
{ACAD_REACTORS
330
C
102
}
330
C
100
AcDbDictionary
281
     1
  3
Standard
350
18ED1
  0
ACAD_PROXY_OBJECT
  5
18F37
102
{ACAD_REACTORS
330
C
102
}
330
C
100
AcDbProxyObject
 90
      499
 91
      571
 95
       25
 70
     0
 93
      552
310
3FFFFFFFE00A028140298231D2E20A1A0A226991818182E4B34482AC8E746FA41B7C1A1C1B3A422AE4B34482AC8E746FA41B7C1A1C1B3CAABC7C0400A0432919F878CC467E
  0
DICTIONARY
  5
19B61
102
{ACAD_REACTORS
330
C
102
}
330
C
100
AcDbDictionary
281
     1
  3
COLORDICT
350
19B62
  3
MATERIALDICT
350
19B63
  0
DICTIONARY
  5
30
102
{ACAD_REACTORS
330
C
102
}
330
C
100
AcDbDictionary
281
     1
  3
CTABLESTYLE
350
18F99
  3
HIDETEXT
350
19B60
  3
INDEXCTL
350
19B5F
  0
ACAD_PROXY_OBJECT
  5
18EEA
102
{ACAD_REACTORS
330
C
102
}
330
C
100
AcDbProxyObject
 90
      499
 91
      507
 95
       25
 70
     0
 93
      240
310
4C51A47A0000000000000000000000000000000000000000000000000000
330
18EEB
330
18EEC
330
18EED
330
18EEE
330
18EEF
330
18EF0
330
18EF1
330
18EF2
330
18EF3
330
18EF4
330
18EF5
330
18EF6
330
18EF7
330
18EF8
330
18EF9
330
18EFA
330
18EFB
330
18EFC
330
18EFD
330
18EFE
330
18EFF
330
18F00
330
18F01
330
18F02
330
18F03
330
18F04
 94
        0
  0
ACAD_PROXY_OBJECT
  5
18EE2
102
{ACAD_REACTORS
330
C
102
}
330
C
100
AcDbProxyObject
 90
      499
 91
      535
 95
       25
 70
     0
 93
       34
310
0400004280
  0
ACAD_PROXY_OBJECT
  5
18F0A
102
{ACAD_REACTORS
330
C
102
}
330
C
100
AcDbProxyObject
 90
      499
 91
      541
 95
       25
 70
     0
 93
      114
310
04000041C080000000000000000000
  0
DICTIONARY
  5
4D
102
{ACAD_REACTORS
330
C
102
}
330
C
100
AcDbDictionary
281
     1
  3
AcmBOMDATA
350
4E
  3
AcmStdDictionary
350
17E
  3
AMDTSECTSYM_ARROWCOLOR
350
18F2B
  0
ACAD_PROXY_OBJECT
  5
36
102
{ACAD_REACTORS
330
C
102
}
330
C
100
AcDbProxyObject
 90
      499
 91
      510
 95
       25
 70
     0
 93
       50
310
00010040400000
330
0
330
0
330
37
 94
        0
  0
ACAD_PROXY_OBJECT
  5
2F
102
{ACAD_REACTORS
330
C
102
}
330
C
100
AcDbProxyObject
 90
      499
 91
      505
 95
       25
 70
     0
 93
     5230
310
478050545524153458050C475249505F535452455443488050C475249505F53545245544348805055153415645404052D4D5347202D205050413A2020206465736B746F702E6172782046696C6556657273696F6E3A20392E322E302E34014390535115149154D15511109353D1102014213880B4815539113C05084E202D2
310
0554E444F014115539113E014115539113E014154155491D1601415454D05591501014B5354D1C80B481414104E88080819195CDADD1BDC0B985C9E08119A5B1955995C9CDA5BDB8E880E4B8C8B8C0B8D0050E414D4454524553455444424D4F4440805084E202D20554E444F014213880B4815539113C0504554E444F8050
310
4554E444F805055153415645404052D4D5347202D205050413A2020206465736B746F702E6172782046696C6556657273696F6E3A20392E322E302E34014390535115149154D15511109353D1102014213880B4815539113C05084E202D20554E444F014115539113E014115539113E01419493D510551160142111493D411
310
D153D3601411353D5916014115539113E0142111493D411D153D3601411353D591601411693D3D36014311D4925417D4D514915510D2201415454D05591501014B5354D1C80B481414104E88080819195CDADD1BDC0B985C9E08119A5B1955995C9CDA5BDB8E880E4B8C8B8C0B8D005055153415645404052D4D5347202D20
310
5050413A2020206465736B746F702E6172782046696C6556657273696F6E3A20392E322E302E34014390535115149154D15511109353D1102014213880B4815539113C05084E202D20554E444F014115539113E014115539113E014154155491D1501014B5354D1C80B481414104E88080819195CDADD1BDC0B985C9E08119
310
A5B1955995C9CDA5BDB8E880E4B8C8B8C0B8D0
  0
ACAD_PROXY_OBJECT
  5
2E
102
{ACAD_REACTORS
330
C
102
}
330
C
100
AcDbProxyObject
 90
      499
 91
      504
 95
       25
 70
     0
 93
      586
310
09000046408000000000000000001344E200000000000000000000000000000000000000000000000000000000000000000000000000000000000000000000000000000000AAA406AA80
360
33
360
34
360
35
360
37
360
6B
360
6C
360
18EE3
360
18EE4
360
18EE5
360
18EE6
360
18EE7
360
18EE8
360
18EEB
360
18EEC
360
18EED
360
18EEE
360
18EEF
360
18EF0
360
18EF1
360
18EF2
360
18EF3
360
18EF4
360
18EF5
360
18EF6
360
18EF7
360
18EF8
360
18EF9
360
18EFA
360
18EFB
360
18EFC
360
18EFD
360
18EFE
360
18EFF
360
18F00
360
18F01
360
18F02
360
18F03
360
18F04
360
18F10
360
18F11
360
18F12
360
18F13
360
18F19
360
18F1A
360
18F1B
360
18F1C
360
18F21
360
18F22
360
18F23
360
18F24
360
18F25
360
18F26
 94
        0
  0
ACAD_PROXY_OBJECT
  5
3B
102
{ACAD_REACTORS
330
C
102
}
330
C
100
AcDbProxyObject
 90
      499
 91
      515
 95
       25
 70
     0
 93
       50
310
09000042641280
  0
ACAD_PROXY_OBJECT
  5
32
102
{ACAD_REACTORS
330
C
102
}
330
C
100
AcDbProxyObject
 90
      499
 91
      507
 95
       25
 70
     0
 93
       48
310
903412000000
330
33
330
34
330
35
 94
        0
  0
ACAD_PROXY_OBJECT
  5
6A
102
{ACAD_REACTORS
330
C
102
}
330
C
100
AcDbProxyObject
 90
      499
 91
      507
 95
       25
 70
     0
 93
       40
310
90240E0000
330
6B
330
6C
 94
        0
  0
ACAD_PROXY_OBJECT
  5
18F15
102
{ACAD_REACTORS
330
C
102
}
330
C
100
AcDbProxyObject
 90
      499
 91
      551
 95
       25
 70
     0
 93
       42
310
000900004040
330
18F10
 94
        0
  0
ACAD_PROXY_OBJECT
  5
18F14
102
{ACAD_REACTORS
330
C
102
}
330
C
100
AcDbProxyObject
 90
      499
 91
      507
 95
       25
 70
     0
 93
        8
310
AA
  0
ACAD_PROXY_OBJECT
  5
18F05
102
{ACAD_REACTORS
330
C
102
}
330
C
100
AcDbProxyObject
 90
      499
 91
      540
 95
       25
 70
     0
 93
       42
310
000100005E80
330
18EE3
 94
        0
  0
DICTIONARY
  5
3F
102
{ACAD_REACTORS
330
C
102
}
330
C
100
AcDbDictionary
281
     1
  3
AcMgSettings
350
40
  3
AMGLAYCFG
350
42
  0
DICTIONARY
  5
73
102
{ACAD_REACTORS
330
C
102
}
330
C
100
AcDbDictionary
281
     1
  3
DIMENSION
350
62F
  3
FEA
350
630
  3
HATCH (1)
350
631
  3
HATCH (2)
350
632
  3
SYMBOLS
350
633
  0
ACAD_PROXY_OBJECT
  5
18F0D
102
{ACAD_REACTORS
330
C
102
}
330
C
100
AcDbProxyObject
 90
      499
 91
      544
 95
       25
 70
     0
 93
       34
310
0500004280
  0
DICTIONARY
  5
1957F
102
{ACAD_REACTORS
330
C
102
}
330
C
100
AcDbDictionary
281
     1
  3
ASEBlockHierarchyIndexRecord
350
19580
1001
DCO15
1040
1562583527.64
  0
ACAD_PROXY_OBJECT
  5
18F1D
102
{ACAD_REACTORS
330
C
102
}
330
C
100
AcDbProxyObject
 90
      499
 91
      554
 95
       25
 70
     0
 93
       98
310
0900004E400000000000000000
330
18F24
330
0
330
18F25
330
0
330
0
330
0
330
0
330
0
 94
        0
  0
ACAD_PROXY_OBJECT
  5
18F18
102
{ACAD_REACTORS
330
C
102
}
330
C
100
AcDbProxyObject
 90
      499
 91
      507
 95
       25
 70
     0
 93
       56
310
90441600000000
330
18F19
330
18F1A
330
18F1B
330
18F1C
 94
        0
  0
XRECORD
  5
19B64
102
{ACAD_REACTORS
330
C
102
}
330
C
100
AcDbXrecord
280
     1
  1
DWGPROPS COOKIE
  2

  3

  4

  6

  7

  8

  9

300
AmdtFileType=84
301
=
302
=
303
=
304
=
305
=
306
=
307
=
308
=
309
=
 40
0.0
 41
2451943.235431667
 42
2455482.211951678
  1

 90
        1
  0
DICTIONARY
  5
2A40
102
{ACAD_REACTORS
330
C
102
}
330
C
100
AcDbDictionary
281
     1
  3
eng_id
350
2A41
  0
DICTIONARY
  5
2916
102
{ACAD_REACTORS
330
C
102
}
330
C
100
AcDbDictionary
281
     1
  3
FILENAME
350
2917
  0
ACAD_PROXY_OBJECT
  5
18F0E
102
{ACAD_REACTORS
330
C
102
}
330
C
100
AcDbProxyObject
 90
      499
 91
      545
 95
       25
 70
     0
 93
        8
310
05
  0
DICTIONARY
  5
2A3E
102
{ACAD_REACTORS
330
C
102
}
330
C
100
AcDbDictionary
281
     1
  3
line_data
350
2A3F
  0
DICTIONARY
  5
1688
102
{ACAD_REACTORS
330
C
102
}
330
C
100
AcDbDictionary
281
     1
  3
input_data
350
168A
  3
table_data
350
1689
  0
DICTIONARY
  5
2918
102
{ACAD_REACTORS
330
C
102
}
330
C
100
AcDbDictionary
281
     1
  3
ZWKSIZE
350
2919
  0
DICTIONARY
  5
18F7F
102
{ACAD_REACTORS
330
18F7E
102
}
330
18F7E
100
AcDbDictionary
281
     1
  0
SORTENTSTABLE
  5
193CC
102
{ACAD_REACTORS
330
165
102
}
330
165
100
AcDbSortentsTable
330
1F
331
F478
  5
F478
331
15AC1
  5
15AC1
331
15AD4
  5
15AD4
331
15ADA
  5
15ADA
331
15ED6
  5
15ED6
331
15F4D
  5
15F4D
331
15F4E
  5
15F4E
331
15F60
  5
15F60
331
15F69
  5
15F69
331
15FAE
  5
15FAE
331
170CD
  5
170CD
331
17F99
  5
17F99
331
17F9A
  5
17F9A
331
17F9B
  5
17F9B
331
17F9C
  5
17F9C
331
17F9D
  5
17F9D
331
17F9E
  5
17F9E
331
17F9F
  5
17F9F
331
17FA0
  5
17FA0
331
17FA5
  5
17FA5
331
17FA6
  5
17FA6
331
17FA7
  5
17FA7
331
17FA8
  5
17FA8
331
17FA9
  5
17FA9
331
17FAA
  5
17FAA
331
17FAB
  5
17FAB
331
17FAC
  5
17FAC
331
17FAD
  5
17FAD
331
17FAE
  5
17FAE
331
17FAF
  5
17FAF
331
17FB0
  5
17FB0
331
17FB1
  5
17FB1
331
17FB2
  5
17FB2
331
17FB3
  5
17FB3
331
17FB4
  5
17FB4
331
17FB5
  5
17FB5
331
17FB6
  5
17FB6
331
17FB7
  5
17FB7
331
17FB8
  5
17FB8
331
17FB9
  5
17FB9
331
17FBA
  5
17FBA
331
17FBB
  5
17FBB
331
17FBC
  5
17FBC
331
17FBD
  5
17FBD
331
17FBE
  5
17FBE
331
17FBF
  5
17FBF
331
17FC0
  5
17FC0
331
17FC1
  5
17FC1
331
17FC2
  5
17FC2
331
17FC3
  5
17FC3
331
17FC4
  5
17FC4
331
17FC5
  5
17FC5
331
17FC6
  5
17FC6
331
17FC7
  5
17FC7
331
17FC8
  5
17FC8
331
17FC9
  5
17FC9
331
17FCA
  5
17FCA
331
17FCB
  5
17FCB
331
17FCC
  5
17FCC
331
17FCD
  5
17FCD
331
17FCE
  5
17FCE
331
17FCF
  5
17FCF
331
17FD0
  5
17FD0
331
17FD1
  5
17FD1
331
17FD2
  5
17FD2
331
17FD7
  5
17FD7
331
17FD8
  5
17FD8
331
17FD9
  5
17FD9
331
17FDA
  5
17FDA
331
17FDB
  5
17FDB
331
17FDC
  5
17FDC
331
17FDD
  5
17FDD
331
17FDE
  5
17FDE
331
17FDF
  5
17FDF
331
17FE0
  5
17FE0
331
17FE1
  5
17FE1
331
17FE2
  5
17FE2
331
17FE3
  5
17FE3
331
17FE4
  5
17FE4
331
17FE5
  5
17FE5
331
17FE6
  5
17FE6
331
17FE7
  5
17FE7
331
17FE8
  5
17FE8
331
17FE9
  5
17FE9
331
17FEB
  5
17FEB
331
17FEC
  5
17FEC
331
17FED
  5
17FED
331
17FEE
  5
17FEE
331
17FEF
  5
17FEF
331
17FF0
  5
17FF0
331
17FF1
  5
17FF1
331
17FF2
  5
17FF2
331
17FF3
  5
17FF3
331
17FF4
  5
17FF4
331
17FF5
  5
17FF5
331
17FF6
  5
17FF6
331
17FF8
  5
17FF8
331
17FF9
  5
17FF9
331
17FFA
  5
17FFA
331
17FFB
  5
17FFB
331
17FFC
  5
17FFC
331
17FFD
  5
17FFD
331
17FFE
  5
17FFE
331
17FFF
  5
17FFF
331
18000
  5
18000
331
18001
  5
18001
331
18002
  5
18002
331
18003
  5
18003
331
18004
  5
18004
331
18005
  5
18005
331
18006
  5
18006
331
18007
  5
18007
331
18008
  5
18008
331
18009
  5
18009
331
1800A
  5
1800A
331
1800B
  5
1800B
331
1800C
  5
1800C
331
1800D
  5
1800D
331
1800E
  5
1800E
331
1800F
  5
1800F
331
18010
  5
18010
331
18011
  5
18011
331
18012
  5
18012
331
18013
  5
18013
331
18014
  5
18014
331
18015
  5
18015
331
18016
  5
18016
331
18017
  5
18017
331
18018
  5
18018
331
18019
  5
18019
331
1801A
  5
1801A
331
1801B
  5
1801B
331
1801C
  5
1801C
331
18023
  5
18023
331
18024
  5
18024
331
18027
  5
18027
331
18028
  5
18028
331
18029
  5
18029
331
1802A
  5
1802A
331
1802B
  5
1802B
331
1802C
  5
1802C
331
1802D
  5
1802D
331
1802E
  5
1802E
331
1802F
  5
1802F
331
18030
  5
18030
331
18031
  5
18031
331
18033
  5
18033
331
18034
  5
18034
331
18036
  5
18036
331
18038
  5
18038
331
1803A
  5
1803A
331
1803B
  5
1803B
331
1803C
  5
1803C
331
1803D
  5
1803D
331
1803E
  5
1803E
331
1803F
  5
1803F
331
18040
  5
18040
331
18041
  5
18041
331
18042
  5
18042
331
18043
  5
18043
331
18044
  5
18044
331
18045
  5
18045
331
18046
  5
18046
331
18047
  5
18047
331
18048
  5
18048
331
18049
  5
18049
331
1804A
  5
1804A
331
1804B
  5
1804B
331
1804C
  5
1804C
331
1804D
  5
1804D
331
1804E
  5
1804E
331
1804F
  5
1804F
331
18050
  5
18050
331
18051
  5
18051
331
18052
  5
18052
331
18053
  5
18053
331
18054
  5
18054
331
18055
  5
18055
331
18056
  5
18056
331
18057
  5
18057
331
18058
  5
18058
331
18059
  5
18059
331
18070
  5
18070
331
18071
  5
18071
331
18072
  5
18072
331
18073
  5
18073
331
18074
  5
18074
331
18075
  5
18075
331
18076
  5
18076
331
18077
  5
18077
331
18078
  5
18078
331
18079
  5
18079
331
1807A
  5
1807A
331
1807B
  5
1807B
331
1807C
  5
1807C
331
1807D
  5
1807D
331
1807E
  5
1807E
331
18089
  5
18089
331
18091
  5
18091
331
18158
  5
18158
331
18159
  5
18159
331
1815A
  5
1815A
331
1815B
  5
1815B
331
181F3
  5
181F3
331
181F4
  5
181F4
331
1820B
  5
1820B
331
1820C
  5
1820C
331
182D4
  5
182D4
331
182DB
  5
182DB
331
185EB
  5
185EB
331
18D9B
  5
18D9B
331
18EAF
  5
18EAF
331
18EB0
  5
18EB0
  0
LAYOUT
  5
22
102
{ACAD_REACTORS
330
1A
102
}
330
1A
100
AcDbPlotSettings
  1

  2
SII LP-2150 (D-SCAN C2)
  4
User262
  6
AM_VIEW1
 40
3.174999952316284
 41
3.174999952316284
 42
3.17498779296875
 43
3.17498779296875
 44
296.9259948730469
 45
419.9889831542969
 46
0.0
 47
0.0
 48
0.0
 49
0.0
140
420.0
141
297.0
142
1.0
143
1.022107788374329
 70
 11952
 72
     1
 73
     1
 74
     4
  7
sei_cad.ctb
 75
     0
147
0.9783703943695685
148
0.0
149
0.0
100
AcDbLayout
  1
Model
 70
     1
 71
     0
 10
0.0
 20
0.0
 11
12.0
 21
9.0
 12
0.0
 22
0.0
 32
0.0
 14
0.0
 24
0.0
 34
0.0
 15
0.0
 25
0.0
 35
0.0
146
0.0
 13
0.0
 23
0.0
 33
0.0
 16
1.0
 26
0.0
 36
0.0
 17
0.0
 27
1.0
 37
0.0
 76
     0
330
1F
  0
LAYOUT
  5
1E
102
{ACAD_REACTORS
330
1A
102
}
330
1A
100
AcDbPlotSettings
  1

  2
Canon LASER SHOT LBP-2030
  4

  6

 40
0.0
 41
0.0
 42
0.0
 43
0.0
 44
0.0
 45
0.0
 46
0.0
 47
0.0
 48
0.0
 49
0.0
140
0.0
141
0.0
142
1.0
143
1.0
 70
   688
 72
     0
 73
     0
 74
     5
  7
sei_cad.ctb
 75
    16
147
1.0
148
0.0
149
0.0
100
AcDbLayout
  1
ﾚｲｱｳﾄ1
 70
     1
 71
     1
 10
0.0
 20
0.0
 11
420.0
 21
297.0
 12
0.0
 22
0.0
 32
0.0
 14
1.000000000000000E+20
 24
1.000000000000000E+20
 34
1.000000000000000E+20
 15
-1.000000000000000E+20
 25
-1.000000000000000E+20
 35
-1.000000000000000E+20
146
0.0
 13
0.0
 23
0.0
 33
0.0
 16
1.0
 26
0.0
 36
0.0
 17
0.0
 27
1.0
 37
0.0
 76
     0
330
1B
  0
LAYOUT
  5
26
102
{ACAD_REACTORS
330
1A
102
}
330
1A
100
AcDbPlotSettings
  1

  2
Canon LASER SHOT LBP-2030
  4

  6

 40
0.0
 41
0.0
 42
0.0
 43
0.0
 44
0.0
 45
0.0
 46
0.0
 47
0.0
 48
0.0
 49
0.0
140
0.0
141
0.0
142
1.0
143
1.0
 70
   688
 72
     0
 73
     0
 74
     5
  7
sei_cad.ctb
 75
    16
147
1.0
148
0.0
149
0.0
100
AcDbLayout
  1
ﾚｲｱｳﾄ2
 70
     1
 71
     2
 10
0.0
 20
0.0
 11
12.0
 21
9.0
 12
0.0
 22
0.0
 32
0.0
 14
0.0
 24
0.0
 34
0.0
 15
0.0
 25
0.0
 35
0.0
146
0.0
 13
0.0
 23
0.0
 33
0.0
 16
1.0
 26
0.0
 36
0.0
 17
0.0
 27
1.0
 37
0.0
 76
     0
330
23
  0
MLINESTYLE
  5
18
102
{ACAD_REACTORS
330
17
102
}
330
17
100
AcDbMlineStyle
  2
STANDARD
 70
     0
  3

 62
   256
 51
90.0
 52
90.0
 71
     2
 49
0.5
 62
   256
  6
BYLAYER
 49
-0.5
 62
   256
  6
BYLAYER
  0
ACDBPLACEHOLDER
  5
F
102
{ACAD_REACTORS
330
E
102
}
330
E
  0
TABLESTYLE
  5
18ED1
102
{ACAD_REACTORS
330
18ED0
102
}
330
18ED0
100
AcDbTableStyle
  3
Standard
 70
     0
 71
     8
 40
1.5
 41
1.5
280
     0
281
     0
  7
STANDARD
140
4.5
170
     2
 62
     0
 63
     7
283
     0
274
    -2
284
     1
 64
     0
275
    -2
285
     1
 65
     0
276
    -2
286
     1
 66
     0
277
    -2
287
     1
 67
     0
278
    -2
288
     1
 68
     0
279
    -2
289
     1
 69
     0
  7
STANDARD
140
6.0
170
     5
 62
     0
 63
     7
283
     0
274
    -2
284
     1
 64
     0
275
    -2
285
     1
 65
     0
276
    -2
286
     1
 66
     0
277
    -2
287
     1
 67
     0
278
    -2
288
     1
 68
     0
279
    -2
289
     1
 69
     0
  7
STANDARD
140
4.5
170
     5
 62
     0
 63
     7
283
     0
274
    -2
284
     1
 64
     0
275
    -2
285
     1
 65
     0
276
    -2
286
     1
 66
     0
277
    -2
287
     1
 67
     0
278
    -2
288
     1
 68
     0
279
    -2
289
     1
 69
     0
  0
XRECORD
  5
19B62
102
{ACAD_REACTORS
330
19B61
102
}
330
19B61
100
AcDbXrecord
280
     1
340
18ECF
  0
XRECORD
  5
19B63
102
{ACAD_REACTORS
330
19B61
102
}
330
19B61
100
AcDbXrecord
280
     1
340
18ECE
  0
DICTIONARYVAR
  5
18F99
102
{ACAD_REACTORS
330
30
102
}
330
30
100
DictionaryVariables
280
     0
  1
STANDARD
  0
DICTIONARYVAR
  5
19B60
102
{ACAD_REACTORS
330
30
102
}
330
30
100
DictionaryVariables
280
     0
  1
0
  0
DICTIONARYVAR
  5
19B5F
102
{ACAD_REACTORS
330
30
102
}
330
30
100
DictionaryVariables
280
     0
  1
1
  0
ACAD_PROXY_OBJECT
  5
4E
102
{ACAD_REACTORS
330
4D
102
}
330
4D
100
AcDbProxyObject
 90
      499
 91
      520
 95
       25
 70
     0
 93
      118
310
405010040CA904C415CD5B075DD138
350
4F
 94
        0
  0
DICTIONARY
  5
17E
102
{ACAD_REACTORS
330
4D
102
}
330
4D
100
AcDbDictionary
281
     1
  3
JIS
350
17F
  0
XRECORD
  5
18F2B
102
{ACAD_REACTORS
330
4D
102
}
330
4D
100
AcDbXrecord
280
     1
 90
-1023410169
  0
ACAD_PROXY_OBJECT
  5
33
330
2E
100
AcDbProxyObject
 90
      499
 91
      508
 95
       25
 70
     0
 93
      156
310
00010143D050D351505391D5531054925390D490
330
2E
 94
        0
  0
ACAD_PROXY_OBJECT
  5
34
330
2E
100
AcDbProxyObject
 90
      499
 91
      508
 95
       25
 70
     0
 93
      148
310
000101439050D351531253915054925390D490
330
2E
 94
        0
  0
ACAD_PROXY_OBJECT
  5
35
330
2E
100
AcDbProxyObject
 90
      499
 91
      509
 95
       25
 70
     0
 93
      156
310
000101439050D35154D6535093D314D256915080
330
2E
 94
        0
  0
ACAD_PROXY_OBJECT
  5
37
330
2E
100
AcDbProxyObject
 90
      499
 91
      511
 95
       25
 70
     0
 93
       88
310
000101411093D34C402B00
330
2E
330
0
330
0
 94
        0
  0
ACAD_PROXY_OBJECT
  5
6B
330
2E
100
AcDbProxyObject
 90
      499
 91
      509
 95
       25
 70
     0
 93
      108
310
00010142505351D153D35054D4E0
330
2E
 94
        0
  0
ACAD_PROXY_OBJECT
  5
6C
330
2E
100
AcDbProxyObject
 90
      499
 91
      522
 95
       25
 70
     0
 93
      140
310
00010142105350D55494D511005034A49530
330
2E
 94
        0
  0
ACAD_PROXY_OBJECT
  5
18EE3
330
2E
100
AcDbProxyObject
 90
      499
 91
      536
 95
       25
 70
     0
 93
      422
310
0001014124FEA55D00507392E322E302E32014124FEA55D00507392E322E302E324050100004157D554D15488AAD84FA0A74014058
330
2E
330
18EE4
330
18EEA
 94
        0
  0
ACAD_PROXY_OBJECT
  5
18EE4
330
2E
100
AcDbProxyObject
 90
      499
 91
      537
 95
       25
 70
     0
 93
       56
310
000190240E0000
330
2E
330
18EE5
330
18EE7
 94
        0
  0
ACAD_PROXY_OBJECT
  5
18EE5
330
2E
100
AcDbProxyObject
 90
      499
 91
      538
 95
       25
 70
     0
 93
       48
310
0001AA000000
330
2E
330
1E
330
18EE6
330
0
 94
        0
  0
ACAD_PROXY_OBJECT
  5
18EE6
330
2E
100
AcDbProxyObject
 90
      499
 91
      539
 95
       25
 70
     0
 93
       28
310
0001AAA0
330
2E
 94
        0
  0
ACAD_PROXY_OBJECT
  5
18EE7
330
2E
100
AcDbProxyObject
 90
      499
 91
      538
 95
       25
 70
     0
 93
       48
310
0001AA000000
330
2E
330
26
330
18EE8
330
0
 94
        0
  0
ACAD_PROXY_OBJECT
  5
18EE8
330
2E
100
AcDbProxyObject
 90
      499
 91
      539
 95
       25
 70
     0
 93
       28
310
0001AAA0
330
2E
 94
        0
  0
ACAD_PROXY_OBJECT
  5
18EEB
330
2E
100
AcDbProxyObject
 90
      499
 91
      509
 95
       25
 70
     0
 93
      108
310
000101421053521310D05310D010
330
2E
 94
        0
  0
ACAD_PROXY_OBJECT
  5
18EEC
330
2E
100
AcDbProxyObject
 90
      499
 91
      509
 95
       25
 70
     0
 93
      124
310
00010142905354915554D15112535010
330
2E
 94
        0
  0
ACAD_PROXY_OBJECT
  5
18EED
330
2E
100
AcDbProxyObject
 90
      499
 91
      509
 95
       25
 70
     0
 93
      132
310
00010143105354D150D51253D391125360
330
2E
 94
        0
  0
ACAD_PROXY_OBJECT
  5
18EEE
330
2E
100
AcDbProxyObject
 90
      499
 91
      509
 95
       25
 70
     0
 93
      124
310
00010142905355941093D49111549010
330
2E
 94
        0
  0
ACAD_PROXY_OBJECT
  5
18EEF
330
2E
100
AcDbProxyObject
 90
      499
 91
      509
 95
       25
 70
     0
 93
      116
310
0001014290535115D1D0D3D313D4A0
330
2E
 94
        0
  0
ACAD_PROXY_OBJECT
  5
18EF0
330
2E
100
AcDbProxyObject
 90
      499
 91
      509
 95
       25
 70
     0
 93
      148
310
00010143505355925155D49151949154D21010
330
2E
 94
        0
  0
ACAD_PROXY_OBJECT
  5
18EF1
330
2E
100
AcDbProxyObject
 90
      499
 91
      509
 95
       25
 70
     0
 93
      172
310
00010144105350539393D51154149154D15495915010
330
2E
 94
        0
  0
ACAD_PROXY_OBJECT
  5
18EF2
330
2E
100
AcDbProxyObject
 90
      499
 91
      509
 95
       25
 70
     0
 93
      172
310
00010144105350555513D11253505494905391D15010
330
2E
 94
        0
  0
ACAD_PROXY_OBJECT
  5
18EF3
330
2E
100
AcDbProxyObject
 90
      499
 91
      509
 95
       25
 70
     0
 93
      124
310
00010142D05351561514915191125360
330
2E
 94
        0
  0
ACAD_PROXY_OBJECT
  5
18EF4
330
2E
100
AcDbProxyObject
 90
      499
 91
      509
 95
       25
 70
     0
 93
      132
310
00010142D05355105410539393D5115010
330
2E
 94
        0
  0
ACAD_PROXY_OBJECT
  5
18EF5
330
2E
100
AcDbProxyObject
 90
      499
 91
      509
 95
       25
 70
     0
 93
      108
310
00010142105350555513D0D31010
330
2E
 94
        0
  0
ACAD_PROXY_OBJECT
  5
18EF6
330
2E
100
AcDbProxyObject
 90
      499
 91
      509
 95
       25
 70
     0
 93
      108
310
00010142105350D3119150551050
330
2E
 94
        0
  0
ACAD_PROXY_OBJECT
  5
18EF7
330
2E
100
AcDbProxyObject
 90
      499
 91
      509
 95
       25
 70
     0
 93
      108
310
00010142105350D315925155D3F0
330
2E
 94
        0
  0
ACAD_PROXY_OBJECT
  5
18EF8
330
2E
100
AcDbProxyObject
 90
      499
 91
      509
 95
       25
 70
     0
 93
      148
310
0001014350535212511156915493D112535010
330
2E
 94
        0
  0
ACAD_PROXY_OBJECT
  5
18EF9
330
2E
100
AcDbProxyObject
 90
      499
 91
      509
 95
       25
 70
     0
 93
      124
310
00010142905352105510D21254D3D010
330
2E
 94
        0
  0
ACAD_PROXY_OBJECT
  5
18EFA
330
2E
100
AcDbProxyObject
 90
      499
 91
      509
 95
       25
 70
     0
 93
      148
310
00010143905354D25391D31152105513105660
330
2E
 94
        0
  0
ACAD_PROXY_OBJECT
  5
18EFB
330
2E
100
AcDbProxyObject
 90
      499
 91
      509
 95
       25
 70
     0
 93
      124
310
00010142D0535115D1D193111254D420
330
2E
 94
        0
  0
ACAD_PROXY_OBJECT
  5
18EFC
330
2E
100
AcDbProxyObject
 90
      499
 91
      509
 95
       25
 70
     0
 93
      100
310
00010142105350555513D213A0
330
2E
 94
        0
  0
ACAD_PROXY_OBJECT
  5
18EFD
330
2E
100
AcDbProxyObject
 90
      499
 91
      509
 95
       25
 70
     0
 93
      116
310
000101425053521390D3D553951010
330
2E
 94
        0
  0
ACAD_PROXY_OBJECT
  5
18EFE
330
2E
100
AcDbProxyObject
 90
      499
 91
      509
 95
       25
 70
     0
 93
      108
310
0001014210535213941493D29010
330
2E
 94
        0
  0
ACAD_PROXY_OBJECT
  5
18EFF
330
2E
100
AcDbProxyObject
 90
      499
 91
      509
 95
       25
 70
     0
 93
      108
310
0001014210535213951654115070
330
2E
 94
        0
  0
ACAD_PROXY_OBJECT
  5
18F00
330
2E
100
AcDbProxyObject
 90
      499
 91
      509
 95
       25
 70
     0
 93
      108
310
000101421053521395925155D0F0
330
2E
 94
        0
  0
ACAD_PROXY_OBJECT
  5
18F01
330
2E
100
AcDbProxyObject
 90
      499
 91
      509
 95
       25
 70
     0
 93
      140
310
00010143505354D150D51253D390D3D41660
330
2E
 94
        0
  0
ACAD_PROXY_OBJECT
  5
18F02
330
2E
100
AcDbProxyObject
 90
      499
 91
      509
 95
       25
 70
     0
 93
      108
310
00010142105350D3141493D29030
330
2E
 94
        0
  0
ACAD_PROXY_OBJECT
  5
18F03
330
2E
100
AcDbProxyObject
 90
      499
 91
      508
 95
       25
 70
     0
 93
      212
310
00010143905350555513D2105510D21493D500000000000002E400
330
2E
 94
        0
  0
ACAD_PROXY_OBJECT
  5
18F04
330
2E
100
AcDbProxyObject
 90
      499
 91
      509
 95
       25
 70
     0
 93
      156
310
00010143905350555513D2105510D21111551010
330
2E
 94
        0
  0
ACAD_PROXY_OBJECT
  5
18F10
330
2E
100
AcDbProxyObject
 90
      499
 91
      547
 95
       25
 70
     0
 93
      698
310
0001000000009AA6A9AA4051E547565204D61722032312032333A34313A303320323030362028555443290141CE4B8C8B8C0B8C80518547565204F63742031322031343A30353A313220323031300141CE4B8C8B8C0B8C80
330
2E
330
18F11
330
18F12
330
18F14
330
0
 94
        0
  0
ACAD_PROXY_OBJECT
  5
18F11
330
2E
100
AcDbProxyObject
 90
      499
 91
      548
 95
       25
 70
     0
 93
       70
310
0001AAA80820000000
330
2E
330
18F11
330
18F11
 94
        0
  0
ACAD_PROXY_OBJECT
  5
18F12
330
2E
100
AcDbProxyObject
 90
      499
 91
      549
 95
       25
 70
     0
 93
       48
310
000100000000
330
2E
330
0
330
18F13
330
0
330
0
 94
        0
  0
ACAD_PROXY_OBJECT
  5
18F13
330
2E
100
AcDbProxyObject
 90
      499
 91
      550
 95
       25
 70
     0
 93
       40
310
000100AAAA
330
2E
330
0
 94
        0
  0
ACAD_PROXY_OBJECT
  5
18F19
330
2E
100
AcDbProxyObject
 90
      499
 91
      522
 95
       25
 70
     0
 93
      180
310
00010143105050D3D35411119390535140504434F4D500
330
2E
 94
        0
  0
ACAD_PROXY_OBJECT
  5
18F1A
330
2E
100
AcDbProxyObject
 90
      499
 91
      522
 95
       25
 70
     0
 93
      212
310
0001014390505193D311115491119390535140506466F6C6465720
330
2E
 94
        0
  0
ACAD_PROXY_OBJECT
  5
18F1B
330
2E
100
AcDbProxyObject
 90
      499
 91
      522
 95
       25
 70
     0
 93
      180
310
00010143105050539393D1119390535140504284156290
330
2E
 94
        0
  0
ACAD_PROXY_OBJECT
  5
18F1C
330
2E
100
AcDbProxyObject
 90
      499
 91
      522
 95
       25
 70
     0
 93
      436
310
00010143905050D3D35415925155D31254D50052295BD96CA0A90B396CA0A894591A496CA0A8DB691A496CA0A89BA96CA0A95E28F95310
330
2E
 94
        0
  0
ACAD_PROXY_OBJECT
  5
18F21
330
2E
100
AcDbProxyObject
 90
      499
 91
      555
 95
       25
 70
     0
 93
       32
310
00010000
330
2E
340
18F1E
330
18F23
330
18F1E
 94
        0
  0
ACAD_PROXY_OBJECT
  5
18F22
330
2E
100
AcDbProxyObject
 90
      499
 91
      556
 95
       25
 70
     0
 93
       18
310
000180
330
2E
 94
        0
  0
ACAD_PROXY_OBJECT
  5
18F23
330
2E
100
AcDbProxyObject
 90
      499
 91
      557
 95
       25
 70
     0
 93
      226
310
00010144508C8C14CB54D11550D48C4C550CCB4C8D5050055401550000
330
2E
330
18F21
330
18F22
 94
        0
  0
ACAD_PROXY_OBJECT
  5
18F24
330
2E
100
AcDbProxyObject
 90
      499
 91
      558
 95
       25
 70
     0
 93
      178
310
000100AAAAAAAEBA72271EA5AF5121057D228C7E6E1400
330
2E
330
18F23
 94
        0
  0
ACAD_PROXY_OBJECT
  5
18F25
330
2E
100
AcDbProxyObject
 90
      499
 91
      559
 95
       25
 70
     0
 93
      108
310
000190140A000000000000AAAAA0
330
2E
330
18F26
330
18F26
330
18F26
330
18F26
330
18F26
330
0
 94
        0
  0
ACAD_PROXY_OBJECT
  5
18F26
330
2E
100
AcDbProxyObject
 90
      499
 91
      560
 95
       25
 70
     0
 93
       51
310
00010000AAAA80
330
2E
330
18F25
330
18F23
 94
        0
  0
DICTIONARY
  5
40
102
{ACAD_REACTORS
330
3F
102
}
330
3F
100
AcDbDictionary
281
     1
  3
DWGSETTINGS
350
41
  3
FEM
350
69
  3
Shaft
350
56
  3
TRANSSETTINGS
350
4C
  0
ACAD_PROXY_OBJECT
  5
42
102
{ACAD_REACTORS
330
3F
102
}
330
3F
100
AcDbProxyObject
 90
      499
 91
      519
 95
       25
 70
     0
 93
    23232
310
41502491013041105357CC201C00030C011E441013141105357CC603800030C011E441013241105357CCA01400030C011E441013341105357CCE01800030C010D9013441105357CD200C00030C010D9013541105357CD600C00030C010D9013641105357CDA00800030C011E9013741105357CDE01000030C010D901384110
310
5357CE200400030C011E9013941105357CE63F400030C0241102324141505357CC4C201C00030C011E902344141505357CC4C600C00030C010D902495041505357CC4CA01C00030C011E40902304E41505357CC13A01C00030C011E902314E41505357CC53A03800030C011E902324E41505357CC93A01400030C011E90233
310
4E41505357CCD3A01800030C010D902344E41505357CD13A00C00030C010D902354E41505357CD53A00C00030C010D902364E41505357CD93A00800030C011E902374E41505357CDD3A01000030C010D902384E41505357CE13A00400030C011E902394E41505357CE53A3F400030C024110332414E41905357CC4C13A01C0
310
0030C011E90334414E41905357CC4C53A00C00030C010D90349504E41905357CC4C93A01C00030C011E409044B4C494E41505357D0D3200400030C011E42504494E464F42105357D410549151A01000030C010D42D055241484D3541905357D093D4A01C00030C011E425045649455742105357D5925155D4E00400030C011
310
E42D06424548494E4441905357D25395A3F400030C0243505545241494C41505357D514A00C00030C010D4250348494441905357D21251201C00030C011E4250356495341905357D59254E01C00030C011E4250650415244494D42505357D41054911253600C00030C010D4250652454644494D42505357D49151911253601
310
000030C010D425774110531514901348070000C300479034110915312501348000000C0003FFFFFFFD034110921395901398000000C0003FFFFFFFE415092139594D06424548494E448000000C0003FFFFFFFE411093125110234418000000C0003FFFFFFFD03411093D05410234418000000C0003FFFFFFFD03411093D48C
310
9055241484D358010000C30047A411093D48CD055241484D358020000C30047A411093D48D5055241484D358000000C0003FFFFFFFE411093D48DD055241484D3581E0000C30047903411094105410234418000000C0003FFFFFFFD03411094115610234418000000C0003FFFFFFFD034110951112501358000000C0003FFF
310
FFFFD034110D0530C901348000000C0003FFFFFFFE4110D0530CD01348020000C30047A4110D0530D501348070000C30047A4110D0530DD013481E0000C30047A4110D15393901378000000C0003FFFFFFFE4110D15395D01378000000C0003FFFFFFFE4110D312539044B4C494E8000000C0003FFFFFFFE4110D3D38C5013
310
08000000C0003FFFFFFFD034110D3D38C901318000000C0003FFFFFFFD034110D3D38CD01328000000C0003FFFFFFFD034110D3D38D101328000000C0003FFFFFFFD034111115494101348000000C0003FFFFFFFD034111115510501348000000C0003FFFFFFFE4111125051D01358000000C0003FFFFFFFE4111125312501
310
358000000C0003FFFFFFFE411112535410650415244494D8000000C0003FFFFFFFE411112535490652454644494D8000000C0003FFFFFFFE411156135410234418000000C0003FFFFFFFD034111915353901388000000C0003FFFFFFFE415191535413901388030000C3004364151915354D410234418000000C0003FFFFFF
310
FE4151915354D510234418030000C300436415191535593901328000000C0003FFFFFFFE415191535595101328030000C3004364111931055101308000000C0003FFFFFFFD03411194905490234418000000C0003FFFFFFFD034111D49312501358000000C0003FFFFFFFD034111D5931250234418000000C0003FFFFFFFD0
310
34112105510D01388000000C0003FFFFFFFD014112125113901338000000C0003FFFFFFFD034112125115D01338000000C0003FFFFFFFD034112131253901348000000C0003FFFFFFFD01411213D0D3901378000000C0003FFFFFFFE411213D0D5D01378000000C0003FFFFFFFE4112539193D04494E464F8000000C0003FF
310
FFFFFE4113105112501348000000C0003FFFFFFFD034113115051101358000000C0003FFFFFFFE419397D0921395902394E8000000C0003FFFFFFFE419397D0D3D38C502304E8000000C0003FFFFFFFD03419397D0D3D38C902314E8000000C0003FFFFFFFD03419397D0D3D38CD02324E8000000C0003FFFFFFFD03419397
310
D0D3D38D102324E8000000C0003FFFFFFFD03419397D0D15393902374E8000000C0003FFFFFFFE419397D0D15395D02374E8000000C0003FFFFFFFE419397D1125312502354E8000000C0003FFFFFFFE419397D2105510D02384E8000000C0003FFFFFFFD01419397D2125113902334E8000000C0003FFFFFFFD03419397D2
310
125115D02334E8000000C0003FFFFFFFD03419397D3115051102354E8000000C0003FFFFFFFE419397D391D25410349504E8000000C0003FFFFFFFE419397D412105390334414E8000000C0003FFFFFFFE419397D510D3D3902304E8000000C0003FFFFFFFD03419397D5121312502344E8000000C0003FFFFFFFD01419397
310
D5131153902304E8000000C0003FFFFFFFD03419397D516150CD02364E8000000C0003FFFFFFFD03419397D594131250332414E8000000C0003FFFFFFFE411391D25410249508000000C0003FFFFFFFE411410530C9055241484D358010000C30047A411410530CD055241484D358020000C30047A411410530D5055241484
310
D358000000C0003FFFFFFFE411410530DD055241484D3581E0000C30047903411412105390234418000000C0003FFFFFFFE411413D4D3901368070000C30047A419413D4D49151901368050000C30047903411413D4D6101368000000C0003FFFFFFFD03411414D150D0234418000000C0003FFFFFFFD03411490D1D390137
310
8000000C0003FFFFFFFE411490D1D5D01378000000C0003FFFFFFFE4114919112501348000000C0003FFFFFFFD034114945514901348070000C30047903411494D093D01348000000C0003FFFFFFFD034114D09492D01348000000C0003FFFFFFFD014114D0D153901378000000C0003FFFFFFFD034114D150D51013480000
310
00C0003FFFFFFFD014114D15313901378000000C0003FFFFFFFD034114D15315D01378000000C0003FFFFFFFD034114D4D654D01308000000C0003FFFFFFFD034114D51312501348070000C300479034114D6508C501358000000C0003FFFFFFFD034114D6508C901358000000C0003FFFFFFFD034114D6508CD0135802000
310
0C30047A4114D6508D501358070000C300479034114D65353901378000000C0003FFFFFFFD034114D65355D01378000000C0003FFFFFFFD03411510D3D3901308000000C0003FFFFFFFD034115121312501348000000C0003FFFFFFFD01411512550C9055241484D358010000C30047A411512550CD055241484D358020000
310
C30047A411512550D5055241484D358000000C0003FFFFFFFE411512550DD055241484D3581E0000C300479034115131153901308000000C0003FFFFFFFD03415514905253105545241494C8000000C0003FFFFFFFE41151492D3901378000000C0003FFFFFFFD0341151492D5D01378000000C0003FFFFFFFD03411514931
310
2501348000000C0003FFFFFFFD01411516150C501368030000C300436411516150C901368030000C300436411516150CD01368000000C0003FFFFFFFE411516150D501368070000C30047A411516150DD013681E0000C30047A4115925155D04564945578000000C0003FFFFFFFE41159151121034849448000000C0003FFF
310
FFFFD0241159151159035649538000000C0003FFFFFFFD02411594131250232418000000C0003FFFFFFFE4116925690501348000000C0003FFFFFFFD01411354D653501358020000C30047AAAA3F400030C01013F90A4391E41D1E4190D4151E4110D40D0D4091E4051E4791E7F6
340
16
340
16
340
16
340
43
340
16
340
16
340
16
340
44
340
16
340
16
340
44
340
45
340
16
340
16
340
16
340
16
340
43
340
16
340
16
340
16
340
44
340
16
340
16
340
44
340
45
340
16
340
46
340
16
340
16
340
16
340
16
340
16
340
43
340
16
340
16
340
16
340
47
340
15
340
15
340
15
340
15
340
15
340
15
340
15
340
15
340
15
340
15
340
15
340
15
340
15
340
15
340
15
340
15
340
48
340
15
340
15
340
15
340
15
340
15
340
15
340
15
340
15
340
15
340
15
340
15
340
15
340
15
340
15
340
15
340
16
340
15
340
15
340
15
340
15
340
15
340
15
340
15
340
15
340
47
340
15
340
15
340
48
340
15
340
15
340
15
340
15
340
15
340
15
340
15
340
15
340
15
340
48
340
15
340
15
340
15
340
47
340
15
340
15
340
15
340
15
340
15
340
15
340
15
340
15
340
15
340
15
340
15
340
15
340
15
340
15
340
15
340
15
340
15
340
15
340
15
340
48
340
15
340
15
340
48
340
15
340
15
340
16
340
15
340
48
340
15
340
15
340
47
340
15
340
15
340
16
340
15
340
48
340
15
340
15
340
15
340
15
340
15
340
15
340
15
340
15
340
15
340
48
340
15
340
15
340
15
340
15
340
15
340
15
340
15
340
15
340
15
340
15
340
15
340
4B
340
16
 94
        0
  0
ACAD_PROXY_OBJECT
  5
62F
102
{ACAD_REACTORS
330
73
102
}
330
73
100
AcDbProxyObject
 90
      499
 91
      523
 95
       25
 70
     0
 93
      253
310
43D1444494D454E53494F4E2C414D44545F2A5F44494D404A9012A404A9012A0
  0
ACAD_PROXY_OBJECT
  5
630
102
{ACAD_REACTORS
330
73
102
}
330
73
100
AcDbProxyObject
 90
      499
 91
      523
 95
       25
 70
     0
 93
      181
310
43D012A42D05357D191504B505357CA9012A404A9012A8
  0
ACAD_PROXY_OBJECT
  5
631
102
{ACAD_REACTORS
330
73
102
}
330
73
100
AcDbProxyObject
 90
      499
 91
      523
 95
       25
 70
     0
 93
      133
310
43D054841544348404A9012A404A9012A8
  0
ACAD_PROXY_OBJECT
  5
632
102
{ACAD_REACTORS
330
73
102
}
330
73
100
AcDbProxyObject
 90
      499
 91
      523
 95
       25
 70
     0
 93
      549
310
43D044C494E4549CE0B0E138B0A8B4E0B0A8B4E138B105357CE0B105357CE138B0A8B505357CE0B0A8B505357CE139012A404A910494E534552542C5354445041525432448
  0
ACAD_PROXY_OBJECT
  5
633
102
{ACAD_REACTORS
330
73
102
}
330
73
100
AcDbProxyObject
 90
      499
 91
      523
 95
       25
 70
     0
 93
      909
310
43D6641434D46434652414D452C41434D444154554D5441524745542C41434D444154554D49442C41434D57454C4453594D2C41434D5355524653594D2C41434D4645415449442C41434D504152545245462C41434D42414C4C4F4F4E2C414D44544544474553594D404A9012A404A9012A8
  0
XRECORD
  5
19580
102
{ACAD_REACTORS
330
1957F
102
}
330
1957F
100
AcDbXrecord
280
     1
330
0
330
0
330
0
330
0
330
0
330
0
330
0
330
0
330
0
330
0
330
0
330
0
330
0
330
0
330
0
330
0
330
0
330
0
330
0
330
0
330
0
330
0
330
0
330
0
330
0
330
0
330
0
330
0
330
0
330
0
330
0
330
0
330
0
330
0
330
0
330
0
330
0
330
0
330
0
330
0
330
0
330
0
330
0
330
0
330
0
330
0
330
0
330
0
330
0
330
0
330
0
330
0
330
0
330
0
330
0
330
0
330
0
330
0
330
0
330
0
330
0
330
0
330
0
  0
XRECORD
  5
2A41
102
{ACAD_REACTORS
330
2A40
102
}
330
2A40
100
AcDbXrecord
280
     1
  1
LINE
  0

  0
XRECORD
  5
2917
102
{ACAD_REACTORS
330
2916
102
}
330
2916
100
AcDbXrecord
280
     1
  1
25000259__00___
  0

  0
XRECORD
  5
2A3F
102
{ACAD_REACTORS
330
2A3E
102
}
330
2A3E
100
AcDbXrecord
280
     1
  1
110 ^M^J ^M^J ^M^J ^M^J ^M^J ^M^J ^M^J ^M^J ^M^J ^M^J ^M^Jボーリングクイル ^M^J鋼 ^M^J特型 ^M^J直付け ^M^Jストレート ^M^J25 ^M^J2 ^M^J ^M^Jアルミ ^M^J ^M^J
  0

  0
XRECORD
  5
168A
102
{ACAD_REACTORS
330
1688
102
}
330
1688
100
AcDbXrecord
280
     1
  1
1,,,,,,,,,^M^J2,,,,,,,,,^M^J3,,,,,,,,,^M^J4,,,,,,,,,^M^J5,,,,,,,,,^M^J6,,,,,,,,,^M^J7,,,,,,,,,^M^J8,,,,,,,,,^M^J9,,,,,,,,,^M^J10,,,,,,,,,
  0

  0
XRECORD
  5
1689
102
{ACAD_REACTORS
330
1688
102
}
330
1688
100
AcDbXrecord
280
     1
  1
10,10
  0

  0
XRECORD
  5
2919
102
{ACAD_REACTORS
330
2918
102
}
330
2918
100
AcDbXrecord
280
     1
  1
3
  0

  0
ACAD_PROXY_OBJECT
  5
4F
102
{ACAD_REACTORS
330
4E
102
}
330
4E
100
AcDbProxyObject
 90
      499
 91
      521
 95
       25
 70
     0
 93
      157
310
057356C1D77406406AA8FFFFFFFF05DD01009010
330
1F
330
0
330
18F23
 94
        0
  0
ACAD_PROXY_OBJECT
  5
17F
102
{ACAD_REACTORS
330
17E
102
}
330
17E
100
AcDbProxyObject
 90
      499
 91
      526
 95
       25
 70
     0
 93
     2379
310
5DC33333333333309408000000C00040D29254D01640600800030C0200800030C003333333333330940C8121E8720B1B6A9BAB9332A32BC3A29BA3220480A1282C6DA8C868CA6E8C88120286A0B1B6ABB2B63234B733A9BA3220480A1082C6DA92C8A6E8C88120285A0B1B6A230BA3AB6A9BA3220480A1282C6DA849E9AA6E
310
8C88120286A0B1A0B6B3AA34BA3632A9BA3220480A2082DAC8E888CAE8C2D2D8A6F2DAA6E8C88120288A0B6B23A29B2B1BA34B7B729BCB6A9BA3220480A2282DAC8E886CADCE8CAE498D2DCCAA6E8C88120288A0B6B23A2A343932B0B22634B732A9BA3220480A1682DAC8E89CDEE8CAA6E8C88120285A0B1A0B6B3A630BCA
310
9BA3220480A1682C682DACE88D2DAA6E8C88120288A0B1A0B6B3A437B632A1B430B93A29BA3220480C812020
340
180
360
181
360
182
360
183
360
184
360
185
360
186
360
18F28
360
18F29
360
18F2A
360
18F2C
360
18F2D
360
18F2E
360
18F34
360
18F35
360
18F36
340
0
340
0
 94
        0
  0
ACAD_PROXY_OBJECT
  5
41
102
{ACAD_REACTORS
330
40
102
}
330
40
100
AcDbProxyObject
 90
      499
 91
      518
 95
       25
 70
     0
 93
     2946
310
4050B44574753455454494E4753A0E8482A68AA6A88882A069492A684A1A0A723A0A92920ACA0A811A1AA0C868A9C829C8E82A12686AF87260F862666A8321A2A72224A0A50000000000000122020E868A9C889282A682A106260F86460F8666083A1A2A72224A9AA250000000000000042020C868A9C988A9C94000000000
310
000048808321A2A727A323250000000000000122020E868A9C9E8C8C62940000000000000488083A1A2A727A32319250000000000000122021CC6D0C2DACCCAE4C8D2DADADEC8CA9FC84A1A624A720A92920ACA0A811899A108698929C8AA8B2A082A0AB098929C8A84A22BA3AAA9A1A0A622A50A0E9882A6A89E849482A02
310
608426A0A5A2AB24A2ABA7E8120CA0A68682988A0C00800010652455649534941501304154D0D0531150540CC4E8C5085354414E44415244415034A4953425512535154D51053541280FCECFD09E4ADCD050756455253494F4E4150531352E3030441ED115D1D4D15515125391D4D153911F40
  0
ACAD_PROXY_OBJECT
  5
69
102
{ACAD_REACTORS
330
40
102
}
330
40
100
AcDbProxyObject
 90
      499
 91
      518
 95
       25
 70
     0
 93
      411
310
4050346454D21092DCC6E486DECACC942842630BCA3B937BAB820A8320A6AFA322A0A20F688AE8EA68AA8A8929C8EA68A9C88FA0
  0
ACAD_PROXY_OBJECT
  5
56
102
{ACAD_REACTORS
330
40
102
}
330
40
100
AcDbProxyObject
 90
      499
 91
      518
 95
       25
 70
     0
 93
      583
310
40505536861667421292DCE8CAE4E4EAE0E89FA0484A634B3B43A2634B732A7F21A98D2CED0E898D2DCCAACD2CAEE9FC8229B4B232A7E80A20F688AE8EA68AA8A8929C8EA68A9C88FA
  0
ACAD_PROXY_OBJECT
  5
4C
102
{ACAD_REACTORS
330
40
102
}
330
40
100
AcDbProxyObject
 90
      499
 91
      518
 95
       25
 70
     0
 93
      852
310
4050D5452414E5353455454494E4753A2488A482AE929C8EA8A4829CA69882A8929E9C0C00800050D4F524947494E414C4C595F4F4E0600400028529A7AAA921A2A620A723A0A81A52827212AAA0A48AA68AA4AC8A0C0080001107B44574753455454494E4753454E447D0
  0
ACAD_PROXY_OBJECT
  5
181
330
17F
100
AcDbProxyObject
 90
      499
 91
      527
 95
       25
 70
     0
 93
       86
310
5DEA0C80A0280A0280A034
  0
ACAD_PROXY_OBJECT
  5
182
330
17F
100
AcDbProxyObject
 90
      499
 91
      528
 95
       25
 70
     0
 93
      282
310
5DD0E4050140501405014050140501405014050141101405014041000000000000001000
340
187
 94
        0
  0
ACAD_PROXY_OBJECT
  5
183
330
17F
100
AcDbProxyObject
 90
      499
 91
      529
 95
       25
 70
     0
 93
      323
310
5DCC199999999999E99F91740501405014050140501405014050140501405014050140501405014040
340
0
 94
        0
  0
ACAD_PROXY_OBJECT
  5
184
330
17F
100
AcDbProxyObject
 90
      499
 91
      530
 95
       25
 70
     0
 93
       10
310
5DC0
  0
ACAD_PROXY_OBJECT
  5
185
330
17F
100
AcDbProxyObject
 90
      499
 91
      531
 95
       25
 70
     0
 93
      257
310
5DE0C16A22A7D90F49F80000000000001081400000000000004204010000618000
340
188
340
189
 94
        0
  0
ACAD_PROXY_OBJECT
  5
186
330
17F
100
AcDbProxyObject
 90
      499
 91
      532
 95
       25
 70
     0
 93
     5277
310
5DD06411255115350141236025B6901405014069010000000000000910240690120281A8AA2CA0282484A4BE52028120280A032020000000000001220480D202405044E414D454050496BC914F4051C40640A80000000000004E4090193C3D3C4946284953424C414E4B28504152543A4E414D45292C424C4F434B3A4E414D
310
452C504152543A4E414D45293E3C41435F44455343524950544E3E40480A109A82A88AA492829880A091BBD2F7E80A3A80C81D0E27A15AF46E08A81203480901411393D5115014124A363B7D0147501904A0000000000000F902406428F4F1050D7D393D5114F901202832B22A72227A92028366EF6EE06F582028EA0320B4
310
0000000000001F20480C879E9E20A1AFAB27222FA620A122A61F20240506445020000000000000490201C00030C00010180000000000003E400000000000000F901073D3C4954454D3E4050180000000000003E400000000000000F901073D3C4954454D3E40501800000000000034400000000000000D101073D3C4954454
310
D3E40501800000000000034400000000000000D101073D3C4954454D3E405029010000000000000F9000000000000003E4041CF4F125511534F901418F4F1455164F9014060000000000000F9000000000000003E4041CF4F125511534F901800000000000034400000000000000D101073D3C4954454D3E40640400000000
310
0000003E400000000000000F90288800000000000020810000001800120881A068120480A032208521122080D21480D211480A1485214852050000000000003C2FC000000000000F0BF40600800030C0200400030C00CDCCCCCCCCCCEC3F3373333333333B0FC3333333333330940C80D069014090341504901A1999999999
310
9984A040100006180400800061804010000618008098A02808
340
0
340
0
 94
        0
  0
ACAD_PROXY_OBJECT
  5
18F28
330
17F
100
AcDbProxyObject
 90
      499
 91
      561
 95
       25
 70
     0
 93
     3042
310
5DD9740D29254D064A49535F413342929254D7D512551311505134A49535F42525F5265766973696F6E6C6973744190F4134522028323937783231306D6D2941D29254D7D04D1490E41312028353934783834316D6D2941929254D7D04C50E41332028323937783432306D6D2941929254D7D04CD0F41344C2028323130783
310
239376D6D2941D29254D7D04D1310E41322028343230783539346D6D2941929254D7D04C90F4130202838343178313138396D6D2941929254D7D04C10243129254C82557247A25E4C81050A4A49535F5449544C454143129254C82557247A25E4C81090A4A49535F5449544C45424110E979A97F0838A835883675F42525F4
310
4D29254D7D09497D4995D9A5CDA5BDB9B1A5CDD10E979A97F0838A835883675F54525F44D29254D7D51497D4995D9A5CDA5BDB9B1A5CDD10E979A97F0838A835883675F424C5F44D29254D7D09317D4995D9A5CDA5BDB9B1A5CDD10E979A97F0838A835883675F544C5F44D29254D7D51317D4995D9A5CDA5BDB9B1A5CDD00
  0
ACAD_PROXY_OBJECT
  5
18F29
330
17F
100
AcDbProxyObject
 90
      499
 91
      562
 95
       25
 70
     0
 93
      898
310
5DC4000000000000124048CF4F11115510525317D3105091530F880A0F11115510525317D05094D4D0D053114F8A50241C9A9999999999B93F26A666666666724FC000000000000E03F400000000000000400000000000000510000000000000024408070000C300000000000000049000
340
16
340
180
 94
        0
  0
ACAD_PROXY_OBJECT
  5
18F2A
330
17F
100
AcDbProxyObject
 90
      499
 91
      563
 95
       25
 70
     0
 93
      823
310
5DC0B00000000000002480959E9E29A2A1AA24A7A72FA620A122A62FA324A929AA1F169E29A2A1AA24A7A72FA620A122A62FA620A9AA1F000000000000048803FFFE01C00030C008140380006180000000000000048800000000000000A2000000000000002480
340
652
340
180
 94
        0
  0
ACAD_PROXY_OBJECT
  5
18F2C
330
17F
100
AcDbProxyObject
 90
      499
 91
      564
 95
       25
 70
     0
 93
      152
310
5DE8273108AC1C5A0640A3D0A5723F0BD1F200
  0
ACAD_PROXY_OBJECT
  5
18F2D
330
17F
100
AcDbProxyObject
 90
      499
 91
      565
 95
       25
 70
     0
 93
       14
310
5DE0
340
0
 94
        0
  0
ACAD_PROXY_OBJECT
  5
18F2E
330
17F
100
AcDbProxyObject
 90
      499
 91
      566
 95
       25
 70
     0
 93
     6059
310
5DD084050BA4050AA405024050E836583938376838C815B83672031405983D3C486F6C653A6469613E3C696628657175616C28486F6C653A7465726D696E6174696F6E2C223022292C2220905B82B320222C22208368838A838B22293E3C696628657175616C28486F6C653A7465726D696E6174696F6E2C223022292C486F
310
6C653A64657074682C2222293E2C203C486F6C653A63746469613E2082B482AE82E882CC905B82B3203C486F6C653A637464657074683E406901405034050E836583938376838C815B83672031405EF3D3C486F6C653A6374616E676C653E252564202525633C486F6C653A63746469613E208E4D8C8A2C203C69662865717
310
5616C28486F6C653A7461707065642C223022292C22252563222C486F6C653A6E6F6D696E616C202220782022293E3C696628657175616C28486F6C653A7461707065642C223022292C486F6C653A6469612C486F6C653A706974636864657363293E203C696628657175616C28486F6C653A7465726D696E6174696F6E2C2
310
23022292C22905B82B320222C222022293E3C696628657175616C28486F6C653A7465726D696E6174696F6E2C223022292C486F6C653A64657074682C2222293E406901405014050E836583938376838C815B83672031405C73D3C696628657175616C28486F6C653A7461707065642C223022292C22252563222C486F6C65
310
3A6E6F6D696E616C202220782022293E3C696628657175616C28486F6C653A7461707065642C223022292C486F6C653A6469612C486F6C653A706974636864657363293E203C696628657175616C28486F6C653A7465726D696E6174696F6E2C223022292C22905B82B320222C222022293E3C696628657175616C28486F6C
310
653A7465726D696E6174696F6E2C223022292C486F6C653A64657074682C2222293E4069014051E4090E836583938376838C815B83672032405173D3C535444503A444553433E203C535444503A5354443E40690E836583938376838C815B836720314050C3D3C535444503A444553433E40690240515AAABBA120
360
18F32
330
18F32
360
18F33
330
18F33
360
18F31
330
18F31
360
18F30
360
18F2F
330
18F30
330
18F2F
 94
        0
  0
ACAD_PROXY_OBJECT
  5
18F34
330
17F
100
AcDbProxyObject
 90
      499
 91
      568
 95
       25
 70
     0
 93
       26
310
5DD02A80
340
42
 94
        0
  0
ACAD_PROXY_OBJECT
  5
18F35
330
17F
100
AcDbProxyObject
 90
      499
 91
      569
 95
       25
 70
     0
 93
      250
310
5DD020000000000000A1000000000000002440408F0F9023C3E409A0DCFFFF80
340
58
340
1B97
340
1B98
340
5F
340
60
340
61
340
62
340
63
340
68
340
0
 94
        0
  0
ACAD_PROXY_OBJECT
  5
18F36
330
17F
100
AcDbProxyObject
 90
      499
 91
      570
 95
       25
 70
     0
 93
    13889
310
5DD1D003FFFFFFFD030300030CCCCCCCCCCCC250200800030C01030300030CCCCCCCCCCCC250200800030C00050C8DC0955782CC838A83588367014ED1D15395149050D3CB1294138B0C0B23702555E0B320E2A0D620D9CB11D15395149055160B095CCB0A11D1539354D1C819D95B991A5B5E880CCC0A78000C0000000000
310
00000000000000000000010CCCCCCCCCCCC250200800030C010CCCCCCCCCCCC250200800030C020143CF4F111959985D5B1D151A5D1B194F8050A8C8A8365815B8375838B014E51D15395149050D3CB1294138B0C0B2322A0D96056E0DD60E2CB11D15395149055160B095CCB0A11D1539354D1C819D95B991A5B5E880CCC4
310
A78000C000000000000000000000000000000010CCCCCCCCCCCC250200800030C010CCCCCCCCCCCC250200800030C020143CF4F111959985D5B1D151A5D1B194F90D44111409034110541D0C4350F4050E44D03449074510F000141232D24D7C053247454E545241434F2C4A504E2C302C8CB4935F2C47454E54524154582C
310
25732C2847454E4D53472067656E64696D7A20312900010104002214000281464500A608E8A9CA8A482869E5894A09C5860591914588E8A9CA8A482A8B0584AE658508E8A9C9AA68E40CECADCC8D2DAF4406452029E9E9E27B934B3B4B71F1E24A31427A91424A9A12620A7259427B934B3B4B7149624A9A12620A7259424B
310
A32B6949496111116111711149F1E24BA32B69F00808200111A000140560052F47454E545241434F2C4A504E2C302C582C47454E54524154582C25732C2847454E4D53472067656E64696D7A20332900010100002054000280AC80A5E8E8A9CA8A482869E5894A09C586058B2588E8A9CA8A482A8B0584AE658508E8A9C9AA
310
68E40CECADCC8D2DAF4406852000202000040E800050152014BD1D15395149050D3CB1294138B0C0B148B11D15395149055160B095CCB0A11D1539354D1C819D95B991A5B5E880D8A400040400008250000A0507A6029823A2A72A2920A1A79625282716181641E99623A2A72A2920AA2C1612B9961423A2A726A9A39033B2
310
B73234B6BD101B948000808180105A000140A0F4C053047454E545241434F2C4A504E2C302C83D32C47454E54524154582C25732C2847454E4D53472067656E64696D7A203829000101010020F400028248704B5F00A668E8A9CA8A482869E5894A09C58605921C12D7C588E8A9CA8A482A8B0584AE658508E8A9C9AA68E40
310
CECADCC8D2DAF440646052000200080043280005048B4B8A69014CD1D15395149050D3CB1294138B0C0B22D2E29A4B11D15395149055160B095CCB0A11D1539354D1C819D95B991A5B5E880C8C4A4000400100086D0000A09196926BE029923A2A72A2920A1A796252827161816465A49AF9623A2A72A2920AA2C1612B9961
310
423A2A726A9A39033B2B73234B6BD10189480A02620202080043E80005048D8096DA014CD1D15395149050D3CB1294138B0C0B236025B68B11D15395149055160B095CCB0A11D1539354D1C819D95B991A5B5E880C4D0A4000404140280D0000A190687072706CD06C5069D06B0029DA3A2A72A2920A1A7962528271618164
310
1A1C1C9C1B341B141A741AC1623A2A72A2920AA2C1612B9961423A2A726A9A39033B2B73234B6BD10189A94800080820050EA000143A322A0D0E0E4E0D9A0D8A0D3A0D60053D47454E545241434F2C4A504E2C302C8C8A8343839383668362834E83582C47454E54524154582C25732C2847454E4D53472067656E64696D7A
310
2031372900010105002274000281464500A628E8A9CA8A482869E5894A09C5860591914588E8A9CA8A482A8B0584AE658508E8A9C9AA68E40CECADCC8D2DAF440626C52000202080044A8000504909497CA014CD1D15395149050D3CB1294138B0C0B242525F28B11D15395149055160B095CCB0A11D1539354D1C819D95B9
310
91A5B5E880C4E4A400040418008A521E000000000000001CA040C00000000000034408080000000000006881010000000000000D102040000000000001A204080000000000003440818000000000000728103000000000000125020600000000004028A040000000000000034408000000000000004881000000000000000D
310
102000000000000001A204000000000000003440818000000000000508143C0000000000000039408180000000000006881030000000000000D102060000000000001A2040C00000000000034408180000000000006881030000000000000E5020600000000000024A040C0000000000805140800000000000000688100000
310
00000000009102000000000000001A2040000000000000034408180000000000006881030000000000000A10284220000000878000002020000008380000020400000081800000208000000828000002028900000000
340
0
340
0
340
0
340
0
340
180
340
180
 94
        0
  0
ACAD_PROXY_OBJECT
  5
18F32
330
18F2E
100
AcDbProxyObject
 90
      499
 91
      567
 95
       25
 70
     0
 93
     1376
310
5DE0143A0D960E4E0DDA0E32056E0D9C80C405983D3C486F6C653A6469613E3C696628657175616C28486F6C653A7465726D696E6174696F6E2C223022292C2220905B82B320222C22208368838A838B22293E3C696628657175616C28486F6C653A7465726D696E6174696F6E2C223022292C486F6C653A64657074682C22
310
22293E2C203C486F6C653A63746469613E2082B482AE82E882CC905B82B3203C486F6C653A637464657074683E
  0
ACAD_PROXY_OBJECT
  5
18F33
330
18F2E
100
AcDbProxyObject
 90
      499
 91
      567
 95
       25
 70
     0
 93
     2072
310
5DE0143A0D960E4E0DDA0E32056E0D9C80C405EF3D3C486F6C653A6374616E676C653E252564202525633C486F6C653A63746469613E208E4D8C8A2C203C696628657175616C28486F6C653A7461707065642C223022292C22252563222C486F6C653A6E6F6D696E616C202220782022293E3C696628657175616C28486F6C
310
653A7461707065642C223022292C486F6C653A6469612C486F6C653A706974636864657363293E203C696628657175616C28486F6C653A7465726D696E6174696F6E2C223022292C22905B82B320222C222022293E3C696628657175616C28486F6C653A7465726D696E6174696F6E2C223022292C486F6C653A6465707468
310
2C2222293E
  0
ACAD_PROXY_OBJECT
  5
18F31
330
18F2E
100
AcDbProxyObject
 90
      499
 91
      567
 95
       25
 70
     0
 93
     1752
310
5DE0143A0D960E4E0DDA0E32056E0D9C80C405C73D3C696628657175616C28486F6C653A7461707065642C223022292C22252563222C486F6C653A6E6F6D696E616C202220782022293E3C696628657175616C28486F6C653A7461707065642C223022292C486F6C653A6469612C486F6C653A706974636864657363293E20
310
3C696628657175616C28486F6C653A7465726D696E6174696F6E2C223022292C22905B82B320222C222022293E3C696628657175616C28486F6C653A7465726D696E6174696F6E2C223022292C486F6C653A64657074682C2222293E
  0
ACAD_PROXY_OBJECT
  5
18F30
330
18F2E
100
AcDbProxyObject
 90
      499
 91
      567
 95
       25
 70
     0
 93
      344
310
5DE0143A0D960E4E0DDA0E32056E0D9C80C805173D3C535444503A444553433E203C535444503A5354443E
  0
ACAD_PROXY_OBJECT
  5
18F2F
330
18F2E
100
AcDbProxyObject
 90
      499
 91
      567
 95
       25
 70
     0
 93
      256
310
5DE0143A0D960E4E0DDA0E32056E0D9C80C4050C3D3C535444503A444553433E
  0
ENDSEC
  0
EOF
