  0
SECTION
  2
HEADER
  9
$ACADVER
  1
AC1014
  9
$ACADMAINTVER
 70
     0
  9
$DWGCODEPAGE
  3
ANSI_932
  9
$INSBASE
 10
723.147089
 20
59.042534
 30
0.0
  9
$EXTMIN
 10
723.047626
 20
27.968845
 30
0.0
  9
$EXTMAX
 10
995.715047
 20
148.222621
 30
0.0
  9
$LIMMIN
 10
-587.250952
 20
327.890188
  9
$LIMMAX
 10
600.749048
 20
957.890188
  9
$ORTHOMODE
 70
     1
  9
$REGENMODE
 70
     1
  9
$FILLMODE
 70
     1
  9
$QTEXTMODE
 70
     0
  9
$MIRRTEXT
 70
     1
  9
$DRAGMODE
 70
     2
  9
$LTSCALE
 40
5.0
  9
$OSMODE
 70
   303
  9
$ATTMODE
 70
     1
  9
$TEXTSIZE
 40
5.0
  9
$TRACEWID
 40
0.05
  9
$TEXTSTYLE
  7
STANDARD
  9
$CLAYER
  8
外形
  9
$CELTYPE
  6
CONTINUOUS
  9
$CECOLOR
 62
     3
  9
$CELTSCALE
 40
1.0
  9
$DELOBJ
 70
     1
  9
$DISPSILH
 70
     0
  9
$DIMSCALE
 40
1.0
  9
$DIMASZ
 40
2.0
  9
$DIMEXO
 40
1.0
  9
$DIMDLI
 40
8.0
  9
$DIMRND
 40
0.0
  9
$DIMDLE
 40
0.0
  9
$DIMEXE
 40
2.0
  9
$DIMTP
 40
0.0
  9
$DIMTM
 40
0.0
  9
$DIMTXT
 40
2.0
  9
$DIMCEN
 40
-1.0
  9
$DIMTSZ
 40
0.0
  9
$DIMTOL
 70
     0
  9
$DIMLIM
 70
     0
  9
$DIMTIH
 70
     0
  9
$DIMTOH
 70
     0
  9
$DIMSE1
 70
     0
  9
$DIMSE2
 70
     0
  9
$DIMTAD
 70
     1
  9
$DIMZIN
 70
     8
  9
$DIMBLK
  1

  9
$DIMASO
 70
     1
  9
$DIMSHO
 70
     1
  9
$DIMPOST
  1

  9
$DIMAPOST
  1

  9
$DIMALT
 70
     0
  9
$DIMALTD
 70
     2
  9
$DIMALTF
 40
25.4
  9
$DIMLFAC
 40
1.0
  9
$DIMTOFL
 70
     1
  9
$DIMTVP
 40
0.0
  9
$DIMTIX
 70
     0
  9
$DIMSOXD
 70
     0
  9
$DIMSAH
 70
     1
  9
$DIMBLK1
  1
_DOTSMALL
  9
$DIMBLK2
  1
_DOTSMALL
  9
$DIMSTYLE
  2
参考寸法
  9
$DIMCLRD
 70
     2
  9
$DIMCLRE
 70
     2
  9
$DIMCLRT
 70
     2
  9
$DIMTFAC
 40
1.0
  9
$DIMGAP
 40
1.0
  9
$DIMJUST
 70
     0
  9
$DIMSD1
 70
     0
  9
$DIMSD2
 70
     0
  9
$DIMTOLJ
 70
     1
  9
$DIMTZIN
 70
     8
  9
$DIMALTZ
 70
     0
  9
$DIMALTTZ
 70
     0
  9
$DIMFIT
 70
     3
  9
$DIMUPT
 70
     0
  9
$DIMUNIT
 70
     2
  9
$DIMDEC
 70
     3
  9
$DIMTDEC
 70
     2
  9
$DIMALTU
 70
     2
  9
$DIMALTTD
 70
     2
  9
$DIMTXSTY
  7
STANDARD
  9
$DIMAUNIT
 70
     0
  9
$LUNITS
 70
     2
  9
$LUPREC
 70
     3
  9
$SKETCHINC
 40
0.1
  9
$FILLETRAD
 40
1.0
  9
$AUNITS
 70
     0
  9
$AUPREC
 70
     3
  9
$MENU
  1
acad
  9
$ELEVATION
 40
0.0
  9
$PELEVATION
 40
0.0
  9
$THICKNESS
 40
0.0
  9
$LIMCHECK
 70
     0
  9
$BLIPMODE
 70
     0
  9
$CHAMFERA
 40
0.0
  9
$CHAMFERB
 40
0.0
  9
$CHAMFERC
 40
0.0
  9
$CHAMFERD
 40
0.0
  9
$SKPOLY
 70
     0
  9
$TDCREATE
 40
2450751.535399305
  9
$TDUPDATE
 40
2452009.486550926
  9
$TDINDWG
 40
4.0769782407
  9
$TDUSRTIMER
 40
4.0769782407
  9
$USRTIMER
 70
     1
  9
$ANGBASE
 50
0.0
  9
$ANGDIR
 70
     0
  9
$PDMODE
 70
    32
  9
$PDSIZE
 40
0.0
  9
$PLINEWID
 40
0.0
  9
$COORDS
 70
     2
  9
$SPLFRAME
 70
     0
  9
$SPLINETYPE
 70
     5
  9
$SPLINESEGS
 70
     8
  9
$ATTDIA
 70
     0
  9
$ATTREQ
 70
     1
  9
$HANDLING
 70
     1
  9
$HANDSEED
  5
3F7
  9
$SURFTAB1
 70
     6
  9
$SURFTAB2
 70
     6
  9
$SURFTYPE
 70
     6
  9
$SURFU
 70
     6
  9
$SURFV
 70
     6
  9
$UCSNAME
  2

  9
$UCSORG
 10
0.0
 20
0.0
 30
0.0
  9
$UCSXDIR
 10
1.0
 20
0.0
 30
0.0
  9
$UCSYDIR
 10
0.0
 20
1.0
 30
0.0
  9
$PUCSNAME
  2

  9
$PUCSORG
 10
0.0
 20
0.0
 30
0.0
  9
$PUCSXDIR
 10
1.0
 20
0.0
 30
0.0
  9
$PUCSYDIR
 10
0.0
 20
1.0
 30
0.0
  9
$USERI1
 70
     0
  9
$USERI2
 70
     0
  9
$USERI3
 70
     0
  9
$USERI4
 70
     0
  9
$USERI5
 70
     0
  9
$USERR1
 40
0.0
  9
$USERR2
 40
0.0
  9
$USERR3
 40
0.0
  9
$USERR4
 40
0.0
  9
$USERR5
 40
0.0
  9
$WORLDVIEW
 70
     1
  9
$SHADEDGE
 70
     3
  9
$SHADEDIF
 70
    70
  9
$TILEMODE
 70
     1
  9
$MAXACTVP
 70
    16
  9
$PINSBASE
 10
0.0
 20
0.0
 30
0.0
  9
$PLIMCHECK
 70
     0
  9
$PEXTMIN
 10
1.000000E+20
 20
1.000000E+20
 30
1.000000E+20
  9
$PEXTMAX
 10
-1.000000E+20
 20
-1.000000E+20
 30
-1.000000E+20
  9
$PLIMMIN
 10
0.0
 20
0.0
  9
$PLIMMAX
 10
12.0
 20
9.0
  9
$UNITMODE
 70
     0
  9
$VISRETAIN
 70
     0
  9
$PLINEGEN
 70
     0
  9
$PSLTSCALE
 70
     1
  9
$TREEDEPTH
 70
  3020
  9
$PICKSTYLE
 70
     1
  9
$CMLSTYLE
  2
STANDARD
  9
$CMLJUST
 70
     0
  9
$CMLSCALE
 40
1.0
  9
$PROXYGRAPHICS
 70
     1
  9
$MEASUREMENT
 70
     0
  0
ENDSEC
  0
SECTION
  2
CLASSES
  0
CLASS
  1
LWPOLYLINE
  2
AcDbPolyline
  3
"AutoCAD"
 90
        0
280
     0
281
     1
  0
CLASS
  1
ACDBDICTIONARYWDFLT
  2
AcDbDictionaryWithDefault
  3
AutoCAD 2000
 90
        0
280
     1
281
     0
  0
CLASS
  1
ACDBPLACEHOLDER
  2
AcDbPlaceHolder
  3
AutoCAD 2000
 90
        0
280
     1
281
     0
  0
CLASS
  1
LAYOUT
  2
AcDbLayout
  3
AutoCAD 2000
 90
        0
280
     1
281
     0
  0
CLASS
  1
LONG_TRANSACTION
  2
AcDbLongTransaction
  3
AutoCAD 2000
 90
        0
280
     1
281
     0
  0
CLASS
  1
LWPOLYLINE
  2
AcDbPolyline
  3
"AutoCAD"
 90
        0
280
     0
281
     1
  0
CLASS
  1
HATCH
  2
AcDbHatch
  3
"ACAD_SEDONA"
 90
        0
280
     0
281
     1
  0
CLASS
  1
XRECORD
  2
AcDbXrecord
  3
"<Built In>"
 90
        0
280
     0
281
     0
  0
CLASS
  1
DICTIONARYVAR
  2
AcDbDictionaryVar
  3
"AutoCAD"
 90
        0
280
     0
281
     0
  0
ENDSEC
  0
SECTION
  2
TABLES
  0
TABLE
  2
VPORT
  5
16
100
AcDbSymbolTable
 70
     1
  0
VPORT
  5
3F2
100
AcDbSymbolTableRecord
100
AcDbViewportTableRecord
  2
*ACTIVE
 70
     0
 10
0.0
 20
0.0
 11
1.0
 21
1.0
 12
863.81142
 22
90.496646
 13
0.0
 23
0.0
 14
1.0
 24
1.0
 15
10.0
 25
10.0
 16
0.0
 26
0.0
 36
1.0
 17
0.0
 27
0.0
 37
0.0
 40
185.176698
 41
1.710425
 42
50.0
 43
0.0
 44
0.0
 50
0.0
 51
0.0
 71
     0
 72
   100
 73
     1
 74
     1
 75
     0
 76
     0
 77
     0
 78
     2
  0
ENDTAB
  0
TABLE
  2
LTYPE
  5
11
100
AcDbSymbolTable
 70
     2
  0
LTYPE
  5
12
100
AcDbSymbolTableRecord
100
AcDbLinetypeTableRecord
  2
BYBLOCK
 70
     0
  3

 72
    65
 73
     0
 40
0.0
  0
LTYPE
  5
13
100
AcDbSymbolTableRecord
100
AcDbLinetypeTableRecord
  2
BYLAYER
 70
     0
  3

 72
    65
 73
     0
 40
0.0
  0
LTYPE
  5
7
100
AcDbSymbolTableRecord
100
AcDbLinetypeTableRecord
  2
CONTINUOUS
 70
     0
  3
Solid line
 72
    65
 73
     0
 40
0.0
  0
LTYPE
  5
4B
100
AcDbSymbolTableRecord
100
AcDbLinetypeTableRecord
  2
CENTER
 70
     0
  3
Center ____ _ ____ _ ____ _ ____ _ ____ _ ____
 72
    65
 73
     4
 40
2.0
 49
1.25
 74
     0
 49
-0.25
 74
     0
 49
0.25
 74
     0
 49
-0.25
 74
     0
  0
ENDTAB
  0
TABLE
  2
LAYER
  5
E
100
AcDbSymbolTable
 70
     5
  0
LAYER
  5
6
100
AcDbSymbolTableRecord
100
AcDbLayerTableRecord
  2
0
 70
     0
 62
     7
  6
CONTINUOUS
  0
LAYER
  5
1F
100
AcDbSymbolTableRecord
100
AcDbLayerTableRecord
  2
外形
 70
     0
 62
     4
  6
CONTINUOUS
  0
LAYER
  5
43
102
{ACAD_XDICTIONARY
360
44
102
}
100
AcDbSymbolTableRecord
100
AcDbLayerTableRecord
  2
DEFPOINTS
 70
     0
 62
     7
  6
CONTINUOUS
  0
LAYER
  5
31
100
AcDbSymbolTableRecord
100
AcDbLayerTableRecord
  2
寸法
 70
     0
 62
     1
  6
CONTINUOUS
  0
LAYER
  5
63
100
AcDbSymbolTableRecord
100
AcDbLayerTableRecord
  2
参考
 70
     0
 62
     2
  6
CONTINUOUS
  0
ENDTAB
  0
TABLE
  2
STYLE
  5
F
100
AcDbSymbolTable
 70
     1
  0
STYLE
  5
10
100
AcDbSymbolTableRecord
100
AcDbTextStyleTableRecord
  2
STANDARD
 70
     0
 40
0.0
 41
1.0
 50
0.0
 71
     0
 42
5.0
  3
MONOTXT
  4
BIGFONT
  0
ENDTAB
  0
TABLE
  2
VIEW
  5
14
100
AcDbSymbolTable
 70
     0
  0
ENDTAB
  0
TABLE
  2
UCS
  5
15
100
AcDbSymbolTable
 70
     0
  0
ENDTAB
  0
TABLE
  2
APPID
  5
18
100
AcDbSymbolTable
 70
     1
  0
APPID
  5
19
100
AcDbSymbolTableRecord
100
AcDbRegAppTableRecord
  2
ACAD
 70
     0
  0
ENDTAB
  0
TABLE
  2
DIMSTYLE
  5
1A
100
AcDbSymbolTable
 70
     2
  0
DIMSTYLE
105
32
102
{ACAD_XDICTIONARY
360
33
102
}
102
{ACAD_REACTORS
330
4F
330
18E
330
17E
330
30
330
F7
330
73
330
E8
330
D1
102
}
100
AcDbSymbolTableRecord
100
AcDbDimStyleTableRecord
  2
STANDARD
 70
     0
  3

  4

  5

  6
_OPEN30
  7
_OPEN30
 40
0.0
 41
2.0
 42
1.0
 43
8.0
 44
2.0
 45
0.0
 46
0.0
 47
0.0
 48
0.0
140
3.0
141
-1.0
142
0.0
143
25.4
144
1.0
145
0.0
146
1.0
147
1.0
 71
     0
 72
     0
 73
     0
 74
     0
 75
     0
 76
     0
 77
     1
 78
     8
170
     0
171
     2
172
     1
173
     1
174
     0
175
     0
176
     1
177
     1
178
     3
270
     2
271
     2
272
     2
273
     2
274
     2
340
10
275
     0
280
     0
281
     0
282
     0
283
     1
284
     8
285
     0
286
     0
287
     3
288
     0
  0
DIMSTYLE
105
21
102
{ACAD_REACTORS
330
97
330
134
330
145
330
128
330
DE
330
62
330
86
330
10D
330
C3
330
AB
102
}
100
AcDbSymbolTableRecord
100
AcDbDimStyleTableRecord
  2
参考寸法
 70
     0
  3

  4

  5

  6
_DOTSMALL
  7
_DOTSMALL
 40
1.0
 41
2.0
 42
1.0
 43
8.0
 44
2.0
 45
0.0
 46
0.0
 47
0.0
 48
0.0
140
2.0
141
-1.0
142
0.0
143
25.4
144
1.0
145
0.0
146
1.0
147
1.0
 71
     0
 72
     0
 73
     0
 74
     0
 75
     0
 76
     0
 77
     1
 78
     8
170
     0
171
     2
172
     1
173
     1
174
     0
175
     0
176
     2
177
     2
178
     2
270
     2
271
     3
272
     2
273
     2
274
     2
340
10
275
     0
280
     0
281
     0
282
     0
283
     1
284
     8
285
     0
286
     0
287
     3
288
     0
  0
ENDTAB
  0
TABLE
  2
BLOCK_RECORD
  5
1
100
AcDbSymbolTable
 70
    39
  0
BLOCK_RECORD
  5
2
102
{ACAD_XDICTIONARY
360
3
102
}
100
AcDbSymbolTableRecord
100
AcDbBlockTableRecord
  2
*MODEL_SPACE
  0
BLOCK_RECORD
  5
9
102
{ACAD_XDICTIONARY
360
A
102
}
100
AcDbSymbolTableRecord
100
AcDbBlockTableRecord
  2
*PAPER_SPACE
  0
BLOCK_RECORD
  5
22
100
AcDbSymbolTableRecord
100
AcDbBlockTableRecord
  2
_DOTSMALL
  0
BLOCK_RECORD
  5
35
100
AcDbSymbolTableRecord
100
AcDbBlockTableRecord
  2
_OPEN30
  0
BLOCK_RECORD
  5
50
100
AcDbSymbolTableRecord
100
AcDbBlockTableRecord
  2
*D2
  0
BLOCK_RECORD
  5
98
100
AcDbSymbolTableRecord
100
AcDbBlockTableRecord
  2
*D3
  0
BLOCK_RECORD
  5
3B
100
AcDbSymbolTableRecord
100
AcDbBlockTableRecord
  2
*D4
  0
BLOCK_RECORD
  5
D2
100
AcDbSymbolTableRecord
100
AcDbBlockTableRecord
  2
*D5
  0
BLOCK_RECORD
  5
C4
100
AcDbSymbolTableRecord
100
AcDbBlockTableRecord
  2
*D6
  0
BLOCK_RECORD
  5
DF
100
AcDbSymbolTableRecord
100
AcDbBlockTableRecord
  2
*D7
  0
BLOCK_RECORD
  5
F8
100
AcDbSymbolTableRecord
100
AcDbBlockTableRecord
  2
*D8
  0
BLOCK_RECORD
  5
87
100
AcDbSymbolTableRecord
100
AcDbBlockTableRecord
  2
*D9
  0
BLOCK_RECORD
  5
64
100
AcDbSymbolTableRecord
100
AcDbBlockTableRecord
  2
*D10
  0
BLOCK_RECORD
  5
10E
100
AcDbSymbolTableRecord
100
AcDbBlockTableRecord
  2
*D11
  0
BLOCK_RECORD
  5
129
100
AcDbSymbolTableRecord
100
AcDbBlockTableRecord
  2
*D12
  0
BLOCK_RECORD
  5
146
100
AcDbSymbolTableRecord
100
AcDbBlockTableRecord
  2
*D13
  0
BLOCK_RECORD
  5
17F
100
AcDbSymbolTableRecord
100
AcDbBlockTableRecord
  2
*D14
  0
BLOCK_RECORD
  5
E9
100
AcDbSymbolTableRecord
100
AcDbBlockTableRecord
  2
*D15
  0
BLOCK_RECORD
  5
18F
100
AcDbSymbolTableRecord
100
AcDbBlockTableRecord
  2
*D16
  0
BLOCK_RECORD
  5
135
100
AcDbSymbolTableRecord
100
AcDbBlockTableRecord
  2
*D17
  0
BLOCK_RECORD
  5
74
100
AcDbSymbolTableRecord
100
AcDbBlockTableRecord
  2
*D18
  0
BLOCK_RECORD
  5
AC
100
AcDbSymbolTableRecord
100
AcDbBlockTableRecord
  2
*D19
  0
BLOCK_RECORD
  5
2A
100
AcDbSymbolTableRecord
100
AcDbBlockTableRecord
  2
2
  0
BLOCK_RECORD
  5
230
100
AcDbSymbolTableRecord
100
AcDbBlockTableRecord
  2
*D21
  0
BLOCK_RECORD
  5
23C
100
AcDbSymbolTableRecord
100
AcDbBlockTableRecord
  2
*D22
  0
BLOCK_RECORD
  5
25A
100
AcDbSymbolTableRecord
100
AcDbBlockTableRecord
  2
*D24
  0
BLOCK_RECORD
  5
29F
100
AcDbSymbolTableRecord
100
AcDbBlockTableRecord
  2
*D29
  0
BLOCK_RECORD
  5
2B4
100
AcDbSymbolTableRecord
100
AcDbBlockTableRecord
  2
*D31
  0
BLOCK_RECORD
  5
303
100
AcDbSymbolTableRecord
100
AcDbBlockTableRecord
  2
*D37
  0
BLOCK_RECORD
  5
30F
100
AcDbSymbolTableRecord
100
AcDbBlockTableRecord
  2
*D38
  0
ENDTAB
  0
ENDSEC
  0
SECTION
  2
BLOCKS
  0
BLOCK
  5
5
100
AcDbEntity
  8
0
100
AcDbBlockBegin
  2
*MODEL_SPACE
 70
     0
 10
0.0
 20
0.0
 30
0.0
  3
*MODEL_SPACE
  1

  0
ENDBLK
  5
8
100
AcDbEntity
  8
0
100
AcDbBlockEnd
  0
BLOCK
  5
C
100
AcDbEntity
 67
     1
  8
0
100
AcDbBlockBegin
  2
*PAPER_SPACE
 70
     0
 10
0.0
 20
0.0
 30
0.0
  3
*PAPER_SPACE
  1

  0
ENDBLK
  5
D
100
AcDbEntity
 67
     1
  8
0
100
AcDbBlockEnd
  0
BLOCK
  5
27
100
AcDbEntity
  8
0
100
AcDbBlockBegin
  2
_DOTSMALL
 70
     0
 10
0.0
 20
0.0
 30
0.0
  3
_DOTSMALL
  1

  0
POLYLINE
  5
23
100
AcDbEntity
  8
0
  6
BYBLOCK
 62
     0
100
AcDb2dPolyline
 66
     1
 10
0.0
 20
0.0
 30
0.0
 70
     1
 40
0.5
 41
0.5
  0
VERTEX
  5
24
100
AcDbEntity
  8
0
  6
BYBLOCK
 62
     0
100
AcDbVertex
100
AcDb2dVertex
 10
-0.0625
 20
0.0
 30
0.0
 42
1.0
  0
VERTEX
  5
25
100
AcDbEntity
  8
0
  6
BYBLOCK
 62
     0
100
AcDbVertex
100
AcDb2dVertex
 10
0.0625
 20
0.0
 30
0.0
 42
1.0
  0
SEQEND
  5
26
100
AcDbEntity
  8
0
  6
BYBLOCK
 62
     0
  0
ENDBLK
  5
28
100
AcDbEntity
  8
0
100
AcDbBlockEnd
  0
BLOCK
  5
39
100
AcDbEntity
  8
0
100
AcDbBlockBegin
  2
_OPEN30
 70
     0
 10
0.0
 20
0.0
 30
0.0
  3
_OPEN30
  1

  0
LINE
  5
36
100
AcDbEntity
  8
0
  6
BYBLOCK
 62
     0
100
AcDbLine
 10
-1.0
 20
0.267949
 30
0.0
 11
0.0
 21
0.0
 31
0.0
  0
LINE
  5
37
100
AcDbEntity
  8
0
  6
BYBLOCK
 62
     0
100
AcDbLine
 10
0.0
 20
0.0
 30
0.0
 11
-1.0
 21
-0.267949
 31
0.0
  0
LINE
  5
38
100
AcDbEntity
  8
0
  6
BYBLOCK
 62
     0
100
AcDbLine
 10
0.0
 20
0.0
 30
0.0
 11
-1.0
 21
0.0
 31
0.0
  0
ENDBLK
  5
3A
100
AcDbEntity
  8
0
100
AcDbBlockEnd
  0
BLOCK
  5
5F
100
AcDbEntity
  8
0
100
AcDbBlockBegin
  2
*D2
 70
     1
 10
0.0
 20
0.0
 30
0.0
  3
*D2
  1

  0
LINE
  5
51
100
AcDbEntity
  8
0
  6
BYBLOCK
 62
     1
100
AcDbLine
 10
-132.345297
 20
463.342222
 30
0.0
 11
-147.942697
 21
464.706817
 31
0.0
  0
ARC
  5
52
100
AcDbEntity
  8
0
  6
BYBLOCK
 62
     1
100
AcDbCircle
 10
-131.349103
 20
463.255066
 30
0.0
 40
14.656979
100
AcDbArc
 50
159.314615
 51
175.0
  0
LINE
  5
53
100
AcDbEntity
  8
0
  6
BYBLOCK
 62
     1
100
AcDbLine
 10
-145.061207
 20
468.432442
 30
0.0
 11
-142.023376
 21
476.478036
 31
0.0
  0
ARC
  5
54
100
AcDbEntity
  8
0
  6
BYBLOCK
 62
     1
100
AcDbCircle
 10
-131.349103
 20
463.255066
 30
0.0
 40
14.656979
100
AcDbArc
 50
159.351394
 51
167.175697
  0
ARC
  5
55
100
AcDbEntity
  8
0
  6
BYBLOCK
 62
     1
100
AcDbCircle
 10
-131.349103
 20
463.255066
 30
0.0
 40
14.656979
100
AcDbArc
 50
187.824303
 51
195.648606
  0
ARC
  5
56
100
AcDbEntity
  8
0
  6
BYBLOCK
 62
     1
100
AcDbCircle
 10
-131.349103
 20
463.255066
 30
0.0
 40
14.656979
100
AcDbArc
 50
175.0
 51
180.0
  0
INSERT
  5
57
100
AcDbEntity
  8
0
  6
BYBLOCK
 62
     1
100
AcDbBlockReference
  2
_OPEN30
 10
-145.950307
 20
464.532506
 30
0.0
 41
2.0
 42
2.0
 43
2.0
 50
261.087848
  0
INSERT
  5
58
100
AcDbEntity
  8
0
  6
BYBLOCK
 62
     1
100
AcDbBlockReference
  2
_OPEN30
 10
-146.006082
 20
463.255066
 30
0.0
 41
2.0
 42
2.0
 43
2.0
 50
93.912152
  0
MTEXT
  5
59
100
AcDbEntity
  8
0
  6
BYBLOCK
 62
     3
100
AcDbMText
 10
-145.881127
 20
473.338329
 30
0.0
 40
3.0
 41
0.0
 71
     5
 72
     1
  1
\A1;5°
 11
0.353236
 21
0.935534
 31
0.0
  0
POINT
  5
5A
100
AcDbEntity
  8
DEFPOINTS
  6
BYBLOCK
 62
     0
100
AcDbPoint
 10
-145.999881
 20
463.68136
 30
0.0
  0
POINT
  5
5B
100
AcDbEntity
  8
DEFPOINTS
  6
BYBLOCK
 62
     0
100
AcDbPoint
 10
-131.349103
 20
463.255066
 30
0.0
  0
POINT
  5
5C
100
AcDbEntity
  8
DEFPOINTS
  6
BYBLOCK
 62
     0
100
AcDbPoint
 10
-150.850765
 20
463.255066
 30
0.0
  0
POINT
  5
5D
100
AcDbEntity
  8
DEFPOINTS
  6
BYBLOCK
 62
     0
100
AcDbPoint
 10
76.134803
 20
463.255066
 30
0.0
  0
POINT
  5
5E
100
AcDbEntity
  8
DEFPOINTS
  6
BYBLOCK
 62
     0
100
AcDbPoint
 10
-122.159673
 20
462.451095
 30
0.0
  0
ENDBLK
  5
60
100
AcDbEntity
  8
0
100
AcDbBlockEnd
  0
BLOCK
  5
A2
100
AcDbEntity
  8
0
100
AcDbBlockBegin
  2
*D3
 70
     1
 10
0.0
 20
0.0
 30
0.0
  3
*D3
  1

  0
LINE
  5
99
100
AcDbEntity
  8
0
  6
BYBLOCK
 62
     2
100
AcDbLine
 10
-109.349103
 20
471.755066
 30
0.0
 11
-109.349103
 21
478.547473
 31
0.0
  0
LINE
  5
9A
100
AcDbEntity
  8
0
  6
BYBLOCK
 62
     2
100
AcDbLine
 10
-131.349103
 20
464.255066
 30
0.0
 11
-131.349103
 21
478.547473
 31
0.0
  0
LINE
  5
9B
100
AcDbEntity
  8
0
  6
BYBLOCK
 62
     2
100
AcDbLine
 10
-109.349103
 20
476.547473
 30
0.0
 11
-131.349103
 21
476.547473
 31
0.0
  0
INSERT
  5
9C
100
AcDbEntity
  8
0
  6
BYBLOCK
 62
     2
100
AcDbBlockReference
  2
_DOTSMALL
 10
-109.349103
 20
476.547473
 30
0.0
  0
INSERT
  5
9D
100
AcDbEntity
  8
0
  6
BYBLOCK
 62
     2
100
AcDbBlockReference
  2
_DOTSMALL
 10
-131.349103
 20
476.547473
 30
0.0
 50
180.0
  0
MTEXT
  5
9E
100
AcDbEntity
  8
0
  6
BYBLOCK
 62
     2
100
AcDbMText
 10
-120.349103
 20
478.297473
 30
0.0
 40
1.5
 41
0.0
 71
     5
 72
     1
  1
\A1;22
  0
POINT
  5
9F
100
AcDbEntity
  8
DEFPOINTS
  6
BYBLOCK
 62
     0
100
AcDbPoint
 10
-109.349103
 20
470.755066
 30
0.0
  0
POINT
  5
A0
100
AcDbEntity
  8
DEFPOINTS
  6
BYBLOCK
 62
     0
100
AcDbPoint
 10
-131.349103
 20
463.255066
 30
0.0
  0
POINT
  5
A1
100
AcDbEntity
  8
DEFPOINTS
  6
BYBLOCK
 62
     0
100
AcDbPoint
 10
-131.349103
 20
476.547473
 30
0.0
  0
ENDBLK
  5
A3
100
AcDbEntity
  8
0
100
AcDbBlockEnd
  0
BLOCK
  5
48
100
AcDbEntity
  8
0
100
AcDbBlockBegin
  2
*D4
 70
     1
 10
0.0
 20
0.0
 30
0.0
  3
*D4
  1

  0
LINE
  5
3C
100
AcDbEntity
  8
0
  6
BYBLOCK
 62
     1
100
AcDbLine
 10
-131.349103
 20
509.190967
 30
0.0
 11
-131.349103
 21
486.264001
 31
0.0
  0
LINE
  5
3D
100
AcDbEntity
  8
0
  6
BYBLOCK
 62
     1
100
AcDbLine
 10
68.646809
 20
512.190967
 30
0.0
 11
68.646809
 21
486.264001
 31
0.0
  0
LINE
  5
3E
100
AcDbEntity
  8
0
  6
BYBLOCK
 62
     1
100
AcDbLine
 10
-129.349103
 20
488.264001
 30
0.0
 11
66.646809
 21
488.264001
 31
0.0
  0
INSERT
  5
3F
100
AcDbEntity
  8
0
  6
BYBLOCK
 62
     1
100
AcDbBlockReference
  2
_OPEN30
 10
-131.349103
 20
488.264001
 30
0.0
 41
2.0
 42
2.0
 43
2.0
 50
180.0
  0
INSERT
  5
40
100
AcDbEntity
  8
0
  6
BYBLOCK
 62
     1
100
AcDbBlockReference
  2
_OPEN30
 10
68.646809
 20
488.264001
 30
0.0
 41
2.0
 42
2.0
 43
2.0
  0
MTEXT
  5
41
100
AcDbEntity
  8
0
  6
BYBLOCK
 62
     3
100
AcDbMText
 10
-31.351147
 20
490.764001
 30
0.0
 40
3.0
 41
0.0
 71
     5
 72
     1
  1
\A1;200
  0
POINT
  5
42
100
AcDbEntity
  8
DEFPOINTS
  6
BYBLOCK
 62
     0
100
AcDbPoint
 10
-131.349103
 20
510.190967
 30
0.0
  0
POINT
  5
46
100
AcDbEntity
  8
DEFPOINTS
  6
BYBLOCK
 62
     0
100
AcDbPoint
 10
68.646809
 20
513.190967
 30
0.0
  0
POINT
  5
47
100
AcDbEntity
  8
DEFPOINTS
  6
BYBLOCK
 62
     0
100
AcDbPoint
 10
68.646809
 20
488.264001
 30
0.0
  0
ENDBLK
  5
49
100
AcDbEntity
  8
0
100
AcDbBlockEnd
  0
BLOCK
  5
DC
100
AcDbEntity
  8
0
100
AcDbBlockBegin
  2
*D5
 70
     1
 10
0.0
 20
0.0
 30
0.0
  3
*D5
  1

  0
LINE
  5
D3
100
AcDbEntity
  8
0
  6
BYBLOCK
 62
     1
100
AcDbLine
 10
183.796136
 20
679.938239
 30
0.0
 11
169.682454
 21
679.938239
 31
0.0
  0
LINE
  5
D4
100
AcDbEntity
  8
0
  6
BYBLOCK
 62
     1
100
AcDbLine
 10
175.02601
 20
689.938239
 30
0.0
 11
169.682454
 21
689.938239
 31
0.0
  0
LINE
  5
D5
100
AcDbEntity
  8
0
  6
BYBLOCK
 62
     1
100
AcDbLine
 10
171.682454
 20
681.938239
 30
0.0
 11
171.682454
 21
687.938239
 31
0.0
  0
INSERT
  5
D6
100
AcDbEntity
  8
0
  6
BYBLOCK
 62
     1
100
AcDbBlockReference
  2
_OPEN30
 10
171.682454
 20
679.938239
 30
0.0
 41
2.0
 42
2.0
 43
2.0
 50
270.0
  0
INSERT
  5
D7
100
AcDbEntity
  8
0
  6
BYBLOCK
 62
     1
100
AcDbBlockReference
  2
_OPEN30
 10
171.682454
 20
689.938239
 30
0.0
 41
2.0
 42
2.0
 43
2.0
 50
90.0
  0
MTEXT
  5
D8
100
AcDbEntity
  8
0
  6
BYBLOCK
 62
     3
100
AcDbMText
 10
169.182454
 20
684.938239
 30
0.0
 40
3.0
 41
0.0
 71
     5
 72
     1
  1
\A1;10
 11
0.0
 21
1.0
 31
0.0
  0
POINT
  5
D9
100
AcDbEntity
  8
DEFPOINTS
  6
BYBLOCK
 62
     0
100
AcDbPoint
 10
184.796136
 20
679.938239
 30
0.0
  0
POINT
  5
DA
100
AcDbEntity
  8
DEFPOINTS
  6
BYBLOCK
 62
     0
100
AcDbPoint
 10
176.02601
 20
689.938239
 30
0.0
  0
POINT
  5
DB
100
AcDbEntity
  8
DEFPOINTS
  6
BYBLOCK
 62
     0
100
AcDbPoint
 10
171.682454
 20
689.938239
 30
0.0
  0
ENDBLK
  5
DD
100
AcDbEntity
  8
0
100
AcDbBlockEnd
  0
BLOCK
  5
CF
100
AcDbEntity
  8
0
100
AcDbBlockBegin
  2
*D6
 70
     1
 10
0.0
 20
0.0
 30
0.0
  3
*D6
  1

  0
LINE
  5
C5
100
AcDbEntity
  8
0
  6
BYBLOCK
 62
     2
100
AcDbLine
 10
184.796136
 20
678.938239
 30
0.0
 11
184.796136
 21
672.007013
 31
0.0
  0
LINE
  5
C6
100
AcDbEntity
  8
0
  6
BYBLOCK
 62
     2
100
AcDbLine
 10
182.456136
 20
687.67168
 30
0.0
 11
182.456136
 21
672.007013
 31
0.0
  0
LINE
  5
C7
100
AcDbEntity
  8
0
  6
BYBLOCK
 62
     2
100
AcDbLine
 10
184.796136
 20
674.007013
 30
0.0
 11
182.456136
 21
674.007013
 31
0.0
  0
LINE
  5
C8
100
AcDbEntity
  8
0
  6
BYBLOCK
 62
     2
100
AcDbLine
 10
182.456136
 20
674.007013
 30
0.0
 11
173.956136
 21
674.007013
 31
0.0
  0
INSERT
  5
C9
100
AcDbEntity
  8
0
  6
BYBLOCK
 62
     2
100
AcDbBlockReference
  2
_DOTSMALL
 10
184.796136
 20
674.007013
 30
0.0
  0
INSERT
  5
CA
100
AcDbEntity
  8
0
  6
BYBLOCK
 62
     2
100
AcDbBlockReference
  2
_DOTSMALL
 10
182.456136
 20
674.007013
 30
0.0
 50
180.0
  0
MTEXT
  5
CB
100
AcDbEntity
  8
0
  6
BYBLOCK
 62
     2
100
AcDbMText
 10
177.706136
 20
675.757013
 30
0.0
 40
1.5
 41
0.0
 71
     5
 72
     1
  1
\A1;2.34
  0
POINT
  5
CC
100
AcDbEntity
  8
DEFPOINTS
  6
BYBLOCK
 62
     0
100
AcDbPoint
 10
184.796136
 20
679.938239
 30
0.0
  0
POINT
  5
CD
100
AcDbEntity
  8
DEFPOINTS
  6
BYBLOCK
 62
     0
100
AcDbPoint
 10
182.456136
 20
688.67168
 30
0.0
  0
POINT
  5
CE
100
AcDbEntity
  8
DEFPOINTS
  6
BYBLOCK
 62
     0
100
AcDbPoint
 10
182.456136
 20
674.007013
 30
0.0
  0
ENDBLK
  5
D0
100
AcDbEntity
  8
0
100
AcDbBlockEnd
  0
BLOCK
  5
E6
100
AcDbEntity
  8
0
100
AcDbBlockBegin
  2
*D7
 70
     1
 10
0.0
 20
0.0
 30
0.0
  3
*D7
  1

  0
LINE
  5
E0
100
AcDbEntity
  8
0
  6
BYBLOCK
 62
     2
100
AcDbLine
 10
171.224207
 20
694.172153
 30
0.0
 11
182.482197
 21
688.934667
 31
0.0
  0
MTEXT
  5
E1
100
AcDbEntity
  8
0
  6
BYBLOCK
 62
     2
100
AcDbMText
 10
175.36244
 20
694.177059
 30
0.0
 40
1.5
 41
0.0
 71
     5
 72
     1
  1
\A1;R0.4
 11
0.906684
 21
-0.421811
 31
0.0
  0
LINE
  5
E2
100
AcDbEntity
  8
0
  6
BYBLOCK
 62
     2
100
AcDbLine
 10
182.844871
 20
688.765942
 30
0.0
 11
182.482197
 21
688.934667
 31
0.0
  0
INSERT
  5
E3
100
AcDbEntity
  8
0
  6
BYBLOCK
 62
     2
100
AcDbBlockReference
  2
_DOTSMALL
 10
182.482197
 20
688.934667
 30
0.0
 50
335.051024
  0
POINT
  5
E4
100
AcDbEntity
  8
DEFPOINTS
  6
BYBLOCK
 62
     0
100
AcDbPoint
 10
182.482197
 20
688.934667
 30
0.0
  0
POINT
  5
E5
100
AcDbEntity
  8
DEFPOINTS
  6
BYBLOCK
 62
     0
100
AcDbPoint
 10
182.844871
 20
688.765942
 30
0.0
  0
ENDBLK
  5
E7
100
AcDbEntity
  8
0
100
AcDbBlockEnd
  0
BLOCK
  5
104
100
AcDbEntity
  8
0
100
AcDbBlockBegin
  2
*D8
 70
     1
 10
0.0
 20
0.0
 30
0.0
  3
*D8
  1

  0
LINE
  5
F9
100
AcDbEntity
  8
0
  6
BYBLOCK
 62
     1
100
AcDbLine
 10
175.02601
 20
689.938239
 30
0.0
 11
169.682454
 21
689.938239
 31
0.0
  0
LINE
  5
FA
100
AcDbEntity
  8
0
  6
BYBLOCK
 62
     1
100
AcDbLine
 10
182.10782
 20
693.938239
 30
0.0
 11
169.682454
 21
693.938239
 31
0.0
  0
LINE
  5
FB
100
AcDbEntity
  8
0
  6
BYBLOCK
 62
     1
100
AcDbLine
 10
171.682454
 20
687.938239
 30
0.0
 11
171.682454
 21
685.938239
 31
0.0
  0
LINE
  5
FC
100
AcDbEntity
  8
0
  6
BYBLOCK
 62
     1
100
AcDbLine
 10
171.682454
 20
695.938239
 30
0.0
 11
171.682454
 21
697.938239
 31
0.0
  0
LINE
  5
FD
100
AcDbEntity
  8
0
  6
BYBLOCK
 62
     1
100
AcDbLine
 10
171.682454
 20
689.938239
 30
0.0
 11
171.682454
 21
693.938239
 31
0.0
  0
INSERT
  5
FE
100
AcDbEntity
  8
0
  6
BYBLOCK
 62
     1
100
AcDbBlockReference
  2
_OPEN30
 10
171.682454
 20
689.938239
 30
0.0
 41
2.0
 42
2.0
 43
2.0
 50
90.0
  0
INSERT
  5
FF
100
AcDbEntity
  8
0
  6
BYBLOCK
 62
     1
100
AcDbBlockReference
  2
_OPEN30
 10
171.682454
 20
693.938239
 30
0.0
 41
2.0
 42
2.0
 43
2.0
 50
270.0
  0
MTEXT
  5
100
100
AcDbEntity
  8
0
  6
BYBLOCK
 62
     3
100
AcDbMText
 10
169.182454
 20
691.938239
 30
0.0
 40
3.0
 41
0.0
 71
     5
 72
     1
  1
\A1;4
 11
0.0
 21
1.0
 31
0.0
  0
POINT
  5
101
100
AcDbEntity
  8
DEFPOINTS
  6
BYBLOCK
 62
     0
100
AcDbPoint
 10
176.02601
 20
689.938239
 30
0.0
  0
POINT
  5
102
100
AcDbEntity
  8
DEFPOINTS
  6
BYBLOCK
 62
     0
100
AcDbPoint
 10
183.10782
 20
693.938239
 30
0.0
  0
POINT
  5
103
100
AcDbEntity
  8
DEFPOINTS
  6
BYBLOCK
 62
     0
100
AcDbPoint
 10
171.682454
 20
693.938239
 30
0.0
  0
ENDBLK
  5
105
100
AcDbEntity
  8
0
100
AcDbBlockEnd
  0
BLOCK
  5
93
100
AcDbEntity
  8
0
100
AcDbBlockBegin
  2
*D9
 70
     1
 10
0.0
 20
0.0
 30
0.0
  3
*D9
  1

  0
LINE
  5
88
100
AcDbEntity
  8
0
  6
BYBLOCK
 62
     2
100
AcDbLine
 10
119.792025
 20
689.938239
 30
0.0
 11
114.110708
 21
689.938239
 31
0.0
  0
LINE
  5
89
100
AcDbEntity
  8
0
  6
BYBLOCK
 62
     2
100
AcDbLine
 10
119.792025
 20
688.438239
 30
0.0
 11
114.110708
 21
688.438239
 31
0.0
  0
LINE
  5
8A
100
AcDbEntity
  8
0
  6
BYBLOCK
 62
     2
100
AcDbLine
 10
116.110708
 20
689.938239
 30
0.0
 11
116.110708
 21
690.938239
 31
0.0
  0
LINE
  5
8B
100
AcDbEntity
  8
0
  6
BYBLOCK
 62
     2
100
AcDbLine
 10
116.110708
 20
688.438239
 30
0.0
 11
116.110708
 21
680.438239
 31
0.0
  0
LINE
  5
8C
100
AcDbEntity
  8
0
  6
BYBLOCK
 62
     2
100
AcDbLine
 10
116.110708
 20
689.938239
 30
0.0
 11
116.110708
 21
688.438239
 31
0.0
  0
INSERT
  5
8D
100
AcDbEntity
  8
0
  6
BYBLOCK
 62
     2
100
AcDbBlockReference
  2
_DOTSMALL
 10
116.110708
 20
689.938239
 30
0.0
 50
270.0
  0
INSERT
  5
8E
100
AcDbEntity
  8
0
  6
BYBLOCK
 62
     2
100
AcDbBlockReference
  2
_DOTSMALL
 10
116.110708
 20
688.438239
 30
0.0
 50
90.0
  0
MTEXT
  5
8F
100
AcDbEntity
  8
0
  6
BYBLOCK
 62
     2
100
AcDbMText
 10
114.360708
 20
683.438239
 30
0.0
 40
1.5
 41
0.0
 71
     5
 72
     1
  1
\A1;1.5
 11
0.0
 21
1.0
 31
0.0
  0
POINT
  5
90
100
AcDbEntity
  8
DEFPOINTS
  6
BYBLOCK
 62
     0
100
AcDbPoint
 10
120.792025
 20
689.938239
 30
0.0
  0
POINT
  5
91
100
AcDbEntity
  8
DEFPOINTS
  6
BYBLOCK
 62
     0
100
AcDbPoint
 10
120.792025
 20
688.438239
 30
0.0
  0
POINT
  5
92
100
AcDbEntity
  8
DEFPOINTS
  6
BYBLOCK
 62
     0
100
AcDbPoint
 10
116.110708
 20
688.438239
 30
0.0
  0
ENDBLK
  5
94
100
AcDbEntity
  8
0
100
AcDbBlockEnd
  0
BLOCK
  5
6F
100
AcDbEntity
  8
0
100
AcDbBlockBegin
  2
*D10
 70
     1
 10
0.0
 20
0.0
 30
0.0
  3
*D10
  1

  0
LINE
  5
65
100
AcDbEntity
  8
0
  6
BYBLOCK
 62
     2
100
AcDbLine
 10
132.80498
 20
678.940675
 30
0.0
 11
132.418164
 21
673.408949
 31
0.0
  0
LINE
  5
66
100
AcDbEntity
  8
0
  6
BYBLOCK
 62
     2
100
AcDbLine
 10
129.632727
 20
679.162501
 30
0.0
 11
129.245911
 21
673.630774
 31
0.0
  0
LINE
  5
67
100
AcDbEntity
  8
0
  6
BYBLOCK
 62
     2
100
AcDbLine
 10
132.557677
 20
675.404077
 30
0.0
 11
129.385424
 21
675.625902
 31
0.0
  0
LINE
  5
68
100
AcDbEntity
  8
0
  6
BYBLOCK
 62
     2
100
AcDbLine
 10
129.385424
 20
675.625902
 30
0.0
 11
120.906129
 21
676.218832
 31
0.0
  0
INSERT
  5
69
100
AcDbEntity
  8
0
  6
BYBLOCK
 62
     2
100
AcDbBlockReference
  2
_DOTSMALL
 10
132.557677
 20
675.404077
 30
0.0
 50
356.0
  0
INSERT
  5
6A
100
AcDbEntity
  8
0
  6
BYBLOCK
 62
     2
100
AcDbBlockReference
  2
_DOTSMALL
 10
129.385424
 20
675.625902
 30
0.0
 50
176.0
  0
MTEXT
  5
6B
100
AcDbEntity
  8
0
  6
BYBLOCK
 62
     2
100
AcDbMText
 10
124.769068
 20
677.702983
 30
0.0
 40
1.5
 41
0.0
 71
     5
 72
     1
  1
\A1;3.18
 11
0.997564
 21
-0.069756
 31
0.0
  0
POINT
  5
6C
100
AcDbEntity
  8
DEFPOINTS
  6
BYBLOCK
 62
     0
100
AcDbPoint
 10
132.874737
 20
679.938239
 30
0.0
  0
POINT
  5
6D
100
AcDbEntity
  8
DEFPOINTS
  6
BYBLOCK
 62
     0
100
AcDbPoint
 10
129.702483
 20
680.160065
 30
0.0
  0
POINT
  5
6E
100
AcDbEntity
  8
DEFPOINTS
  6
BYBLOCK
 62
     0
100
AcDbPoint
 10
129.385424
 20
675.625902
 30
0.0
  0
ENDBLK
  5
70
100
AcDbEntity
  8
0
100
AcDbBlockEnd
  0
BLOCK
  5
11A
100
AcDbEntity
  8
0
100
AcDbBlockBegin
  2
*D11
 70
     1
 10
0.0
 20
0.0
 30
0.0
  3
*D11
  1

  0
LINE
  5
10F
100
AcDbEntity
  8
0
  6
BYBLOCK
 62
     2
100
AcDbLine
 10
-183.270502
 20
506.745232
 30
0.0
 11
-183.270502
 21
500.257423
 31
0.0
  0
LINE
  5
110
100
AcDbEntity
  8
0
  6
BYBLOCK
 62
     2
100
AcDbLine
 10
-183.190502
 20
506.745232
 30
0.0
 11
-183.190502
 21
500.257423
 31
0.0
  0
LINE
  5
111
100
AcDbEntity
  8
0
  6
BYBLOCK
 62
     2
100
AcDbLine
 10
-183.270502
 20
502.257423
 30
0.0
 11
-184.270502
 21
502.257423
 31
0.0
  0
LINE
  5
112
100
AcDbEntity
  8
0
  6
BYBLOCK
 62
     2
100
AcDbLine
 10
-183.190502
 20
502.257423
 30
0.0
 11
-173.690502
 21
502.257423
 31
0.0
  0
LINE
  5
113
100
AcDbEntity
  8
0
  6
BYBLOCK
 62
     2
100
AcDbLine
 10
-183.270502
 20
502.257423
 30
0.0
 11
-183.190502
 21
502.257423
 31
0.0
  0
INSERT
  5
114
100
AcDbEntity
  8
0
  6
BYBLOCK
 62
     2
100
AcDbBlockReference
  2
_DOTSMALL
 10
-183.270502
 20
502.257423
 30
0.0
  0
INSERT
  5
115
100
AcDbEntity
  8
0
  6
BYBLOCK
 62
     2
100
AcDbBlockReference
  2
_DOTSMALL
 10
-183.190502
 20
502.257423
 30
0.0
 50
180.0
  0
MTEXT
  5
116
100
AcDbEntity
  8
0
  6
BYBLOCK
 62
     2
100
AcDbMText
 10
-177.440502
 20
504.007423
 30
0.0
 40
1.5
 41
0.0
 71
     5
 72
     1
  1
\A1;0.08
  0
POINT
  5
117
100
AcDbEntity
  8
DEFPOINTS
  6
BYBLOCK
 62
     0
100
AcDbPoint
 10
-183.270502
 20
507.745232
 30
0.0
  0
POINT
  5
118
100
AcDbEntity
  8
DEFPOINTS
  6
BYBLOCK
 62
     0
100
AcDbPoint
 10
-183.190502
 20
507.745232
 30
0.0
  0
POINT
  5
119
100
AcDbEntity
  8
DEFPOINTS
  6
BYBLOCK
 62
     0
100
AcDbPoint
 10
-183.190502
 20
502.257423
 30
0.0
  0
ENDBLK
  5
11B
100
AcDbEntity
  8
0
100
AcDbBlockEnd
  0
BLOCK
  5
131
100
AcDbEntity
  8
0
100
AcDbBlockBegin
  2
*D12
 70
     1
 10
0.0
 20
0.0
 30
0.0
  3
*D12
  1

  0
LINE
  5
12A
100
AcDbEntity
  8
0
  6
BYBLOCK
 62
     2
100
AcDbLine
 10
204.111379
 20
698.874681
 30
0.0
 11
191.855084
 21
688.719706
 31
0.0
  0
MTEXT
  5
12B
100
AcDbEntity
  8
0
  6
BYBLOCK
 62
     2
100
AcDbMText
 10
198.952211
 20
696.872685
 30
0.0
 40
1.5
 41
0.0
 71
     5
 72
     1
  1
\A1;\U+22059.525
 11
0.770029
 21
0.638009
 31
0.0
  0
LINE
  5
12C
100
AcDbEntity
  8
0
  6
BYBLOCK
 62
     2
100
AcDbLine
 10
184.520557
 20
682.642672
 30
0.0
 11
191.855084
 21
688.719706
 31
0.0
  0
INSERT
  5
12D
100
AcDbEntity
  8
0
  6
BYBLOCK
 62
     2
100
AcDbBlockReference
  2
_DOTSMALL
 10
184.520557
 20
682.642672
 30
0.0
 50
39.643505
  0
INSERT
  5
12E
100
AcDbEntity
  8
0
  6
BYBLOCK
 62
     2
100
AcDbBlockReference
  2
_DOTSMALL
 10
191.855084
 20
688.719706
 30
0.0
 50
219.643505
  0
POINT
  5
12F
100
AcDbEntity
  8
DEFPOINTS
  6
BYBLOCK
 62
     0
100
AcDbPoint
 10
191.855084
 20
688.719706
 30
0.0
  0
POINT
  5
130
100
AcDbEntity
  8
DEFPOINTS
  6
BYBLOCK
 62
     0
100
AcDbPoint
 10
184.520557
 20
682.642672
 30
0.0
  0
ENDBLK
  5
132
100
AcDbEntity
  8
0
100
AcDbBlockEnd
  0
BLOCK
  5
151
100
AcDbEntity
  8
0
100
AcDbBlockBegin
  2
*D13
 70
     1
 10
0.0
 20
0.0
 30
0.0
  3
*D13
  1

  0
LINE
  5
147
100
AcDbEntity
  8
0
  6
BYBLOCK
 62
     2
100
AcDbLine
 10
186.03781
 20
684.681189
 30
0.0
 11
186.03781
 21
673.202374
 31
0.0
  0
LINE
  5
148
100
AcDbEntity
  8
0
  6
BYBLOCK
 62
     2
100
AcDbLine
 10
190.33783
 20
684.681189
 30
0.0
 11
190.33783
 21
673.202374
 31
0.0
  0
LINE
  5
149
100
AcDbEntity
  8
0
  6
BYBLOCK
 62
     2
100
AcDbLine
 10
186.03781
 20
675.202374
 30
0.0
 11
190.33783
 21
675.202374
 31
0.0
  0
LINE
  5
14A
100
AcDbEntity
  8
0
  6
BYBLOCK
 62
     2
100
AcDbLine
 10
190.33783
 20
675.202374
 30
0.0
 11
197.33783
 21
675.202374
 31
0.0
  0
INSERT
  5
14B
100
AcDbEntity
  8
0
  6
BYBLOCK
 62
     2
100
AcDbBlockReference
  2
_DOTSMALL
 10
186.03781
 20
675.202374
 30
0.0
 50
180.0
  0
INSERT
  5
14C
100
AcDbEntity
  8
0
  6
BYBLOCK
 62
     2
100
AcDbBlockReference
  2
_DOTSMALL
 10
190.33783
 20
675.202374
 30
0.0
  0
MTEXT
  5
14D
100
AcDbEntity
  8
0
  6
BYBLOCK
 62
     2
100
AcDbMText
 10
194.33783
 20
676.952374
 30
0.0
 40
1.5
 41
0.0
 71
     5
 72
     1
  1
\A1;4.3
  0
POINT
  5
14E
100
AcDbEntity
  8
DEFPOINTS
  6
BYBLOCK
 62
     0
100
AcDbPoint
 10
186.03781
 20
685.681189
 30
0.0
  0
POINT
  5
14F
100
AcDbEntity
  8
DEFPOINTS
  6
BYBLOCK
 62
     0
100
AcDbPoint
 10
190.33783
 20
685.681189
 30
0.0
  0
POINT
  5
150
100
AcDbEntity
  8
DEFPOINTS
  6
BYBLOCK
 62
     0
100
AcDbPoint
 10
190.33783
 20
675.202374
 30
0.0
  0
ENDBLK
  5
152
100
AcDbEntity
  8
0
100
AcDbBlockEnd
  0
BLOCK
  5
189
100
AcDbEntity
  8
0
100
AcDbBlockBegin
  2
*D14
 70
     1
 10
0.0
 20
0.0
 30
0.0
  3
*D14
  1

  0
LINE
  5
180
100
AcDbEntity
  8
0
  6
BYBLOCK
 62
     1
100
AcDbLine
 10
367.292048
 20
686.154357
 30
0.0
 11
367.292048
 21
663.659654
 31
0.0
  0
LINE
  5
181
100
AcDbEntity
  8
0
  6
BYBLOCK
 62
     1
100
AcDbLine
 10
382.292048
 20
686.154357
 30
0.0
 11
382.292048
 21
663.659654
 31
0.0
  0
LINE
  5
182
100
AcDbEntity
  8
0
  6
BYBLOCK
 62
     1
100
AcDbLine
 10
369.292048
 20
665.659654
 30
0.0
 11
380.292048
 21
665.659654
 31
0.0
  0
INSERT
  5
183
100
AcDbEntity
  8
0
  6
BYBLOCK
 62
     1
100
AcDbBlockReference
  2
_OPEN30
 10
367.292048
 20
665.659654
 30
0.0
 41
2.0
 42
2.0
 43
2.0
 50
180.0
  0
INSERT
  5
184
100
AcDbEntity
  8
0
  6
BYBLOCK
 62
     1
100
AcDbBlockReference
  2
_OPEN30
 10
382.292048
 20
665.659654
 30
0.0
 41
2.0
 42
2.0
 43
2.0
  0
MTEXT
  5
185
100
AcDbEntity
  8
0
  6
BYBLOCK
 62
     3
100
AcDbMText
 10
374.792048
 20
668.159654
 30
0.0
 40
3.0
 41
0.0
 71
     5
 72
     1
  1
\A1;15
  0
POINT
  5
186
100
AcDbEntity
  8
DEFPOINTS
  6
BYBLOCK
 62
     0
100
AcDbPoint
 10
367.292048
 20
687.154357
 30
0.0
  0
POINT
  5
187
100
AcDbEntity
  8
DEFPOINTS
  6
BYBLOCK
 62
     0
100
AcDbPoint
 10
382.292048
 20
687.154357
 30
0.0
  0
POINT
  5
188
100
AcDbEntity
  8
DEFPOINTS
  6
BYBLOCK
 62
     0
100
AcDbPoint
 10
382.292048
 20
665.659654
 30
0.0
  0
ENDBLK
  5
18A
100
AcDbEntity
  8
0
100
AcDbBlockEnd
  0
BLOCK
  5
F5
100
AcDbEntity
  8
0
100
AcDbBlockBegin
  2
*D15
 70
     1
 10
0.0
 20
0.0
 30
0.0
  3
*D15
  1

  0
LINE
  5
EA
100
AcDbEntity
  8
0
  6
BYBLOCK
 62
     1
100
AcDbLine
 10
182.199681
 20
689.628341
 30
0.0
 11
177.653549
 21
706.594738
 31
0.0
  0
LINE
  5
EB
100
AcDbEntity
  8
0
  6
BYBLOCK
 62
     1
100
AcDbLine
 10
183.796136
 20
679.938239
 30
0.0
 11
157.199298
 21
679.938239
 31
0.0
  0
ARC
  5
EC
100
AcDbEntity
  8
0
  6
BYBLOCK
 62
     1
100
AcDbCircle
 10
184.796136
 20
679.938239
 30
0.0
 40
25.596838
100
AcDbArc
 50
109.477925
 51
175.522075
  0
INSERT
  5
ED
100
AcDbEntity
  8
0
  6
BYBLOCK
 62
     1
100
AcDbBlockReference
  2
_OPEN30
 10
178.171187
 20
704.662887
 30
0.0
 41
2.0
 42
2.0
 43
2.0
 50
17.238963
  0
INSERT
  5
EE
100
AcDbEntity
  8
0
  6
BYBLOCK
 62
     1
100
AcDbBlockReference
  2
_OPEN30
 10
159.199298
 20
679.938239
 30
0.0
 41
2.0
 42
2.0
 43
2.0
 50
267.761037
  0
MTEXT
  5
EF
100
AcDbEntity
  8
0
  6
BYBLOCK
 62
     3
100
AcDbMText
 10
162.505416
 20
697.042511
 30
0.0
 40
3.0
 41
0.0
 71
     5
 72
     1
  1
\A1;75°
 11
0.608761
 21
0.793353
 31
0.0
  0
POINT
  5
F0
100
AcDbEntity
  8
DEFPOINTS
  6
BYBLOCK
 62
     0
100
AcDbPoint
 10
168.342806
 20
699.546555
 30
0.0
  0
POINT
  5
F1
100
AcDbEntity
  8
DEFPOINTS
  6
BYBLOCK
 62
     0
100
AcDbPoint
 10
182.4585
 20
688.662415
 30
0.0
  0
POINT
  5
F2
100
AcDbEntity
  8
DEFPOINTS
  6
BYBLOCK
 62
     0
100
AcDbPoint
 10
185.155728
 20
679.938239
 30
0.0
  0
POINT
  5
F3
100
AcDbEntity
  8
DEFPOINTS
  6
BYBLOCK
 62
     0
100
AcDbPoint
 10
184.796136
 20
679.938239
 30
0.0
  0
POINT
  5
F4
100
AcDbEntity
  8
DEFPOINTS
  6
BYBLOCK
 62
     0
100
AcDbPoint
 10
184.716697
 20
680.234712
 30
0.0
  0
ENDBLK
  5
F6
100
AcDbEntity
  8
0
100
AcDbBlockEnd
  0
BLOCK
  5
198
100
AcDbEntity
  8
0
100
AcDbBlockBegin
  2
*D16
 70
     1
 10
0.0
 20
0.0
 30
0.0
  3
*D16
  1

  0
LINE
  5
190
100
AcDbEntity
  8
0
  6
BYBLOCK
 62
     1
100
AcDbLine
 10
391.305365
 20
709.420701
 30
0.0
 11
381.257893
 21
697.566663
 31
0.0
  0
LINE
  5
191
100
AcDbEntity
  8
0
  6
BYBLOCK
 62
     1
100
AcDbLine
 10
368.326203
 20
682.309816
 30
0.0
 11
367.033034
 21
680.784131
 31
0.0
  0
MTEXT
  5
192
100
AcDbEntity
  8
0
  6
BYBLOCK
 62
     3
100
AcDbMText
 10
386.165337
 20
707.22295
 30
0.0
 40
3.0
 41
0.0
 71
     5
 72
     1
  1
\A1;\U+220516
 11
0.646585
 21
0.762842
 31
0.0
  0
LINE
  5
193
100
AcDbEntity
  8
0
  6
BYBLOCK
 62
     1
100
AcDbLine
 10
369.619372
 20
683.835501
 30
0.0
 11
379.964724
 21
696.040978
 31
0.0
  0
INSERT
  5
194
100
AcDbEntity
  8
0
  6
BYBLOCK
 62
     1
100
AcDbBlockReference
  2
_OPEN30
 10
369.619372
 20
683.835501
 30
0.0
 41
2.0
 42
2.0
 43
2.0
 50
49.715419
  0
INSERT
  5
195
100
AcDbEntity
  8
0
  6
BYBLOCK
 62
     1
100
AcDbBlockReference
  2
_OPEN30
 10
379.964724
 20
696.040978
 30
0.0
 41
2.0
 42
2.0
 43
2.0
 50
229.715419
  0
POINT
  5
196
100
AcDbEntity
  8
DEFPOINTS
  6
BYBLOCK
 62
     0
100
AcDbPoint
 10
379.964724
 20
696.040978
 30
0.0
  0
POINT
  5
197
100
AcDbEntity
  8
DEFPOINTS
  6
BYBLOCK
 62
     0
100
AcDbPoint
 10
369.619372
 20
683.835501
 30
0.0
  0
ENDBLK
  5
199
100
AcDbEntity
  8
0
100
AcDbBlockEnd
  0
BLOCK
  5
141
100
AcDbEntity
  8
0
100
AcDbBlockBegin
  2
*D17
 70
     1
 10
0.0
 20
0.0
 30
0.0
  3
*D17
  1

  0
LINE
  5
136
100
AcDbEntity
  8
0
  6
BYBLOCK
 62
     2
100
AcDbLine
 10
190.469036
 20
698.188239
 30
0.0
 11
194.144376
 21
700.310198
 31
0.0
  0
LINE
  5
137
100
AcDbEntity
  8
0
  6
BYBLOCK
 62
     2
100
AcDbLine
 10
183.10782
 20
694.938239
 30
0.0
 11
183.10782
 21
706.682156
 31
0.0
  0
ARC
  5
138
100
AcDbEntity
  8
0
  6
BYBLOCK
 62
     2
100
AcDbCircle
 10
183.10782
 20
693.938239
 30
0.0
 40
10.743916
100
AcDbArc
 50
30.0
 51
90.0
  0
INSERT
  5
139
100
AcDbEntity
  8
0
  6
BYBLOCK
 62
     2
100
AcDbBlockReference
  2
_DOTSMALL
 10
192.412325
 20
699.310198
 30
0.0
 50
300.0
  0
INSERT
  5
13A
100
AcDbEntity
  8
0
  6
BYBLOCK
 62
     2
100
AcDbBlockReference
  2
_DOTSMALL
 10
183.10782
 20
704.682156
 30
0.0
 50
180.0
  0
MTEXT
  5
13B
100
AcDbEntity
  8
0
  6
BYBLOCK
 62
     2
100
AcDbMText
 10
189.354778
 20
704.758288
 30
0.0
 40
1.5
 41
0.0
 71
     5
 72
     1
  1
\A1;60°
 11
0.866025
 21
-0.5
 31
0.0
  0
POINT
  5
13C
100
AcDbEntity
  8
DEFPOINTS
  6
BYBLOCK
 62
     0
100
AcDbPoint
 10
190.013877
 20
702.168557
 30
0.0
  0
POINT
  5
13D
100
AcDbEntity
  8
DEFPOINTS
  6
BYBLOCK
 62
     0
100
AcDbPoint
 10
183.10782
 20
693.938239
 30
0.0
  0
POINT
  5
13E
100
AcDbEntity
  8
DEFPOINTS
  6
BYBLOCK
 62
     0
100
AcDbPoint
 10
183.10782
 20
693.938239
 30
0.0
  0
POINT
  5
13F
100
AcDbEntity
  8
DEFPOINTS
  6
BYBLOCK
 62
     0
100
AcDbPoint
 10
189.603011
 20
697.688239
 30
0.0
  0
POINT
  5
140
100
AcDbEntity
  8
DEFPOINTS
  6
BYBLOCK
 62
     0
100
AcDbPoint
 10
183.10782
 20
689.25051
 30
0.0
  0
ENDBLK
  5
142
100
AcDbEntity
  8
0
100
AcDbBlockEnd
  0
BLOCK
  5
84
100
AcDbEntity
  8
0
100
AcDbBlockBegin
  2
*D18
 70
     1
 10
0.0
 20
0.0
 30
0.0
  3
*D18
  1

  0
LINE
  5
75
100
AcDbEntity
  8
0
  6
BYBLOCK
 62
     1
100
AcDbLine
 10
132.80498
 20
678.940675
 30
0.0
 11
131.583315
 21
661.470042
 31
0.0
  0
LINE
  5
76
100
AcDbEntity
  8
0
  6
BYBLOCK
 62
     1
100
AcDbLine
 10
132.874737
 20
674.492505
 30
0.0
 11
132.874737
 21
661.424945
 31
0.0
  0
ARC
  5
77
100
AcDbEntity
  8
0
  6
BYBLOCK
 62
     1
100
AcDbCircle
 10
132.874737
 20
679.938239
 30
0.0
 40
16.513295
100
AcDbArc
 50
252.08714
 51
266.0
  0
LINE
  5
78
100
AcDbEntity
  8
0
  6
BYBLOCK
 62
     1
100
AcDbLine
 10
127.79574
 20
664.22542
 30
0.0
 11
119.612621
 21
666.870524
 31
0.0
  0
ARC
  5
79
100
AcDbEntity
  8
0
  6
BYBLOCK
 62
     1
100
AcDbCircle
 10
132.874737
 20
679.938239
 30
0.0
 40
16.513295
100
AcDbArc
 50
252.1128
 51
259.0564
  0
ARC
  5
7A
100
AcDbEntity
  8
0
  6
BYBLOCK
 62
     1
100
AcDbCircle
 10
132.874737
 20
679.938239
 30
0.0
 40
16.513295
100
AcDbArc
 50
276.9436
 51
283.8872
  0
ARC
  5
7B
100
AcDbEntity
  8
0
  6
BYBLOCK
 62
     1
100
AcDbCircle
 10
132.874737
 20
679.938239
 30
0.0
 40
16.513295
100
AcDbArc
 50
266.0
 51
270.0
  0
INSERT
  5
7C
100
AcDbEntity
  8
0
  6
BYBLOCK
 62
     1
100
AcDbBlockReference
  2
_OPEN30
 10
131.722828
 20
663.46517
 30
0.0
 41
2.0
 42
2.0
 43
2.0
 50
352.5282
  0
INSERT
  5
7D
100
AcDbEntity
  8
0
  6
BYBLOCK
 62
     1
100
AcDbBlockReference
  2
_OPEN30
 10
132.874737
 20
663.424945
 30
0.0
 41
2.0
 42
2.0
 43
2.0
 50
183.4718
  0
MTEXT
  5
7E
100
AcDbEntity
  8
0
  6
BYBLOCK
 62
     3
100
AcDbMText
 10
124.473106
 20
667.926785
 30
0.0
 40
3.0
 41
0.0
 71
     5
 72
     1
  1
\A1;4°
 11
0.951525
 21
-0.30757
 31
0.0
  0
POINT
  5
7F
100
AcDbEntity
  8
DEFPOINTS
  6
BYBLOCK
 62
     0
100
AcDbPoint
 10
132.49049
 20
663.429416
 30
0.0
  0
POINT
  5
80
100
AcDbEntity
  8
DEFPOINTS
  6
BYBLOCK
 62
     0
100
AcDbPoint
 10
132.874737
 20
700.383974
 30
0.0
  0
POINT
  5
81
100
AcDbEntity
  8
DEFPOINTS
  6
BYBLOCK
 62
     0
100
AcDbPoint
 10
133.716425
 20
691.974946
 30
0.0
  0
POINT
  5
82
100
AcDbEntity
  8
DEFPOINTS
  6
BYBLOCK
 62
     0
100
AcDbPoint
 10
132.874737
 20
679.938239
 30
0.0
  0
POINT
  5
83
100
AcDbEntity
  8
DEFPOINTS
  6
BYBLOCK
 62
     0
100
AcDbPoint
 10
132.874737
 20
675.492505
 30
0.0
  0
ENDBLK
  5
85
100
AcDbEntity
  8
0
100
AcDbBlockEnd
  0
BLOCK
  5
B6
100
AcDbEntity
  8
0
100
AcDbBlockBegin
  2
*D19
 70
     1
 10
0.0
 20
0.0
 30
0.0
  3
*D19
  1

  0
LINE
  5
AD
100
AcDbEntity
  8
0
  6
BYBLOCK
 62
     2
100
AcDbLine
 10
-131.349103
 20
454.211294
 30
0.0
 11
-131.349103
 21
446.812448
 31
0.0
  0
LINE
  5
AE
100
AcDbEntity
  8
0
  6
BYBLOCK
 62
     2
100
AcDbLine
 10
-124.549103
 20
454.505066
 30
0.0
 11
-124.549103
 21
446.812448
 31
0.0
  0
LINE
  5
AF
100
AcDbEntity
  8
0
  6
BYBLOCK
 62
     2
100
AcDbLine
 10
-131.349103
 20
448.812448
 30
0.0
 11
-124.549103
 21
448.812448
 31
0.0
  0
INSERT
  5
B0
100
AcDbEntity
  8
0
  6
BYBLOCK
 62
     2
100
AcDbBlockReference
  2
_DOTSMALL
 10
-131.349103
 20
448.812448
 30
0.0
 50
180.0
  0
INSERT
  5
B1
100
AcDbEntity
  8
0
  6
BYBLOCK
 62
     2
100
AcDbBlockReference
  2
_DOTSMALL
 10
-124.549103
 20
448.812448
 30
0.0
  0
MTEXT
  5
B2
100
AcDbEntity
  8
0
  6
BYBLOCK
 62
     2
100
AcDbMText
 10
-127.949103
 20
450.562448
 30
0.0
 40
1.5
 41
0.0
 71
     5
 72
     1
  1
\A1;6.8
  0
POINT
  5
B3
100
AcDbEntity
  8
DEFPOINTS
  6
BYBLOCK
 62
     0
100
AcDbPoint
 10
-131.349103
 20
455.211294
 30
0.0
  0
POINT
  5
B4
100
AcDbEntity
  8
DEFPOINTS
  6
BYBLOCK
 62
     0
100
AcDbPoint
 10
-124.549103
 20
455.505066
 30
0.0
  0
POINT
  5
B5
100
AcDbEntity
  8
DEFPOINTS
  6
BYBLOCK
 62
     0
100
AcDbPoint
 10
-124.549103
 20
448.812448
 30
0.0
  0
ENDBLK
  5
B7
100
AcDbEntity
  8
0
100
AcDbBlockEnd
  0
BLOCK
  5
1A7
100
AcDbEntity
  8
0
100
AcDbBlockBegin
  2
2
 70
     0
 10
0.0
 20
0.0
 30
0.0
  3
2
  1

  0
TEXT
  5
2B
100
AcDbEntity
  8
外形
  6
CONTINUOUS
 62
     2
100
AcDbText
 10
139.507232
 20
-21.600762
 30
0.0
 40
6.0
  1
BBPS-316R
100
AcDbText
  0
LINE
  5
2C
100
AcDbEntity
  8
外形
  6
CONTINUOUS
100
AcDbLine
 10
193.699621
 20
82.373497
 30
0.0
 11
84.468415
 21
82.373497
 31
0.0
  0
LINE
  5
2D
100
AcDbEntity
  8
外形
  6
CONTINUOUS
100
AcDbLine
 10
193.699621
 20
77.15738
 30
0.0
 11
84.206731
 21
77.15738
 31
0.0
  0
LINE
  5
2E
100
AcDbEntity
  8
外形
  6
CONTINUOUS
100
AcDbLine
 10
193.699621
 20
71.589615
 30
0.0
 11
85.453709
 21
71.589615
 31
0.0
  0
LINE
  5
2F
100
AcDbEntity
  8
外形
  6
CONTINUOUS
100
AcDbLine
 10
193.699621
 20
66.373497
 30
0.0
 11
84.468415
 21
66.373497
 31
0.0
  0
DIMENSION
  5
30
100
AcDbEntity
  8
寸法
  6
CONTINUOUS
100
AcDbDimension
  2
*D4
 10
263.199621
 20
42.446531
 30
0.0
 11
163.201665
 21
44.946531
 31
0.0
 12
194.552811
 22
-445.81747
 32
0.0
  3
STANDARD
100
AcDbAlignedDimension
 13
63.203709
 23
64.373497
 33
0.0
 14
263.199621
 24
67.373497
 34
0.0
100
AcDbRotatedDimension
1001
ACAD
1000
DSTYLE
1002
{
1070
    40
1040
1.0
1002
}
  0
LINE
  5
4A
100
AcDbEntity
  8
外形
  6
CENTER
 62
     1
100
AcDbLine
 10
54.433583
 20
74.373497
 30
0.0
 11
270.687615
 21
74.373497
 31
0.0
  0
LINE
  5
4C
100
AcDbEntity
  8
外形
  6
CENTER
 62
     1
100
AcDbLine
 10
43.702047
 20
17.437596
 30
0.0
 11
270.687615
 21
17.437596
 31
0.0
  0
LINE
  5
4D
100
AcDbEntity
  8
外形
  6
CONTINUOUS
100
AcDbLine
 10
70.003709
 20
9.937596
 30
0.0
 11
262.199621
 21
9.937596
 31
0.0
  0
LINE
  5
4E
100
AcDbEntity
  8
外形
  6
CONTINUOUS
100
AcDbLine
 10
85.203709
 20
24.937596
 30
0.0
 11
262.199621
 21
24.937596
 31
0.0
  0
DIMENSION
  5
4F
100
AcDbEntity
  8
寸法
  6
CONTINUOUS
100
AcDbDimension
  2
*D2
 10
72.393138
 20
16.633625
 30
0.0
 11
48.671685
 21
27.52086
 31
0.0
 12
194.552811
 22
-445.81747
 32
0.0
 70
     2
  3
STANDARD
100
AcDb2LineAngularDimension
 13
43.702047
 23
17.437596
 33
0.0
 14
270.687615
 24
17.437596
 34
0.0
 15
63.203709
 25
17.437596
 35
0.0
 16
48.55293
 26
17.86389
 36
0.0
1001
ACAD
1000
DSTYLE
1002
{
1070
    40
1040
1.0
1002
}
  0
MTEXT
  5
61
102
{ACAD_REACTORS
330
120
102
}
100
AcDbEntity
  8
寸法
  6
CONTINUOUS
 62
     3
100
AcDbMText
 10
28.874257
 20
97.153013
 30
0.0
 40
3.0
 41
0.0
 71
     4
 72
     1
  1
%%c20最小加工径
  0
DIMENSION
  5
62
100
AcDbEntity
  8
参考
  6
CONTINUOUS
100
AcDbDimension
  2
*D10
 10
7.792996
 20
60.06116
 30
0.0
 11
3.176641
 21
62.138241
 31
0.0
 12
-121.592427
 22
-615.564742
 32
0.0
 70
     1
  3
参考寸法
100
AcDbAlignedDimension
 13
11.28231
 23
64.373497
 33
0.0
 14
8.110056
 24
64.595323
 34
0.0
1001
ACAD
1000
DSTYLE
1002
{
1070
   140
1040
1.5
1070
    41
1040
1.0
1002
}
  0
LINE
  5
71
100
AcDbEntity
  8
外形
  6
CENTER
 62
     1
100
AcDbLine
 10
23.365021
 20
74.373497
 30
0.0
 11
-0.800402
 21
74.373497
 31
0.0
  0
LINE
  5
72
100
AcDbEntity
  8
外形
  6
CENTER
 62
     1
100
AcDbLine
 10
23.365021
 20
72.873497
 30
0.0
 11
-0.800402
 21
72.873497
 31
0.0
  0
DIMENSION
  5
73
100
AcDbEntity
  8
寸法
  6
CONTINUOUS
100
AcDbDimension
  2
*D18
 10
11.28231
 20
59.927763
 30
0.0
 11
2.880679
 21
52.362043
 31
0.0
 12
-121.592427
 22
-615.564742
 32
0.0
 70
     2
  3
STANDARD
100
AcDb2LineAngularDimension
 13
12.123998
 23
76.410204
 33
0.0
 14
11.28231
 24
64.373497
 34
0.0
 15
11.28231
 25
84.819232
 35
0.0
 16
10.898062
 26
47.864674
 36
0.0
1001
ACAD
1000
DSTYLE
1002
{
1070
    40
1040
1.0
1002
}
  0
DIMENSION
  5
86
100
AcDbEntity
  8
参考
  6
CONTINUOUS
100
AcDbDimension
  2
*D9
 10
-5.48172
 20
72.873497
 30
0.0
 11
-7.23172
 21
67.873497
 31
0.0
 12
-121.592427
 22
-615.564742
 32
0.0
  3
参考寸法
100
AcDbAlignedDimension
 13
-0.800402
 23
74.373497
 33
0.0
 14
-0.800402
 24
72.873497
 34
0.0
 50
90.0
100
AcDbRotatedDimension
1001
ACAD
1000
DSTYLE
1002
{
1070
   140
1040
1.5
1070
    41
1040
1.0
1002
}
  0
SPLINE
  5
95
100
AcDbEntity
  8
外形
  6
CONTINUOUS
100
AcDbSpline
210
0.0
220
0.0
230
1.0
 70
     8
 71
     3
 72
     8
 73
     4
 74
     0
 42
0.0000001
 43
0.0000001
 40
0.0
 40
0.0
 40
0.0
 40
0.0
 40
4.296442058183304
 40
4.296442058183304
 40
4.296442058183304
 40
4.296442058183304
 10
85.2037088098517
 20
24.93759634795242
 30
0.0
 10
84.44616247830195
 20
21.46887965980636
 30
0.0
 10
83.68861614675175
 20
20.00016297165552
 30
0.0
 10
72.67664305099121
 20
17.62232414853644
 30
0.0
  0
SPLINE
  5
96
100
AcDbEntity
  8
外形
  6
CONTINUOUS
100
AcDbSpline
210
0.0
220
0.0
230
-1.0
 70
     8
 71
     3
 72
     9
 73
     5
 74
     0
 42
0.0000001
 43
0.0000001
 40
0.0
 40
0.0
 40
0.0
 40
0.0
 40
5.039786751347365
 40
8.515420093217388
 40
8.515420093217388
 40
8.515420093217388
 40
8.515420093217388
 10
61.51539293796918
 20
19.22546082097233
 30
0.0
 10
63.16928630501855
 20
19.57040790625569
 30
0.0
 10
65.96376898943879
 20
20.15324394397737
 30
0.0
 10
68.48489637719563
 20
21.52824067554934
 30
0.0
 10
85.20370880985142
 20
24.93759634795708
 30
0.0
  0
DIMENSION
  5
97
100
AcDbEntity
  8
参考
  6
CONTINUOUS
100
AcDbDimension
  2
*D3
 10
63.203709
 20
30.730003
 30
0.0
 11
74.203709
 21
32.480003
 31
0.0
 12
194.552811
 22
-445.81747
 32
0.0
  3
参考寸法
100
AcDbAlignedDimension
 13
85.203709
 23
24.937596
 33
0.0
 14
63.203709
 24
17.437596
 34
0.0
100
AcDbRotatedDimension
1001
ACAD
1000
DSTYLE
1002
{
1070
   140
1040
1.5
1070
    41
1040
1.0
1002
}
  0
LINE
  5
A4
100
AcDbEntity
  8
外形
  6
CONTINUOUS
100
AcDbLine
 10
61.430971
 20
15.59356
 30
0.0
 11
63.415393
 21
8.187596
 31
0.0
  0
LINE
  5
A5
100
AcDbEntity
  8
外形
  6
CONTINUOUS
100
AcDbLine
 10
64.415393
 20
14.139441
 30
0.0
 11
64.415393
 21
8.187596
 31
0.0
  0
LINE
  5
A6
100
AcDbEntity
  8
外形
  6
CONTINUOUS
100
AcDbLine
 10
70.003709
 20
13.650526
 30
0.0
 11
70.003709
 21
9.684981
 31
0.0
  0
LINE
  5
A7
100
AcDbEntity
  8
外形
  6
CONTINUOUS
100
AcDbLine
 10
84.465393
 20
9.937596
 30
0.0
 11
84.465393
 21
22.646884
 31
0.0
  0
LINE
  5
A8
100
AcDbEntity
  8
外形
  6
CONTINUOUS
100
AcDbLine
 10
84.215393
 20
9.937596
 30
0.0
 11
84.215393
 21
22.233137
 31
0.0
  0
LINE
  5
A9
100
AcDbEntity
  8
外形
  6
CONTINUOUS
100
AcDbLine
 10
63.415393
 20
14.216484
 30
0.0
 11
63.415393
 21
8.187596
 31
0.0
  0
LINE
  5
AA
100
AcDbEntity
  8
外形
  6
CONTINUOUS
100
AcDbLine
 10
64.415393
 20
8.187596
 30
0.0
 11
70.003709
 21
9.684981
 31
0.0
  0
DIMENSION
  5
AB
100
AcDbEntity
  8
参考
  6
CONTINUOUS
100
AcDbDimension
  2
*D19
 10
70.003709
 20
2.994979
 30
0.0
 11
66.603709
 21
4.744979
 31
0.0
 12
194.552811
 22
-445.81747
 32
0.0
  3
参考寸法
100
AcDbAlignedDimension
 13
63.203709
 23
9.393825
 33
0.0
 14
70.003709
 24
9.687596
 34
0.0
100
AcDbRotatedDimension
1001
ACAD
1000
DSTYLE
1002
{
1070
   140
1040
1.5
1070
    41
1040
1.0
1002
}
  0
LINE
  5
B8
100
AcDbEntity
  8
外形
  6
CONTINUOUS
100
AcDbLine
 10
64.415393
 20
8.187596
 30
0.0
 11
63.415393
 21
8.187596
 31
0.0
  0
LINE
  5
B9
100
AcDbEntity
  8
外形
  6
CONTINUOUS
100
AcDbLine
 10
60.858013
 20
19.063474
 30
0.0
 11
70.030068
 21
18.261023
 31
0.0
  0
LINE
  5
BA
100
AcDbEntity
  8
外形
  6
CONTINUOUS
100
AcDbLine
 10
63.203709
 20
17.448041
 30
0.0
 11
60.858013
 21
19.063474
 31
0.0
  0
LINE
  5
BB
100
AcDbEntity
  8
外形
  6
CONTINUOUS
100
AcDbLine
 10
72.393138
 20
16.633625
 30
0.0
 11
70.030068
 21
18.261023
 31
0.0
  0
LINE
  5
BC
100
AcDbEntity
  8
外形
  6
CONTINUOUS
100
AcDbLine
 10
60.858013
 20
19.063474
 30
0.0
 11
61.070419
 21
15.841865
 31
0.0
  0
LINE
  5
BD
100
AcDbEntity
  8
外形
  6
CONTINUOUS
100
AcDbLine
 10
72.676643
 20
17.622324
 30
0.0
 11
71.500206
 21
13.5196
 31
0.0
  0
LINE
  5
BE
100
AcDbEntity
  8
外形
  6
CONTINUOUS
100
AcDbLine
 10
61.515393
 20
19.225461
 30
0.0
 11
61.515393
 21
19.00596
 31
0.0
  0
LINE
  5
BF
100
AcDbEntity
  8
外形
  6
CONTINUOUS
100
AcDbLine
 10
63.203709
 20
17.437596
 30
0.0
 11
63.415393
 21
14.226929
 31
0.0
  0
LINE
  5
C0
100
AcDbEntity
  8
外形
  6
CONTINUOUS
100
AcDbLine
 10
63.415393
 20
14.226929
 30
0.0
 11
61.070419
 21
15.841865
 31
0.0
  0
LINE
  5
C1
100
AcDbEntity
  8
外形
  6
CONTINUOUS
100
AcDbLine
 10
63.203709
 20
17.437596
 30
0.0
 11
72.393138
 21
16.633625
 31
0.0
  0
LINE
  5
C2
100
AcDbEntity
  8
外形
  6
CONTINUOUS
100
AcDbLine
 10
63.415393
 20
14.226929
 30
0.0
 11
71.500206
 21
13.5196
 31
0.0
  0
DIMENSION
  5
C3
100
AcDbEntity
  8
参考
  6
CONTINUOUS
100
AcDbDimension
  2
*D6
 10
60.863709
 20
58.442271
 30
0.0
 11
56.113709
 21
60.192271
 31
0.0
 12
-121.592427
 22
-615.564742
 32
0.0
  3
参考寸法
100
AcDbAlignedDimension
 13
63.203709
 23
64.373497
 33
0.0
 14
60.863709
 24
73.106938
 34
0.0
100
AcDbRotatedDimension
1001
ACAD
1000
DSTYLE
1002
{
1070
   140
1040
1.5
1070
    41
1040
1.0
1002
}
  0
DIMENSION
  5
D1
100
AcDbEntity
  8
寸法
  6
CONTINUOUS
100
AcDbDimension
  2
*D5
 10
50.090026
 20
74.373497
 30
0.0
 11
47.590026
 21
69.373497
 31
0.0
 12
-121.592427
 22
-615.564742
 32
0.0
  3
STANDARD
100
AcDbAlignedDimension
 13
63.203709
 23
64.373497
 33
0.0
 14
54.433583
 24
74.373497
 34
0.0
 50
90.0
100
AcDbRotatedDimension
1001
ACAD
1000
DSTYLE
1002
{
1070
    40
1040
1.0
1002
}
  0
DIMENSION
  5
DE
100
AcDbEntity
  8
参考
  6
CONTINUOUS
100
AcDbDimension
  2
*D7
 10
61.252443
 20
73.2012
 30
0.0
 11
53.031844
 21
77.02562
 31
0.0
 12
-121.592427
 22
-615.564742
 32
0.0
 70
   132
  3
参考寸法
100
AcDbRadialDimension
 15
60.88977
 25
73.369925
 35
0.0
 40
0.0
1001
ACAD
1000
DSTYLE
1002
{
1070
   140
1040
1.5
1070
    41
1040
1.0
1002
}
  0
DIMENSION
  5
E8
100
AcDbEntity
  8
寸法
  6
CONTINUOUS
100
AcDbDimension
  2
*D15
 10
63.124269
 20
64.66997
 30
0.0
 11
40.912988
 21
81.477769
 31
0.0
 12
-121.592427
 22
-615.564742
 32
0.0
 70
     2
  3
STANDARD
100
AcDb2LineAngularDimension
 13
63.563301
 23
64.373497
 33
0.0
 14
63.203709
 24
64.373497
 34
0.0
 15
60.866073
 25
73.097673
 35
0.0
 16
46.750378
 26
83.981813
 36
0.0
1001
ACAD
1000
DSTYLE
1002
{
1070
    40
1040
1.0
1002
}
  0
DIMENSION
  5
F7
100
AcDbEntity
  8
寸法
  6
CONTINUOUS
100
AcDbDimension
  2
*D8
 10
50.090026
 20
78.373497
 30
0.0
 11
47.590026
 21
76.373497
 31
0.0
 12
-121.592427
 22
-615.564742
 32
0.0
  3
STANDARD
100
AcDbAlignedDimension
 13
54.433583
 23
74.373497
 33
0.0
 14
61.515393
 24
78.373497
 34
0.0
 50
90.0
100
AcDbRotatedDimension
1001
ACAD
1000
DSTYLE
1002
{
1070
    40
1040
1.0
1002
}
  0
LINE
  5
106
100
AcDbEntity
  8
外形
  6
CENTER
 62
     1
100
AcDbLine
 10
11.36231
 20
86.819232
 30
0.0
 11
11.36231
 21
61.927763
 31
0.0
  0
LINE
  5
107
100
AcDbEntity
  8
外形
  6
CENTER
 62
     1
100
AcDbLine
 10
11.28231
 20
86.819232
 30
0.0
 11
11.28231
 21
61.927763
 31
0.0
  0
CIRCLE
  5
108
100
AcDbEntity
  8
外形
  6
CENTER
 62
     1
100
AcDbCircle
 10
11.28231
 20
74.373497
 30
0.0
 40
10.0
  0
LINE
  5
109
100
AcDbEntity
  8
外形
  6
CONTINUOUS
100
AcDbLine
 10
12.261285
 20
78.373497
 30
0.0
 11
11.28231
 21
64.373497
 31
0.0
  0
ARC
  5
10A
100
AcDbEntity
  8
外形
  6
CONTINUOUS
100
AcDbCircle
 10
11.36231
 20
72.873497
 30
0.0
 40
9.25
100
AcDbArc
 50
90.0
 51
249.243146
  0
LINE
  5
10B
100
AcDbEntity
  8
外形
  6
CONTINUOUS
100
AcDbLine
 10
18.78231
 20
71.589615
 30
0.0
 11
18.78231
 21
76.610929
 31
0.0
  0
ARC
  5
10C
100
AcDbEntity
  8
外形
  6
CONTINUOUS
100
AcDbCircle
 10
11.28231
 20
74.373497
 30
0.0
 40
2.15
100
AcDbArc
 50
67.067821
 51
214.561278
  0
DIMENSION
  5
10D
100
AcDbEntity
  8
参考
  6
CONTINUOUS
100
AcDbDimension
  2
*D11
 10
11.36231
 20
56.439954
 30
0.0
 11
17.11231
 21
58.189954
 31
0.0
 12
194.552811
 22
-445.81747
 32
0.0
  3
参考寸法
100
AcDbAlignedDimension
 13
11.28231
 23
61.927763
 33
0.0
 14
11.36231
 24
61.927763
 34
0.0
100
AcDbRotatedDimension
1001
ACAD
1000
DSTYLE
1002
{
1070
   140
1040
1.5
1070
    41
1040
1.0
1002
}
  0
ARC
  5
11C
100
AcDbEntity
  8
外形
  6
CONTINUOUS
100
AcDbCircle
 10
11.28231
 20
74.373497
 30
0.0
 40
8.0
100
AcDbArc
 50
270.501344
 51
339.635865
  0
LINE
  5
11D
100
AcDbEntity
  8
外形
  6
CONTINUOUS
100
AcDbLine
 10
11.28231
 20
64.373497
 30
0.0
 11
8.153174
 21
65.211947
 31
0.0
  0
LINE
  5
11E
100
AcDbEntity
  8
外形
  6
CONTINUOUS
100
AcDbLine
 10
11.916941
 20
73.449151
 30
0.0
 11
8.701569
 21
73.054353
 31
0.0
  0
LINE
  5
11F
100
AcDbEntity
  8
外形
  6
CONTINUOUS
100
AcDbLine
 10
8.701569
 20
73.054353
 30
0.0
 11
8.083825
 21
64.220203
 31
0.0
  0
LEADER
  5
120
100
AcDbEntity
  8
寸法
  6
CONTINUOUS
 62
     1
100
AcDbLeader
  3
STANDARD
 73
     0
 74
     0
 75
     1
 40
3.0
 41
26.0
 76
     3
 10
17.793984
 20
81.962838
 30
0.0
 10
25.761309
 20
95.204047
 30
0.0
 10
27.761309
 20
95.204047
 30
0.0
 77
   256
340
61
213
-0.1129475379637483
223
0.5510341987360618
233
0.0
1001
ACAD
1000
DSTYLE
1002
{
1070
   284
1070
    13
1070
   146
1040
0.5
1070
   272
1070
     3
1070
    40
1040
1.0
1070
   287
1070
     0
1002
}
  0
ARC
  5
121
100
AcDbEntity
  8
外形
  6
CONTINUOUS
100
AcDbCircle
 10
11.36231
 20
74.373497
 30
0.0
 40
7.75
100
AcDbArc
 50
16.780194
 51
90.0
  0
LINE
  5
122
100
AcDbEntity
  8
外形
  6
CONTINUOUS
100
AcDbLine
 10
12.261285
 20
78.373497
 30
0.0
 11
3.915072
 21
78.373497
 31
0.0
  0
LINE
  5
123
100
AcDbEntity
  8
外形
  6
CONTINUOUS
100
AcDbLine
 10
12.261285
 20
78.373497
 30
0.0
 11
13.20583
 21
81.898586
 31
0.0
  0
LINE
  5
124
100
AcDbEntity
  8
外形
  6
CONTINUOUS
100
AcDbLine
 10
61.148916
 20
73.587571
 30
0.0
 11
69.576619
 21
75.845767
 31
0.0
  0
LINE
  5
125
100
AcDbEntity
  8
外形
  6
CENTER
 62
     1
100
AcDbLine
 10
66.595393
 20
63.022762
 30
0.0
 11
66.595393
 21
76.678385
 31
0.0
  0
LINE
  5
126
100
AcDbEntity
  8
外形
  6
CONTINUOUS
100
AcDbLine
 10
61.515393
 20
78.373497
 30
0.0
 11
61.515393
 21
73.685768
 31
0.0
  0
CIRCLE
  5
127
100
AcDbEntity
  8
外形
  6
CONTINUOUS
100
AcDbCircle
 10
66.595393
 20
70.116447
 30
0.0
 40
4.7625
  0
DIMENSION
  5
128
100
AcDbEntity
  8
参考
  6
CONTINUOUS
100
AcDbDimension
  2
*D12
 10
62.92813
 20
67.07793
 30
0.0
 11
78.476299
 21
79.960392
 31
0.0
 12
-121.592427
 22
-615.564742
 32
0.0
 70
   131
  3
参考寸法
100
AcDbDiametricDimension
 15
70.262656
 25
73.154964
 35
0.0
 40
0.0
1001
ACAD
1000
DSTYLE
1002
{
1070
   140
1040
1.5
1070
    41
1040
1.0
1002
}
  0
ARC
  5
133
100
AcDbEntity
  8
外形
  6
CONTINUOUS
100
AcDbCircle
 10
69.102159
 20
74.45887
 30
0.0
 40
1.75
100
AcDbArc
 50
329.072705
 51
150.945905
  0
DIMENSION
  5
134
100
AcDbEntity
  8
参考
  6
CONTINUOUS
100
AcDbDimension
  2
*D17
 10
61.515393
 20
73.685768
 30
0.0
 11
67.762351
 21
89.193546
 31
0.0
 12
-121.592427
 22
-615.564742
 32
0.0
 70
     2
  3
参考寸法
100
AcDb2LineAngularDimension
 13
61.515393
 23
78.373497
 33
0.0
 14
68.010583
 24
82.123497
 34
0.0
 15
61.515393
 25
78.373497
 35
0.0
 16
68.421449
 26
86.603815
 36
0.0
1001
ACAD
1000
DSTYLE
1002
{
1070
   140
1040
1.5
1070
    41
1040
1.0
1002
}
  0
LINE
  5
143
100
AcDbEntity
  8
外形
  6
CONTINUOUS
100
AcDbLine
 10
70.066517
 20
75.562924
 30
0.0
 11
72.461829
 21
66.623497
 31
0.0
  0
SPLINE
  5
144
100
AcDbEntity
  8
外形
  6
CONTINUOUS
100
AcDbSpline
210
0.0
220
0.0
230
1.0
 70
     8
 71
     3
 72
    10
 73
     6
 74
     0
 42
0.0000001
 43
0.0000001
 40
0.0
 40
0.0
 40
0.0
 40
0.0
 40
14.6813596986902
 40
21.0450384659282
 40
34.60811174833256
 40
34.60811174833256
 40
34.60811174833256
 40
34.60811174833256
 10
67.62102604835984
 20
81.89858637998321
 30
0.0
 10
72.15769290945293
 20
80.78753731031946
 30
0.0
 10
78.66079143426621
 20
79.19490073656294
 30
0.0
 10
89.26268828390488
 20
69.00886178000025
 30
0.0
 10
79.64436741586233
 20
67.67186445722945
 30
0.0
 10
72.46182874528734
 20
66.62349746012814
 30
0.0
  0
DIMENSION
  5
145
100
AcDbEntity
  8
参考
  6
CONTINUOUS
100
AcDbDimension
  2
*D13
 10
68.745403
 20
59.637632
 30
0.0
 11
72.745403
 21
61.387632
 31
0.0
 12
-121.592427
 22
-615.564742
 32
0.0
  3
参考寸法
100
AcDbAlignedDimension
 13
64.445383
 23
70.116447
 33
0.0
 14
68.745403
 24
70.116447
 34
0.0
 50
0.0
100
AcDbRotatedDimension
1001
ACAD
1000
DSTYLE
1002
{
1070
   140
1040
1.5
1070
    41
1040
1.0
1002
}
  0
LINE
  5
153
100
AcDbEntity
  8
外形
  6
CONTINUOUS
100
AcDbLine
 10
84.218415
 20
66.623497
 30
0.0
 11
72.461829
 21
66.623497
 31
0.0
  0
LINE
  5
154
100
AcDbEntity
  8
外形
  6
CENTER
 62
     1
100
AcDbLine
 10
59.925816
 20
70.116447
 30
0.0
 11
73.187282
 21
70.116447
 31
0.0
  0
ARC
  5
155
100
AcDbEntity
  8
外形
  6
CONTINUOUS
100
AcDbCircle
 10
71.938342
 20
67.031694
 30
0.0
 40
0.4
100
AcDbArc
 50
285.0
 51
15.0
  0
LINE
  5
156
100
AcDbEntity
  8
外形
  6
CONTINUOUS
100
AcDbLine
 10
60.866073
 20
73.097673
 30
0.0
 11
63.124269
 21
64.66997
 31
0.0
  0
CIRCLE
  5
157
100
AcDbEntity
  8
外形
  6
CONTINUOUS
100
AcDbCircle
 10
66.595393
 20
70.116447
 30
0.0
 40
2.15001
  0
LINE
  5
158
100
AcDbEntity
  8
外形
  6
CONTINUOUS
100
AcDbLine
 10
67.44107
 20
70.414453
 30
0.0
 11
67.951383
 21
70.116447
 31
0.0
  0
LINE
  5
159
100
AcDbEntity
  8
外形
  6
CONTINUOUS
100
AcDbLine
 10
65.239403
 20
70.116447
 30
0.0
 11
65.749716
 21
70.414453
 31
0.0
  0
LINE
  5
15A
100
AcDbEntity
  8
外形
  6
CONTINUOUS
100
AcDbLine
 10
67.951383
 20
70.116447
 30
0.0
 11
67.44107
 21
69.818441
 31
0.0
  0
LINE
  5
15B
100
AcDbEntity
  8
外形
  6
CONTINUOUS
100
AcDbLine
 10
65.749716
 20
69.818441
 30
0.0
 11
65.239403
 21
70.116447
 31
0.0
  0
LINE
  5
15C
100
AcDbEntity
  8
外形
  6
CONTINUOUS
100
AcDbLine
 10
66.430635
 20
69.235067
 30
0.0
 11
65.917398
 21
68.942125
 31
0.0
  0
LINE
  5
15D
100
AcDbEntity
  8
外形
  6
CONTINUOUS
100
AcDbLine
 10
65.917398
 20
68.942125
 30
0.0
 11
65.914474
 21
69.533072
 31
0.0
  0
LINE
  5
15E
100
AcDbEntity
  8
外形
  6
CONTINUOUS
100
AcDbLine
 10
67.276312
 20
69.533072
 30
0.0
 11
67.273388
 21
68.942125
 31
0.0
  0
LINE
  5
15F
100
AcDbEntity
  8
外形
  6
CONTINUOUS
100
AcDbLine
 10
67.273388
 20
68.942125
 30
0.0
 11
66.760151
 21
69.235067
 31
0.0
  0
ARC
  5
160
100
AcDbEntity
  8
外形
  6
CONTINUOUS
100
AcDbCircle
 10
67.608676
 20
69.531428
 30
0.0
 40
0.332368
100
AcDbArc
 50
120.283476
 51
179.716524
  0
ARC
  5
161
100
AcDbEntity
  8
外形
  6
CONTINUOUS
100
AcDbCircle
 10
66.595393
 20
68.946409
 30
0.0
 40
0.332368
100
AcDbArc
 50
60.283476
 51
119.716524
  0
ARC
  5
162
100
AcDbEntity
  8
外形
  6
CONTINUOUS
100
AcDbCircle
 10
65.58211
 20
69.531428
 30
0.0
 40
0.332368
100
AcDbArc
 50
0.283476
 51
59.716524
  0
LINE
  5
163
100
AcDbEntity
  8
外形
  6
CONTINUOUS
100
AcDbLine
 10
66.760151
 20
70.997827
 30
0.0
 11
67.273388
 21
71.290769
 31
0.0
  0
LINE
  5
164
100
AcDbEntity
  8
外形
  6
CONTINUOUS
100
AcDbLine
 10
67.273388
 20
71.290769
 30
0.0
 11
67.276312
 21
70.699822
 31
0.0
  0
LINE
  5
165
100
AcDbEntity
  8
外形
  6
CONTINUOUS
100
AcDbLine
 10
65.914474
 20
70.699822
 30
0.0
 11
65.917398
 21
71.290769
 31
0.0
  0
LINE
  5
166
100
AcDbEntity
  8
外形
  6
CONTINUOUS
100
AcDbLine
 10
65.917398
 20
71.290769
 30
0.0
 11
66.430635
 21
70.997827
 31
0.0
  0
ARC
  5
167
100
AcDbEntity
  8
外形
  6
CONTINUOUS
100
AcDbCircle
 10
67.608676
 20
70.701466
 30
0.0
 40
0.332368
100
AcDbArc
 50
180.283476
 51
239.716524
  0
ARC
  5
168
100
AcDbEntity
  8
外形
  6
CONTINUOUS
100
AcDbCircle
 10
65.58211
 20
70.701466
 30
0.0
 40
0.332368
100
AcDbArc
 50
300.283476
 51
359.716524
  0
ARC
  5
169
100
AcDbEntity
  8
外形
  6
CONTINUOUS
100
AcDbCircle
 10
66.595393
 20
71.286485
 30
0.0
 40
0.332368
100
AcDbArc
 50
240.283476
 51
299.716524
  0
LINE
  5
16A
100
AcDbEntity
  8
外形
  6
CONTINUOUS
 62
     1
100
AcDbLine
 10
63.124269
 20
64.66997
 30
0.0
 11
63.203709
 21
64.373497
 31
0.0
  0
LINE
  5
16B
100
AcDbEntity
  8
外形
  6
CONTINUOUS
 62
     1
100
AcDbLine
 10
63.563301
 20
64.373497
 30
0.0
 11
63.203709
 21
64.373497
 31
0.0
  0
ARC
  5
16C
100
AcDbEntity
  8
外形
  6
CONTINUOUS
100
AcDbCircle
 10
61.252443
 20
73.2012
 30
0.0
 40
0.4
100
AcDbArc
 50
105.0
 51
195.0
  0
ARC
  5
16D
100
AcDbEntity
  8
外形
  6
CONTINUOUS
100
AcDbCircle
 10
63.51064
 20
64.773497
 30
0.0
 40
0.4
100
AcDbArc
 50
195.0
 51
285.0
  0
LINE
  5
16E
100
AcDbEntity
  8
外形
  6
CONTINUOUS
 62
     1
100
AcDbLine
 10
63.51064
 20
64.373497
 30
0.0
 11
63.203709
 21
64.373497
 31
0.0
  0
LINE
  5
16F
100
AcDbEntity
  8
外形
  6
CONTINUOUS
100
AcDbLine
 10
63.614167
 20
64.387127
 30
0.0
 11
72.04187
 21
66.645323
 31
0.0
  0
LINE
  5
170
100
AcDbEntity
  8
外形
  6
CONTINUOUS
100
AcDbLine
 10
84.218415
 20
66.623497
 30
0.0
 11
84.468415
 21
66.373497
 31
0.0
  0
LINE
  5
171
100
AcDbEntity
  8
外形
  6
CONTINUOUS
100
AcDbLine
 10
84.218415
 20
66.623497
 30
0.0
 11
84.218415
 21
69.318953
 31
0.0
  0
LINE
  5
172
100
AcDbEntity
  8
外形
  6
CONTINUOUS
100
AcDbLine
 10
84.468415
 20
66.373497
 30
0.0
 11
84.468415
 21
69.481097
 31
0.0
  0
LINE
  5
173
100
AcDbEntity
  8
外形
  6
CONTINUOUS
100
AcDbLine
 10
84.218415
 20
82.123497
 30
0.0
 11
68.010583
 21
82.123497
 31
0.0
  0
LINE
  5
174
100
AcDbEntity
  8
外形
  6
CONTINUOUS
100
AcDbLine
 10
61.515393
 20
78.373497
 30
0.0
 11
68.010583
 21
82.123497
 31
0.0
  0
ARC
  5
175
100
AcDbEntity
  8
外形
  6
CONTINUOUS
100
AcDbCircle
 10
69.680146
 20
75.459396
 30
0.0
 40
0.4
100
AcDbArc
 50
15.0
 51
105.0
  0
LINE
  5
176
100
AcDbEntity
  8
外形
  6
CONTINUOUS
100
AcDbLine
 10
84.468415
 20
77.15738
 30
0.0
 11
84.468415
 21
82.373497
 31
0.0
  0
LINE
  5
177
100
AcDbEntity
  8
外形
  6
CONTINUOUS
100
AcDbLine
 10
84.218415
 20
82.123497
 30
0.0
 11
84.468415
 21
82.373497
 31
0.0
  0
LINE
  5
178
100
AcDbEntity
  8
外形
  6
CONTINUOUS
100
AcDbLine
 10
84.218415
 20
76.32606
 30
0.0
 11
81.203709
 21
76.32606
 31
0.0
  0
LINE
  5
179
100
AcDbEntity
  8
外形
  6
CONTINUOUS
100
AcDbLine
 10
84.218415
 20
76.32606
 30
0.0
 11
84.218415
 21
82.123497
 31
0.0
  0
LINE
  5
17A
100
AcDbEntity
  8
外形
  6
CONTINUOUS
100
AcDbLine
 10
262.199621
 20
82.373497
 30
0.0
 11
212.699621
 21
82.373497
 31
0.0
  0
LINE
  5
17B
100
AcDbEntity
  8
外形
  6
CONTINUOUS
100
AcDbLine
 10
262.199621
 20
77.15738
 30
0.0
 11
212.699621
 21
77.15738
 31
0.0
  0
LINE
  5
17C
100
AcDbEntity
  8
外形
  6
CONTINUOUS
100
AcDbLine
 10
262.199621
 20
71.589615
 30
0.0
 11
212.699621
 21
71.589615
 31
0.0
  0
LINE
  5
17D
100
AcDbEntity
  8
外形
  6
CONTINUOUS
100
AcDbLine
 10
262.199621
 20
66.373497
 30
0.0
 11
212.699621
 21
66.373497
 31
0.0
  0
DIMENSION
  5
17E
100
AcDbEntity
  8
寸法
  6
CONTINUOUS
100
AcDbDimension
  2
*D14
 10
210.699621
 20
50.094912
 30
0.0
 11
253.199621
 21
52.594912
 31
0.0
 12
-171.592427
 22
-615.564742
 32
0.0
  3
STANDARD
100
AcDbAlignedDimension
 13
195.699621
 23
71.589615
 33
0.0
 14
210.699621
 24
71.589615
 34
0.0
100
AcDbRotatedDimension
1001
ACAD
1000
DSTYLE
1002
{
1070
    40
1040
1.0
1002
}
  0
LINE
  5
18B
100
AcDbEntity
  8
外形
  6
CONTINUOUS
100
AcDbLine
 10
210.699621
 20
77.15738
 30
0.0
 11
210.699621
 21
71.589615
 31
0.0
  0
LINE
  5
18C
100
AcDbEntity
  8
外形
  6
CENTER
 62
     1
100
AcDbLine
 10
203.199621
 20
85.757418
 30
0.0
 11
203.199621
 21
63.019492
 31
0.0
  0
LINE
  5
18D
100
AcDbEntity
  8
外形
  6
CONTINUOUS
100
AcDbLine
 10
195.699621
 20
77.15738
 30
0.0
 11
195.699621
 21
71.589615
 31
0.0
  0
DIMENSION
  5
18E
100
AcDbEntity
  8
寸法
  6
CONTINUOUS
100
AcDbDimension
  2
*D16
 10
198.026945
 20
68.270759
 30
0.0
 11
216.480015
 21
90.041747
 31
0.0
 12
-171.592427
 22
-615.564742
 32
0.0
 70
   131
  3
STANDARD
100
AcDbDiametricDimension
 15
208.372297
 25
80.476236
 35
0.0
 40
0.0
1001
ACAD
1000
DSTYLE
1002
{
1070
    40
1040
1.0
1002
}
  0
ARC
  5
19A
100
AcDbEntity
  8
外形
  6
CONTINUOUS
100
AcDbCircle
 10
203.199621
 20
74.373497
 30
0.0
 40
8.0
100
AcDbArc
 50
200.364135
 51
339.635865
  0
ARC
  5
19B
100
AcDbEntity
  8
外形
  6
CONTINUOUS
100
AcDbCircle
 10
203.199621
 20
74.373497
 30
0.0
 40
8.0
100
AcDbArc
 50
20.364135
 51
159.635865
  0
LINE
  5
19C
100
AcDbEntity
  8
外形
  6
CONTINUOUS
100
AcDbLine
 10
262.199621
 20
24.937596
 30
0.0
 11
263.199621
 21
23.937596
 31
0.0
  0
LINE
  5
19D
100
AcDbEntity
  8
外形
  6
CONTINUOUS
100
AcDbLine
 10
262.199621
 20
24.937596
 30
0.0
 11
262.199621
 21
9.937596
 31
0.0
  0
LINE
  5
19E
100
AcDbEntity
  8
外形
  6
CONTINUOUS
100
AcDbLine
 10
263.199621
 20
10.937596
 30
0.0
 11
263.199621
 21
23.937596
 31
0.0
  0
LINE
  5
19F
100
AcDbEntity
  8
外形
  6
CONTINUOUS
100
AcDbLine
 10
262.199621
 20
9.937596
 30
0.0
 11
263.199621
 21
10.937596
 31
0.0
  0
LINE
  5
1A0
100
AcDbEntity
  8
外形
  6
CONTINUOUS
100
AcDbLine
 10
263.199621
 20
67.373497
 30
0.0
 11
263.199621
 21
81.373497
 31
0.0
  0
LINE
  5
1A1
100
AcDbEntity
  8
外形
  6
CENTER
 62
     1
100
AcDbLine
 10
264.465393
 20
65.022762
 30
0.0
 11
264.465393
 21
78.678385
 31
0.0
  0
ARC
  5
1A2
100
AcDbEntity
  8
外形
  6
CONTINUOUS
100
AcDbCircle
 10
254.699621
 20
74.373497
 30
0.0
 40
8.0
100
AcDbArc
 50
339.635865
 51
20.364135
  0
LINE
  5
1A3
100
AcDbEntity
  8
外形
  6
CONTINUOUS
100
AcDbLine
 10
262.199621
 20
66.373497
 30
0.0
 11
263.199621
 21
67.373497
 31
0.0
  0
LINE
  5
1A4
100
AcDbEntity
  8
外形
  6
CONTINUOUS
100
AcDbLine
 10
262.199621
 20
71.589615
 30
0.0
 11
262.199621
 21
66.373497
 31
0.0
  0
LINE
  5
1A5
100
AcDbEntity
  8
外形
  6
CONTINUOUS
100
AcDbLine
 10
262.199621
 20
82.373497
 30
0.0
 11
263.199621
 21
81.373497
 31
0.0
  0
LINE
  5
1A6
100
AcDbEntity
  8
外形
  6
CONTINUOUS
100
AcDbLine
 10
262.199621
 20
82.373497
 30
0.0
 11
262.199621
 21
77.15738
 31
0.0
  0
ENDBLK
  5
1A8
100
AcDbEntity
  8
0
100
AcDbBlockEnd
  0
BLOCK
  5
31A
100
AcDbEntity
  8
0
100
AcDbBlockBegin
  2
*D21
 70
     1
 10
0.0
 20
0.0
 30
0.0
  3
*D21
  1

  0
LINE
  5
31B
100
AcDbEntity
  8
0
  6
BYBLOCK
 62
     1
100
AcDbLine
 10
788.231141
 20
112.943105
 30
0.0
 11
788.231141
 21
90.016139
 31
0.0
  0
LINE
  5
31C
100
AcDbEntity
  8
0
  6
BYBLOCK
 62
     1
100
AcDbLine
 10
988.227053
 20
115.943105
 30
0.0
 11
988.227053
 21
90.016139
 31
0.0
  0
LINE
  5
31D
100
AcDbEntity
  8
0
  6
BYBLOCK
 62
     1
100
AcDbLine
 10
790.231141
 20
92.016139
 30
0.0
 11
986.227053
 21
92.016139
 31
0.0
  0
INSERT
  5
31E
100
AcDbEntity
  8
0
  6
BYBLOCK
 62
     1
100
AcDbBlockReference
  2
_OPEN30
 10
788.231141
 20
92.016139
 30
0.0
 41
2.0
 42
2.0
 43
2.0
 50
180.0
  0
INSERT
  5
31F
100
AcDbEntity
  8
0
  6
BYBLOCK
 62
     1
100
AcDbBlockReference
  2
_OPEN30
 10
988.227053
 20
92.016139
 30
0.0
 41
2.0
 42
2.0
 43
2.0
  0
MTEXT
  5
320
100
AcDbEntity
  8
0
  6
BYBLOCK
 62
     3
100
AcDbMText
 10
888.229097
 20
94.516139
 30
0.0
 40
3.0
 41
0.0
 71
     5
 72
     1
  1
\A1;200
  0
POINT
  5
321
100
AcDbEntity
  8
DEFPOINTS
  6
BYBLOCK
 62
     0
100
AcDbPoint
 10
788.231141
 20
113.943105
 30
0.0
  0
POINT
  5
322
100
AcDbEntity
  8
DEFPOINTS
  6
BYBLOCK
 62
     0
100
AcDbPoint
 10
988.227053
 20
116.943105
 30
0.0
  0
POINT
  5
323
100
AcDbEntity
  8
DEFPOINTS
  6
BYBLOCK
 62
     0
100
AcDbPoint
 10
988.227053
 20
92.016139
 30
0.0
  0
ENDBLK
  5
324
100
AcDbEntity
  8
0
100
AcDbBlockEnd
  0
BLOCK
  5
325
100
AcDbEntity
  8
0
100
AcDbBlockBegin
  2
*D22
 70
     1
 10
0.0
 20
0.0
 30
0.0
  3
*D22
  1

  0
LINE
  5
326
100
AcDbEntity
  8
0
  6
BYBLOCK
 62
     1
100
AcDbLine
 10
787.234946
 20
67.09436
 30
0.0
 11
771.637547
 21
68.458955
 31
0.0
  0
ARC
  5
327
100
AcDbEntity
  8
0
  6
BYBLOCK
 62
     1
100
AcDbCircle
 10
788.231141
 20
67.007204
 30
0.0
 40
14.656979
100
AcDbArc
 50
159.314615
 51
175.0
  0
LINE
  5
328
100
AcDbEntity
  8
0
  6
BYBLOCK
 62
     1
100
AcDbLine
 10
774.519036
 20
72.18458
 30
0.0
 11
777.556868
 21
80.230174
 31
0.0
  0
ARC
  5
329
100
AcDbEntity
  8
0
  6
BYBLOCK
 62
     1
100
AcDbCircle
 10
788.231141
 20
67.007204
 30
0.0
 40
14.656979
100
AcDbArc
 50
159.351394
 51
167.175697
  0
ARC
  5
32A
100
AcDbEntity
  8
0
  6
BYBLOCK
 62
     1
100
AcDbCircle
 10
788.231141
 20
67.007204
 30
0.0
 40
14.656979
100
AcDbArc
 50
187.824303
 51
195.648606
  0
ARC
  5
32B
100
AcDbEntity
  8
0
  6
BYBLOCK
 62
     1
100
AcDbCircle
 10
788.231141
 20
67.007204
 30
0.0
 40
14.656979
100
AcDbArc
 50
175.0
 51
180.0
  0
INSERT
  5
32C
100
AcDbEntity
  8
0
  6
BYBLOCK
 62
     1
100
AcDbBlockReference
  2
_OPEN30
 10
773.629936
 20
68.284644
 30
0.0
 41
2.0
 42
2.0
 43
2.0
 50
261.087848
  0
INSERT
  5
32D
100
AcDbEntity
  8
0
  6
BYBLOCK
 62
     1
100
AcDbBlockReference
  2
_OPEN30
 10
773.574162
 20
67.007204
 30
0.0
 41
2.0
 42
2.0
 43
2.0
 50
93.912152
  0
MTEXT
  5
32E
100
AcDbEntity
  8
0
  6
BYBLOCK
 62
     3
100
AcDbMText
 10
773.699116
 20
77.090467
 30
0.0
 40
3.0
 41
0.0
 71
     5
 72
     1
  1
\A1;5°
 11
0.353236
 21
0.935534
 31
0.0
  0
POINT
  5
32F
100
AcDbEntity
  8
DEFPOINTS
  6
BYBLOCK
 62
     0
100
AcDbPoint
 10
773.580362
 20
67.433498
 30
0.0
  0
POINT
  5
330
100
AcDbEntity
  8
DEFPOINTS
  6
BYBLOCK
 62
     0
100
AcDbPoint
 10
788.231141
 20
67.007204
 30
0.0
  0
POINT
  5
331
100
AcDbEntity
  8
DEFPOINTS
  6
BYBLOCK
 62
     0
100
AcDbPoint
 10
768.729478
 20
67.007204
 30
0.0
  0
POINT
  5
332
100
AcDbEntity
  8
DEFPOINTS
  6
BYBLOCK
 62
     0
100
AcDbPoint
 10
995.715047
 20
67.007204
 30
0.0
  0
POINT
  5
333
100
AcDbEntity
  8
DEFPOINTS
  6
BYBLOCK
 62
     0
100
AcDbPoint
 10
797.42057
 20
66.203233
 30
0.0
  0
ENDBLK
  5
334
100
AcDbEntity
  8
0
100
AcDbBlockEnd
  0
BLOCK
  5
341
100
AcDbEntity
  8
0
100
AcDbBlockBegin
  2
*D24
 70
     1
 10
0.0
 20
0.0
 30
0.0
  3
*D24
  1

  0
LINE
  5
342
100
AcDbEntity
  8
0
  6
BYBLOCK
 62
     1
100
AcDbLine
 10
736.239985
 20
112.945541
 30
0.0
 11
735.018319
 21
95.474908
 31
0.0
  0
LINE
  5
343
100
AcDbEntity
  8
0
  6
BYBLOCK
 62
     1
100
AcDbLine
 10
736.309741
 20
108.497371
 30
0.0
 11
736.309741
 21
95.42981
 31
0.0
  0
ARC
  5
344
100
AcDbEntity
  8
0
  6
BYBLOCK
 62
     1
100
AcDbCircle
 10
736.309741
 20
113.943105
 30
0.0
 40
16.513295
100
AcDbArc
 50
252.08714
 51
266.0
  0
LINE
  5
345
100
AcDbEntity
  8
0
  6
BYBLOCK
 62
     1
100
AcDbLine
 10
731.230744
 20
98.230286
 30
0.0
 11
723.047626
 21
100.875389
 31
0.0
  0
ARC
  5
346
100
AcDbEntity
  8
0
  6
BYBLOCK
 62
     1
100
AcDbCircle
 10
736.309741
 20
113.943105
 30
0.0
 40
16.513295
100
AcDbArc
 50
252.1128
 51
259.0564
  0
ARC
  5
347
100
AcDbEntity
  8
0
  6
BYBLOCK
 62
     1
100
AcDbCircle
 10
736.309741
 20
113.943105
 30
0.0
 40
16.513295
100
AcDbArc
 50
276.9436
 51
283.8872
  0
ARC
  5
348
100
AcDbEntity
  8
0
  6
BYBLOCK
 62
     1
100
AcDbCircle
 10
736.309741
 20
113.943105
 30
0.0
 40
16.513295
100
AcDbArc
 50
266.0
 51
270.0
  0
INSERT
  5
349
100
AcDbEntity
  8
0
  6
BYBLOCK
 62
     1
100
AcDbBlockReference
  2
_OPEN30
 10
735.157832
 20
97.470036
 30
0.0
 41
2.0
 42
2.0
 43
2.0
 50
352.5282
  0
INSERT
  5
34A
100
AcDbEntity
  8
0
  6
BYBLOCK
 62
     1
100
AcDbBlockReference
  2
_OPEN30
 10
736.309741
 20
97.42981
 30
0.0
 41
2.0
 42
2.0
 43
2.0
 50
183.4718
  0
MTEXT
  5
34B
100
AcDbEntity
  8
0
  6
BYBLOCK
 62
     3
100
AcDbMText
 10
727.908111
 20
101.931651
 30
0.0
 40
3.0
 41
0.0
 71
     5
 72
     1
  1
\A1;4°
 11
0.951525
 21
-0.30757
 31
0.0
  0
POINT
  5
34C
100
AcDbEntity
  8
DEFPOINTS
  6
BYBLOCK
 62
     0
100
AcDbPoint
 10
735.925494
 20
97.434282
 30
0.0
  0
POINT
  5
34D
100
AcDbEntity
  8
DEFPOINTS
  6
BYBLOCK
 62
     0
100
AcDbPoint
 10
736.309741
 20
134.38884
 30
0.0
  0
POINT
  5
34E
100
AcDbEntity
  8
DEFPOINTS
  6
BYBLOCK
 62
     0
100
AcDbPoint
 10
737.15143
 20
125.979812
 30
0.0
  0
POINT
  5
34F
100
AcDbEntity
  8
DEFPOINTS
  6
BYBLOCK
 62
     0
100
AcDbPoint
 10
736.309741
 20
113.943105
 30
0.0
  0
POINT
  5
350
100
AcDbEntity
  8
DEFPOINTS
  6
BYBLOCK
 62
     0
100
AcDbPoint
 10
736.309741
 20
109.497371
 30
0.0
  0
ENDBLK
  5
351
100
AcDbEntity
  8
0
100
AcDbBlockEnd
  0
BLOCK
  5
381
100
AcDbEntity
  8
0
100
AcDbBlockBegin
  2
*D29
 70
     1
 10
0.0
 20
0.0
 30
0.0
  3
*D29
  1

  0
LINE
  5
382
100
AcDbEntity
  8
0
  6
BYBLOCK
 62
     1
100
AcDbLine
 10
787.231141
 20
113.943105
 30
0.0
 11
773.117458
 21
113.943105
 31
0.0
  0
LINE
  5
383
100
AcDbEntity
  8
0
  6
BYBLOCK
 62
     1
100
AcDbLine
 10
778.461015
 20
123.943105
 30
0.0
 11
773.117458
 21
123.943105
 31
0.0
  0
LINE
  5
384
100
AcDbEntity
  8
0
  6
BYBLOCK
 62
     1
100
AcDbLine
 10
775.117458
 20
115.943105
 30
0.0
 11
775.117458
 21
121.943105
 31
0.0
  0
INSERT
  5
385
100
AcDbEntity
  8
0
  6
BYBLOCK
 62
     1
100
AcDbBlockReference
  2
_OPEN30
 10
775.117458
 20
113.943105
 30
0.0
 41
2.0
 42
2.0
 43
2.0
 50
270.0
  0
INSERT
  5
386
100
AcDbEntity
  8
0
  6
BYBLOCK
 62
     1
100
AcDbBlockReference
  2
_OPEN30
 10
775.117458
 20
123.943105
 30
0.0
 41
2.0
 42
2.0
 43
2.0
 50
90.0
  0
MTEXT
  5
387
100
AcDbEntity
  8
0
  6
BYBLOCK
 62
     3
100
AcDbMText
 10
772.617458
 20
118.943105
 30
0.0
 40
3.0
 41
0.0
 71
     5
 72
     1
  1
\A1;10
 11
0.0
 21
1.0
 31
0.0
  0
POINT
  5
388
100
AcDbEntity
  8
DEFPOINTS
  6
BYBLOCK
 62
     0
100
AcDbPoint
 10
788.231141
 20
113.943105
 30
0.0
  0
POINT
  5
389
100
AcDbEntity
  8
DEFPOINTS
  6
BYBLOCK
 62
     0
100
AcDbPoint
 10
779.461015
 20
123.943105
 30
0.0
  0
POINT
  5
38A
100
AcDbEntity
  8
DEFPOINTS
  6
BYBLOCK
 62
     0
100
AcDbPoint
 10
775.117458
 20
123.943105
 30
0.0
  0
ENDBLK
  5
38B
100
AcDbEntity
  8
0
100
AcDbBlockEnd
  0
BLOCK
  5
394
100
AcDbEntity
  8
0
100
AcDbBlockBegin
  2
*D31
 70
     1
 10
0.0
 20
0.0
 30
0.0
  3
*D31
  1

  0
LINE
  5
395
100
AcDbEntity
  8
0
  6
BYBLOCK
 62
     1
100
AcDbLine
 10
785.634686
 20
123.633206
 30
0.0
 11
781.088553
 21
140.599604
 31
0.0
  0
LINE
  5
396
100
AcDbEntity
  8
0
  6
BYBLOCK
 62
     1
100
AcDbLine
 10
787.231141
 20
113.943105
 30
0.0
 11
760.634302
 21
113.943105
 31
0.0
  0
ARC
  5
397
100
AcDbEntity
  8
0
  6
BYBLOCK
 62
     1
100
AcDbCircle
 10
788.231141
 20
113.943105
 30
0.0
 40
25.596838
100
AcDbArc
 50
109.477925
 51
175.522075
  0
INSERT
  5
398
100
AcDbEntity
  8
0
  6
BYBLOCK
 62
     1
100
AcDbBlockReference
  2
_OPEN30
 10
781.606191
 20
138.667752
 30
0.0
 41
2.0
 42
2.0
 43
2.0
 50
17.238963
  0
INSERT
  5
399
100
AcDbEntity
  8
0
  6
BYBLOCK
 62
     1
100
AcDbBlockReference
  2
_OPEN30
 10
762.634302
 20
113.943105
 30
0.0
 41
2.0
 42
2.0
 43
2.0
 50
267.761037
  0
MTEXT
  5
39A
100
AcDbEntity
  8
0
  6
BYBLOCK
 62
     3
100
AcDbMText
 10
765.94042
 20
131.047377
 30
0.0
 40
3.0
 41
0.0
 71
     5
 72
     1
  1
\A1;75°
 11
0.608761
 21
0.793353
 31
0.0
  0
POINT
  5
39B
100
AcDbEntity
  8
DEFPOINTS
  6
BYBLOCK
 62
     0
100
AcDbPoint
 10
771.77781
 20
133.551421
 30
0.0
  0
POINT
  5
39C
100
AcDbEntity
  8
DEFPOINTS
  6
BYBLOCK
 62
     0
100
AcDbPoint
 10
785.893505
 20
122.66728
 30
0.0
  0
POINT
  5
39D
100
AcDbEntity
  8
DEFPOINTS
  6
BYBLOCK
 62
     0
100
AcDbPoint
 10
788.590732
 20
113.943105
 30
0.0
  0
POINT
  5
39E
100
AcDbEntity
  8
DEFPOINTS
  6
BYBLOCK
 62
     0
100
AcDbPoint
 10
788.231141
 20
113.943105
 30
0.0
  0
POINT
  5
39F
100
AcDbEntity
  8
DEFPOINTS
  6
BYBLOCK
 62
     0
100
AcDbPoint
 10
788.151701
 20
114.239578
 30
0.0
  0
ENDBLK
  5
3A0
100
AcDbEntity
  8
0
100
AcDbBlockEnd
  0
BLOCK
  5
3DD
100
AcDbEntity
  8
0
100
AcDbBlockBegin
  2
*D37
 70
     1
 10
0.0
 20
0.0
 30
0.0
  3
*D37
  1

  0
LINE
  5
3DE
100
AcDbEntity
  8
0
  6
BYBLOCK
 62
     1
100
AcDbLine
 10
920.727053
 20
120.159223
 30
0.0
 11
920.727053
 21
97.66452
 31
0.0
  0
LINE
  5
3DF
100
AcDbEntity
  8
0
  6
BYBLOCK
 62
     1
100
AcDbLine
 10
935.727053
 20
120.159223
 30
0.0
 11
935.727053
 21
97.66452
 31
0.0
  0
LINE
  5
3E0
100
AcDbEntity
  8
0
  6
BYBLOCK
 62
     1
100
AcDbLine
 10
922.727053
 20
99.66452
 30
0.0
 11
933.727053
 21
99.66452
 31
0.0
  0
INSERT
  5
3E1
100
AcDbEntity
  8
0
  6
BYBLOCK
 62
     1
100
AcDbBlockReference
  2
_OPEN30
 10
920.727053
 20
99.66452
 30
0.0
 41
2.0
 42
2.0
 43
2.0
 50
180.0
  0
INSERT
  5
3E2
100
AcDbEntity
  8
0
  6
BYBLOCK
 62
     1
100
AcDbBlockReference
  2
_OPEN30
 10
935.727053
 20
99.66452
 30
0.0
 41
2.0
 42
2.0
 43
2.0
  0
MTEXT
  5
3E3
100
AcDbEntity
  8
0
  6
BYBLOCK
 62
     3
100
AcDbMText
 10
928.227053
 20
102.16452
 30
0.0
 40
3.0
 41
0.0
 71
     5
 72
     1
  1
\A1;15
  0
POINT
  5
3E4
100
AcDbEntity
  8
DEFPOINTS
  6
BYBLOCK
 62
     0
100
AcDbPoint
 10
920.727053
 20
121.159223
 30
0.0
  0
POINT
  5
3E5
100
AcDbEntity
  8
DEFPOINTS
  6
BYBLOCK
 62
     0
100
AcDbPoint
 10
935.727053
 20
121.159223
 30
0.0
  0
POINT
  5
3E6
100
AcDbEntity
  8
DEFPOINTS
  6
BYBLOCK
 62
     0
100
AcDbPoint
 10
935.727053
 20
99.66452
 30
0.0
  0
ENDBLK
  5
3E7
100
AcDbEntity
  8
0
100
AcDbBlockEnd
  0
BLOCK
  5
3E8
100
AcDbEntity
  8
0
100
AcDbBlockBegin
  2
*D38
 70
     1
 10
0.0
 20
0.0
 30
0.0
  3
*D38
  1

  0
LINE
  5
3E9
100
AcDbEntity
  8
0
  6
BYBLOCK
 62
     1
100
AcDbLine
 10
944.74037
 20
143.425566
 30
0.0
 11
934.692898
 21
131.571529
 31
0.0
  0
LINE
  5
3EA
100
AcDbEntity
  8
0
  6
BYBLOCK
 62
     1
100
AcDbLine
 10
921.761207
 20
116.314682
 30
0.0
 11
920.468038
 21
114.788997
 31
0.0
  0
MTEXT
  5
3EB
100
AcDbEntity
  8
0
  6
BYBLOCK
 62
     3
100
AcDbMText
 10
939.600341
 20
141.227816
 30
0.0
 40
3.0
 41
0.0
 71
     5
 72
     1
  1
\A1;\U+220516
 11
0.646585
 21
0.762842
 31
0.0
  0
LINE
  5
3EC
100
AcDbEntity
  8
0
  6
BYBLOCK
 62
     1
100
AcDbLine
 10
923.054377
 20
117.840366
 30
0.0
 11
933.399729
 21
130.045844
 31
0.0
  0
INSERT
  5
3ED
100
AcDbEntity
  8
0
  6
BYBLOCK
 62
     1
100
AcDbBlockReference
  2
_OPEN30
 10
923.054377
 20
117.840366
 30
0.0
 41
2.0
 42
2.0
 43
2.0
 50
49.715419
  0
INSERT
  5
3EE
100
AcDbEntity
  8
0
  6
BYBLOCK
 62
     1
100
AcDbBlockReference
  2
_OPEN30
 10
933.399729
 20
130.045844
 30
0.0
 41
2.0
 42
2.0
 43
2.0
 50
229.715419
  0
POINT
  5
3EF
100
AcDbEntity
  8
DEFPOINTS
  6
BYBLOCK
 62
     0
100
AcDbPoint
 10
933.399729
 20
130.045844
 30
0.0
  0
POINT
  5
3F0
100
AcDbEntity
  8
DEFPOINTS
  6
BYBLOCK
 62
     0
100
AcDbPoint
 10
923.054377
 20
117.840366
 30
0.0
  0
ENDBLK
  5
3F1
100
AcDbEntity
  8
0
100
AcDbBlockEnd
  0
ENDSEC
  0
SECTION
  2
ENTITIES
  0
TEXT
  5
1AD
100
AcDbEntity
  8
外形
  6
CONTINUOUS
 62
     2
100
AcDbText
 10
864.534664
 20
27.968845
 30
0.0
 40
6.0
  1
BBPS-316R
100
AcDbText
  0
LINE
  5
1AE
100
AcDbEntity
  8
外形
  6
CONTINUOUS
100
AcDbLine
 10
918.727053
 20
131.943105
 30
0.0
 11
809.495847
 21
131.943105
 31
0.0
  0
LINE
  5
1AF
100
AcDbEntity
  8
外形
  6
CONTINUOUS
100
AcDbLine
 10
918.727053
 20
126.726987
 30
0.0
 11
809.234163
 21
126.726987
 31
0.0
  0
LINE
  5
1B0
100
AcDbEntity
  8
外形
  6
CONTINUOUS
100
AcDbLine
 10
918.727053
 20
121.159223
 30
0.0
 11
810.481141
 21
121.159223
 31
0.0
  0
LINE
  5
1B1
100
AcDbEntity
  8
外形
  6
CONTINUOUS
100
AcDbLine
 10
918.727053
 20
115.943105
 30
0.0
 11
809.495847
 21
115.943105
 31
0.0
  0
DIMENSION
  5
1B2
100
AcDbEntity
  8
寸法
  6
CONTINUOUS
100
AcDbDimension
  2
*D21
 10
988.227053
 20
92.016139
 30
0.0
 11
888.229097
 21
94.516139
 31
0.0
 70
    32
  3
STANDARD
100
AcDbAlignedDimension
 13
788.231141
 23
113.943105
 33
0.0
 14
988.227053
 24
116.943105
 34
0.0
100
AcDbRotatedDimension
1001
ACAD
1000
DSTYLE
1002
{
1070
    40
1040
1.0
1002
}
  0
LINE
  5
1B3
100
AcDbEntity
  8
外形
  6
CENTER
 62
     1
100
AcDbLine
 10
779.461015
 20
123.943105
 30
0.0
 11
995.715047
 21
123.943105
 31
0.0
  0
LINE
  5
1B4
100
AcDbEntity
  8
外形
  6
CENTER
 62
     1
100
AcDbLine
 10
768.729478
 20
67.007204
 30
0.0
 11
995.715047
 21
67.007204
 31
0.0
  0
LINE
  5
1B5
100
AcDbEntity
  8
外形
  6
CONTINUOUS
100
AcDbLine
 10
795.031141
 20
59.507204
 30
0.0
 11
987.227053
 21
59.507204
 31
0.0
  0
LINE
  5
1B6
100
AcDbEntity
  8
外形
  6
CONTINUOUS
100
AcDbLine
 10
810.231141
 20
74.507204
 30
0.0
 11
987.227053
 21
74.507204
 31
0.0
  0
DIMENSION
  5
1B7
100
AcDbEntity
  8
寸法
  6
CONTINUOUS
100
AcDbDimension
  2
*D22
 10
797.42057
 20
66.203233
 30
0.0
 11
773.699116
 21
77.090467
 31
0.0
 70
    34
  3
STANDARD
100
AcDb2LineAngularDimension
 13
768.729478
 23
67.007204
 33
0.0
 14
995.715047
 24
67.007204
 34
0.0
 15
788.231141
 25
67.007204
 35
0.0
 16
773.580362
 26
67.433498
 36
0.0
1001
ACAD
1000
DSTYLE
1002
{
1070
    40
1040
1.0
1002
}
  0
MTEXT
  5
1B8
102
{ACAD_REACTORS
330
1E5
102
}
100
AcDbEntity
  8
寸法
  6
CONTINUOUS
 62
     3
100
AcDbMText
 10
753.901689
 20
146.722621
 30
0.0
 40
3.0
 41
0.0
 71
     4
 72
     1
  1
%%c20最小加工径
  0
LINE
  5
1BA
100
AcDbEntity
  8
外形
  6
CENTER
 62
     1
100
AcDbLine
 10
748.392453
 20
123.943105
 30
0.0
 11
724.22703
 21
123.943105
 31
0.0
  0
DIMENSION
  5
1BC
100
AcDbEntity
  8
寸法
  6
CONTINUOUS
100
AcDbDimension
  2
*D24
 10
736.309741
 20
109.497371
 30
0.0
 11
727.908111
 21
101.931651
 31
0.0
 70
    34
  3
STANDARD
100
AcDb2LineAngularDimension
 13
737.15143
 23
125.979812
 33
0.0
 14
736.309741
 24
113.943105
 34
0.0
 15
736.309741
 25
134.38884
 35
0.0
 16
735.925494
 26
97.434282
 36
0.0
1001
ACAD
1000
DSTYLE
1002
{
1070
    40
1040
1.0
1002
}
  0
SPLINE
  5
1BE
100
AcDbEntity
  8
外形
  6
CONTINUOUS
100
AcDbSpline
210
0.0
220
0.0
230
1.0
 70
     8
 71
     3
 72
     8
 73
     4
 74
     0
 42
0.0000001
 43
0.0000001
 40
0.0
 40
0.0
 40
0.0
 40
0.0
 40
4.296442058183304
 40
4.296442058183304
 40
4.296442058183304
 40
4.296442058183304
 10
810.2311407016454
 20
74.50720404358548
 30
0.0
 10
809.4735943700957
 20
71.03848735543943
 30
0.0
 10
808.7160480385454
 20
69.56977066728859
 30
0.0
 10
797.7040749427849
 20
67.19193184416951
 30
0.0
  0
SPLINE
  5
1BF
100
AcDbEntity
  8
外形
  6
CONTINUOUS
100
AcDbSpline
210
0.0
220
0.0
230
-1.0
 70
     8
 71
     3
 72
     9
 73
     5
 74
     0
 42
0.0000001
 43
0.0000001
 40
0.0
 40
0.0
 40
0.0
 40
0.0
 40
5.039786751347365
 40
8.515420093217388
 40
8.515420093217388
 40
8.515420093217388
 40
8.515420093217388
 10
786.5428248297629
 20
68.7950685166054
 30
0.0
 10
788.1967181968122
 20
69.14001560188876
 30
0.0
 10
790.9912008812325
 20
69.72285163961044
 30
0.0
 10
793.5123282689893
 20
71.0978483711824
 30
0.0
 10
810.2311407016451
 20
74.50720404359015
 30
0.0
  0
LINE
  5
1C1
100
AcDbEntity
  8
外形
  6
CONTINUOUS
100
AcDbLine
 10
786.458403
 20
65.163167
 30
0.0
 11
788.442825
 21
57.757204
 31
0.0
  0
LINE
  5
1C2
100
AcDbEntity
  8
外形
  6
CONTINUOUS
100
AcDbLine
 10
789.442825
 20
63.709048
 30
0.0
 11
789.442825
 21
57.757204
 31
0.0
  0
LINE
  5
1C3
100
AcDbEntity
  8
外形
  6
CONTINUOUS
100
AcDbLine
 10
795.031141
 20
63.220134
 30
0.0
 11
795.031141
 21
59.254589
 31
0.0
  0
LINE
  5
1C4
100
AcDbEntity
  8
外形
  6
CONTINUOUS
100
AcDbLine
 10
809.492825
 20
59.507204
 30
0.0
 11
809.492825
 21
72.216492
 31
0.0
  0
LINE
  5
1C5
100
AcDbEntity
  8
外形
  6
CONTINUOUS
100
AcDbLine
 10
809.242825
 20
59.507204
 30
0.0
 11
809.242825
 21
71.802744
 31
0.0
  0
LINE
  5
1C6
100
AcDbEntity
  8
外形
  6
CONTINUOUS
100
AcDbLine
 10
788.442825
 20
63.786092
 30
0.0
 11
788.442825
 21
57.757204
 31
0.0
  0
LINE
  5
1C7
100
AcDbEntity
  8
外形
  6
CONTINUOUS
100
AcDbLine
 10
789.442825
 20
57.757204
 30
0.0
 11
795.031141
 21
59.254589
 31
0.0
  0
LINE
  5
1C9
100
AcDbEntity
  8
外形
  6
CONTINUOUS
100
AcDbLine
 10
789.442825
 20
57.757204
 30
0.0
 11
788.442825
 21
57.757204
 31
0.0
  0
LINE
  5
1CA
100
AcDbEntity
  8
外形
  6
CONTINUOUS
100
AcDbLine
 10
785.885445
 20
68.633081
 30
0.0
 11
795.0575
 21
67.83063
 31
0.0
  0
LINE
  5
1CB
100
AcDbEntity
  8
外形
  6
CONTINUOUS
100
AcDbLine
 10
788.231141
 20
67.017649
 30
0.0
 11
785.885445
 21
68.633081
 31
0.0
  0
LINE
  5
1CC
100
AcDbEntity
  8
外形
  6
CONTINUOUS
100
AcDbLine
 10
797.42057
 20
66.203233
 30
0.0
 11
795.0575
 21
67.83063
 31
0.0
  0
LINE
  5
1CD
100
AcDbEntity
  8
外形
  6
CONTINUOUS
100
AcDbLine
 10
785.885445
 20
68.633081
 30
0.0
 11
786.09785
 21
65.411472
 31
0.0
  0
LINE
  5
1CE
100
AcDbEntity
  8
外形
  6
CONTINUOUS
100
AcDbLine
 10
797.704075
 20
67.191932
 30
0.0
 11
796.527638
 21
63.089208
 31
0.0
  0
LINE
  5
1CF
100
AcDbEntity
  8
外形
  6
CONTINUOUS
100
AcDbLine
 10
786.542825
 20
68.795069
 30
0.0
 11
786.542825
 21
68.575568
 31
0.0
  0
LINE
  5
1D0
100
AcDbEntity
  8
外形
  6
CONTINUOUS
100
AcDbLine
 10
788.231141
 20
67.007204
 30
0.0
 11
788.442825
 21
63.796537
 31
0.0
  0
LINE
  5
1D1
100
AcDbEntity
  8
外形
  6
CONTINUOUS
100
AcDbLine
 10
788.442825
 20
63.796537
 30
0.0
 11
786.09785
 21
65.411472
 31
0.0
  0
LINE
  5
1D2
100
AcDbEntity
  8
外形
  6
CONTINUOUS
100
AcDbLine
 10
788.231141
 20
67.007204
 30
0.0
 11
797.42057
 21
66.203233
 31
0.0
  0
LINE
  5
1D3
100
AcDbEntity
  8
外形
  6
CONTINUOUS
100
AcDbLine
 10
788.442825
 20
63.796537
 30
0.0
 11
796.527638
 21
63.089208
 31
0.0
  0
DIMENSION
  5
1D5
100
AcDbEntity
  8
寸法
  6
CONTINUOUS
100
AcDbDimension
  2
*D29
 10
775.117458
 20
123.943105
 30
0.0
 11
772.617458
 21
118.943105
 31
0.0
 70
    32
  3
STANDARD
100
AcDbAlignedDimension
 13
788.231141
 23
113.943105
 33
0.0
 14
779.461015
 24
123.943105
 34
0.0
 50
90.0
100
AcDbRotatedDimension
1001
ACAD
1000
DSTYLE
1002
{
1070
    40
1040
1.0
1002
}
  0
DIMENSION
  5
1D7
100
AcDbEntity
  8
寸法
  6
CONTINUOUS
100
AcDbDimension
  2
*D31
 10
788.151701
 20
114.239578
 30
0.0
 11
765.94042
 21
131.047377
 31
0.0
 70
    34
  3
STANDARD
100
AcDb2LineAngularDimension
 13
788.590732
 23
113.943105
 33
0.0
 14
788.231141
 24
113.943105
 34
0.0
 15
785.893505
 25
122.66728
 35
0.0
 16
771.77781
 26
133.551421
 36
0.0
1001
ACAD
1000
DSTYLE
1002
{
1070
    40
1040
1.0
1002
}
  0
LINE
  5
1D9
100
AcDbEntity
  8
外形
  6
CENTER
 62
     1
100
AcDbLine
 10
736.389741
 20
136.38884
 30
0.0
 11
736.389741
 21
111.497371
 31
0.0
  0
LINE
  5
1DA
100
AcDbEntity
  8
外形
  6
CENTER
 62
     1
100
AcDbLine
 10
736.309741
 20
136.38884
 30
0.0
 11
736.309741
 21
111.497371
 31
0.0
  0
CIRCLE
  5
1DB
100
AcDbEntity
  8
外形
  6
CENTER
 62
     1
100
AcDbCircle
 10
736.309741
 20
123.943105
 30
0.0
 40
10.0
  0
LINE
  5
1DC
100
AcDbEntity
  8
外形
  6
CONTINUOUS
100
AcDbLine
 10
737.288717
 20
127.943105
 30
0.0
 11
736.309741
 21
113.943105
 31
0.0
  0
ARC
  5
1DD
100
AcDbEntity
  8
外形
  6
CONTINUOUS
100
AcDbCircle
 10
735.904857
 20
123.024859
 30
0.0
 40
8.681798
100
AcDbArc
 50
86.798325
 51
251.71229
  0
LINE
  5
1DE
100
AcDbEntity
  8
外形
  6
CONTINUOUS
100
AcDbLine
 10
743.809741
 20
121.159223
 30
0.0
 11
743.809741
 21
126.180537
 31
0.0
  0
ARC
  5
1DF
100
AcDbEntity
  8
外形
  6
CONTINUOUS
100
AcDbCircle
 10
736.309741
 20
123.943105
 30
0.0
 40
2.15
100
AcDbArc
 50
67.067821
 51
214.561278
  0
ARC
  5
1E1
100
AcDbEntity
  8
外形
  6
CONTINUOUS
100
AcDbCircle
 10
736.309741
 20
123.943105
 30
0.0
 40
8.0
100
AcDbArc
 50
270.501344
 51
339.635865
  0
LINE
  5
1E2
100
AcDbEntity
  8
外形
  6
CONTINUOUS
100
AcDbLine
 10
736.309741
 20
113.943105
 30
0.0
 11
733.180606
 21
114.781554
 31
0.0
  0
LINE
  5
1E3
100
AcDbEntity
  8
外形
  6
CONTINUOUS
100
AcDbLine
 10
736.944373
 20
123.018759
 30
0.0
 11
733.729001
 21
122.623961
 31
0.0
  0
LINE
  5
1E4
100
AcDbEntity
  8
外形
  6
CONTINUOUS
100
AcDbLine
 10
733.729001
 20
122.623961
 30
0.0
 11
733.180606
 21
114.781554
 31
0.0
  0
LEADER
  5
1E5
100
AcDbEntity
  8
寸法
  6
CONTINUOUS
 62
     1
100
AcDbLeader
  3
STANDARD
 73
     0
 74
     0
 75
     1
 40
3.0
 41
26.0
 76
     3
 10
742.821416
 20
131.532446
 30
0.0
 10
750.788741
 20
144.773655
 30
0.0
 10
752.788741
 20
144.773655
 30
0.0
 77
   256
340
1B8
213
-0.1129475379637483
223
0.5510341987360618
233
0.0
1001
ACAD
1000
DSTYLE
1002
{
1070
   284
1070
    13
1070
   146
1040
0.5
1070
   272
1070
     3
1070
    40
1040
1.0
1070
   287
1070
     0
1002
}
  0
ARC
  5
1E6
100
AcDbEntity
  8
外形
  6
CONTINUOUS
100
AcDbCircle
 10
736.389741
 20
123.943105
 30
0.0
 40
7.75
100
AcDbArc
 50
16.780194
 51
90.0
  0
LINE
  5
1E7
100
AcDbEntity
  8
外形
  6
CONTINUOUS
100
AcDbLine
 10
737.288717
 20
127.943105
 30
0.0
 11
728.750525
 21
127.943105
 31
0.0
  0
LINE
  5
1E8
100
AcDbEntity
  8
外形
  6
CONTINUOUS
100
AcDbLine
 10
737.288717
 20
127.943105
 30
0.0
 11
738.233262
 21
131.468194
 31
0.0
  0
LINE
  5
1E9
100
AcDbEntity
  8
外形
  6
CONTINUOUS
100
AcDbLine
 10
786.176348
 20
123.157178
 30
0.0
 11
794.604051
 21
125.415374
 31
0.0
  0
LINE
  5
1EA
100
AcDbEntity
  8
外形
  6
CENTER
 62
     1
100
AcDbLine
 10
791.622825
 20
112.592369
 30
0.0
 11
791.622825
 21
126.247993
 31
0.0
  0
LINE
  5
1EB
100
AcDbEntity
  8
外形
  6
CONTINUOUS
100
AcDbLine
 10
786.542825
 20
127.943105
 30
0.0
 11
786.542825
 21
123.255376
 31
0.0
  0
CIRCLE
  5
1EC
100
AcDbEntity
  8
外形
  6
CONTINUOUS
100
AcDbCircle
 10
791.622825
 20
119.686055
 30
0.0
 40
4.7625
  0
ARC
  5
1EE
100
AcDbEntity
  8
外形
  6
CONTINUOUS
100
AcDbCircle
 10
794.12959
 20
124.028478
 30
0.0
 40
1.75
100
AcDbArc
 50
329.072705
 51
150.945905
  0
LINE
  5
1F0
100
AcDbEntity
  8
外形
  6
CONTINUOUS
100
AcDbLine
 10
795.093948
 20
125.132532
 30
0.0
 11
797.489261
 21
116.193105
 31
0.0
  0
SPLINE
  5
1F1
100
AcDbEntity
  8
外形
  6
CONTINUOUS
100
AcDbSpline
210
0.0
220
0.0
230
1.0
 70
     8
 71
     3
 72
    10
 73
     6
 74
     0
 42
0.0000001
 43
0.0000001
 40
0.0
 40
0.0
 40
0.0
 40
0.0
 40
14.6813596986902
 40
21.0450384659282
 40
34.60811174833256
 40
34.60811174833256
 40
34.60811174833256
 40
34.60811174833256
 10
792.6484579401535
 20
131.4681940756162
 30
0.0
 10
797.1851248012467
 20
130.3571450059525
 30
0.0
 10
803.68822332606
 20
128.764508432196
 30
0.0
 10
814.2901201756986
 20
118.5784694756333
 30
0.0
 10
804.671799307656
 20
117.2414721528625
 30
0.0
 10
797.489260637081
 20
116.1931051557612
 30
0.0
  0
LINE
  5
1F3
100
AcDbEntity
  8
外形
  6
CONTINUOUS
100
AcDbLine
 10
809.245847
 20
116.193105
 30
0.0
 11
797.489261
 21
116.193105
 31
0.0
  0
LINE
  5
1F4
100
AcDbEntity
  8
外形
  6
CENTER
 62
     1
100
AcDbLine
 10
784.953248
 20
119.686055
 30
0.0
 11
798.214713
 21
119.686055
 31
0.0
  0
ARC
  5
1F5
100
AcDbEntity
  8
外形
  6
CONTINUOUS
100
AcDbCircle
 10
796.965774
 20
116.601301
 30
0.0
 40
0.4
100
AcDbArc
 50
285.0
 51
15.0
  0
LINE
  5
1F6
100
AcDbEntity
  8
外形
  6
CONTINUOUS
100
AcDbLine
 10
785.893505
 20
122.66728
 30
0.0
 11
788.151701
 21
114.239578
 31
0.0
  0
CIRCLE
  5
1F7
100
AcDbEntity
  8
外形
  6
CONTINUOUS
100
AcDbCircle
 10
791.622825
 20
119.686055
 30
0.0
 40
2.15001
  0
LINE
  5
1F8
100
AcDbEntity
  8
外形
  6
CONTINUOUS
100
AcDbLine
 10
792.468502
 20
119.98406
 30
0.0
 11
792.978815
 21
119.686055
 31
0.0
  0
LINE
  5
1F9
100
AcDbEntity
  8
外形
  6
CONTINUOUS
100
AcDbLine
 10
790.266835
 20
119.686055
 30
0.0
 11
790.777148
 21
119.98406
 31
0.0
  0
LINE
  5
1FA
100
AcDbEntity
  8
外形
  6
CONTINUOUS
100
AcDbLine
 10
792.978815
 20
119.686055
 30
0.0
 11
792.468502
 21
119.388049
 31
0.0
  0
LINE
  5
1FB
100
AcDbEntity
  8
外形
  6
CONTINUOUS
100
AcDbLine
 10
790.777148
 20
119.388049
 30
0.0
 11
790.266835
 21
119.686055
 31
0.0
  0
LINE
  5
1FC
100
AcDbEntity
  8
外形
  6
CONTINUOUS
100
AcDbLine
 10
791.458067
 20
118.804674
 30
0.0
 11
790.94483
 21
118.511733
 31
0.0
  0
LINE
  5
1FD
100
AcDbEntity
  8
外形
  6
CONTINUOUS
100
AcDbLine
 10
790.94483
 20
118.511733
 30
0.0
 11
790.941906
 21
119.10268
 31
0.0
  0
LINE
  5
1FE
100
AcDbEntity
  8
外形
  6
CONTINUOUS
100
AcDbLine
 10
792.303744
 20
119.10268
 30
0.0
 11
792.30082
 21
118.511733
 31
0.0
  0
LINE
  5
1FF
100
AcDbEntity
  8
外形
  6
CONTINUOUS
100
AcDbLine
 10
792.30082
 20
118.511733
 30
0.0
 11
791.787583
 21
118.804674
 31
0.0
  0
ARC
  5
200
100
AcDbEntity
  8
外形
  6
CONTINUOUS
100
AcDbCircle
 10
792.636108
 20
119.101036
 30
0.0
 40
0.332368
100
AcDbArc
 50
120.283476
 51
179.716524
  0
ARC
  5
201
100
AcDbEntity
  8
外形
  6
CONTINUOUS
100
AcDbCircle
 10
791.622825
 20
118.516017
 30
0.0
 40
0.332368
100
AcDbArc
 50
60.283476
 51
119.716524
  0
ARC
  5
202
100
AcDbEntity
  8
外形
  6
CONTINUOUS
100
AcDbCircle
 10
790.609542
 20
119.101036
 30
0.0
 40
0.332368
100
AcDbArc
 50
0.283476
 51
59.716524
  0
LINE
  5
203
100
AcDbEntity
  8
外形
  6
CONTINUOUS
100
AcDbLine
 10
791.787583
 20
120.567435
 30
0.0
 11
792.30082
 21
120.860377
 31
0.0
  0
LINE
  5
204
100
AcDbEntity
  8
外形
  6
CONTINUOUS
100
AcDbLine
 10
792.30082
 20
120.860377
 30
0.0
 11
792.303744
 21
120.269429
 31
0.0
  0
LINE
  5
205
100
AcDbEntity
  8
外形
  6
CONTINUOUS
100
AcDbLine
 10
790.941906
 20
120.269429
 30
0.0
 11
790.94483
 21
120.860377
 31
0.0
  0
LINE
  5
206
100
AcDbEntity
  8
外形
  6
CONTINUOUS
100
AcDbLine
 10
790.94483
 20
120.860377
 30
0.0
 11
791.458067
 21
120.567435
 31
0.0
  0
ARC
  5
207
100
AcDbEntity
  8
外形
  6
CONTINUOUS
100
AcDbCircle
 10
792.636108
 20
120.271074
 30
0.0
 40
0.332368
100
AcDbArc
 50
180.283476
 51
239.716524
  0
ARC
  5
208
100
AcDbEntity
  8
外形
  6
CONTINUOUS
100
AcDbCircle
 10
790.609542
 20
120.271074
 30
0.0
 40
0.332368
100
AcDbArc
 50
300.283476
 51
359.716524
  0
ARC
  5
209
100
AcDbEntity
  8
外形
  6
CONTINUOUS
100
AcDbCircle
 10
791.622825
 20
120.856093
 30
0.0
 40
0.332368
100
AcDbArc
 50
240.283476
 51
299.716524
  0
LINE
  5
20A
100
AcDbEntity
  8
外形
  6
CONTINUOUS
 62
     1
100
AcDbLine
 10
788.151701
 20
114.239578
 30
0.0
 11
788.231141
 21
113.943105
 31
0.0
  0
LINE
  5
20B
100
AcDbEntity
  8
外形
  6
CONTINUOUS
 62
     1
100
AcDbLine
 10
788.590732
 20
113.943105
 30
0.0
 11
788.231141
 21
113.943105
 31
0.0
  0
ARC
  5
20C
100
AcDbEntity
  8
外形
  6
CONTINUOUS
100
AcDbCircle
 10
786.279875
 20
122.770808
 30
0.0
 40
0.4
100
AcDbArc
 50
105.0
 51
195.0
  0
ARC
  5
20D
100
AcDbEntity
  8
外形
  6
CONTINUOUS
100
AcDbCircle
 10
788.538071
 20
114.343105
 30
0.0
 40
0.4
100
AcDbArc
 50
195.0
 51
285.0
  0
LINE
  5
20E
100
AcDbEntity
  8
外形
  6
CONTINUOUS
 62
     1
100
AcDbLine
 10
788.538071
 20
113.943105
 30
0.0
 11
788.231141
 21
113.943105
 31
0.0
  0
LINE
  5
20F
100
AcDbEntity
  8
外形
  6
CONTINUOUS
100
AcDbLine
 10
788.641599
 20
113.956735
 30
0.0
 11
797.069302
 21
116.214931
 31
0.0
  0
LINE
  5
210
100
AcDbEntity
  8
外形
  6
CONTINUOUS
100
AcDbLine
 10
809.245847
 20
116.193105
 30
0.0
 11
809.495847
 21
115.943105
 31
0.0
  0
LINE
  5
211
100
AcDbEntity
  8
外形
  6
CONTINUOUS
100
AcDbLine
 10
809.245847
 20
116.193105
 30
0.0
 11
809.245847
 21
118.888561
 31
0.0
  0
LINE
  5
212
100
AcDbEntity
  8
外形
  6
CONTINUOUS
100
AcDbLine
 10
809.495847
 20
115.943105
 30
0.0
 11
809.495847
 21
119.050705
 31
0.0
  0
LINE
  5
213
100
AcDbEntity
  8
外形
  6
CONTINUOUS
100
AcDbLine
 10
809.245847
 20
131.693105
 30
0.0
 11
793.038015
 21
131.693105
 31
0.0
  0
LINE
  5
214
100
AcDbEntity
  8
外形
  6
CONTINUOUS
100
AcDbLine
 10
786.542825
 20
127.943105
 30
0.0
 11
793.038015
 21
131.693105
 31
0.0
  0
ARC
  5
215
100
AcDbEntity
  8
外形
  6
CONTINUOUS
100
AcDbCircle
 10
794.707578
 20
125.029004
 30
0.0
 40
0.4
100
AcDbArc
 50
15.0
 51
105.0
  0
LINE
  5
216
100
AcDbEntity
  8
外形
  6
CONTINUOUS
100
AcDbLine
 10
809.495847
 20
126.726987
 30
0.0
 11
809.495847
 21
131.943105
 31
0.0
  0
LINE
  5
217
100
AcDbEntity
  8
外形
  6
CONTINUOUS
100
AcDbLine
 10
809.245847
 20
131.693105
 30
0.0
 11
809.495847
 21
131.943105
 31
0.0
  0
LINE
  5
218
100
AcDbEntity
  8
外形
  6
CONTINUOUS
100
AcDbLine
 10
809.245847
 20
125.895668
 30
0.0
 11
806.231141
 21
125.895668
 31
0.0
  0
LINE
  5
219
100
AcDbEntity
  8
外形
  6
CONTINUOUS
100
AcDbLine
 10
809.245847
 20
125.895668
 30
0.0
 11
809.245847
 21
131.693105
 31
0.0
  0
LINE
  5
21A
100
AcDbEntity
  8
外形
  6
CONTINUOUS
100
AcDbLine
 10
987.227053
 20
131.943105
 30
0.0
 11
937.727053
 21
131.943105
 31
0.0
  0
LINE
  5
21B
100
AcDbEntity
  8
外形
  6
CONTINUOUS
100
AcDbLine
 10
987.227053
 20
126.726987
 30
0.0
 11
937.727053
 21
126.726987
 31
0.0
  0
LINE
  5
21C
100
AcDbEntity
  8
外形
  6
CONTINUOUS
100
AcDbLine
 10
987.227053
 20
121.159223
 30
0.0
 11
937.727053
 21
121.159223
 31
0.0
  0
LINE
  5
21D
100
AcDbEntity
  8
外形
  6
CONTINUOUS
100
AcDbLine
 10
987.227053
 20
115.943105
 30
0.0
 11
937.727053
 21
115.943105
 31
0.0
  0
DIMENSION
  5
21E
100
AcDbEntity
  8
寸法
  6
CONTINUOUS
100
AcDbDimension
  2
*D37
 10
935.727053
 20
99.66452
 30
0.0
 11
928.227053
 21
102.16452
 31
0.0
 70
    32
  3
STANDARD
100
AcDbAlignedDimension
 13
920.727053
 23
121.159223
 33
0.0
 14
935.727053
 24
121.159223
 34
0.0
100
AcDbRotatedDimension
1001
ACAD
1000
DSTYLE
1002
{
1070
    40
1040
1.0
1002
}
  0
LINE
  5
21F
100
AcDbEntity
  8
外形
  6
CONTINUOUS
100
AcDbLine
 10
935.727053
 20
126.726987
 30
0.0
 11
935.727053
 21
121.159223
 31
0.0
  0
LINE
  5
220
100
AcDbEntity
  8
外形
  6
CENTER
 62
     1
100
AcDbLine
 10
928.227053
 20
135.327026
 30
0.0
 11
928.227053
 21
112.589099
 31
0.0
  0
LINE
  5
221
100
AcDbEntity
  8
外形
  6
CONTINUOUS
100
AcDbLine
 10
920.727053
 20
126.726987
 30
0.0
 11
920.727053
 21
121.159223
 31
0.0
  0
DIMENSION
  5
222
100
AcDbEntity
  8
寸法
  6
CONTINUOUS
100
AcDbDimension
  2
*D38
 10
923.054377
 20
117.840366
 30
0.0
 11
941.507447
 21
139.611355
 31
0.0
 70
   163
  3
STANDARD
100
AcDbDiametricDimension
 15
933.399729
 25
130.045844
 35
0.0
 40
0.0
1001
ACAD
1000
DSTYLE
1002
{
1070
    40
1040
1.0
1002
}
  0
ARC
  5
223
100
AcDbEntity
  8
外形
  6
CONTINUOUS
100
AcDbCircle
 10
928.227053
 20
123.943105
 30
0.0
 40
8.0
100
AcDbArc
 50
200.364135
 51
339.635865
  0
ARC
  5
224
100
AcDbEntity
  8
外形
  6
CONTINUOUS
100
AcDbCircle
 10
928.227053
 20
123.943105
 30
0.0
 40
8.0
100
AcDbArc
 50
20.364135
 51
159.635865
  0
LINE
  5
225
100
AcDbEntity
  8
外形
  6
CONTINUOUS
100
AcDbLine
 10
987.227053
 20
74.507204
 30
0.0
 11
988.227053
 21
73.507204
 31
0.0
  0
LINE
  5
226
100
AcDbEntity
  8
外形
  6
CONTINUOUS
100
AcDbLine
 10
987.227053
 20
74.507204
 30
0.0
 11
987.227053
 21
59.507204
 31
0.0
  0
LINE
  5
227
100
AcDbEntity
  8
外形
  6
CONTINUOUS
100
AcDbLine
 10
988.227053
 20
60.507204
 30
0.0
 11
988.227053
 21
73.507204
 31
0.0
  0
LINE
  5
228
100
AcDbEntity
  8
外形
  6
CONTINUOUS
100
AcDbLine
 10
987.227053
 20
59.507204
 30
0.0
 11
988.227053
 21
60.507204
 31
0.0
  0
LINE
  5
229
100
AcDbEntity
  8
外形
  6
CONTINUOUS
100
AcDbLine
 10
988.227053
 20
116.943105
 30
0.0
 11
988.227053
 21
130.943105
 31
0.0
  0
ARC
  5
22B
100
AcDbEntity
  8
外形
  6
CONTINUOUS
100
AcDbCircle
 10
979.727053
 20
123.943105
 30
0.0
 40
8.0
100
AcDbArc
 50
339.635865
 51
20.364135
  0
LINE
  5
22C
100
AcDbEntity
  8
外形
  6
CONTINUOUS
100
AcDbLine
 10
987.227053
 20
115.943105
 30
0.0
 11
988.227053
 21
116.943105
 31
0.0
  0
LINE
  5
22D
100
AcDbEntity
  8
外形
  6
CONTINUOUS
100
AcDbLine
 10
987.227053
 20
121.159223
 30
0.0
 11
987.227053
 21
115.943105
 31
0.0
  0
LINE
  5
22E
100
AcDbEntity
  8
外形
  6
CONTINUOUS
100
AcDbLine
 10
987.227053
 20
131.943105
 30
0.0
 11
988.227053
 21
130.943105
 31
0.0
  0
LINE
  5
22F
100
AcDbEntity
  8
外形
  6
CONTINUOUS
100
AcDbLine
 10
987.227053
 20
131.943105
 30
0.0
 11
987.227053
 21
126.726987
 31
0.0
  0
ENDSEC
  0
SECTION
  2
OBJECTS
  0
DICTIONARY
  5
1E
100
AcDbDictionary
  3
ACAD_GROUP
350
1C
  3
ACAD_MLINESTYLE
350
1D
  0
DICTIONARY
  5
44
100
AcDbDictionary
280
     1
  3
ACAD_XREC_ROUNDTRIP
360
45
  0
DICTIONARY
  5
33
100
AcDbDictionary
280
     1
  3
ACAD_XREC_ROUNDTRIP
360
34
  0
DICTIONARY
  5
3
100
AcDbDictionary
280
     1
  3
ACAD_LAYOUTSELFREF
360
4
  0
DICTIONARY
  5
A
100
AcDbDictionary
280
     1
  3
ACAD_LAYOUTSELFREF
360
B
  0
DICTIONARY
  5
1C
102
{ACAD_REACTORS
330
1E
102
}
100
AcDbDictionary
  0
DICTIONARY
  5
1D
102
{ACAD_REACTORS
330
1E
102
}
100
AcDbDictionary
  3
STANDARD
350
20
  0
XRECORD
  5
45
102
{ACAD_REACTORS
330
44
102
}
100
AcDbXrecord
102
PLOTBIT
280
     0
  0
XRECORD
  5
34
102
{ACAD_REACTORS
330
33
102
}
100
AcDbXrecord
102
ACADR14ROUNDTRIP
1000
DSTYLE
1002
{
1070
   341
340
0
1070
   343
340
0
1070
   344
340
0
1002
}
  0
XRECORD
  5
4
102
{ACAD_REACTORS
330
3
102
}
100
AcDbXrecord
340
2
  0
XRECORD
  5
B
102
{ACAD_REACTORS
330
A
102
}
100
AcDbXrecord
340
9
  0
MLINESTYLE
  5
20
102
{ACAD_REACTORS
330
1D
102
}
100
AcDbMlineStyle
  2
STANDARD
 70
     0
  3

 62
     0
 51
90.0
 52
90.0
 71
     2
 49
0.5
 62
   256
  6
BYLAYER
 49
-0.5
 62
   256
  6
BYLAYER
  0
ENDSEC
  0
EOF
