  0
SECTION
  2
HEADER
  9
$ACADVER
  1
AC1014
  9
$ACADMAINTVER
 70
     0
  9
$DWGCODEPAGE
  3
ANSI_932
  9
$INSBASE
 10
902.131532
 20
-236.71456
 30
0.0
  9
$EXTMIN
 10
883.055019
 20
-251.342521
 30
0.0
  9
$EXTMAX
 10
1259.034834
 20
-126.477249
 30
0.0
  9
$LIMMIN
 10
-587.250952
 20
327.890188
  9
$LIMMAX
 10
600.749048
 20
957.890188
  9
$ORTHOMODE
 70
     1
  9
$REGENMODE
 70
     1
  9
$FILLMODE
 70
     1
  9
$QTEXTMODE
 70
     0
  9
$MIRRTEXT
 70
     1
  9
$DRAGMODE
 70
     2
  9
$LTSCALE
 40
5.0
  9
$OSMODE
 70
   303
  9
$ATTMODE
 70
     1
  9
$TEXTSIZE
 40
5.0
  9
$TRACEWID
 40
0.05
  9
$TEXTSTYLE
  7
STANDARD
  9
$CLAYER
  8
外形
  9
$CELTYPE
  6
CONTINUOUS
  9
$CECOLOR
 62
     3
  9
$CELTSCALE
 40
1.0
  9
$DELOBJ
 70
     1
  9
$DISPSILH
 70
     0
  9
$DIMSCALE
 40
1.0
  9
$DIMASZ
 40
2.0
  9
$DIMEXO
 40
1.0
  9
$DIMDLI
 40
8.0
  9
$DIMRND
 40
0.0
  9
$DIMDLE
 40
0.0
  9
$DIMEXE
 40
2.0
  9
$DIMTP
 40
0.0
  9
$DIMTM
 40
0.0
  9
$DIMTXT
 40
2.0
  9
$DIMCEN
 40
-1.0
  9
$DIMTSZ
 40
0.0
  9
$DIMTOL
 70
     0
  9
$DIMLIM
 70
     0
  9
$DIMTIH
 70
     0
  9
$DIMTOH
 70
     0
  9
$DIMSE1
 70
     0
  9
$DIMSE2
 70
     0
  9
$DIMTAD
 70
     1
  9
$DIMZIN
 70
     8
  9
$DIMBLK
  1

  9
$DIMASO
 70
     1
  9
$DIMSHO
 70
     1
  9
$DIMPOST
  1

  9
$DIMAPOST
  1

  9
$DIMALT
 70
     0
  9
$DIMALTD
 70
     2
  9
$DIMALTF
 40
25.4
  9
$DIMLFAC
 40
1.0
  9
$DIMTOFL
 70
     1
  9
$DIMTVP
 40
0.0
  9
$DIMTIX
 70
     0
  9
$DIMSOXD
 70
     0
  9
$DIMSAH
 70
     1
  9
$DIMBLK1
  1
_DOTSMALL
  9
$DIMBLK2
  1
_DOTSMALL
  9
$DIMSTYLE
  2
参考寸法
  9
$DIMCLRD
 70
     2
  9
$DIMCLRE
 70
     2
  9
$DIMCLRT
 70
     2
  9
$DIMTFAC
 40
1.0
  9
$DIMGAP
 40
1.0
  9
$DIMJUST
 70
     0
  9
$DIMSD1
 70
     0
  9
$DIMSD2
 70
     0
  9
$DIMTOLJ
 70
     1
  9
$DIMTZIN
 70
     8
  9
$DIMALTZ
 70
     0
  9
$DIMALTTZ
 70
     0
  9
$DIMFIT
 70
     3
  9
$DIMUPT
 70
     0
  9
$DIMUNIT
 70
     2
  9
$DIMDEC
 70
     3
  9
$DIMTDEC
 70
     2
  9
$DIMALTU
 70
     2
  9
$DIMALTTD
 70
     2
  9
$DIMTXSTY
  7
STANDARD
  9
$DIMAUNIT
 70
     0
  9
$LUNITS
 70
     2
  9
$LUPREC
 70
     3
  9
$SKETCHINC
 40
0.1
  9
$FILLETRAD
 40
1.0
  9
$AUNITS
 70
     0
  9
$AUPREC
 70
     3
  9
$MENU
  1
acad
  9
$ELEVATION
 40
0.0
  9
$PELEVATION
 40
0.0
  9
$THICKNESS
 40
0.0
  9
$LIMCHECK
 70
     0
  9
$BLIPMODE
 70
     0
  9
$CHAMFERA
 40
0.0
  9
$CHAMFERB
 40
0.0
  9
$CHAMFERC
 40
0.0
  9
$CHAMFERD
 40
0.0
  9
$SKPOLY
 70
     0
  9
$TDCREATE
 40
2450751.535399305
  9
$TDUPDATE
 40
2452009.489189814
  9
$TDINDWG
 40
4.0770824074
  9
$TDUSRTIMER
 40
4.0770824074
  9
$USRTIMER
 70
     1
  9
$ANGBASE
 50
0.0
  9
$ANGDIR
 70
     0
  9
$PDMODE
 70
    32
  9
$PDSIZE
 40
0.0
  9
$PLINEWID
 40
0.0
  9
$COORDS
 70
     2
  9
$SPLFRAME
 70
     0
  9
$SPLINETYPE
 70
     5
  9
$SPLINESEGS
 70
     8
  9
$ATTDIA
 70
     0
  9
$ATTREQ
 70
     1
  9
$HANDLING
 70
     1
  9
$HANDSEED
  5
365
  9
$SURFTAB1
 70
     6
  9
$SURFTAB2
 70
     6
  9
$SURFTYPE
 70
     6
  9
$SURFU
 70
     6
  9
$SURFV
 70
     6
  9
$UCSNAME
  2

  9
$UCSORG
 10
0.0
 20
0.0
 30
0.0
  9
$UCSXDIR
 10
1.0
 20
0.0
 30
0.0
  9
$UCSYDIR
 10
0.0
 20
1.0
 30
0.0
  9
$PUCSNAME
  2

  9
$PUCSORG
 10
0.0
 20
0.0
 30
0.0
  9
$PUCSXDIR
 10
1.0
 20
0.0
 30
0.0
  9
$PUCSYDIR
 10
0.0
 20
1.0
 30
0.0
  9
$USERI1
 70
     0
  9
$USERI2
 70
     0
  9
$USERI3
 70
     0
  9
$USERI4
 70
     0
  9
$USERI5
 70
     0
  9
$USERR1
 40
0.0
  9
$USERR2
 40
0.0
  9
$USERR3
 40
0.0
  9
$USERR4
 40
0.0
  9
$USERR5
 40
0.0
  9
$WORLDVIEW
 70
     1
  9
$SHADEDGE
 70
     3
  9
$SHADEDIF
 70
    70
  9
$TILEMODE
 70
     1
  9
$MAXACTVP
 70
    16
  9
$PINSBASE
 10
0.0
 20
0.0
 30
0.0
  9
$PLIMCHECK
 70
     0
  9
$PEXTMIN
 10
1.000000E+20
 20
1.000000E+20
 30
1.000000E+20
  9
$PEXTMAX
 10
-1.000000E+20
 20
-1.000000E+20
 30
-1.000000E+20
  9
$PLIMMIN
 10
0.0
 20
0.0
  9
$PLIMMAX
 10
12.0
 20
9.0
  9
$UNITMODE
 70
     0
  9
$VISRETAIN
 70
     0
  9
$PLINEGEN
 70
     0
  9
$PSLTSCALE
 70
     1
  9
$TREEDEPTH
 70
  3020
  9
$PICKSTYLE
 70
     1
  9
$CMLSTYLE
  2
STANDARD
  9
$CMLJUST
 70
     0
  9
$CMLSCALE
 40
1.0
  9
$PROXYGRAPHICS
 70
     1
  9
$MEASUREMENT
 70
     0
  0
ENDSEC
  0
SECTION
  2
CLASSES
  0
CLASS
  1
LWPOLYLINE
  2
AcDbPolyline
  3
"AutoCAD"
 90
        0
280
     0
281
     1
  0
CLASS
  1
ACDBDICTIONARYWDFLT
  2
AcDbDictionaryWithDefault
  3
AutoCAD 2000
 90
        0
280
     1
281
     0
  0
CLASS
  1
ACDBPLACEHOLDER
  2
AcDbPlaceHolder
  3
AutoCAD 2000
 90
        0
280
     1
281
     0
  0
CLASS
  1
LAYOUT
  2
AcDbLayout
  3
AutoCAD 2000
 90
        0
280
     1
281
     0
  0
CLASS
  1
LONG_TRANSACTION
  2
AcDbLongTransaction
  3
AutoCAD 2000
 90
        0
280
     1
281
     0
  0
CLASS
  1
LWPOLYLINE
  2
AcDbPolyline
  3
"AutoCAD"
 90
        0
280
     0
281
     1
  0
CLASS
  1
HATCH
  2
AcDbHatch
  3
"ACAD_SEDONA"
 90
        0
280
     0
281
     1
  0
CLASS
  1
XRECORD
  2
AcDbXrecord
  3
"<Built In>"
 90
        0
280
     0
281
     0
  0
CLASS
  1
DICTIONARYVAR
  2
AcDbDictionaryVar
  3
"AutoCAD"
 90
        0
280
     0
281
     0
  0
ENDSEC
  0
SECTION
  2
TABLES
  0
TABLE
  2
VPORT
  5
16
100
AcDbSymbolTable
 70
     1
  0
VPORT
  5
360
100
AcDbSymbolTableRecord
100
AcDbViewportTableRecord
  2
*ACTIVE
 70
     0
 10
0.0
 20
0.0
 11
1.0
 21
1.0
 12
1074.333352
 22
-197.534296
 13
0.0
 23
0.0
 14
1.0
 24
1.0
 15
10.0
 25
10.0
 16
0.0
 26
0.0
 36
1.0
 17
0.0
 27
0.0
 37
0.0
 40
256.960093
 41
1.710425
 42
50.0
 43
0.0
 44
0.0
 50
0.0
 51
0.0
 71
     0
 72
   100
 73
     1
 74
     1
 75
     0
 76
     0
 77
     0
 78
     2
  0
ENDTAB
  0
TABLE
  2
LTYPE
  5
11
100
AcDbSymbolTable
 70
     2
  0
LTYPE
  5
12
100
AcDbSymbolTableRecord
100
AcDbLinetypeTableRecord
  2
BYBLOCK
 70
     0
  3

 72
    65
 73
     0
 40
0.0
  0
LTYPE
  5
13
100
AcDbSymbolTableRecord
100
AcDbLinetypeTableRecord
  2
BYLAYER
 70
     0
  3

 72
    65
 73
     0
 40
0.0
  0
LTYPE
  5
7
100
AcDbSymbolTableRecord
100
AcDbLinetypeTableRecord
  2
CONTINUOUS
 70
     0
  3
Solid line
 72
    65
 73
     0
 40
0.0
  0
LTYPE
  5
6D
100
AcDbSymbolTableRecord
100
AcDbLinetypeTableRecord
  2
CENTER
 70
     0
  3
Center ____ _ ____ _ ____ _ ____ _ ____ _ ____
 72
    65
 73
     4
 40
2.0
 49
1.25
 74
     0
 49
-0.25
 74
     0
 49
0.25
 74
     0
 49
-0.25
 74
     0
  0
ENDTAB
  0
TABLE
  2
LAYER
  5
E
100
AcDbSymbolTable
 70
     5
  0
LAYER
  5
6
100
AcDbSymbolTableRecord
100
AcDbLayerTableRecord
  2
0
 70
     0
 62
     7
  6
CONTINUOUS
  0
LAYER
  5
1F
100
AcDbSymbolTableRecord
100
AcDbLayerTableRecord
  2
外形
 70
     0
 62
     4
  6
CONTINUOUS
  0
LAYER
  5
3C
102
{ACAD_XDICTIONARY
360
3D
102
}
100
AcDbSymbolTableRecord
100
AcDbLayerTableRecord
  2
DEFPOINTS
 70
     0
 62
     7
  6
CONTINUOUS
  0
LAYER
  5
44
100
AcDbSymbolTableRecord
100
AcDbLayerTableRecord
  2
寸法
 70
     0
 62
     1
  6
CONTINUOUS
  0
LAYER
  5
33
100
AcDbSymbolTableRecord
100
AcDbLayerTableRecord
  2
参考
 70
     0
 62
     2
  6
CONTINUOUS
  0
ENDTAB
  0
TABLE
  2
STYLE
  5
F
100
AcDbSymbolTable
 70
     1
  0
STYLE
  5
10
100
AcDbSymbolTableRecord
100
AcDbTextStyleTableRecord
  2
STANDARD
 70
     0
 40
0.0
 41
1.0
 50
0.0
 71
     0
 42
5.0
  3
MONOTXT
  4
BIGFONT
  0
ENDTAB
  0
TABLE
  2
VIEW
  5
14
100
AcDbSymbolTable
 70
     0
  0
ENDTAB
  0
TABLE
  2
UCS
  5
15
100
AcDbSymbolTable
 70
     0
  0
ENDTAB
  0
TABLE
  2
APPID
  5
18
100
AcDbSymbolTable
 70
     1
  0
APPID
  5
19
100
AcDbSymbolTableRecord
100
AcDbRegAppTableRecord
  2
ACAD
 70
     0
  0
ENDTAB
  0
TABLE
  2
DIMSTYLE
  5
1A
100
AcDbSymbolTable
 70
     2
  0
DIMSTYLE
105
45
102
{ACAD_XDICTIONARY
360
46
102
}
102
{ACAD_REACTORS
330
157
330
5A
330
43
330
133
330
91
330
D9
330
14A
102
}
100
AcDbSymbolTableRecord
100
AcDbDimStyleTableRecord
  2
STANDARD
 70
     0
  3

  4

  5

  6
_OPEN30
  7
_OPEN30
 40
0.0
 41
2.0
 42
1.0
 43
8.0
 44
2.0
 45
0.0
 46
0.0
 47
0.0
 48
0.0
140
3.0
141
-1.0
142
0.0
143
25.4
144
1.0
145
0.0
146
1.0
147
1.0
 71
     0
 72
     0
 73
     0
 74
     0
 75
     0
 76
     0
 77
     1
 78
     8
170
     0
171
     2
172
     1
173
     1
174
     0
175
     0
176
     1
177
     1
178
     3
270
     2
271
     2
272
     2
273
     2
274
     2
340
10
275
     0
280
     0
281
     0
282
     0
283
     1
284
     8
285
     0
286
     0
287
     3
288
     0
  0
DIMSTYLE
105
21
102
{ACAD_REACTORS
330
6F
330
F5
330
E6
330
A6
330
32
330
CE
330
108
330
BE
102
}
100
AcDbSymbolTableRecord
100
AcDbDimStyleTableRecord
  2
参考寸法
 70
     0
  3

  4

  5

  6
_DOTSMALL
  7
_DOTSMALL
 40
1.0
 41
2.0
 42
1.0
 43
8.0
 44
2.0
 45
0.0
 46
0.0
 47
0.0
 48
0.0
140
2.0
141
-1.0
142
0.0
143
25.4
144
1.0
145
0.0
146
1.0
147
1.0
 71
     0
 72
     0
 73
     0
 74
     0
 75
     0
 76
     0
 77
     1
 78
     8
170
     0
171
     2
172
     1
173
     1
174
     0
175
     0
176
     2
177
     2
178
     2
270
     2
271
     3
272
     2
273
     2
274
     2
340
10
275
     0
280
     0
281
     0
282
     0
283
     1
284
     8
285
     0
286
     0
287
     3
288
     0
  0
ENDTAB
  0
TABLE
  2
BLOCK_RECORD
  5
1
100
AcDbSymbolTable
 70
    33
  0
BLOCK_RECORD
  5
2
102
{ACAD_XDICTIONARY
360
3
102
}
100
AcDbSymbolTableRecord
100
AcDbBlockTableRecord
  2
*MODEL_SPACE
  0
BLOCK_RECORD
  5
9
102
{ACAD_XDICTIONARY
360
A
102
}
100
AcDbSymbolTableRecord
100
AcDbBlockTableRecord
  2
*PAPER_SPACE
  0
BLOCK_RECORD
  5
22
100
AcDbSymbolTableRecord
100
AcDbBlockTableRecord
  2
_DOTSMALL
  0
BLOCK_RECORD
  5
48
100
AcDbSymbolTableRecord
100
AcDbBlockTableRecord
  2
_OPEN30
  0
BLOCK_RECORD
  5
4E
100
AcDbSymbolTableRecord
100
AcDbBlockTableRecord
  2
*D2
  0
BLOCK_RECORD
  5
5B
100
AcDbSymbolTableRecord
100
AcDbBlockTableRecord
  2
*D3
  0
BLOCK_RECORD
  5
A7
100
AcDbSymbolTableRecord
100
AcDbBlockTableRecord
  2
*D4
  0
BLOCK_RECORD
  5
34
100
AcDbSymbolTableRecord
100
AcDbBlockTableRecord
  2
*D5
  0
BLOCK_RECORD
  5
70
100
AcDbSymbolTableRecord
100
AcDbBlockTableRecord
  2
*D6
  0
BLOCK_RECORD
  5
92
100
AcDbSymbolTableRecord
100
AcDbBlockTableRecord
  2
*D7
  0
BLOCK_RECORD
  5
F6
100
AcDbSymbolTableRecord
100
AcDbBlockTableRecord
  2
*D8
  0
BLOCK_RECORD
  5
E7
100
AcDbSymbolTableRecord
100
AcDbBlockTableRecord
  2
*D9
  0
BLOCK_RECORD
  5
CF
100
AcDbSymbolTableRecord
100
AcDbBlockTableRecord
  2
*D10
  0
BLOCK_RECORD
  5
109
100
AcDbSymbolTableRecord
100
AcDbBlockTableRecord
  2
*D11
  0
BLOCK_RECORD
  5
158
100
AcDbSymbolTableRecord
100
AcDbBlockTableRecord
  2
*D12
  0
BLOCK_RECORD
  5
DA
100
AcDbSymbolTableRecord
100
AcDbBlockTableRecord
  2
*D13
  0
BLOCK_RECORD
  5
134
100
AcDbSymbolTableRecord
100
AcDbBlockTableRecord
  2
*D14
  0
BLOCK_RECORD
  5
BF
100
AcDbSymbolTableRecord
100
AcDbBlockTableRecord
  2
*D15
  0
BLOCK_RECORD
  5
14B
100
AcDbSymbolTableRecord
100
AcDbBlockTableRecord
  2
*D16
  0
BLOCK_RECORD
  5
2A
100
AcDbSymbolTableRecord
100
AcDbBlockTableRecord
  2
4
  0
BLOCK_RECORD
  5
205
100
AcDbSymbolTableRecord
100
AcDbBlockTableRecord
  2
*D19
  0
BLOCK_RECORD
  5
211
100
AcDbSymbolTableRecord
100
AcDbBlockTableRecord
  2
*D20
  0
BLOCK_RECORD
  5
22E
100
AcDbSymbolTableRecord
100
AcDbBlockTableRecord
  2
*D22
  0
BLOCK_RECORD
  5
262
100
AcDbSymbolTableRecord
100
AcDbBlockTableRecord
  2
*D26
  0
BLOCK_RECORD
  5
29D
100
AcDbSymbolTableRecord
100
AcDbBlockTableRecord
  2
*D31
  0
BLOCK_RECORD
  5
2A8
100
AcDbSymbolTableRecord
100
AcDbBlockTableRecord
  2
*D32
  0
ENDTAB
  0
ENDSEC
  0
SECTION
  2
BLOCKS
  0
BLOCK
  5
5
100
AcDbEntity
  8
0
100
AcDbBlockBegin
  2
*MODEL_SPACE
 70
     0
 10
0.0
 20
0.0
 30
0.0
  3
*MODEL_SPACE
  1

  0
ENDBLK
  5
8
100
AcDbEntity
  8
0
100
AcDbBlockEnd
  0
BLOCK
  5
C
100
AcDbEntity
 67
     1
  8
0
100
AcDbBlockBegin
  2
*PAPER_SPACE
 70
     0
 10
0.0
 20
0.0
 30
0.0
  3
*PAPER_SPACE
  1

  0
ENDBLK
  5
D
100
AcDbEntity
 67
     1
  8
0
100
AcDbBlockEnd
  0
BLOCK
  5
27
100
AcDbEntity
  8
0
100
AcDbBlockBegin
  2
_DOTSMALL
 70
     0
 10
0.0
 20
0.0
 30
0.0
  3
_DOTSMALL
  1

  0
POLYLINE
  5
23
100
AcDbEntity
  8
0
  6
BYBLOCK
 62
     0
100
AcDb2dPolyline
 66
     1
 10
0.0
 20
0.0
 30
0.0
 70
     1
 40
0.5
 41
0.5
  0
VERTEX
  5
24
100
AcDbEntity
  8
0
  6
BYBLOCK
 62
     0
100
AcDbVertex
100
AcDb2dVertex
 10
-0.0625
 20
0.0
 30
0.0
 42
1.0
  0
VERTEX
  5
25
100
AcDbEntity
  8
0
  6
BYBLOCK
 62
     0
100
AcDbVertex
100
AcDb2dVertex
 10
0.0625
 20
0.0
 30
0.0
 42
1.0
  0
SEQEND
  5
26
100
AcDbEntity
  8
0
  6
BYBLOCK
 62
     0
  0
ENDBLK
  5
28
100
AcDbEntity
  8
0
100
AcDbBlockEnd
  0
BLOCK
  5
4C
100
AcDbEntity
  8
0
100
AcDbBlockBegin
  2
_OPEN30
 70
     0
 10
0.0
 20
0.0
 30
0.0
  3
_OPEN30
  1

  0
LINE
  5
49
100
AcDbEntity
  8
0
  6
BYBLOCK
 62
     0
100
AcDbLine
 10
-1.0
 20
0.267949
 30
0.0
 11
0.0
 21
0.0
 31
0.0
  0
LINE
  5
4A
100
AcDbEntity
  8
0
  6
BYBLOCK
 62
     0
100
AcDbLine
 10
0.0
 20
0.0
 30
0.0
 11
-1.0
 21
-0.267949
 31
0.0
  0
LINE
  5
4B
100
AcDbEntity
  8
0
  6
BYBLOCK
 62
     0
100
AcDbLine
 10
0.0
 20
0.0
 30
0.0
 11
-1.0
 21
0.0
 31
0.0
  0
ENDBLK
  5
4D
100
AcDbEntity
  8
0
100
AcDbBlockEnd
  0
BLOCK
  5
58
100
AcDbEntity
  8
0
100
AcDbBlockBegin
  2
*D2
 70
     1
 10
0.0
 20
0.0
 30
0.0
  3
*D2
  1

  0
LINE
  5
4F
100
AcDbEntity
  8
0
  6
BYBLOCK
 62
     1
100
AcDbLine
 10
585.901446
 20
505.190967
 30
0.0
 11
585.901446
 21
482.264001
 31
0.0
  0
LINE
  5
50
100
AcDbEntity
  8
0
  6
BYBLOCK
 62
     1
100
AcDbLine
 10
885.897358
 20
508.190967
 30
0.0
 11
885.897358
 21
482.264001
 31
0.0
  0
LINE
  5
51
100
AcDbEntity
  8
0
  6
BYBLOCK
 62
     1
100
AcDbLine
 10
587.901446
 20
484.264001
 30
0.0
 11
883.897358
 21
484.264001
 31
0.0
  0
INSERT
  5
52
100
AcDbEntity
  8
0
  6
BYBLOCK
 62
     1
100
AcDbBlockReference
  2
_OPEN30
 10
585.901446
 20
484.264001
 30
0.0
 41
2.0
 42
2.0
 43
2.0
 50
180.0
  0
INSERT
  5
53
100
AcDbEntity
  8
0
  6
BYBLOCK
 62
     1
100
AcDbBlockReference
  2
_OPEN30
 10
885.897358
 20
484.264001
 30
0.0
 41
2.0
 42
2.0
 43
2.0
  0
MTEXT
  5
54
100
AcDbEntity
  8
0
  6
BYBLOCK
 62
     3
100
AcDbMText
 10
735.899402
 20
486.764001
 30
0.0
 40
3.0
 41
0.0
 71
     5
 72
     1
  1
\A1;300
  0
POINT
  5
55
100
AcDbEntity
  8
DEFPOINTS
  6
BYBLOCK
 62
     0
100
AcDbPoint
 10
585.901446
 20
506.190967
 30
0.0
  0
POINT
  5
56
100
AcDbEntity
  8
DEFPOINTS
  6
BYBLOCK
 62
     0
100
AcDbPoint
 10
885.897358
 20
509.190967
 30
0.0
  0
POINT
  5
57
100
AcDbEntity
  8
DEFPOINTS
  6
BYBLOCK
 62
     0
100
AcDbPoint
 10
885.897358
 20
484.264001
 30
0.0
  0
ENDBLK
  5
59
100
AcDbEntity
  8
0
100
AcDbBlockEnd
  0
BLOCK
  5
6A
100
AcDbEntity
  8
0
100
AcDbBlockBegin
  2
*D3
 70
     1
 10
0.0
 20
0.0
 30
0.0
  3
*D3
  1

  0
LINE
  5
5C
100
AcDbEntity
  8
0
  6
BYBLOCK
 62
     1
100
AcDbLine
 10
584.905252
 20
463.342222
 30
0.0
 11
569.307852
 21
464.706817
 31
0.0
  0
ARC
  5
5D
100
AcDbEntity
  8
0
  6
BYBLOCK
 62
     1
100
AcDbCircle
 10
585.901446
 20
463.255066
 30
0.0
 40
14.656979
100
AcDbArc
 50
159.314615
 51
175.0
  0
LINE
  5
5E
100
AcDbEntity
  8
0
  6
BYBLOCK
 62
     1
100
AcDbLine
 10
572.189342
 20
468.432442
 30
0.0
 11
575.227173
 21
476.478036
 31
0.0
  0
ARC
  5
5F
100
AcDbEntity
  8
0
  6
BYBLOCK
 62
     1
100
AcDbCircle
 10
585.901446
 20
463.255066
 30
0.0
 40
14.656979
100
AcDbArc
 50
159.351394
 51
167.175697
  0
ARC
  5
60
100
AcDbEntity
  8
0
  6
BYBLOCK
 62
     1
100
AcDbCircle
 10
585.901446
 20
463.255066
 30
0.0
 40
14.656979
100
AcDbArc
 50
187.824303
 51
195.648606
  0
ARC
  5
61
100
AcDbEntity
  8
0
  6
BYBLOCK
 62
     1
100
AcDbCircle
 10
585.901446
 20
463.255066
 30
0.0
 40
14.656979
100
AcDbArc
 50
175.0
 51
180.0
  0
INSERT
  5
62
100
AcDbEntity
  8
0
  6
BYBLOCK
 62
     1
100
AcDbBlockReference
  2
_OPEN30
 10
571.300241
 20
464.532506
 30
0.0
 41
2.0
 42
2.0
 43
2.0
 50
261.087848
  0
INSERT
  5
63
100
AcDbEntity
  8
0
  6
BYBLOCK
 62
     1
100
AcDbBlockReference
  2
_OPEN30
 10
571.244467
 20
463.255066
 30
0.0
 41
2.0
 42
2.0
 43
2.0
 50
93.912152
  0
MTEXT
  5
64
100
AcDbEntity
  8
0
  6
BYBLOCK
 62
     3
100
AcDbMText
 10
571.369422
 20
473.338329
 30
0.0
 40
3.0
 41
0.0
 71
     5
 72
     1
  1
\A1;5°
 11
0.353236
 21
0.935534
 31
0.0
  0
POINT
  5
65
100
AcDbEntity
  8
DEFPOINTS
  6
BYBLOCK
 62
     0
100
AcDbPoint
 10
571.250668
 20
463.68136
 30
0.0
  0
POINT
  5
66
100
AcDbEntity
  8
DEFPOINTS
  6
BYBLOCK
 62
     0
100
AcDbPoint
 10
585.901446
 20
463.255066
 30
0.0
  0
POINT
  5
67
100
AcDbEntity
  8
DEFPOINTS
  6
BYBLOCK
 62
     0
100
AcDbPoint
 10
566.399784
 20
463.255066
 30
0.0
  0
POINT
  5
68
100
AcDbEntity
  8
DEFPOINTS
  6
BYBLOCK
 62
     0
100
AcDbPoint
 10
893.385352
 20
463.255066
 30
0.0
  0
POINT
  5
69
100
AcDbEntity
  8
DEFPOINTS
  6
BYBLOCK
 62
     0
100
AcDbPoint
 10
595.090876
 20
462.451095
 30
0.0
  0
ENDBLK
  5
6B
100
AcDbEntity
  8
0
100
AcDbBlockEnd
  0
BLOCK
  5
B3
100
AcDbEntity
  8
0
100
AcDbBlockBegin
  2
*D4
 70
     1
 10
0.0
 20
0.0
 30
0.0
  3
*D4
  1

  0
LINE
  5
A8
100
AcDbEntity
  8
0
  6
BYBLOCK
 62
     2
100
AcDbLine
 10
516.405536
 20
520.190967
 30
0.0
 11
510.724219
 21
520.190967
 31
0.0
  0
LINE
  5
A9
100
AcDbEntity
  8
0
  6
BYBLOCK
 62
     2
100
AcDbLine
 10
516.405536
 20
519.190967
 30
0.0
 11
510.724219
 21
519.190967
 31
0.0
  0
LINE
  5
AA
100
AcDbEntity
  8
0
  6
BYBLOCK
 62
     2
100
AcDbLine
 10
512.724219
 20
520.190967
 30
0.0
 11
512.724219
 21
521.190967
 31
0.0
  0
LINE
  5
AB
100
AcDbEntity
  8
0
  6
BYBLOCK
 62
     2
100
AcDbLine
 10
512.724219
 20
519.190967
 30
0.0
 11
512.724219
 21
514.440967
 31
0.0
  0
LINE
  5
AC
100
AcDbEntity
  8
0
  6
BYBLOCK
 62
     2
100
AcDbLine
 10
512.724219
 20
520.190967
 30
0.0
 11
512.724219
 21
519.190967
 31
0.0
  0
INSERT
  5
AD
100
AcDbEntity
  8
0
  6
BYBLOCK
 62
     2
100
AcDbBlockReference
  2
_DOTSMALL
 10
512.724219
 20
520.190967
 30
0.0
 50
270.0
  0
INSERT
  5
AE
100
AcDbEntity
  8
0
  6
BYBLOCK
 62
     2
100
AcDbBlockReference
  2
_DOTSMALL
 10
512.724219
 20
519.190967
 30
0.0
 50
90.0
  0
MTEXT
  5
AF
100
AcDbEntity
  8
0
  6
BYBLOCK
 62
     2
100
AcDbMText
 10
510.974219
 20
515.815967
 30
0.0
 40
1.5
 41
0.0
 71
     5
 72
     1
  1
\A1;1
 11
0.0
 21
1.0
 31
0.0
  0
POINT
  5
B0
100
AcDbEntity
  8
DEFPOINTS
  6
BYBLOCK
 62
     0
100
AcDbPoint
 10
517.405536
 20
520.190967
 30
0.0
  0
POINT
  5
B1
100
AcDbEntity
  8
DEFPOINTS
  6
BYBLOCK
 62
     0
100
AcDbPoint
 10
517.405536
 20
519.190967
 30
0.0
  0
POINT
  5
B2
100
AcDbEntity
  8
DEFPOINTS
  6
BYBLOCK
 62
     0
100
AcDbPoint
 10
512.724219
 20
519.190967
 30
0.0
  0
ENDBLK
  5
B4
100
AcDbEntity
  8
0
100
AcDbBlockEnd
  0
BLOCK
  5
41
100
AcDbEntity
  8
0
100
AcDbBlockBegin
  2
*D5
 70
     1
 10
0.0
 20
0.0
 30
0.0
  3
*D5
  1

  0
LINE
  5
35
100
AcDbEntity
  8
0
  6
BYBLOCK
 62
     2
100
AcDbLine
 10
618.901446
 20
475.255066
 30
0.0
 11
618.901446
 21
478.547473
 31
0.0
  0
LINE
  5
36
100
AcDbEntity
  8
0
  6
BYBLOCK
 62
     2
100
AcDbLine
 10
585.901446
 20
464.255066
 30
0.0
 11
585.901446
 21
478.547473
 31
0.0
  0
LINE
  5
37
100
AcDbEntity
  8
0
  6
BYBLOCK
 62
     2
100
AcDbLine
 10
618.901446
 20
476.547473
 30
0.0
 11
585.901446
 21
476.547473
 31
0.0
  0
INSERT
  5
38
100
AcDbEntity
  8
0
  6
BYBLOCK
 62
     2
100
AcDbBlockReference
  2
_DOTSMALL
 10
618.901446
 20
476.547473
 30
0.0
  0
INSERT
  5
39
100
AcDbEntity
  8
0
  6
BYBLOCK
 62
     2
100
AcDbBlockReference
  2
_DOTSMALL
 10
585.901446
 20
476.547473
 30
0.0
 50
180.0
  0
MTEXT
  5
3A
100
AcDbEntity
  8
0
  6
BYBLOCK
 62
     2
100
AcDbMText
 10
602.401446
 20
478.297473
 30
0.0
 40
1.5
 41
0.0
 71
     5
 72
     1
  1
\A1;33
  0
POINT
  5
3B
100
AcDbEntity
  8
DEFPOINTS
  6
BYBLOCK
 62
     0
100
AcDbPoint
 10
618.901446
 20
474.255066
 30
0.0
  0
POINT
  5
3F
100
AcDbEntity
  8
DEFPOINTS
  6
BYBLOCK
 62
     0
100
AcDbPoint
 10
585.901446
 20
463.255066
 30
0.0
  0
POINT
  5
40
100
AcDbEntity
  8
DEFPOINTS
  6
BYBLOCK
 62
     0
100
AcDbPoint
 10
585.901446
 20
476.547473
 30
0.0
  0
ENDBLK
  5
42
100
AcDbEntity
  8
0
100
AcDbBlockEnd
  0
BLOCK
  5
7A
100
AcDbEntity
  8
0
100
AcDbBlockBegin
  2
*D6
 70
     1
 10
0.0
 20
0.0
 30
0.0
  3
*D6
  1

  0
LINE
  5
71
100
AcDbEntity
  8
0
  6
BYBLOCK
 62
     2
100
AcDbLine
 10
585.901446
 20
462.255066
 30
0.0
 11
585.901446
 21
441.988487
 31
0.0
  0
LINE
  5
72
100
AcDbEntity
  8
0
  6
BYBLOCK
 62
     2
100
AcDbLine
 10
590.901446
 20
450.014743
 30
0.0
 11
590.901446
 21
441.988487
 31
0.0
  0
LINE
  5
73
100
AcDbEntity
  8
0
  6
BYBLOCK
 62
     2
100
AcDbLine
 10
585.901446
 20
443.988487
 30
0.0
 11
590.901446
 21
443.988487
 31
0.0
  0
INSERT
  5
74
100
AcDbEntity
  8
0
  6
BYBLOCK
 62
     2
100
AcDbBlockReference
  2
_DOTSMALL
 10
585.901446
 20
443.988487
 30
0.0
 50
180.0
  0
INSERT
  5
75
100
AcDbEntity
  8
0
  6
BYBLOCK
 62
     2
100
AcDbBlockReference
  2
_DOTSMALL
 10
590.901446
 20
443.988487
 30
0.0
  0
MTEXT
  5
76
100
AcDbEntity
  8
0
  6
BYBLOCK
 62
     2
100
AcDbMText
 10
588.401446
 20
445.738487
 30
0.0
 40
1.5
 41
0.0
 71
     5
 72
     1
  1
\A1;5
  0
POINT
  5
77
100
AcDbEntity
  8
DEFPOINTS
  6
BYBLOCK
 62
     0
100
AcDbPoint
 10
585.901446
 20
463.255066
 30
0.0
  0
POINT
  5
78
100
AcDbEntity
  8
DEFPOINTS
  6
BYBLOCK
 62
     0
100
AcDbPoint
 10
590.901446
 20
451.014743
 30
0.0
  0
POINT
  5
79
100
AcDbEntity
  8
DEFPOINTS
  6
BYBLOCK
 62
     0
100
AcDbPoint
 10
590.901446
 20
443.988487
 30
0.0
  0
ENDBLK
  5
7B
100
AcDbEntity
  8
0
100
AcDbBlockEnd
  0
BLOCK
  5
9E
100
AcDbEntity
  8
0
100
AcDbBlockBegin
  2
*D7
 70
     1
 10
0.0
 20
0.0
 30
0.0
  3
*D7
  1

  0
LINE
  5
93
100
AcDbEntity
  8
0
  6
BYBLOCK
 62
     1
100
AcDbLine
 10
583.304992
 20
515.881068
 30
0.0
 11
576.718538
 21
540.462046
 31
0.0
  0
LINE
  5
94
100
AcDbEntity
  8
0
  6
BYBLOCK
 62
     1
100
AcDbLine
 10
584.901446
 20
506.190967
 30
0.0
 11
550.421415
 21
506.190967
 31
0.0
  0
ARC
  5
95
100
AcDbEntity
  8
0
  6
BYBLOCK
 62
     1
100
AcDbCircle
 10
585.901446
 20
506.190967
 30
0.0
 40
33.480031
100
AcDbArc
 50
108.423193
 51
176.576807
  0
INSERT
  5
96
100
AcDbEntity
  8
0
  6
BYBLOCK
 62
     1
100
AcDbBlockReference
  2
_OPEN30
 10
577.236177
 20
538.530194
 30
0.0
 41
2.0
 42
2.0
 43
2.0
 50
16.711596
  0
INSERT
  5
97
100
AcDbEntity
  8
0
  6
BYBLOCK
 62
     1
100
AcDbBlockReference
  2
_OPEN30
 10
552.421415
 20
506.190967
 30
0.0
 41
2.0
 42
2.0
 43
2.0
 50
268.288404
  0
MTEXT
  5
98
100
AcDbEntity
  8
0
  6
BYBLOCK
 62
     3
100
AcDbMText
 10
554.971135
 20
524.572438
 30
0.0
 40
3.0
 41
0.0
 71
     5
 72
     1
  1
\A1;75°
 11
0.51088
 21
0.859652
 31
0.0
  0
POINT
  5
99
100
AcDbEntity
  8
DEFPOINTS
  6
BYBLOCK
 62
     0
100
AcDbPoint
 10
564.380897
 20
531.838159
 30
0.0
  0
POINT
  5
9A
100
AcDbEntity
  8
DEFPOINTS
  6
BYBLOCK
 62
     0
100
AcDbPoint
 10
583.563811
 20
514.915142
 30
0.0
  0
POINT
  5
9B
100
AcDbEntity
  8
DEFPOINTS
  6
BYBLOCK
 62
     0
100
AcDbPoint
 10
586.261038
 20
506.190967
 30
0.0
  0
POINT
  5
9C
100
AcDbEntity
  8
DEFPOINTS
  6
BYBLOCK
 62
     0
100
AcDbPoint
 10
585.901446
 20
506.190967
 30
0.0
  0
POINT
  5
9D
100
AcDbEntity
  8
DEFPOINTS
  6
BYBLOCK
 62
     0
100
AcDbPoint
 10
585.822007
 20
506.487439
 30
0.0
  0
ENDBLK
  5
9F
100
AcDbEntity
  8
0
100
AcDbBlockEnd
  0
BLOCK
  5
101
100
AcDbEntity
  8
0
100
AcDbBlockBegin
  2
*D8
 70
     1
 10
0.0
 20
0.0
 30
0.0
  3
*D8
  1

  0
LINE
  5
F7
100
AcDbEntity
  8
0
  6
BYBLOCK
 62
     2
100
AcDbLine
 10
196.765625
 20
506.690967
 30
0.0
 11
196.765625
 21
499.75974
 31
0.0
  0
LINE
  5
F8
100
AcDbEntity
  8
0
  6
BYBLOCK
 62
     2
100
AcDbLine
 10
194.425625
 20
515.424408
 30
0.0
 11
194.425625
 21
499.75974
 31
0.0
  0
LINE
  5
F9
100
AcDbEntity
  8
0
  6
BYBLOCK
 62
     2
100
AcDbLine
 10
196.765625
 20
501.75974
 30
0.0
 11
194.425625
 21
501.75974
 31
0.0
  0
LINE
  5
FA
100
AcDbEntity
  8
0
  6
BYBLOCK
 62
     2
100
AcDbLine
 10
194.425625
 20
501.75974
 30
0.0
 11
185.925625
 21
501.75974
 31
0.0
  0
INSERT
  5
FB
100
AcDbEntity
  8
0
  6
BYBLOCK
 62
     2
100
AcDbBlockReference
  2
_DOTSMALL
 10
196.765625
 20
501.75974
 30
0.0
  0
INSERT
  5
FC
100
AcDbEntity
  8
0
  6
BYBLOCK
 62
     2
100
AcDbBlockReference
  2
_DOTSMALL
 10
194.425625
 20
501.75974
 30
0.0
 50
180.0
  0
MTEXT
  5
FD
100
AcDbEntity
  8
0
  6
BYBLOCK
 62
     2
100
AcDbMText
 10
189.675625
 20
503.50974
 30
0.0
 40
1.5
 41
0.0
 71
     5
 72
     1
  1
\A1;2.34
  0
POINT
  5
FE
100
AcDbEntity
  8
DEFPOINTS
  6
BYBLOCK
 62
     0
100
AcDbPoint
 10
196.765625
 20
507.690967
 30
0.0
  0
POINT
  5
FF
100
AcDbEntity
  8
DEFPOINTS
  6
BYBLOCK
 62
     0
100
AcDbPoint
 10
194.425625
 20
516.424408
 30
0.0
  0
POINT
  5
100
100
AcDbEntity
  8
DEFPOINTS
  6
BYBLOCK
 62
     0
100
AcDbPoint
 10
194.425625
 20
501.75974
 30
0.0
  0
ENDBLK
  5
102
100
AcDbEntity
  8
0
100
AcDbBlockEnd
  0
BLOCK
  5
EE
100
AcDbEntity
  8
0
100
AcDbBlockBegin
  2
*D9
 70
     1
 10
0.0
 20
0.0
 30
0.0
  3
*D9
  1

  0
LINE
  5
E8
100
AcDbEntity
  8
0
  6
BYBLOCK
 62
     2
100
AcDbLine
 10
183.193696
 20
521.924881
 30
0.0
 11
194.451686
 21
516.687394
 31
0.0
  0
MTEXT
  5
E9
100
AcDbEntity
  8
0
  6
BYBLOCK
 62
     2
100
AcDbMText
 10
187.33193
 20
521.929786
 30
0.0
 40
1.5
 41
0.0
 71
     5
 72
     1
  1
\A1;R0.4
 11
0.906684
 21
-0.421811
 31
0.0
  0
LINE
  5
EA
100
AcDbEntity
  8
0
  6
BYBLOCK
 62
     2
100
AcDbLine
 10
194.81436
 20
516.51867
 30
0.0
 11
194.451686
 21
516.687394
 31
0.0
  0
INSERT
  5
EB
100
AcDbEntity
  8
0
  6
BYBLOCK
 62
     2
100
AcDbBlockReference
  2
_DOTSMALL
 10
194.451686
 20
516.687394
 30
0.0
 50
335.051024
  0
POINT
  5
EC
100
AcDbEntity
  8
DEFPOINTS
  6
BYBLOCK
 62
     0
100
AcDbPoint
 10
194.451686
 20
516.687394
 30
0.0
  0
POINT
  5
ED
100
AcDbEntity
  8
DEFPOINTS
  6
BYBLOCK
 62
     0
100
AcDbPoint
 10
194.81436
 20
516.51867
 30
0.0
  0
ENDBLK
  5
EF
100
AcDbEntity
  8
0
100
AcDbBlockEnd
  0
BLOCK
  5
D7
100
AcDbEntity
  8
0
100
AcDbBlockBegin
  2
*D10
 70
     1
 10
0.0
 20
0.0
 30
0.0
  3
*D10
  1

  0
LINE
  5
D0
100
AcDbEntity
  8
0
  6
BYBLOCK
 62
     2
100
AcDbLine
 10
216.080868
 20
526.627408
 30
0.0
 11
203.824573
 21
516.472434
 31
0.0
  0
MTEXT
  5
D1
100
AcDbEntity
  8
0
  6
BYBLOCK
 62
     2
100
AcDbMText
 10
210.9217
 20
524.625412
 30
0.0
 40
1.5
 41
0.0
 71
     5
 72
     1
  1
\A1;\U+22059.525
 11
0.770029
 21
0.638009
 31
0.0
  0
LINE
  5
D2
100
AcDbEntity
  8
0
  6
BYBLOCK
 62
     2
100
AcDbLine
 10
196.490046
 20
510.395399
 30
0.0
 11
203.824573
 21
516.472434
 31
0.0
  0
INSERT
  5
D3
100
AcDbEntity
  8
0
  6
BYBLOCK
 62
     2
100
AcDbBlockReference
  2
_DOTSMALL
 10
196.490046
 20
510.395399
 30
0.0
 50
39.643505
  0
INSERT
  5
D4
100
AcDbEntity
  8
0
  6
BYBLOCK
 62
     2
100
AcDbBlockReference
  2
_DOTSMALL
 10
203.824573
 20
516.472434
 30
0.0
 50
219.643505
  0
POINT
  5
D5
100
AcDbEntity
  8
DEFPOINTS
  6
BYBLOCK
 62
     0
100
AcDbPoint
 10
203.824573
 20
516.472434
 30
0.0
  0
POINT
  5
D6
100
AcDbEntity
  8
DEFPOINTS
  6
BYBLOCK
 62
     0
100
AcDbPoint
 10
196.490046
 20
510.395399
 30
0.0
  0
ENDBLK
  5
D8
100
AcDbEntity
  8
0
100
AcDbBlockEnd
  0
BLOCK
  5
114
100
AcDbEntity
  8
0
100
AcDbBlockBegin
  2
*D11
 70
     1
 10
0.0
 20
0.0
 30
0.0
  3
*D11
  1

  0
LINE
  5
10A
100
AcDbEntity
  8
0
  6
BYBLOCK
 62
     2
100
AcDbLine
 10
198.007299
 20
512.433917
 30
0.0
 11
198.007299
 21
500.955101
 31
0.0
  0
LINE
  5
10B
100
AcDbEntity
  8
0
  6
BYBLOCK
 62
     2
100
AcDbLine
 10
202.30732
 20
512.433917
 30
0.0
 11
202.30732
 21
500.955101
 31
0.0
  0
LINE
  5
10C
100
AcDbEntity
  8
0
  6
BYBLOCK
 62
     2
100
AcDbLine
 10
198.007299
 20
502.955101
 30
0.0
 11
202.30732
 21
502.955101
 31
0.0
  0
LINE
  5
10D
100
AcDbEntity
  8
0
  6
BYBLOCK
 62
     2
100
AcDbLine
 10
202.30732
 20
502.955101
 30
0.0
 11
209.30732
 21
502.955101
 31
0.0
  0
INSERT
  5
10E
100
AcDbEntity
  8
0
  6
BYBLOCK
 62
     2
100
AcDbBlockReference
  2
_DOTSMALL
 10
198.007299
 20
502.955101
 30
0.0
 50
180.0
  0
INSERT
  5
10F
100
AcDbEntity
  8
0
  6
BYBLOCK
 62
     2
100
AcDbBlockReference
  2
_DOTSMALL
 10
202.30732
 20
502.955101
 30
0.0
  0
MTEXT
  5
110
100
AcDbEntity
  8
0
  6
BYBLOCK
 62
     2
100
AcDbMText
 10
206.30732
 20
504.705101
 30
0.0
 40
1.5
 41
0.0
 71
     5
 72
     1
  1
\A1;4.3
  0
POINT
  5
111
100
AcDbEntity
  8
DEFPOINTS
  6
BYBLOCK
 62
     0
100
AcDbPoint
 10
198.007299
 20
513.433917
 30
0.0
  0
POINT
  5
112
100
AcDbEntity
  8
DEFPOINTS
  6
BYBLOCK
 62
     0
100
AcDbPoint
 10
202.30732
 20
513.433917
 30
0.0
  0
POINT
  5
113
100
AcDbEntity
  8
DEFPOINTS
  6
BYBLOCK
 62
     0
100
AcDbPoint
 10
202.30732
 20
502.955101
 30
0.0
  0
ENDBLK
  5
115
100
AcDbEntity
  8
0
100
AcDbBlockEnd
  0
BLOCK
  5
162
100
AcDbEntity
  8
0
100
AcDbBlockBegin
  2
*D12
 70
     1
 10
0.0
 20
0.0
 30
0.0
  3
*D12
  1

  0
LINE
  5
159
100
AcDbEntity
  8
0
  6
BYBLOCK
 62
     1
100
AcDbLine
 10
814.897358
 20
513.253796
 30
0.0
 11
814.897358
 21
493.912382
 31
0.0
  0
LINE
  5
15A
100
AcDbEntity
  8
0
  6
BYBLOCK
 62
     1
100
AcDbLine
 10
836.897358
 20
513.253796
 30
0.0
 11
836.897358
 21
493.912382
 31
0.0
  0
LINE
  5
15B
100
AcDbEntity
  8
0
  6
BYBLOCK
 62
     1
100
AcDbLine
 10
816.897358
 20
495.912382
 30
0.0
 11
834.897358
 21
495.912382
 31
0.0
  0
INSERT
  5
15C
100
AcDbEntity
  8
0
  6
BYBLOCK
 62
     1
100
AcDbBlockReference
  2
_OPEN30
 10
814.897358
 20
495.912382
 30
0.0
 41
2.0
 42
2.0
 43
2.0
 50
180.0
  0
INSERT
  5
15D
100
AcDbEntity
  8
0
  6
BYBLOCK
 62
     1
100
AcDbBlockReference
  2
_OPEN30
 10
836.897358
 20
495.912382
 30
0.0
 41
2.0
 42
2.0
 43
2.0
  0
MTEXT
  5
15E
100
AcDbEntity
  8
0
  6
BYBLOCK
 62
     3
100
AcDbMText
 10
825.897358
 20
498.412382
 30
0.0
 40
3.0
 41
0.0
 71
     5
 72
     1
  1
\A1;22
  0
POINT
  5
15F
100
AcDbEntity
  8
DEFPOINTS
  6
BYBLOCK
 62
     0
100
AcDbPoint
 10
814.897358
 20
514.253796
 30
0.0
  0
POINT
  5
160
100
AcDbEntity
  8
DEFPOINTS
  6
BYBLOCK
 62
     0
100
AcDbPoint
 10
836.897358
 20
514.253796
 30
0.0
  0
POINT
  5
161
100
AcDbEntity
  8
DEFPOINTS
  6
BYBLOCK
 62
     0
100
AcDbPoint
 10
836.897358
 20
495.912382
 30
0.0
  0
ENDBLK
  5
163
100
AcDbEntity
  8
0
100
AcDbBlockEnd
  0
BLOCK
  5
E4
100
AcDbEntity
  8
0
100
AcDbBlockBegin
  2
*D13
 70
     1
 10
0.0
 20
0.0
 30
0.0
  3
*D13
  1

  0
LINE
  5
DB
100
AcDbEntity
  8
0
  6
BYBLOCK
 62
     1
100
AcDbLine
 10
583.21313
 20
520.190967
 30
0.0
 11
567.988937
 21
520.190967
 31
0.0
  0
LINE
  5
DC
100
AcDbEntity
  8
0
  6
BYBLOCK
 62
     1
100
AcDbLine
 10
584.901446
 20
506.190967
 30
0.0
 11
567.988937
 21
506.190967
 31
0.0
  0
LINE
  5
DD
100
AcDbEntity
  8
0
  6
BYBLOCK
 62
     1
100
AcDbLine
 10
569.988937
 20
518.190967
 30
0.0
 11
569.988937
 21
508.190967
 31
0.0
  0
INSERT
  5
DE
100
AcDbEntity
  8
0
  6
BYBLOCK
 62
     1
100
AcDbBlockReference
  2
_OPEN30
 10
569.988937
 20
520.190967
 30
0.0
 41
2.0
 42
2.0
 43
2.0
 50
90.0
  0
INSERT
  5
DF
100
AcDbEntity
  8
0
  6
BYBLOCK
 62
     1
100
AcDbBlockReference
  2
_OPEN30
 10
569.988937
 20
506.190967
 30
0.0
 41
2.0
 42
2.0
 43
2.0
 50
270.0
  0
MTEXT
  5
E0
100
AcDbEntity
  8
0
  6
BYBLOCK
 62
     3
100
AcDbMText
 10
567.488937
 20
513.190967
 30
0.0
 40
3.0
 41
0.0
 71
     5
 72
     1
  1
\A1;14
 11
0.0
 21
1.0
 31
0.0
  0
POINT
  5
E1
100
AcDbEntity
  8
DEFPOINTS
  6
BYBLOCK
 62
     0
100
AcDbPoint
 10
584.21313
 20
520.190967
 30
0.0
  0
POINT
  5
E2
100
AcDbEntity
  8
DEFPOINTS
  6
BYBLOCK
 62
     0
100
AcDbPoint
 10
585.901446
 20
506.190967
 30
0.0
  0
POINT
  5
E3
100
AcDbEntity
  8
DEFPOINTS
  6
BYBLOCK
 62
     0
100
AcDbPoint
 10
569.988937
 20
506.190967
 30
0.0
  0
ENDBLK
  5
E5
100
AcDbEntity
  8
0
100
AcDbBlockEnd
  0
BLOCK
  5
13E
100
AcDbEntity
  8
0
100
AcDbBlockBegin
  2
*D14
 70
     1
 10
0.0
 20
0.0
 30
0.0
  3
*D14
  1

  0
LINE
  5
135
100
AcDbEntity
  8
0
  6
BYBLOCK
 62
     1
100
AcDbLine
 10
583.21313
 20
520.190967
 30
0.0
 11
567.988937
 21
520.190967
 31
0.0
  0
LINE
  5
136
100
AcDbEntity
  8
0
  6
BYBLOCK
 62
     1
100
AcDbLine
 10
583.21313
 20
527.190967
 30
0.0
 11
567.988937
 21
527.190967
 31
0.0
  0
LINE
  5
137
100
AcDbEntity
  8
0
  6
BYBLOCK
 62
     1
100
AcDbLine
 10
569.988937
 20
522.190967
 30
0.0
 11
569.988937
 21
525.190967
 31
0.0
  0
INSERT
  5
138
100
AcDbEntity
  8
0
  6
BYBLOCK
 62
     1
100
AcDbBlockReference
  2
_OPEN30
 10
569.988937
 20
520.190967
 30
0.0
 41
2.0
 42
2.0
 43
2.0
 50
270.0
  0
INSERT
  5
139
100
AcDbEntity
  8
0
  6
BYBLOCK
 62
     1
100
AcDbBlockReference
  2
_OPEN30
 10
569.988937
 20
527.190967
 30
0.0
 41
2.0
 42
2.0
 43
2.0
 50
90.0
  0
MTEXT
  5
13A
100
AcDbEntity
  8
0
  6
BYBLOCK
 62
     3
100
AcDbMText
 10
567.488937
 20
523.690967
 30
0.0
 40
3.0
 41
0.0
 71
     5
 72
     1
  1
\A1;7
 11
0.0
 21
1.0
 31
0.0
  0
POINT
  5
13B
100
AcDbEntity
  8
DEFPOINTS
  6
BYBLOCK
 62
     0
100
AcDbPoint
 10
584.21313
 20
520.190967
 30
0.0
  0
POINT
  5
13C
100
AcDbEntity
  8
DEFPOINTS
  6
BYBLOCK
 62
     0
100
AcDbPoint
 10
584.21313
 20
527.190967
 30
0.0
  0
POINT
  5
13D
100
AcDbEntity
  8
DEFPOINTS
  6
BYBLOCK
 62
     0
100
AcDbPoint
 10
569.988937
 20
527.190967
 30
0.0
  0
ENDBLK
  5
13F
100
AcDbEntity
  8
0
100
AcDbBlockEnd
  0
BLOCK
  5
CB
100
AcDbEntity
  8
0
100
AcDbBlockBegin
  2
*D15
 70
     1
 10
0.0
 20
0.0
 30
0.0
  3
*D15
  1

  0
LINE
  5
C0
100
AcDbEntity
  8
0
  6
BYBLOCK
 62
     2
100
AcDbLine
 10
594.172423
 20
532.940967
 30
0.0
 11
599.129339
 21
535.802844
 31
0.0
  0
LINE
  5
C1
100
AcDbEntity
  8
0
  6
BYBLOCK
 62
     2
100
AcDbLine
 10
584.21313
 20
528.190967
 30
0.0
 11
584.21313
 21
544.414721
 31
0.0
  0
ARC
  5
C2
100
AcDbEntity
  8
0
  6
BYBLOCK
 62
     2
100
AcDbCircle
 10
584.21313
 20
527.190967
 30
0.0
 40
15.223754
100
AcDbArc
 50
30.0
 51
90.0
  0
INSERT
  5
C3
100
AcDbEntity
  8
0
  6
BYBLOCK
 62
     2
100
AcDbBlockReference
  2
_DOTSMALL
 10
597.397288
 20
534.802844
 30
0.0
 50
300.0
  0
INSERT
  5
C4
100
AcDbEntity
  8
0
  6
BYBLOCK
 62
     2
100
AcDbBlockReference
  2
_DOTSMALL
 10
584.21313
 20
542.414721
 30
0.0
 50
180.0
  0
MTEXT
  5
C5
100
AcDbEntity
  8
0
  6
BYBLOCK
 62
     2
100
AcDbMText
 10
592.700007
 20
541.890669
 30
0.0
 40
1.5
 41
0.0
 71
     5
 72
     1
  1
\A1;60°
 11
0.866025
 21
-0.5
 31
0.0
  0
POINT
  5
C6
100
AcDbEntity
  8
DEFPOINTS
  6
BYBLOCK
 62
     0
100
AcDbPoint
 10
593.998771
 20
538.853039
 30
0.0
  0
POINT
  5
C7
100
AcDbEntity
  8
DEFPOINTS
  6
BYBLOCK
 62
     0
100
AcDbPoint
 10
584.21313
 20
527.190967
 30
0.0
  0
POINT
  5
C8
100
AcDbEntity
  8
DEFPOINTS
  6
BYBLOCK
 62
     0
100
AcDbPoint
 10
584.21313
 20
527.190967
 30
0.0
  0
POINT
  5
C9
100
AcDbEntity
  8
DEFPOINTS
  6
BYBLOCK
 62
     0
100
AcDbPoint
 10
584.21313
 20
515.503238
 30
0.0
  0
POINT
  5
CA
100
AcDbEntity
  8
DEFPOINTS
  6
BYBLOCK
 62
     0
100
AcDbPoint
 10
593.306397
 20
532.440967
 30
0.0
  0
ENDBLK
  5
CC
100
AcDbEntity
  8
0
100
AcDbBlockEnd
  0
BLOCK
  5
154
100
AcDbEntity
  8
0
100
AcDbBlockBegin
  2
*D16
 70
     1
 10
0.0
 20
0.0
 30
0.0
  3
*D16
  1

  0
LINE
  5
14C
100
AcDbEntity
  8
0
  6
BYBLOCK
 62
     1
100
AcDbLine
 10
844.062572
 20
546.549619
 30
0.0
 11
834.125444
 21
532.130339
 31
0.0
  0
LINE
  5
14D
100
AcDbEntity
  8
0
  6
BYBLOCK
 62
     1
100
AcDbLine
 10
817.669273
 20
508.251595
 30
0.0
 11
816.534364
 21
506.604785
 31
0.0
  0
MTEXT
  5
14E
100
AcDbEntity
  8
0
  6
BYBLOCK
 62
     3
100
AcDbMText
 10
839.166788
 20
543.85123
 30
0.0
 40
3.0
 41
0.0
 71
     5
 72
     1
  1
\A1;\U+220525
 11
0.567454
 21
0.823405
 31
0.0
  0
LINE
  5
14F
100
AcDbEntity
  8
0
  6
BYBLOCK
 62
     1
100
AcDbLine
 10
818.804181
 20
509.898405
 30
0.0
 11
832.990535
 21
530.483529
 31
0.0
  0
INSERT
  5
150
100
AcDbEntity
  8
0
  6
BYBLOCK
 62
     1
100
AcDbBlockReference
  2
_OPEN30
 10
818.804181
 20
509.898405
 30
0.0
 41
2.0
 42
2.0
 43
2.0
 50
55.427112
  0
INSERT
  5
151
100
AcDbEntity
  8
0
  6
BYBLOCK
 62
     1
100
AcDbBlockReference
  2
_OPEN30
 10
832.990535
 20
530.483529
 30
0.0
 41
2.0
 42
2.0
 43
2.0
 50
235.427112
  0
POINT
  5
152
100
AcDbEntity
  8
DEFPOINTS
  6
BYBLOCK
 62
     0
100
AcDbPoint
 10
832.990535
 20
530.483529
 30
0.0
  0
POINT
  5
153
100
AcDbEntity
  8
DEFPOINTS
  6
BYBLOCK
 62
     0
100
AcDbPoint
 10
818.804181
 20
509.898405
 30
0.0
  0
ENDBLK
  5
155
100
AcDbEntity
  8
0
100
AcDbBlockEnd
  0
BLOCK
  5
174
100
AcDbEntity
  8
0
100
AcDbBlockBegin
  2
4
 70
     0
 10
0.0
 20
0.0
 30
0.0
  3
4
  1

  0
SPLINE
  5
2B
100
AcDbEntity
  8
外形
  6
CONTINUOUS
100
AcDbSpline
210
0.0
220
0.0
230
1.0
 70
     8
 71
     3
 72
    11
 73
     7
 74
     0
 42
0.0000001
 43
0.0000001
 40
0.0
 40
0.0
 40
0.0
 40
0.0
 40
20.13160499193494
 40
34.26066027242835
 40
42.36200991340917
 40
52.14138726272911
 40
52.14138726272911
 40
52.14138726272911
 40
52.14138726272911
 10
81.48918765815125
 20
108.2591976967267
 30
0.0
 10
87.83393799647848
 20
107.9040742726477
 30
0.0
 10
98.63165312857512
 20
107.2997129714984
 30
0.0
 10
113.1836020642349
 20
90.72071916556518
 30
0.0
 10
100.160235926864
 20
87.2360265113012
 30
0.0
 10
94.18045033350045
 20
86.25619359685595
 30
0.0
 10
84.90793713948717
 20
84.58573570085452
 30
0.0
  0
LINE
  5
2C
100
AcDbEntity
  8
外形
  6
CONTINUOUS
100
AcDbLine
 10
100.858806
 20
102.772907
 30
0.0
 11
302.511755
 21
102.772907
 31
0.0
  0
LINE
  5
2D
100
AcDbEntity
  8
外形
  6
CONTINUOUS
100
AcDbLine
 10
101.108806
 20
84.335736
 30
0.0
 11
302.511755
 21
84.335736
 31
0.0
  0
LINE
  5
2E
100
AcDbEntity
  8
外形
  6
CONTINUOUS
100
AcDbLine
 10
101.108806
 20
109.335736
 30
0.0
 11
302.511755
 21
109.335736
 31
0.0
  0
SPLINE
  5
2F
100
AcDbEntity
  8
外形
  6
CONTINUOUS
100
AcDbSpline
210
0.0
220
0.0
230
-1.0
 70
     8
 71
     3
 72
    10
 73
     6
 74
     4
 42
0.0000001
 43
0.0000001
 44
0.0000000001
 40
0.0
 40
0.0
 40
0.0
 40
0.0
 40
14.25438516917862
 40
28.52918031944184
 40
36.21749619133018
 40
36.21749619133018
 40
36.21749619133018
 40
36.21749619133018
 10
73.82752673595274
 20
41.68769906170235
 30
0.0
 10
78.36658427865383
 20
43.02842731911174
 30
0.0
 10
87.45119856254749
 20
45.71180354060667
 30
0.0
 10
98.52390587979684
 20
51.52896216789848
 30
0.0
 10
105.92503421229
 20
51.06296102337697
 30
0.0
 10
108.5158426078401
 20
50.89983458868704
 30
0.0
 11
73.82752673595274
 21
41.68769906170235
 31
0.0
 11
87.35421861755373
 21
46.18393118332704
 31
0.0
 11
100.8275267359518
 21
50.89983458868704
 31
0.0
 11
108.5158426078401
 21
50.89983458868704
 31
0.0
  0
LINE
  5
30
100
AcDbEntity
  8
外形
  6
CONTINUOUS
100
AcDbLine
 10
80.515843
 20
28.899835
 30
0.0
 11
374.511755
 21
28.899835
 31
0.0
  0
SPLINE
  5
31
100
AcDbEntity
  8
外形
  6
CONTINUOUS
100
AcDbSpline
210
0.0
220
0.0
230
1.0
 70
     8
 71
     3
 72
     8
 73
     4
 74
     0
 42
0.0000001
 43
0.0000001
 40
0.0
 40
0.0
 40
0.0
 40
0.0
 40
4.296442058183304
 40
4.296442058183304
 40
4.296442058183304
 40
4.296442058183304
 10
108.5158426078406
 20
50.89983458868715
 30
0.0
 10
96.75829627628576
 20
43.93111790053637
 30
0.0
 10
96.00074994473557
 20
42.46240121238554
 30
0.0
 10
84.98877684897497
 20
40.08456238926647
 30
0.0
  0
DIMENSION
  5
32
100
AcDbEntity
  8
参考
  6
CONTINUOUS
100
AcDbDimension
  2
*D5
 10
75.515843
 20
53.192241
 30
0.0
 11
92.015843
 21
54.942241
 31
0.0
 12
-510.385604
 22
-423.355231
 32
0.0
  3
参考寸法
100
AcDbAlignedDimension
 13
108.515843
 23
50.899835
 33
0.0
 14
75.515843
 24
39.899835
 34
0.0
100
AcDbRotatedDimension
1001
ACAD
1000
DSTYLE
1002
{
1070
   140
1040
1.5
1070
    41
1040
1.0
1002
}
  0
DIMENSION
  5
43
100
AcDbEntity
  8
寸法
  6
CONTINUOUS
100
AcDbDimension
  2
*D2
 10
375.511755
 20
60.908769
 30
0.0
 11
225.513799
 21
63.408769
 31
0.0
 12
-510.385604
 22
-423.355231
 32
0.0
  3
STANDARD
100
AcDbAlignedDimension
 13
75.515843
 23
82.835736
 33
0.0
 14
375.511755
 24
85.835736
 34
0.0
100
AcDbRotatedDimension
1001
ACAD
1000
DSTYLE
1002
{
1070
    40
1040
1.0
1002
}
  0
DIMENSION
  5
5A
100
AcDbEntity
  8
寸法
  6
CONTINUOUS
100
AcDbDimension
  2
*D3
 10
84.705272
 20
39.095864
 30
0.0
 11
60.983818
 21
49.983098
 31
0.0
 12
-510.385604
 22
-423.355231
 32
0.0
 70
     2
  3
STANDARD
100
AcDb2LineAngularDimension
 13
56.01418
 23
39.899835
 33
0.0
 14
382.999748
 24
39.899835
 34
0.0
 15
75.515843
 25
39.899835
 35
0.0
 16
60.865064
 26
40.326129
 36
0.0
1001
ACAD
1000
DSTYLE
1002
{
1070
    40
1040
1.0
1002
}
  0
LINE
  5
6C
100
AcDbEntity
  8
外形
  6
CENTER
 62
     1
100
AcDbLine
 10
56.01418
 20
39.899835
 30
0.0
 11
382.999748
 21
39.899835
 31
0.0
  0
LINE
  5
6E
100
AcDbEntity
  8
外形
  6
CENTER
 62
     1
100
AcDbLine
 10
66.745716
 20
96.835736
 30
0.0
 11
382.999748
 21
96.835736
 31
0.0
  0
DIMENSION
  5
6F
100
AcDbEntity
  8
参考
  6
CONTINUOUS
100
AcDbDimension
  2
*D6
 10
80.515843
 20
20.633255
 30
0.0
 11
78.015843
 21
22.383255
 31
0.0
 12
-510.385604
 22
-423.355231
 32
0.0
  3
参考寸法
100
AcDbAlignedDimension
 13
75.515843
 23
39.899835
 33
0.0
 14
80.515843
 24
27.659512
 34
0.0
100
AcDbRotatedDimension
1001
ACAD
1000
DSTYLE
1002
{
1070
   140
1040
1.5
1070
    41
1040
1.0
1002
}
  0
LEADER
  5
7C
100
AcDbEntity
  8
寸法
  6
CONTINUOUS
 62
     1
100
AcDbLeader
  3
STANDARD
 73
     0
 74
     0
 75
     1
 40
3.0
 41
26.0
 76
     3
 10
30.46027
 20
109.036573
 30
0.0
 10
38.427595
 20
122.277782
 30
0.0
 10
40.427595
 20
122.277782
 30
0.0
 77
   256
340
7D
213
-0.1129475379637483
223
0.5510341987360618
233
0.0
1001
ACAD
1000
DSTYLE
1002
{
1070
   284
1070
    13
1070
   146
1040
0.5
1070
   272
1070
     3
1070
    40
1040
1.0
1070
   287
1070
     0
1002
}
  0
LINE
  5
7E
100
AcDbEntity
  8
外形
  6
CONTINUOUS
100
AcDbLine
 10
75.727527
 20
36.689168
 30
0.0
 11
83.81234
 21
35.981838
 31
0.0
  0
LINE
  5
7F
100
AcDbEntity
  8
外形
  6
CONTINUOUS
100
AcDbLine
 10
73.170147
 20
41.525712
 30
0.0
 11
82.342202
 21
40.723261
 31
0.0
  0
LINE
  5
80
100
AcDbEntity
  8
外形
  6
CONTINUOUS
100
AcDbLine
 10
75.515843
 20
39.899835
 30
0.0
 11
84.705272
 21
39.095864
 31
0.0
  0
LINE
  5
81
100
AcDbEntity
  8
外形
  6
CONTINUOUS
100
AcDbLine
 10
76.755785
 20
26.652007
 30
0.0
 11
75.755785
 21
26.652007
 31
0.0
  0
LINE
  5
82
100
AcDbEntity
  8
外形
  6
CONTINUOUS
100
AcDbLine
 10
73.858806
 20
33.731626
 30
0.0
 11
73.858806
 21
37.976117
 31
0.0
  0
LINE
  5
83
100
AcDbEntity
  8
外形
  6
CONTINUOUS
100
AcDbLine
 10
75.755785
 20
26.652007
 30
0.0
 11
75.755785
 21
36.686695
 31
0.0
  0
LINE
  5
84
100
AcDbEntity
  8
外形
  6
CONTINUOUS
100
AcDbLine
 10
73.858806
 20
33.731626
 30
0.0
 11
75.755785
 21
26.652007
 31
0.0
  0
LINE
  5
85
100
AcDbEntity
  8
外形
  6
CONTINUOUS
100
AcDbLine
 10
73.170147
 20
41.525712
 30
0.0
 11
73.382552
 21
38.304103
 31
0.0
  0
LINE
  5
86
100
AcDbEntity
  8
外形
  6
CONTINUOUS
100
AcDbLine
 10
75.515843
 20
39.91028
 30
0.0
 11
73.170147
 21
41.525712
 31
0.0
  0
LINE
  5
87
100
AcDbEntity
  8
外形
  6
CONTINUOUS
100
AcDbLine
 10
75.515843
 20
39.899835
 30
0.0
 11
75.727527
 21
36.689168
 31
0.0
  0
LINE
  5
88
100
AcDbEntity
  8
外形
  6
CONTINUOUS
100
AcDbLine
 10
73.827527
 20
41.687699
 30
0.0
 11
73.827527
 21
41.468199
 31
0.0
  0
LINE
  5
89
100
AcDbEntity
  8
外形
  6
CONTINUOUS
100
AcDbLine
 10
75.727527
 20
36.689168
 30
0.0
 11
73.382552
 21
38.304103
 31
0.0
  0
LINE
  5
8A
100
AcDbEntity
  8
外形
  6
CONTINUOUS
100
AcDbLine
 10
80.515843
 20
36.270244
 30
0.0
 11
80.515843
 21
27.659512
 31
0.0
  0
LINE
  5
8B
100
AcDbEntity
  8
外形
  6
CONTINUOUS
100
AcDbLine
 10
76.755785
 20
36.599207
 30
0.0
 11
76.755785
 21
26.652007
 31
0.0
  0
LINE
  5
8C
100
AcDbEntity
  8
外形
  6
CONTINUOUS
100
AcDbLine
 10
101.108806
 20
28.899835
 30
0.0
 11
101.108806
 21
46.41027
 31
0.0
  0
LINE
  5
8D
100
AcDbEntity
  8
外形
  6
CONTINUOUS
100
AcDbLine
 10
100.858806
 20
28.899835
 30
0.0
 11
100.858806
 21
46.258713
 31
0.0
  0
LINE
  5
8E
100
AcDbEntity
  8
外形
  6
CONTINUOUS
100
AcDbLine
 10
76.755785
 20
26.652007
 30
0.0
 11
80.515843
 21
27.659512
 31
0.0
  0
LINE
  5
8F
100
AcDbEntity
  8
外形
  6
CONTINUOUS
100
AcDbLine
 10
84.705272
 20
39.095864
 30
0.0
 11
82.342202
 21
40.723261
 31
0.0
  0
LINE
  5
90
100
AcDbEntity
  8
外形
  6
CONTINUOUS
100
AcDbLine
 10
84.988777
 20
40.084562
 30
0.0
 11
83.81234
 21
35.981838
 31
0.0
  0
DIMENSION
  5
91
100
AcDbEntity
  8
寸法
  6
CONTINUOUS
100
AcDbDimension
  2
*D7
 10
75.436403
 20
83.132208
 30
0.0
 11
46.734661
 21
99.940007
 31
0.0
 12
-510.385604
 22
-423.355231
 32
0.0
 70
   130
  3
STANDARD
100
AcDb2LineAngularDimension
 13
75.875434
 23
82.835736
 33
0.0
 14
75.515843
 24
82.835736
 34
0.0
 15
73.178207
 25
91.559911
 35
0.0
 16
53.995293
 26
108.482928
 36
0.0
1001
ACAD
1000
DSTYLE
1002
{
1070
    40
1040
1.0
1002
}
  0
CIRCLE
  5
A0
100
AcDbEntity
  8
外形
  6
CENTER
 62
     1
100
AcDbCircle
 10
23.594443
 20
96.835736
 30
0.0
 40
14.0
  0
ARC
  5
A1
100
AcDbEntity
  8
外形
  6
CONTINUOUS
100
AcDbCircle
 10
23.594443
 20
96.835736
 30
0.0
 40
6.15
100
AcDbArc
 50
90.0
 51
242.486195
  0
LINE
  5
A2
100
AcDbEntity
  8
外形
  6
CONTINUOUS
100
AcDbLine
 10
34.594443
 20
90.898565
 30
0.0
 11
34.594443
 21
102.2267
 31
0.0
  0
ARC
  5
A3
100
AcDbEntity
  8
外形
  6
CONTINUOUS
100
AcDbCircle
 10
23.594443
 20
95.835736
 30
0.0
 40
13.25
100
AcDbArc
 50
90.0
 51
256.11346
  0
LINE
  5
A4
100
AcDbEntity
  8
外形
  6
CONTINUOUS
100
AcDbLine
 10
23.594443
 20
109.085736
 30
0.0
 11
23.594443
 21
82.835736
 31
0.0
  0
LINE
  5
A5
100
AcDbEntity
  8
外形
  6
CENTER
 62
     1
100
AcDbLine
 10
23.594443
 20
112.561486
 30
0.0
 11
23.594443
 21
80.209164
 31
0.0
  0
DIMENSION
  5
A6
100
AcDbEntity
  8
参考
  6
CONTINUOUS
100
AcDbDimension
  2
*D4
 10
2.338615
 20
95.835736
 30
0.0
 11
0.588615
 21
92.460736
 31
0.0
 12
-510.385604
 22
-423.355231
 32
0.0
  3
参考寸法
100
AcDbAlignedDimension
 13
7.019933
 23
96.835736
 33
0.0
 14
7.019933
 24
95.835736
 34
0.0
 50
90.0
100
AcDbRotatedDimension
1001
ACAD
1000
DSTYLE
1002
{
1070
   140
1040
1.5
1070
    41
1040
1.0
1002
}
  0
LINE
  5
B5
100
AcDbEntity
  8
外形
  6
CENTER
 62
     1
100
AcDbLine
 10
39.527269
 20
95.835736
 30
0.0
 11
7.019933
 21
95.835736
 31
0.0
  0
ARC
  5
B6
100
AcDbEntity
  8
外形
  6
CONTINUOUS
100
AcDbCircle
 10
23.594443
 20
96.835736
 30
0.0
 40
12.5
100
AcDbArc
 50
270.0
 51
331.642363
  0
LINE
  5
B7
100
AcDbEntity
  8
外形
  6
CONTINUOUS
100
AcDbLine
 10
20.414443
 20
91.315422
 30
0.0
 11
20.414443
 21
82.972995
 31
0.0
  0
LINE
  5
B8
100
AcDbEntity
  8
外形
  6
CONTINUOUS
100
AcDbLine
 10
23.594443
 20
82.835736
 30
0.0
 11
20.414443
 21
83.453865
 31
0.0
  0
LINE
  5
B9
100
AcDbEntity
  8
外形
  6
CONTINUOUS
100
AcDbLine
 10
23.594443
 20
91.933551
 30
0.0
 11
20.414443
 21
91.315422
 31
0.0
  0
LINE
  5
BA
100
AcDbEntity
  8
外形
  6
CONTINUOUS
100
AcDbLine
 10
23.594443
 20
103.835736
 30
0.0
 11
13.032128
 21
103.835736
 31
0.0
  0
LINE
  5
BB
100
AcDbEntity
  8
外形
  6
CENTER
 62
     1
100
AcDbLine
 10
39.527269
 20
96.835736
 30
0.0
 11
7.019933
 21
96.835736
 31
0.0
  0
ARC
  5
BC
100
AcDbEntity
  8
外形
  6
CONTINUOUS
100
AcDbCircle
 10
23.594443
 20
96.835736
 30
0.0
 40
12.25
100
AcDbArc
 50
26.108906
 51
90.0
  0
LINE
  5
BD
100
AcDbEntity
  8
外形
  6
CONTINUOUS
100
AcDbLine
 10
28.017905
 20
108.259198
 30
0.0
 11
23.594443
 21
103.835736
 31
0.0
  0
DIMENSION
  5
BE
100
AcDbEntity
  8
参考
  6
CONTINUOUS
100
AcDbDimension
  2
*D15
 10
82.920793
 20
109.085736
 30
0.0
 11
82.314404
 21
118.535438
 31
0.0
 12
-510.385604
 22
-423.355231
 32
0.0
 70
     2
  3
参考寸法
100
AcDb2LineAngularDimension
 13
73.827527
 23
103.835736
 33
0.0
 14
73.827527
 24
92.148006
 34
0.0
 15
73.827527
 25
103.835736
 35
0.0
 16
83.613167
 26
115.497808
 36
0.0
1001
ACAD
1000
DSTYLE
1002
{
1070
   140
1040
1.5
1070
    41
1040
1.0
1002
}
  0
LINE
  5
CD
100
AcDbEntity
  8
外形
  6
CONTINUOUS
100
AcDbLine
 10
73.827527
 20
103.835736
 30
0.0
 11
73.827527
 21
92.148006
 31
0.0
  0
DIMENSION
  5
CE
100
AcDbEntity
  8
参考
  6
CONTINUOUS
100
AcDbDimension
  2
*D10
 10
75.240264
 20
85.540168
 30
0.0
 11
90.788433
 21
98.42263
 31
0.0
 12
-121.249783
 22
-424.855231
 32
0.0
 70
   131
  3
参考寸法
100
AcDbDiametricDimension
 15
82.57479
 25
91.617202
 35
0.0
 40
0.0
1001
ACAD
1000
DSTYLE
1002
{
1070
   140
1040
1.5
1070
    41
1040
1.0
1002
}
  0
DIMENSION
  5
D9
100
AcDbEntity
  8
寸法
  6
CONTINUOUS
100
AcDbDimension
  2
*D13
 10
59.603333
 20
82.835736
 30
0.0
 11
57.103333
 21
89.835736
 31
0.0
 12
-510.385604
 22
-423.355231
 32
0.0
  3
STANDARD
100
AcDbAlignedDimension
 13
73.827527
 23
96.835736
 33
0.0
 14
75.515843
 24
82.835736
 34
0.0
 50
90.0
100
AcDbRotatedDimension
1001
ACAD
1000
DSTYLE
1002
{
1070
    40
1040
1.0
1002
}
  0
DIMENSION
  5
E6
100
AcDbEntity
  8
参考
  6
CONTINUOUS
100
AcDbDimension
  2
*D9
 10
73.564577
 20
91.663439
 30
0.0
 11
65.343978
 21
95.487858
 31
0.0
 12
-121.249783
 22
-424.855231
 32
0.0
 70
   132
  3
参考寸法
100
AcDbRadialDimension
 15
73.201904
 25
91.832163
 35
0.0
 40
0.0
1001
ACAD
1000
DSTYLE
1002
{
1070
   140
1040
1.5
1070
    41
1040
1.0
1002
}
  0
CIRCLE
  5
F0
100
AcDbEntity
  8
外形
  6
CONTINUOUS
100
AcDbCircle
 10
78.907527
 20
88.578685
 30
0.0
 40
4.7625
  0
LINE
  5
F1
100
AcDbEntity
  8
外形
  6
CONTINUOUS
100
AcDbLine
 10
73.46105
 20
92.049809
 30
0.0
 11
81.888752
 21
94.308005
 31
0.0
  0
LINE
  5
F2
100
AcDbEntity
  8
外形
  6
CONTINUOUS
100
AcDbLine
 10
75.926301
 20
82.849365
 30
0.0
 11
84.354004
 21
85.107562
 31
0.0
  0
LINE
  5
F3
100
AcDbEntity
  8
外形
  6
CENTER
 62
     1
100
AcDbLine
 10
72.23795
 20
88.578685
 30
0.0
 11
85.499415
 21
88.578685
 31
0.0
  0
LINE
  5
F4
100
AcDbEntity
  8
外形
  6
CONTINUOUS
100
AcDbLine
 10
73.178207
 20
91.559911
 30
0.0
 11
75.436403
 21
83.132208
 31
0.0
  0
DIMENSION
  5
F5
100
AcDbEntity
  8
参考
  6
CONTINUOUS
100
AcDbDimension
  2
*D8
 10
73.175843
 20
76.904509
 30
0.0
 11
68.425843
 21
78.654509
 31
0.0
 12
-121.249783
 22
-424.855231
 32
0.0
  3
参考寸法
100
AcDbAlignedDimension
 13
75.515843
 23
82.835736
 33
0.0
 14
73.175843
 24
91.569176
 34
0.0
100
AcDbRotatedDimension
1001
ACAD
1000
DSTYLE
1002
{
1070
   140
1040
1.5
1070
    41
1040
1.0
1002
}
  0
LINE
  5
103
100
AcDbEntity
  8
外形
  6
CONTINUOUS
 62
     1
100
AcDbLine
 10
75.436403
 20
83.132208
 30
0.0
 11
75.515843
 21
82.835736
 31
0.0
  0
LINE
  5
104
100
AcDbEntity
  8
外形
  6
CONTINUOUS
 62
     1
100
AcDbLine
 10
75.875434
 20
82.835736
 30
0.0
 11
75.515843
 21
82.835736
 31
0.0
  0
ARC
  5
105
100
AcDbEntity
  8
外形
  6
CONTINUOUS
100
AcDbCircle
 10
75.822773
 20
83.235736
 30
0.0
 40
0.4
100
AcDbArc
 50
195.0
 51
285.0
  0
LINE
  5
106
100
AcDbEntity
  8
外形
  6
CONTINUOUS
 62
     1
100
AcDbLine
 10
75.822773
 20
82.835736
 30
0.0
 11
75.515843
 21
82.835736
 31
0.0
  0
ARC
  5
107
100
AcDbEntity
  8
外形
  6
CONTINUOUS
100
AcDbCircle
 10
73.564577
 20
91.663439
 30
0.0
 40
0.4
100
AcDbArc
 50
105.0
 51
195.0
  0
DIMENSION
  5
108
100
AcDbEntity
  8
参考
  6
CONTINUOUS
100
AcDbDimension
  2
*D11
 10
81.057537
 20
78.09987
 30
0.0
 11
85.057537
 21
79.84987
 31
0.0
 12
-121.249783
 22
-424.855231
 32
0.0
  3
参考寸法
100
AcDbAlignedDimension
 13
76.757517
 23
88.578685
 33
0.0
 14
81.057537
 24
88.578685
 34
0.0
 50
0.0
100
AcDbRotatedDimension
1001
ACAD
1000
DSTYLE
1002
{
1070
   140
1040
1.5
1070
    41
1040
1.0
1002
}
  0
LINE
  5
116
100
AcDbEntity
  8
外形
  6
CENTER
 62
     1
100
AcDbLine
 10
78.907527
 20
81.485
 30
0.0
 11
78.907527
 21
95.140623
 31
0.0
  0
LINE
  5
117
100
AcDbEntity
  8
外形
  6
CONTINUOUS
100
AcDbLine
 10
100.858806
 20
84.585736
 30
0.0
 11
84.907937
 21
84.585736
 31
0.0
  0
ARC
  5
118
100
AcDbEntity
  8
外形
  6
CONTINUOUS
100
AcDbCircle
 10
84.250476
 20
85.493932
 30
0.0
 40
0.4
100
AcDbArc
 50
285.0
 51
15.0
  0
ARC
  5
119
100
AcDbEntity
  8
外形
  6
CONTINUOUS
100
AcDbCircle
 10
81.414292
 20
92.921108
 30
0.0
 40
1.75
100
AcDbArc
 50
329.072705
 51
150.945905
  0
ARC
  5
11A
100
AcDbEntity
  8
外形
  6
CONTINUOUS
100
AcDbCircle
 10
81.99228
 20
93.921635
 30
0.0
 40
0.4
100
AcDbArc
 50
15.0
 51
105.0
  0
CIRCLE
  5
11B
100
AcDbEntity
  8
外形
  6
CONTINUOUS
100
AcDbCircle
 10
78.907527
 20
88.578685
 30
0.0
 40
2.15001
  0
LINE
  5
11C
100
AcDbEntity
  8
外形
  6
CONTINUOUS
100
AcDbLine
 10
79.753203
 20
88.876691
 30
0.0
 11
80.263517
 21
88.578685
 31
0.0
  0
LINE
  5
11D
100
AcDbEntity
  8
外形
  6
CONTINUOUS
100
AcDbLine
 10
77.551536
 20
88.578685
 30
0.0
 11
78.06185
 21
88.876691
 31
0.0
  0
LINE
  5
11E
100
AcDbEntity
  8
外形
  6
CONTINUOUS
100
AcDbLine
 10
80.263517
 20
88.578685
 30
0.0
 11
79.753203
 21
88.280679
 31
0.0
  0
LINE
  5
11F
100
AcDbEntity
  8
外形
  6
CONTINUOUS
100
AcDbLine
 10
78.06185
 20
88.280679
 30
0.0
 11
77.551536
 21
88.578685
 31
0.0
  0
LINE
  5
120
100
AcDbEntity
  8
外形
  6
CONTINUOUS
100
AcDbLine
 10
78.742769
 20
87.697305
 30
0.0
 11
78.229532
 21
87.404363
 31
0.0
  0
LINE
  5
121
100
AcDbEntity
  8
外形
  6
CONTINUOUS
100
AcDbLine
 10
78.229532
 20
87.404363
 30
0.0
 11
78.226608
 21
87.995311
 31
0.0
  0
LINE
  5
122
100
AcDbEntity
  8
外形
  6
CONTINUOUS
100
AcDbLine
 10
79.588446
 20
87.995311
 30
0.0
 11
79.585522
 21
87.404363
 31
0.0
  0
LINE
  5
123
100
AcDbEntity
  8
外形
  6
CONTINUOUS
100
AcDbLine
 10
79.585522
 20
87.404363
 30
0.0
 11
79.072285
 21
87.697305
 31
0.0
  0
ARC
  5
124
100
AcDbEntity
  8
外形
  6
CONTINUOUS
100
AcDbCircle
 10
79.920809
 20
87.993666
 30
0.0
 40
0.332368
100
AcDbArc
 50
120.283476
 51
179.716524
  0
ARC
  5
125
100
AcDbEntity
  8
外形
  6
CONTINUOUS
100
AcDbCircle
 10
78.907527
 20
87.408647
 30
0.0
 40
0.332368
100
AcDbArc
 50
60.283476
 51
119.716524
  0
ARC
  5
126
100
AcDbEntity
  8
外形
  6
CONTINUOUS
100
AcDbCircle
 10
77.894244
 20
87.993666
 30
0.0
 40
0.332368
100
AcDbArc
 50
0.283476
 51
59.716524
  0
LINE
  5
127
100
AcDbEntity
  8
外形
  6
CONTINUOUS
100
AcDbLine
 10
79.072285
 20
89.460066
 30
0.0
 11
79.585522
 21
89.753007
 31
0.0
  0
LINE
  5
128
100
AcDbEntity
  8
外形
  6
CONTINUOUS
100
AcDbLine
 10
79.585522
 20
89.753007
 30
0.0
 11
79.588446
 21
89.16206
 31
0.0
  0
LINE
  5
129
100
AcDbEntity
  8
外形
  6
CONTINUOUS
100
AcDbLine
 10
78.226608
 20
89.16206
 30
0.0
 11
78.229532
 21
89.753007
 31
0.0
  0
LINE
  5
12A
100
AcDbEntity
  8
外形
  6
CONTINUOUS
100
AcDbLine
 10
78.229532
 20
89.753007
 30
0.0
 11
78.742769
 21
89.460066
 31
0.0
  0
ARC
  5
12B
100
AcDbEntity
  8
外形
  6
CONTINUOUS
100
AcDbCircle
 10
79.920809
 20
89.163704
 30
0.0
 40
0.332368
100
AcDbArc
 50
180.283476
 51
239.716524
  0
ARC
  5
12C
100
AcDbEntity
  8
外形
  6
CONTINUOUS
100
AcDbCircle
 10
77.894244
 20
89.163704
 30
0.0
 40
0.332368
100
AcDbArc
 50
300.283476
 51
359.716524
  0
ARC
  5
12D
100
AcDbEntity
  8
外形
  6
CONTINUOUS
100
AcDbCircle
 10
78.907527
 20
89.748723
 30
0.0
 40
0.332368
100
AcDbArc
 50
240.283476
 51
299.716524
  0
LINE
  5
12E
100
AcDbEntity
  8
外形
  6
CONTINUOUS
100
AcDbLine
 10
82.37865
 20
94.025162
 30
0.0
 11
84.907937
 21
84.585736
 31
0.0
  0
LINE
  5
12F
100
AcDbEntity
  8
外形
  6
CONTINUOUS
100
AcDbLine
 10
100.858806
 20
84.585736
 30
0.0
 11
101.108806
 21
84.335736
 31
0.0
  0
LINE
  5
130
100
AcDbEntity
  8
外形
  6
CONTINUOUS
100
AcDbLine
 10
100.858806
 20
84.585736
 30
0.0
 11
100.858806
 21
87.561076
 31
0.0
  0
LINE
  5
131
100
AcDbEntity
  8
外形
  6
CONTINUOUS
100
AcDbLine
 10
101.108806
 20
84.335736
 30
0.0
 11
101.108806
 21
87.61715
 31
0.0
  0
LINE
  5
132
100
AcDbEntity
  8
外形
  6
CONTINUOUS
100
AcDbLine
 10
73.827527
 20
103.835736
 30
0.0
 11
82.920793
 21
109.085736
 31
0.0
  0
DIMENSION
  5
133
100
AcDbEntity
  8
寸法
  6
CONTINUOUS
100
AcDbDimension
  2
*D14
 10
59.603333
 20
103.835736
 30
0.0
 11
57.103333
 21
100.335736
 31
0.0
 12
-510.385604
 22
-423.355231
 32
0.0
  3
STANDARD
100
AcDbAlignedDimension
 13
73.827527
 23
96.835736
 33
0.0
 14
73.827527
 24
103.835736
 34
0.0
 50
90.0
100
AcDbRotatedDimension
1001
ACAD
1000
DSTYLE
1002
{
1070
    40
1040
1.0
1002
}
  0
LINE
  5
140
100
AcDbEntity
  8
外形
  6
CONTINUOUS
100
AcDbLine
 10
100.858806
 20
102.772907
 30
0.0
 11
100.858806
 21
109.085736
 31
0.0
  0
LINE
  5
141
100
AcDbEntity
  8
外形
  6
CONTINUOUS
100
AcDbLine
 10
101.108806
 20
102.772907
 30
0.0
 11
101.108806
 21
109.335736
 31
0.0
  0
LINE
  5
142
100
AcDbEntity
  8
外形
  6
CONTINUOUS
100
AcDbLine
 10
100.858806
 20
109.085736
 30
0.0
 11
82.920793
 21
109.085736
 31
0.0
  0
LINE
  5
143
100
AcDbEntity
  8
外形
  6
CONTINUOUS
100
AcDbLine
 10
100.858806
 20
109.085736
 30
0.0
 11
101.108806
 21
109.335736
 31
0.0
  0
MTEXT
  5
7D
102
{ACAD_REACTORS
330
7C
102
}
100
AcDbEntity
  8
寸法
  6
CONTINUOUS
 62
     3
100
AcDbMText
 10
41.540543
 20
124.226748
 30
0.0
 40
3.0
 41
0.0
 71
     4
 72
     1
  1
%%c28最小加工径
  0
TEXT
  5
144
100
AcDbEntity
  8
外形
  6
CONTINUOUS
 62
     2
100
AcDbText
 10
179.585309
 20
0.861476
 30
0.0
 40
6.0
  1
BBPS-325R
100
AcDbText
  0
LINE
  5
145
100
AcDbEntity
  8
外形
  6
CONTINUOUS
100
AcDbLine
 10
328.511755
 20
84.335736
 30
0.0
 11
374.011755
 21
84.335736
 31
0.0
  0
LINE
  5
146
100
AcDbEntity
  8
外形
  6
CONTINUOUS
100
AcDbLine
 10
328.511755
 20
90.898565
 30
0.0
 11
374.011755
 21
90.898565
 31
0.0
  0
LINE
  5
147
100
AcDbEntity
  8
外形
  6
CONTINUOUS
100
AcDbLine
 10
328.511755
 20
102.772907
 30
0.0
 11
374.011755
 21
102.772907
 31
0.0
  0
LINE
  5
148
100
AcDbEntity
  8
外形
  6
CONTINUOUS
100
AcDbLine
 10
328.511755
 20
109.335736
 30
0.0
 11
374.011755
 21
109.335736
 31
0.0
  0
LINE
  5
149
100
AcDbEntity
  8
外形
  6
CONTINUOUS
100
AcDbLine
 10
108.515843
 20
50.899835
 30
0.0
 11
374.511755
 21
50.899835
 31
0.0
  0
DIMENSION
  5
14A
100
AcDbEntity
  8
寸法
  6
CONTINUOUS
100
AcDbDimension
  2
*D16
 10
308.418577
 20
86.543174
 30
0.0
 11
330.839697
 21
119.077363
 31
0.0
 12
-510.385604
 22
-423.355231
 32
0.0
 70
   131
  3
STANDARD
100
AcDbDiametricDimension
 15
322.604932
 25
107.128298
 35
0.0
 40
0.0
1001
ACAD
1000
DSTYLE
1002
{
1070
    40
1040
1.0
1002
}
  0
LINE
  5
156
100
AcDbEntity
  8
外形
  6
CONTINUOUS
100
AcDbLine
 10
108.515843
 20
90.898565
 30
0.0
 11
302.511755
 21
90.898565
 31
0.0
  0
DIMENSION
  5
157
100
AcDbEntity
  8
寸法
  6
CONTINUOUS
100
AcDbDimension
  2
*D12
 10
326.511755
 20
72.55715
 30
0.0
 11
315.511755
 21
75.05715
 31
0.0
 12
-510.385604
 22
-423.355231
 32
0.0
  3
STANDARD
100
AcDbAlignedDimension
 13
304.511755
 23
90.898565
 33
0.0
 14
326.511755
 24
90.898565
 34
0.0
100
AcDbRotatedDimension
1001
ACAD
1000
DSTYLE
1002
{
1070
    40
1040
1.0
1002
}
  0
LINE
  5
164
100
AcDbEntity
  8
外形
  6
CONTINUOUS
100
AcDbLine
 10
326.511755
 20
102.772907
 30
0.0
 11
326.511755
 21
90.898565
 31
0.0
  0
LINE
  5
165
100
AcDbEntity
  8
外形
  6
CONTINUOUS
100
AcDbLine
 10
304.511755
 20
102.772907
 30
0.0
 11
304.511755
 21
90.898565
 31
0.0
  0
LINE
  5
166
100
AcDbEntity
  8
外形
  6
CENTER
 62
     1
100
AcDbLine
 10
315.511755
 20
112.465544
 30
0.0
 11
315.511755
 21
80.174371
 31
0.0
  0
ARC
  5
167
100
AcDbEntity
  8
外形
  6
CONTINUOUS
100
AcDbCircle
 10
315.511755
 20
96.835736
 30
0.0
 40
12.5
100
AcDbArc
 50
208.357637
 51
331.642363
  0
ARC
  5
168
100
AcDbEntity
  8
外形
  6
CONTINUOUS
100
AcDbCircle
 10
315.511755
 20
96.835736
 30
0.0
 40
12.5
100
AcDbArc
 50
28.357637
 51
151.642363
  0
LINE
  5
169
100
AcDbEntity
  8
外形
  6
CONTINUOUS
100
AcDbLine
 10
374.511755
 20
50.899835
 30
0.0
 11
374.511755
 21
28.899835
 31
0.0
  0
LINE
  5
16A
100
AcDbEntity
  8
外形
  6
CONTINUOUS
100
AcDbLine
 10
375.511755
 20
29.899835
 30
0.0
 11
375.511755
 21
49.899835
 31
0.0
  0
LINE
  5
16B
100
AcDbEntity
  8
外形
  6
CONTINUOUS
100
AcDbLine
 10
374.511755
 20
28.899835
 30
0.0
 11
375.511755
 21
29.899835
 31
0.0
  0
LINE
  5
16C
100
AcDbEntity
  8
外形
  6
CONTINUOUS
100
AcDbLine
 10
374.511755
 20
50.899835
 30
0.0
 11
375.511755
 21
49.899835
 31
0.0
  0
ARC
  5
16D
100
AcDbEntity
  8
外形
  6
CONTINUOUS
100
AcDbCircle
 10
363.011755
 20
96.835736
 30
0.0
 40
12.5
100
AcDbArc
 50
331.642363
 51
28.357637
  0
LINE
  5
16E
100
AcDbEntity
  8
外形
  6
CONTINUOUS
100
AcDbLine
 10
375.511755
 20
85.835736
 30
0.0
 11
375.511755
 21
107.835736
 31
0.0
  0
LINE
  5
16F
100
AcDbEntity
  8
外形
  6
CENTER
 62
     1
100
AcDbLine
 10
376.777527
 20
84.985
 30
0.0
 11
376.777527
 21
101.140623
 31
0.0
  0
LINE
  5
170
100
AcDbEntity
  8
外形
  6
CONTINUOUS
100
AcDbLine
 10
374.011755
 20
90.898565
 30
0.0
 11
374.011755
 21
84.335736
 31
0.0
  0
LINE
  5
171
100
AcDbEntity
  8
外形
  6
CONTINUOUS
100
AcDbLine
 10
374.011755
 20
84.335736
 30
0.0
 11
375.511755
 21
85.835736
 31
0.0
  0
LINE
  5
172
100
AcDbEntity
  8
外形
  6
CONTINUOUS
100
AcDbLine
 10
374.011755
 20
109.335736
 30
0.0
 11
374.011755
 21
102.772907
 31
0.0
  0
LINE
  5
173
100
AcDbEntity
  8
外形
  6
CONTINUOUS
100
AcDbLine
 10
374.011755
 20
109.335736
 30
0.0
 11
375.511755
 21
107.835736
 31
0.0
  0
ENDBLK
  5
175
100
AcDbEntity
  8
0
100
AcDbBlockEnd
  0
BLOCK
  5
2BF
100
AcDbEntity
  8
0
100
AcDbBlockBegin
  2
*D19
 70
     1
 10
0.0
 20
0.0
 30
0.0
  3
*D19
  1

  0
LINE
  5
2C0
100
AcDbEntity
  8
0
  6
BYBLOCK
 62
     1
100
AcDbLine
 10
951.550929
 20
-170.368261
 30
0.0
 11
951.550929
 21
-193.295228
 31
0.0
  0
LINE
  5
2C1
100
AcDbEntity
  8
0
  6
BYBLOCK
 62
     1
100
AcDbLine
 10
1251.546841
 20
-167.368261
 30
0.0
 11
1251.546841
 21
-193.295228
 31
0.0
  0
LINE
  5
2C2
100
AcDbEntity
  8
0
  6
BYBLOCK
 62
     1
100
AcDbLine
 10
953.550929
 20
-191.295228
 30
0.0
 11
1249.546841
 21
-191.295228
 31
0.0
  0
INSERT
  5
2C3
100
AcDbEntity
  8
0
  6
BYBLOCK
 62
     1
100
AcDbBlockReference
  2
_OPEN30
 10
951.550929
 20
-191.295228
 30
0.0
 41
2.0
 42
2.0
 43
2.0
 50
180.0
  0
INSERT
  5
2C4
100
AcDbEntity
  8
0
  6
BYBLOCK
 62
     1
100
AcDbBlockReference
  2
_OPEN30
 10
1251.546841
 20
-191.295228
 30
0.0
 41
2.0
 42
2.0
 43
2.0
  0
MTEXT
  5
2C5
100
AcDbEntity
  8
0
  6
BYBLOCK
 62
     3
100
AcDbMText
 10
1101.548885
 20
-188.795228
 30
0.0
 40
3.0
 41
0.0
 71
     5
 72
     1
  1
\A1;300
  0
POINT
  5
2C6
100
AcDbEntity
  8
DEFPOINTS
  6
BYBLOCK
 62
     0
100
AcDbPoint
 10
951.550929
 20
-169.368261
 30
0.0
  0
POINT
  5
2C7
100
AcDbEntity
  8
DEFPOINTS
  6
BYBLOCK
 62
     0
100
AcDbPoint
 10
1251.546841
 20
-166.368261
 30
0.0
  0
POINT
  5
2C8
100
AcDbEntity
  8
DEFPOINTS
  6
BYBLOCK
 62
     0
100
AcDbPoint
 10
1251.546841
 20
-191.295228
 30
0.0
  0
ENDBLK
  5
2C9
100
AcDbEntity
  8
0
100
AcDbBlockEnd
  0
BLOCK
  5
2CA
100
AcDbEntity
  8
0
100
AcDbBlockBegin
  2
*D20
 70
     1
 10
0.0
 20
0.0
 30
0.0
  3
*D20
  1

  0
LINE
  5
2CB
100
AcDbEntity
  8
0
  6
BYBLOCK
 62
     1
100
AcDbLine
 10
950.554734
 20
-212.217007
 30
0.0
 11
934.957334
 21
-210.852411
 31
0.0
  0
ARC
  5
2CC
100
AcDbEntity
  8
0
  6
BYBLOCK
 62
     1
100
AcDbCircle
 10
951.550929
 20
-212.304162
 30
0.0
 40
14.656979
100
AcDbArc
 50
159.314615
 51
175.0
  0
LINE
  5
2CD
100
AcDbEntity
  8
0
  6
BYBLOCK
 62
     1
100
AcDbLine
 10
937.838824
 20
-207.126786
 30
0.0
 11
940.876656
 21
-199.081193
 31
0.0
  0
ARC
  5
2CE
100
AcDbEntity
  8
0
  6
BYBLOCK
 62
     1
100
AcDbCircle
 10
951.550929
 20
-212.304162
 30
0.0
 40
14.656979
100
AcDbArc
 50
159.351394
 51
167.175697
  0
ARC
  5
2CF
100
AcDbEntity
  8
0
  6
BYBLOCK
 62
     1
100
AcDbCircle
 10
951.550929
 20
-212.304162
 30
0.0
 40
14.656979
100
AcDbArc
 50
187.824303
 51
195.648606
  0
ARC
  5
2D0
100
AcDbEntity
  8
0
  6
BYBLOCK
 62
     1
100
AcDbCircle
 10
951.550929
 20
-212.304162
 30
0.0
 40
14.656979
100
AcDbArc
 50
175.0
 51
180.0
  0
INSERT
  5
2D1
100
AcDbEntity
  8
0
  6
BYBLOCK
 62
     1
100
AcDbBlockReference
  2
_OPEN30
 10
936.949724
 20
-211.026722
 30
0.0
 41
2.0
 42
2.0
 43
2.0
 50
261.087848
  0
INSERT
  5
2D2
100
AcDbEntity
  8
0
  6
BYBLOCK
 62
     1
100
AcDbBlockReference
  2
_OPEN30
 10
936.89395
 20
-212.304162
 30
0.0
 41
2.0
 42
2.0
 43
2.0
 50
93.912152
  0
MTEXT
  5
2D3
100
AcDbEntity
  8
0
  6
BYBLOCK
 62
     3
100
AcDbMText
 10
937.018904
 20
-202.220899
 30
0.0
 40
3.0
 41
0.0
 71
     5
 72
     1
  1
\A1;5°
 11
0.353236
 21
0.935534
 31
0.0
  0
POINT
  5
2D4
100
AcDbEntity
  8
DEFPOINTS
  6
BYBLOCK
 62
     0
100
AcDbPoint
 10
936.90015
 20
-211.877868
 30
0.0
  0
POINT
  5
2D5
100
AcDbEntity
  8
DEFPOINTS
  6
BYBLOCK
 62
     0
100
AcDbPoint
 10
951.550929
 20
-212.304162
 30
0.0
  0
POINT
  5
2D6
100
AcDbEntity
  8
DEFPOINTS
  6
BYBLOCK
 62
     0
100
AcDbPoint
 10
932.049266
 20
-212.304162
 30
0.0
  0
POINT
  5
2D7
100
AcDbEntity
  8
DEFPOINTS
  6
BYBLOCK
 62
     0
100
AcDbPoint
 10
1259.034834
 20
-212.304162
 30
0.0
  0
POINT
  5
2D8
100
AcDbEntity
  8
DEFPOINTS
  6
BYBLOCK
 62
     0
100
AcDbPoint
 10
960.740358
 20
-213.108133
 30
0.0
  0
ENDBLK
  5
2D9
100
AcDbEntity
  8
0
100
AcDbBlockEnd
  0
BLOCK
  5
2E5
100
AcDbEntity
  8
0
100
AcDbBlockBegin
  2
*D22
 70
     1
 10
0.0
 20
0.0
 30
0.0
  3
*D22
  1

  0
LINE
  5
2E6
100
AcDbEntity
  8
0
  6
BYBLOCK
 62
     1
100
AcDbLine
 10
948.954474
 20
-159.67816
 30
0.0
 11
942.368021
 21
-135.097183
 31
0.0
  0
LINE
  5
2E7
100
AcDbEntity
  8
0
  6
BYBLOCK
 62
     1
100
AcDbLine
 10
950.550929
 20
-169.368261
 30
0.0
 11
916.070897
 21
-169.368261
 31
0.0
  0
ARC
  5
2E8
100
AcDbEntity
  8
0
  6
BYBLOCK
 62
     1
100
AcDbCircle
 10
951.550929
 20
-169.368261
 30
0.0
 40
33.480031
100
AcDbArc
 50
108.423193
 51
176.576807
  0
INSERT
  5
2E9
100
AcDbEntity
  8
0
  6
BYBLOCK
 62
     1
100
AcDbBlockReference
  2
_OPEN30
 10
942.885659
 20
-137.029034
 30
0.0
 41
2.0
 42
2.0
 43
2.0
 50
16.711596
  0
INSERT
  5
2EA
100
AcDbEntity
  8
0
  6
BYBLOCK
 62
     1
100
AcDbBlockReference
  2
_OPEN30
 10
918.070897
 20
-169.368261
 30
0.0
 41
2.0
 42
2.0
 43
2.0
 50
268.288404
  0
MTEXT
  5
2EB
100
AcDbEntity
  8
0
  6
BYBLOCK
 62
     3
100
AcDbMText
 10
920.620617
 20
-150.98679
 30
0.0
 40
3.0
 41
0.0
 71
     5
 72
     1
  1
\A1;75°
 11
0.51088
 21
0.859652
 31
0.0
  0
POINT
  5
2EC
100
AcDbEntity
  8
DEFPOINTS
  6
BYBLOCK
 62
     0
100
AcDbPoint
 10
930.030379
 20
-143.721069
 30
0.0
  0
POINT
  5
2ED
100
AcDbEntity
  8
DEFPOINTS
  6
BYBLOCK
 62
     0
100
AcDbPoint
 10
949.213293
 20
-160.644086
 30
0.0
  0
POINT
  5
2EE
100
AcDbEntity
  8
DEFPOINTS
  6
BYBLOCK
 62
     0
100
AcDbPoint
 10
951.91052
 20
-169.368261
 30
0.0
  0
POINT
  5
2EF
100
AcDbEntity
  8
DEFPOINTS
  6
BYBLOCK
 62
     0
100
AcDbPoint
 10
951.550929
 20
-169.368261
 30
0.0
  0
POINT
  5
2F0
100
AcDbEntity
  8
DEFPOINTS
  6
BYBLOCK
 62
     0
100
AcDbPoint
 10
951.471489
 20
-169.071789
 30
0.0
  0
ENDBLK
  5
2F1
100
AcDbEntity
  8
0
100
AcDbBlockEnd
  0
BLOCK
  5
315
100
AcDbEntity
  8
0
100
AcDbBlockBegin
  2
*D26
 70
     1
 10
0.0
 20
0.0
 30
0.0
  3
*D26
  1

  0
LINE
  5
316
100
AcDbEntity
  8
0
  6
BYBLOCK
 62
     1
100
AcDbLine
 10
948.862613
 20
-155.368261
 30
0.0
 11
933.638419
 21
-155.368261
 31
0.0
  0
LINE
  5
317
100
AcDbEntity
  8
0
  6
BYBLOCK
 62
     1
100
AcDbLine
 10
950.550929
 20
-169.368261
 30
0.0
 11
933.638419
 21
-169.368261
 31
0.0
  0
LINE
  5
318
100
AcDbEntity
  8
0
  6
BYBLOCK
 62
     1
100
AcDbLine
 10
935.638419
 20
-157.368261
 30
0.0
 11
935.638419
 21
-167.368261
 31
0.0
  0
INSERT
  5
319
100
AcDbEntity
  8
0
  6
BYBLOCK
 62
     1
100
AcDbBlockReference
  2
_OPEN30
 10
935.638419
 20
-155.368261
 30
0.0
 41
2.0
 42
2.0
 43
2.0
 50
90.0
  0
INSERT
  5
31A
100
AcDbEntity
  8
0
  6
BYBLOCK
 62
     1
100
AcDbBlockReference
  2
_OPEN30
 10
935.638419
 20
-169.368261
 30
0.0
 41
2.0
 42
2.0
 43
2.0
 50
270.0
  0
MTEXT
  5
31B
100
AcDbEntity
  8
0
  6
BYBLOCK
 62
     3
100
AcDbMText
 10
933.138419
 20
-162.368261
 30
0.0
 40
3.0
 41
0.0
 71
     5
 72
     1
  1
\A1;14
 11
0.0
 21
1.0
 31
0.0
  0
POINT
  5
31C
100
AcDbEntity
  8
DEFPOINTS
  6
BYBLOCK
 62
     0
100
AcDbPoint
 10
949.862613
 20
-155.368261
 30
0.0
  0
POINT
  5
31D
100
AcDbEntity
  8
DEFPOINTS
  6
BYBLOCK
 62
     0
100
AcDbPoint
 10
951.550929
 20
-169.368261
 30
0.0
  0
POINT
  5
31E
100
AcDbEntity
  8
DEFPOINTS
  6
BYBLOCK
 62
     0
100
AcDbPoint
 10
935.638419
 20
-169.368261
 30
0.0
  0
ENDBLK
  5
31F
100
AcDbEntity
  8
0
100
AcDbBlockEnd
  0
BLOCK
  5
34B
100
AcDbEntity
  8
0
100
AcDbBlockBegin
  2
*D31
 70
     1
 10
0.0
 20
0.0
 30
0.0
  3
*D31
  1

  0
LINE
  5
34C
100
AcDbEntity
  8
0
  6
BYBLOCK
 62
     1
100
AcDbLine
 10
1209.712054
 20
-129.009609
 30
0.0
 11
1199.774926
 21
-143.428889
 31
0.0
  0
LINE
  5
34D
100
AcDbEntity
  8
0
  6
BYBLOCK
 62
     1
100
AcDbLine
 10
1183.318755
 20
-167.307633
 30
0.0
 11
1182.183847
 21
-168.954443
 31
0.0
  0
MTEXT
  5
34E
100
AcDbEntity
  8
0
  6
BYBLOCK
 62
     3
100
AcDbMText
 10
1204.816271
 20
-131.707999
 30
0.0
 40
3.0
 41
0.0
 71
     5
 72
     1
  1
\A1;\U+220525
 11
0.567454
 21
0.823405
 31
0.0
  0
LINE
  5
34F
100
AcDbEntity
  8
0
  6
BYBLOCK
 62
     1
100
AcDbLine
 10
1184.453663
 20
-165.660823
 30
0.0
 11
1198.640018
 21
-145.075699
 31
0.0
  0
INSERT
  5
350
100
AcDbEntity
  8
0
  6
BYBLOCK
 62
     1
100
AcDbBlockReference
  2
_OPEN30
 10
1184.453663
 20
-165.660823
 30
0.0
 41
2.0
 42
2.0
 43
2.0
 50
55.427112
  0
INSERT
  5
351
100
AcDbEntity
  8
0
  6
BYBLOCK
 62
     1
100
AcDbBlockReference
  2
_OPEN30
 10
1198.640018
 20
-145.075699
 30
0.0
 41
2.0
 42
2.0
 43
2.0
 50
235.427112
  0
POINT
  5
352
100
AcDbEntity
  8
DEFPOINTS
  6
BYBLOCK
 62
     0
100
AcDbPoint
 10
1198.640018
 20
-145.075699
 30
0.0
  0
POINT
  5
353
100
AcDbEntity
  8
DEFPOINTS
  6
BYBLOCK
 62
     0
100
AcDbPoint
 10
1184.453663
 20
-165.660823
 30
0.0
  0
ENDBLK
  5
354
100
AcDbEntity
  8
0
100
AcDbBlockEnd
  0
BLOCK
  5
355
100
AcDbEntity
  8
0
100
AcDbBlockBegin
  2
*D32
 70
     1
 10
0.0
 20
0.0
 30
0.0
  3
*D32
  1

  0
LINE
  5
356
100
AcDbEntity
  8
0
  6
BYBLOCK
 62
     1
100
AcDbLine
 10
1180.546841
 20
-162.305432
 30
0.0
 11
1180.546841
 21
-181.646847
 31
0.0
  0
LINE
  5
357
100
AcDbEntity
  8
0
  6
BYBLOCK
 62
     1
100
AcDbLine
 10
1202.546841
 20
-162.305432
 30
0.0
 11
1202.546841
 21
-181.646847
 31
0.0
  0
LINE
  5
358
100
AcDbEntity
  8
0
  6
BYBLOCK
 62
     1
100
AcDbLine
 10
1182.546841
 20
-179.646847
 30
0.0
 11
1200.546841
 21
-179.646847
 31
0.0
  0
INSERT
  5
359
100
AcDbEntity
  8
0
  6
BYBLOCK
 62
     1
100
AcDbBlockReference
  2
_OPEN30
 10
1180.546841
 20
-179.646847
 30
0.0
 41
2.0
 42
2.0
 43
2.0
 50
180.0
  0
INSERT
  5
35A
100
AcDbEntity
  8
0
  6
BYBLOCK
 62
     1
100
AcDbBlockReference
  2
_OPEN30
 10
1202.546841
 20
-179.646847
 30
0.0
 41
2.0
 42
2.0
 43
2.0
  0
MTEXT
  5
35B
100
AcDbEntity
  8
0
  6
BYBLOCK
 62
     3
100
AcDbMText
 10
1191.546841
 20
-177.146847
 30
0.0
 40
3.0
 41
0.0
 71
     5
 72
     1
  1
\A1;22
  0
POINT
  5
35C
100
AcDbEntity
  8
DEFPOINTS
  6
BYBLOCK
 62
     0
100
AcDbPoint
 10
1180.546841
 20
-161.305432
 30
0.0
  0
POINT
  5
35D
100
AcDbEntity
  8
DEFPOINTS
  6
BYBLOCK
 62
     0
100
AcDbPoint
 10
1202.546841
 20
-161.305432
 30
0.0
  0
POINT
  5
35E
100
AcDbEntity
  8
DEFPOINTS
  6
BYBLOCK
 62
     0
100
AcDbPoint
 10
1202.546841
 20
-179.646847
 30
0.0
  0
ENDBLK
  5
35F
100
AcDbEntity
  8
0
100
AcDbBlockEnd
  0
ENDSEC
  0
SECTION
  2
ENTITIES
  0
SPLINE
  5
17A
100
AcDbEntity
  8
外形
  6
CONTINUOUS
100
AcDbSpline
210
0.0
220
0.0
230
1.0
 70
     8
 71
     3
 72
    11
 73
     7
 74
     0
 42
0.0000001
 43
0.0000001
 40
0.0
 40
0.0
 40
0.0
 40
0.0
 40
20.13160499193494
 40
34.26066027242835
 40
42.36200991340917
 40
52.14138726272911
 40
52.14138726272911
 40
52.14138726272911
 40
52.14138726272911
 10
957.5242736421234
 20
-143.9447992348792
 30
0.0
 10
963.8690239804507
 20
-144.2999226589582
 30
0.0
 10
974.6667391125475
 20
-144.9042839601075
 30
0.0
 10
989.2186880482071
 20
-161.4832777660408
 30
0.0
 10
976.1953219108363
 20
-164.9679704203048
 30
0.0
 10
970.2155363174727
 20
-165.94780333475
 30
0.0
 10
960.9430231234593
 20
-167.6182612307514
 30
0.0
  0
LINE
  5
17B
100
AcDbEntity
  8
外形
  6
CONTINUOUS
100
AcDbLine
 10
976.893892
 20
-149.43109
 30
0.0
 11
1178.546841
 21
-149.43109
 31
0.0
  0
LINE
  5
17C
100
AcDbEntity
  8
外形
  6
CONTINUOUS
100
AcDbLine
 10
977.143892
 20
-167.868261
 30
0.0
 11
1178.546841
 21
-167.868261
 31
0.0
  0
LINE
  5
17D
100
AcDbEntity
  8
外形
  6
CONTINUOUS
100
AcDbLine
 10
977.143892
 20
-142.868261
 30
0.0
 11
1178.546841
 21
-142.868261
 31
0.0
  0
SPLINE
  5
17E
100
AcDbEntity
  8
外形
  6
CONTINUOUS
100
AcDbSpline
210
0.0
220
0.0
230
-1.0
 70
     8
 71
     3
 72
    10
 73
     6
 74
     4
 42
0.0000001
 43
0.0000001
 44
0.0000000001
 40
0.0
 40
0.0
 40
0.0
 40
0.0
 40
14.25438516917862
 40
28.52918031944184
 40
36.21749619133018
 40
36.21749619133018
 40
36.21749619133018
 40
36.21749619133018
 10
949.862612719925
 20
-210.5162978699036
 30
0.0
 10
954.4016702626258
 20
-209.1755696124942
 30
0.0
 10
963.4862845465194
 20
-206.4921933909993
 30
0.0
 10
974.5589918637694
 20
-200.6750347637075
 30
0.0
 10
981.9601201962623
 20
-201.141035908229
 30
0.0
 10
984.5509285918124
 20
-201.3041623429189
 30
0.0
 11
949.862612719925
 21
-210.5162978699036
 31
0.0
 11
963.3893046015259
 21
-206.0200657482789
 31
0.0
 11
976.862612719924
 21
-201.3041623429189
 31
0.0
 11
984.5509285918124
 21
-201.3041623429189
 31
0.0
  0
LINE
  5
17F
100
AcDbEntity
  8
外形
  6
CONTINUOUS
100
AcDbLine
 10
956.550929
 20
-223.304162
 30
0.0
 11
1250.546841
 21
-223.304162
 31
0.0
  0
SPLINE
  5
180
100
AcDbEntity
  8
外形
  6
CONTINUOUS
100
AcDbSpline
210
0.0
220
0.0
230
1.0
 70
     8
 71
     3
 72
     8
 73
     4
 74
     0
 42
0.0000001
 43
0.0000001
 40
0.0
 40
0.0
 40
0.0
 40
0.0
 40
4.296442058183304
 40
4.296442058183304
 40
4.296442058183304
 40
4.296442058183304
 10
984.5509285918128
 20
-201.3041623429188
 30
0.0
 10
972.7933822602581
 20
-208.2728790310696
 30
0.0
 10
972.0358359287079
 20
-209.7415957192204
 30
0.0
 10
961.0238628329472
 20
-212.1194345423395
 30
0.0
  0
DIMENSION
  5
182
100
AcDbEntity
  8
寸法
  6
CONTINUOUS
100
AcDbDimension
  2
*D19
 10
1251.546841
 20
-191.295228
 30
0.0
 11
1101.548885
 21
-188.795228
 31
0.0
 70
    32
  3
STANDARD
100
AcDbAlignedDimension
 13
951.550929
 23
-169.368261
 33
0.0
 14
1251.546841
 24
-166.368261
 34
0.0
100
AcDbRotatedDimension
1001
ACAD
1000
DSTYLE
1002
{
1070
    40
1040
1.0
1002
}
  0
DIMENSION
  5
183
100
AcDbEntity
  8
寸法
  6
CONTINUOUS
100
AcDbDimension
  2
*D20
 10
960.740358
 20
-213.108133
 30
0.0
 11
937.018904
 21
-202.220899
 31
0.0
 70
    34
  3
STANDARD
100
AcDb2LineAngularDimension
 13
932.049266
 23
-212.304162
 33
0.0
 14
1259.034834
 24
-212.304162
 34
0.0
 15
951.550929
 25
-212.304162
 35
0.0
 16
936.90015
 26
-211.877868
 36
0.0
1001
ACAD
1000
DSTYLE
1002
{
1070
    40
1040
1.0
1002
}
  0
LINE
  5
184
100
AcDbEntity
  8
外形
  6
CENTER
 62
     1
100
AcDbLine
 10
932.049266
 20
-212.304162
 30
0.0
 11
1259.034834
 21
-212.304162
 31
0.0
  0
LINE
  5
185
100
AcDbEntity
  8
外形
  6
CENTER
 62
     1
100
AcDbLine
 10
942.780802
 20
-155.368261
 30
0.0
 11
1259.034834
 21
-155.368261
 31
0.0
  0
LEADER
  5
187
100
AcDbEntity
  8
寸法
  6
CONTINUOUS
 62
     1
100
AcDbLeader
  3
STANDARD
 73
     0
 74
     0
 75
     1
 40
3.0
 41
26.0
 76
     3
 10
906.495356
 20
-143.167424
 30
0.0
 10
914.462681
 20
-129.926215
 30
0.0
 10
916.462681
 20
-129.926215
 30
0.0
 77
   256
340
1DF
213
-0.1129475379637483
223
0.5510341987360618
233
0.0
1001
ACAD
1000
DSTYLE
1002
{
1070
   284
1070
    13
1070
   146
1040
0.5
1070
   272
1070
     3
1070
    40
1040
1.0
1070
   287
1070
     0
1002
}
  0
LINE
  5
188
100
AcDbEntity
  8
外形
  6
CONTINUOUS
100
AcDbLine
 10
951.762613
 20
-215.514829
 30
0.0
 11
959.847426
 21
-216.222159
 31
0.0
  0
LINE
  5
189
100
AcDbEntity
  8
外形
  6
CONTINUOUS
100
AcDbLine
 10
949.205233
 20
-210.678285
 30
0.0
 11
958.377288
 21
-211.480736
 31
0.0
  0
LINE
  5
18A
100
AcDbEntity
  8
外形
  6
CONTINUOUS
100
AcDbLine
 10
951.550929
 20
-212.304162
 30
0.0
 11
960.740358
 21
-213.108133
 31
0.0
  0
LINE
  5
18B
100
AcDbEntity
  8
外形
  6
CONTINUOUS
100
AcDbLine
 10
952.790871
 20
-225.55199
 30
0.0
 11
951.790871
 21
-225.55199
 31
0.0
  0
LINE
  5
18C
100
AcDbEntity
  8
外形
  6
CONTINUOUS
100
AcDbLine
 10
949.893892
 20
-218.472371
 30
0.0
 11
949.893892
 21
-214.22788
 31
0.0
  0
LINE
  5
18D
100
AcDbEntity
  8
外形
  6
CONTINUOUS
100
AcDbLine
 10
951.790871
 20
-225.55199
 30
0.0
 11
951.790871
 21
-215.517302
 31
0.0
  0
LINE
  5
18E
100
AcDbEntity
  8
外形
  6
CONTINUOUS
100
AcDbLine
 10
949.893892
 20
-218.472371
 30
0.0
 11
951.790871
 21
-225.55199
 31
0.0
  0
LINE
  5
18F
100
AcDbEntity
  8
外形
  6
CONTINUOUS
100
AcDbLine
 10
949.205233
 20
-210.678285
 30
0.0
 11
949.417638
 21
-213.899894
 31
0.0
  0
LINE
  5
190
100
AcDbEntity
  8
外形
  6
CONTINUOUS
100
AcDbLine
 10
951.550929
 20
-212.293717
 30
0.0
 11
949.205233
 21
-210.678285
 31
0.0
  0
LINE
  5
191
100
AcDbEntity
  8
外形
  6
CONTINUOUS
100
AcDbLine
 10
951.550929
 20
-212.304162
 30
0.0
 11
951.762613
 21
-215.514829
 31
0.0
  0
LINE
  5
192
100
AcDbEntity
  8
外形
  6
CONTINUOUS
100
AcDbLine
 10
949.862613
 20
-210.516298
 30
0.0
 11
949.862613
 21
-210.735798
 31
0.0
  0
LINE
  5
193
100
AcDbEntity
  8
外形
  6
CONTINUOUS
100
AcDbLine
 10
951.762613
 20
-215.514829
 30
0.0
 11
949.417638
 21
-213.899894
 31
0.0
  0
LINE
  5
194
100
AcDbEntity
  8
外形
  6
CONTINUOUS
100
AcDbLine
 10
956.550929
 20
-215.933753
 30
0.0
 11
956.550929
 21
-224.544485
 31
0.0
  0
LINE
  5
195
100
AcDbEntity
  8
外形
  6
CONTINUOUS
100
AcDbLine
 10
952.790871
 20
-215.60479
 30
0.0
 11
952.790871
 21
-225.55199
 31
0.0
  0
LINE
  5
196
100
AcDbEntity
  8
外形
  6
CONTINUOUS
100
AcDbLine
 10
977.143892
 20
-223.304162
 30
0.0
 11
977.143892
 21
-205.793727
 31
0.0
  0
LINE
  5
197
100
AcDbEntity
  8
外形
  6
CONTINUOUS
100
AcDbLine
 10
976.893892
 20
-223.304162
 30
0.0
 11
976.893892
 21
-205.945284
 31
0.0
  0
LINE
  5
198
100
AcDbEntity
  8
外形
  6
CONTINUOUS
100
AcDbLine
 10
952.790871
 20
-225.55199
 30
0.0
 11
956.550929
 21
-224.544485
 31
0.0
  0
LINE
  5
199
100
AcDbEntity
  8
外形
  6
CONTINUOUS
100
AcDbLine
 10
960.740358
 20
-213.108133
 30
0.0
 11
958.377288
 21
-211.480736
 31
0.0
  0
LINE
  5
19A
100
AcDbEntity
  8
外形
  6
CONTINUOUS
100
AcDbLine
 10
961.023863
 20
-212.119435
 30
0.0
 11
959.847426
 21
-216.222159
 31
0.0
  0
DIMENSION
  5
19B
100
AcDbEntity
  8
寸法
  6
CONTINUOUS
100
AcDbDimension
  2
*D22
 10
951.471489
 20
-169.071789
 30
0.0
 11
922.769747
 21
-152.26399
 31
0.0
 70
   162
  3
STANDARD
100
AcDb2LineAngularDimension
 13
951.91052
 23
-169.368261
 33
0.0
 14
951.550929
 24
-169.368261
 34
0.0
 15
949.213293
 25
-160.644086
 35
0.0
 16
930.030379
 26
-143.721069
 36
0.0
1001
ACAD
1000
DSTYLE
1002
{
1070
    40
1040
1.0
1002
}
  0
CIRCLE
  5
19C
100
AcDbEntity
  8
外形
  6
CENTER
 62
     1
100
AcDbCircle
 10
899.629529
 20
-155.368261
 30
0.0
 40
14.0
  0
ARC
  5
19D
100
AcDbEntity
  8
外形
  6
CONTINUOUS
100
AcDbCircle
 10
899.629529
 20
-155.368261
 30
0.0
 40
6.15
100
AcDbArc
 50
90.0
 51
242.486195
  0
LINE
  5
19E
100
AcDbEntity
  8
外形
  6
CONTINUOUS
100
AcDbLine
 10
910.629529
 20
-161.305432
 30
0.0
 11
910.629529
 21
-149.977297
 31
0.0
  0
ARC
  5
19F
100
AcDbEntity
  8
外形
  6
CONTINUOUS
100
AcDbCircle
 10
899.393929
 20
-156.102229
 30
0.0
 40
12.986105
100
AcDbArc
 50
88.960455
 51
256.895098
  0
LINE
  5
1A0
100
AcDbEntity
  8
外形
  6
CONTINUOUS
100
AcDbLine
 10
899.629529
 20
-143.118261
 30
0.0
 11
899.629529
 21
-169.368261
 31
0.0
  0
LINE
  5
1A1
100
AcDbEntity
  8
外形
  6
CENTER
 62
     1
100
AcDbLine
 10
899.629529
 20
-139.642511
 30
0.0
 11
899.629529
 21
-171.994833
 31
0.0
  0
ARC
  5
1A4
100
AcDbEntity
  8
外形
  6
CONTINUOUS
100
AcDbCircle
 10
899.629529
 20
-155.368261
 30
0.0
 40
12.5
100
AcDbArc
 50
270.0
 51
331.642363
  0
LINE
  5
1A5
100
AcDbEntity
  8
外形
  6
CONTINUOUS
100
AcDbLine
 10
896.449529
 20
-160.888575
 30
0.0
 11
896.449529
 21
-168.750132
 31
0.0
  0
LINE
  5
1A6
100
AcDbEntity
  8
外形
  6
CONTINUOUS
100
AcDbLine
 10
899.629529
 20
-169.368261
 30
0.0
 11
896.449529
 21
-168.750132
 31
0.0
  0
LINE
  5
1A7
100
AcDbEntity
  8
外形
  6
CONTINUOUS
100
AcDbLine
 10
899.629529
 20
-160.270446
 30
0.0
 11
896.449529
 21
-160.888575
 31
0.0
  0
LINE
  5
1A8
100
AcDbEntity
  8
外形
  6
CONTINUOUS
100
AcDbLine
 10
899.629529
 20
-148.368261
 30
0.0
 11
888.962023
 21
-148.368261
 31
0.0
  0
LINE
  5
1A9
100
AcDbEntity
  8
外形
  6
CENTER
 62
     1
100
AcDbLine
 10
915.562355
 20
-155.368261
 30
0.0
 11
883.055019
 21
-155.368261
 31
0.0
  0
ARC
  5
1AA
100
AcDbEntity
  8
外形
  6
CONTINUOUS
100
AcDbCircle
 10
899.629529
 20
-155.368261
 30
0.0
 40
12.25
100
AcDbArc
 50
26.108906
 51
90.0
  0
LINE
  5
1AB
100
AcDbEntity
  8
外形
  6
CONTINUOUS
100
AcDbLine
 10
904.052991
 20
-143.944799
 30
0.0
 11
899.629529
 21
-148.368261
 31
0.0
  0
LINE
  5
1AD
100
AcDbEntity
  8
外形
  6
CONTINUOUS
100
AcDbLine
 10
949.862613
 20
-148.368261
 30
0.0
 11
949.862613
 21
-160.055991
 31
0.0
  0
DIMENSION
  5
1AF
100
AcDbEntity
  8
寸法
  6
CONTINUOUS
100
AcDbDimension
  2
*D26
 10
935.638419
 20
-169.368261
 30
0.0
 11
933.138419
 21
-162.368261
 31
0.0
 70
    32
  3
STANDARD
100
AcDbAlignedDimension
 13
949.862613
 23
-155.368261
 33
0.0
 14
951.550929
 24
-169.368261
 34
0.0
 50
90.0
100
AcDbRotatedDimension
1001
ACAD
1000
DSTYLE
1002
{
1070
    40
1040
1.0
1002
}
  0
CIRCLE
  5
1B1
100
AcDbEntity
  8
外形
  6
CONTINUOUS
100
AcDbCircle
 10
954.942613
 20
-163.625312
 30
0.0
 40
4.7625
  0
LINE
  5
1B2
100
AcDbEntity
  8
外形
  6
CONTINUOUS
100
AcDbLine
 10
949.496136
 20
-160.154188
 30
0.0
 11
957.923838
 21
-157.895992
 31
0.0
  0
LINE
  5
1B3
100
AcDbEntity
  8
外形
  6
CONTINUOUS
100
AcDbLine
 10
951.961387
 20
-169.354632
 30
0.0
 11
960.38909
 21
-167.096435
 31
0.0
  0
LINE
  5
1B4
100
AcDbEntity
  8
外形
  6
CENTER
 62
     1
100
AcDbLine
 10
948.273036
 20
-163.625312
 30
0.0
 11
961.534501
 21
-163.625312
 31
0.0
  0
LINE
  5
1B5
100
AcDbEntity
  8
外形
  6
CONTINUOUS
100
AcDbLine
 10
949.213293
 20
-160.644086
 30
0.0
 11
951.471489
 21
-169.071789
 31
0.0
  0
LINE
  5
1B7
100
AcDbEntity
  8
外形
  6
CONTINUOUS
 62
     1
100
AcDbLine
 10
951.471489
 20
-169.071789
 30
0.0
 11
951.550929
 21
-169.368261
 31
0.0
  0
LINE
  5
1B8
100
AcDbEntity
  8
外形
  6
CONTINUOUS
 62
     1
100
AcDbLine
 10
951.91052
 20
-169.368261
 30
0.0
 11
951.550929
 21
-169.368261
 31
0.0
  0
ARC
  5
1B9
100
AcDbEntity
  8
外形
  6
CONTINUOUS
100
AcDbCircle
 10
951.857859
 20
-168.968261
 30
0.0
 40
0.4
100
AcDbArc
 50
195.0
 51
285.0
  0
LINE
  5
1BA
100
AcDbEntity
  8
外形
  6
CONTINUOUS
 62
     1
100
AcDbLine
 10
951.857859
 20
-169.368261
 30
0.0
 11
951.550929
 21
-169.368261
 31
0.0
  0
ARC
  5
1BB
100
AcDbEntity
  8
外形
  6
CONTINUOUS
100
AcDbCircle
 10
949.599663
 20
-160.540558
 30
0.0
 40
0.4
100
AcDbArc
 50
105.0
 51
195.0
  0
LINE
  5
1BD
100
AcDbEntity
  8
外形
  6
CENTER
 62
     1
100
AcDbLine
 10
954.942613
 20
-170.718997
 30
0.0
 11
954.942613
 21
-157.063374
 31
0.0
  0
LINE
  5
1BE
100
AcDbEntity
  8
外形
  6
CONTINUOUS
100
AcDbLine
 10
976.893892
 20
-167.618261
 30
0.0
 11
960.943023
 21
-167.618261
 31
0.0
  0
ARC
  5
1BF
100
AcDbEntity
  8
外形
  6
CONTINUOUS
100
AcDbCircle
 10
960.285562
 20
-166.710065
 30
0.0
 40
0.4
100
AcDbArc
 50
285.0
 51
15.0
  0
ARC
  5
1C0
100
AcDbEntity
  8
外形
  6
CONTINUOUS
100
AcDbCircle
 10
957.449378
 20
-159.282889
 30
0.0
 40
1.75
100
AcDbArc
 50
329.072705
 51
150.945905
  0
ARC
  5
1C1
100
AcDbEntity
  8
外形
  6
CONTINUOUS
100
AcDbCircle
 10
958.027366
 20
-158.282362
 30
0.0
 40
0.4
100
AcDbArc
 50
15.0
 51
105.0
  0
CIRCLE
  5
1C2
100
AcDbEntity
  8
外形
  6
CONTINUOUS
100
AcDbCircle
 10
954.942613
 20
-163.625312
 30
0.0
 40
2.15001
  0
LINE
  5
1C3
100
AcDbEntity
  8
外形
  6
CONTINUOUS
100
AcDbLine
 10
955.788289
 20
-163.327306
 30
0.0
 11
956.298603
 21
-163.625312
 31
0.0
  0
LINE
  5
1C4
100
AcDbEntity
  8
外形
  6
CONTINUOUS
100
AcDbLine
 10
953.586622
 20
-163.625312
 30
0.0
 11
954.096936
 21
-163.327306
 31
0.0
  0
LINE
  5
1C5
100
AcDbEntity
  8
外形
  6
CONTINUOUS
100
AcDbLine
 10
956.298603
 20
-163.625312
 30
0.0
 11
955.788289
 21
-163.923317
 31
0.0
  0
LINE
  5
1C6
100
AcDbEntity
  8
外形
  6
CONTINUOUS
100
AcDbLine
 10
954.096936
 20
-163.923317
 30
0.0
 11
953.586622
 21
-163.625312
 31
0.0
  0
LINE
  5
1C7
100
AcDbEntity
  8
外形
  6
CONTINUOUS
100
AcDbLine
 10
954.777855
 20
-164.506692
 30
0.0
 11
954.264618
 21
-164.799634
 31
0.0
  0
LINE
  5
1C8
100
AcDbEntity
  8
外形
  6
CONTINUOUS
100
AcDbLine
 10
954.264618
 20
-164.799634
 30
0.0
 11
954.261694
 21
-164.208686
 31
0.0
  0
LINE
  5
1C9
100
AcDbEntity
  8
外形
  6
CONTINUOUS
100
AcDbLine
 10
955.623532
 20
-164.208686
 30
0.0
 11
955.620608
 21
-164.799634
 31
0.0
  0
LINE
  5
1CA
100
AcDbEntity
  8
外形
  6
CONTINUOUS
100
AcDbLine
 10
955.620608
 20
-164.799634
 30
0.0
 11
955.107371
 21
-164.506692
 31
0.0
  0
ARC
  5
1CB
100
AcDbEntity
  8
外形
  6
CONTINUOUS
100
AcDbCircle
 10
955.955895
 20
-164.210331
 30
0.0
 40
0.332368
100
AcDbArc
 50
120.283476
 51
179.716524
  0
ARC
  5
1CC
100
AcDbEntity
  8
外形
  6
CONTINUOUS
100
AcDbCircle
 10
954.942613
 20
-164.79535
 30
0.0
 40
0.332368
100
AcDbArc
 50
60.283476
 51
119.716524
  0
ARC
  5
1CD
100
AcDbEntity
  8
外形
  6
CONTINUOUS
100
AcDbCircle
 10
953.92933
 20
-164.210331
 30
0.0
 40
0.332368
100
AcDbArc
 50
0.283476
 51
59.716524
  0
LINE
  5
1CE
100
AcDbEntity
  8
外形
  6
CONTINUOUS
100
AcDbLine
 10
955.107371
 20
-162.743931
 30
0.0
 11
955.620608
 21
-162.45099
 31
0.0
  0
LINE
  5
1CF
100
AcDbEntity
  8
外形
  6
CONTINUOUS
100
AcDbLine
 10
955.620608
 20
-162.45099
 30
0.0
 11
955.623532
 21
-163.041937
 31
0.0
  0
LINE
  5
1D0
100
AcDbEntity
  8
外形
  6
CONTINUOUS
100
AcDbLine
 10
954.261694
 20
-163.041937
 30
0.0
 11
954.264618
 21
-162.45099
 31
0.0
  0
LINE
  5
1D1
100
AcDbEntity
  8
外形
  6
CONTINUOUS
100
AcDbLine
 10
954.264618
 20
-162.45099
 30
0.0
 11
954.777855
 21
-162.743931
 31
0.0
  0
ARC
  5
1D2
100
AcDbEntity
  8
外形
  6
CONTINUOUS
100
AcDbCircle
 10
955.955895
 20
-163.040293
 30
0.0
 40
0.332368
100
AcDbArc
 50
180.283476
 51
239.716524
  0
ARC
  5
1D3
100
AcDbEntity
  8
外形
  6
CONTINUOUS
100
AcDbCircle
 10
953.92933
 20
-163.040293
 30
0.0
 40
0.332368
100
AcDbArc
 50
300.283476
 51
359.716524
  0
ARC
  5
1D4
100
AcDbEntity
  8
外形
  6
CONTINUOUS
100
AcDbCircle
 10
954.942613
 20
-162.455274
 30
0.0
 40
0.332368
100
AcDbArc
 50
240.283476
 51
299.716524
  0
LINE
  5
1D5
100
AcDbEntity
  8
外形
  6
CONTINUOUS
100
AcDbLine
 10
958.413736
 20
-158.178835
 30
0.0
 11
960.943023
 21
-167.618261
 31
0.0
  0
LINE
  5
1D6
100
AcDbEntity
  8
外形
  6
CONTINUOUS
100
AcDbLine
 10
976.893892
 20
-167.618261
 30
0.0
 11
977.143892
 21
-167.868261
 31
0.0
  0
LINE
  5
1D7
100
AcDbEntity
  8
外形
  6
CONTINUOUS
100
AcDbLine
 10
976.893892
 20
-167.618261
 30
0.0
 11
976.893892
 21
-164.642921
 31
0.0
  0
LINE
  5
1D8
100
AcDbEntity
  8
外形
  6
CONTINUOUS
100
AcDbLine
 10
977.143892
 20
-167.868261
 30
0.0
 11
977.143892
 21
-164.586847
 31
0.0
  0
LINE
  5
1D9
100
AcDbEntity
  8
外形
  6
CONTINUOUS
100
AcDbLine
 10
949.862613
 20
-148.368261
 30
0.0
 11
958.955879
 21
-143.118261
 31
0.0
  0
LINE
  5
1DB
100
AcDbEntity
  8
外形
  6
CONTINUOUS
100
AcDbLine
 10
976.893892
 20
-149.43109
 30
0.0
 11
976.893892
 21
-143.118261
 31
0.0
  0
LINE
  5
1DC
100
AcDbEntity
  8
外形
  6
CONTINUOUS
100
AcDbLine
 10
977.143892
 20
-149.43109
 30
0.0
 11
977.143892
 21
-142.868261
 31
0.0
  0
LINE
  5
1DD
100
AcDbEntity
  8
外形
  6
CONTINUOUS
100
AcDbLine
 10
976.893892
 20
-143.118261
 30
0.0
 11
958.955879
 21
-143.118261
 31
0.0
  0
LINE
  5
1DE
100
AcDbEntity
  8
外形
  6
CONTINUOUS
100
AcDbLine
 10
976.893892
 20
-143.118261
 30
0.0
 11
977.143892
 21
-142.868261
 31
0.0
  0
MTEXT
  5
1DF
102
{ACAD_REACTORS
330
187
102
}
100
AcDbEntity
  8
寸法
  6
CONTINUOUS
 62
     3
100
AcDbMText
 10
917.575629
 20
-127.977249
 30
0.0
 40
3.0
 41
0.0
 71
     4
 72
     1
  1
%%c28最小加工径
  0
TEXT
  5
1E0
100
AcDbEntity
  8
外形
  6
CONTINUOUS
 62
     2
100
AcDbText
 10
1055.620395
 20
-251.342521
 30
0.0
 40
6.0
  1
BBPS-325R
100
AcDbText
  0
LINE
  5
1E1
100
AcDbEntity
  8
外形
  6
CONTINUOUS
100
AcDbLine
 10
1204.546841
 20
-167.868261
 30
0.0
 11
1250.046841
 21
-167.868261
 31
0.0
  0
LINE
  5
1E2
100
AcDbEntity
  8
外形
  6
CONTINUOUS
100
AcDbLine
 10
1204.546841
 20
-161.305432
 30
0.0
 11
1250.046841
 21
-161.305432
 31
0.0
  0
LINE
  5
1E3
100
AcDbEntity
  8
外形
  6
CONTINUOUS
100
AcDbLine
 10
1204.546841
 20
-149.43109
 30
0.0
 11
1250.046841
 21
-149.43109
 31
0.0
  0
LINE
  5
1E4
100
AcDbEntity
  8
外形
  6
CONTINUOUS
100
AcDbLine
 10
1204.546841
 20
-142.868261
 30
0.0
 11
1250.046841
 21
-142.868261
 31
0.0
  0
LINE
  5
1E5
100
AcDbEntity
  8
外形
  6
CONTINUOUS
100
AcDbLine
 10
984.550929
 20
-201.304162
 30
0.0
 11
1250.546841
 21
-201.304162
 31
0.0
  0
DIMENSION
  5
1E6
100
AcDbEntity
  8
寸法
  6
CONTINUOUS
100
AcDbDimension
  2
*D31
 10
1184.453663
 20
-165.660823
 30
0.0
 11
1206.874783
 21
-133.126634
 31
0.0
 70
   163
  3
STANDARD
100
AcDbDiametricDimension
 15
1198.640018
 25
-145.075699
 35
0.0
 40
0.0
1001
ACAD
1000
DSTYLE
1002
{
1070
    40
1040
1.0
1002
}
  0
LINE
  5
1E7
100
AcDbEntity
  8
外形
  6
CONTINUOUS
100
AcDbLine
 10
984.550929
 20
-161.305432
 30
0.0
 11
1178.546841
 21
-161.305432
 31
0.0
  0
DIMENSION
  5
1E8
100
AcDbEntity
  8
寸法
  6
CONTINUOUS
100
AcDbDimension
  2
*D32
 10
1202.546841
 20
-179.646847
 30
0.0
 11
1191.546841
 21
-177.146847
 31
0.0
 70
    32
  3
STANDARD
100
AcDbAlignedDimension
 13
1180.546841
 23
-161.305432
 33
0.0
 14
1202.546841
 24
-161.305432
 34
0.0
100
AcDbRotatedDimension
1001
ACAD
1000
DSTYLE
1002
{
1070
    40
1040
1.0
1002
}
  0
LINE
  5
1E9
100
AcDbEntity
  8
外形
  6
CONTINUOUS
100
AcDbLine
 10
1202.546841
 20
-149.43109
 30
0.0
 11
1202.546841
 21
-161.305432
 31
0.0
  0
LINE
  5
1EA
100
AcDbEntity
  8
外形
  6
CONTINUOUS
100
AcDbLine
 10
1180.546841
 20
-149.43109
 30
0.0
 11
1180.546841
 21
-161.305432
 31
0.0
  0
LINE
  5
1EB
100
AcDbEntity
  8
外形
  6
CENTER
 62
     1
100
AcDbLine
 10
1191.546841
 20
-139.738453
 30
0.0
 11
1191.546841
 21
-172.029626
 31
0.0
  0
ARC
  5
1EC
100
AcDbEntity
  8
外形
  6
CONTINUOUS
100
AcDbCircle
 10
1191.546841
 20
-155.368261
 30
0.0
 40
12.5
100
AcDbArc
 50
208.357637
 51
331.642363
  0
ARC
  5
1ED
100
AcDbEntity
  8
外形
  6
CONTINUOUS
100
AcDbCircle
 10
1191.546841
 20
-155.368261
 30
0.0
 40
12.5
100
AcDbArc
 50
28.357637
 51
151.642363
  0
LINE
  5
1EE
100
AcDbEntity
  8
外形
  6
CONTINUOUS
100
AcDbLine
 10
1250.546841
 20
-201.304162
 30
0.0
 11
1250.546841
 21
-223.304162
 31
0.0
  0
LINE
  5
1EF
100
AcDbEntity
  8
外形
  6
CONTINUOUS
100
AcDbLine
 10
1251.546841
 20
-222.304162
 30
0.0
 11
1251.546841
 21
-202.304162
 31
0.0
  0
LINE
  5
1F0
100
AcDbEntity
  8
外形
  6
CONTINUOUS
100
AcDbLine
 10
1250.546841
 20
-223.304162
 30
0.0
 11
1251.546841
 21
-222.304162
 31
0.0
  0
LINE
  5
1F1
100
AcDbEntity
  8
外形
  6
CONTINUOUS
100
AcDbLine
 10
1250.546841
 20
-201.304162
 30
0.0
 11
1251.546841
 21
-202.304162
 31
0.0
  0
ARC
  5
1F2
100
AcDbEntity
  8
外形
  6
CONTINUOUS
100
AcDbCircle
 10
1239.046841
 20
-155.368261
 30
0.0
 40
12.5
100
AcDbArc
 50
331.642363
 51
28.357637
  0
LINE
  5
1F3
100
AcDbEntity
  8
外形
  6
CONTINUOUS
100
AcDbLine
 10
1251.546841
 20
-166.368261
 30
0.0
 11
1251.546841
 21
-144.368261
 31
0.0
  0
LINE
  5
1F5
100
AcDbEntity
  8
外形
  6
CONTINUOUS
100
AcDbLine
 10
1250.046841
 20
-161.305432
 30
0.0
 11
1250.046841
 21
-167.868261
 31
0.0
  0
LINE
  5
1F6
100
AcDbEntity
  8
外形
  6
CONTINUOUS
100
AcDbLine
 10
1250.046841
 20
-167.868261
 30
0.0
 11
1251.546841
 21
-166.368261
 31
0.0
  0
LINE
  5
1F7
100
AcDbEntity
  8
外形
  6
CONTINUOUS
100
AcDbLine
 10
1250.046841
 20
-142.868261
 30
0.0
 11
1250.046841
 21
-149.43109
 31
0.0
  0
LINE
  5
1F8
100
AcDbEntity
  8
外形
  6
CONTINUOUS
100
AcDbLine
 10
1250.046841
 20
-142.868261
 30
0.0
 11
1251.546841
 21
-144.368261
 31
0.0
  0
ENDSEC
  0
SECTION
  2
OBJECTS
  0
DICTIONARY
  5
1E
100
AcDbDictionary
  3
ACAD_GROUP
350
1C
  3
ACAD_MLINESTYLE
350
1D
  0
DICTIONARY
  5
3D
100
AcDbDictionary
280
     1
  3
ACAD_XREC_ROUNDTRIP
360
3E
  0
DICTIONARY
  5
46
100
AcDbDictionary
280
     1
  3
ACAD_XREC_ROUNDTRIP
360
47
  0
DICTIONARY
  5
3
100
AcDbDictionary
280
     1
  3
ACAD_LAYOUTSELFREF
360
4
  0
DICTIONARY
  5
A
100
AcDbDictionary
280
     1
  3
ACAD_LAYOUTSELFREF
360
B
  0
DICTIONARY
  5
1C
102
{ACAD_REACTORS
330
1E
102
}
100
AcDbDictionary
  0
DICTIONARY
  5
1D
102
{ACAD_REACTORS
330
1E
102
}
100
AcDbDictionary
  3
STANDARD
350
20
  0
XRECORD
  5
3E
102
{ACAD_REACTORS
330
3D
102
}
100
AcDbXrecord
102
PLOTBIT
280
     0
  0
XRECORD
  5
47
102
{ACAD_REACTORS
330
46
102
}
100
AcDbXrecord
102
ACADR14ROUNDTRIP
1000
DSTYLE
1002
{
1070
   341
340
0
1070
   343
340
0
1070
   344
340
0
1002
}
  0
XRECORD
  5
4
102
{ACAD_REACTORS
330
3
102
}
100
AcDbXrecord
340
2
  0
XRECORD
  5
B
102
{ACAD_REACTORS
330
A
102
}
100
AcDbXrecord
340
9
  0
MLINESTYLE
  5
20
102
{ACAD_REACTORS
330
1D
102
}
100
AcDbMlineStyle
  2
STANDARD
 70
     0
  3

 62
     0
 51
90.0
 52
90.0
 71
     2
 49
0.5
 62
   256
  6
BYLAYER
 49
-0.5
 62
   256
  6
BYLAYER
  0
ENDSEC
  0
EOF
