  0
SECTION
  2
HEADER
  9
$ACADVER
  1
AC1014
  9
$ACADMAINTVER
 70
     0
  9
$DWGCODEPAGE
  3
ANSI_932
  9
$INSBASE
 10
-587.250952
 20
747.890188
 30
0.0
  9
$EXTMIN
 10
-16.957745
 20
150.213866
 30
0.0
  9
$EXTMAX
 10
287.457785
 20
278.538372
 30
0.0
  9
$LIMMIN
 10
-587.250952
 20
327.890188
  9
$LIMMAX
 10
600.749048
 20
957.890188
  9
$ORTHOMODE
 70
     0
  9
$REGENMODE
 70
     1
  9
$FILLMODE
 70
     1
  9
$QTEXTMODE
 70
     0
  9
$MIRRTEXT
 70
     1
  9
$DRAGMODE
 70
     2
  9
$LTSCALE
 40
5.0
  9
$OSMODE
 70
    37
  9
$ATTMODE
 70
     1
  9
$TEXTSIZE
 40
5.0
  9
$TRACEWID
 40
0.05
  9
$TEXTSTYLE
  7
STANDARD
  9
$CLAYER
  8
外形
  9
$CELTYPE
  6
CONTINUOUS
  9
$CECOLOR
 62
   256
  9
$CELTSCALE
 40
1.0
  9
$DELOBJ
 70
     1
  9
$DISPSILH
 70
     0
  9
$DIMSCALE
 40
1.0
  9
$DIMASZ
 40
1.0
  9
$DIMEXO
 40
1.0
  9
$DIMDLI
 40
8.0
  9
$DIMRND
 40
0.0
  9
$DIMDLE
 40
0.0
  9
$DIMEXE
 40
2.0
  9
$DIMTP
 40
0.0
  9
$DIMTM
 40
0.0
  9
$DIMTXT
 40
1.5
  9
$DIMCEN
 40
-1.0
  9
$DIMTSZ
 40
0.0
  9
$DIMTOL
 70
     0
  9
$DIMLIM
 70
     0
  9
$DIMTIH
 70
     0
  9
$DIMTOH
 70
     0
  9
$DIMSE1
 70
     0
  9
$DIMSE2
 70
     0
  9
$DIMTAD
 70
     1
  9
$DIMZIN
 70
     8
  9
$DIMBLK
  1

  9
$DIMASO
 70
     1
  9
$DIMSHO
 70
     1
  9
$DIMPOST
  1

  9
$DIMAPOST
  1

  9
$DIMALT
 70
     0
  9
$DIMALTD
 70
     2
  9
$DIMALTF
 40
25.4
  9
$DIMLFAC
 40
1.0
  9
$DIMTOFL
 70
     1
  9
$DIMTVP
 40
0.0
  9
$DIMTIX
 70
     0
  9
$DIMSOXD
 70
     0
  9
$DIMSAH
 70
     1
  9
$DIMBLK1
  1
_DOTSMALL
  9
$DIMBLK2
  1
_DOTSMALL
  9
$DIMSTYLE
  2
STANDARD
  9
$DIMCLRD
 70
     2
  9
$DIMCLRE
 70
     2
  9
$DIMCLRT
 70
     2
  9
$DIMTFAC
 40
1.0
  9
$DIMGAP
 40
1.0
  9
$DIMJUST
 70
     0
  9
$DIMSD1
 70
     0
  9
$DIMSD2
 70
     0
  9
$DIMTOLJ
 70
     1
  9
$DIMTZIN
 70
     8
  9
$DIMALTZ
 70
     0
  9
$DIMALTTZ
 70
     0
  9
$DIMFIT
 70
     3
  9
$DIMUPT
 70
     0
  9
$DIMUNIT
 70
     2
  9
$DIMDEC
 70
     3
  9
$DIMTDEC
 70
     2
  9
$DIMALTU
 70
     2
  9
$DIMALTTD
 70
     2
  9
$DIMTXSTY
  7
STANDARD
  9
$DIMAUNIT
 70
     0
  9
$LUNITS
 70
     2
  9
$LUPREC
 70
     0
  9
$SKETCHINC
 40
0.1
  9
$FILLETRAD
 40
0.0
  9
$AUNITS
 70
     0
  9
$AUPREC
 70
     0
  9
$MENU
  1
acad
  9
$ELEVATION
 40
0.0
  9
$PELEVATION
 40
0.0
  9
$THICKNESS
 40
0.0
  9
$LIMCHECK
 70
     0
  9
$BLIPMODE
 70
     0
  9
$CHAMFERA
 40
1.5
  9
$CHAMFERB
 40
1.5
  9
$CHAMFERC
 40
0.0
  9
$CHAMFERD
 40
0.0
  9
$SKPOLY
 70
     0
  9
$TDCREATE
 40
2450751.535399305
  9
$TDUPDATE
 40
2452009.703807870
  9
$TDINDWG
 40
2.2933038194
  9
$TDUSRTIMER
 40
2.2933038194
  9
$USRTIMER
 70
     1
  9
$ANGBASE
 50
0.0
  9
$ANGDIR
 70
     0
  9
$PDMODE
 70
    32
  9
$PDSIZE
 40
0.0
  9
$PLINEWID
 40
0.0
  9
$COORDS
 70
     2
  9
$SPLFRAME
 70
     0
  9
$SPLINETYPE
 70
     5
  9
$SPLINESEGS
 70
     8
  9
$ATTDIA
 70
     0
  9
$ATTREQ
 70
     1
  9
$HANDLING
 70
     1
  9
$HANDSEED
  5
392C
  9
$SURFTAB1
 70
     6
  9
$SURFTAB2
 70
     6
  9
$SURFTYPE
 70
     6
  9
$SURFU
 70
     6
  9
$SURFV
 70
     6
  9
$UCSNAME
  2

  9
$UCSORG
 10
40.53800450572526
 20
146.9196145921314
 30
0.0
  9
$UCSXDIR
 10
1.0
 20
0.0
 30
0.0
  9
$UCSYDIR
 10
0.0
 20
1.0
 30
0.0
  9
$PUCSNAME
  2

  9
$PUCSORG
 10
0.0
 20
0.0
 30
0.0
  9
$PUCSXDIR
 10
1.0
 20
0.0
 30
0.0
  9
$PUCSYDIR
 10
0.0
 20
1.0
 30
0.0
  9
$USERI1
 70
     0
  9
$USERI2
 70
     0
  9
$USERI3
 70
     0
  9
$USERI4
 70
     0
  9
$USERI5
 70
     0
  9
$USERR1
 40
0.0
  9
$USERR2
 40
0.0
  9
$USERR3
 40
0.0
  9
$USERR4
 40
0.0
  9
$USERR5
 40
0.0
  9
$WORLDVIEW
 70
     1
  9
$SHADEDGE
 70
     3
  9
$SHADEDIF
 70
    70
  9
$TILEMODE
 70
     1
  9
$MAXACTVP
 70
    16
  9
$PINSBASE
 10
0.0
 20
0.0
 30
0.0
  9
$PLIMCHECK
 70
     0
  9
$PEXTMIN
 10
1.000000E+20
 20
1.000000E+20
 30
1.000000E+20
  9
$PEXTMAX
 10
-1.000000E+20
 20
-1.000000E+20
 30
-1.000000E+20
  9
$PLIMMIN
 10
0.0
 20
0.0
  9
$PLIMMAX
 10
12.0
 20
9.0
  9
$UNITMODE
 70
     0
  9
$VISRETAIN
 70
     0
  9
$PLINEGEN
 70
     0
  9
$PSLTSCALE
 70
     1
  9
$TREEDEPTH
 70
  3020
  9
$PICKSTYLE
 70
     1
  9
$CMLSTYLE
  2
STANDARD
  9
$CMLJUST
 70
     0
  9
$CMLSCALE
 40
1.0
  9
$PROXYGRAPHICS
 70
     1
  9
$MEASUREMENT
 70
     0
  0
ENDSEC
  0
SECTION
  2
CLASSES
  0
CLASS
  1
LWPOLYLINE
  2
AcDbPolyline
  3
"AutoCAD"
 90
        0
280
     0
281
     1
  0
CLASS
  1
ACDBDICTIONARYWDFLT
  2
AcDbDictionaryWithDefault
  3
AutoCAD 2000
 90
        0
280
     1
281
     0
  0
CLASS
  1
ACDBPLACEHOLDER
  2
AcDbPlaceHolder
  3
AutoCAD 2000
 90
        0
280
     1
281
     0
  0
CLASS
  1
LAYOUT
  2
AcDbLayout
  3
AutoCAD 2000
 90
        0
280
     1
281
     0
  0
CLASS
  1
LONG_TRANSACTION
  2
AcDbLongTransaction
  3
AutoCAD 2000
 90
        0
280
     1
281
     0
  0
CLASS
  1
LWPOLYLINE
  2
AcDbPolyline
  3
"AutoCAD"
 90
        0
280
     0
281
     1
  0
CLASS
  1
HATCH
  2
AcDbHatch
  3
"ACAD_SEDONA"
 90
        0
280
     0
281
     1
  0
CLASS
  1
XRECORD
  2
AcDbXrecord
  3
"<Built In>"
 90
        0
280
     0
281
     0
  0
CLASS
  1
DICTIONARYVAR
  2
AcDbDictionaryVar
  3
"AutoCAD"
 90
        0
280
     0
281
     0
  0
ENDSEC
  0
SECTION
  2
TABLES
  0
TABLE
  2
VPORT
  5
16
100
AcDbSymbolTable
 70
     1
  0
VPORT
  5
3927
100
AcDbSymbolTableRecord
100
AcDbViewportTableRecord
  2
*ACTIVE
 70
     0
 10
0.0
 20
0.0
 11
1.0
 21
1.0
 12
128.396738
 22
230.071458
 13
0.0
 23
0.0
 14
1.0
 24
1.0
 15
10.0
 25
10.0
 16
0.0
 26
0.0
 36
1.0
 17
0.0
 27
0.0
 37
0.0
 40
199.839279
 41
1.710425
 42
50.0
 43
0.0
 44
0.0
 50
0.0
 51
0.0
 71
     0
 72
   100
 73
     1
 74
     1
 75
     0
 76
     0
 77
     0
 78
     2
  0
ENDTAB
  0
TABLE
  2
LTYPE
  5
11
100
AcDbSymbolTable
 70
     3
  0
LTYPE
  5
12
100
AcDbSymbolTableRecord
100
AcDbLinetypeTableRecord
  2
BYBLOCK
 70
     0
  3

 72
    65
 73
     0
 40
0.0
  0
LTYPE
  5
13
100
AcDbSymbolTableRecord
100
AcDbLinetypeTableRecord
  2
BYLAYER
 70
     0
  3

 72
    65
 73
     0
 40
0.0
  0
LTYPE
  5
7
100
AcDbSymbolTableRecord
100
AcDbLinetypeTableRecord
  2
CONTINUOUS
 70
     0
  3
Solid line
 72
    65
 73
     0
 40
0.0
  0
LTYPE
  5
AA
100
AcDbSymbolTableRecord
100
AcDbLinetypeTableRecord
  2
CENTER
 70
     0
  3
Center ____ _ ____ _ ____ _ ____ _ ____ _ ____
 72
    65
 73
     4
 40
2.0
 49
1.25
 74
     0
 49
-0.25
 74
     0
 49
0.25
 74
     0
 49
-0.25
 74
     0
  0
LTYPE
  5
1FC7
100
AcDbSymbolTableRecord
100
AcDbLinetypeTableRecord
  2
PHANTOM
 70
     0
  3
Phantom ______  __  __  ______  __  __  ______
 72
    65
 73
     6
 40
2.5
 49
1.25
 74
     0
 49
-0.25
 74
     0
 49
0.25
 74
     0
 49
-0.25
 74
     0
 49
0.25
 74
     0
 49
-0.25
 74
     0
  0
ENDTAB
  0
TABLE
  2
LAYER
  5
E
100
AcDbSymbolTable
 70
     5
  0
LAYER
  5
6
100
AcDbSymbolTableRecord
100
AcDbLayerTableRecord
  2
0
 70
     0
 62
     7
  6
CONTINUOUS
  0
LAYER
  5
2C
100
AcDbSymbolTableRecord
100
AcDbLayerTableRecord
  2
外形
 70
     0
 62
     3
  6
CONTINUOUS
  0
LAYER
  5
37
102
{ACAD_XDICTIONARY
360
38
102
}
100
AcDbSymbolTableRecord
100
AcDbLayerTableRecord
  2
DEFPOINTS
 70
     0
 62
     7
  6
CONTINUOUS
  0
LAYER
  5
1F
100
AcDbSymbolTableRecord
100
AcDbLayerTableRecord
  2
寸法
 70
     0
 62
     1
  6
CONTINUOUS
  0
LAYER
  5
673
100
AcDbSymbolTableRecord
100
AcDbLayerTableRecord
  2
参考
 70
     0
 62
     2
  6
CONTINUOUS
  0
ENDTAB
  0
TABLE
  2
STYLE
  5
F
100
AcDbSymbolTable
 70
     1
  0
STYLE
  5
10
100
AcDbSymbolTableRecord
100
AcDbTextStyleTableRecord
  2
STANDARD
 70
     0
 40
0.0
 41
1.0
 50
0.0
 71
     0
 42
5.0
  3
MONOTXT
  4
BIGFONT
  0
ENDTAB
  0
TABLE
  2
VIEW
  5
14
100
AcDbSymbolTable
 70
     1
  0
VIEW
  5
2FE5
100
AcDbSymbolTableRecord
100
AcDbViewTableRecord
  2
1
 70
     0
 40
161.885264
 10
134.258894
 20
211.661111
 41
295.727411
 11
0.0
 21
0.0
 31
1.0
 12
0.0
 22
0.0
 32
0.0
 42
50.0
 43
0.0
 44
0.0
 50
0.0
 71
     0
  0
ENDTAB
  0
TABLE
  2
UCS
  5
15
100
AcDbSymbolTable
 70
     0
  0
ENDTAB
  0
TABLE
  2
APPID
  5
18
100
AcDbSymbolTable
 70
     2
  0
APPID
  5
19
100
AcDbSymbolTableRecord
100
AcDbRegAppTableRecord
  2
ACAD
 70
     0
  0
APPID
  5
C59
100
AcDbSymbolTableRecord
100
AcDbRegAppTableRecord
  2
DRAWINGVARIABLESXDATA
 70
     0
  0
ENDTAB
  0
TABLE
  2
DIMSTYLE
  5
1A
100
AcDbSymbolTable
 70
     1
  0
DIMSTYLE
105
21
102
{ACAD_XDICTIONARY
360
22
102
}
102
{ACAD_REACTORS
330
340F
330
341E
330
3625
330
36BE
330
3812
330
381F
330
3840
330
385B
330
390B
102
}
100
AcDbSymbolTableRecord
100
AcDbDimStyleTableRecord
  2
STANDARD
 70
     0
  3

  4

  5

  6
_OPEN30
  7
_OPEN30
 40
0.0
 41
2.0
 42
1.0
 43
8.0
 44
2.0
 45
0.0
 46
0.0
 47
0.0
 48
0.0
140
3.0
141
-1.0
142
0.0
143
25.4
144
1.0
145
0.0
146
1.0
147
1.0
 71
     0
 72
     0
 73
     0
 74
     0
 75
     0
 76
     0
 77
     1
 78
     8
170
     0
171
     2
172
     1
173
     1
174
     0
175
     0
176
     1
177
     1
178
     3
270
     2
271
     2
272
     2
273
     2
274
     2
340
10
275
     0
280
     0
281
     0
282
     0
283
     1
284
     8
285
     0
286
     0
287
     3
288
     0
  0
ENDTAB
  0
TABLE
  2
BLOCK_RECORD
  5
1
100
AcDbSymbolTable
 70
    15
  0
BLOCK_RECORD
  5
2
102
{ACAD_XDICTIONARY
360
3
102
}
100
AcDbSymbolTableRecord
100
AcDbBlockTableRecord
  2
*MODEL_SPACE
  0
BLOCK_RECORD
  5
9
102
{ACAD_XDICTIONARY
360
A
102
}
100
AcDbSymbolTableRecord
100
AcDbBlockTableRecord
  2
*PAPER_SPACE
  0
BLOCK_RECORD
  5
24
100
AcDbSymbolTableRecord
100
AcDbBlockTableRecord
  2
_DOTSMALL
  0
BLOCK_RECORD
  5
470
100
AcDbSymbolTableRecord
100
AcDbBlockTableRecord
  2
_OPEN30
  0
BLOCK_RECORD
  5
33FF
100
AcDbSymbolTableRecord
100
AcDbBlockTableRecord
  2
*D6
  0
BLOCK_RECORD
  5
3410
100
AcDbSymbolTableRecord
100
AcDbBlockTableRecord
  2
*D7
  0
BLOCK_RECORD
  5
3619
100
AcDbSymbolTableRecord
100
AcDbBlockTableRecord
  2
*D8
  0
BLOCK_RECORD
  5
36B4
100
AcDbSymbolTableRecord
100
AcDbBlockTableRecord
  2
*D9
  0
BLOCK_RECORD
  5
3806
100
AcDbSymbolTableRecord
100
AcDbBlockTableRecord
  2
*D10
  0
BLOCK_RECORD
  5
3813
100
AcDbSymbolTableRecord
100
AcDbBlockTableRecord
  2
*D11
  0
BLOCK_RECORD
  5
3836
100
AcDbSymbolTableRecord
100
AcDbBlockTableRecord
  2
*D12
  0
BLOCK_RECORD
  5
384B
100
AcDbSymbolTableRecord
100
AcDbBlockTableRecord
  2
*D13
  0
BLOCK_RECORD
  5
38FF
100
AcDbSymbolTableRecord
100
AcDbBlockTableRecord
  2
*D14
  0
ENDTAB
  0
ENDSEC
  0
SECTION
  2
BLOCKS
  0
BLOCK
  5
5
100
AcDbEntity
  8
0
100
AcDbBlockBegin
  2
*MODEL_SPACE
 70
     0
 10
0.0
 20
0.0
 30
0.0
  3
*MODEL_SPACE
  1

  0
ENDBLK
  5
8
100
AcDbEntity
  8
0
100
AcDbBlockEnd
  0
BLOCK
  5
C
100
AcDbEntity
 67
     1
  8
0
100
AcDbBlockBegin
  2
*PAPER_SPACE
 70
     0
 10
0.0
 20
0.0
 30
0.0
  3
*PAPER_SPACE
  1

  0
ENDBLK
  5
D
100
AcDbEntity
 67
     1
  8
0
100
AcDbBlockEnd
  0
BLOCK
  5
29
100
AcDbEntity
  8
0
100
AcDbBlockBegin
  2
_DOTSMALL
 70
     0
 10
0.0
 20
0.0
 30
0.0
  3
_DOTSMALL
  1

  0
POLYLINE
  5
25
100
AcDbEntity
  8
0
  6
BYBLOCK
 62
     0
100
AcDb2dPolyline
 66
     1
 10
0.0
 20
0.0
 30
0.0
 70
     1
 40
0.5
 41
0.5
  0
VERTEX
  5
26
100
AcDbEntity
  8
0
  6
BYBLOCK
 62
     0
100
AcDbVertex
100
AcDb2dVertex
 10
-0.0625
 20
0.0
 30
0.0
 42
1.0
  0
VERTEX
  5
27
100
AcDbEntity
  8
0
  6
BYBLOCK
 62
     0
100
AcDbVertex
100
AcDb2dVertex
 10
0.0625
 20
0.0
 30
0.0
 42
1.0
  0
SEQEND
  5
28
100
AcDbEntity
  8
0
  6
BYBLOCK
 62
     0
  0
ENDBLK
  5
2A
100
AcDbEntity
  8
0
100
AcDbBlockEnd
  0
BLOCK
  5
471
100
AcDbEntity
  8
0
100
AcDbBlockBegin
  2
_OPEN30
 70
     0
 10
0.0
 20
0.0
 30
0.0
  3
_OPEN30
  1

  0
LINE
  5
472
100
AcDbEntity
  8
0
  6
BYBLOCK
 62
     0
100
AcDbLine
 10
-1.0
 20
0.267949
 30
0.0
 11
0.0
 21
0.0
 31
0.0
  0
LINE
  5
473
100
AcDbEntity
  8
0
  6
BYBLOCK
 62
     0
100
AcDbLine
 10
0.0
 20
0.0
 30
0.0
 11
-1.0
 21
-0.267949
 31
0.0
  0
LINE
  5
474
100
AcDbEntity
  8
0
  6
BYBLOCK
 62
     0
100
AcDbLine
 10
0.0
 20
0.0
 30
0.0
 11
-1.0
 21
0.0
 31
0.0
  0
ENDBLK
  5
475
100
AcDbEntity
  8
0
100
AcDbBlockEnd
  0
BLOCK
  5
3444
100
AcDbEntity
  8
0
100
AcDbBlockBegin
  2
*D6
 70
     1
 10
0.0
 20
0.0
 30
0.0
  3
*D6
  1

  0
LINE
  5
3445
100
AcDbEntity
  8
0
  6
BYBLOCK
 62
     1
100
AcDbLine
 10
17.37436
 20
239.940301
 30
0.0
 11
16.752709
 21
222.13856
 31
0.0
  0
LINE
  5
3446
100
AcDbEntity
  8
0
  6
BYBLOCK
 62
     1
100
AcDbLine
 10
17.409259
 20
237.532378
 30
0.0
 11
17.409259
 21
222.1271
 31
0.0
  0
ARC
  5
3447
100
AcDbEntity
  8
0
  6
BYBLOCK
 62
     1
100
AcDbCircle
 10
17.409259
 20
240.939692
 30
0.0
 40
16.812592
100
AcDbArc
 50
254.336008
 51
268.0
  0
LINE
  5
3448
100
AcDbEntity
  8
0
  6
BYBLOCK
 62
     1
100
AcDbLine
 10
12.869937
 20
224.751492
 30
0.0
 11
4.589327
 21
227.073453
 31
0.0
  0
ARC
  5
3449
100
AcDbEntity
  8
0
  6
BYBLOCK
 62
     1
100
AcDbCircle
 10
17.409259
 20
240.939692
 30
0.0
 40
16.812592
100
AcDbArc
 50
254.360315
 51
261.180157
  0
ARC
  5
344A
100
AcDbEntity
  8
0
  6
BYBLOCK
 62
     1
100
AcDbCircle
 10
17.409259
 20
240.939692
 30
0.0
 40
16.812592
100
AcDbArc
 50
276.819843
 51
283.639685
  0
ARC
  5
344B
100
AcDbEntity
  8
0
  6
BYBLOCK
 62
     1
100
AcDbCircle
 10
17.409259
 20
240.939692
 30
0.0
 40
16.812592
100
AcDbArc
 50
268.0
 51
270.0
  0
INSERT
  5
344C
100
AcDbEntity
  8
0
  6
BYBLOCK
 62
     1
100
AcDbBlockReference
  2
_OPEN30
 10
16.822508
 20
224.137342
 30
0.0
 41
2.0
 42
2.0
 43
2.0
 50
354.590079
  0
INSERT
  5
344D
100
AcDbEntity
  8
0
  6
BYBLOCK
 62
     1
100
AcDbBlockReference
  2
_OPEN30
 10
17.409259
 20
224.1271
 30
0.0
 41
2.0
 42
2.0
 43
2.0
 50
183.409921
  0
MTEXT
  5
344E
100
AcDbEntity
  8
0
  6
BYBLOCK
 62
     3
100
AcDbMText
 10
9.40462
 20
228.319626
 30
0.0
 40
3.0
 41
0.0
 71
     5
 72
     1
  1
\A1;2°
 11
0.962862
 21
-0.269995
 31
0.0
  0
POINT
  5
344F
100
AcDbEntity
  8
DEFPOINTS
  6
BYBLOCK
 62
     0
100
AcDbPoint
 10
17.21364
 20
224.128238
 30
0.0
  0
POINT
  5
3450
100
AcDbEntity
  8
DEFPOINTS
  6
BYBLOCK
 62
     0
100
AcDbPoint
 10
17.409259
 20
240.939692
 30
0.0
  0
POINT
  5
3451
100
AcDbEntity
  8
DEFPOINTS
  6
BYBLOCK
 62
     0
100
AcDbPoint
 10
17.409259
 20
263.347005
 30
0.0
  0
POINT
  5
3452
100
AcDbEntity
  8
DEFPOINTS
  6
BYBLOCK
 62
     0
100
AcDbPoint
 10
17.409259
 20
238.532378
 30
0.0
  0
POINT
  5
3453
100
AcDbEntity
  8
DEFPOINTS
  6
BYBLOCK
 62
     0
100
AcDbPoint
 10
18.028238
 20
258.664934
 30
0.0
  0
ENDBLK
  5
3454
100
AcDbEntity
  8
0
100
AcDbBlockEnd
  0
BLOCK
  5
3437
100
AcDbEntity
  8
0
100
AcDbBlockBegin
  2
*D7
 70
     1
 10
0.0
 20
0.0
 30
0.0
  3
*D7
  1

  0
LINE
  5
3438
100
AcDbEntity
  8
0
  6
BYBLOCK
 62
     1
100
AcDbLine
 10
51.446586
 20
255.938321
 30
0.0
 11
51.80143
 21
262.709159
 31
0.0
  0
LINE
  5
3439
100
AcDbEntity
  8
0
  6
BYBLOCK
 62
     1
100
AcDbLine
 10
49.660541
 20
240.939692
 30
0.0
 11
28.861198
 21
240.939692
 31
0.0
  0
ARC
  5
343A
100
AcDbEntity
  8
0
  6
BYBLOCK
 62
     1
100
AcDbCircle
 10
50.660541
 20
240.939692
 30
0.0
 40
19.799343
100
AcDbArc
 50
92.790108
 51
174.209892
  0
INSERT
  5
343B
100
AcDbEntity
  8
0
  6
BYBLOCK
 62
     1
100
AcDbBlockReference
  2
_OPEN30
 10
51.696758
 20
260.7119
 30
0.0
 41
2.0
 42
2.0
 43
2.0
 50
359.895054
  0
INSERT
  5
343C
100
AcDbEntity
  8
0
  6
BYBLOCK
 62
     1
100
AcDbBlockReference
  2
_OPEN30
 10
30.861198
 20
240.939692
 30
0.0
 41
2.0
 42
2.0
 43
2.0
 50
267.104946
  0
MTEXT
  5
343D
100
AcDbEntity
  8
0
  6
BYBLOCK
 62
     3
100
AcDbMText
 10
35.310686
 20
257.115064
 30
0.0
 40
3.0
 41
0.0
 71
     5
 72
     1
  1
\A1;93°
 11
0.725374
 21
0.688355
 31
0.0
  0
POINT
  5
343E
100
AcDbEntity
  8
DEFPOINTS
  6
BYBLOCK
 62
     0
100
AcDbPoint
 10
41.365312
 20
258.421474
 30
0.0
  0
POINT
  5
343F
100
AcDbEntity
  8
DEFPOINTS
  6
BYBLOCK
 62
     0
100
AcDbPoint
 10
51.082053
 20
240.939692
 30
0.0
  0
POINT
  5
3440
100
AcDbEntity
  8
DEFPOINTS
  6
BYBLOCK
 62
     0
100
AcDbPoint
 10
50.682601
 20
241.360626
 30
0.0
  0
POINT
  5
3441
100
AcDbEntity
  8
DEFPOINTS
  6
BYBLOCK
 62
     0
100
AcDbPoint
 10
51.39425
 20
254.939692
 30
0.0
  0
POINT
  5
3442
100
AcDbEntity
  8
DEFPOINTS
  6
BYBLOCK
 62
     0
100
AcDbPoint
 10
50.682053
 20
240.939692
 30
0.0
  0
ENDBLK
  5
3443
100
AcDbEntity
  8
0
100
AcDbBlockEnd
  0
BLOCK
  5
3626
100
AcDbEntity
  8
0
100
AcDbBlockBegin
  2
*D8
 70
     1
 10
0.0
 20
0.0
 30
0.0
  3
*D8
  1

  0
LINE
  5
3627
100
AcDbEntity
  8
0
  6
BYBLOCK
 62
     1
100
AcDbLine
 10
42.074715
 20
250.939692
 30
0.0
 11
38.656654
 21
250.939692
 31
0.0
  0
LINE
  5
3628
100
AcDbEntity
  8
0
  6
BYBLOCK
 62
     1
100
AcDbLine
 10
48.660541
 20
239.939692
 30
0.0
 11
38.656654
 21
239.939692
 31
0.0
  0
LINE
  5
3629
100
AcDbEntity
  8
0
  6
BYBLOCK
 62
     1
100
AcDbLine
 10
40.656654
 20
248.939692
 30
0.0
 11
40.656654
 21
241.939692
 31
0.0
  0
INSERT
  5
362A
100
AcDbEntity
  8
0
  6
BYBLOCK
 62
     1
100
AcDbBlockReference
  2
_OPEN30
 10
40.656654
 20
250.939692
 30
0.0
 41
2.0
 42
2.0
 43
2.0
 50
90.0
  0
INSERT
  5
362B
100
AcDbEntity
  8
0
  6
BYBLOCK
 62
     1
100
AcDbBlockReference
  2
_OPEN30
 10
40.656654
 20
239.939692
 30
0.0
 41
2.0
 42
2.0
 43
2.0
 50
270.0
  0
MTEXT
  5
362C
100
AcDbEntity
  8
0
  6
BYBLOCK
 62
     3
100
AcDbMText
 10
38.156654
 20
245.439692
 30
0.0
 40
3.0
 41
0.0
 71
     5
 72
     1
  1
\A1;11
 11
0.0
 21
1.0
 31
0.0
  0
POINT
  5
362D
100
AcDbEntity
  8
DEFPOINTS
  6
BYBLOCK
 62
     0
100
AcDbPoint
 10
43.074715
 20
250.939692
 30
0.0
  0
POINT
  5
362E
100
AcDbEntity
  8
DEFPOINTS
  6
BYBLOCK
 62
     0
100
AcDbPoint
 10
49.660541
 20
239.939692
 30
0.0
  0
POINT
  5
362F
100
AcDbEntity
  8
DEFPOINTS
  6
BYBLOCK
 62
     0
100
AcDbPoint
 10
40.656654
 20
239.939692
 30
0.0
  0
ENDBLK
  5
3630
100
AcDbEntity
  8
0
100
AcDbBlockEnd
  0
BLOCK
  5
36BF
100
AcDbEntity
  8
0
100
AcDbBlockBegin
  2
*D9
 70
     1
 10
0.0
 20
0.0
 30
0.0
  3
*D9
  1

  0
LINE
  5
36C0
100
AcDbEntity
  8
0
  6
BYBLOCK
 62
     1
100
AcDbLine
 10
9.761065
 20
240.42755
 30
0.0
 11
8.58442
 21
238.810297
 31
0.0
  0
LINE
  5
36C1
100
AcDbEntity
  8
0
  6
BYBLOCK
 62
     1
100
AcDbLine
 10
25.057453
 20
261.451834
 30
0.0
 11
32.117324
 21
271.15535
 31
0.0
  0
LINE
  5
36C2
100
AcDbEntity
  8
0
  6
BYBLOCK
 62
     1
100
AcDbLine
 10
10.937711
 20
242.044802
 30
0.0
 11
23.880808
 21
259.834581
 31
0.0
  0
INSERT
  5
36C3
100
AcDbEntity
  8
0
  6
BYBLOCK
 62
     1
100
AcDbBlockReference
  2
_OPEN30
 10
10.937711
 20
242.044802
 30
0.0
 41
2.0
 42
2.0
 43
2.0
 50
53.961935
  0
INSERT
  5
36C4
100
AcDbEntity
  8
0
  6
BYBLOCK
 62
     1
100
AcDbBlockReference
  2
_OPEN30
 10
23.880808
 20
259.834581
 30
0.0
 41
2.0
 42
2.0
 43
2.0
 50
233.961935
  0
MTEXT
  5
36C5
100
AcDbEntity
  8
0
  6
BYBLOCK
 62
     3
100
AcDbMText
 10
27.154145
 20
268.583025
 30
0.0
 40
3.0
 41
0.0
 71
     5
 72
     1
  1
\A1;\U+220522
 11
0.588323
 21
0.808626
 31
0.0
  0
POINT
  5
36C6
100
AcDbEntity
  8
DEFPOINTS
  6
BYBLOCK
 62
     0
100
AcDbPoint
 10
23.880808
 20
259.834581
 30
0.0
  0
POINT
  5
36C7
100
AcDbEntity
  8
DEFPOINTS
  6
BYBLOCK
 62
     0
100
AcDbPoint
 10
10.937711
 20
242.044802
 30
0.0
  0
ENDBLK
  5
36C8
100
AcDbEntity
  8
0
100
AcDbBlockEnd
  0
BLOCK
  5
382B
100
AcDbEntity
  8
0
100
AcDbBlockBegin
  2
*D10
 70
     1
 10
0.0
 20
0.0
 30
0.0
  3
*D10
  1

  0
LINE
  5
382C
100
AcDbEntity
  8
0
  6
BYBLOCK
 62
     1
100
AcDbLine
 10
173.787802
 20
245.580793
 30
0.0
 11
173.787802
 21
224.594763
 31
0.0
  0
LINE
  5
382D
100
AcDbEntity
  8
0
  6
BYBLOCK
 62
     1
100
AcDbLine
 10
191.787802
 20
245.580793
 30
0.0
 11
191.787802
 21
224.594763
 31
0.0
  0
LINE
  5
382E
100
AcDbEntity
  8
0
  6
BYBLOCK
 62
     1
100
AcDbLine
 10
175.787802
 20
226.594763
 30
0.0
 11
189.787802
 21
226.594763
 31
0.0
  0
INSERT
  5
382F
100
AcDbEntity
  8
0
  6
BYBLOCK
 62
     1
100
AcDbBlockReference
  2
_OPEN30
 10
173.787802
 20
226.594763
 30
0.0
 41
2.0
 42
2.0
 43
2.0
 50
180.0
  0
INSERT
  5
3830
100
AcDbEntity
  8
0
  6
BYBLOCK
 62
     1
100
AcDbBlockReference
  2
_OPEN30
 10
191.787802
 20
226.594763
 30
0.0
 41
2.0
 42
2.0
 43
2.0
  0
MTEXT
  5
3831
100
AcDbEntity
  8
0
  6
BYBLOCK
 62
     3
100
AcDbMText
 10
182.787802
 20
229.094763
 30
0.0
 40
3.0
 41
0.0
 71
     5
 72
     1
  1
\A1;18
  0
POINT
  5
3832
100
AcDbEntity
  8
DEFPOINTS
  6
BYBLOCK
 62
     0
100
AcDbPoint
 10
173.787802
 20
246.580793
 30
0.0
  0
POINT
  5
3833
100
AcDbEntity
  8
DEFPOINTS
  6
BYBLOCK
 62
     0
100
AcDbPoint
 10
191.787802
 20
246.580793
 30
0.0
  0
POINT
  5
3834
100
AcDbEntity
  8
DEFPOINTS
  6
BYBLOCK
 62
     0
100
AcDbPoint
 10
191.787802
 20
226.594763
 30
0.0
  0
ENDBLK
  5
3835
100
AcDbEntity
  8
0
100
AcDbBlockEnd
  0
BLOCK
  5
3820
100
AcDbEntity
  8
0
100
AcDbBlockBegin
  2
*D11
 70
     1
 10
0.0
 20
0.0
 30
0.0
  3
*D11
  1

  0
LINE
  5
3821
100
AcDbEntity
  8
0
  6
BYBLOCK
 62
     1
100
AcDbLine
 10
50.682053
 20
238.939692
 30
0.0
 11
50.682053
 21
210.224869
 31
0.0
  0
LINE
  5
3822
100
AcDbEntity
  8
0
  6
BYBLOCK
 62
     1
100
AcDbLine
 10
300.682053
 20
240.939692
 30
0.0
 11
300.682053
 21
210.224869
 31
0.0
  0
LINE
  5
3823
100
AcDbEntity
  8
0
  6
BYBLOCK
 62
     1
100
AcDbLine
 10
52.682053
 20
212.224869
 30
0.0
 11
298.682053
 21
212.224869
 31
0.0
  0
INSERT
  5
3824
100
AcDbEntity
  8
0
  6
BYBLOCK
 62
     1
100
AcDbBlockReference
  2
_OPEN30
 10
50.682053
 20
212.224869
 30
0.0
 41
2.0
 42
2.0
 43
2.0
 50
180.0
  0
INSERT
  5
3825
100
AcDbEntity
  8
0
  6
BYBLOCK
 62
     1
100
AcDbBlockReference
  2
_OPEN30
 10
300.682053
 20
212.224869
 30
0.0
 41
2.0
 42
2.0
 43
2.0
  0
MTEXT
  5
3826
100
AcDbEntity
  8
0
  6
BYBLOCK
 62
     3
100
AcDbMText
 10
175.682053
 20
214.724869
 30
0.0
 40
3.0
 41
0.0
 71
     5
 72
     1
  1
\A1;250
  0
POINT
  5
3827
100
AcDbEntity
  8
DEFPOINTS
  6
BYBLOCK
 62
     0
100
AcDbPoint
 10
50.682053
 20
239.939692
 30
0.0
  0
POINT
  5
3828
100
AcDbEntity
  8
DEFPOINTS
  6
BYBLOCK
 62
     0
100
AcDbPoint
 10
300.682053
 20
241.939692
 30
0.0
  0
POINT
  5
3829
100
AcDbEntity
  8
DEFPOINTS
  6
BYBLOCK
 62
     0
100
AcDbPoint
 10
300.682053
 20
212.224869
 30
0.0
  0
ENDBLK
  5
382A
100
AcDbEntity
  8
0
100
AcDbBlockEnd
  0
BLOCK
  5
3841
100
AcDbEntity
  8
0
100
AcDbBlockBegin
  2
*D12
 70
     1
 10
0.0
 20
0.0
 30
0.0
  3
*D12
  1

  0
LINE
  5
3842
100
AcDbEntity
  8
0
  6
BYBLOCK
 62
     1
100
AcDbLine
 10
177.484882
 20
240.174979
 30
0.0
 11
176.601062
 21
238.380861
 31
0.0
  0
LINE
  5
3843
100
AcDbEntity
  8
0
  6
BYBLOCK
 62
     1
100
AcDbLine
 10
188.090722
 20
261.704404
 30
0.0
 11
194.790852
 21
275.305397
 31
0.0
  0
LINE
  5
3844
100
AcDbEntity
  8
0
  6
BYBLOCK
 62
     1
100
AcDbLine
 10
178.368702
 20
241.969098
 30
0.0
 11
187.206902
 21
259.910286
 31
0.0
  0
INSERT
  5
3845
100
AcDbEntity
  8
0
  6
BYBLOCK
 62
     1
100
AcDbBlockReference
  2
_OPEN30
 10
178.368702
 20
241.969098
 30
0.0
 41
2.0
 42
2.0
 43
2.0
 50
63.774189
  0
INSERT
  5
3846
100
AcDbEntity
  8
0
  6
BYBLOCK
 62
     1
100
AcDbBlockReference
  2
_OPEN30
 10
187.206902
 20
259.910286
 30
0.0
 41
2.0
 42
2.0
 43
2.0
 50
243.774189
  0
MTEXT
  5
3847
100
AcDbEntity
  8
0
  6
BYBLOCK
 62
     3
100
AcDbMText
 10
190.338654
 20
271.924875
 30
0.0
 40
3.0
 41
0.0
 71
     5
 72
     1
  1
\A1;\U+220520
 11
0.44191
 21
0.897059
 31
0.0
  0
POINT
  5
3848
100
AcDbEntity
  8
DEFPOINTS
  6
BYBLOCK
 62
     0
100
AcDbPoint
 10
187.206902
 20
259.910286
 30
0.0
  0
POINT
  5
3849
100
AcDbEntity
  8
DEFPOINTS
  6
BYBLOCK
 62
     0
100
AcDbPoint
 10
178.368702
 20
241.969098
 30
0.0
  0
ENDBLK
  5
384A
100
AcDbEntity
  8
0
100
AcDbBlockEnd
  0
BLOCK
  5
3869
100
AcDbEntity
  8
0
100
AcDbBlockBegin
  2
*D13
 70
     1
 10
0.0
 20
0.0
 30
0.0
  3
*D13
  1

  0
LINE
  5
386A
100
AcDbEntity
  8
0
  6
BYBLOCK
 62
     1
100
AcDbLine
 10
49.685858
 20
184.935229
 30
0.0
 11
36.619312
 21
186.078404
 31
0.0
  0
LINE
  5
386B
100
AcDbEntity
  8
0
  6
BYBLOCK
 62
     1
100
AcDbLine
 10
45.059876
 20
184.848073
 30
0.0
 11
36.565594
 21
184.848073
 31
0.0
  0
ARC
  5
386C
100
AcDbEntity
  8
0
  6
BYBLOCK
 62
     1
100
AcDbCircle
 10
50.682053
 20
184.848073
 30
0.0
 40
12.116459
100
AcDbArc
 50
155.99801
 51
175.0
  0
LINE
  5
386D
100
AcDbEntity
  8
0
  6
BYBLOCK
 62
     1
100
AcDbLine
 10
39.613288
 20
189.776665
 30
0.0
 11
43.111496
 21
197.633035
 31
0.0
  0
ARC
  5
386E
100
AcDbEntity
  8
0
  6
BYBLOCK
 62
     1
100
AcDbCircle
 10
50.682053
 20
184.848073
 30
0.0
 40
12.116459
100
AcDbArc
 50
156.063435
 51
165.531718
  0
ARC
  5
386F
100
AcDbEntity
  8
0
  6
BYBLOCK
 62
     1
100
AcDbCircle
 10
50.682053
 20
184.848073
 30
0.0
 40
12.116459
100
AcDbArc
 50
189.468282
 51
198.936565
  0
ARC
  5
3870
100
AcDbEntity
  8
0
  6
BYBLOCK
 62
     1
100
AcDbCircle
 10
50.682053
 20
184.848073
 30
0.0
 40
12.116459
100
AcDbArc
 50
175.0
 51
180.0
  0
INSERT
  5
3871
100
AcDbEntity
  8
0
  6
BYBLOCK
 62
     1
100
AcDbBlockReference
  2
_OPEN30
 10
38.611701
 20
185.904092
 30
0.0
 41
2.0
 42
2.0
 43
2.0
 50
260.265859
  0
INSERT
  5
3872
100
AcDbEntity
  8
0
  6
BYBLOCK
 62
     1
100
AcDbBlockReference
  2
_OPEN30
 10
38.565594
 20
184.848073
 30
0.0
 41
2.0
 42
2.0
 43
2.0
 50
94.734141
  0
MTEXT
  5
3873
100
AcDbEntity
  8
0
  6
BYBLOCK
 62
     3
100
AcDbMText
 10
39.078564
 20
194.721771
 30
0.0
 40
3.0
 41
0.0
 71
     5
 72
     1
  1
\A1;5°
 11
0.406768
 21
0.913531
 31
0.0
  0
POINT
  5
3874
100
AcDbEntity
  8
DEFPOINTS
  6
BYBLOCK
 62
     0
100
AcDbPoint
 10
38.57072
 20
185.200477
 30
0.0
  0
POINT
  5
3875
100
AcDbEntity
  8
DEFPOINTS
  6
BYBLOCK
 62
     0
100
AcDbPoint
 10
50.682053
 20
184.848073
 30
0.0
  0
POINT
  5
3876
100
AcDbEntity
  8
DEFPOINTS
  6
BYBLOCK
 62
     0
100
AcDbPoint
 10
46.059876
 20
184.848073
 30
0.0
  0
POINT
  5
3877
100
AcDbEntity
  8
DEFPOINTS
  6
BYBLOCK
 62
     0
100
AcDbPoint
 10
309.004857
 20
184.848073
 30
0.0
  0
POINT
  5
3878
100
AcDbEntity
  8
DEFPOINTS
  6
BYBLOCK
 62
     0
100
AcDbPoint
 10
53.9048
 20
184.566119
 30
0.0
  0
ENDBLK
  5
3879
100
AcDbEntity
  8
0
100
AcDbBlockEnd
  0
BLOCK
  5
390C
100
AcDbEntity
  8
0
100
AcDbBlockBegin
  2
*D14
 70
     1
 10
0.0
 20
0.0
 30
0.0
  3
*D14
  1

  0
LINE
  5
390D
100
AcDbEntity
  8
0
  6
BYBLOCK
 62
     1
100
AcDbLine
 10
29.134981
 20
186.431423
 30
0.0
 11
29.134981
 21
160.923666
 31
0.0
  0
LINE
  5
390E
100
AcDbEntity
  8
0
  6
BYBLOCK
 62
     1
100
AcDbLine
 10
47.134981
 20
176.681423
 30
0.0
 11
47.134981
 21
160.923666
 31
0.0
  0
LINE
  5
390F
100
AcDbEntity
  8
0
  6
BYBLOCK
 62
     1
100
AcDbLine
 10
31.134981
 20
162.923666
 30
0.0
 11
45.134981
 21
162.923666
 31
0.0
  0
INSERT
  5
3910
100
AcDbEntity
  8
0
  6
BYBLOCK
 62
     1
100
AcDbBlockReference
  2
_OPEN30
 10
29.134981
 20
162.923666
 30
0.0
 41
2.0
 42
2.0
 43
2.0
 50
180.0
  0
INSERT
  5
3911
100
AcDbEntity
  8
0
  6
BYBLOCK
 62
     1
100
AcDbBlockReference
  2
_OPEN30
 10
47.134981
 20
162.923666
 30
0.0
 41
2.0
 42
2.0
 43
2.0
  0
MTEXT
  5
3912
100
AcDbEntity
  8
0
  6
BYBLOCK
 62
     3
100
AcDbMText
 10
38.134981
 20
165.423666
 30
0.0
 40
3.0
 41
0.0
 71
     5
 72
     1
  1
\A1;18
  0
POINT
  5
3913
100
AcDbEntity
  8
DEFPOINTS
  6
BYBLOCK
 62
     0
100
AcDbPoint
 10
29.134981
 20
187.431423
 30
0.0
  0
POINT
  5
3914
100
AcDbEntity
  8
DEFPOINTS
  6
BYBLOCK
 62
     0
100
AcDbPoint
 10
47.134981
 20
177.681423
 30
0.0
  0
POINT
  5
3915
100
AcDbEntity
  8
DEFPOINTS
  6
BYBLOCK
 62
     0
100
AcDbPoint
 10
47.134981
 20
162.923666
 30
0.0
  0
ENDBLK
  5
3916
100
AcDbEntity
  8
0
100
AcDbBlockEnd
  0
ENDSEC
  0
SECTION
  2
ENTITIES
  0
TEXT
  5
1453
100
AcDbEntity
  8
外形
  6
CONTINUOUS
 62
     2
100
AcDbText
 10
117.019241
 20
150.213866
 30
0.0
 40
6.0
  1
BBPT220R
100
AcDbText
  0
LINE
  5
2208
100
AcDbEntity
  8
外形
  6
CONTINUOUS
100
AcDbLine
 10
-4.137813
 20
243.523041
 30
0.0
 11
-3.683843
 21
256.523041
 31
0.0
  0
LINE
  5
220B
100
AcDbEntity
  8
外形
  6
CONTINUOUS
100
AcDbLine
 10
-4.137813
 20
242.523041
 30
0.0
 11
-7.294303
 21
243.251775
 31
0.0
  0
LINE
  5
220C
100
AcDbEntity
  8
外形
  6
CONTINUOUS
100
AcDbLine
 10
-7.294303
 20
243.251775
 30
0.0
 11
-6.976541
 21
252.351286
 31
0.0
  0
LINE
  5
220E
100
AcDbEntity
  8
外形
  6
CONTINUOUS
100
AcDbLine
 10
-6.976541
 20
252.351286
 30
0.0
 11
-3.776906
 21
252.858058
 31
0.0
  0
LINE
  5
317E
100
AcDbEntity
  8
外形
  6
CENTER
 62
     1
100
AcDbLine
 10
21.527643
 20
253.523041
 30
0.0
 11
285.89744
 21
253.523041
 31
0.0
  0
LINE
  5
3196
100
AcDbEntity
  8
外形
  6
CONTINUOUS
100
AcDbLine
 10
31.82494
 20
247.319438
 30
0.0
 11
31.382749
 21
247.577663
 31
0.0
  0
LINE
  5
3197
100
AcDbEntity
  8
外形
  6
CONTINUOUS
100
AcDbLine
 10
31.382749
 20
247.577663
 30
0.0
 11
31.82494
 21
247.835888
 31
0.0
  0
CIRCLE
  5
3198
100
AcDbEntity
  8
外形
  6
CONTINUOUS
100
AcDbCircle
 10
32.557728
 20
247.577663
 30
0.0
 40
1.944
  0
LINE
  5
3199
100
AcDbEntity
  8
外形
  6
CONTINUOUS
100
AcDbLine
 10
29.674888
 20
253.235554
 30
0.0
 11
38.317977
 21
247.622667
 31
0.0
  0
LINE
  5
319A
100
AcDbEntity
  8
外形
  6
CONTINUOUS
100
AcDbLine
 10
29.716577
 20
242.566639
 30
0.0
 11
38.281718
 21
246.930796
 31
0.0
  0
LINE
  5
319C
100
AcDbEntity
  8
外形
  6
CENTER
 62
     1
100
AcDbLine
 10
28.208222
 20
247.563814
 30
0.0
 11
36.499466
 21
247.563814
 31
0.0
  0
ARC
  5
319F
100
AcDbEntity
  8
外形
  6
CONTINUOUS
100
AcDbCircle
 10
30.03808
 20
252.522749
 30
0.0
 40
0.4
100
AcDbArc
 50
57.0
 51
177.0
  0
ARC
  5
31A0
100
AcDbEntity
  8
外形
  6
CONTINUOUS
100
AcDbCircle
 10
29.534981
 20
242.923041
 30
0.0
 40
0.4
100
AcDbArc
 50
177.0
 51
297.0
  0
LINE
  5
31A1
100
AcDbEntity
  8
外形
  6
CONTINUOUS
100
AcDbLine
 10
33.290515
 20
247.835888
 30
0.0
 11
33.732706
 21
247.577663
 31
0.0
  0
LINE
  5
31A2
100
AcDbEntity
  8
外形
  6
CONTINUOUS
100
AcDbLine
 10
33.732706
 20
247.577663
 30
0.0
 11
33.290515
 21
247.319438
 31
0.0
  0
LINE
  5
31A3
100
AcDbEntity
  8
外形
  6
CONTINUOUS
100
AcDbLine
 10
32.700492
 20
248.341388
 30
0.0
 11
33.145217
 21
248.595224
 31
0.0
  0
LINE
  5
31A4
100
AcDbEntity
  8
外形
  6
CONTINUOUS
100
AcDbLine
 10
33.145217
 20
248.595224
 30
0.0
 11
33.14775
 21
248.083163
 31
0.0
  0
LINE
  5
31A5
100
AcDbEntity
  8
外形
  6
CONTINUOUS
100
AcDbLine
 10
31.967705
 20
248.083163
 30
0.0
 11
31.970238
 21
248.595224
 31
0.0
  0
LINE
  5
31A6
100
AcDbEntity
  8
外形
  6
CONTINUOUS
100
AcDbLine
 10
31.970238
 20
248.595224
 30
0.0
 11
32.414963
 21
248.341388
 31
0.0
  0
LINE
  5
31A7
100
AcDbEntity
  8
外形
  6
CONTINUOUS
100
AcDbLine
 10
32.414963
 20
246.813938
 30
0.0
 11
31.970238
 21
246.560102
 31
0.0
  0
LINE
  5
31A8
100
AcDbEntity
  8
外形
  6
CONTINUOUS
100
AcDbLine
 10
31.970238
 20
246.560102
 30
0.0
 11
31.967705
 21
247.072163
 31
0.0
  0
LINE
  5
31A9
100
AcDbEntity
  8
外形
  6
CONTINUOUS
100
AcDbLine
 10
33.14775
 20
247.072163
 30
0.0
 11
33.145217
 21
246.560102
 31
0.0
  0
LINE
  5
31AA
100
AcDbEntity
  8
外形
  6
CONTINUOUS
100
AcDbLine
 10
33.145217
 20
246.560102
 30
0.0
 11
32.700492
 21
246.813938
 31
0.0
  0
ARC
  5
31AB
100
AcDbEntity
  8
外形
  6
CONTINUOUS
100
AcDbCircle
 10
33.435747
 20
248.084588
 30
0.0
 40
0.288
100
AcDbArc
 50
180.283476
 51
239.716524
  0
ARC
  5
31AC
100
AcDbEntity
  8
外形
  6
CONTINUOUS
100
AcDbCircle
 10
33.435747
 20
247.070738
 30
0.0
 40
0.288
100
AcDbArc
 50
120.283476
 51
179.716524
  0
ARC
  5
31AD
100
AcDbEntity
  8
外形
  6
CONTINUOUS
100
AcDbCircle
 10
32.557728
 20
246.563814
 30
0.0
 40
0.288
100
AcDbArc
 50
60.283476
 51
119.716524
  0
ARC
  5
31AE
100
AcDbEntity
  8
外形
  6
CONTINUOUS
100
AcDbCircle
 10
31.679708
 20
247.070738
 30
0.0
 40
0.288
100
AcDbArc
 50
0.283476
 51
59.716524
  0
ARC
  5
31AF
100
AcDbEntity
  8
外形
  6
CONTINUOUS
100
AcDbCircle
 10
31.679708
 20
248.084588
 30
0.0
 40
0.288
100
AcDbArc
 50
300.283476
 51
359.716524
  0
ARC
  5
31B0
100
AcDbEntity
  8
外形
  6
CONTINUOUS
100
AcDbCircle
 10
32.557728
 20
248.591512
 30
0.0
 40
0.288
100
AcDbArc
 50
240.283476
 51
299.716524
  0
LINE
  5
31B1
100
AcDbEntity
  8
外形
  6
CONTINUOUS
100
AcDbLine
 10
37.693032
 20
246.207024
 30
0.0
 11
36.938811
 21
246.246551
 31
0.0
  0
LINE
  5
31B2
100
AcDbEntity
  8
外形
  6
CONTINUOUS
100
AcDbLine
 10
37.850039
 20
249.202912
 30
0.0
 11
35.712077
 21
249.314958
 31
0.0
  0
ARC
  5
31B3
100
AcDbEntity
  8
外形
  6
CONTINUOUS
100
AcDbCircle
 10
37.771536
 20
247.704968
 30
0.0
 40
1.5
100
AcDbArc
 50
267.0
 51
87.0
  0
ARC
  5
31B5
100
AcDbEntity
  8
外形
  6
CONTINUOUS
100
AcDbCircle
 10
38.100121
 20
247.287199
 30
0.0
 40
0.4
100
AcDbArc
 50
297.0
 51
57.0
  0
LINE
  5
31B6
100
AcDbEntity
  8
外形
  6
CONTINUOUS
100
AcDbLine
 10
29.135529
 20
242.943976
 30
0.0
 11
29.847178
 21
256.523041
 31
0.0
  0
LINE
  5
31DD
100
AcDbEntity
  8
外形
  6
CENTER
 62
     1
100
AcDbLine
 10
32.557728
 20
241.312458
 30
0.0
 11
32.557728
 21
253.842868
 31
0.0
  0
LINE
  5
31FA
100
AcDbEntity
  8
外形
  6
CENTER
 62
     1
100
AcDbLine
 10
-16.622673
 20
253.523041
 30
0.0
 11
7.261407
 21
253.523041
 31
0.0
  0
LINE
  5
31FB
100
AcDbEntity
  8
外形
  6
CENTER
 62
     1
100
AcDbLine
 10
-4.137813
 20
265.930355
 30
0.0
 11
-4.137813
 21
241.115728
 31
0.0
  0
LINE
  5
31FE
100
AcDbEntity
  8
外形
  6
CENTER
 62
     1
100
AcDbLine
 10
-6.696823
 20
253.023041
 30
0.0
 11
-1.65635
 21
253.023041
 31
0.0
  0
LINE
  5
32C1
100
AcDbEntity
  8
外形
  6
CENTER
 62
     1
100
AcDbLine
 10
24.512804
 20
187.431423
 30
0.0
 11
287.457785
 21
187.431423
 31
0.0
  0
DIMENSION
  5
340F
100
AcDbEntity
  8
寸法
  6
CONTINUOUS
100
AcDbDimension
  2
*D6
 10
-3.518834
 20
261.248283
 30
0.0
 11
-12.142452
 21
230.902976
 31
0.0
 12
-21.547072
 22
2.58335
 32
0.0
 70
    34
  3
STANDARD
100
AcDb2LineAngularDimension
 13
-4.137813
 23
265.930355
 33
0.0
 14
-4.137813
 24
241.115728
 34
0.0
 15
-4.137813
 25
243.523041
 35
0.0
 16
-4.333432
 26
226.711587
 36
0.0
1001
ACAD
1000
DSTYLE
1002
{
1070
   284
1070
    13
1070
   146
1040
0.5
1070
   272
1070
     3
1070
    40
1040
1.0
1070
   287
1070
     0
1002
}
  0
DIMENSION
  5
341E
100
AcDbEntity
  8
寸法
  6
CONTINUOUS
100
AcDbDimension
  2
*D7
 10
29.134981
 20
242.523041
 30
0.0
 11
13.763614
 21
258.698413
 31
0.0
 12
-21.547072
 22
1.58335
 32
0.0
 70
    34
  3
STANDARD
100
AcDb2LineAngularDimension
 13
29.135529
 23
242.943976
 33
0.0
 14
29.847178
 24
256.523041
 34
0.0
 15
29.534981
 25
242.523041
 35
0.0
 16
19.81824
 26
260.004823
 36
0.0
1001
ACAD
1000
DSTYLE
1002
{
1070
   284
1070
    13
1070
   146
1040
0.5
1070
   272
1070
     3
1070
    40
1040
1.0
1070
   287
1070
     0
1002
}
  0
MTEXT
  5
346B
100
AcDbEntity
  8
寸法
  6
BYBLOCK
 62
     3
100
AcDbMText
 10
11.464006
 20
270.097086
 30
0.0
 40
3.0
 41
0.0
 71
     5
 72
     1
  1
最小加工径
 11
0.624357
 21
0.781139
 31
0.0
  0
DIMENSION
  5
3625
100
AcDbEntity
  8
寸法
  6
CONTINUOUS
100
AcDbDimension
  2
*D8
 10
19.109582
 20
242.523041
 30
0.0
 11
16.609582
 21
248.023041
 31
0.0
 12
-21.547072
 22
2.58335
 32
0.0
 70
    32
  3
STANDARD
100
AcDbAlignedDimension
 13
21.527643
 23
253.523041
 33
0.0
 14
28.113469
 24
242.523041
 34
0.0
 50
90.0
100
AcDbRotatedDimension
1001
ACAD
1000
DSTYLE
1002
{
1070
   284
1070
    13
1070
   146
1040
0.5
1070
   272
1070
     3
1070
    40
1040
1.0
1070
   287
1070
     0
1002
}
  0
LINE
  5
3632
100
AcDbEntity
  8
外形
  6
CONTINUOUS
100
AcDbLine
 10
40.134981
 20
243.273041
 30
0.0
 11
31.10297
 21
243.273041
 31
0.0
  0
LINE
  5
3634
100
AcDbEntity
  8
外形
  6
CONTINUOUS
100
AcDbLine
 10
57.384981
 20
243.523041
 30
0.0
 11
59.134981
 21
243.523041
 31
0.0
  0
LINE
  5
3635
100
AcDbEntity
  8
外形
  6
CONTINUOUS
100
AcDbLine
 10
57.384981
 20
263.523041
 30
0.0
 11
59.134981
 21
263.523041
 31
0.0
  0
LINE
  5
3642
100
AcDbEntity
  8
外形
  6
CONTINUOUS
100
AcDbLine
 10
29.847178
 20
256.523041
 30
0.0
 11
41.538521
 21
263.273041
 31
0.0
  0
LINE
  5
3643
100
AcDbEntity
  8
外形
  6
CONTINUOUS
100
AcDbLine
 10
279.134981
 20
244.523041
 30
0.0
 11
279.134981
 21
262.523041
 31
0.0
  0
LINE
  5
3644
100
AcDbEntity
  8
外形
  6
CONTINUOUS
100
AcDbLine
 10
59.134981
 20
263.523041
 30
0.0
 11
148.70903
 21
263.523041
 31
0.0
  0
LINE
  5
3645
100
AcDbEntity
  8
外形
  6
CONTINUOUS
100
AcDbLine
 10
59.134981
 20
243.523041
 30
0.0
 11
148.70903
 21
243.523041
 31
0.0
  0
LINE
  5
3646
100
AcDbEntity
  8
外形
  6
CONTINUOUS
100
AcDbLine
 10
278.134981
 20
243.523041
 30
0.0
 11
278.134981
 21
249.164142
 31
0.0
  0
LINE
  5
3649
100
AcDbEntity
  8
外形
  6
CONTINUOUS
100
AcDbLine
 10
278.134981
 20
243.523041
 30
0.0
 11
279.134981
 21
244.523041
 31
0.0
  0
LINE
  5
364A
100
AcDbEntity
  8
外形
  6
CONTINUOUS
100
AcDbLine
 10
278.134981
 20
263.523041
 30
0.0
 11
279.134981
 21
262.523041
 31
0.0
  0
LINE
  5
364B
100
AcDbEntity
  8
外形
  6
CONTINUOUS
100
AcDbLine
 10
161.24073
 20
238.909368
 30
0.0
 11
161.24073
 21
268.214159
 31
0.0
  0
ARC
  5
364C
100
AcDbEntity
  8
外形
  6
CONTINUOUS
100
AcDbCircle
 10
161.24073
 20
253.523041
 30
0.0
 40
10.0
100
AcDbArc
 50
205.841933
 51
334.158067
  0
LINE
  5
364D
100
AcDbEntity
  8
外形
  6
CONTINUOUS
100
AcDbLine
 10
170.24073
 20
249.164142
 30
0.0
 11
170.24073
 21
257.88194
 31
0.0
  0
LINE
  5
364E
100
AcDbEntity
  8
外形
  6
CONTINUOUS
100
AcDbLine
 10
152.24073
 20
257.88194
 30
0.0
 11
152.24073
 21
249.164142
 31
0.0
  0
ARC
  5
364F
100
AcDbEntity
  8
外形
  6
CONTINUOUS
100
AcDbCircle
 10
161.24073
 20
253.523041
 30
0.0
 40
10.0
100
AcDbArc
 50
25.841933
 51
154.158067
  0
LINE
  5
3654
100
AcDbEntity
  8
外形
  6
CONTINUOUS
100
AcDbLine
 10
148.70903
 20
257.88194
 30
0.0
 11
57.384981
 21
257.88194
 31
0.0
  0
LINE
  5
3655
100
AcDbEntity
  8
外形
  6
CONTINUOUS
100
AcDbLine
 10
148.70903
 20
249.164142
 30
0.0
 11
58.81865
 21
249.164142
 31
0.0
  0
LINE
  5
3656
100
AcDbEntity
  8
外形
  6
CONTINUOUS
100
AcDbLine
 10
173.947221
 20
257.88194
 30
0.0
 11
278.134981
 21
257.88194
 31
0.0
  0
LINE
  5
3657
100
AcDbEntity
  8
外形
  6
CONTINUOUS
100
AcDbLine
 10
173.947221
 20
249.164142
 30
0.0
 11
278.134981
 21
249.164142
 31
0.0
  0
LINE
  5
3658
100
AcDbEntity
  8
外形
  6
CONTINUOUS
100
AcDbLine
 10
173.947221
 20
263.523041
 30
0.0
 11
278.134981
 21
263.523041
 31
0.0
  0
LINE
  5
3659
100
AcDbEntity
  8
外形
  6
CONTINUOUS
100
AcDbLine
 10
173.947221
 20
243.523041
 30
0.0
 11
278.134981
 21
243.523041
 31
0.0
  0
ELLIPSE
  5
365A
100
AcDbEntity
  8
外形
  6
CONTINUOUS
100
AcDbEllipse
 10
278.134981
 20
253.523041
 30
0.0
 11
0.0
 21
4.358898943542044
 31
0.0
210
0.0
220
0.0
230
1.0
 40
0.229416
 41
3.141592653589793
 42
6.283185307179586
  0
LINE
  5
365B
100
AcDbEntity
  8
外形
  6
CONTINUOUS
100
AcDbLine
 10
278.134981
 20
257.88194
 30
0.0
 11
278.134981
 21
263.523041
 31
0.0
  0
ARC
  5
36AE
100
AcDbEntity
  8
外形
  6
CONTINUOUS
100
AcDbCircle
 10
-4.137813
 20
253.523041
 30
0.0
 40
10.25
100
AcDbArc
 50
181.397597
 51
252.169598
  0
ARC
  5
36AF
100
AcDbEntity
  8
外形
  6
CONTINUOUS
100
AcDbCircle
 10
-4.137813
 20
253.523041
 30
0.0
 40
9.75
100
AcDbArc
 50
270.051304
 51
337.380135
  0
ARC
  5
36B1
100
AcDbEntity
  8
外形
  6
CONTINUOUS
100
AcDbCircle
 10
-4.137813
 20
253.023041
 30
0.0
 40
10.25
100
AcDbArc
 50
90.0
 51
178.602403
  0
CIRCLE
  5
36B3
100
AcDbEntity
  8
外形
  6
PHANTOM
 62
     1
100
AcDbCircle
 10
-4.137813
 20
253.523041
 30
0.0
 40
11.0
  0
DIMENSION
  5
36BE
100
AcDbEntity
  8
寸法
  6
CONTINUOUS
100
AcDbDimension
  2
*D9
 10
-10.609361
 20
244.628152
 30
0.0
 11
7.628639
 21
269.695568
 31
0.0
 12
-21.547072
 22
2.58335
 32
0.0
 70
   163
  3
STANDARD
100
AcDbDiametricDimension
 15
2.333736
 25
262.417931
 35
0.0
 40
0.0
1001
ACAD
1000
DSTYLE
1002
{
1070
   284
1070
    13
1070
   146
1040
0.5
1070
   272
1070
     3
1070
    40
1040
1.0
1070
   287
1070
     0
1002
}
  0
LINE
  5
3716
100
AcDbEntity
  8
外形
  6
CONTINUOUS
100
AcDbLine
 10
55.22426
 20
196.431423
 30
0.0
 11
279.134981
 21
196.431423
 31
0.0
  0
LINE
  5
3717
100
AcDbEntity
  8
外形
  6
CONTINUOUS
100
AcDbLine
 10
47.134981
 20
178.431423
 30
0.0
 11
279.134981
 21
178.431423
 31
0.0
  0
LINE
  5
3719
100
AcDbEntity
  8
外形
  6
CONTINUOUS
100
AcDbLine
 10
278.134981
 20
178.431423
 30
0.0
 11
278.134981
 21
196.431423
 31
0.0
  0
LINE
  5
371A
100
AcDbEntity
  8
外形
  6
CONTINUOUS
100
AcDbLine
 10
279.134981
 20
178.431423
 30
0.0
 11
279.134981
 21
196.431423
 31
0.0
  0
LINE
  5
3748
100
AcDbEntity
  8
外形
  6
CONTINUOUS
100
AcDbLine
 10
29.134981
 20
187.431423
 30
0.0
 11
29.674888
 21
187.780423
 31
0.0
  0
LINE
  5
3749
100
AcDbEntity
  8
外形
  6
CONTINUOUS
100
AcDbLine
 10
29.134981
 20
187.431423
 30
0.0
 11
32.357728
 21
187.149469
 31
0.0
  0
LINE
  5
374C
100
AcDbEntity
  8
外形
  6
CONTINUOUS
100
AcDbLine
 10
29.134981
 20
187.431423
 30
0.0
 11
31.127379
 21
177.181423
 31
0.0
  0
LINE
  5
374D
100
AcDbEntity
  8
外形
  6
CONTINUOUS
100
AcDbLine
 10
29.74854
 20
184.274932
 30
0.0
 11
32.357728
 21
184.046658
 31
0.0
  0
LINE
  5
374F
100
AcDbEntity
  8
外形
  6
CONTINUOUS
100
AcDbLine
 10
32.357728
 20
184.046658
 30
0.0
 11
32.357728
 21
187.440153
 31
0.0
  0
LINE
  5
375F
100
AcDbEntity
  8
外形
  6
CONTINUOUS
100
AcDbLine
 10
4.862187
 20
257.273041
 30
0.0
 11
4.862187
 21
249.773041
 31
0.0
  0
ARC
  5
3760
100
AcDbEntity
  8
外形
  6
CONTINUOUS
100
AcDbCircle
 10
-4.137813
 20
253.523041
 30
0.0
 40
9.75
100
AcDbArc
 50
22.619865
 51
90.0
  0
SPLINE
  5
377A
100
AcDbEntity
  8
外形
  6
CONTINUOUS
100
AcDbSpline
210
0.0
220
0.0
230
1.0
 70
     8
 71
     3
 72
    11
 73
     7
 74
     0
 42
0.0000001
 43
0.0000001
 40
0.5263035459036193
 40
0.5263035459036193
 40
0.5263035459036193
 40
0.5263035459036193
 40
3.344842179327084
 40
5.918330408767881
 40
8.518368474584136
 40
8.58970654340818
 40
8.58970654340818
 40
8.58970654340818
 40
8.58970654340818
 10
58.81865004962801
 20
249.1641424730119
 30
0.0
 10
58.2510229056108
 20
248.3935594059651
 30
0.0
 10
57.11994038343473
 20
246.9744417781945
 30
0.0
 10
54.62928564061553
 20
245.8631101504898
 30
0.0
 10
52.98318458055374
 20
245.296276728984
 30
0.0
 10
52.12761718375268
 20
245.0560066331527
 30
0.0
 10
52.10475759491017
 20
245.0496245383682
 30
0.0
  0
SPLINE
  5
377B
100
AcDbEntity
  8
外形
  6
CONTINUOUS
100
AcDbSpline
210
0.0
220
0.0
230
-1.0
 70
     8
 71
     3
 72
    12
 73
     8
 74
     0
 42
0.0000001
 43
0.0000001
 40
4.20838093044088
 40
4.20838093044088
 40
4.20838093044088
 40
4.20838093044088
 40
5.070028002338761
 40
8.826631708629882
 40
12.3084003341599
 40
15.61129048342995
 40
16.12913714326546
 40
16.12913714326546
 40
16.12913714326546
 40
16.12913714326546
 10
51.42637721879879
 20
259.088294938565
 30
0.0
 10
51.16352246676854
 20
259.2037437443136
 30
0.0
 10
49.7486588343769
 20
259.8086333323117
 30
0.0
 10
47.19897129993802
 20
260.7122238421936
 30
0.0
 10
43.80723628862206
 20
261.6371884731819
 30
0.0
 10
41.42291135127766
 20
262.1346314273324
 30
0.0
 10
40.16837859442981
 20
262.3546531172295
 30
0.0
 10
39.99822196004586
 20
262.3837495186298
 30
0.0
  0
SPLINE
  5
3796
100
AcDbEntity
  8
外形
  6
CONTINUOUS
100
AcDbSpline
210
0.0
220
0.0
230
1.0
 70
     8
 71
     3
 72
    14
 73
    10
 74
     8
 42
0.0000001
 43
0.0000001
 44
0.0000000001
 40
0.0
 40
0.0
 40
0.0
 40
0.0
 40
2.70504856473809
 40
5.304725512163711
 40
8.056360951222044
 40
10.91649428307654
 40
13.86391078477342
 40
16.88723429513885
 40
24.82160039081767
 40
24.82160039081767
 40
24.82160039081767
 40
24.82160039081767
 10
59.04570133467131
 20
196.4314227469898
 30
0.0
 10
58.3583232901863
 20
195.8418095362791
 30
0.0
 10
57.01034311097132
 20
194.6855507237987
 30
0.0
 10
54.58281288737756
 20
193.501243169235
 30
0.0
 10
52.14841527803852
 20
192.2598685852149
 30
0.0
 10
49.56473708660746
 20
191.0424262834589
 30
0.0
 10
46.87401544111678
 20
189.8619480901771
 30
0.0
 10
42.67963066750435
 20
187.8137736942769
 30
0.0
 10
38.97228571872076
 20
187.5970678560285
 30
0.0
 10
36.28783004200684
 20
187.4401530758558
 30
0.0
 11
59.04570133467131
 21
196.4314227469898
 31
0.0
 11
56.91844736941821
 21
194.7604714296539
 31
0.0
 11
54.63473167542047
 21
193.5183108683879
 31
0.0
 11
52.1733001436825
 21
192.2883302164881
 31
0.0
 11
49.58709172739641
 21
191.0669012568199
 31
0.0
 11
46.90158356025103
 21
189.8522778918748
 31
0.0
 11
44.13040995621933
 21
188.6435256820955
 31
0.0
 11
36.28783004200684
 21
187.4401530758558
 31
0.0
  0
SPLINE
  5
379F
100
AcDbEntity
  8
外形
  6
CONTINUOUS
100
AcDbSpline
210
0.0
220
0.0
230
1.0
 70
     8
 71
     3
 72
    13
 73
     9
 74
     7
 42
0.0000001
 43
0.0000001
 44
0.0000000001
 40
0.0
 40
0.0
 40
0.0
 40
0.0
 40
4.884730242930511
 40
8.597896925852534
 40
12.20769517894638
 40
15.66361428170026
 40
19.02435987007677
 40
25.25122959863368
 40
25.25122959863368
 40
25.25122959863368
 40
25.25122959863368
 10
55.22426046346317
 20
196.4314227469898
 30
0.0
 10
53.6958165256479
 20
195.870004011714
 30
0.0
 10
51.00551372882534
 20
194.8818183437071
 30
0.0
 10
47.16496432952293
 20
193.5372731915691
 30
0.0
 10
43.78844038898504
 20
192.3067157583959
 30
0.0
 10
40.52772177980519
 20
191.1117666407996
 30
0.0
 10
36.52567898577212
 20
189.3640804391288
 30
0.0
 10
33.33716402215259
 20
188.9272403014101
 30
0.0
 10
31.26631880676866
 20
188.6435256820955
 30
0.0
 11
55.22426046346317
 21
196.4314227469898
 31
0.0
 11
50.63421566615526
 21
194.7604714296539
 31
0.0
 11
47.13498089906724
 21
193.5183108683879
 31
0.0
 11
43.74119377787187
 21
192.2883302164881
 31
0.0
 11
40.50831763714779
 21
191.0669012568199
 31
0.0
 11
37.37474124728243
 21
189.8522778918748
 31
0.0
 11
31.26631880676866
 21
188.6435256820955
 31
0.0
  0
LINE
  5
37A0
100
AcDbEntity
  8
外形
  6
CONTINUOUS
100
AcDbLine
 10
29.674888
 20
187.780423
 30
0.0
 11
31.266319
 21
188.643526
 31
0.0
  0
LINE
  5
37A1
100
AcDbEntity
  8
外形
  6
CONTINUOUS
100
AcDbLine
 10
36.28783
 20
187.440153
 30
0.0
 11
32.357728
 21
187.440153
 31
0.0
  0
LINE
  5
37A3
100
AcDbEntity
  8
外形
  6
CONTINUOUS
100
AcDbLine
 10
58.81865
 20
249.164142
 30
0.0
 11
54.332616
 21
257.273041
 31
0.0
  0
ARC
  5
37BE
100
AcDbEntity
  8
外形
  6
CONTINUOUS
100
AcDbCircle
 10
48.134981
 20
230.584464
 30
0.0
 40
15.0
100
AcDbArc
 50
61.55064
 51
122.230953
  0
DIMENSION
  5
3812
100
AcDbEntity
  8
寸法
  6
CONTINUOUS
100
AcDbDimension
  2
*D10
 10
170.24073
 20
229.178112
 30
0.0
 11
161.24073
 21
231.678112
 31
0.0
 12
-21.547072
 22
2.58335
 32
0.0
 70
    32
  3
STANDARD
100
AcDbAlignedDimension
 13
152.24073
 23
249.164142
 33
0.0
 14
170.24073
 24
249.164142
 34
0.0
100
AcDbRotatedDimension
1001
ACAD
1000
DSTYLE
1002
{
1070
   284
1070
    13
1070
   146
1040
0.5
1070
   272
1070
     3
1070
    40
1040
1.0
1070
   287
1070
     0
1002
}
  0
DIMENSION
  5
381F
100
AcDbEntity
  8
寸法
  6
CONTINUOUS
100
AcDbDimension
  2
*D11
 10
279.134981
 20
214.808219
 30
0.0
 11
154.134981
 21
217.308219
 31
0.0
 12
-21.547072
 22
2.58335
 32
0.0
 70
    32
  3
STANDARD
100
AcDbAlignedDimension
 13
29.134981
 23
242.523041
 33
0.0
 14
279.134981
 24
244.523041
 34
0.0
100
AcDbRotatedDimension
1001
ACAD
1000
DSTYLE
1002
{
1070
   284
1070
    13
1070
   146
1040
0.5
1070
   272
1070
     3
1070
    40
1040
1.0
1070
   287
1070
     0
1002
}
  0
DIMENSION
  5
3840
100
AcDbEntity
  8
寸法
  6
CONTINUOUS
100
AcDbDimension
  2
*D12
 10
156.82163
 20
244.552448
 30
0.0
 11
171.03423
 21
273.40345
 31
0.0
 12
-21.547072
 22
2.58335
 32
0.0
 70
   163
  3
STANDARD
100
AcDbDiametricDimension
 15
165.65983
 25
262.493635
 35
0.0
 40
0.0
1001
ACAD
1000
DSTYLE
1002
{
1070
   284
1070
    13
1070
   146
1040
0.5
1070
   272
1070
     3
1070
    40
1040
1.0
1070
   287
1070
     0
1002
}
  0
DIMENSION
  5
385B
100
AcDbEntity
  8
寸法
  6
CONTINUOUS
100
AcDbDimension
  2
*D13
 10
32.357728
 20
187.149469
 30
0.0
 11
17.531492
 21
197.305121
 31
0.0
 12
-21.547072
 22
2.58335
 32
0.0
 70
    34
  3
STANDARD
100
AcDb2LineAngularDimension
 13
24.512804
 23
187.431423
 33
0.0
 14
287.457785
 24
187.431423
 34
0.0
 15
29.134981
 25
187.431423
 35
0.0
 16
17.023648
 26
187.783827
 36
0.0
1001
ACAD
1000
DSTYLE
1002
{
1070
   284
1070
    13
1070
   146
1040
0.5
1070
   272
1070
     3
1070
    40
1040
1.0
1070
   287
1070
     0
1002
}
  0
LINE
  5
388A
100
AcDbEntity
  8
外形
  6
CONTINUOUS
100
AcDbLine
 10
-3.683843
 20
256.523041
 30
0.0
 11
-13.638253
 21
256.870657
 31
0.0
  0
LINE
  5
388C
100
AcDbEntity
  8
外形
  6
CONTINUOUS
100
AcDbLine
 10
-3.683843
 20
256.523041
 30
0.0
 11
-0.0696
 21
262.38375
 31
0.0
  0
LINE
  5
3895
100
AcDbEntity
  8
外形
  6
CONTINUOUS
100
AcDbLine
 10
41.419955
 20
177.181423
 30
0.0
 11
31.127379
 21
177.181423
 31
0.0
  0
LINE
  5
3896
100
AcDbEntity
  8
外形
  6
CONTINUOUS
100
AcDbLine
 10
47.134981
 20
181.716423
 30
0.0
 11
47.134981
 21
177.681423
 31
0.0
  0
LINE
  5
389A
100
AcDbEntity
  8
外形
  6
CONTINUOUS
100
AcDbLine
 10
41.419955
 20
177.181423
 30
0.0
 11
47.134981
 21
177.681423
 31
0.0
  0
LINE
  5
389B
100
AcDbEntity
  8
外形
  6
CONTINUOUS
100
AcDbLine
 10
41.419955
 20
183.646423
 30
0.0
 11
41.419955
 21
177.181423
 31
0.0
  0
LINE
  5
389C
100
AcDbEntity
  8
外形
  6
CONTINUOUS
100
AcDbLine
 10
57.134981
 20
194.90578
 30
0.0
 11
57.134981
 21
178.431423
 31
0.0
  0
LINE
  5
38A0
100
AcDbEntity
  8
外形
  6
CONTINUOUS
100
AcDbLine
 10
57.384981
 20
195.082645
 30
0.0
 11
57.384981
 21
178.431423
 31
0.0
  0
LINE
  5
38A3
100
AcDbEntity
  8
外形
  6
CONTINUOUS
100
AcDbLine
 10
55.280708
 20
243.773041
 30
0.0
 11
57.134981
 21
243.773041
 31
0.0
  0
LINE
  5
38A4
100
AcDbEntity
  8
外形
  6
CONTINUOUS
100
AcDbLine
 10
41.538521
 20
263.273041
 30
0.0
 11
57.134981
 21
263.273041
 31
0.0
  0
LINE
  5
38A5
100
AcDbEntity
  8
外形
  6
CONTINUOUS
100
AcDbLine
 10
40.134981
 20
243.273041
 30
0.0
 11
31.10297
 21
243.273041
 31
0.0
  0
LINE
  5
38AC
100
AcDbEntity
  8
外形
  6
CONTINUOUS
100
AcDbLine
 10
57.134981
 20
263.273041
 30
0.0
 11
57.134981
 21
257.273041
 31
0.0
  0
LINE
  5
38AD
100
AcDbEntity
  8
外形
  6
CONTINUOUS
100
AcDbLine
 10
57.384981
 20
263.523041
 30
0.0
 11
57.384981
 21
257.88194
 31
0.0
  0
LINE
  5
38AE
100
AcDbEntity
  8
外形
  6
CONTINUOUS
100
AcDbLine
 10
57.384981
 20
243.523041
 30
0.0
 11
57.134981
 21
243.773041
 31
0.0
  0
LINE
  5
38AF
100
AcDbEntity
  8
外形
  6
CONTINUOUS
100
AcDbLine
 10
57.134981
 20
263.273041
 30
0.0
 11
57.384981
 21
263.523041
 31
0.0
  0
LINE
  5
38B4
100
AcDbEntity
  8
外形
  6
CONTINUOUS
100
AcDbLine
 10
57.134981
 20
257.273041
 30
0.0
 11
54.332616
 21
257.273041
 31
0.0
  0
LINE
  5
38B5
100
AcDbEntity
  8
外形
  6
CONTINUOUS
100
AcDbLine
 10
57.384981
 20
257.88194
 30
0.0
 11
57.134981
 21
257.273041
 31
0.0
  0
LINE
  5
38B6
100
AcDbEntity
  8
外形
  6
CONTINUOUS
100
AcDbLine
 10
57.384981
 20
247.484504
 30
0.0
 11
57.384981
 21
243.523041
 31
0.0
  0
LINE
  5
38B7
100
AcDbEntity
  8
外形
  6
CONTINUOUS
100
AcDbLine
 10
57.134981
 20
247.264602
 30
0.0
 11
57.134981
 21
243.773041
 31
0.0
  0
SPLINE
  5
38B8
100
AcDbEntity
  8
外形
  6
CONTINUOUS
100
AcDbSpline
210
0.0
220
0.0
230
-1.0
 70
     8
 71
     3
 72
     9
 73
     5
 74
     3
 42
0.0000001
 43
0.0000001
 44
0.0000000001
 40
0.0
 40
0.0
 40
0.0
 40
0.0
 40
0.6314696463201399
 40
3.462909219753713
 40
3.462909219753713
 40
3.462909219753713
 40
3.462909219753713
 10
54.33261609753034
 20
257.2730414165524
 30
0.0
 10
54.20090458622088
 20
257.4390995980217
 30
0.0
 10
53.47861332563676
 20
258.349744172906
 30
0.0
 10
52.34955175455578
 20
258.7560664693846
 30
0.0
 10
51.42637721825385
 20
259.0882949388044
 30
0.0
 11
54.33261609753034
 21
257.2730414165524
 31
0.0
 11
53.92395548232219
 21
257.7544460444917
 31
0.0
 11
51.42637721825385
 21
259.0882949388044
 31
0.0
  0
SPLINE
  5
38FD
100
AcDbEntity
  8
外形
  6
CONTINUOUS
100
AcDbSpline
210
0.0
220
0.0
230
1.0
 70
     8
 71
     3
 72
    11
 73
     7
 74
     0
 42
0.0000001
 43
0.0000001
 40
19.84668688126279
 40
19.84668688126279
 40
19.84668688126279
 40
19.84668688126279
 40
20.14712258687336
 40
24.14429443602308
 40
30.17641047527232
 40
31.17786741393718
 40
31.17786741393718
 40
31.17786741393718
 40
31.17786741393718
 10
40.14204507378304
 20
187.7486073913757
 30
0.0
 10
40.13733033935456
 20
187.6430030174776
 30
0.0
 10
40.10372257523139
 20
186.1297192234643
 30
0.0
 10
41.17846116057978
 20
182.4923923823626
 30
0.0
 10
45.46429166848828
 20
181.6374239058952
 30
0.0
 10
47.81109205552457
 20
181.7298049866214
 30
0.0
 10
48.13498089906723
 20
181.7704227469898
 30
0.0
  0
SPLINE
  5
38FE
100
AcDbEntity
  8
外形
  6
CONTINUOUS
100
AcDbSpline
210
0.0
220
0.0
230
1.0
 70
     8
 71
     3
 72
     9
 73
     5
 74
     0
 42
0.0000001
 43
0.0000001
 40
2.3390235098657
 40
2.3390235098657
 40
2.3390235098657
 40
2.3390235098657
 40
9.116377759809584
 40
18.23275551961918
 40
18.23275551961918
 40
18.23275551961918
 40
18.23275551961918
 10
50.82474374169053
 20
191.6399585733654
 30
0.0
 10
53.30604902337287
 20
190.2371132979068
 30
0.0
 10
57.93686907981146
 20
186.9472680224483
 30
0.0
 10
51.70784468248911
 20
183.6574227469897
 30
0.0
 10
48.13498089906724
 20
181.7704227469896
 30
0.0
  0
DIMENSION
  5
390B
100
AcDbEntity
  8
寸法
  6
CONTINUOUS
100
AcDbDimension
  2
*D14
 10
47.134981
 20
162.923666
 30
0.0
 11
38.134981
 21
165.423666
 31
0.0
 70
    32
  3
STANDARD
100
AcDbAlignedDimension
 13
29.134981
 23
187.431423
 33
0.0
 14
47.134981
 24
177.681423
 34
0.0
100
AcDbRotatedDimension
1001
ACAD
1000
DSTYLE
1002
{
1070
   284
1070
    13
1070
   146
1040
0.5
1070
   272
1070
     3
1070
    40
1040
1.0
1070
   287
1070
     0
1002
}
  0
ENDSEC
  0
SECTION
  2
OBJECTS
  0
DICTIONARY
  5
1E
100
AcDbDictionary
  3
ACAD_GROUP
350
1C
  3
ACAD_MLINESTYLE
350
1D
  3
ACDBVARIABLEDICTIONARY
350
147A
  3
DRAWINGVARIABLESDICT
350
C58
  0
DICTIONARY
  5
38
100
AcDbDictionary
280
     1
  3
ACAD_XREC_ROUNDTRIP
360
39
  0
DICTIONARY
  5
22
100
AcDbDictionary
280
     1
  3
ACAD_XREC_ROUNDTRIP
360
23
  0
DICTIONARY
  5
3
100
AcDbDictionary
280
     1
  3
ACAD_LAYOUTSELFREF
360
4
  0
DICTIONARY
  5
A
100
AcDbDictionary
280
     1
  3
ACAD_LAYOUTSELFREF
360
B
  0
DICTIONARY
  5
1C
102
{ACAD_REACTORS
330
1E
102
}
100
AcDbDictionary
  0
DICTIONARY
  5
1D
102
{ACAD_REACTORS
330
1E
102
}
100
AcDbDictionary
  3
STANDARD
350
20
  0
DICTIONARY
  5
147A
102
{ACAD_REACTORS
330
1E
102
}
100
AcDbDictionary
  3
SORTENTS
350
147B
  0
DICTIONARY
  5
C58
102
{ACAD_REACTORS
330
1E
102
}
100
AcDbDictionary
1001
DRAWINGVARIABLESXDATA
1000
POLARMODE
1000
0
  0
XRECORD
  5
39
102
{ACAD_REACTORS
330
38
102
}
100
AcDbXrecord
102
PLOTBIT
280
     0
  0
XRECORD
  5
23
102
{ACAD_REACTORS
330
22
102
}
100
AcDbXrecord
102
ACADR14ROUNDTRIP
1000
DSTYLE
1002
{
1070
   341
340
0
1070
   343
340
0
1070
   344
340
0
1002
}
  0
XRECORD
  5
4
102
{ACAD_REACTORS
330
3
102
}
100
AcDbXrecord
340
2
  0
XRECORD
  5
B
102
{ACAD_REACTORS
330
A
102
}
100
AcDbXrecord
340
9
  0
MLINESTYLE
  5
20
102
{ACAD_REACTORS
330
1D
102
}
100
AcDbMlineStyle
  2
STANDARD
 70
     0
  3

 62
     0
 51
90.0
 52
90.0
 71
     2
 49
0.5
 62
   256
  6
BYLAYER
 49
-0.5
 62
   256
  6
BYLAYER
  0
DICTIONARYVAR
  5
147B
102
{ACAD_REACTORS
330
147A
102
}
100
DictionaryVariables
280
     0
  1
96
  0
ENDSEC
  0
EOF
