  0
SECTION
  2
HEADER
  9
$ACADVER
  1
AC1015
  9
$ACADMAINTVER
 70
     6
  9
$DWGCODEPAGE
  3
ANSI_932
  9
$INSBASE
 10
0.0
 20
0.0
 30
0.0
  9
$EXTMIN
 10
-127.4805338066614
 20
-122.8926374842081
 30
-0.0000000000000047
  9
$EXTMAX
 10
309.0874442431262
 20
39.70273625142181
 30
0.0000000000000106
  9
$LIMMIN
 10
0.0
 20
0.0
  9
$LIMMAX
 10
420.0
 20
297.0
  9
$ORTHOMODE
 70
     1
  9
$REGENMODE
 70
     1
  9
$FILLMODE
 70
     1
  9
$QTEXTMODE
 70
     0
  9
$MIRRTEXT
 70
     1
  9
$LTSCALE
 40
1.0
  9
$ATTMODE
 70
     1
  9
$TEXTSIZE
 40
4.0
  9
$TRACEWID
 40
1.0
  9
$TEXTSTYLE
  7
STANDARD
  9
$CLAYER
  8
AM_0
  9
$CELTYPE
  6
ByLayer
  9
$CECOLOR
 62
   256
  9
$CELTSCALE
 40
1.0
  9
$DISPSILH
 70
     0
  9
$DIMSCALE
 40
1.0
  9
$DIMASZ
 40
2.5
  9
$DIMEXO
 40
0.0
  9
$DIMDLI
 40
10.0
  9
$DIMRND
 40
0.0
  9
$DIMDLE
 40
0.0
  9
$DIMEXE
 40
1.0
  9
$DIMTP
 40
0.1
  9
$DIMTM
 40
0.1000000001
  9
$DIMTXT
 40
3.8
  9
$DIMCEN
 40
0.0
  9
$DIMTSZ
 40
0.0
  9
$DIMTOL
 70
     0
  9
$DIMLIM
 70
     0
  9
$DIMTIH
 70
     0
  9
$DIMTOH
 70
     0
  9
$DIMSE1
 70
     0
  9
$DIMSE2
 70
     0
  9
$DIMTAD
 70
     3
  9
$DIMZIN
 70
     1
  9
$DIMBLK
  1
Open30
  9
$DIMASO
 70
     1
  9
$DIMSHO
 70
     1
  9
$DIMPOST
  1

  9
$DIMAPOST
  1
"
  9
$DIMALT
 70
     0
  9
$DIMALTD
 70
     2
  9
$DIMALTF
 40
0.0393701
  9
$DIMLFAC
 40
1.0
  9
$DIMTOFL
 70
     1
  9
$DIMTVP
 40
0.0
  9
$DIMTIX
 70
     0
  9
$DIMSOXD
 70
     0
  9
$DIMSAH
 70
     0
  9
$DIMBLK1
  1

  9
$DIMBLK2
  1

  9
$DIMSTYLE
  2
AM_JIS
  9
$DIMCLRD
 70
   256
  9
$DIMCLRE
 70
   256
  9
$DIMCLRT
 70
     2
  9
$DIMTFAC
 40
0.71
  9
$DIMGAP
 40
1.5
  9
$DIMJUST
 70
     0
  9
$DIMSD1
 70
     0
  9
$DIMSD2
 70
     0
  9
$DIMTOLJ
 70
     0
  9
$DIMTZIN
 70
     8
  9
$DIMALTZ
 70
     0
  9
$DIMALTTZ
 70
     0
  9
$DIMUPT
 70
     0
  9
$DIMDEC
 70
     0
  9
$DIMTDEC
 70
     3
  9
$DIMALTU
 70
     2
  9
$DIMALTTD
 70
     2
  9
$DIMTXSTY
  7
STANDARD
  9
$DIMAUNIT
 70
     1
  9
$DIMADEC
 70
     0
  9
$DIMALTRND
 40
0.0
  9
$DIMAZIN
 70
     2
  9
$DIMDSEP
 70
    46
  9
$DIMATFIT
 70
     3
  9
$DIMFRAC
 70
     0
  9
$DIMLDRBLK
  1
Open30
  9
$DIMLUNIT
 70
     2
  9
$DIMLWD
 70
    -1
  9
$DIMLWE
 70
    -1
  9
$DIMTMOVE
 70
     0
  9
$LUNITS
 70
     2
  9
$LUPREC
 70
     4
  9
$SKETCHINC
 40
1.0
  9
$FILLETRAD
 40
0.2
  9
$AUNITS
 70
     0
  9
$AUPREC
 70
     4
  9
$MENU
  1
.
  9
$ELEVATION
 40
0.0
  9
$PELEVATION
 40
0.0
  9
$THICKNESS
 40
0.0
  9
$LIMCHECK
 70
     0
  9
$CHAMFERA
 40
2.0
  9
$CHAMFERB
 40
2.0
  9
$CHAMFERC
 40
20.0
  9
$CHAMFERD
 40
0.0
  9
$SKPOLY
 70
     0
  9
$TDCREATE
 40
2451943.610431667
  9
$TDUCREATE
 40
2451943.235431667
  9
$TDUPDATE
 40
2455471.725316655
  9
$TDUUPDATE
 40
2455471.350316655
  9
$TDINDWG
 40
1.6688481134
  9
$TDUSRTIMER
 40
1.6688479398
  9
$USRTIMER
 70
     1
  9
$ANGBASE
 50
0.0
  9
$ANGDIR
 70
     0
  9
$PDMODE
 70
     0
  9
$PDSIZE
 40
0.0
  9
$PLINEWID
 40
0.0
  9
$SPLFRAME
 70
     0
  9
$SPLINETYPE
 70
     6
  9
$SPLINESEGS
 70
     8
  9
$HANDSEED
  5
20F33
  9
$SURFTAB1
 70
     6
  9
$SURFTAB2
 70
     6
  9
$SURFTYPE
 70
     6
  9
$SURFU
 70
     6
  9
$SURFV
 70
     6
  9
$UCSBASE
  2

  9
$UCSNAME
  2

  9
$UCSORG
 10
0.0
 20
0.0
 30
0.0
  9
$UCSXDIR
 10
1.0
 20
0.0
 30
0.0
  9
$UCSYDIR
 10
0.0
 20
1.0
 30
0.0
  9
$UCSORTHOREF
  2

  9
$UCSORTHOVIEW
 70
     0
  9
$UCSORGTOP
 10
0.0
 20
0.0
 30
0.0
  9
$UCSORGBOTTOM
 10
0.0
 20
0.0
 30
0.0
  9
$UCSORGLEFT
 10
0.0
 20
0.0
 30
0.0
  9
$UCSORGRIGHT
 10
0.0
 20
0.0
 30
0.0
  9
$UCSORGFRONT
 10
0.0
 20
0.0
 30
0.0
  9
$UCSORGBACK
 10
0.0
 20
0.0
 30
0.0
  9
$PUCSBASE
  2

  9
$PUCSNAME
  2

  9
$PUCSORG
 10
0.0
 20
0.0
 30
0.0
  9
$PUCSXDIR
 10
1.0
 20
0.0
 30
0.0
  9
$PUCSYDIR
 10
0.0
 20
1.0
 30
0.0
  9
$PUCSORTHOREF
  2

  9
$PUCSORTHOVIEW
 70
     0
  9
$PUCSORGTOP
 10
0.0
 20
0.0
 30
0.0
  9
$PUCSORGBOTTOM
 10
0.0
 20
0.0
 30
0.0
  9
$PUCSORGLEFT
 10
0.0
 20
0.0
 30
0.0
  9
$PUCSORGRIGHT
 10
0.0
 20
0.0
 30
0.0
  9
$PUCSORGFRONT
 10
0.0
 20
0.0
 30
0.0
  9
$PUCSORGBACK
 10
0.0
 20
0.0
 30
0.0
  9
$USERI1
 70
     0
  9
$USERI2
 70
     0
  9
$USERI3
 70
     0
  9
$USERI4
 70
     0
  9
$USERI5
 70
     0
  9
$USERR1
 40
0.0
  9
$USERR2
 40
0.0
  9
$USERR3
 40
0.0
  9
$USERR4
 40
0.0
  9
$USERR5
 40
0.0
  9
$WORLDVIEW
 70
     1
  9
$SHADEDGE
 70
     3
  9
$SHADEDIF
 70
    70
  9
$TILEMODE
 70
     1
  9
$MAXACTVP
 70
    64
  9
$PINSBASE
 10
0.0
 20
0.0
 30
0.0
  9
$PLIMCHECK
 70
     0
  9
$PEXTMIN
 10
1.000000000000000E+20
 20
1.000000000000000E+20
 30
1.000000000000000E+20
  9
$PEXTMAX
 10
-1.000000000000000E+20
 20
-1.000000000000000E+20
 30
-1.000000000000000E+20
  9
$PLIMMIN
 10
0.0
 20
0.0
  9
$PLIMMAX
 10
420.0
 20
297.0
  9
$UNITMODE
 70
     0
  9
$VISRETAIN
 70
     1
  9
$PLINEGEN
 70
     0
  9
$PSLTSCALE
 70
     1
  9
$TREEDEPTH
 70
  3020
  9
$CMLSTYLE
  2
Standard
  9
$CMLJUST
 70
     0
  9
$CMLSCALE
 40
20.0
  9
$PROXYGRAPHICS
 70
     1
  9
$MEASUREMENT
 70
     1
  9
$CELWEIGHT
370
    -1
  9
$ENDCAPS
280
     0
  9
$JOINSTYLE
280
     0
  9
$LWDISPLAY
290
     0
  9
$INSUNITS
 70
     4
  9
$HYPERLINKBASE
  1

  9
$STYLESHEET
  1
sei_cad.ctb
  9
$XEDIT
290
     1
  9
$CEPSNTYPE
380
     0
  9
$PSTYLEMODE
290
     1
  9
$FINGERPRINTGUID
  2
{C77AB3BE-9CA2-11D3-BAF3-006094EB760E}
  9
$VERSIONGUID
  2
{742C0278-FF10-41F0-A4FE-8A4E21B7D3ED}
  9
$EXTNAMES
290
     1
  9
$PSVPSCALE
 40
0.0
  9
$OLESTARTUP
290
     0
  0
ENDSEC
  0
SECTION
  2
CLASSES
  0
CLASS
  1
ACDBDICTIONARYWDFLT
  2
AcDbDictionaryWithDefault
  3
ObjectDBX Classes
 90
        0
280
     0
281
     0
  0
CLASS
  1
ACDBPLACEHOLDER
  2
AcDbPlaceHolder
  3
ObjectDBX Classes
 90
        0
280
     0
281
     0
  0
CLASS
  1
LAYOUT
  2
AcDbLayout
  3
ObjectDBX Classes
 90
        0
280
     0
281
     0
  0
CLASS
  1
ACME_DOCUMENT
  2
AcMeDbDoc
  3
AcMeServices
 90
        0
280
     1
281
     0
  0
CLASS
  1
ACMESCOPE
  2
AcMeScope
  3
AcMeServices
 90
        0
280
     1
281
     0
  0
CLASS
  1
ACMECOMMANDHISTORY
  2
AcMeCommandHistory
  3
AcMeServices
 90
        0
280
     1
281
     0
  0
CLASS
  1
DICTIONARYVAR
  2
AcDbDictionaryVar
  3
ObjectDBX Classes
 90
        0
280
     0
281
     0
  0
CLASS
  1
ACIMSYSVARMAN
  2
AcImSysVarManager
  3
AcMeServices
 90
        0
280
     1
281
     0
  0
CLASS
  1
ACIMREALSYSVAR
  2
AcImRealSysVar
  3
AcMeServices
 90
        0
280
     1
281
     0
  0
CLASS
  1
ACIMINTSYSVAR
  2
AcImIntSysVar
  3
AcMeServices
 90
        0
280
     1
281
     0
  0
CLASS
  1
ACMEDRAWINGMAN
  2
AcMeDrawingMan
  3
AcMeServices
 90
        0
280
     1
281
     0
  0
CLASS
  1
ACMEVIEW
  2
AcMeView
  3
AcMeServices
 90
        0
280
     1
281
     0
  0
CLASS
  1
ACDBENTITYCACHE
  2
AcMeEntityCache
  3
AcMeServices
 90
        0
280
     1
281
     0
  0
CLASS
  1
GSMANAGER
  2
AcMeGSManager
  3
AcMeServices
 90
        0
280
     1
281
     0
  0
CLASS
  1
AMDTINTERNALREACTOR
  2
AmdtInternalReactor
  3
AcMeServices
 90
        0
280
     1
281
     0
  0
CLASS
  1
ACMESTATEMGR
  2
AcMeStateMgr
  3
AcMeServices
 90
        0
280
     1
281
     0
  0
CLASS
  1
ACME_DATABASE
  2
AcMeDbDatabase
  3
AcMeServices
 90
        0
280
     1
281
     0
  0
CLASS
  1
ACRFINSADJUSTERMGR
  2
AcRfInsAdjusterMgr
  3
AcMeServices
 90
        0
280
     1
281
     0
  0
CLASS
  1
AMGSETTINGSOBJ
  2
AmgSettingsObj
  3
"AcadM|Product Description: AutoCAD Mechanical 2000|Company: Autodesk"
 90
        0
280
     1
281
     0
  0
CLASS
  1
AMGOBJPROPCFG
  2
AmgObjPropCfg
  3
"AmgLay|Product Description: AutoCAD Mechanical 2000|Company: Autodesk"
 90
        1
280
     1
281
     0
  0
CLASS
  1
ACMDATADICTIONARY
  2
AcmDataDictionary
  3
"AcmSymBB|Product Description: AutoCAD Mechanical 2004 DX|Company: Autodesk"
 90
        0
280
     1
281
     0
  0
CLASS
  1
ACMDATAENTRYBLOCK
  2
AcmDataEntryBlock
  3
"AcmSymBB|Product Description: AutoCAD Mechanical 2004 DX|Company: Autodesk"
 90
        0
280
     1
281
     0
  0
CLASS
  1
ACIMSTRSYSVAR
  2
AcImStrSysVar
  3
AcMeServices
 90
        0
280
     1
281
     0
  0
CLASS
  1
ACAMGFILTERDAT
  2
AcAmgFilterDat
  3
"AcadM|Product Description: AutoCAD Mechanical 2000|Company: Autodesk"
 90
        0
280
     1
281
     0
  0
CLASS
  1
LAYER_INDEX
  2
AcDbLayerIndex
  3
ObjectDBX Classes
 90
        0
280
     0
281
     0
  0
CLASS
  1
IDBUFFER
  2
AcDbIdBuffer
  3
ObjectDBX Classes
 90
        0
280
     0
281
     0
  0
CLASS
  1
ACMSTANDARDJIS
  2
AcmStandardJIS
  3
"Amdt_StdImp|Product Description: AutoCAD Mechanical 2004 DX|Company: Autodesk"
 90
        0
280
     1
281
     0
  0
CLASS
  1
ACMSURFSTANDARDJIS
  2
AcmSurfTextStdJIS
  3
"Amdt_StdImp|Product Description: AutoCAD Mechanical 2004 DX|Company: Autodesk"
 90
        0
280
     1
281
     0
  0
CLASS
  1
ACMFCFSTANDARDJIS
  2
AcmFCFStdJIS
  3
"Amdt_StdImp|Product Description: AutoCAD Mechanical 2004 DX|Company: Autodesk"
 90
        0
280
     1
281
     0
  0
CLASS
  1
ACMWELDSTANDARDJIS
  2
AcmWeldingStdJIS
  3
"Amdt_StdImp|Product Description: AutoCAD Mechanical 2004 DX|Company: Autodesk"
 90
        0
280
     1
281
     0
  0
CLASS
  1
ACMIDSTANDARDJIS
  2
AcmIdStdJIS
  3
"Amdt_StdImp|Product Description: AutoCAD Mechanical 2004 DX|Company: Autodesk"
 90
        0
280
     1
281
     0
  0
CLASS
  1
ACMDATUMSTANDARDJIS
  2
AcmDatumStdJIS
  3
"Amdt_StdImp|Product Description: AutoCAD Mechanical 2004 DX|Company: Autodesk"
 90
        0
280
     1
281
     0
  0
CLASS
  1
ACMBOMSTANDARDJIS
  2
AcmBOMStdJIS
  3
"Amdt_StdImp|Product Description: AutoCAD Mechanical 2004 DX|Company: Autodesk"
 90
        0
280
     1
281
     0
  0
CLASS
  1
AMDTNOTE
  2
AmdtNote
  3
"AcmSymBB|Product Description: AutoCAD Mechanical 2004 DX|Company: Autodesk"
 90
     1023
280
     1
281
     1
  0
CLASS
  1
TABLESTYLE
  2
AcDbTableStyle
  3
ObjectDBX Classes
 90
     2047
280
     0
281
     0
  0
CLASS
  1
ACGREFMASTER
  2
AcGrefMaster
  3
AcAttribServices
 90
        0
280
     1
281
     0
  0
CLASS
  1
AM_DRAWING_MGR
  2
AcDmDwgMgr
  3
AcMechDwgViewMgmt
 90
        0
280
     1
281
     0
  0
CLASS
  1
AM_DWG_DOCUMENT
  2
AcDmDwgDocument
  3
AcMechDwgViewMgmt
 90
        0
280
     1
281
     0
  0
CLASS
  1
AM_DWG_SHEET
  2
AcDmSheet
  3
AcMechDwgViewMgmt
 90
        0
280
     1
281
     0
  0
CLASS
  1
AM_VIEWDIMPARMAP
  2
AcDmViewDimParMap
  3
AcMechDwgViewMgmt
 90
        0
280
     1
281
     0
  0
CLASS
  1
AM_DWGMGR_NAME
  2
AcDmDwgMgrName
  3
AcMechDwgViewMgmt
 90
        0
280
     1
281
     0
  0
CLASS
  1
ACGREFACADMASTER
  2
AcGrefacadMaster
  3
AcGrefServices
 90
        0
280
     1
281
     0
  0
CLASS
  1
AMDTMENUSTATEMGR
  2
AmdtMenuStateMgr
  3
McadcomServices
 90
        0
280
     1
281
     0
  0
CLASS
  1
AMDTMCOMMENUSTATE
  2
AmdtMcomMenuState
  3
McadcomServices
 90
        0
280
     1
281
     0
  0
CLASS
  1
AMIMASTER
  2
AmiMaster
  3
AmiServices
 90
        0
280
     1
281
     0
  0
CLASS
  1
MAPIAMMOUDLE
  2
MApiAmModule
  3
MApiAmServices
 90
        0
280
     1
281
     0
  0
CLASS
  1
AMDTADMENUSTATE
  2
AmdtAdMenuState
  3
DesignerServices
 90
        0
280
     1
281
     0
  0
CLASS
  1
ADAPPL
  2
AcAdAppl
  3
DesignerServices
 90
        0
280
     1
281
     0
  0
CLASS
  1
DEPMGR
  2
AcAdDepMgr
  3
DesignerServices
 90
        0
280
     1
281
     0
  0
CLASS
  1
PARAMMGR
  2
AcAdParamMgr
  3
DesignerServices
 90
        0
280
     1
281
     0
  0
CLASS
  1
PARAMSCOPE
  2
AcAdParamScope
  3
DesignerServices
 90
        0
280
     1
281
     0
  0
CLASS
  1
NAMEDAPPL
  2
AcAdNamedAppl
  3
DesignerServices
 90
        0
280
     1
281
     0
  0
CLASS
  1
AMDTDMMENUSTATE
  2
AmdtDmMenuState
  3
AcMechDwgViewMgmt
 90
        0
280
     1
281
     0
  0
CLASS
  1
AMDTAMMENUSTATE
  2
AmdtAmMenuState
  3
DesignerAssemblies
 90
        0
280
     1
281
     0
  0
CLASS
  1
ACAMPROJECT
  2
AcAmProject
  3
DesignerAssemblies
 90
        0
280
     1
281
     0
  0
CLASS
  1
ACAMGRCOMPDEF
  2
AcAmGrCompDef
  3
DesignerAssemblies
 90
        0
280
     1
281
     0
  0
CLASS
  1
ACCMCONTEXT
  2
AcCmContext
  3
DesignerAssemblies
 90
        0
280
     1
281
     0
  0
CLASS
  1
ACAMCOMPDEF
  2
AcAmCompDef
  3
DesignerAssemblies
 90
        0
280
     1
281
     0
  0
CLASS
  1
ACAMCOMPDEFMGR
  2
AcAmCompDefMgr
  3
DesignerAssemblies
 90
        0
280
     1
281
     0
  0
CLASS
  1
AMCONTEXTMGR
  2
AcAmContextMgr
  3
DesignerAssemblies
 90
        0
280
     1
281
     0
  0
CLASS
  1
ACAMCONTEXTMODELER
  2
AcAmContextModeler
  3
DesignerAssemblies
 90
        0
280
     1
281
     0
  0
CLASS
  1
ACAMGTITLESTD
  2
AcAmgTitleStd
  3
"TITLEAPP"
 90
        0
280
     1
281
     0
  0
CLASS
  1
ACMDETAILSTANDARDJIS
  2
AmdtDetailSymStdJIS
  3
"Amdt_StdImp|Product Description: AutoCAD Mechanical 2004 DX|Company: Autodesk"
 90
        0
280
     1
281
     0
  0
CLASS
  1
ACMSECTIONSTANDARDJIS
  2
AmdtSectionSymStdJIS
  3
"Amdt_StdImp|Product Description: AutoCAD Mechanical 2004 DX|Company: Autodesk"
 90
        0
280
     1
281
     0
  0
CLASS
  1
ACMCENTERLINESTANDARDJIS
  2
AmdtCenterLineStdJIS
  3
"Amdt_StdImp|Product Description: AutoCAD Mechanical 2004 DX|Company: Autodesk"
 90
        0
280
     1
281
     0
  0
CLASS
  1
ACMTHREADLINESTANDARDJIS
  2
AmdtThreadLineStdJIS
  3
"Amdt_StdImp|Product Description: AutoCAD Mechanical 2004 DX|Company: Autodesk"
 90
        0
280
     1
281
     0
  0
CLASS
  1
ACMNOTESTANDARDJIS
  2
AmdtNoteStdJIS
  3
"Amdt_StdImp|Product Description: AutoCAD Mechanical 2004 DX|Company: Autodesk"
 90
        0
280
     1
281
     0
  0
CLASS
  1
AMDTNOTETEMPLATEDB
  2
AmdtNoteTemplateDB
  3
AMDT_STDIMP_MODULE_NAME
 90
        0
280
     1
281
     0
  0
CLASS
  1
ACAMGLAYSTD
  2
AcAmgLayStd
  3
"AcAmgLayStd|Product Description: AutoCAD Mechanical 2000|Company: Autodesk"
 90
        0
280
     1
281
     0
  0
CLASS
  1
ACAMGDIMSTD
  2
AcAmgDimStd
  3
"AcAmgDimStd|Product Description: AutoCAD Mechanical 2000|Company: Autodesk"
 90
        0
280
     1
281
     0
  0
CLASS
  1
ACAMGHOLECHARTSTDJIS
  2
AcAmgHoleChartStdJIS
  3
ACMSYMBB_MODULE_NAME
 90
        0
280
     1
281
     0
  0
CLASS
  1
CATALOGSTATE
  2
AcAmCatalogState
  3
DesignerAssemblies
 90
        0
280
     1
281
     0
  0
CLASS
  1
ACAMGRCOMPDEFSET
  2
AcAmGrCompDefSet
  3
DesignerAssemblies
 90
        0
280
     1
281
     0
  0
CLASS
  1
AMDTBROWSERDBTAB
  2
AmdtBrowserDbTab
  3
McadcomServices
 90
        0
280
     1
281
     0
  0
CLASS
  1
CBROWSERAPPOBJECT
  2
CBrowserAppObject
  3
McadcomServices
 90
        0
280
     1
281
     0
  0
CLASS
  1
DM_PLACEHOLDER
  2
AcDmSelsetPlaceholder
  3
AcMechDwgViewMgmt
 90
        0
280
     1
281
     0
  0
CLASS
  1
SORTENTSTABLE
  2
AcDbSortentsTable
  3
ObjectDBX Classes
 90
        0
280
     0
281
     0
  0
CLASS
  1
ACMFCFRAME
  2
AcmFCF
  3
"AcmSymBB|Product Description: AutoCAD Mechanical 2004 DX|Company: Autodesk"
 90
     1023
280
     1
281
     1
  0
CLASS
  1
ACMSTANDARDANSI
  2
AcmStandardANSI
  3
"Amdt_StdImp|Product Description: AutoCAD Mechanical 2004 DX|Company: Autodesk"
 90
        0
280
     1
281
     0
  0
CLASS
  1
ACMSURFSTANDARDANSI
  2
AcmSurfTextStdANSI
  3
"Amdt_StdImp|Product Description: AutoCAD Mechanical 2004 DX|Company: Autodesk"
 90
        0
280
     1
281
     0
  0
CLASS
  1
ACMFCFSTANDARDANSI
  2
AcmFCFStdANSI
  3
"Amdt_StdImp|Product Description: AutoCAD Mechanical 2004 DX|Company: Autodesk"
 90
        0
280
     1
281
     0
  0
CLASS
  1
ACMWELDSTANDARDANSI
  2
AcmWeldingStdANSI
  3
"Amdt_StdImp|Product Description: AutoCAD Mechanical 2004 DX|Company: Autodesk"
 90
        0
280
     1
281
     0
  0
CLASS
  1
ACMIDSTANDARDANSI
  2
AcmIdStdANSI
  3
"Amdt_StdImp|Product Description: AutoCAD Mechanical 2004 DX|Company: Autodesk"
 90
        0
280
     1
281
     0
  0
CLASS
  1
ACMDATUMSTANDARDANSI
  2
AcmDatumStdANSI
  3
"Amdt_StdImp|Product Description: AutoCAD Mechanical 2004 DX|Company: Autodesk"
 90
        0
280
     1
281
     0
  0
CLASS
  1
ACMBOMSTANDARDANSI
  2
AcmBOMStdANSI
  3
"Amdt_StdImp|Product Description: AutoCAD Mechanical 2004 DX|Company: Autodesk"
 90
        0
280
     1
281
     0
  0
CLASS
  1
ACMDETAILSTANDARDANSI
  2
AmdtDetailSymStdANSI
  3
"Amdt_StdImp|Product Description: AutoCAD Mechanical 2004 DX|Company: Autodesk"
 90
        0
280
     1
281
     0
  0
CLASS
  1
ACMSECTIONSTANDARDANSI
  2
AmdtSectionSymStdANSI
  3
"Amdt_StdImp|Product Description: AutoCAD Mechanical 2004 DX|Company: Autodesk"
 90
        0
280
     1
281
     0
  0
CLASS
  1
ACMCENTERLINESTANDARDANSI
  2
AmdtCenterLineStdANSI
  3
"Amdt_StdImp|Product Description: AutoCAD Mechanical 2004 DX|Company: Autodesk"
 90
        0
280
     1
281
     0
  0
CLASS
  1
ACMTHREADLINESTANDARDANSI
  2
AmdtThreadLineStdANSI
  3
"Amdt_StdImp|Product Description: AutoCAD Mechanical 2004 DX|Company: Autodesk"
 90
        0
280
     1
281
     0
  0
CLASS
  1
ACMNOTESTANDARDANSI
  2
AmdtNoteStdANSI
  3
"Amdt_StdImp|Product Description: AutoCAD Mechanical 2004 DX|Company: Autodesk"
 90
        0
280
     1
281
     0
  0
CLASS
  1
ACAMGHOLECHARTSTDANSI
  2
AcAmgHoleChartStdANSI
  3
ACMSYMBB_MODULE_NAME
 90
        0
280
     1
281
     0
  0
CLASS
  1
ACRFATTGENMGR
  2
AcRfAttGeneralMgr
  3
AcAttribServices
 90
        0
280
     1
281
     0
  0
CLASS
  1
ACMSTANDARDISO
  2
AcmStandardISO
  3
"Amdt_StdImp|Product Description: AutoCAD Mechanical 2004 DX|Company: Autodesk"
 90
        0
280
     1
281
     0
  0
CLASS
  1
AMDTEDGESTANDARDISO13715
  2
AmdtEdgeStdISO13715
  3
"Amdt_StdImp|Product Description: AutoCAD Mechanical 2004 DX|Company: Autodesk"
 90
        0
280
     1
281
     0
  0
CLASS
  1
ACMSURFSTANDARDISO
  2
AcmSurfTextStdISO
  3
"Amdt_StdImp|Product Description: AutoCAD Mechanical 2004 DX|Company: Autodesk"
 90
        0
280
     1
281
     0
  0
CLASS
  1
ACMFCFSTANDARDISO
  2
AcmFCFStdISO
  3
"Amdt_StdImp|Product Description: AutoCAD Mechanical 2004 DX|Company: Autodesk"
 90
        0
280
     1
281
     0
  0
CLASS
  1
ACMWELDSTANDARDISO
  2
AcmWeldingStdISO
  3
"Amdt_StdImp|Product Description: AutoCAD Mechanical 2004 DX|Company: Autodesk"
 90
        0
280
     1
281
     0
  0
CLASS
  1
ACMIDSTANDARDISO
  2
AcmIdStdISO
  3
"Amdt_StdImp|Product Description: AutoCAD Mechanical 2004 DX|Company: Autodesk"
 90
        0
280
     1
281
     0
  0
CLASS
  1
ACMDATUMSTANDARDISO
  2
AcmDatumStdISO
  3
"Amdt_StdImp|Product Description: AutoCAD Mechanical 2004 DX|Company: Autodesk"
 90
        0
280
     1
281
     0
  0
CLASS
  1
ACMBOMSTANDARDISO
  2
AcmBOMStdISO
  3
"Amdt_StdImp|Product Description: AutoCAD Mechanical 2004 DX|Company: Autodesk"
 90
        0
280
     1
281
     0
  0
CLASS
  1
ACMDETAILSTANDARDISO
  2
AmdtDetailSymStdISO
  3
"Amdt_StdImp|Product Description: AutoCAD Mechanical 2004 DX|Company: Autodesk"
 90
        0
280
     1
281
     0
  0
CLASS
  1
ACMSECTIONSTANDARDISO
  2
AmdtSectionSymStdISO
  3
"Amdt_StdImp|Product Description: AutoCAD Mechanical 2004 DX|Company: Autodesk"
 90
        0
280
     1
281
     0
  0
CLASS
  1
ACMCENTERLINESTANDARDISO
  2
AmdtCenterLineStdISO
  3
"Amdt_StdImp|Product Description: AutoCAD Mechanical 2004 DX|Company: Autodesk"
 90
        0
280
     1
281
     0
  0
CLASS
  1
ACMTHREADLINESTANDARDISO
  2
AmdtThreadLineStdISO
  3
"Amdt_StdImp|Product Description: AutoCAD Mechanical 2004 DX|Company: Autodesk"
 90
        0
280
     1
281
     0
  0
CLASS
  1
ACMNOTESTANDARDISO
  2
AmdtNoteStdISO
  3
"Amdt_StdImp|Product Description: AutoCAD Mechanical 2004 DX|Company: Autodesk"
 90
        0
280
     1
281
     0
  0
CLASS
  1
ACAMGHOLECHARTSTDISO
  2
AcAmgHoleChartStdISO
  3
ACMSYMBB_MODULE_NAME
 90
        0
280
     1
281
     0
  0
ENDSEC
  0
SECTION
  2
TABLES
  0
TABLE
  2
VPORT
  5
8
330
0
100
AcDbSymbolTable
 70
    84
  0
VPORT
  5
20F2B
330
8
100
AcDbSymbolTableRecord
100
AcDbViewportTableRecord
  2
*Active
 70
     0
 10
0.0
 20
0.0
 11
1.0
 21
1.0
 12
90.80345521823244
 22
-41.59495061639314
 13
0.0
 23
0.0
 14
2.5
 24
2.5
 15
10.0
 25
10.0
 16
0.0
 26
0.0
 36
1.0
 17
0.0
 27
0.0
 37
0.0
 40
258.5853181340602
 41
1.697058823529412
 42
50.0
 43
0.0
 44
0.0
 50
0.0
 51
0.0
 71
    16
 72
  2000
 73
     1
 74
     3
 75
     0
 76
     0
 77
     0
 78
     0
281
     0
 65
     1
110
0.0
120
0.0
130
0.0
111
1.0
121
0.0
131
0.0
112
0.0
122
1.0
132
0.0
 79
     0
146
0.0
  0
ENDTAB
  0
TABLE
  2
LTYPE
  5
5
330
0
100
AcDbSymbolTable
 70
    19
  0
LTYPE
  5
14
330
5
100
AcDbSymbolTableRecord
100
AcDbLinetypeTableRecord
  2
ByBlock
 70
     0
  3

 72
    65
 73
     0
 40
0.0
  0
LTYPE
  5
15
330
5
100
AcDbSymbolTableRecord
100
AcDbLinetypeTableRecord
  2
ByLayer
 70
     0
  3

 72
    65
 73
     0
 40
0.0
  0
LTYPE
  5
16
330
5
100
AcDbSymbolTableRecord
100
AcDbLinetypeTableRecord
  2
Continuous
 70
     0
  3
Solid line
 72
    65
 73
     0
 40
0.0
  0
LTYPE
  5
43
330
5
100
AcDbSymbolTableRecord
100
AcDbLinetypeTableRecord
  2
AM_ISO02W050
 70
     0
  3
__ __ __ __ __ __ __ __ __ __ __ __ __ __ __
 72
    65
 73
     2
 40
7.5
 49
6.0
 74
     0
 49
-1.5
 74
     0
  0
LTYPE
  5
44
330
5
100
AcDbSymbolTableRecord
100
AcDbLinetypeTableRecord
  2
AM_ISO08W050
 70
     0
  3
____ . ____ . ____ . ____ . ____ . ____ . ____
 72
    65
 73
     4
 40
18.0
 49
12.0
 74
     0
 49
-1.5
 74
     0
 49
3.0
 74
     0
 49
-1.5
 74
     0
  0
LTYPE
  5
45
330
5
100
AcDbSymbolTableRecord
100
AcDbLinetypeTableRecord
  2
AM_ISO09W050
 70
     0
  3
_____ . . _____ . . _____ . . ____ .. ____
 72
    65
 73
     6
 40
22.5
 49
12.0
 74
     0
 49
-1.5
 74
     0
 49
3.0
 74
     0
 49
-1.5
 74
     0
 49
3.0
 74
     0
 49
-1.5
 74
     0
  0
LTYPE
  5
46
330
5
100
AcDbSymbolTableRecord
100
AcDbLinetypeTableRecord
  2
Amconstr
 70
     0
  3
_______________________
 72
    65
 73
     2
 40
9999.0
 49
9999.0
 74
     0
 49
0.0
 74
     0
  0
LTYPE
  5
47
330
5
100
AcDbSymbolTableRecord
100
AcDbLinetypeTableRecord
  2
AM_ISO02W050x2
 70
     0
  3
 _ _ _ _ _ _ _ _ _ _ _ _
 72
    65
 73
     2
 40
3.75
 49
3.0
 74
     0
 49
-0.75
 74
     0
  0
LTYPE
  5
48
330
5
100
AcDbSymbolTableRecord
100
AcDbLinetypeTableRecord
  2
AM_ISO08W050x2
 70
     0
  3
__ . __ . __ . __ . __ . __
 72
    65
 73
     4
 40
9.0
 49
6.0
 74
     0
 49
-0.75
 74
     0
 49
1.5
 74
     0
 49
-0.75
 74
     0
  0
LTYPE
  5
4B
330
5
100
AcDbSymbolTableRecord
100
AcDbLinetypeTableRecord
  2
Amzigzag
 70
     0
  3
/\/-/\/-/\/-/\/-/\/-/\/
 72
    65
 73
     2
 40
11.0001
 49
0.0001
 74
     4
 75
   135
340
4A
 46
0.04
 50
0.0
 44
0.0
 45
0.0
 49
-11.0
 74
     0
  0
LTYPE
  5
188
330
5
100
AcDbSymbolTableRecord
100
AcDbLinetypeTableRecord
  2
ACJISTGB
 70
     0
  3
__ . . __ . .
 72
    65
 73
     6
 40
9.0
 49
4.0
 74
     0
 49
-1.0
 74
     0
 49
1.0
 74
     0
 49
-1.0
 74
     0
 49
1.0
 74
     0
 49
-1.0
 74
     0
  0
LTYPE
  5
189
330
5
100
AcDbSymbolTableRecord
100
AcDbLinetypeTableRecord
  2
ACJISTGL
 70
     0
  3
_ _ _ _ _
 72
    65
 73
     2
 40
3.0
 49
2.0
 74
     0
 49
-1.0
 74
     0
  0
LTYPE
  5
652
330
5
100
AcDbSymbolTableRecord
100
AcDbLinetypeTableRecord
  2
CENTER
 70
     0
  3
____ _ ____ _ ____ _ ____ _ ____ _ ____ _ ____
 72
    65
 73
     4
 40
17.5
 49
13.0
 74
     0
 49
-1.5
 74
     0
 49
1.5
 74
     0
 49
-1.5
 74
     0
  0
LTYPE
  5
12AB
330
5
100
AcDbSymbolTableRecord
100
AcDbLinetypeTableRecord
  2
HIDDEN
 70
     0
  3
Hidden __ __ __ __ __ __ __ __ __ __ __ __ __ _
 72
    65
 73
     2
 40
0.375
 49
0.25
 74
     0
 49
-0.125
 74
     0
  0
LTYPE
  5
12AC
330
5
100
AcDbSymbolTableRecord
100
AcDbLinetypeTableRecord
  2
PHANTOM2
 70
     0
  3
Phantom (.5x) ___ _ _ ___ _ _ ___ _ _ ___ _ _
 72
    65
 73
     6
 40
1.25
 49
0.625
 74
     0
 49
-0.125
 74
     0
 49
0.125
 74
     0
 49
-0.125
 74
     0
 49
0.125
 74
     0
 49
-0.125
 74
     0
  0
LTYPE
  5
1B328
330
5
100
AcDbSymbolTableRecord
100
AcDbLinetypeTableRecord
  2
ACISOWELD
 70
     0
  3
_ _ _ _ _
 72
    65
 73
     2
 40
2.0
 49
2.0
 74
     0
 49
-1.0
 74
     0
  0
LTYPE
  5
1B329
330
5
100
AcDbSymbolTableRecord
100
AcDbLinetypeTableRecord
  2
ACISOTGB
 70
     0
  3
__ . . __ . .
 72
    65
 73
     6
 40
9.0
 49
4.0
 74
     0
 49
-1.0
 74
     0
 49
1.0
 74
     0
 49
-1.0
 74
     0
 49
1.0
 74
     0
 49
-1.0
 74
     0
  0
LTYPE
  5
1B32A
330
5
100
AcDbSymbolTableRecord
100
AcDbLinetypeTableRecord
  2
ACISOTGL
 70
     0
  3
_ _ _ _ _
 72
    65
 73
     2
 40
3.0
 49
2.0
 74
     0
 49
-1.0
 74
     0
  0
LTYPE
  5
1B4F4
330
5
100
AcDbSymbolTableRecord
100
AcDbLinetypeTableRecord
  2
ACANSTGB
 70
     0
  3
__ . . __ . .
 72
    65
 73
     6
 40
0.35433070866
 49
0.15748031496
 74
     0
 49
-0.03937007874
 74
     0
 49
0.03937007874
 74
     0
 49
-0.03937007874
 74
     0
 49
0.03937007874
 74
     0
 49
-0.03937007874
 74
     0
  0
LTYPE
  5
1B4F5
330
5
100
AcDbSymbolTableRecord
100
AcDbLinetypeTableRecord
  2
ACANSTGL
 70
     0
  3
_ _ _ _ _
 72
    65
 73
     2
 40
0.11811023622
 49
0.07874015748
 74
     0
 49
-0.03937007874
 74
     0
  0
ENDTAB
  0
TABLE
  2
LAYER
  5
2
102
{ACAD_XDICTIONARY
360
1B4AE
102
}
330
0
100
AcDbSymbolTable
 70
    12
  0
LAYER
  5
10
330
2
100
AcDbSymbolTableRecord
100
AcDbLayerTableRecord
  2
0
 70
     0
 62
     7
  6
Continuous
370
    -3
390
F
  0
LAYER
  5
7D
330
2
100
AcDbSymbolTableRecord
100
AcDbLayerTableRecord
  2
AM_5
 70
     0
 62
     3
  6
Continuous
370
    13
390
F
  0
LAYER
  5
7F
330
2
100
AcDbSymbolTableRecord
100
AcDbLayerTableRecord
  2
Defpoints
 70
     0
 62
     7
  6
Continuous
290
     0
370
    -3
390
F
  0
LAYER
  5
12B1
330
2
100
AcDbSymbolTableRecord
100
AcDbLayerTableRecord
  2
AM_0
 70
     0
 62
     7
  6
Continuous
370
    30
390
F
  0
LAYER
  5
1AFF
330
2
100
AcDbSymbolTableRecord
100
AcDbLayerTableRecord
  2
AM_7
 70
     0
 62
     4
  6
AM_ISO08W050
370
    13
390
F
  0
LAYER
  5
2953
330
2
100
AcDbSymbolTableRecord
100
AcDbLayerTableRecord
  2
AM_6
 70
     0
 62
     2
  6
Continuous
370
    30
390
F
  0
ENDTAB
  0
TABLE
  2
STYLE
  5
3
330
0
100
AcDbSymbolTable
 70
     9
  0
STYLE
  5
11
330
3
100
AcDbSymbolTableRecord
100
AcDbTextStyleTableRecord
  2
STANDARD
 70
     0
 40
0.0
 41
1.0
 50
0.0
 71
     0
 42
4.0
  3
ISOCP.SHX
  4
EXTFONT.SHX
  0
STYLE
  5
4A
330
3
100
AcDbSymbolTableRecord
100
AcDbTextStyleTableRecord
  2

 70
     1
 40
0.0
 41
1.0
 50
0.0
 71
     0
 42
2.5
  3
ltypeshp.shx
  4

  0
STYLE
  5
180
330
3
100
AcDbSymbolTableRecord
100
AcDbTextStyleTableRecord
  2
ACJISTS
 70
     0
 40
1.0
 41
1.0
 50
0.0
 71
     0
 42
2.5
  3
isocp.shx
  4
bigfont.shx
  0
STYLE
  5
187
330
3
100
AcDbSymbolTableRecord
100
AcDbTextStyleTableRecord
  2
ACJISGDT
 70
     0
 40
0.0
 41
1.0
 50
0.0
 71
     0
 42
2.5
  3
amgdt.shx
  4

  0
STYLE
  5
1B32C
330
3
100
AcDbSymbolTableRecord
100
AcDbTextStyleTableRecord
  2
ACISOTS
 70
     0
 40
3.8
 41
1.0
 50
0.0
 71
     0
 42
3.8
  3
isocp.shx
  4
extfont.shx
  0
STYLE
  5
1B32D
330
3
100
AcDbSymbolTableRecord
100
AcDbTextStyleTableRecord
  2
ACISOGDT
 70
     0
 40
0.0
 41
1.0
 50
0.0
 71
     0
 42
2.5
  3
amgdt.shx
  4
extfont.shx
  0
STYLE
  5
1B4F6
330
3
100
AcDbSymbolTableRecord
100
AcDbTextStyleTableRecord
  2
ACANSTS
 70
     0
 40
1.0
 41
1.0
 50
0.0
 71
     0
 42
0.7453317137339326
  3
romans.shx
  4
extfont.shx
  0
STYLE
  5
1B4F7
330
3
100
AcDbSymbolTableRecord
100
AcDbTextStyleTableRecord
  2
ACANSGDT
 70
     0
 40
0.0
 41
1.0
 50
0.0
 71
     0
 42
0.7453317137339326
  3
amgdtans.shx
  4

  0
ENDTAB
  0
TABLE
  2
VIEW
  5
6
330
0
100
AcDbSymbolTable
 70
     6
  0
VIEW
  5
A30
330
6
100
AcDbSymbolTableRecord
100
AcDbViewTableRecord
  2
AM_VIEW1
 70
     0
 40
148.5
 10
108.6929657794677
 20
222.75
 41
217.3859315589354
 11
0.0
 21
0.0
 31
1.0
 12
0.0
 22
0.0
 32
0.0
 42
50.0
 43
0.0
 44
0.0
 50
0.0
 71
    16
281
     0
 72
     0
  0
VIEW
  5
A31
330
6
100
AcDbSymbolTableRecord
100
AcDbViewTableRecord
  2
AM_VIEW2
 70
     0
 40
148.5
 10
311.3070342205323
 20
222.75
 41
217.3859315589354
 11
0.0
 21
0.0
 31
1.0
 12
0.0
 22
0.0
 32
0.0
 42
50.0
 43
0.0
 44
0.0
 50
0.0
 71
    16
281
     0
 72
     0
  0
VIEW
  5
A32
330
6
100
AcDbSymbolTableRecord
100
AcDbViewTableRecord
  2
AM_VIEW3
 70
     0
 40
148.5
 10
108.6929657794677
 20
74.25
 41
217.3859315589354
 11
0.0
 21
0.0
 31
1.0
 12
0.0
 22
0.0
 32
0.0
 42
50.0
 43
0.0
 44
0.0
 50
0.0
 71
    16
281
     0
 72
     0
  0
VIEW
  5
A33
330
6
100
AcDbSymbolTableRecord
100
AcDbViewTableRecord
  2
AM_VIEW4
 70
     0
 40
148.5
 10
311.3070342205323
 20
74.25
 41
217.3859315589354
 11
0.0
 21
0.0
 31
1.0
 12
0.0
 22
0.0
 32
0.0
 42
50.0
 43
0.0
 44
0.0
 50
0.0
 71
    16
281
     0
 72
     0
  0
VIEW
  5
A34
330
6
100
AcDbSymbolTableRecord
100
AcDbViewTableRecord
  2
AM_VIEW5
 70
     0
 40
148.5
 10
210.0
 20
148.5
 41
217.3859315589353
 11
0.0
 21
0.0
 31
1.0
 12
0.0
 22
0.0
 32
0.0
 42
50.0
 43
0.0
 44
0.0
 50
0.0
 71
    16
281
     0
 72
     0
  0
VIEW
  5
A35
330
6
100
AcDbSymbolTableRecord
100
AcDbViewTableRecord
  2
AM_VIEW6
 70
     0
 40
296.99703
 10
210.0
 20
148.5
 41
434.7675153992395
 11
0.0
 21
0.0
 31
1.0
 12
0.0
 22
0.0
 32
0.0
 42
50.0
 43
0.0
 44
0.0
 50
0.0
 71
    16
281
     0
 72
     0
  0
ENDTAB
  0
TABLE
  2
UCS
  5
7
330
0
100
AcDbSymbolTable
 70
     0
  0
ENDTAB
  0
TABLE
  2
APPID
  5
9
330
0
100
AcDbSymbolTable
 70
    42
  0
APPID
  5
12
330
9
100
AcDbSymbolTableRecord
100
AcDbRegAppTableRecord
  2
ACAD
 70
     0
  0
APPID
  5
2C
330
9
100
AcDbSymbolTableRecord
100
AcDbRegAppTableRecord
  2
MCAD_NO_VIS
 70
     0
  0
APPID
  5
2D
330
9
100
AcDbSymbolTableRecord
100
AcDbRegAppTableRecord
  2
ACAD_TEMP_GRAPHIC
 70
     0
  0
APPID
  5
B9
330
9
100
AcDbSymbolTableRecord
100
AcDbRegAppTableRecord
  2
GENIUS_GENDTOL_13
 70
     0
  0
APPID
  5
359
330
9
100
AcDbSymbolTableRecord
100
AcDbRegAppTableRecord
  2
GENIUS_GENREC_14
 70
     0
  0
APPID
  5
35A
330
9
100
AcDbSymbolTableRecord
100
AcDbRegAppTableRecord
  2
GENIUS_GENODEF_13
 70
     0
  0
APPID
  5
35B
330
9
100
AcDbSymbolTableRecord
100
AcDbRegAppTableRecord
  2
GENIUS_GENOBJ-N-REC_13
 70
     0
  0
APPID
  5
667
330
9
100
AcDbSymbolTableRecord
100
AcDbRegAppTableRecord
  2
GENIUS_GENCFG_13
 70
     0
  0
APPID
  5
668
330
9
100
AcDbSymbolTableRecord
100
AcDbRegAppTableRecord
  2
GENIUS_GENCFG0_13
 70
     0
  0
APPID
  5
669
330
9
100
AcDbSymbolTableRecord
100
AcDbRegAppTableRecord
  2
GENIUS_GENCFG1_13
 70
     0
  0
APPID
  5
66A
330
9
100
AcDbSymbolTableRecord
100
AcDbRegAppTableRecord
  2
GENIUS_GENCFG2_13
 70
     0
  0
APPID
  5
66B
330
9
100
AcDbSymbolTableRecord
100
AcDbRegAppTableRecord
  2
GENIUS_GENCFG3_13
 70
     0
  0
APPID
  5
66C
330
9
100
AcDbSymbolTableRecord
100
AcDbRegAppTableRecord
  2
GENIUS_GENCFG4_13
 70
     0
  0
APPID
  5
A76
330
9
100
AcDbSymbolTableRecord
100
AcDbRegAppTableRecord
  2
GENIUS_GENBLLY_14
 70
     0
  0
APPID
  5
A77
330
9
100
AcDbSymbolTableRecord
100
AcDbRegAppTableRecord
  2
GENIUS_GENOBJ-N-CEN_13
 70
     0
  0
APPID
  5
A83
330
9
100
AcDbSymbolTableRecord
100
AcDbRegAppTableRecord
  2
GENIUS_GENTRA_14
 70
     0
  0
APPID
  5
A8D
330
9
100
AcDbSymbolTableRecord
100
AcDbRegAppTableRecord
  2
GENIUS_GENOBJ-N-TIT_13
 70
     0
  0
APPID
  5
A8E
330
9
100
AcDbSymbolTableRecord
100
AcDbRegAppTableRecord
  2
GENIUS_GENTITLE_13
 70
     0
  0
APPID
  5
A8F
330
9
100
AcDbSymbolTableRecord
100
AcDbRegAppTableRecord
  2
GENIUS_GENOENT_13
 70
     0
  0
APPID
  5
A90
330
9
100
AcDbSymbolTableRecord
100
AcDbRegAppTableRecord
  2
GENIUS_GENOREF_13
 70
     0
  0
APPID
  5
A91
330
9
100
AcDbSymbolTableRecord
100
AcDbRegAppTableRecord
  2
GENIUS_GENOLIS_13
 70
     0
  0
APPID
  5
A92
330
9
100
AcDbSymbolTableRecord
100
AcDbRegAppTableRecord
  2
GENIUS_GENZVEED_13
 70
     0
  0
APPID
  5
A93
330
9
100
AcDbSymbolTableRecord
100
AcDbRegAppTableRecord
  2
GENIUS_GENSCREG_15
 70
     0
  0
APPID
  5
A94
330
9
100
AcDbSymbolTableRecord
100
AcDbRegAppTableRecord
  2
GENIUS_GENOBJ-N-SDF_13
 70
     0
  0
APPID
  5
12B5
330
9
100
AcDbSymbolTableRecord
100
AcDbRegAppTableRecord
  2
GENIUS_GENOBJ-N-RSBK_13
 70
     0
  0
APPID
  5
12B6
330
9
100
AcDbSymbolTableRecord
100
AcDbRegAppTableRecord
  2
GENIUS_GENOBJ-N-LIB_13
 70
     0
  0
APPID
  5
12B7
330
9
100
AcDbSymbolTableRecord
100
AcDbRegAppTableRecord
  2
GENIUS_GENSCALE_13
 70
     0
  0
APPID
  5
12B8
330
9
100
AcDbSymbolTableRecord
100
AcDbRegAppTableRecord
  2
GENIUS_GENOBJ-N-HTC_13
 70
     0
  0
APPID
  5
12B9
330
9
100
AcDbSymbolTableRecord
100
AcDbRegAppTableRecord
  2
GENIUS_GENHATCH_13
 70
     0
  0
APPID
  5
1687
330
9
100
AcDbSymbolTableRecord
100
AcDbRegAppTableRecord
  2
BASE_TYPE
 70
     0
  0
APPID
  5
1ABF
330
9
100
AcDbSymbolTableRecord
100
AcDbRegAppTableRecord
  2
GENIUS_GENFIL_13
 70
     0
  0
APPID
  5
1AC0
330
9
100
AcDbSymbolTableRecord
100
AcDbRegAppTableRecord
  2
GENIUS_GENOBJ-N-CHA_13
 70
     0
  0
APPID
  5
1AE7
330
9
100
AcDbSymbolTableRecord
100
AcDbRegAppTableRecord
  2
GENIUS_GENOBJ-N-FIL_13
 70
     0
  0
APPID
  5
20E9
330
9
100
AcDbSymbolTableRecord
100
AcDbRegAppTableRecord
  2
GENIUS_GENDIMSH_14
 70
     0
  0
APPID
  5
19976
330
9
100
AcDbSymbolTableRecord
100
AcDbRegAppTableRecord
  2
AD_DRAW
 70
     0
  0
APPID
  5
19979
330
9
100
AcDbSymbolTableRecord
100
AcDbRegAppTableRecord
  2
ACATTRIBSERVICES
 70
     0
  0
APPID
  5
19997
330
9
100
AcDbSymbolTableRecord
100
AcDbRegAppTableRecord
  2
DESIGNERASSEMBLIES
 70
     0
  0
APPID
  5
199AA
330
9
100
AcDbSymbolTableRecord
100
AcDbRegAppTableRecord
  2
ACADM_DIM_EDIT
 70
     0
  0
APPID
  5
199AB
330
9
100
AcDbSymbolTableRecord
100
AcDbRegAppTableRecord
  2
AMDT_DM_ADJ
 70
     0
  0
APPID
  5
1B335
330
9
100
AcDbSymbolTableRecord
100
AcDbRegAppTableRecord
  2
ACAD_DSTYLE_DIMTEXT_FILL
 70
     0
  0
APPID
  5
1B336
330
9
100
AcDbSymbolTableRecord
100
AcDbRegAppTableRecord
  2
ACAD_PSEXT
 70
     0
  0
APPID
  5
1C012
330
9
100
AcDbSymbolTableRecord
100
AcDbRegAppTableRecord
  2
GENIUS_GENCEN_19
 70
     0
  0
ENDTAB
  0
TABLE
  2
DIMSTYLE
  5
A
330
0
100
AcDbSymbolTable
 70
    23
100
AcDbDimStyleTable
  0
DIMSTYLE
105
58
330
A
100
AcDbSymbolTableRecord
100
AcDbDimStyleTableRecord
  2
AM_JIS
 70
     0
  4
"
 41
2.5
 42
0.0
 43
10.0
 44
1.0
 47
0.1
 48
0.1000000001
 73
     0
 74
     0
 77
     3
 78
     1
 79
     2
140
3.8
141
0.0
143
0.0393701
146
0.71
147
1.5
172
     1
176
   256
177
   256
178
     2
179
     2
271
     3
272
     3
275
     1
283
     0
284
     8
340
11
341
59
342
59
371
    -1
372
    -1
  0
DIMSTYLE
105
5F
102
{ACAD_REACTORS
330
182F9
330
19019
102
}
330
A
100
AcDbSymbolTableRecord
100
AcDbDimStyleTableRecord
  2
AM_JIS$3
 70
     0
  4
"
 41
2.5
 42
0.0
 43
10.0
 44
1.0
 47
0.1
 48
0.1000000001
 73
     0
 77
     3
 78
     1
 79
     2
140
3.8
141
0.0
143
0.0393701
146
0.71
147
1.5
172
     1
176
   256
177
   256
178
     2
179
     2
271
     3
272
     3
275
     1
283
     0
284
     8
288
     1
289
     0
340
11
341
59
342
59
371
    -1
372
    -1
  0
DIMSTYLE
105
60
330
A
100
AcDbSymbolTableRecord
100
AcDbDimStyleTableRecord
  2
AM_JIS$4
 70
     0
  4
"
 41
2.5
 42
0.0
 43
10.0
 44
1.0
 47
0.1
 48
0.1000000001
 73
     0
 77
     3
 78
     1
 79
     2
140
3.8
141
0.0
143
0.0393701
146
0.71
147
1.5
172
     1
176
   256
177
   256
178
     2
179
     2
271
     3
272
     3
275
     1
283
     0
284
     8
288
     1
289
     0
340
11
341
59
342
59
371
    -1
372
    -1
  0
DIMSTYLE
105
61
330
A
100
AcDbSymbolTableRecord
100
AcDbDimStyleTableRecord
  2
AM_JIS$6
 70
     0
  4
"
 41
2.5
 42
0.0
 43
10.0
 44
1.0
 47
0.1
 48
0.1000000001
 73
     0
 74
     0
 78
     1
 79
     2
140
3.8
141
0.0
143
0.0393701
146
0.71
147
1.5
172
     1
176
   256
177
   256
178
     2
179
     2
271
     3
272
     3
275
     1
283
     0
284
     8
340
11
341
59
342
59
371
    -1
372
    -1
  0
DIMSTYLE
105
62
330
A
100
AcDbSymbolTableRecord
100
AcDbDimStyleTableRecord
  2
AM_JIS$7
 70
     0
  4
"
 41
2.5
 42
0.0
 43
10.0
 44
1.0
 47
0.1
 48
0.1000000001
 73
     0
 74
     0
 77
     3
 78
     1
 79
     2
140
5.0
141
0.0
143
0.0393701
146
0.71
147
1.5
172
     1
176
   256
177
   256
178
     2
179
     2
271
     3
272
     3
275
     1
283
     0
284
     8
340
11
341
59
342
59
371
    -1
372
    -1
  0
DIMSTYLE
105
63
330
A
100
AcDbSymbolTableRecord
100
AcDbDimStyleTableRecord
  2
AM_JIS$SF
 70
     0
  4
"
 41
2.5
 42
1.0
 43
10.0
 44
1.0
 47
0.1
 48
0.1
 73
     0
 74
     0
 75
     1
 76
     1
 77
     3
 78
     8
 79
     2
140
3.5
141
0.0
143
0.0393701
146
0.71
147
1.5
176
   256
177
   256
178
     2
271
     2
272
     3
274
     4
340
11
341
59
342
59
343
59
344
59
371
    -1
372
    -1
  0
DIMSTYLE
105
68
330
A
100
AcDbSymbolTableRecord
100
AcDbDimStyleTableRecord
  2
AM_JIS$SH
 70
     0
  4
"
 41
2.5
 42
1.0
 43
10.0
 44
1.0
 47
0.1
 48
0.1
 73
     0
 74
     0
 75
     1
 76
     1
 77
     3
 78
     8
 79
     2
140
3.5
141
0.0
143
0.0393701
144
2.0
146
0.71
147
1.5
173
     1
176
   256
177
   256
178
     2
271
     2
272
     3
274
     4
340
11
341
59
342
59
343
64
344
59
371
    -1
372
    -1
  0
DIMSTYLE
105
65F
330
A
100
AcDbSymbolTableRecord
100
AcDbDimStyleTableRecord
  2
STANDARD
 70
     0
340
11
  0
DIMSTYLE
105
1B97
102
{ACAD_REACTORS
330
F478
330
1FE82
330
1FE8A
330
1FE8F
102
}
330
A
100
AcDbSymbolTableRecord
100
AcDbDimStyleTableRecord
  2
AM_JIS$0
 70
     0
  4
"
 41
2.5
 42
0.0
 43
10.0
 44
1.0
 47
0.1
 48
0.1000000001
 73
     0
 74
     0
 77
     3
 78
     1
 79
     2
140
3.8
141
0.0
143
0.0393701
146
0.71
147
1.5
172
     1
176
     3
177
     3
178
     2
271
     3
272
     3
275
     1
283
     0
284
     8
289
     0
340
11
341
59
342
59
371
    13
372
    13
  0
DIMSTYLE
105
1B98
102
{ACAD_REACTORS
330
1960A
330
1FECF
102
}
330
A
100
AcDbSymbolTableRecord
100
AcDbDimStyleTableRecord
  2
AM_JIS$2
 70
     0
  4
"
 41
2.5
 42
0.0
 43
10.0
 44
1.0
 47
0.1
 48
0.1000000001
 73
     0
 74
     0
 77
     3
 78
     1
 79
     2
140
3.8
141
0.0
143
0.0393701
146
0.71
147
1.5
172
     1
176
     3
177
     3
178
     2
271
     3
272
     3
275
     1
283
     0
284
     8
289
     0
340
11
341
59
342
59
371
    13
372
    13
  0
DIMSTYLE
105
8841
330
A
100
AcDbSymbolTableRecord
100
AcDbDimStyleTableRecord
  2
AM_ANSI
 70
     0
  4
mm
 41
0.1
 42
0.05
 43
0.5
 44
0.1
 47
0.1
 48
0.1
 78
     7
 79
     2
140
0.12
141
0.0
146
0.71
147
0.06
176
   256
177
   256
178
     2
274
     4
340
11
371
    -1
372
    -1
  0
DIMSTYLE
105
8842
330
A
100
AcDbSymbolTableRecord
100
AcDbDimStyleTableRecord
  2
AM_ANSI$3
 70
     0
  4
mm
 41
0.1
 42
0.05
 43
0.5
 44
0.1
 47
0.1
 48
0.1
 78
     7
 79
     2
140
0.12
141
0.0
146
0.71
147
0.06
176
   256
177
   256
178
     2
274
     4
288
     1
289
     0
340
11
371
    -1
372
    -1
  0
DIMSTYLE
105
8843
330
A
100
AcDbSymbolTableRecord
100
AcDbDimStyleTableRecord
  2
AM_ANSI$4
 70
     0
  4
mm
 41
0.1
 42
0.05
 43
0.5
 44
0.1
 47
0.1
 48
0.1
 78
     7
 79
     2
140
0.12
141
0.0
146
0.71
147
0.06
176
   256
177
   256
178
     2
274
     4
288
     1
289
     0
340
11
371
    -1
372
    -1
  0
DIMSTYLE
105
8844
330
A
100
AcDbSymbolTableRecord
100
AcDbDimStyleTableRecord
  2
AM_ANSI$7
 70
     0
  4
mm
 41
0.1
 42
0.05
 43
0.5
 44
0.1
 47
0.1
 48
0.1
 78
     7
 79
     2
140
0.24
141
0.0
146
0.71
147
0.06
176
   256
177
   256
178
     2
274
     4
340
11
371
    -1
372
    -1
  0
DIMSTYLE
105
8845
330
A
100
AcDbSymbolTableRecord
100
AcDbDimStyleTableRecord
  2
AM_ANSI$SF
 70
     0
  4
mm
 41
0.1
 42
0.05
 43
0.5
 44
0.1
 47
0.1
 48
0.1
 75
     1
 76
     1
 78
     7
 79
     2
140
0.12
141
0.0
146
0.71
147
0.06
176
   256
177
   256
178
     2
274
     4
340
11
371
    -1
372
    -1
  0
DIMSTYLE
105
8846
330
A
100
AcDbSymbolTableRecord
100
AcDbDimStyleTableRecord
  2
AM_ANSI$SH
 70
     0
  4
mm
 41
0.1
 42
0.05
 43
0.5
 44
0.1
 47
0.1
 48
0.1
 75
     1
 76
     1
 78
     7
 79
     2
140
0.12
141
0.0
146
0.71
147
0.06
173
     1
176
   256
177
   256
178
     2
274
     4
340
11
343
64
371
    -1
372
    -1
  0
DIMSTYLE
105
1B32E
330
A
100
AcDbSymbolTableRecord
100
AcDbDimStyleTableRecord
  2
AM_ISO
 70
     0
  4
"
 41
2.5
 42
1.0
 43
10.0
 44
1.0
 47
0.1
 48
0.1
 73
     0
 74
     0
 77
     1
 78
     8
 79
     2
140
3.5
141
0.0
143
0.0393701
146
0.71
147
1.5
172
     1
176
   256
177
   256
178
     2
271
     2
272
     3
274
     4
283
     0
284
     8
340
11
371
    -1
372
    -1
  0
DIMSTYLE
105
1B32F
330
A
100
AcDbSymbolTableRecord
100
AcDbDimStyleTableRecord
  2
AM_ISO$3
 70
     0
  4
"
 41
2.5
 42
1.0
 43
10.0
 44
1.0
 47
0.1
 48
0.1
 73
     0
 77
     1
 78
     8
 79
     2
140
3.5
141
0.0
143
0.0393701
146
0.71
147
1.5
176
   256
177
   256
178
     2
271
     2
272
     3
274
     4
283
     0
284
     8
288
     1
289
     0
340
11
371
    -1
372
    -1
  0
DIMSTYLE
105
1B330
330
A
100
AcDbSymbolTableRecord
100
AcDbDimStyleTableRecord
  2
AM_ISO$4
 70
     0
  4
"
 41
2.5
 42
1.0
 43
10.0
 44
1.0
 47
0.1
 48
0.1
 73
     0
 77
     1
 78
     8
 79
     2
140
3.5
141
0.0
143
0.0393701
146
0.71
147
1.5
176
   256
177
   256
178
     2
271
     2
272
     3
274
     4
283
     0
284
     8
288
     1
289
     0
340
11
371
    -1
372
    -1
  0
DIMSTYLE
105
1B331
330
A
100
AcDbSymbolTableRecord
100
AcDbDimStyleTableRecord
  2
AM_ISO$6
 70
     0
  4
"
 41
2.5
 42
1.0
 43
10.0
 44
1.0
 47
0.1
 48
0.1
 73
     0
 74
     0
 78
     8
 79
     2
140
3.5
141
0.0
143
0.0393701
146
0.71
147
1.5
172
     1
176
   256
177
   256
178
     2
271
     2
272
     3
274
     4
283
     0
284
     8
340
11
371
    -1
372
    -1
  0
DIMSTYLE
105
1B332
330
A
100
AcDbSymbolTableRecord
100
AcDbDimStyleTableRecord
  2
AM_ISO$7
 70
     0
  4
"
 41
2.5
 42
1.0
 43
10.0
 44
1.0
 47
0.1
 48
0.1
 73
     0
 74
     0
 77
     1
 78
     8
 79
     2
140
5.0
141
0.0
143
0.0393701
146
0.71
147
1.5
172
     1
176
   256
177
   256
178
     2
271
     2
272
     3
274
     4
283
     0
284
     8
340
11
371
    -1
372
    -1
  0
DIMSTYLE
105
1B333
330
A
100
AcDbSymbolTableRecord
100
AcDbDimStyleTableRecord
  2
AM_ISO$SF
 70
     0
  4
"
 41
2.5
 42
1.0
 43
10.0
 44
1.0
 47
0.1
 48
0.1
 73
     0
 74
     0
 75
     1
 76
     1
 77
     1
 78
     8
 79
     2
140
3.5
141
0.0
143
0.0393701
146
0.71
147
1.5
172
     1
176
   256
177
   256
178
     2
271
     2
272
     3
274
     4
283
     0
284
     8
340
11
371
    -1
372
    -1
  0
DIMSTYLE
105
1B334
330
A
100
AcDbSymbolTableRecord
100
AcDbDimStyleTableRecord
  2
AM_ISO$SH
 70
     0
  4
"
 41
2.5
 42
1.0
 43
10.0
 44
1.0
 47
0.1
 48
0.1
 73
     0
 74
     0
 75
     1
 76
     1
 77
     1
 78
     8
 79
     2
140
3.5
141
0.0
143
0.0393701
144
2.0
146
0.71
147
1.5
172
     1
173
     1
176
   256
177
   256
178
     2
271
     2
272
     3
274
     4
283
     0
284
     8
340
11
343
64
371
    -1
372
    -1
  0
ENDTAB
  0
TABLE
  2
BLOCK_RECORD
  5
1
330
0
100
AcDbSymbolTable
 70
    38
  0
BLOCK_RECORD
  5
1F
102
{ACAD_XDICTIONARY
360
165
102
}
330
1
100
AcDbSymbolTableRecord
100
AcDbBlockTableRecord
  2
*Model_Space
340
22
  0
BLOCK_RECORD
  5
1B
330
1
100
AcDbSymbolTableRecord
100
AcDbBlockTableRecord
  2
*Paper_Space
340
1E
  0
BLOCK_RECORD
  5
23
330
1
100
AcDbSymbolTableRecord
100
AcDbBlockTableRecord
  2
*Paper_Space0
340
26
  0
BLOCK_RECORD
  5
59
330
1
100
AcDbSymbolTableRecord
100
AcDbBlockTableRecord
  2
_Open30
340
0
102
{BLKREFS
331
20E9B
331
20E9C
331
20EA6
331
20EA7
331
20EAF
331
20EB0
331
20EB8
331
20EB9
331
20EC3
331
20EC4
331
20ECC
331
20ECD
331
20ED5
331
20ED6
331
20EDE
331
20EDF
102
}
  0
BLOCK_RECORD
  5
64
330
1
100
AcDbSymbolTableRecord
100
AcDbBlockTableRecord
  2
GENAXEH
340
0
  0
BLOCK_RECORD
  5
F479
330
1
100
AcDbSymbolTableRecord
100
AcDbBlockTableRecord
  2
*D8
340
0
  0
BLOCK_RECORD
  5
182FA
330
1
100
AcDbSymbolTableRecord
100
AcDbBlockTableRecord
  2
*D12
340
0
  0
BLOCK_RECORD
  5
1901A
330
1
100
AcDbSymbolTableRecord
100
AcDbBlockTableRecord
  2
*D13
340
0
  0
BLOCK_RECORD
  5
1960B
330
1
100
AcDbSymbolTableRecord
100
AcDbBlockTableRecord
  2
*D17
340
0
  0
BLOCK_RECORD
  5
1D693
330
1
100
AcDbSymbolTableRecord
100
AcDbBlockTableRecord
  2
*U19
340
0
  0
BLOCK_RECORD
  5
20200
330
1
100
AcDbSymbolTableRecord
100
AcDbBlockTableRecord
  2
*D23
340
0
  0
BLOCK_RECORD
  5
20228
330
1
100
AcDbSymbolTableRecord
100
AcDbBlockTableRecord
  2
*D27
340
0
  0
BLOCK_RECORD
  5
2023C
330
1
100
AcDbSymbolTableRecord
100
AcDbBlockTableRecord
  2
*D29
340
0
  0
BLOCK_RECORD
  5
20265
330
1
100
AcDbSymbolTableRecord
100
AcDbBlockTableRecord
  2
*D30
340
0
  0
BLOCK_RECORD
  5
20EE7
102
{ACAD_XDICTIONARY
360
20EE8
102
}
330
1
100
AcDbSymbolTableRecord
100
AcDbBlockTableRecord
  2
A$C4828096E
340
0
102
{BLKREFS
331
20F12
102
}
  0
ENDTAB
  0
ENDSEC
  0
SECTION
  2
BLOCKS
  0
BLOCK
  5
20
330
1F
100
AcDbEntity
  8
0
100
AcDbBlockBegin
  2
*Model_Space
 70
     0
 71
     0
 10
0.0
 20
0.0
 30
0.0
  3
*Model_Space
  1

  0
ENDBLK
  5
21
330
1F
100
AcDbEntity
  8
0
100
AcDbBlockEnd
  0
BLOCK
  5
1C
330
1B
100
AcDbEntity
 67
     1
  8
0
100
AcDbBlockBegin
  2
*Paper_Space
 70
     0
 71
     0
 10
0.0
 20
0.0
 30
0.0
  3
*Paper_Space
  1

  0
ENDBLK
  5
1D
330
1B
100
AcDbEntity
 67
     1
  8
0
100
AcDbBlockEnd
  0
BLOCK
  5
24
330
23
100
AcDbEntity
  8
0
100
AcDbBlockBegin
  2
*Paper_Space0
 70
     0
 71
     0
 10
0.0
 20
0.0
 30
0.0
  3
*Paper_Space0
  1

  0
ENDBLK
  5
25
330
23
100
AcDbEntity
  8
0
100
AcDbBlockEnd
  0
BLOCK
  5
5D
330
59
100
AcDbEntity
  8
0
100
AcDbBlockBegin
  2
_Open30
 70
     0
 71
     0
 10
0.0
 20
0.0
 30
0.0
  3
_Open30
  1

  0
LINE
  5
5A
330
59
100
AcDbEntity
  8
0
 62
     0
370
    -2
100
AcDbLine
 10
-1.0
 20
0.26794919
 30
0.0
 11
0.0
 21
0.0
 31
0.0
  0
LINE
  5
5B
330
59
100
AcDbEntity
  8
0
 62
     0
370
    -2
100
AcDbLine
 10
0.0
 20
0.0
 30
0.0
 11
-1.0
 21
-0.26794919
 31
0.0
  0
LINE
  5
5C
330
59
100
AcDbEntity
  8
0
 62
     0
370
    -2
100
AcDbLine
 10
0.0
 20
0.0
 30
0.0
 11
-1.0
 21
0.0
 31
0.0
  0
ENDBLK
  5
5E
330
59
100
AcDbEntity
  8
0
100
AcDbBlockEnd
  0
BLOCK
  5
66
330
64
100
AcDbEntity
  8
0
100
AcDbBlockBegin
  2
GENAXEH
 70
     0
 71
     0
 10
0.0
 20
0.0
 30
0.0
  3
GENAXEH
  1

  0
LINE
  5
65
330
64
100
AcDbEntity
  8
0
100
AcDbLine
 10
-1.0
 20
0.0
 30
0.0
 11
1.0
 21
0.0
 31
0.0
  0
ENDBLK
  5
67
330
64
100
AcDbEntity
  8
0
100
AcDbBlockEnd
  0
BLOCK
  5
F484
330
F479
100
AcDbEntity
  8
0
100
AcDbBlockBegin
  2
*D8
 70
     1
 71
     0
 10
0.0
 20
0.0
 30
0.0
  3
*D8
  1

  0
LINE
  5
20E98
330
F479
100
AcDbEntity
  8
AM_5
 62
     3
370
    13
100
AcDbLine
 10
189.9344868956933
 20
8.062828956482917
 30
0.0
 11
189.9344868956933
 21
-15.42423705498899
 31
0.0
  0
LINE
  5
20E99
330
F479
100
AcDbEntity
  8
AM_5
 62
     3
370
    13
100
AcDbLine
 10
211.9344868956933
 20
8.062828956482974
 30
0.0
 11
211.9344868956933
 21
-15.42423705498899
 31
0.0
  0
LINE
  5
20E9A
330
F479
100
AcDbEntity
  8
AM_5
 62
     3
370
    13
100
AcDbLine
 10
192.4344868956933
 20
-14.42423705498899
 30
0.0
 11
209.4344868956933
 21
-14.42423705498899
 31
0.0
  0
INSERT
  5
20E9B
330
F479
100
AcDbEntity
  8
AM_5
 62
     3
370
    13
100
AcDbBlockReference
  2
_Open30
 10
189.9344868956933
 20
-14.42423705498899
 30
0.0
 41
2.5
 42
2.5
 43
2.5
 50
180.0
  0
INSERT
  5
20E9C
330
F479
100
AcDbEntity
  8
AM_5
 62
     3
370
    13
100
AcDbBlockReference
  2
_Open30
 10
211.9344868956933
 20
-14.42423705498899
 30
0.0
 41
2.5
 42
2.5
 43
2.5
  0
MTEXT
  5
20E9D
330
F479
100
AcDbEntity
  8
AM_5
 62
     2
100
AcDbMText
 10
200.9344868956933
 20
-11.02386303924096
 30
0.0
 40
3.8
 41
0.0
 71
     5
 72
     1
  1
22
 73
     1
 44
1.0
  0
POINT
  5
20E9E
330
F479
100
AcDbEntity
  8
Defpoints
 62
     0
100
AcDbPoint
 10
189.9344868956933
 20
8.062828956482917
 30
0.0
  0
POINT
  5
20E9F
330
F479
100
AcDbEntity
  8
Defpoints
 62
     0
100
AcDbPoint
 10
211.9344868956933
 20
8.062828956482974
 30
0.0
  0
POINT
  5
20EA0
330
F479
100
AcDbEntity
  8
Defpoints
 62
     0
100
AcDbPoint
 10
211.9344868956933
 20
-14.42423705498899
 30
0.0
  0
ENDBLK
  5
F485
330
F479
100
AcDbEntity
  8
0
100
AcDbBlockEnd
  0
BLOCK
  5
18303
330
182FA
100
AcDbEntity
  8
0
100
AcDbBlockBegin
  2
*D12
 70
     1
 71
     0
 10
0.0
 20
0.0
 30
0.0
  3
*D12
  1

  0
LINE
  5
20EA1
330
182FA
100
AcDbEntity
  8
AM_5
100
AcDbLine
 10
-127.4798322540939
 20
32.71923531133173
 30
0.0
 11
-92.72983225409391
 21
32.71923531133174
 31
0.0
  0
LINE
  5
20EA2
330
182FA
100
AcDbEntity
  8
AM_5
100
AcDbLine
 10
-92.72983225409391
 20
32.71923531133174
 30
0.0
 11
-85.01913010361994
 21
25.44644057935064
 31
0.0
  0
LINE
  5
20EA3
330
182FA
100
AcDbEntity
  8
AM_5
100
AcDbLine
 10
-61.01288231615654
 20
2.80355942065291
 30
0.0
 11
-59.19422718074264
 21
1.088189635903081
 31
0.0
  0
MTEXT
  5
20EA4
330
182FA
100
AcDbEntity
  8
AM_5
 62
     2
100
AcDbMText
 10
-111.9948322540939
 20
36.11960932707978
 30
0.0
 40
3.8
 41
0.0
 71
     5
 72
     1
  1
最小加工径\U+220528
 73
     1
 44
1.0
  0
LINE
  5
20EA5
330
182FA
100
AcDbEntity
  8
AM_5
100
AcDbLine
 10
-62.83153745157043
 20
4.518929205402738
 30
0.0
 11
-83.20047496820605
 21
23.73107079460081
 31
0.0
  0
INSERT
  5
20EA6
330
182FA
100
AcDbEntity
  8
AM_5
100
AcDbBlockReference
  2
_Open30
 10
-62.83153745157043
 20
4.518929205402738
 30
0.0
 41
2.5
 42
2.5
 43
2.5
 50
136.6740489268902
  0
INSERT
  5
20EA7
330
182FA
100
AcDbEntity
  8
AM_5
100
AcDbBlockReference
  2
_Open30
 10
-83.20047496820605
 20
23.73107079460081
 30
0.0
 41
2.5
 42
2.5
 43
2.5
 50
316.6740489268901
  0
POINT
  5
20EA8
330
182FA
100
AcDbEntity
  8
Defpoints
 62
     0
100
AcDbPoint
 10
-83.20047496820605
 20
23.73107079460081
 30
0.0
  0
POINT
  5
20EA9
330
182FA
100
AcDbEntity
  8
Defpoints
 62
     0
100
AcDbPoint
 10
-62.83153745157043
 20
4.518929205402738
 30
0.0
  0
ENDBLK
  5
18304
330
182FA
100
AcDbEntity
  8
0
100
AcDbBlockEnd
  0
BLOCK
  5
19023
330
1901A
100
AcDbEntity
  8
0
100
AcDbBlockBegin
  2
*D13
 70
     1
 71
     0
 10
0.0
 20
0.0
 30
0.0
  3
*D13
  1

  0
LINE
  5
20EAA
330
1901A
100
AcDbEntity
  8
AM_5
100
AcDbLine
 10
229.2423635040716
 20
34.38147886173536
 30
0.0
 11
219.9849623503698
 21
34.38147886173535
 31
0.0
  0
LINE
  5
20EAB
330
1901A
100
AcDbEntity
  8
AM_5
100
AcDbLine
 10
219.9849623503698
 20
34.38147886173535
 30
0.0
 11
211.1772353088764
 21
24.95838058037202
 31
0.0
  0
LINE
  5
20EAC
330
1901A
100
AcDbEntity
  8
AM_5
100
AcDbLine
 10
190.6917384825104
 20
3.041619419631786
 30
0.0
 11
188.9846137469799
 21
1.215222656236747
 31
0.0
  0
MTEXT
  5
20EAD
330
1901A
100
AcDbEntity
  8
AM_5
 62
     2
100
AcDbMText
 10
225.3636629272207
 20
37.78185287748339
 30
0.0
 40
3.8
 41
0.0
 71
     5
 72
     1
  1
\U+220525
 73
     1
 44
1.0
  0
LINE
  5
20EAE
330
1901A
100
AcDbEntity
  8
AM_5
100
AcDbLine
 10
192.3988632180409
 20
4.868016183026811
 30
0.0
 11
209.4701105733459
 21
23.13198381697698
 31
0.0
  0
INSERT
  5
20EAF
330
1901A
100
AcDbEntity
  8
AM_5
100
AcDbBlockReference
  2
_Open30
 10
192.3988632180409
 20
4.868016183026811
 30
0.0
 41
2.5
 42
2.5
 43
2.5
 50
46.93325276242423
  0
INSERT
  5
20EB0
330
1901A
100
AcDbEntity
  8
AM_5
100
AcDbBlockReference
  2
_Open30
 10
209.4701105733459
 20
23.13198381697698
 30
0.0
 41
2.5
 42
2.5
 43
2.5
 50
226.9332527624242
  0
POINT
  5
20EB1
330
1901A
100
AcDbEntity
  8
Defpoints
 62
     0
100
AcDbPoint
 10
209.4701105733459
 20
23.13198381697698
 30
0.0
  0
POINT
  5
20EB2
330
1901A
100
AcDbEntity
  8
Defpoints
 62
     0
100
AcDbPoint
 10
192.3988632180409
 20
4.868016183026811
 30
0.0
  0
ENDBLK
  5
19024
330
1901A
100
AcDbEntity
  8
0
100
AcDbBlockEnd
  0
BLOCK
  5
19619
330
1960B
100
AcDbEntity
  8
0
100
AcDbBlockBegin
  2
*D17
 70
     1
 71
     0
 10
0.0
 20
0.0
 30
0.0
  3
*D17
  1

  0
LINE
  5
20EB3
330
1960B
100
AcDbEntity
  8
AM_5
 62
     3
370
    13
100
AcDbLine
 10
-73.01600620988644
 20
0.0626107949745673
 30
0.0
 11
-73.47358561790873
 21
-15.02125625627605
 31
0.0
  0
LINE
  5
20EB4
330
1960B
100
AcDbEntity
  8
AM_5
 62
     3
370
    13
100
AcDbLine
 10
-73.01600620988643
 20
-2.075659642478151
 30
0.0
 11
-73.01600620988644
 21
-15.02819515217252
 31
0.0
  0
ARC
  5
20EB5
330
1960B
100
AcDbEntity
  8
AM_5
 62
     3
370
    13
100
AcDbCircle
 10
-73.01600620988644
 20
0.0626107949745673
 30
0.0
 40
14.09080594714709
100
AcDbArc
 50
247.9047563478156
 51
258.0835913100864
  0
ARC
  5
20EB6
330
1960B
100
AcDbEntity
  8
AM_5
 62
     3
370
    13
100
AcDbCircle
 10
-73.01600620988644
 20
0.0626107949745673
 30
0.0
 40
14.09080594714709
100
AcDbArc
 50
280.1788349622707
 51
290.3576699245416
  0
ARC
  5
20EB7
330
1960B
100
AcDbEntity
  8
AM_5
 62
     3
370
    13
100
AcDbCircle
 10
-73.01600620988644
 20
0.0626107949745673
 30
0.0
 40
14.09080594714709
100
AcDbArc
 50
268.2624262723572
 51
270.0
  0
INSERT
  5
20EB8
330
1960B
100
AcDbEntity
  8
AM_5
 62
     3
370
    13
100
AcDbBlockReference
  2
_Open30
 10
-73.44326388362728
 20
-14.02171606577335
 30
0.0
 41
2.5
 42
2.5
 43
2.5
 50
353.1730087912218
  0
INSERT
  5
20EB9
330
1960B
100
AcDbEntity
  8
AM_5
 62
     3
370
    13
100
AcDbBlockReference
  2
_Open30
 10
-73.01600620988644
 20
-14.02819515217252
 30
0.0
 41
2.5
 42
2.5
 43
2.5
 50
185.0894174811354
  0
MTEXT
  5
20EBA
330
1960B
100
AcDbEntity
  8
AM_5
 62
     2
100
AcDbMText
 10
-66.38181236754279
 20
-9.968892077060705
 30
0.0
 40
3.8
 41
0.0
 71
     5
 72
     1
  1
-2°
 73
     1
 44
1.0
  0
POINT
  5
20EBB
330
1960B
100
AcDbEntity
  8
Defpoints
 62
     0
100
AcDbPoint
 10
-73.30086891698041
 20
-14.02531543560539
 30
0.0
  0
POINT
  5
20EBC
330
1960B
100
AcDbEntity
  8
Defpoints
 62
     0
100
AcDbPoint
 10
-73.01600620988643
 20
-2.075659642478151
 30
0.0
  0
POINT
  5
20EBD
330
1960B
100
AcDbEntity
  8
Defpoints
 62
     0
100
AcDbPoint
 10
-73.00138670564367
 20
0.5445351440316983
 30
0.0
  0
POINT
  5
20EBE
330
1960B
100
AcDbEntity
  8
Defpoints
 62
     0
100
AcDbPoint
 10
-72.5437877193574
 20
15.62904758256511
 30
0.0
  0
POINT
  5
20EBF
330
1960B
100
AcDbEntity
  8
Defpoints
 62
     0
100
AcDbPoint
 10
-73.01600620988643
 20
30.47866351642642
 30
0.0
  0
ENDBLK
  5
1961A
330
1960B
100
AcDbEntity
  8
0
100
AcDbBlockEnd
  0
BLOCK
  5
1D694
330
1D693
100
AcDbEntity
  8
0
100
AcDbBlockBegin
  2
*U19
 70
     1
 71
     0
 10
0.0
 20
0.0
 30
0.0
  3
*U19
  1

  0
ENDBLK
  5
1D695
330
1D693
100
AcDbEntity
  8
0
100
AcDbBlockEnd
  0
BLOCK
  5
20418
330
20200
100
AcDbEntity
  8
0
100
AcDbBlockBegin
  2
*D23
 70
     1
 71
     0
 10
0.0
 20
0.0
 30
0.0
  3
*D23
  1

  0
LINE
  5
20EC0
330
20200
100
AcDbEntity
  8
AM_5
 62
     3
370
    13
100
AcDbLine
 10
0.0000000000002842
 20
-1.778417165342233
 30
0.0
 11
0.0000000000002818
 21
-41.26539073156172
 31
0.0
  0
LINE
  5
20EC1
330
20200
100
AcDbEntity
  8
AM_5
 62
     3
370
    13
100
AcDbLine
 10
300.0000000000003
 20
2.500000000001847
 30
0.0
 11
300.0000000000003
 21
-41.26539073156172
 31
0.0
  0
LINE
  5
20EC2
330
20200
100
AcDbEntity
  8
AM_5
 62
     3
370
    13
100
AcDbLine
 10
2.500000000000282
 20
-40.26539073156172
 30
0.0
 11
297.5000000000003
 21
-40.26539073156172
 31
0.0
  0
INSERT
  5
20EC3
330
20200
100
AcDbEntity
  8
AM_5
 62
     3
370
    13
100
AcDbBlockReference
  2
_Open30
 10
0.0000000000002819
 20
-40.26539073156172
 30
0.0
 41
2.5
 42
2.5
 43
2.5
 50
180.0
  0
INSERT
  5
20EC4
330
20200
100
AcDbEntity
  8
AM_5
 62
     3
370
    13
100
AcDbBlockReference
  2
_Open30
 10
300.0000000000003
 20
-40.26539073156172
 30
0.0
 41
2.5
 42
2.5
 43
2.5
  0
MTEXT
  5
20EC5
330
20200
100
AcDbEntity
  8
AM_5
 62
     2
100
AcDbMText
 10
150.0000000000003
 20
-36.86539073156173
 30
0.0
 40
3.8
 41
0.0
 71
     5
 72
     1
  1
300
 73
     1
 44
1.0
  0
POINT
  5
20EC6
330
20200
100
AcDbEntity
  8
Defpoints
 62
     0
100
AcDbPoint
 10
0.0000000000002842
 20
-1.778417165342233
 30
0.0
  0
POINT
  5
20EC7
330
20200
100
AcDbEntity
  8
Defpoints
 62
     0
100
AcDbPoint
 10
300.0000000000003
 20
2.500000000001847
 30
0.0
  0
POINT
  5
20EC8
330
20200
100
AcDbEntity
  8
Defpoints
 62
     0
100
AcDbPoint
 10
300.0000000000003
 20
-40.26539073156172
 30
0.0
  0
ENDBLK
  5
20419
330
20200
100
AcDbEntity
  8
0
100
AcDbBlockEnd
  0
BLOCK
  5
20420
330
20228
100
AcDbEntity
  8
0
100
AcDbBlockBegin
  2
*D27
 70
     1
 71
     0
 10
0.0
 20
0.0
 30
0.0
  3
*D27
  1

  0
LINE
  5
20EC9
330
20228
100
AcDbEntity
  8
AM_5
 62
     3
370
    13
100
AcDbLine
 10
-2.165548451965606
 20
14.00000000000003
 30
0.0
 11
-30.49746141340551
 21
14.00000000000004
 31
0.0
  0
LINE
  5
20ECA
330
20228
100
AcDbEntity
  8
AM_5
 62
     3
370
    13
100
AcDbLine
 10
0.0
 20
0.0
 30
0.0
 11
-30.49746141340552
 21
0.0000000000000086
 31
0.0
  0
LINE
  5
20ECB
330
20228
100
AcDbEntity
  8
AM_5
 62
     3
370
    13
100
AcDbLine
 10
-29.49746141340551
 20
11.50000000000004
 30
0.0
 11
-29.49746141340552
 21
2.500000000000008
 31
0.0
  0
INSERT
  5
20ECC
330
20228
100
AcDbEntity
  8
AM_5
 62
     3
370
    13
100
AcDbBlockReference
  2
_Open30
 10
-29.49746141340551
 20
14.00000000000004
 30
0.0
 41
2.5
 42
2.5
 43
2.5
 50
90.0
  0
INSERT
  5
20ECD
330
20228
100
AcDbEntity
  8
AM_5
 62
     3
370
    13
100
AcDbBlockReference
  2
_Open30
 10
-29.49746141340552
 20
0.0000000000000084
 30
0.0
 41
2.5
 42
2.5
 43
2.5
 50
270.0
  0
MTEXT
  5
20ECE
330
20228
100
AcDbEntity
  8
AM_5
 62
     2
100
AcDbMText
 10
-32.89746141340552
 20
7.000000000000028
 30
0.0
 40
3.8
 41
0.0
 71
     5
 72
     1
  1
14
 11
6.123031769111886E-17
 21
1.0
 31
0.0
 73
     1
 44
1.0
  0
POINT
  5
20ECF
330
20228
100
AcDbEntity
  8
Defpoints
 62
     0
100
AcDbPoint
 10
-2.165548451965606
 20
14.00000000000003
 30
0.0
  0
POINT
  5
20ED0
330
20228
100
AcDbEntity
  8
Defpoints
 62
     0
100
AcDbPoint
 10
0.0
 20
0.0
 30
0.0
  0
POINT
  5
20ED1
330
20228
100
AcDbEntity
  8
Defpoints
 62
     0
100
AcDbPoint
 10
-29.49746141340552
 20
0.0000000000000084
 30
0.0
  0
ENDBLK
  5
20421
330
20228
100
AcDbEntity
  8
0
100
AcDbBlockEnd
  0
BLOCK
  5
20424
330
2023C
100
AcDbEntity
  8
0
100
AcDbBlockBegin
  2
*D29
 70
     1
 71
     0
 10
0.0
 20
0.0
 30
0.0
  3
*D29
  1

  0
LINE
  5
20ED2
330
2023C
100
AcDbEntity
  8
AM_5
 62
     3
370
    13
100
AcDbLine
 10
18.00000000000023
 20
-103.4039355096944
 30
0.0
 11
18.00000000000023
 21
-116.6831188924111
 31
0.0
  0
LINE
  5
20ED3
330
2023C
100
AcDbEntity
  8
AM_5
 62
     3
370
    13
100
AcDbLine
 10
0.0000000000002842
 20
-91.15393550969461
 30
0.0
 11
0.0000000000002827
 21
-116.6831188924111
 31
0.0
  0
LINE
  5
20ED4
330
2023C
100
AcDbEntity
  8
AM_5
 62
     3
370
    13
100
AcDbLine
 10
15.50000000000023
 20
-115.6831188924111
 30
0.0
 11
2.500000000000283
 21
-115.6831188924111
 31
0.0
  0
INSERT
  5
20ED5
330
2023C
100
AcDbEntity
  8
AM_5
 62
     3
370
    13
100
AcDbBlockReference
  2
_Open30
 10
18.00000000000023
 20
-115.6831188924111
 30
0.0
 41
2.5
 42
2.5
 43
2.5
  0
INSERT
  5
20ED6
330
2023C
100
AcDbEntity
  8
AM_5
 62
     3
370
    13
100
AcDbBlockReference
  2
_Open30
 10
0.0000000000002827
 20
-115.6831188924111
 30
0.0
 41
2.5
 42
2.5
 43
2.5
 50
180.0
  0
MTEXT
  5
20ED7
330
2023C
100
AcDbEntity
  8
AM_5
 62
     2
100
AcDbMText
 10
9.000000000000256
 20
-112.2831188924111
 30
0.0
 40
3.8
 41
0.0
 71
     5
 72
     1
  1
18
 73
     1
 44
1.0
  0
POINT
  5
20ED8
330
2023C
100
AcDbEntity
  8
Defpoints
 62
     0
100
AcDbPoint
 10
18.00000000000023
 20
-103.4039355096944
 30
0.0
  0
POINT
  5
20ED9
330
2023C
100
AcDbEntity
  8
Defpoints
 62
     0
100
AcDbPoint
 10
0.0000000000002842
 20
-91.15393550969461
 30
0.0
  0
POINT
  5
20EDA
330
2023C
100
AcDbEntity
  8
Defpoints
 62
     0
100
AcDbPoint
 10
0.0000000000002827
 20
-115.6831188924111
 30
0.0
  0
ENDBLK
  5
20425
330
2023C
100
AcDbEntity
  8
0
100
AcDbBlockEnd
  0
BLOCK
  5
2042C
330
20265
100
AcDbEntity
  8
0
100
AcDbBlockBegin
  2
*D30
 70
     1
 71
     0
 10
0.0
 20
0.0
 30
0.0
  3
*D30
  1

  0
LINE
  5
20EDB
330
20265
100
AcDbEntity
  8
AM_5
 62
     3
370
    13
100
AcDbLine
 10
0.7910955759471667
 20
15.50404758256559
 30
0.0
 11
1.114003680152466
 21
21.66550125648172
 31
0.0
  0
LINE
  5
20EDC
330
20265
100
AcDbEntity
  8
AM_5
 62
     3
370
    13
100
AcDbLine
 10
-4.235809870202218
 20
0.0
 30
0.0
 11
-21.71667094817774
 21
-0.0000000000000018
 31
0.0
  0
ARC
  5
20EDD
330
20265
100
AcDbEntity
  8
AM_5
 62
     3
370
    13
100
AcDbCircle
 10
-0.0214371277537349
 20
0.0
 30
0.0
 40
20.69523382042401
100
AcDbArc
 50
93.92558913913831
 51
173.0744108608616
  0
INSERT
  5
20EDE
330
20265
100
AcDbEntity
  8
AM_5
 62
     3
370
    13
100
AcDbBlockReference
  2
_Open30
 10
1.061667723909519
 20
20.66687172172715
 30
0.0
 41
2.5
 42
2.5
 43
2.5
 50
0.4627945695690774
  0
INSERT
  5
20EDF
330
20265
100
AcDbEntity
  8
AM_5
 62
     3
370
    13
100
AcDbBlockReference
  2
_Open30
 10
-20.71667094817774
 20
-0.0000000000000018
 30
0.0
 41
2.5
 42
2.5
 43
2.5
 50
266.5372054304307
  0
MTEXT
  5
20EE0
330
20265
100
AcDbEntity
  8
AM_5
 62
     2
100
AcDbMText
 10
-14.86133419410632
 20
18.98309110553296
 30
0.0
 40
3.8
 41
0.0
 71
     5
 72
     1
  1
93°
 11
0.7878359366424661
 21
0.6158851653796251
 31
0.0
 73
     1
 44
1.0
  0
POINT
  5
20EE1
330
20265
100
AcDbEntity
  8
Defpoints
 62
     0
100
AcDbPoint
 10
-17.76071483900564
 20
10.65883338668464
 30
0.0
  0
POINT
  5
20EE2
330
20265
100
AcDbEntity
  8
Defpoints
 62
     0
100
AcDbPoint
 10
0.3972656262079113
 20
0.0
 30
0.0
  0
POINT
  5
20EE3
330
20265
100
AcDbEntity
  8
Defpoints
 62
     0
100
AcDbPoint
 10
0.0005497774761807
 20
0.4195351440321247
 30
0.0
  0
POINT
  5
20EE4
330
20265
100
AcDbEntity
  8
Defpoints
 62
     0
100
AcDbPoint
 10
0.7910955759471667
 20
15.50404758256559
 30
0.0
  0
POINT
  5
20EE5
330
20265
100
AcDbEntity
  8
Defpoints
 62
     0
100
AcDbPoint
 10
-4.235809870202218
 20
0.0
 30
0.0
  0
ENDBLK
  5
2042D
330
20265
100
AcDbEntity
  8
0
100
AcDbBlockEnd
  0
BLOCK
  5
20EEA
330
20EE7
100
AcDbEntity
  8
0
370
    13
100
AcDbBlockBegin
  2
A$C4828096E
 70
     0
 71
     0
 10
0.0
 20
0.0
 30
0.0
  3
A$C4828096E
  1

  0
LINE
  5
20EEB
330
20EE7
100
AcDbEntity
  8
AM_5
100
AcDbLine
 10
-0.0000001351605761
 20
-0.0000002982438616
 30
0.0
 11
1.772890097231255
 21
6.616597031493654
 31
0.0
  0
LINE
  5
20EEC
330
20EE7
100
AcDbEntity
  8
AM_5
100
AcDbLine
 10
1.772890097231255
 20
6.616597031493654
 30
0.0
 11
2.588160788039147
 21
9.659265876555438
 31
0.0
  0
LINE
  5
20EED
330
20EE7
100
AcDbEntity
  8
AM_5
100
AcDbLine
 10
2.17346504822774
 20
6.509264609317881
 30
0.0
 11
2.588160788039147
 21
9.659265876555438
 31
0.0
  0
LINE
  5
20EEE
330
20EE7
100
AcDbEntity
  8
AM_5
100
AcDbLine
 10
2.588160788039147
 20
9.659265876555438
 30
0.0
 11
1.37231514623474
 21
6.723929453669427
 31
0.0
  0
ENDBLK
  5
20EEF
330
20EE7
100
AcDbEntity
  8
0
370
    13
100
AcDbBlockEnd
  0
ENDSEC
  0
SECTION
  2
ENTITIES
  0
LINE
  5
EF21
330
1F
100
AcDbEntity
  8
AM_7
  6
CENTER
100
AcDbLine
 10
308.0517032733203
 20
14.0
 30
0.0
 11
-2.165548451965606
 21
14.0
 31
0.0
1001
GENIUS_GENODEF_13
1002
{
1000
HIER
1070
     0
1002
}
1002
{
1000
MANEDIT
1070
     0
1002
}
1002
{
1000
NOSEL
1070
     0
1002
}
1002
{
1000
BEHIND
1070
     0
1002
}
1002
{
1000
REACTOR
1002
}
1001
GENIUS_GENOBJ-N-CEN_13
1002
{
1000
OWNER
1000
GEN
1002
}
  0
DIMENSION
  5
F478
330
1F
100
AcDbEntity
  8
AM_5
100
AcDbDimension
  2
*D8
 10
211.9344868956933
 20
-14.42423705498899
 30
0.0
 11
200.9344868956933
 21
-14.42423705498899
 31
0.0
 70
   160
  1
<>
 71
     5
 42
22.0
  3
AM_JIS$0
100
AcDbAlignedDimension
 13
189.9344868956933
 23
8.062828956482917
 33
0.0
 14
211.9344868956933
 24
8.062828956482974
 34
0.0
100
AcDbRotatedDimension
1001
GENIUS_GENDTOL_13
1000

1000
h7
1000

1040
0.0
1001
ACAD
1000
DSTYLE
1002
{
1070
   271
1070
     0
1002
}
  0
LINE
  5
15AD4
330
1F
100
AcDbEntity
  8
AM_7
  6
CENTER
100
AcDbLine
 10
-57.40940589959166
 20
13.99999999999997
 30
0.0
 11
-88.71940548730947
 21
13.99999999999997
 31
0.0
1001
GENIUS_GENODEF_13
1002
{
1000
HIER
1070
     0
1002
}
1002
{
1000
MANEDIT
1070
     0
1002
}
1002
{
1000
NOSEL
1070
     0
1002
}
1002
{
1000
BEHIND
1070
     0
1002
}
1002
{
1000
REACTOR
1002
}
1001
GENIUS_GENOBJ-N-CEN_13
1002
{
1000
OWNER
1000
GEN
1002
}
  0
LINE
  5
15ADA
330
1F
100
AcDbEntity
  8
AM_7
  6
CENTER
100
AcDbLine
 10
-73.01600620988643
 20
-2.075659642478144
 30
0.0
 11
-73.01600620988643
 21
30.47866351642642
 31
0.0
1001
GENIUS_GENODEF_13
1002
{
1000
HIER
1070
     0
1002
}
1002
{
1000
MANEDIT
1070
     0
1002
}
1002
{
1000
NOSEL
1070
     0
1002
}
1002
{
1000
BEHIND
1070
     0
1002
}
1002
{
1000
REACTOR
1002
}
1001
GENIUS_GENOBJ-N-CEN_13
1002
{
1000
OWNER
1000
GEN
1002
}
  0
LINE
  5
17A02
330
1F
100
AcDbEntity
  8
AM_0
  6
Continuous
370
    30
100
AcDbLine
 10
300.0000000000004
 20
2.500000000001847
 30
0.0
 11
299.0000000000004
 21
1.500000000001847
 31
0.0
  0
LINE
  5
17A03
330
1F
100
AcDbEntity
  8
AM_0
  6
Continuous
370
    30
100
AcDbLine
 10
300.0000000000004
 20
25.50000000000196
 30
0.0
 11
299.0000000000004
 21
26.50000000000196
 31
0.0
  0
LINE
  5
17A10
330
1F
100
AcDbEntity
  8
AM_0
  6
Continuous
370
    30
100
AcDbLine
 10
300.0000000000004
 20
2.500000000001847
 30
0.0
 11
300.0000000000004
 21
10.64589803375205
 31
0.0
  0
LINE
  5
17A11
330
1F
100
AcDbEntity
  8
AM_0
  6
Continuous
370
    30
100
AcDbLine
 10
300.0000000000004
 20
17.35410196625182
 30
0.0
 11
300.0000000000004
 21
25.50000000000202
 31
0.0
  0
LINE
  5
17A28
330
1F
100
AcDbEntity
  8
AM_0
  6
Continuous
370
    30
100
AcDbLine
 10
299.0000000000004
 20
1.500000000001847
 30
0.0
 11
299.0000000000004
 21
8.062828956482832
 31
0.0
  0
SPLINE
  5
17A36
330
1F
100
AcDbEntity
  8
AM_0
  6
Continuous
370
    30
100
AcDbSpline
210
0.0
220
0.0
230
1.0
 70
    12
 71
     2
 72
     6
 73
     3
 74
     0
 42
0.0000000001
 43
0.0000000001
 40
0.0
 40
0.0
 40
0.0
 40
2.772088972064008
 40
2.772088972064008
 40
2.772088972064008
 10
300.0000000000004
 20
17.35410196625182
 30
0.0
 41
1.0
 10
299.6390051220408
 20
18.59182256577665
 30
0.0
 41
1.005842689606712
 10
299.0000000000004
 20
19.93717104352098
 30
0.0
 41
1.0
  0
LINE
  5
17A37
330
1F
100
AcDbEntity
  8
AM_0
  6
Continuous
370
    30
100
AcDbLine
 10
300.0000000000003
 20
10.64589803375205
 30
0.0
 11
300.0000000000003
 21
17.35410196625182
 31
0.0
  0
SPLINE
  5
17A38
330
1F
100
AcDbEntity
  8
AM_0
  6
Continuous
370
    30
100
AcDbSpline
210
0.0
220
0.0
230
1.0
 70
    12
 71
     2
 72
     6
 73
     3
 74
     0
 42
0.0000000001
 43
0.0000000001
 40
0.0
 40
0.0
 40
0.0
 40
2.772088972064008
 40
2.772088972064008
 40
2.772088972064008
 10
299.0000000000004
 20
8.062828956482832
 30
0.0
 41
1.0
 10
299.6390051220408
 20
9.408177434226502
 30
0.0
 41
1.005842689606712
 10
300.0000000000004
 20
10.64589803375205
 30
0.0
 41
1.0
  0
LINE
  5
17A45
330
1F
100
AcDbEntity
  8
AM_0
  6
Continuous
370
    30
100
AcDbLine
 10
299.0000000000004
 20
19.93717104352098
 30
0.0
 11
299.0000000000004
 21
26.50000000000196
 31
0.0
  0
LINE
  5
17A46
330
1F
100
AcDbEntity
  8
AM_0
  6
Continuous
370
    30
100
AcDbLine
 10
299.0000000000003
 20
19.93717104352089
 30
0.0
 11
216.9344868956933
 21
19.93717104352089
 31
0.0
  0
LINE
  5
17CAE
330
1F
100
AcDbEntity
  8
AM_0
  6
Continuous
370
    30
100
AcDbLine
 10
216.9344868956933
 20
1.500000000001876
 30
0.0
 11
299.0000000000003
 21
1.500000000001876
 31
0.0
  0
LINE
  5
17CAF
330
1F
100
AcDbEntity
  8
AM_0
  6
Continuous
370
    30
100
AcDbLine
 10
216.9344868956933
 20
8.062828956482861
 30
0.0
 11
299.0000000000003
 21
8.062828956482861
 31
0.0
  0
LINE
  5
17CB1
330
1F
100
AcDbEntity
  8
AM_0
  6
Continuous
370
    30
100
AcDbLine
 10
216.9344868956933
 20
26.50000000000193
 30
0.0
 11
299.0000000000003
 21
26.50000000000193
 31
0.0
  0
ARC
  5
17CBA
330
1F
100
AcDbEntity
  8
AM_0
  6
Continuous
370
    30
100
AcDbCircle
 10
200.9344868956933
 20
14.00000000000193
 30
0.0
 40
12.5
100
AcDbArc
 50
208.357636576328
 51
331.642363423672
  0
LINE
  5
17CD6
330
1F
100
AcDbEntity
  8
AM_0
  6
Continuous
370
    30
100
AcDbLine
 10
211.9344868956933
 20
19.93717104352089
 30
0.0
 11
211.9344868956933
 21
8.062828956482974
 31
0.0
  0
LINE
  5
17CD7
330
1F
100
AcDbEntity
  8
AM_0
  6
Continuous
370
    30
100
AcDbLine
 10
189.9344868956933
 20
19.93717104352089
 30
0.0
 11
189.9344868956933
 21
8.062828956482974
 31
0.0
  0
ARC
  5
17CD8
330
1F
100
AcDbEntity
  8
AM_0
  6
Continuous
370
    30
100
AcDbCircle
 10
200.9344868956933
 20
14.00000000000193
 30
0.0
 40
12.5
100
AcDbArc
 50
28.35763657632798
 51
151.642363423672
  0
LINE
  5
17CE0
330
1F
100
AcDbEntity
  8
AM_7
  6
CENTER
100
AcDbLine
 10
200.9344868956933
 20
29.50000000000193
 30
0.0
 11
200.9344868956933
 21
-1.499999999998067
 31
0.0
1001
GENIUS_GENODEF_13
1002
{
1000
HIER
1070
     0
1002
}
1002
{
1000
MANEDIT
1070
     0
1002
}
1002
{
1000
NOSEL
1070
     0
1002
}
1002
{
1000
BEHIND
1070
     0
1002
}
1002
{
1000
REACTOR
1002
}
1001
GENIUS_GENOBJ-N-CEN_13
1002
{
1000
OWNER
1000
GEN
1002
}
  0
CIRCLE
  5
182F0
330
1F
100
AcDbEntity
  8
AM_5
  6
ACJISTGB
100
AcDbCircle
 10
-73.01600620988822
 20
14.12500000000179
 30
0.0
 40
14.0
  0
DIMENSION
  5
182F9
330
1F
100
AcDbEntity
  8
AM_5
100
AcDbDimension
  2
*D12
 10
-62.83153745157043
 20
4.518929205402738
 30
0.0
 11
-111.9948322540939
 21
32.71923531133175
 31
0.0
 70
   163
  1
最小加工径<>
 71
     5
 42
28.00000000000001
  3
AM_JIS$3
100
AcDbDiametricDimension
 15
-83.20047496820605
 25
23.73107079460081
 35
0.0
 40
0.0
1001
ACAD
1000
DSTYLE
1002
{
1070
   271
1070
     0
1070
   288
1070
     1
1070
   289
1070
     3
1070
   172
1070
     1
1070
    74
1070
     1
1002
}
1001
GENIUS_GENDTOL_13
1000

1000
h7
1000

1040
0.0
  0
DIMENSION
  5
19019
330
1F
100
AcDbEntity
  8
AM_5
100
AcDbDimension
  2
*D13
 10
192.3988632180409
 20
4.868016183026811
 30
0.0
 11
225.3636629272207
 21
34.38147886173536
 31
0.0
 70
   163
  1
<>
 71
     5
 42
24.99999999999974
  3
AM_JIS$3
100
AcDbDiametricDimension
 15
209.4701105733459
 25
23.13198381697698
 35
0.0
 40
0.0
1001
ACAD
1000
DSTYLE
1002
{
1070
    47
1040
0.0
1070
    48
1040
0.0
1070
   271
1070
     0
1070
   289
1070
     3
1002
}
  0
DIMENSION
  5
1960A
330
1F
100
AcDbEntity
  8
AM_5
100
AcDbDimension
  2
*D17
 10
-73.01600620988643
 20
30.47866351642642
 30
0.0
 11
-62.94443073147542
 21
-15.1665249129305
 31
0.0
 70
   162
  1
-<>
 71
     5
 42
0.0303263825435183
  3
AM_JIS$2
100
AcDb2LineAngularDimension
 13
-73.00138670564365
 23
0.5445351440316983
 33
0.0
 14
-72.5437877193574
 24
15.62904758256511
 34
0.0
 15
-73.01600620988643
 25
-2.075659642478144
 35
0.0
 16
-73.30086891698041
 26
-14.02531543560539
 36
0.0
1001
GENIUS_GENDTOL_13
1000

1000
h7
1000

1040
0.0
1001
ACAD
1000
DSTYLE
1002
{
1070
   279
1070
     1
1002
}
  0
TEXT
  5
198D9
330
1F
100
AcDbEntity
  8
AM_6
100
AcDbText
 10
234.6408755191835
 20
204.2421863042536
 30
0.0
 40
3.5
  1

100
AcDbText
  0
TEXT
  5
198EA
330
1F
100
AcDbEntity
  8
AM_6
100
AcDbText
 10
234.6408755191835
 20
197.2421863042536
 30
0.0
 40
3.5
  1

100
AcDbText
  0
TEXT
  5
1B4EA
330
1F
100
AcDbEntity
  8
AM_6
100
AcDbText
 10
311.936993339541
 20
-17.98694739633933
 30
0.0
 40
3.0
  1

100
AcDbText
  0
TEXT
  5
1B4EB
330
1F
100
AcDbEntity
  8
AM_6
100
AcDbText
 10
311.1514176690389
 20
-23.48376526673619
 30
0.0
 40
3.0
  1

100
AcDbText
  0
LINE
  5
1FE7C
330
1F
100
AcDbEntity
  8
AM_7
  6
CENTER
100
AcDbLine
 10
-1.77385471045227
 20
-91.15393550969461
 30
0.0
 11
309.0627804451246
 21
-91.15393550969461
 31
0.0
1001
GENIUS_GENODEF_13
1002
{
1000
HIER
1070
     0
1002
}
1002
{
1000
MANEDIT
1070
     0
1002
}
1002
{
1000
NOSEL
1070
     0
1002
}
1002
{
1000
BEHIND
1070
     0
1002
}
1002
{
1000
REACTOR
1002
}
1001
GENIUS_GENOBJ-N-CEN_13
1002
{
1000
OWNER
1000
GEN
1002
}
  0
DIMENSION
  5
1FE82
330
1F
100
AcDbEntity
  8
AM_5
100
AcDbDimension
  2
*D23
 10
300.0000000000003
 20
-40.26539073156172
 30
0.0
 11
150.0000000000003
 21
-40.26539073156172
 31
0.0
 70
   160
  1
<>
 71
     5
 42
300.0
  3
AM_JIS$0
100
AcDbAlignedDimension
 13
0.0000000000002842
 23
-1.778417165342233
 33
0.0
 14
300.0000000000003
 24
2.500000000001847
 34
0.0
100
AcDbRotatedDimension
1001
ACAD
1000
DSTYLE
1002
{
1070
   271
1070
     0
1002
}
  0
DIMENSION
  5
1FE8A
330
1F
100
AcDbEntity
  8
AM_5
100
AcDbDimension
  2
*D27
 10
-29.49746141340552
 20
0.0000000000000084
 30
0.0
 11
-29.49746141340552
 21
7.000000000000028
 31
0.0
 70
   160
  1
<>
 71
     5
 42
14.00000000000003
  3
AM_JIS$0
100
AcDbAlignedDimension
 13
-2.165548451965606
 23
14.00000000000003
 33
0.0
 14
0.0
 24
0.0
 34
0.0
 50
270.0
100
AcDbRotatedDimension
1001
ACAD
1000
DSTYLE
1002
{
1070
   271
1070
     0
1002
}
  0
DIMENSION
  5
1FE8F
330
1F
100
AcDbEntity
  8
AM_5
100
AcDbDimension
  2
*D29
 10
0.0000000000002827
 20
-115.6831188924111
 30
0.0
 11
9.000000000000256
 21
-112.2831188924111
 31
0.0
 70
    32
  1
<>
 71
     5
 42
17.99999999999994
  3
AM_JIS$0
100
AcDbAlignedDimension
 13
18.00000000000023
 23
-103.4039355096944
 33
0.0
 14
0.0000000000002842
 24
-91.15393550969461
 34
0.0
100
AcDbRotatedDimension
1001
ACAD
1000
DSTYLE
1002
{
1070
   271
1070
     0
1002
}
1001
GENIUS_GENDTOL_13
1000

1000
h7
1000

1040
0.0
  0
LINE
  5
1FEA4
330
1F
100
AcDbEntity
  8
AM_0
  6
Continuous
370
    30
100
AcDbLine
 10
300.0000000000003
 20
-102.1539355096946
 30
0.0
 11
300.0000000000003
 21
-80.15393550969461
 31
0.0
  0
SPLINE
  5
1FEA5
330
1F
100
AcDbEntity
  8
AM_0
  6
Continuous
370
    30
100
AcDbSpline
210
0.0
220
0.0
230
1.0
 70
    28
 71
     2
 72
     6
 73
     3
 74
     0
 42
0.0000000001
 43
0.0000000001
 40
0.0
 40
0.0
 40
0.0
 40
2.772088972064008
 40
2.772088972064008
 40
2.772088972064008
 10
299.0000000000003
 20
-102.1539355096946
 30
0.0
 41
1.0
 10
299.6390051220407
 20
-102.1539355096946
 30
0.0
 41
1.005842689606712
 10
300.0000000000003
 20
-102.1539355096946
 30
0.0
 41
1.0
  0
LINE
  5
1FEA6
330
1F
100
AcDbEntity
  8
AM_0
  6
Continuous
370
    30
100
AcDbLine
 10
299.0000000000003
 20
-102.1539355096947
 30
0.0
 11
299.0000000000003
 21
-80.15393550969461
 31
0.0
  0
SPLINE
  5
1FEA7
330
1F
100
AcDbEntity
  8
AM_0
  6
Continuous
370
    30
100
AcDbSpline
210
0.0
220
0.0
230
1.0
 70
    28
 71
     2
 72
     6
 73
     3
 74
     0
 42
0.0000000001
 43
0.0000000001
 40
0.0
 40
0.0
 40
0.0
 40
2.772088972064008
 40
2.772088972064008
 40
2.772088972064008
 10
299.0000000000003
 20
-80.15393550969461
 30
0.0
 41
1.0
 10
299.6390051220407
 20
-80.15393550969461
 30
0.0
 41
1.005842689606712
 10
300.0000000000003
 20
-80.15393550969461
 30
0.0
 41
1.0
  0
LINE
  5
1FEC8
330
1F
100
AcDbEntity
  8
AM_5
100
AcDbLine
 10
0.0
 20
-3.495007368121122
 30
0.0
 11
0.0
 21
0.5235415730258239
 31
0.0
  0
LINE
  5
1FEC9
330
1F
100
AcDbEntity
  8
AM_5
100
AcDbLine
 10
0.3972656262079113
 20
0.0
 30
0.0
 11
-4.235809870202218
 21
0.0
 31
0.0
  0
DIMENSION
  5
1FECF
330
1F
100
AcDbEntity
  8
AM_5
100
AcDbDimension
  2
*D30
 10
-4.235809870202218
 20
0.0
 30
0.0
 11
-12.7673246318156
 21
16.30444892094858
 31
0.0
 70
   162
  1
<>
 71
     5
 42
1.623156204354729
  3
AM_JIS$2
100
AcDb2LineAngularDimension
 13
0.0005497774761807
 23
0.4195351440321247
 33
0.0
 14
0.7910955759471676
 24
15.50404758256559
 34
0.0
 15
0.3972656262079113
 25
0.0
 35
0.0
 16
-17.76071483900564
 26
10.65883338668464
 36
0.0
1001
GENIUS_GENDTOL_13
1000

1000
h7
1000

1040
0.0
  0
LINE
  5
205BD
330
1F
100
AcDbEntity
  8
AM_0
  6
Continuous
370
    30
100
AcDbLine
 10
0.0005497774761807
 20
0.4195351440337447
 30
0.0
 11
0.5034184515751576
 21
10.0148410504934
 31
0.0
  0
LINE
  5
205BE
330
1F
100
AcDbEntity
  8
AM_0
  6
Continuous
370
    30
100
AcDbLine
 10
9.112643111924513
 20
4.430137176512659
 30
0.0
 11
0.5793211832140059
 21
0.0440928667913738
 31
0.0
  0
LINE
  5
205BF
330
1F
100
AcDbEntity
  8
AM_0
  6
Continuous
370
    30
100
AcDbLine
 10
1.118432644635391
 20
10.33095235209501
 30
0.0
 11
9.14888589924692
 21
5.121690755356639
 31
0.0
  0
ELLIPSE
  5
205C0
330
1F
100
AcDbEntity
  8
AM_0
  6
Continuous
370
    30
100
AcDbEllipse
 10
0.3984783104089047
 20
0.3997581521535096
 30
0.0
 11
0.1482309230291914
 21
0.371520650109673
 31
0.0
210
0.0
220
0.0
230
1.0
 40
0.9955888461044968
 41
1.899415030980939
 42
3.993810133374142
  0
ELLIPSE
  5
205C1
330
1F
100
AcDbEntity
  8
AM_0
  6
Continuous
370
    30
100
AcDbEllipse
 10
8.931800239119411
 20
4.785802461874852
 30
0.0
 11
0.1482309230291914
 21
0.371520650109673
 31
0.0
210
0.0
220
0.0
230
1.0
 40
0.9955888461044968
 41
3.993810133374135
 42
6.088205235767336
  0
ELLIPSE
  5
205C2
330
1F
100
AcDbEntity
  8
AM_0
  6
Continuous
370
    30
100
AcDbEllipse
 10
0.901346984507768
 20
9.99506405861311
 30
0.0
 11
0.1482309230291914
 21
0.3715206501096729
 31
0.0
210
0.0
220
0.0
230
1.0
 40
0.9955888461044967
 41
6.088205235767338
 42
8.182600338160544
  0
LINE
  5
205C3
330
1F
100
AcDbEntity
  8
AM_0
  6
Continuous
370
    30
100
AcDbLine
 10
27.25000000000023
 20
19.93717104352086
 30
0.0
 11
184.9344868956933
 21
19.93717104352086
 31
0.0
  0
LINE
  5
205C8
330
1F
100
AcDbEntity
  8
AM_0
  6
Continuous
370
    30
100
AcDbLine
 10
27.02029716912659
 20
19.43994539656038
 30
0.0
 11
27.24893883350239
 21
19.93765852689123
 31
0.0
  0
LINE
  5
205C9
330
1F
100
AcDbEntity
  8
AM_0
  6
Continuous
370
    30
100
AcDbLine
 10
26.9999994320425
 20
19.42022242354133
 30
0.0
 11
27.02140743017083
 21
19.439435730508
 31
0.0
  0
LINE
  5
205CA
330
1F
100
AcDbEntity
  8
AM_0
  6
Continuous
370
    30
100
AcDbLine
 10
27.02140799609003
 20
19.43943509994531
 30
0.0
 11
35.00000000595071
 21
8.062828956482889
 31
0.0
  0
ELLIPSE
  5
205CB
330
1F
100
AcDbEntity
  8
AM_0
  6
Continuous
370
    30
100
AcDbEllipse
 10
4.165435676235802
 20
14.00000000000185
 30
0.0
 11
-31.51344545203088
 21
4.047291144051683
 31
0.0
210
0.0
220
0.0
230
1.0
 40
0.375288728532884
 41
2.439742762070908
 42
2.97638398915446
  0
ELLIPSE
  5
205CC
330
1F
100
AcDbEntity
  8
AM_0
  6
Continuous
370
    30
100
AcDbEllipse
 10
4.165435676235802
 20
14.00000000000185
 30
0.0
 11
-30.88317654299019
 21
3.966345321170641
 31
0.0
210
0.0
220
0.0
230
1.0
 40
0.375288728532884
 41
3.929665961425775
 42
4.541059816519908
  0
LINE
  5
205CD
330
1F
100
AcDbEntity
  8
AM_0
  6
Continuous
370
    30
100
AcDbLine
 10
26.99992440237156
 20
3.552156073810153
 30
0.0
 11
27.24992746818043
 21
3.273573075650091
 31
0.0
  0
ELLIPSE
  5
205CE
330
1F
100
AcDbEntity
  8
AM_0
  6
Continuous
370
    30
100
AcDbEllipse
 10
4.165435676235802
 20
14.00000000000185
 30
0.0
 11
-30.88317654299019
 21
3.966345321170641
 31
0.0
210
0.0
220
0.0
230
1.0
 40
0.375288728532884
 41
2.356895668195616
 42
2.449841926421566
  0
ELLIPSE
  5
205CF
330
1F
100
AcDbEntity
  8
AM_0
  6
Continuous
370
    30
100
AcDbEllipse
 10
-3.948425085117265
 20
14.89322649052687
 30
0.0
 11
-36.70407305201739
 21
4.676015154461369
 31
0.0
210
0.0
220
0.0
230
1.0
 40
0.3660654775276733
 41
2.118887525381782
 42
2.1293496095794
  0
LINE
  5
205D0
330
1F
100
AcDbEntity
  8
AM_0
  6
Continuous
370
    30
100
AcDbLine
 10
14.04419080785999
 20
1.016332696672379
 30
0.0
 11
14.05167788722145
 21
1.021013355136489
 31
0.0
  0
ARC
  5
205D1
330
1F
100
AcDbEntity
  8
AM_0
  6
Continuous
370
    30
100
AcDbCircle
 10
22.00000000000034
 20
-11.69999999999808
 30
0.0
 40
15.0
100
AcDbArc
 50
78.59307078491038
 51
121.9978968548604
  0
LINE
  5
205D2
330
1F
100
AcDbEntity
  8
AM_0
  6
Continuous
370
    30
100
AcDbLine
 10
24.97195717302816
 20
3.022917481558835
 30
0.0
 11
27.00494295045166
 21
2.459986750729712
 31
0.0
  0
LINE
  5
205D3
330
1F
100
AcDbEntity
  8
AM_0
  6
Continuous
370
    30
100
AcDbLine
 10
27.00013782634483
 20
2.442514630882243
 30
0.0
 11
27.25013055710804
 21
2.35160451395339
 31
0.0
  0
LINE
  5
205D4
330
1F
100
AcDbEntity
  8
AM_0
  6
Continuous
370
    30
100
AcDbLine
 10
27.25583234812359
 20
2.364123358134151
 30
0.0
 11
29.13128014835752
 21
1.514738213102447
 31
0.0
  0
LINE
  5
205D5
330
1F
100
AcDbEntity
  8
AM_0
  6
Continuous
370
    30
100
AcDbLine
 10
10.89750771756178
 20
24.74418662785919
 30
0.0
 11
13.50565298482957
 21
26.25000000000185
 31
0.0
  0
LINE
  5
205D6
330
1F
100
AcDbEntity
  8
AM_0
  6
Continuous
370
    30
100
AcDbLine
 10
10.89750771756178
 20
24.74418662785919
 30
0.0
 11
3.735065956962558
 21
20.60894894932218
 31
0.0
  0
LINE
  5
205D7
330
1F
100
AcDbEntity
  8
AM_0
  6
Continuous
370
    30
100
AcDbLine
 10
13.50565298482957
 20
26.25000000000185
 30
0.0
 11
18.00000000000023
 21
26.25000000000185
 31
0.0
  0
LINE
  5
205D8
330
1F
100
AcDbEntity
  8
AM_0
  6
Continuous
370
    30
100
AcDbLine
 10
6.553195949416477
 20
6.805484626509127
 30
0.0
 11
6.601230288294346
 21
6.80001209724449
 31
0.0
  0
LINE
  5
205D9
330
1F
100
AcDbEntity
  8
AM_0
  6
Continuous
370
    30
100
AcDbLine
 10
6.811135052696272
 20
3.247184462329045
 30
0.0
 11
3.013752364366042
 21
1.295366767985712
 31
0.0
  0
LINE
  5
205DA
330
1F
100
AcDbEntity
  8
AM_0
  6
Continuous
370
    30
100
AcDbLine
 10
3.007020042879731
 20
1.291906421478473
 30
0.0
 11
2.978732724747715
 21
0.7521522376627274
 31
0.0
  0
ARC
  5
205DC
330
1F
100
AcDbEntity
  8
AM_0
  6
Continuous
370
    30
100
AcDbCircle
 10
8.669983782471832
 20
5.188090555419848
 30
0.0
 40
1.493994459674842
100
AcDbArc
 50
264.9838880032172
 51
87.69725821027552
  0
ELLIPSE
  5
205DD
330
1F
100
AcDbEntity
  8
AM_0
  6
Continuous
370
    30
100
AcDbEllipse
 10
5.832256457946642
 20
6.536936767219544
 30
0.0
 11
11.52136754730225
 21
-0.596044893964206
 31
0.0
210
0.0
220
0.0
230
1.0
 40
0.0262726359354371
 41
1.31791419961289
 42
1.505362642627635
  0
ELLIPSE
  5
205DE
330
1F
100
AcDbEntity
  8
AM_0
  6
Continuous
370
    30
100
AcDbEllipse
 10
3.349356105198467
 20
11.41795110035653
 30
0.0
 11
16.6952887383754
 21
-11.14117056838781
 31
0.0
210
0.0
220
0.0
230
1.0
 40
0.1051314691789525
 41
4.835473715308858
 42
4.977975169328996
  0
LINE
  5
205DF
330
1F
100
AcDbEntity
  8
AM_0
  6
Continuous
370
    30
100
AcDbLine
 10
3.735065956962558
 20
20.60894894932218
 30
0.0
 11
0.9496049536811597
 21
19.00076228926045
 31
0.0
  0
LINE
  5
205E0
330
1F
100
AcDbEntity
  8
AM_0
  6
Continuous
370
    30
100
AcDbLine
 10
11.0001289984375
 20
0.7625811842902124
 30
0.0
 11
13.71581042242076
 21
0.9857975934818626
 31
0.0
  0
ELLIPSE
  5
205E1
330
1F
100
AcDbEntity
  8
AM_0
  6
Continuous
370
    30
100
AcDbEllipse
 10
8.561680307268148
 20
1.171293754201003
 30
0.0
 11
8.972397932920602
 21
4.41724122266783
 31
0.0
210
0.0
220
0.0
230
1.0
 40
0.2641056567008956
 41
1.525359138477304
 42
1.636201313490138
  0
LINE
  5
205E2
330
1F
100
AcDbEntity
  8
AM_0
  6
Continuous
370
    30
100
AcDbLine
 10
0.5396612385620756
 20
10.70639463051461
 30
0.0
 11
4.236680154545752
 21
8.308181472323412
 31
0.0
  0
ELLIPSE
  5
205E3
330
1F
100
AcDbEntity
  8
AM_0
  6
Continuous
370
    30
100
AcDbEllipse
 10
-0.1152238024299095
 20
18.35380203471451
 30
0.0
 11
0.8994686692550311
 21
20.19780178492399
 31
0.0
210
0.0
220
0.0
230
1.0
 40
0.0512222215438454
 41
4.560195424980394
 42
4.746706673104635
  0
LINE
  5
205E4
330
1F
100
AcDbEntity
  8
AM_0
  6
Continuous
370
    30
100
AcDbLine
 10
0.7710282305281453
 20
15.24613982924703
 30
0.0
 11
0.5396612385620756
 21
10.70639463051455
 31
0.0
  0
LINE
  5
205E5
330
1F
100
AcDbEntity
  8
AM_0
  6
Continuous
370
    30
100
AcDbLine
 10
0.6534257768415728
 20
10.30726925386787
 30
0.0
 11
0.5396612385620756
 21
10.70639463051455
 31
0.0
  0
LINE
  5
205E6
330
1F
100
AcDbEntity
  8
AM_0
  6
Continuous
370
    30
100
AcDbLine
 10
7.946436933413111
 20
3.830718566040247
 30
0.0
 11
8.248953540499656
 21
3.815683533397845
 31
0.0
  0
ELLIPSE
  5
205E7
330
1F
100
AcDbEntity
  8
AM_0
  6
Continuous
370
    30
100
AcDbEllipse
 10
7.399102141317485
 20
3.456750230582117
 30
0.0
 11
11.52136754730219
 21
-0.5960448939640821
 31
0.0
210
0.0
220
0.0
230
1.0
 40
0.0262726359354381
 41
1.473024784120518
 42
1.537021921635094
  0
LINE
  5
205E8
330
1F
100
AcDbEntity
  8
AM_0
  6
Continuous
370
    30
100
AcDbLine
 10
7.803806240580343
 20
3.739147062725834
 30
0.0
 11
7.774724950431278
 21
3.742460280209599
 31
0.0
  0
ELLIPSE
  5
205EA
330
1F
100
AcDbEntity
  8
AM_0
  6
Continuous
370
    30
100
AcDbEllipse
 10
3.658466204734509
 20
14.00000000000185
 30
0.0
 11
-0.6637927219619613
 21
-13.24986816656924
 31
0.0
210
0.0
220
0.0
230
1.0
 40
0.0890434846329603
 41
6.041241661979582
 42
6.269621898430303
  0
ELLIPSE
  5
205EB
330
1F
100
AcDbEntity
  8
AM_0
  6
Continuous
370
    30
100
AcDbEllipse
 10
5.536093287703693
 20
14.00000000000185
 30
0.0
 11
151.4697655040051
 21
0.4660081959724087
 31
0.0
210
0.0
220
0.0
230
1.0
 40
0.0874220843077444
 41
4.695235580937547
 42
4.729284500540933
  0
LINE
  5
205EC
330
1F
100
AcDbEntity
  8
AM_0
  6
Continuous
370
    30
100
AcDbLine
 10
8.135868879511577
 20
0.7702721113409154
 30
0.0
 11
11.00000292259415
 21
0.7662125880038673
 31
0.0
  0
LINE
  5
205EE
330
1F
100
AcDbEntity
  8
AM_0
  6
Continuous
370
    30
100
AcDbLine
 10
27.25000000000023
 20
26.5000000000019
 30
0.0
 11
184.9344868956933
 21
26.5000000000019
 31
0.0
  0
LINE
  5
205F0
330
1F
100
AcDbEntity
  8
AM_0
  6
Continuous
370
    30
100
AcDbLine
 10
29.12460525222321
 20
1.500000000001847
 30
0.0
 11
184.9344868956933
 21
1.500000000001847
 31
0.0
  0
LINE
  5
205F1
330
1F
100
AcDbEntity
  8
AM_0
  6
Continuous
370
    30
100
AcDbLine
 10
27.00000000000023
 20
26.25000000000185
 30
0.0
 11
27.25000000000023
 21
26.50000000000185
 31
0.0
  0
LINE
  5
205F2
330
1F
100
AcDbEntity
  8
AM_0
  6
Continuous
370
    30
100
AcDbLine
 10
18.00000000000023
 20
26.25000000000185
 30
0.0
 11
27.00000000000023
 21
26.25000000000185
 31
0.0
  0
LINE
  5
205F3
330
1F
100
AcDbEntity
  8
AM_0
  6
Continuous
370
    30
100
AcDbLine
 10
14.04419111097366
 20
1.016332211818423
 30
0.0
 11
13.29134679148626
 21
0.9504668684633941
 31
0.0
  0
LINE
  5
205F8
330
1F
100
AcDbEntity
  8
AM_0
  6
Continuous
370
    30
100
AcDbLine
 10
27.25000000000023
 20
19.93717104352086
 30
0.0
 11
27.25000000000023
 21
26.50000000000185
 31
0.0
  0
LINE
  5
205F9
330
1F
100
AcDbEntity
  8
AM_0
  6
Continuous
370
    30
100
AcDbLine
 10
27.00000000000023
 20
19.42022179070708
 30
0.0
 11
27.00000000000023
 21
26.25000000000185
 31
0.0
  0
LINE
  5
205FA
330
1F
100
AcDbEntity
  8
AM_0
  6
Continuous
370
    30
100
AcDbLine
 10
27.25000000000023
 20
2.35124549639832
 30
0.0
 11
27.25000000000023
 21
3.273638166403799
 31
0.0
  0
LINE
  5
205FB
330
1F
100
AcDbEntity
  8
AM_0
  6
Continuous
370
    30
100
AcDbLine
 10
27.00000000000023
 20
2.442135623732867
 30
0.0
 11
27.00000000000023
 21
3.552223915850192
 31
0.0
  0
ELLIPSE
  5
205FC
330
1F
100
AcDbEntity
  8
AM_0
  6
Continuous
370
    30
100
AcDbEllipse
 10
8.32742147681256
 20
5.312940951790125
 30
0.0
 11
0.5558659613594582
 21
1.393202437911276
 31
0.0
210
0.0
220
0.0
230
1.0
 40
0.9955888461044965
 41
3.470211357775869
 42
6.16322041437182
  0
LINE
  5
205FD
330
1F
100
AcDbEntity
  8
AM_0
  6
Continuous
370
    30
100
AcDbLine
 10
4.015510850239707
 20
5.90570995012277
 30
0.0
 11
3.910938744954251
 21
5.947432582996527
 31
0.0
  0
LINE
  5
205FE
330
1F
100
AcDbEntity
  8
AM_0
  6
Continuous
370
    30
100
AcDbLine
 10
2.840430207546206
 20
4.20079895401355
 30
0.0
 11
2.735858102260863
 21
4.242521586887307
 31
0.0
  0
ELLIPSE
  5
205FF
330
1F
100
AcDbEntity
  8
AM_0
  6
Continuous
370
    30
100
AcDbEllipse
 10
3.410541844678733
 20
5.060208224213767
 30
0.0
 11
-0.7967412112819046
 21
-1.996923494339491
 31
0.0
210
0.0
220
0.0
230
1.0
 40
0.9955888461044972
 41
0.0000000000000002
 42
6.283185307179586
  0
ELLIPSE
  5
20600
330
1F
100
AcDbEntity
  8
AM_0
  6
Continuous
370
    30
100
AcDbEllipse
 10
3.427970528892956
 20
5.05325445206816
 30
0.0
 11
0.6683694663122222
 21
1.675177173314038
 31
0.0
210
0.0
220
0.0
230
1.0
 40
0.9955888461044968
 41
0.0
 42
6.283185307179586
  0
ELLIPSE
  5
20601
330
1F
100
AcDbEntity
  8
AM_0
  6
Continuous
370
    30
100
AcDbEllipse
 10
3.427970528892956
 20
6.212547724814868
 30
0.0
 11
-0.09264432689319414
 21
-0.2322004063184187
 31
0.0
210
0.0
220
0.0
230
1.0
 40
0.9955888461044969
 41
2.248171952903969
 42
4.797322537137236
  0
ELLIPSE
  5
20602
330
1F
100
AcDbEntity
  8
AM_0
  6
Continuous
370
    30
100
AcDbEllipse
 10
3.3233984236075
 20
6.254270357688625
 30
0.0
 11
0.09264432689319414
 21
0.2322004063184187
 31
0.0
210
0.0
220
0.0
230
1.0
 40
0.9955888461044969
 41
5.389764606493765
 42
6.055037112221447
  0
ELLIPSE
  5
20603
330
1F
100
AcDbEntity
  8
AM_0
  6
Continuous
370
    30
100
AcDbEllipse
 10
4.237857234783519
 20
6.462990925287244
 30
0.0
 11
0.2223463845437874
 21
0.5572809751645093
 31
0.0
210
0.0
220
0.0
230
1.0
 40
0.9955888461044967
 41
2.248171952903966
 42
3.750124985940476
  0
ELLIPSE
  5
20604
330
1F
100
AcDbEntity
  8
AM_0
  6
Continuous
370
    30
100
AcDbEllipse
 10
4.133285129498063
 20
6.504713558161058
 30
0.0
 11
-0.2223463845437874
 21
-0.5572809751645093
 31
0.0
210
0.0
220
0.0
230
1.0
 40
0.9955888461044967
 41
5.389764606493759
 42
6.283185307179585
  0
ELLIPSE
  5
20605
330
1F
100
AcDbEntity
  8
AM_0
  6
Continuous
370
    30
100
AcDbEllipse
 10
4.428738313938766
 20
5.635956494889371
 30
0.0
 11
-0.09264432689319414
 21
-0.2322004063184187
 31
0.0
210
0.0
220
0.0
230
1.0
 40
0.9955888461044969
 41
1.200974401707677
 42
3.750124985940479
  0
ELLIPSE
  5
20606
330
1F
100
AcDbEntity
  8
AM_0
  6
Continuous
370
    30
100
AcDbEllipse
 10
4.324166208653423
 20
5.677679127763128
 30
0.0
 11
0.09264432689319414
 21
0.2322004063184187
 31
0.0
210
0.0
220
0.0
230
1.0
 40
0.9955888461044969
 41
4.342567055297467
 42
6.055037112221421
  0
ELLIPSE
  5
20607
330
1F
100
AcDbEntity
  8
AM_0
  6
Continuous
370
    30
100
AcDbEllipse
 10
5.047743940673968
 20
5.058199721291004
 30
0.0
 11
0.2223463845437874
 21
0.5572809751645093
 31
0.0
210
0.0
220
0.0
230
1.0
 40
0.9955888461044967
 41
1.200974401707678
 42
2.702927434743993
  0
ELLIPSE
  5
20608
330
1F
100
AcDbEntity
  8
AM_0
  6
Continuous
370
    30
100
AcDbEllipse
 10
4.943171835388625
 20
5.099922354164761
 30
0.0
 11
-0.2223463845437874
 21
-0.5572809751645093
 31
0.0
210
0.0
220
0.0
230
1.0
 40
0.9955888461044967
 41
4.342567055297455
 42
5.844520088333772
  0
ELLIPSE
  5
20609
330
1F
100
AcDbEntity
  8
AM_0
  6
Continuous
370
    30
100
AcDbEllipse
 10
4.428738313938879
 20
4.476663222142832
 30
0.0
 11
-0.09264432689319414
 21
-0.2322004063184187
 31
0.0
210
0.0
220
0.0
230
1.0
 40
0.9955888461044969
 41
0.1537768505109146
 42
2.702927434743981
  0
ELLIPSE
  5
2060A
330
1F
100
AcDbEntity
  8
AM_0
  6
Continuous
370
    30
100
AcDbEllipse
 10
4.324166208653537
 20
4.518385855016646
 30
0.0
 11
0.09264432689319414
 21
0.2322004063184187
 31
0.0
210
0.0
220
0.0
230
1.0
 40
0.9955888461044969
 41
3.295369504100705
 42
5.844520088333772
  0
ELLIPSE
  5
2060B
330
1F
100
AcDbEntity
  8
AM_0
  6
Continuous
370
    30
100
AcDbEllipse
 10
4.237857234783519
 20
3.648463248071863
 30
0.0
 11
0.2223463845437874
 21
0.5572809751645093
 31
0.0
210
0.0
220
0.0
230
1.0
 40
0.9955888461044967
 41
0.1537768505109124
 42
1.655729883547457
  0
ELLIPSE
  5
2060C
330
1F
100
AcDbEntity
  8
AM_0
  6
Continuous
370
    30
100
AcDbEllipse
 10
4.133285129498063
 20
3.690185880945677
 30
0.0
 11
-0.2223463845437874
 21
-0.5572809751645093
 31
0.0
210
0.0
220
0.0
230
1.0
 40
0.9955888461044967
 41
3.295369504100705
 42
4.797322537137251
  0
ELLIPSE
  5
2060D
330
1F
100
AcDbEntity
  8
AM_0
  6
Continuous
370
    30
100
AcDbEllipse
 10
3.427970528892956
 20
3.893961179321508
 30
0.0
 11
-0.09264432689319414
 21
-0.2322004063184187
 31
0.0
210
0.0
220
0.0
230
1.0
 40
0.9955888461044969
 41
5.389764606493913
 42
7.938915190727052
  0
ELLIPSE
  5
2060E
330
1F
100
AcDbEntity
  8
AM_0
  6
Continuous
370
    30
100
AcDbEllipse
 10
3.3233984236075
 20
3.935683812195322
 30
0.0
 11
0.09264432689319414
 21
0.2322004063184187
 31
0.0
210
0.0
220
0.0
230
1.0
 40
0.9955888461044969
 41
3.369740848547964
 42
4.797322537137256
  0
ELLIPSE
  5
2060F
330
1F
100
AcDbEntity
  8
AM_0
  6
Continuous
370
    30
100
AcDbEllipse
 10
2.618083823002394
 20
3.643517978849019
 30
0.0
 11
0.2223463845437874
 21
0.5572809751645093
 31
0.0
210
0.0
220
0.0
230
1.0
 40
0.9955888461044967
 41
5.389764606493907
 42
6.891717639530393
  0
ELLIPSE
  5
20610
330
1F
100
AcDbEntity
  8
AM_0
  6
Continuous
370
    30
100
AcDbEllipse
 10
2.513511717717051
 20
3.685240611722776
 30
0.0
 11
-0.2223463845437874
 21
-0.5572809751645093
 31
0.0
210
0.0
220
0.0
230
1.0
 40
0.9955888461044967
 41
3.141592653589795
 42
3.750124985940603
  0
ELLIPSE
  5
20611
330
1F
100
AcDbEntity
  8
AM_0
  6
Continuous
370
    30
100
AcDbEllipse
 10
2.42720274384692
 20
4.470552409246835
 30
0.0
 11
-0.09264432689319414
 21
-0.2322004063184187
 31
0.0
210
0.0
220
0.0
230
1.0
 40
0.9955888461044969
 41
4.342567055297447
 42
6.891717639530516
  0
ELLIPSE
  5
20612
330
1F
100
AcDbEntity
  8
AM_0
  6
Continuous
370
    30
100
AcDbEllipse
 10
2.322630638561577
 20
4.512275042120649
 30
0.0
 11
0.09264432689319414
 21
0.2322004063184187
 31
0.0
210
0.0
220
0.0
230
1.0
 40
0.9955888461044969
 41
3.369740848547988
 42
3.750124985940717
  0
ELLIPSE
  5
20613
330
1F
100
AcDbEntity
  8
AM_0
  6
Continuous
370
    30
100
AcDbEllipse
 10
1.808197117111831
 20
5.048309182845316
 30
0.0
 11
0.2223463845437874
 21
0.5572809751645093
 31
0.0
210
0.0
220
0.0
230
1.0
 40
0.9955888461044967
 41
4.342567055297197
 42
5.844520088333898
  0
ELLIPSE
  5
20614
330
1F
100
AcDbEntity
  8
AM_0
  6
Continuous
370
    30
100
AcDbEllipse
 10
2.42720274384692
 20
5.629845681993544
 30
0.0
 11
-0.09264432689319414
 21
-0.2322004063184187
 31
0.0
210
0.0
220
0.0
230
1.0
 40
0.9955888461044969
 41
3.295369504100678
 42
5.844520088333804
  0
ELLIPSE
  5
20615
330
1F
100
AcDbEntity
  8
AM_0
  6
Continuous
370
    30
100
AcDbEllipse
 10
2.618083823002394
 20
6.458045656064513
 30
0.0
 11
0.2223463845437874
 21
0.5572809751645093
 31
0.0
210
0.0
220
0.0
230
1.0
 40
0.9955888461044967
 41
3.295369504100621
 42
4.797322537137232
  0
LINE
  5
20616
330
1F
100
AcDbEntity
  8
AM_0
  6
Continuous
370
    30
100
AcDbLine
 10
-75.9426109789807
 20
9.842723789372798
 30
0.0
 11
-76.21081072737681
 21
1.001658660436846
 31
0.0
  0
LINE
  5
20617
330
1F
100
AcDbEntity
  8
AM_0
  6
Continuous
370
    30
100
AcDbLine
 10
-73.00138670944872
 20
0.5445351440336879
 30
0.0
 11
-72.71030655198294
 21
10.13984105049335
 31
0.0
  0
LINE
  5
20618
330
1F
100
AcDbEntity
  8
AM_0
  6
Continuous
370
    30
100
AcDbLine
 10
-76.21081072737681
 20
1.001658660436846
 30
0.0
 11
-76.23032218431214
 21
1.145791630111347
 31
0.0
  0
LINE
  5
20619
330
1F
100
AcDbEntity
  8
AM_0
  6
Continuous
370
    30
100
AcDbLine
 10
-75.08565211421339
 20
0.5963062648675361
 30
0.0
 11
-76.21081072737681
 21
1.001658660436846
 31
0.0
  0
LINE
  5
2061A
330
1F
100
AcDbEntity
  8
AM_0
  6
Continuous
370
    30
100
AcDbLine
 10
-74.79457195674078
 20
10.19161217155383
 30
0.0
 11
-75.9426109789807
 21
9.842723789372798
 31
0.0
  0
LINE
  5
2061B
330
1F
100
AcDbEntity
  8
AM_0
  6
Continuous
370
    30
100
AcDbLine
 10
-75.08565211455149
 20
0.5963062649893516
 30
0.0
 11
-73.05145885279543
 21
0.1250803312692312
 31
0.0
  0
LINE
  5
2061C
330
1F
100
AcDbEntity
  8
AM_0
  6
Continuous
370
    30
100
AcDbLine
 10
-74.79457195671088
 20
10.19161217150858
 30
0.0
 11
-72.73246142449349
 21
10.5197832520706
 31
0.0
  0
ELLIPSE
  5
2061D
330
1F
100
AcDbEntity
  8
AM_0
  6
Continuous
370
    30
100
AcDbEllipse
 10
-73.03690787595858
 20
0.5247581521534528
 30
0.0
 11
0.01396065374498797
 21
0.3997563009472304
 31
0.0
210
0.0
220
0.0
230
0.9999999999999999
 40
0.0871434210711437
 41
3.124588183298889
 42
4.764924867629502
  0
ELLIPSE
  5
2061E
330
1F
100
AcDbEntity
  8
AM_0
  6
Continuous
370
    30
100
AcDbEllipse
 10
-72.74582771849279
 20
10.12006405861305
 30
0.0
 11
0.01396065374498797
 21
0.3997563009472304
 31
0.0
210
0.0
220
0.0
230
0.9999999999999999
 40
0.0871434210711437
 41
4.764924867629505
 42
6.300189777470502
  0
LINE
  5
2061F
330
1F
100
AcDbEntity
  8
AM_0
  6
Continuous
370
    30
100
AcDbLine
 10
-62.01600620988822
 20
20.06217104352081
 30
0.0
 11
-62.01600620988822
 21
19.5644350999452
 31
0.0
  0
LINE
  5
20620
330
1F
100
AcDbEntity
  8
AM_0
  6
Continuous
370
    30
100
AcDbLine
 10
-62.03039342092163
 20
19.54522204257998
 30
0.0
 11
-62.01600654517026
 21
19.56443535100348
 31
0.0
  0
LINE
  5
20621
330
1F
100
AcDbEntity
  8
AM_0
  6
Continuous
370
    30
100
AcDbLine
 10
-62.01600620988822
 20
19.56443509994526
 30
0.0
 11
-62.01600620988822
 21
8.187828956482832
 31
0.0
  0
ARC
  5
20622
330
1F
100
AcDbEntity
  8
AM_0
  6
Continuous
370
    30
100
AcDbCircle
 10
-73.01600620988822
 20
14.12500000000179
 30
0.0
 40
12.50000000000003
100
AcDbArc
 50
300.8950859990653
 51
331.642363423673
  0
ARC
  5
20623
330
1F
100
AcDbEntity
  8
AM_0
  6
Continuous
370
    30
100
AcDbCircle
 10
-73.01600620988822
 20
14.12500000000179
 30
0.0
 40
12.25
100
AcDbArc
 50
26.26139712072554
 51
61.29168463785203
  0
LINE
  5
20624
330
1F
100
AcDbEntity
  8
AM_0
  6
Continuous
370
    30
100
AcDbLine
 10
-66.62024503984637
 20
3.677219401844212
 30
0.0
 11
-66.59771425313076
 21
3.398633818057505
 31
0.0
  0
ARC
  5
20625
330
1F
100
AcDbEntity
  8
AM_0
  6
Continuous
370
    30
100
AcDbCircle
 10
-73.01600620988822
 20
14.12500000000179
 30
0.0
 40
12.25
100
AcDbArc
 50
296.1482971750862
 51
301.4737254929646
  0
ELLIPSE
  5
20626
330
1F
100
AcDbEntity
  8
AM_0
  6
Continuous
370
    30
100
AcDbEllipse
 10
-76.10409893069445
 20
15.01822649052681
 30
0.0
 11
-13.9845599154313
 21
4.045014351620912
 31
0.0
210
0.0
220
0.0
230
1.0
 40
0.9753142193675602
 41
2.072285384390455
 42
2.082747468588073
  0
ELLIPSE
  5
20627
330
1F
100
AcDbEntity
  8
AM_0
  6
Continuous
370
    30
100
AcDbEllipse
 10
-73.0940591301455
 20
-11.57499999999814
 30
0.0
 11
-5.091453672150059
 21
-14.87780146547137
 31
0.0
210
0.0
220
0.0
230
1.0
 40
0.375288728532884
 41
3.070235572520988
 42
3.827792698697022
  0
LINE
  5
20628
330
1F
100
AcDbEntity
  8
AM_0
  6
Continuous
370
    30
100
AcDbLine
 10
-68.9529723783605
 20
2.558293696231402
 30
0.0
 11
-67.61284149205002
 21
3.117594223908014
 31
0.0
  0
LINE
  5
20629
330
1F
100
AcDbEntity
  8
AM_0
  6
Continuous
370
    30
100
AcDbLine
 10
-68.95643235531836
 20
2.568338119867605
 30
0.0
 11
-68.48183798881516
 21
2.477491567556825
 31
0.0
  0
ARC
  5
2062A
330
1F
100
AcDbEntity
  8
AM_0
  6
Continuous
370
    30
100
AcDbCircle
 10
-73.01705202480329
 20
14.12970224396858
 30
0.0
 40
12.50476137631596
100
AcDbArc
 50
273.8142207369253
 51
291.2636397399099
  0
ARC
  5
2062B
330
1F
100
AcDbEntity
  8
AM_0
  6
Continuous
370
    30
100
AcDbCircle
 10
-73.01600620988822
 20
14.12500000000179
 30
0.0
 40
12.25
100
AcDbArc
 50
61.29168463785203
 51
90.0
  0
LINE
  5
2062C
330
1F
100
AcDbEntity
  8
AM_0
  6
Continuous
370
    30
100
AcDbLine
 10
-67.13170899562621
 20
24.86918662785914
 30
0.0
 11
-71.28187743136661
 21
20.73394894932213
 31
0.0
  0
ARC
  5
2062D
330
1F
100
AcDbEntity
  8
AM_0
  6
Continuous
370
    30
100
AcDbCircle
 10
-73.01600620988822
 20
13.12500000000179
 30
0.0
 40
13.25
100
AcDbArc
 50
90.0
 51
149.369035796885
  0
LINE
  5
2062E
330
1F
100
AcDbEntity
  8
AM_0
  6
Continuous
370
    30
100
AcDbLine
 10
-74.40804344077296
 20
10.30907795972868
 30
0.0
 11
-74.41781132569926
 21
10.25157110264283
 31
0.0
  0
ELLIPSE
  5
2062F
330
1F
100
AcDbEntity
  8
AM_0
  6
Continuous
370
    30
100
AcDbEllipse
 10
-62.32301837162274
 20
18.50367746492643
 30
0.0
 11
-10.02510347349346
 21
-0.02501063756294997
 31
0.0
210
0.0
220
0.0
230
1.0
 40
0.4994437682975481
 41
5.816538702469384
 42
6.153626229943439
  0
LINE
  5
20630
330
1F
100
AcDbEntity
  8
AM_0
  6
Continuous
370
    30
100
AcDbLine
 10
-72.9889149699238
 20
1.081672091454578
 30
0.0
 11
-72.84068414060809
 21
1.113874083213233
 31
0.0
  0
LINE
  5
20631
330
1F
100
AcDbEntity
  8
AM_0
  6
Continuous
370
    30
100
AcDbLine
 10
-72.68932779802159
 20
10.83139463051455
 30
0.0
 11
-72.74252900264079
 21
10.5181810644344
 31
0.0
  0
ARC
  5
20632
330
1F
100
AcDbEntity
  8
AM_0
  6
Continuous
370
    30
100
AcDbCircle
 10
-73.01600620988822
 20
13.12500000000179
 30
0.0
 40
13.25
100
AcDbArc
 50
149.369035796885
 51
177.8373816461096
  0
LINE
  5
20633
330
1F
100
AcDbEntity
  8
AM_0
  6
Continuous
370
    30
100
AcDbLine
 10
-84.41719132906505
 20
19.87596125587194
 30
0.0
 11
-72.26571486292957
 21
19.12576228926045
 31
0.0
  0
ELLIPSE
  5
20634
330
1F
100
AcDbEntity
  8
AM_0
  6
Continuous
370
    30
100
AcDbEllipse
 10
-62.32499467223815
 20
18.47880203471445
 30
0.0
 11
2.859639323835434
 21
20.14950623745798
 31
0.0
210
0.0
220
0.0
230
1.0
 40
0.4884116208105038
 41
1.607964910191684
 42
1.794476158315924
  0
LINE
  5
20635
330
1F
100
AcDbEntity
  8
AM_0
  6
Continuous
370
    30
100
AcDbLine
 10
-72.55540348751546
 20
15.37113982924697
 30
0.0
 11
-72.68932779802161
 21
10.8313946305145
 31
0.0
  0
LINE
  5
20636
330
1F
100
AcDbEntity
  8
AM_0
  6
Continuous
370
    30
100
AcDbLine
 10
-74.40804344077284
 20
10.30907795972857
 30
0.0
 11
-72.68932779802159
 21
10.8313946305145
 31
0.0
  0
LINE
  5
20637
330
1F
100
AcDbEntity
  8
AM_0
  6
Continuous
370
    30
100
AcDbLine
 10
-75.93241633915008
 20
10.17878478587969
 30
0.0
 11
-74.40804344077284
 21
10.30907795972863
 31
0.0
  0
LINE
  5
20638
330
1F
100
AcDbEntity
  8
AM_0
  6
Continuous
370
    30
100
AcDbLine
 10
-76.20661746854088
 20
1.13988725569979
 30
0.0
 11
-75.93241633915008
 21
10.17878478587969
 31
0.0
  0
ARC
  5
20639
330
1F
100
AcDbEntity
  8
AM_0
  6
Continuous
370
    30
100
AcDbCircle
 10
-73.01600620988822
 20
14.12500000000179
 30
0.0
 40
13.25
100
AcDbArc
 50
223.6605366625781
 51
256.0661880310988
  0
ARC
  5
2063A
330
1F
100
AcDbEntity
  8
AM_0
  6
Continuous
370
    30
100
AcDbCircle
 10
-73.01600620988822
 20
14.12500000000179
 30
0.0
 40
13.25
100
AcDbArc
 50
182.1626183538904
 51
213.291994374608
  0
ELLIPSE
  5
2063B
330
1F
100
AcDbEntity
  8
AM_0
  6
Continuous
370
    30
100
AcDbEllipse
 10
-89.39970328371928
 20
5.878121369848685
 30
0.0
 11
-7.816040222960598
 21
0.1925059746715917
 31
0.0
210
0.0
220
0.0
230
1.0
 40
0.1915891632938394
 41
2.630211311443135
 42
3.970519354847337
  0
ARC
  5
2063C
330
1F
100
AcDbEntity
  8
AM_0
  6
Continuous
370
    30
100
AcDbCircle
 10
-73.01600620988822
 20
14.12500000000179
 30
0.0
 40
12.5
100
AcDbArc
 50
28.35763657632696
 51
132.9036106372477
  0
ARC
  5
2063D
330
1F
100
AcDbEntity
  8
AM_0
  6
Continuous
370
    30
100
AcDbCircle
 10
-73.01600620988822
 20
14.12500000000179
 30
0.0
 40
12.5
100
AcDbArc
 50
291.2669890121828
 51
300.8950859990653
  0
ELLIPSE
  5
2063E
330
1F
100
AcDbEntity
  8
AM_0
  6
Continuous
370
    30
100
AcDbEllipse
 10
-72.93867812066728
 20
5.178254452068103
 30
0.0
 11
0.06294823308271375
 21
1.8024910056482
 31
0.0
210
0.0
220
0.0
230
1.0
 40
0.0871434210711437
 41
3.711351725386561
 42
5.818498009872422
  0
LINE
  5
2063F
330
1F
100
AcDbEntity
  8
AM_0
  6
Continuous
370
    30
100
AcDbLine
 10
0.000549777476067
 20
-91.13931600925511
 30
0.0
 11
0.503418451575044
 21
-90.84823585178933
 31
0.0
  0
LINE
  5
20640
330
1F
100
AcDbEntity
  8
AM_0
  6
Continuous
370
    30
100
AcDbLine
 10
0.3581260369742267
 20
-94.34874002718325
 30
0.0
 11
2.721594010682452
 21
-94.5131889265962
 31
0.0
  0
LINE
  5
20641
330
1F
100
AcDbEntity
  8
AM_0
  6
Continuous
370
    30
100
AcDbLine
 10
0.2191526956322605
 20
-93.22358141401983
 30
0.0
 11
0.3581260369742267
 21
-94.34874002718325
 31
0.0
  0
LINE
  5
20642
330
1F
100
AcDbEntity
  8
AM_0
  6
Continuous
370
    30
100
AcDbLine
 10
6.811135052338273
 20
-91.63669357321348
 30
0.0
 11
0.5793211832138923
 21
-91.20308713406379
 31
0.0
  0
LINE
  5
20643
330
1F
100
AcDbEntity
  8
AM_0
  6
Continuous
370
    30
100
AcDbLine
 10
1.118432644635277
 20
-90.89102822651043
 30
0.0
 11
1.579094568038272
 21
-90.94178562178027
 31
0.0
  0
LINE
  5
20644
330
1F
100
AcDbEntity
  8
AM_0
  6
Continuous
370
    30
100
AcDbLine
 10
5.414311727977292
 20
-91.36436370658223
 30
0.0
 11
7.943425203493462
 21
-91.64303056797778
 31
0.0
  0
LINE
  5
20645
330
1F
100
AcDbEntity
  8
AM_0
  6
Continuous
370
    30
100
AcDbLine
 10
0.2191526956341932
 20
-93.22358141397919
 30
0.0
 11
0.0000027560060971
 21
-91.14005320780095
 31
0.0
  0
ELLIPSE
  5
20646
330
1F
100
AcDbEntity
  8
AM_0
  6
Continuous
370
    30
100
AcDbEllipse
 10
0.398478310408791
 20
-91.17483717576502
 30
0.0
 11
-0.3984764651309684
 21
0.03487845662767117
 31
0.0
210
0.0
220
0.0
230
1.0
 40
0.0347688607281558
 41
6.23369271248328
 42
8.328087814876483
  0
ELLIPSE
  5
20647
330
1F
100
AcDbEntity
  8
AM_0
  6
Continuous
370
    30
100
AcDbEllipse
 10
0.9013469845076543
 20
-90.88375701829929
 30
0.0
 11
-0.3984764651309684
 21
0.03487845662767117
 31
0.0
210
0.0
220
0.0
230
1.0
 40
0.0347688607281558
 41
4.139297610090093
 42
6.233692712483298
  0
LINE
  5
20649
330
1F
100
AcDbEntity
  8
AM_0
  6
Continuous
370
    30
100
AcDbLine
 10
18.00000000000023
 20
-102.1539355096946
 30
0.0
 11
27.00000000000011
 21
-102.1539355096946
 31
0.0
  0
LINE
  5
2064A
330
1F
100
AcDbEntity
  8
AM_0
  6
Continuous
370
    30
100
AcDbLine
 10
27.00000000000011
 20
-102.1539355096946
 30
0.0
 11
27.25000000000011
 21
-102.1539355096946
 31
0.0
  0
LINE
  5
2064B
330
1F
100
AcDbEntity
  8
AM_0
  6
Continuous
370
    30
100
AcDbLine
 10
27.25000000000011
 20
-102.1539355096946
 30
0.0
 11
299.0000000000003
 21
-102.1539355096946
 31
0.0
  0
LINE
  5
2064E
330
1F
100
AcDbEntity
  8
AM_0
  6
Continuous
370
    30
100
AcDbLine
 10
26.99999984697479
 20
-80.16832215665303
 30
0.0
 11
27.02140784366691
 21
-80.15393528288578
 31
0.0
  0
LINE
  5
2064F
330
1F
100
AcDbEntity
  8
AM_0
  6
Continuous
370
    30
100
AcDbLine
 10
27.02140799608992
 20
-80.15393550969461
 30
0.0
 11
35.0000000059506
 21
-80.15393550969461
 31
0.0
  0
ELLIPSE
  5
20650
330
1F
100
AcDbEntity
  8
AM_0
  6
Continuous
370
    30
100
AcDbEllipse
 10
4.165435676235688
 20
-91.15393550969461
 30
0.0
 11
-31.52852672543128
 21
-12.12779904638238
 31
0.0
210
0.0
220
0.0
230
1.0
 40
0.0960279956234398
 41
2.354660019609605
 42
2.891301246693153
  0
ELLIPSE
  5
20651
330
1F
100
AcDbEntity
  8
AM_0
  6
Continuous
370
    30
100
AcDbEllipse
 10
4.165435676235688
 20
-91.15393550969461
 30
0.0
 11
-30.89795619092259
 21
-11.8852430654547
 31
0.0
210
0.0
220
0.0
230
1.0
 40
0.0960279956234398
 41
3.84458321896447
 42
4.455977074058604
  0
LINE
  5
20652
330
1F
100
AcDbEntity
  8
AM_0
  6
Continuous
370
    30
100
AcDbLine
 10
27.00000394327537
 20
-84.7581622798356
 30
0.0
 11
27.25000376218077
 21
-84.73563153203176
 31
0.0
  0
ELLIPSE
  5
20653
330
1F
100
AcDbEntity
  8
AM_0
  6
Continuous
370
    30
100
AcDbEllipse
 10
4.165435676235688
 20
-91.15393550969461
 30
0.0
 11
-30.89795619092259
 21
-11.8852430654547
 31
0.0
210
0.0
220
0.0
230
1.0
 40
0.0960279956234398
 41
2.271812925734311
 42
2.364759183960261
  0
ELLIPSE
  5
20654
330
1F
100
AcDbEntity
  8
AM_0
  6
Continuous
370
    30
100
AcDbEllipse
 10
-3.948425085117378
 20
-94.24202823050089
 30
0.0
 11
-36.72016512549866
 21
-14.11747504142714
 31
0.0
210
0.0
220
0.0
230
1.0
 40
0.0936636899803371
 41
2.036290892122874
 42
2.046752976320493
  0
LINE
  5
20655
330
1F
100
AcDbEntity
  8
AM_0
  6
Continuous
370
    30
100
AcDbLine
 10
26.99815888777857
 20
-95.21424911659503
 30
0.0
 11
27.24817537141701
 21
-95.68882645809671
 31
0.0
  0
ARC
  5
20656
330
1F
100
AcDbEntity
  8
AM_0
  6
Continuous
370
    30
100
AcDbCircle
 10
21.95430842739313
 20
-89.50809676922259
 30
0.0
 40
7.616305523207215
100
AcDbArc
 50
238.7220769205167
 51
311.4897037415039
  0
LINE
  5
20657
330
1F
100
AcDbEntity
  8
AM_0
  6
Continuous
370
    30
100
AcDbLine
 10
17.5789389996944
 20
-96.76227260239241
 30
0.0
 11
18.00373456539626
 21
-96.01957645133965
 31
0.0
  0
ARC
  5
20658
330
1F
100
AcDbEntity
  8
AM_0
  6
Continuous
370
    30
100
AcDbCircle
 10
19.94822449884055
 20
-91.33835350505197
 30
0.0
 40
5.918364454837072
100
AcDbArc
 50
175.0787309730963
 51
246.362466621742
  0
ELLIPSE
  5
20659
330
1F
100
AcDbEntity
  8
AM_0
  6
Continuous
370
    30
100
AcDbEllipse
 10
22.00000000000023
 20
-91.23198842995188
 30
0.0
 11
14.91246031207385
 21
6.618510105017332
 31
0.0
210
0.0
220
0.0
230
1.0
 40
0.2444940690526476
 41
1.263618405492788
 42
2.021175531668822
  0
ARC
  5
2065A
330
1F
100
AcDbEntity
  8
AM_0
  6
Continuous
370
    30
100
AcDbCircle
 10
22.66837342720032
 20
-91.45828354016348
 30
0.0
 40
6.148560323659021
100
AcDbArc
 50
45.2112847742503
 51
68.05050739199949
  0
LINE
  5
2065B
330
1F
100
AcDbEntity
  8
AM_0
  6
Continuous
370
    30
100
AcDbLine
 10
26.99815888846945
 20
-87.09362190311938
 30
0.0
 11
27.24817537994181
 21
-86.6190445657451
 31
0.0
  0
ARC
  5
2065C
330
1F
100
AcDbEntity
  8
AM_0
  6
Continuous
370
    30
100
AcDbCircle
 10
22.70441003035046
 20
-91.15393550969461
 30
0.0
 40
6.420195221872588
100
AcDbArc
 50
315.0735814181512
 51
44.92641858184884
  0
LINE
  5
2065D
330
1F
100
AcDbEntity
  8
AM_0
  6
Continuous
370
    30
100
AcDbLine
 10
10.89750771756167
 20
-85.2696382954326
 30
0.0
 11
3.735065956962444
 21
-89.41980673117305
 31
0.0
  0
LINE
  5
2065E
330
1F
100
AcDbEntity
  8
AM_0
  6
Continuous
370
    30
100
AcDbLine
 10
11.00010335531158
 20
-104.3960717104035
 30
0.0
 11
11.43204079522479
 21
-104.3677003394772
 31
0.0
  0
LINE
  5
2065F
330
1F
100
AcDbEntity
  8
AM_0
  6
Continuous
370
    30
100
AcDbLine
 10
6.553195949416477
 20
-91.4898500853287
 30
0.0
 11
6.601230288294232
 21
-91.39243489797823
 31
0.0
  0
LINE
  5
20660
330
1F
100
AcDbEntity
  8
AM_0
  6
Continuous
370
    30
100
AcDbLine
 10
6.811135052696159
 20
-91.63669356947455
 30
0.0
 11
3.013752364365928
 21
-91.37247361359081
 31
0.0
  0
LINE
  5
20661
330
1F
100
AcDbEntity
  8
AM_0
  6
Continuous
370
    30
100
AcDbLine
 10
3.013752364365928
 20
-91.37247361359081
 30
0.0
 11
2.978732724747601
 21
-91.39274435770298
 31
0.0
  0
SPLINE
  5
20662
330
1F
100
AcDbEntity
  8
AM_0
  6
Continuous
370
    30
100
AcDbSpline
210
0.0
220
0.0
230
1.0
 70
     8
 71
     3
 72
    32
 73
    28
 74
     0
 42
0.0000000001
 43
0.0000000001
 40
3.061491292327174
 40
3.061491292327174
 40
3.061491292327174
 40
3.061491292327174
 40
3.471314251020917
 40
3.471314251020917
 40
4.037673858724091
 40
4.037673858724091
 40
4.320853662575678
 40
4.320853662575678
 40
4.604033466427266
 40
4.604033466427266
 40
4.891242551709038
 40
4.891242551709038
 40
5.178451636990809
 40
5.178451636990809
 40
5.465660722272581
 40
5.465660722272581
 40
5.752869807554352
 40
5.752869807554352
 40
6.339751711584013
 40
6.339751711584013
 40
6.926633615613674
 40
6.926633615613674
 40
7.213984122792015
 40
7.213984122792015
 40
7.501334629970357
 40
7.501334629970357
 40
7.693064527742777
 40
7.693064527742777
 40
7.693064527742777
 40
7.693064527742777
 10
8.730011893011238
 20
-91.14293315588552
 30
0.0
 10
8.871474221647873
 20
-91.11432015641881
 30
0.0
 10
9.010376755506627
 20
-91.08736370960426
 30
0.0
 10
9.314548561158517
 20
-91.03333506281993
 30
0.0
 10
9.49322168057472
 20
-91.00608244520797
 30
0.0
 10
9.721398754209645
 20
-90.98515277963176
 30
0.0
 10
9.791130185656812
 20
-90.98141115267251
 30
0.0
 10
9.913252079950098
 20
-90.98115087334506
 30
0.0
 10
9.965633815521642
 20
-90.9846409448804
 30
0.0
 10
10.05162249175487
 20
-90.99807089690947
 30
0.0
 10
10.08759734308023
 20
-91.00851519494276
 30
0.0
 10
10.1400623712608
 20
-91.03656256059392
 30
0.0
 10
10.15656447526385
 20
-91.05415674053856
 30
0.0
 10
10.16871697477086
 20
-91.09471068577173
 30
0.0
 10
10.16438599922458
 20
-91.11769201470165
 30
0.0
 10
10.13657677209119
 20
-91.1662927644301
 30
0.0
 10
10.11309475671192
 20
-91.19189625949829
 30
0.0
 10
10.01988495305875
 20
-91.2688974169462
 30
0.0
 10
9.917334942151456
 20
-91.32670236150327
 30
0.0
 10
9.648836390713541
 20
-91.4329113286511
 30
0.0
 10
9.482792319316104
 20
-91.48104497574011
 30
0.0
 10
9.225953721476458
 20
-91.53584945169993
 30
0.0
 10
9.134402385358499
 20
-91.55249744979633
 30
0.0
 10
8.942781392119514
 20
-91.58129757974311
 30
0.0
 10
8.842712930020412
 20
-91.59345348000053
 30
0.0
 10
8.674410184226417
 20
-91.60948591413066
 30
0.0
 10
8.606587948897982
 20
-91.61479241823648
 30
0.0
 10
8.539355067236784
 20
-91.61902612495405
 30
0.0
  0
ELLIPSE
  5
20663
330
1F
100
AcDbEntity
  8
AM_0
  6
Continuous
370
    30
100
AcDbEllipse
 10
5.832256457946528
 20
-81.39181807868178
 30
0.0
 11
11.48295148589155
 21
-1.085102025663424
 31
0.0
210
0.0
220
0.0
230
1.0
 40
0.866464517091699
 41
4.86087772354685
 42
5.048326166561595
  0
ELLIPSE
  5
20664
330
1F
100
AcDbEntity
  8
AM_0
  6
Continuous
370
    30
100
AcDbEllipse
 10
3.349356105198353
 20
-81.0040317550515
 30
0.0
 11
16.59837429199722
 21
-3.658149946829864
 31
0.0
210
0.0
220
0.0
230
1.0
 40
0.5862043413448994
 41
4.962156403738862
 42
5.036416246591641
  0
ELLIPSE
  5
20665
330
1F
100
AcDbEntity
  8
AM_0
  6
Continuous
370
    30
100
AcDbEllipse
 10
-0.127877568682834
 20
-80.46094767142913
 30
0.0
 11
-0.1291729673423641
 21
-10.02448852573554
 31
0.0
210
0.0
220
0.0
230
1.0
 40
0.8650298724057896
 41
0.1394591547812394
 42
0.4765466822552943
  0
ARC
  5
20666
330
1F
100
AcDbEntity
  8
AM_0
  6
Continuous
370
    30
100
AcDbCircle
 10
9.32555245910612
 20
-80.91683699696839
 30
0.0
 40
10.97775403346966
100
AcDbArc
 50
278.7736289432112
 51
293.5719863728388
  0
ELLIPSE
  5
20667
330
1F
100
AcDbEntity
  8
AM_0
  6
Continuous
370
    30
100
AcDbEllipse
 10
8.561680307268034
 20
-81.81810713171839
 30
0.0
 11
4.885377224301458
 21
8.907248798795303
 31
0.0
210
0.0
220
0.0
230
1.0
 40
0.854993813726239
 41
3.517261260113483
 42
3.628103435126317
  0
LINE
  5
20668
330
1F
100
AcDbEntity
  8
AM_0
  6
Continuous
370
    30
100
AcDbLine
 10
0.5396612385619619
 20
-90.82725709782804
 30
0.0
 11
1.579094574708961
 21
-90.94178561867855
 31
0.0
  0
ELLIPSE
  5
20669
330
1F
100
AcDbEntity
  8
AM_0
  6
Continuous
370
    30
100
AcDbEllipse
 10
-0.1152238024300232
 20
-80.46292397204459
 30
0.0
 11
0.8323514893491417
 21
-10.24792514958368
 31
0.0
210
0.0
220
0.0
230
1.0
 40
0.1062950667300546
 41
0.0504762910048149
 42
0.236987539129055
  0
LINE
  5
2066A
330
1F
100
AcDbEntity
  8
AM_0
  6
Continuous
370
    30
100
AcDbLine
 10
0.7710282305280316
 20
-90.69333278732185
 30
0.0
 11
0.5396612385619619
 21
-90.82725709782804
 31
0.0
  0
LINE
  5
2066B
330
1F
100
AcDbEntity
  8
AM_0
  6
Continuous
370
    30
100
AcDbLine
 10
0.5413106877751943
 20
-90.84629905233177
 30
0.0
 11
0.5396612385619619
 21
-90.82725709782804
 31
0.0
  0
ELLIPSE
  5
2066C
330
1F
100
AcDbEntity
  8
AM_0
  6
Continuous
370
    30
100
AcDbEllipse
 10
7.399102141317371
 20
-81.63653242115547
 30
0.0
 11
11.48295148589149
 21
-1.085102025663402
 31
0.0
210
0.0
220
0.0
230
1.0
 40
0.8664645170917034
 41
4.829218444539548
 42
4.893215582054124
  0
ELLIPSE
  5
2066D
330
1F
100
AcDbEntity
  8
AM_0
  6
Continuous
370
    30
100
AcDbEllipse
 10
0.7494817857570979
 20
-91.15393550969461
 30
0.0
 11
-1.375588134227814
 21
13.24978433411659
 31
0.0
210
0.0
220
0.0
230
1.0
 40
0.0549570576712111
 41
1.80864994612599
 42
2.373866974387947
  0
ELLIPSE
  5
2066E
330
1F
100
AcDbEntity
  8
AM_0
  6
Continuous
370
    30
100
AcDbEllipse
 10
-30.95547388625835
 20
-91.15393550969461
 30
0.0
 11
151.4697656687666
 21
-13.24204949976459
 31
0.0
210
0.0
220
0.0
230
0.9999999999999999
 40
0.0030299052858606
 41
4.92277973520674
 42
4.936844550961208
  0
ELLIPSE
  5
2066F
330
1F
100
AcDbEntity
  8
AM_0
  6
Continuous
370
    30
100
AcDbEllipse
 10
3.658466204734395
 20
-91.15393550969461
 30
0.0
 11
1.185657725333589
 21
13.24987103417938
 31
0.0
210
0.0
220
0.0
230
1.0
 40
0.0493060098116254
 41
1.593232705670784
 42
1.83430782948416
  0
ELLIPSE
  5
20670
330
1F
100
AcDbEntity
  8
AM_0
  6
Continuous
370
    30
100
AcDbEllipse
 10
5.536093287703579
 20
-91.15393550969461
 30
0.0
 11
151.4697656687639
 21
-13.24204949976459
 31
0.0
210
0.0
220
0.0
230
1.0
 40
0.0030299052858607
 41
4.695769427158895
 42
4.729818346762281
  0
ARC
  5
20671
330
1F
100
AcDbEntity
  8
AM_0
  6
Continuous
370
    30
100
AcDbCircle
 10
9.230626241152208
 20
-79.33221244029883
 30
0.0
 40
12.55918634831074
100
AcDbArc
 50
264.9992882388382
 51
278.0989352243747
  0
LINE
  5
20672
330
1F
100
AcDbEntity
  8
AM_0
  6
Continuous
370
    30
100
AcDbLine
 10
2.092142347464005
 20
-104.39449818656
 30
0.0
 11
11.00000000000011
 21
-104.39449818656
 31
0.0
  0
ELLIPSE
  5
20673
330
1F
100
AcDbEntity
  8
AM_0
  6
Continuous
370
    30
100
AcDbEllipse
 10
0.7494817857570979
 20
-91.15393550969461
 30
0.0
 11
-1.375588134227814
 21
13.24978433411659
 31
0.0
210
0.0
220
0.0
230
1.0
 40
0.0549570576712111
 41
2.554832175945293
 42
3.098142281598186
  0
SPLINE
  5
20674
330
1F
100
AcDbEntity
  8
AM_0
  6
Continuous
370
    30
100
AcDbSpline
210
0.0
220
0.0
230
1.0
 70
     8
 71
     3
 72
    47
 73
    43
 74
     0
 42
0.0000000001
 43
0.0000000001
 40
3.44126310917176
 40
3.44126310917176
 40
3.44126310917176
 40
3.44126310917176
 40
4.078905739185131
 40
4.078905739185131
 40
4.735971664558697
 40
4.735971664558697
 40
5.06450462724548
 40
5.06450462724548
 40
5.393037589932264
 40
5.393037589932264
 40
5.672131989936723
 40
5.672131989936723
 40
5.951226389941183
 40
5.951226389941183
 40
6.509415189950102
 40
6.509415189950102
 40
7.31847976550916
 40
7.31847976550916
 40
8.127544341068219
 40
8.127544341068219
 40
8.872887353135893
 40
8.872887353135893
 40
9.24555885916973
 40
9.24555885916973
 40
9.618230365203566
 40
9.618230365203566
 40
9.900489847027021
 40
9.900489847027021
 40
10.18274932885048
 40
10.18274932885048
 40
10.46500881067393
 40
10.46500881067393
 40
10.74726829249739
 40
10.74726829249739
 40
10.74726829249739
 40
11.03994162817349
 40
11.03994162817349
 40
11.33261496384958
 40
11.33261496384958
 40
11.62528829952568
 40
11.62528829952568
 40
11.76245540085411
 40
11.76245540085411
 40
11.76245540085411
 40
11.76245540085411
 10
1.233492529082582
 20
-100.7395530088859
 30
0.0
 10
1.319956770814201
 20
-100.5933161169823
 30
0.0
 10
1.430872705806337
 20
-100.4519381469929
 30
0.0
 10
1.686360324839939
 20
-100.2009843658247
 30
0.0
 10
1.852031092609082
 20
-100.0733211308996
 30
0.0
 10
2.137410182238227
 20
-99.93278550369283
 30
0.0
 10
2.238633467436102
 20
-99.89432714106781
 30
0.0
 10
2.448489877510383
 20
-99.84138093495116
 30
0.0
 10
2.557130799388233
 20
-99.8269246108334
 30
0.0
 10
2.759673253618644
 20
-99.8269246108334
 30
0.0
 10
2.853345977222034
 20
-99.83748831300633
 30
0.0
 10
3.034558444796744
 20
-99.87923083818819
 30
0.0
 10
3.122111718888164
 20
-99.9103681501966
 30
0.0
 10
3.367054908294335
 20
-100.0271040272694
 30
0.0
 10
3.506786790912202
 20
-100.1368135356103
 30
0.0
 10
3.768410190665804
 20
-100.4082277156824
 30
0.0
 10
3.884186564117726
 20
-100.5986192393912
 30
0.0
 10
4.025503746340064
 20
-100.9830389000291
 30
0.0
 10
4.050223795861712
 20
-101.1770731888523
 30
0.0
 10
4.020125590972725
 20
-101.5074566228758
 30
0.0
 10
3.968816700246521
 20
-101.6717705166497
 30
0.0
 10
3.825288311794907
 20
-101.8921859477472
 30
0.0
 10
3.766631803602536
 20
-101.9615470384801
 30
0.0
 10
3.629858519566255
 20
-102.0881088409878
 30
0.0
 10
3.551727659271592
 20
-102.145318107013
 30
0.0
 10
3.401725887816269
 20
-102.2330031320036
 30
0.0
 10
3.328952039810133
 20
-102.2688819111663
 30
0.0
 10
3.170179497911022
 20
-102.3325868332603
 30
0.0
 10
3.084176708198243
 20
-102.3604207052503
 30
0.0
 10
2.903917169501483
 20
-102.4054566967418
 30
0.0
 10
2.809495912445641
 20
-102.422705281334
 30
0.0
 10
2.618473297009018
 20
-102.4455352829514
 30
0.0
 10
2.521869382589443
 20
-102.4511148098593
 30
0.0
 10
2.427782888648267
 20
-102.4511148098593
 30
0.0
 10
2.3302251100896
 20
-102.4511148098593
 30
0.0
 10
2.230221325241928
 20
-102.4451051981059
 30
0.0
 10
2.033978248730818
 20
-102.4199767595191
 30
0.0
 10
1.937737490145992
 20
-102.4008568724719
 30
0.0
 10
1.756574579095741
 20
-102.3504653688305
 30
0.0
 10
1.67141521602025
 20
-102.3191170207583
 30
0.0
 10
1.558416341736916
 20
-102.2661024485514
 30
0.0
 10
1.524138758508002
 20
-102.2481542620883
 30
0.0
 10
1.491824510524339
 20
-102.2293993730646
 30
0.0
  0
ELLIPSE
  5
20675
330
1F
100
AcDbEntity
  8
AM_0
  6
Continuous
370
    30
100
AcDbEllipse
 10
1.987144777721255
 20
-107.5376325835257
 30
0.0
 11
0.8193825181750609
 21
-7.816122476621911
 31
0.0
210
0.0
220
0.0
230
1.0
 40
0.0105327973282415
 41
2.316280505021811
 42
2.653081476773712
  0
LINE
  5
20676
330
1F
100
AcDbEntity
  8
AM_0
  6
Continuous
370
    30
100
AcDbLine
 10
18.00000000000011
 20
-103.4039355096947
 30
0.0
 11
17.57526077778266
 21
-103.8286747319121
 31
0.0
  0
LINE
  5
20677
330
1F
100
AcDbEntity
  8
AM_0
  6
Continuous
370
    30
100
AcDbLine
 10
17.57526077778266
 20
-103.8286747319121
 30
0.0
 11
11.43193868500487
 21
-104.3661457714185
 31
0.0
  0
LINE
  5
20679
330
1F
100
AcDbEntity
  8
AM_0
  6
Continuous
370
    30
100
AcDbLine
 10
27.00000000000011
 20
-102.1539355096946
 30
0.0
 11
27.00000000000011
 21
-95.21327918321779
 31
0.0
  0
LINE
  5
2067B
330
1F
100
AcDbEntity
  8
AM_0
  6
Continuous
370
    30
100
AcDbLine
 10
27.25000000000011
 20
-102.1539355096946
 30
0.0
 11
27.25000000000011
 21
-95.68786520861769
 31
0.0
  0
LINE
  5
2067C
330
1F
100
AcDbEntity
  8
AM_0
  6
Continuous
370
    30
100
AcDbLine
 10
18.00000000000011
 20
-102.1539355096947
 30
0.0
 11
18.00000000000011
 21
-96.0174404138526
 31
0.0
  0
LINE
  5
2067D
330
1F
100
AcDbEntity
  8
AM_0
  6
Continuous
370
    30
100
AcDbLine
 10
18.00000000000011
 20
-103.4039355096946
 30
0.0
 11
18.00000000000011
 21
-102.1539355096947
 31
0.0
  0
LINE
  5
2067E
330
1F
100
AcDbEntity
  8
AM_0
  6
Continuous
370
    30
100
AcDbLine
 10
27.25000000000011
 20
-86.62000581077163
 30
0.0
 11
27.25000000000011
 21
-84.73558978710142
 31
0.0
  0
LINE
  5
2067F
330
1F
100
AcDbEntity
  8
AM_0
  6
Continuous
370
    30
100
AcDbLine
 10
27.00000000000011
 20
-87.09459183617148
 30
0.0
 11
27.00000000000011
 21
-84.75811852549091
 31
0.0
  0
LINE
  5
20680
330
1F
100
AcDbEntity
  8
AM_0
  6
Continuous
370
    30
100
AcDbLine
 10
17.57526077778266
 20
-103.8286747319121
 30
0.0
 11
17.57526077778266
 21
-96.76016879135804
 31
0.0
  0
LINE
  5
20681
330
1F
100
AcDbEntity
  8
AM_0
  6
Continuous
370
    30
100
AcDbLine
 10
11.00000000000011
 20
-104.39449818656
 30
0.0
 11
11.00000000000011
 21
-91.76613693070388
 31
0.0
  0
LINE
  5
20682
330
1F
100
AcDbEntity
  8
AM_0
  6
Continuous
370
    30
100
AcDbLine
 10
1.634844679630533
 20
-90.91586281873876
 30
0.0
 11
1.273015621338686
 21
-91.0841068481208
 31
0.0
  0
LINE
  5
20683
330
1F
100
AcDbEntity
  8
AM_0
  6
Continuous
370
    30
100
AcDbLine
 10
5.221755353633057
 20
-91.2298234144528
 30
0.0
 11
5.548853610966035
 21
-91.45836892610615
 31
0.0
  0
LINE
  5
20684
330
1F
100
AcDbEntity
  8
AM_0
  6
Continuous
370
    30
100
AcDbLine
 10
4.450029242977394
 20
-91.1658950333792
 30
0.0
 11
4.447509531685114
 21
-91.19468201955866
 31
0.0
  0
LINE
  5
20685
330
1F
100
AcDbEntity
  8
AM_0
  6
Continuous
370
    30
100
AcDbLine
 10
2.405911814808178
 20
-90.98731980756818
 30
0.0
 11
2.403404487575131
 21
-91.01596530938733
 31
0.0
  0
ELLIPSE
  5
20686
330
1F
100
AcDbEntity
  8
AM_0
  6
Continuous
370
    30
100
AcDbEllipse
 10
3.410541844678619
 20
-91.27572518969461
 30
0.0
 11
-2.141811000078954
 21
0.1874717043737324
 31
0.0
210
0.0
220
0.0
230
1.0
 40
0.0347688607281559
 41
6.222890914918458
 42
9.485072353030491
  0
ELLIPSE
  5
20687
330
1F
100
AcDbEntity
  8
AM_0
  6
Continuous
370
    30
100
AcDbEllipse
 10
3.427970528892843
 20
-91.07660742047372
 30
0.0
 11
-1.796720258465347
 21
0.1572660748893787
 31
0.0
210
0.0
220
0.0
230
1.0
 40
0.0347688607281559
 41
4.33427768150235
 42
10.61746298868193
  0
ELLIPSE
  5
20688
330
1F
100
AcDbEntity
  8
AM_0
  6
Continuous
370
    30
100
AcDbEllipse
 10
3.427970528892843
 20
-91.03612152461326
 30
0.0
 11
-0.2490477907067191
 21
0.02179903539228258
 31
0.0
210
0.0
220
0.0
230
1.0
 40
0.0347688607281559
 41
3.440856980816515
 42
5.990007565049783
  0
ELLIPSE
  5
20689
330
1F
100
AcDbEntity
  8
AM_0
  6
Continuous
370
    30
100
AcDbEllipse
 10
4.237857234783405
 20
-91.09826431951885
 30
0.0
 11
-0.5977146976964525
 21
0.05231768494150679
 31
0.0
210
0.0
220
0.0
230
1.0
 40
0.0347688607281559
 41
0.2992643272267328
 42
1.801217360263244
  0
ELLIPSE
  5
2068A
330
1F
100
AcDbEntity
  8
AM_0
  6
Continuous
370
    30
100
AcDbEllipse
 10
4.428738313938652
 20
-91.14385450000438
 30
0.0
 11
-0.2490477907067191
 21
0.02179903539228258
 31
0.0
210
0.0
220
0.0
230
1.0
 40
0.0347688607281559
 41
2.393659429620226
 42
4.942810013853028
  0
ELLIPSE
  5
2068B
330
1F
100
AcDbEntity
  8
AM_0
  6
Continuous
370
    30
100
AcDbEllipse
 10
5.047743940673854
 20
-91.2182127183207
 30
0.0
 11
-0.5977146976964525
 21
0.05231768494150679
 31
0.0
210
0.0
220
0.0
230
1.0
 40
0.0347688607281559
 41
5.535252083210032
 42
7.037205116246346
  0
ELLIPSE
  5
2068C
330
1F
100
AcDbEntity
  8
AM_0
  6
Continuous
370
    30
100
AcDbEllipse
 10
4.428738313938766
 20
-91.18434039586484
 30
0.0
 11
-0.2490477907067191
 21
0.02179903539228258
 31
0.0
210
0.0
220
0.0
230
1.0
 40
0.0347688607281559
 41
1.346461878423462
 42
3.895612462656525
  0
ELLIPSE
  5
2068D
330
1F
100
AcDbEntity
  8
AM_0
  6
Continuous
370
    30
100
AcDbEllipse
 10
4.237857234783405
 20
-91.19655581927557
 30
0.0
 11
-0.5977146976964525
 21
0.05231768494150679
 31
0.0
210
0.0
220
0.0
230
1.0
 40
0.0347688607281559
 41
4.488054532013265
 42
5.990007565049811
  0
ELLIPSE
  5
2068E
330
1F
100
AcDbEntity
  8
AM_0
  6
Continuous
370
    30
100
AcDbEllipse
 10
3.427970528892843
 20
-91.11709331633418
 30
0.0
 11
-0.2490477907067191
 21
0.02179903539228258
 31
0.0
210
0.0
220
0.0
230
1.0
 40
0.0347688607281559
 41
0.2992643272268745
 42
2.848414911460019
  0
ELLIPSE
  5
2068F
330
1F
100
AcDbEntity
  8
AM_0
  6
Continuous
370
    30
100
AcDbEllipse
 10
2.61808382300228
 20
-91.05495052142854
 30
0.0
 11
-0.5977146976964525
 21
0.05231768494150679
 31
0.0
210
0.0
220
0.0
230
1.0
 40
0.0347688607281559
 41
3.440856980816678
 42
4.94281001385316
  0
ELLIPSE
  5
20690
330
1F
100
AcDbEntity
  8
AM_0
  6
Continuous
370
    30
100
AcDbEllipse
 10
2.427202743846806
 20
-91.00936034094306
 30
0.0
 11
-0.2490477907067191
 21
0.02179903539228258
 31
0.0
210
0.0
220
0.0
230
1.0
 40
0.0347688607281559
 41
5.535252083209994
 42
8.084402667443063
  0
ELLIPSE
  5
20691
330
1F
100
AcDbEntity
  8
AM_0
  6
Continuous
370
    30
100
AcDbEllipse
 10
1.808197117111718
 20
-90.93500212262669
 30
0.0
 11
-0.5977146976964525
 21
0.05231768494150679
 31
0.0
210
0.0
220
0.0
230
1.0
 40
0.0347688607281559
 41
2.393659429619965
 42
3.89561246265666
  0
ELLIPSE
  5
20692
330
1F
100
AcDbEntity
  8
AM_0
  6
Continuous
370
    30
100
AcDbEllipse
 10
2.427202743846806
 20
-90.96887444508261
 30
0.0
 11
-0.2490477907067191
 21
0.02179903539228258
 31
0.0
210
0.0
220
0.0
230
1.0
 40
0.0347688607281559
 41
4.488054532013225
 42
7.037205116246351
  0
ELLIPSE
  5
20693
330
1F
100
AcDbEntity
  8
AM_0
  6
Continuous
370
    30
100
AcDbEllipse
 10
2.61808382300228
 20
-90.95665902167181
 30
0.0
 11
-0.5977146976964525
 21
0.05231768494150679
 31
0.0
210
0.0
220
0.0
230
1.0
 40
0.0347688607281559
 41
1.346461878423387
 42
2.848414911459995
  0
LINE
  5
208F4
330
1F
100
AcDbEntity
  8
AM_0
  6
Continuous
370
    30
100
AcDbLine
 10
184.9344868956933
 20
8.062828956482832
 30
0.0
 11
35.00000000595071
 21
8.062828956482832
 31
0.0
  0
LINE
  5
208F5
330
1F
100
AcDbEntity
  8
AM_0
  6
Continuous
370
    30
100
AcDbLine
 10
299.0000000000002
 20
-80.15393550969461
 30
0.0
 11
35.0000000059506
 21
-80.15393550969461
 31
0.0
  0
ACAD_PROXY_ENTITY
  5
20F0F
330
1F
100
AcDbEntity
  8
AM_5
370
    13
100
AcDbProxyEntity
 90
      498
 91
      533
 95
       25
 70
     0
 92
      668
310
9C020000270000000C00000016000000000000C00C00000013000000010000000C00000016000000000000C00C000000170000000D0000003C0000000600000002000000E0DC01C4EFFE38C09072B47A492C3CC000000000000000007866682A562532C0A58A631B482C3CC000000000000000000C00000016000000000000
310
C00C00000010000000FFFFFFFF0C00000012000000FFFFFFFF0C00000017000000000000000C00000014000000010000000C00000013000000020000000C00000016000000000000C00C000000170000000D0000003C00000006000000020000007866682A562532C0A58A631B482C3CC0000000000000000080200488DFFD
310
2DC0C0B1D579472C3CC000000000000000000C00000016000000000000C00C00000010000000FFFFFFFF0C00000012000000FFFFFFFF0C00000017000000000000000C00000014000000010000000C00000013000000030000000C00000016000000000000C00C000000170000000D0000003C000000060000000200000052
310
892315562532C0D60BE23C72963CC0000000000000000080200488DFFD2DC0C0B1D579472C3CC000000000000000000C00000016000000000000C00C00000010000000FFFFFFFF0C00000012000000FFFFFFFF0C00000017000000000000000C00000014000000010000000C00000013000000040000000C00000016000000
310
000000C00C000000170000000D0000003C000000060000000200000080200488DFFD2DC0C0B1D579472C3CC000000000000000009E43AD3F562532C07409E5F91DC23BC000000000000000000C00000016000000000000C00C00000010000000FFFFFFFF0C00000012000000FFFFFFFF0C00000017000000000000000C0000
310
0014000000010000000C00000013000000050000000C00000016000000000000C0
 93
     1609
310
5DC80200488DFFD2DC0302C755E51CB0F3022696FFFFFFFFFBCFC0000A2D6BCA4C93E80000A2D6BCA4C9BE2696FFFFFFFFFBCFEA54051F8000000C800AA383700713BFF8E3009072B47A492C3CC09018FFFFFFFF2008012237FF4B700C0B1D579472C3CC0A8FFFFFFFF1FFFFFFFF1C1B80389DFFC718048395A3D24961E604
310
5409C87080F4FB4723923AC03B0CD22605A64EB02A49A5BFFFFFFFFEF3F000028B5AF29324FA83333333333330940425050000000000003C2FC000000000000F0BF4040101521340020500
340
1E0E8
340
1E0F4
330
0
330
0
340
0
340
0
340
180
330
0
330
0
 94
        0
  0
TEXT
  5
20F10
330
1F
100
AcDbEntity
  8
AM_6
 62
     0
100
AcDbText
 10
-28.09565460184587
 20
-15.66503149475484
 30
0.0
 40
3.5
  1
-2%%D
 50
0.0001751499997476
100
AcDbText
  0
TEXT
  5
20F11
330
1F
100
AcDbEntity
  8
AM_6
 62
     0
100
AcDbText
 10
-13.50659051407877
 20
-29.20701386891106
 30
0.0
 40
3.5
  1
+5%%D
 50
0.0001751499997476
100
AcDbText
  0
INSERT
  5
20F12
330
1F
100
AcDbEntity
  8
AM_5
370
    13
100
AcDbBlockReference
  2
A$C4828096E
 10
-24.99584598016617
 20
-28.17299588231836
 30
0.0
 50
14.99999999999954
  0
TEXT
  5
20F1F
330
1F
100
AcDbEntity
  8
AM_6
  6
Continuous
 62
     0
370
    30
100
AcDbText
 10
153.0061082734651
 20
-122.9198939248432
 30
0.0
 40
3.8
  1
BBPT-225R
  7
ACISOTS
100
AcDbText
  0
HATCH
  5
20F2A
330
1F
100
AcDbEntity
  8
AM_5
370
    13
100
AcDbHatch
 10
0.0
 20
0.0
 30
0.0
210
0.0
220
0.0
230
1.0
  2
_U
 70
     0
 71
     0
 91
        1
 92
        1
 93
        4
 72
     2
 10
200.9344868956933
 20
14.00000000000193
 40
12.5
 50
208.357636576328
 51
331.642363423672
 73
     1
 72
     1
 10
211.9344868956933
 20
8.062828956482969
 11
211.9344868956933
 21
19.93717104352089
 72
     2
 10
200.9344868956933
 20
14.00000000000194
 40
12.5
 50
28.35763657632796
 51
151.642363423672
 73
     1
 72
     1
 10
189.9344868956933
 20
19.93717104352089
 11
189.9344868956933
 21
8.062828956482974
 97
        0
 75
     0
 76
     0
 52
45.0
 41
2.5
 77
     0
 78
     1
 53
45.0
 43
0.0
 44
0.0
 45
-1.767766952966369
 46
1.767766952966369
 79
     0
 98
        1
 10
0.0
 20
0.0
1001
GENIUS_GENOBJ-N-HTC_13
1002
{
1000
OWNER
1000
GEN
1002
}
1001
GENIUS_GENODEF_13
1002
{
1000
HIER
1070
     0
1002
}
1002
{
1000
MANEDIT
1070
     0
1002
}
1002
{
1000
NOSEL
1070
     0
1002
}
1002
{
1000
BEHIND
1070
     0
1002
}
1002
{
1000
OTHER
1070
     0
1002
}
1002
{
1000
REACTOR
1002
}
1001
GENIUS_GENHATCH_13
1002
{
1000
DATA
1040
45.0
1042
2.5
1000
_U
1070
     0
1011
199.0111917121676
1021
18.82674807808326
1031
0.0
1002
}
1002
{
1000
UCS
1010
0.0
1020
0.0
1030
0.0
1010
1.0
1020
0.0
1030
0.0
1010
0.0
1020
1.0
1030
0.0
1002
}
  0
ENDSEC
  0
SECTION
  2
OBJECTS
  0
DICTIONARY
  5
C
330
0
100
AcDbDictionary
281
     1
  3
ACAD_COLOR
350
1993F
  3
ACAD_GROUP
350
D
  3
ACAD_LAYOUT
350
1A
  3
ACAD_MATERIAL
350
1993E
  3
ACAD_MLINESTYLE
350
17
  3
ACAD_PLOTSETTINGS
350
19
  3
ACAD_PLOTSTYLENAME
350
E
  3
ACAD_TABLESTYLE
350
19940
  3
AcAmCatalogState
350
1D69D
  3
ACDBHEADERROUNDTRIPXREC
350
20F2F
  3
AcDbVariableDictionary
350
30
  3
ACDMSYSVARMGR
350
1D661
  3
ACGREF_MASTER
350
1D659
  3
ACGREFACAD_MASTER
350
1D67F
  3
AcmDictionary
350
4D
  3
ACME_BOM_MANAGER_NAME
350
1D653
  3
ACME_COMMAND_HISTORY
350
1D650
  3
ACME_SCOPE_NAME
350
1D64F
  3
ACMESTATEMGR
350
1D658
  3
AcmeSysVarManager
350
1D651
  3
AcmSystemVariableManager
350
1D6A4
  3
AD_APPL
350
1D68A
  3
ADSYSVARMGR
350
1D689
  3
AmdtNamedDwgMgr
350
1D67C
  3
AMG
350
3F
  3
AMGSNAPSETTINGS
350
73
  3
AMI_MASTER
350
1D682
  3
AUTOCAD_ASSEMBLIES_PROJECT
350
1D692
  3
Designer_Assemblies_SysVars
350
1D68D
  3
DWGPROPS
350
20F32
  3
eng_data
350
2A40
  3
FILENAME
350
2916
  3
GREFAM_MODULE
350
1D683
  3
line_dic_data
350
2A3E
  3
table_dic_data
350
1688
  3
ZWKSIZE
350
2918
  0
DICTIONARY
  5
1B4AE
330
2
100
AcDbDictionary
280
     1
281
     1
  3
ACAD_LAYERSTATES
360
1B4AF
  0
DICTIONARY
  5
165
330
1F
100
AcDbDictionary
280
     1
281
     1
  3
ACAD_SORTENTS
360
1A4DC
  0
DICTIONARY
  5
20EE8
330
20EE7
100
AcDbDictionary
280
     1
281
     1
  3
ACAD_SORTENTS
360
20F09
  0
DICTIONARY
  5
1993F
102
{ACAD_REACTORS
330
C
102
}
330
C
100
AcDbDictionary
281
     1
  0
DICTIONARY
  5
D
102
{ACAD_REACTORS
330
C
102
}
330
C
100
AcDbDictionary
281
     1
  0
DICTIONARY
  5
1A
102
{ACAD_REACTORS
330
C
102
}
330
C
100
AcDbDictionary
281
     1
  3
Model
350
22
  3
ﾚｲｱｳﾄ1
350
1E
  3
ﾚｲｱｳﾄ2
350
26
  0
DICTIONARY
  5
1993E
102
{ACAD_REACTORS
330
C
102
}
330
C
100
AcDbDictionary
281
     1
  0
DICTIONARY
  5
17
102
{ACAD_REACTORS
330
C
102
}
330
C
100
AcDbDictionary
281
     1
  3
Standard
350
18
  0
DICTIONARY
  5
19
102
{ACAD_REACTORS
330
C
102
}
330
C
100
AcDbDictionary
281
     1
  0
ACDBDICTIONARYWDFLT
  5
E
102
{ACAD_REACTORS
330
C
102
}
330
C
100
AcDbDictionary
281
     1
  3
Normal
350
F
100
AcDbDictionaryWithDefault
340
F
  0
DICTIONARY
  5
19940
102
{ACAD_REACTORS
330
C
102
}
330
C
100
AcDbDictionary
281
     1
  3
Standard
350
19941
  0
ACAD_PROXY_OBJECT
  5
1D69D
102
{ACAD_REACTORS
330
C
102
}
330
C
100
AcDbProxyObject
 90
      499
 91
      571
 95
       25
 70
     0
 93
      432
310
3FFFFFFFE00A02814028EA31D2E20A1A0A226991818182E4B34482AC8E746FA41B7C1A1C1B3A7A4400808377E7E1A3D4D5F8E816387E
  0
DICTIONARY
  5
20F2F
102
{ACAD_REACTORS
330
C
102
}
330
C
100
AcDbDictionary
281
     1
  3
COLORDICT
350
20F30
  3
MATERIALDICT
350
20F31
  0
DICTIONARY
  5
30
102
{ACAD_REACTORS
330
C
102
}
330
C
100
AcDbDictionary
281
     1
  3
CTABLESTYLE
350
199BA
  3
HIDETEXT
350
20F2E
  3
INDEXCTL
350
20F2D
  3
PROJECTNAME
350
1D63C
  0
ACAD_PROXY_OBJECT
  5
1D661
102
{ACAD_REACTORS
330
C
102
}
330
C
100
AcDbProxyObject
 90
      499
 91
      507
 95
       25
 70
     0
 93
      240
310
4C51A47A0000000000000000000000000000000000000000000000000000
330
1D662
330
1D663
330
1D664
330
1D665
330
1D666
330
1D667
330
1D668
330
1D669
330
1D66A
330
1D66B
330
1D66C
330
1D66D
330
1D66E
330
1D66F
330
1D670
330
1D671
330
1D672
330
1D673
330
1D674
330
1D675
330
1D676
330
1D677
330
1D678
330
1D679
330
1D67A
330
1D67B
 94
        0
  0
ACAD_PROXY_OBJECT
  5
1D659
102
{ACAD_REACTORS
330
C
102
}
330
C
100
AcDbProxyObject
 90
      499
 91
      535
 95
       25
 70
     0
 93
       34
310
0400004280
  0
ACAD_PROXY_OBJECT
  5
1D67F
102
{ACAD_REACTORS
330
C
102
}
330
C
100
AcDbProxyObject
 90
      499
 91
      541
 95
       25
 70
     0
 93
      114
310
04000041C080000000000000000000
  0
DICTIONARY
  5
4D
102
{ACAD_REACTORS
330
C
102
}
330
C
100
AcDbDictionary
281
     1
  3
AcmBOMDATA
350
1D69C
  3
AcmStdDictionary
350
17E
  3
AMDTSECTSYM_ARROWCOLOR
350
1999B
  0
ACAD_PROXY_OBJECT
  5
1D653
102
{ACAD_REACTORS
330
C
102
}
330
C
100
AcDbProxyObject
 90
      499
 91
      510
 95
       25
 70
     0
 93
       50
310
00010040400000
330
0
330
0
330
1D654
 94
        0
  0
ACAD_PROXY_OBJECT
  5
1D650
102
{ACAD_REACTORS
330
C
102
}
330
C
100
AcDbProxyObject
 90
      499
 91
      505
 95
       25
 70
     0
 93
     2316
310
47805044D4F5645805095041535445434C495080506524F5441544580504554E444F80506524F5441544580508434F5059434C4950805095041535445434C49508050644444544495480506444445444954805054552415345805044D4F5645805044D4F5645805044D4F564580505455241534580508434F5059434C49508
310
05095041535445434C49508050545524153458050644444544495480506444445444954805054552415345805044D4F564580505455241534580504554E444F805054841544348805054552415345805045A4F4F4D805055055524745805045A4F4F4D805055055524745805055153415645404052D4D5347202D205050413
310
A2020206465736B746F702E6172782046696C6556657273696F6E3A20392E322E302E340
  0
ACAD_PROXY_OBJECT
  5
1D64F
102
{ACAD_REACTORS
330
C
102
}
330
C
100
AcDbProxyObject
 90
      499
 91
      504
 95
       25
 70
     0
 93
      562
310
09000046408000000000000000001314D600000000000000000000000000000000000000000000000000000000000000000000000000000000000000000000000000AAA406AA80
360
1D652
360
1D654
360
1D65A
360
1D65B
360
1D65C
360
1D65D
360
1D65E
360
1D65F
360
1D662
360
1D663
360
1D664
360
1D665
360
1D666
360
1D667
360
1D668
360
1D669
360
1D66A
360
1D66B
360
1D66C
360
1D66D
360
1D66E
360
1D66F
360
1D670
360
1D671
360
1D672
360
1D673
360
1D674
360
1D675
360
1D676
360
1D677
360
1D678
360
1D679
360
1D67A
360
1D67B
360
1D685
360
1D686
360
1D687
360
1D688
360
1D68E
360
1D68F
360
1D690
360
1D691
360
1D696
360
1D697
360
1D698
360
1D699
360
1D69A
360
1D69B
360
1D6A5
 94
        0
  0
ACAD_PROXY_OBJECT
  5
1D658
102
{ACAD_REACTORS
330
C
102
}
330
C
100
AcDbProxyObject
 90
      499
 91
      515
 95
       25
 70
     0
 93
       50
310
09000042641280
  0
ACAD_PROXY_OBJECT
  5
1D651
102
{ACAD_REACTORS
330
C
102
}
330
C
100
AcDbProxyObject
 90
      499
 91
      507
 95
       25
 70
     0
 93
       32
310
90140A00
330
1D652
 94
        0
  0
ACAD_PROXY_OBJECT
  5
1D6A4
102
{ACAD_REACTORS
330
C
102
}
330
C
100
AcDbProxyObject
 90
      499
 91
      507
 95
       25
 70
     0
 93
       32
310
90140A00
330
1D6A5
 94
        0
  0
ACAD_PROXY_OBJECT
  5
1D68A
102
{ACAD_REACTORS
330
C
102
}
330
C
100
AcDbProxyObject
 90
      499
 91
      551
 95
       25
 70
     0
 93
       42
310
000900004040
330
1D685
 94
        0
  0
ACAD_PROXY_OBJECT
  5
1D689
102
{ACAD_REACTORS
330
C
102
}
330
C
100
AcDbProxyObject
 90
      499
 91
      507
 95
       25
 70
     0
 93
        8
310
AA
  0
ACAD_PROXY_OBJECT
  5
1D67C
102
{ACAD_REACTORS
330
C
102
}
330
C
100
AcDbProxyObject
 90
      499
 91
      540
 95
       25
 70
     0
 93
       42
310
000100005E80
330
1D65A
 94
        0
  0
DICTIONARY
  5
3F
102
{ACAD_REACTORS
330
C
102
}
330
C
100
AcDbDictionary
281
     1
  3
AcMgSettings
350
1D64B
  3
AMGLAYCFG
350
1D6A7
  0
DICTIONARY
  5
73
102
{ACAD_REACTORS
330
C
102
}
330
C
100
AcDbDictionary
281
     1
  0
ACAD_PROXY_OBJECT
  5
1D682
102
{ACAD_REACTORS
330
C
102
}
330
C
100
AcDbProxyObject
 90
      499
 91
      544
 95
       25
 70
     0
 93
       34
310
0500004280
  0
ACAD_PROXY_OBJECT
  5
1D692
102
{ACAD_REACTORS
330
C
102
}
330
C
100
AcDbProxyObject
 90
      499
 91
      554
 95
       25
 70
     0
 93
       98
310
0900004E400000000000000000
330
1D699
330
0
330
1D69A
330
0
330
0
330
0
330
0
330
0
 94
        0
  0
ACAD_PROXY_OBJECT
  5
1D68D
102
{ACAD_REACTORS
330
C
102
}
330
C
100
AcDbProxyObject
 90
      499
 91
      507
 95
       25
 70
     0
 93
       56
310
90441600000000
330
1D68E
330
1D68F
330
1D690
330
1D691
 94
        0
  0
XRECORD
  5
20F32
102
{ACAD_REACTORS
330
C
102
}
330
C
100
AcDbXrecord
280
     1
  1
DWGPROPS COOKIE
  2

  3

  4

  6

  7

  8
Administrator
  9

300
AmdtFileType=84
301
=
302
=
303
=
304
=
305
=
306
=
307
=
308
=
309
=
 40
0.0
 41
2451943.235431667
 42
2455471.350316655
  1

 90
        1
  0
DICTIONARY
  5
2A40
102
{ACAD_REACTORS
330
C
102
}
330
C
100
AcDbDictionary
281
     1
  3
eng_id
350
2A41
  0
DICTIONARY
  5
2916
102
{ACAD_REACTORS
330
C
102
}
330
C
100
AcDbDictionary
281
     1
  3
FILENAME
350
2917
  0
ACAD_PROXY_OBJECT
  5
1D683
102
{ACAD_REACTORS
330
C
102
}
330
C
100
AcDbProxyObject
 90
      499
 91
      545
 95
       25
 70
     0
 93
        8
310
05
  0
DICTIONARY
  5
2A3E
102
{ACAD_REACTORS
330
C
102
}
330
C
100
AcDbDictionary
281
     1
  3
line_data
350
2A3F
  0
DICTIONARY
  5
1688
102
{ACAD_REACTORS
330
C
102
}
330
C
100
AcDbDictionary
281
     1
  3
input_data
350
168A
  3
table_data
350
1689
  0
DICTIONARY
  5
2918
102
{ACAD_REACTORS
330
C
102
}
330
C
100
AcDbDictionary
281
     1
  3
ZWKSIZE
350
2919
  0
DICTIONARY
  5
1B4AF
102
{ACAD_REACTORS
330
1B4AE
102
}
330
1B4AE
100
AcDbDictionary
281
     1
  0
SORTENTSTABLE
  5
1A4DC
102
{ACAD_REACTORS
330
165
102
}
330
165
100
AcDbSortentsTable
330
1F
331
0
  5
20F2A
331
EF21
  5
EF95
331
F478
  5
16B57
331
15AD4
  5
1736B
331
15ADA
  5
17A06
331
17A02
  5
17A07
331
17A03
  5
17A16
331
17A10
  5
17A17
331
17A11
  5
17A2F
331
17A28
  5
17A3C
331
17A36
  5
17A3D
331
17A37
  5
17A3E
331
17A38
  5
17A49
331
17A45
  5
17A4A
331
17A46
  5
17CB2
331
17CAE
  5
17CB3
331
17CAF
  5
17CD6
331
17CB1
  5
17CE0
331
17CBA
  5
18203
331
17CD6
  5
182BF
331
17CD7
  5
182C0
331
17CD8
  5
182F0
331
17CE0
  5
184DC
331
182F0
  5
1852F
331
182F9
  5
190F4
331
19019
  5
19717
331
1960A
  5
198D9
331
198D9
  5
198DE
331
198EA
  5
1B4EB
331
1B4EA
  5
1BA5A
331
1B4EB
  5
1FE6E
331
1FE7C
  5
1FE82
331
1FE82
  5
1FE83
331
1FE8A
  5
1FE8E
331
1FE8F
  5
1FEA0
331
1FEA4
  5
1FEA5
331
1FEA5
  5
1FEA6
331
1FEA6
  5
1FEA7
331
1FEA7
  5
1FEC8
331
1FEC8
  5
1FEC9
331
1FEC9
  5
1FECC
331
1FECF
  5
1FED3
331
205BD
  5
205BE
331
205BE
  5
205BF
331
205BF
  5
205C0
331
205C0
  5
205C1
331
205C1
  5
205C2
331
205C2
  5
205C3
331
205C3
  5
205C9
331
205C8
  5
205CB
331
205C9
  5
205CC
331
205CA
  5
205CD
331
205CB
  5
205CE
331
205CC
  5
205CF
331
205CD
  5
205D0
331
205CE
  5
205D1
331
205CF
  5
205D2
331
205D0
  5
205D3
331
205D1
  5
205D4
331
205D2
  5
205D5
331
205D3
  5
205D6
331
205D4
  5
205D7
331
205D5
  5
205D8
331
205D6
  5
205D9
331
205D7
  5
205DA
331
205D8
  5
205DB
331
205D9
  5
205DC
331
205DA
  5
205DE
331
205DC
  5
205DF
331
205DD
  5
205E0
331
205DE
  5
205E1
331
205DF
  5
205E2
331
205E0
  5
205E3
331
205E1
  5
205E4
331
205E2
  5
205E5
331
205E3
  5
205E6
331
205E4
  5
205E7
331
205E5
  5
205E8
331
205E6
  5
205E9
331
205E7
  5
205EA
331
205E8
  5
205EC
331
205EA
  5
205ED
331
205EB
  5
205EE
331
205EC
  5
205F0
331
205EE
  5
205F3
331
205F0
  5
205F5
331
205F1
  5
205F6
331
205F2
  5
205F7
331
205F3
  5
205FC
331
205F8
  5
205FD
331
205F9
  5
205FE
331
205FA
  5
205FF
331
205FB
  5
20600
331
205FC
  5
20601
331
205FD
  5
20602
331
205FE
  5
20603
331
205FF
  5
20604
331
20600
  5
20605
331
20601
  5
20606
331
20602
  5
20607
331
20603
  5
20608
331
20604
  5
20609
331
20605
  5
2060A
331
20606
  5
2060B
331
20607
  5
2060C
331
20608
  5
2060D
331
20609
  5
2060E
331
2060A
  5
2060F
331
2060B
  5
20610
331
2060C
  5
20611
331
2060D
  5
20612
331
2060E
  5
20613
331
2060F
  5
20614
331
20610
  5
20615
331
20611
  5
20616
331
20612
  5
20617
331
20613
  5
20618
331
20614
  5
20619
331
20615
  5
2061A
331
20616
  5
2061B
331
20617
  5
2061C
331
20618
  5
2061D
331
20619
  5
2061E
331
2061A
  5
2061F
331
2061B
  5
20620
331
2061C
  5
20621
331
2061D
  5
20622
331
2061E
  5
20623
331
2061F
  5
20624
331
20620
  5
20625
331
20621
  5
20626
331
20622
  5
20627
331
20623
  5
20628
331
20624
  5
20629
331
20625
  5
2062A
331
20626
  5
2062B
331
20627
  5
2062C
331
20628
  5
2062D
331
20629
  5
2062E
331
2062A
  5
2062F
331
2062B
  5
20630
331
2062C
  5
20631
331
2062D
  5
20632
331
2062E
  5
20633
331
2062F
  5
20634
331
20630
  5
20635
331
20631
  5
20636
331
20632
  5
20637
331
20633
  5
20638
331
20634
  5
20639
331
20635
  5
2063A
331
20636
  5
2063B
331
20637
  5
2063C
331
20638
  5
2063D
331
20639
  5
2063E
331
2063A
  5
2063F
331
2063B
  5
20640
331
2063C
  5
20641
331
2063D
  5
20642
331
2063E
  5
20643
331
2063F
  5
20644
331
20640
  5
20645
331
20641
  5
20646
331
20642
  5
20647
331
20643
  5
20648
331
20644
  5
20649
331
20645
  5
2064A
331
20646
  5
2064B
331
20647
  5
2064D
331
20649
  5
2064E
331
2064A
  5
2064F
331
2064B
  5
20653
331
2064E
  5
20655
331
2064F
  5
20656
331
20650
  5
20657
331
20651
  5
20658
331
20652
  5
20659
331
20653
  5
2065A
331
20654
  5
2065B
331
20655
  5
2065C
331
20656
  5
2065D
331
20657
  5
2065E
331
20658
  5
2065F
331
20659
  5
20660
331
2065A
  5
20661
331
2065B
  5
20662
331
2065C
  5
20663
331
2065D
  5
20664
331
2065E
  5
20665
331
2065F
  5
20666
331
20660
  5
20667
331
20661
  5
20668
331
20662
  5
20669
331
20663
  5
2066A
331
20664
  5
2066B
331
20665
  5
2066C
331
20666
  5
2066D
331
20667
  5
2066E
331
20668
  5
2066F
331
20669
  5
20670
331
2066A
  5
20671
331
2066B
  5
20672
331
2066C
  5
20673
331
2066D
  5
20674
331
2066E
  5
20675
331
2066F
  5
20676
331
20670
  5
20677
331
20671
  5
20678
331
20672
  5
20679
331
20673
  5
2067A
331
20674
  5
2067B
331
20675
  5
2067C
331
20676
  5
2067D
331
20677
  5
2067F
331
20679
  5
20681
331
2067B
  5
20682
331
2067C
  5
20683
331
2067D
  5
20684
331
2067E
  5
20685
331
2067F
  5
20686
331
20680
  5
20687
331
20681
  5
20688
331
20682
  5
20689
331
20683
  5
2068A
331
20684
  5
2068B
331
20685
  5
2068C
331
20686
  5
2068D
331
20687
  5
2068E
331
20688
  5
2068F
331
20689
  5
20690
331
2068A
  5
20691
331
2068B
  5
20692
331
2068C
  5
20693
331
2068D
  5
20694
331
2068E
  5
20695
331
2068F
  5
20696
331
20690
  5
20697
331
20691
  5
20698
331
20692
  5
20699
331
20693
  5
20CE8
331
208F4
  5
205CA
331
208F5
  5
20654
331
20F0F
  5
20F0F
331
20F10
  5
20F10
331
20F11
  5
20F11
331
20F12
  5
20F12
331
20F1F
  5
20F1F
331
20F2A
  5
20F29
  0
SORTENTSTABLE
  5
20F09
102
{ACAD_REACTORS
330
20EE8
102
}
330
20EE8
100
AcDbSortentsTable
330
20EE7
  0
LAYOUT
  5
22
102
{ACAD_REACTORS
330
1A
102
}
330
1A
100
AcDbPlotSettings
  1

  2
SII LP-2150 (D-SCAN C2)
  4
User120
  6
AM_VIEW1
 40
3.174999952316284
 41
3.174999952316284
 42
3.17498779296875
 43
3.17498779296875
 44
296.9259948730469
 45
419.9889831542969
 46
0.0
 47
0.0
 48
0.0
 49
0.0
140
420.0
141
297.0
142
1.0
143
1.022107788374329
 70
 11952
 72
     1
 73
     1
 74
     4
  7
sei_cad.ctb
 75
     0
147
0.9783703943695685
148
0.0
149
0.0
100
AcDbLayout
  1
Model
 70
     1
 71
     0
 10
0.0
 20
0.0
 11
12.0
 21
9.0
 12
0.0
 22
0.0
 32
0.0
 14
0.0
 24
0.0
 34
0.0
 15
0.0
 25
0.0
 35
0.0
146
0.0
 13
0.0
 23
0.0
 33
0.0
 16
1.0
 26
0.0
 36
0.0
 17
0.0
 27
1.0
 37
0.0
 76
     0
330
1F
1001
ACAD_PSEXT
1000
SII LP-2150 (D-SCAN C2)
1000
SII LP-2150 (D-SCAN C2)
1000
133.153.16.130#3000
1000

1070
     0
  0
LAYOUT
  5
1E
102
{ACAD_REACTORS
330
1A
102
}
330
1A
100
AcDbPlotSettings
  1

  2
Canon LASER SHOT LBP-2030
  4

  6

 40
0.0
 41
0.0
 42
0.0
 43
0.0
 44
0.0
 45
0.0
 46
0.0
 47
0.0
 48
0.0
 49
0.0
140
0.0
141
0.0
142
1.0
143
1.0
 70
   688
 72
     0
 73
     0
 74
     5
  7
sei_cad.ctb
 75
    16
147
1.0
148
0.0
149
0.0
100
AcDbLayout
  1
ﾚｲｱｳﾄ1
 70
     1
 71
     1
 10
0.0
 20
0.0
 11
420.0
 21
297.0
 12
0.0
 22
0.0
 32
0.0
 14
1.000000000000000E+20
 24
1.000000000000000E+20
 34
1.000000000000000E+20
 15
-1.000000000000000E+20
 25
-1.000000000000000E+20
 35
-1.000000000000000E+20
146
0.0
 13
0.0
 23
0.0
 33
0.0
 16
1.0
 26
0.0
 36
0.0
 17
0.0
 27
1.0
 37
0.0
 76
     0
330
1B
  0
LAYOUT
  5
26
102
{ACAD_REACTORS
330
1A
102
}
330
1A
100
AcDbPlotSettings
  1

  2
Canon LASER SHOT LBP-2030
  4

  6

 40
0.0
 41
0.0
 42
0.0
 43
0.0
 44
0.0
 45
0.0
 46
0.0
 47
0.0
 48
0.0
 49
0.0
140
0.0
141
0.0
142
1.0
143
1.0
 70
   688
 72
     0
 73
     0
 74
     5
  7
sei_cad.ctb
 75
    16
147
1.0
148
0.0
149
0.0
100
AcDbLayout
  1
ﾚｲｱｳﾄ2
 70
     1
 71
     2
 10
0.0
 20
0.0
 11
12.0
 21
9.0
 12
0.0
 22
0.0
 32
0.0
 14
0.0
 24
0.0
 34
0.0
 15
0.0
 25
0.0
 35
0.0
146
0.0
 13
0.0
 23
0.0
 33
0.0
 16
1.0
 26
0.0
 36
0.0
 17
0.0
 27
1.0
 37
0.0
 76
     0
330
23
  0
MLINESTYLE
  5
18
102
{ACAD_REACTORS
330
17
102
}
330
17
100
AcDbMlineStyle
  2
STANDARD
 70
     0
  3

 62
   256
 51
90.0
 52
90.0
 71
     2
 49
0.5
 62
   256
  6
BYLAYER
 49
-0.5
 62
   256
  6
BYLAYER
  0
ACDBPLACEHOLDER
  5
F
102
{ACAD_REACTORS
330
E
102
}
330
E
  0
TABLESTYLE
  5
19941
102
{ACAD_REACTORS
330
19940
102
}
330
19940
100
AcDbTableStyle
  3
Standard
 70
     0
 71
     0
 40
1.5
 41
1.5
280
     0
281
     0
  7
STANDARD
140
4.5
170
     2
 62
     0
 63
     7
283
     0
274
    -2
284
     1
 64
     0
275
    -2
285
     1
 65
     0
276
    -2
286
     1
 66
     0
277
    -2
287
     1
 67
     0
278
    -2
288
     1
 68
     0
279
    -2
289
     1
 69
     0
  7
STANDARD
140
6.0
170
     5
 62
     0
 63
     7
283
     0
274
    -2
284
     1
 64
     0
275
    -2
285
     1
 65
     0
276
    -2
286
     1
 66
     0
277
    -2
287
     1
 67
     0
278
    -2
288
     1
 68
     0
279
    -2
289
     1
 69
     0
  7
STANDARD
140
4.5
170
     5
 62
     0
 63
     7
283
     0
274
    -2
284
     1
 64
     0
275
    -2
285
     1
 65
     0
276
    -2
286
     1
 66
     0
277
    -2
287
     1
 67
     0
278
    -2
288
     1
 68
     0
279
    -2
289
     1
 69
     0
  0
XRECORD
  5
20F30
102
{ACAD_REACTORS
330
20F2F
102
}
330
20F2F
100
AcDbXrecord
280
     1
340
1993F
  0
XRECORD
  5
20F31
102
{ACAD_REACTORS
330
20F2F
102
}
330
20F2F
100
AcDbXrecord
280
     1
340
1993E
  0
DICTIONARYVAR
  5
199BA
102
{ACAD_REACTORS
330
30
102
}
330
30
100
DictionaryVariables
280
     0
  1
STANDARD
  0
DICTIONARYVAR
  5
20F2E
102
{ACAD_REACTORS
330
30
102
}
330
30
100
DictionaryVariables
280
     0
  1
0
  0
DICTIONARYVAR
  5
20F2D
102
{ACAD_REACTORS
330
30
102
}
330
30
100
DictionaryVariables
280
     0
  1
1
  0
DICTIONARYVAR
  5
1D63C
102
{ACAD_REACTORS
330
30
102
}
330
30
100
DictionaryVariables
280
     0
  1

  0
ACAD_PROXY_OBJECT
  5
1D69C
102
{ACAD_REACTORS
330
4D
102
}
330
4D
100
AcDbProxyObject
 90
      499
 91
      520
 95
       25
 70
     0
 93
       76
310
90100057356C1D7743E0
  0
DICTIONARY
  5
17E
102
{ACAD_REACTORS
330
4D
102
}
330
4D
100
AcDbDictionary
281
     1
  3
ANSI
350
1E965
  3
ISO
350
1D6A6
  3
JIS
350
1E0E8
  0
XRECORD
  5
1999B
102
{ACAD_REACTORS
330
4D
102
}
330
4D
100
AcDbXrecord
280
     1
 90
-1023410169
  0
ACAD_PROXY_OBJECT
  5
1D652
330
1D64F
100
AcDbProxyObject
 90
      499
 91
      509
 95
       25
 70
     0
 93
      156
310
000101439050D35154D6535093D314D256915080
330
1D64F
 94
        0
  0
ACAD_PROXY_OBJECT
  5
1D654
330
1D64F
100
AcDbProxyObject
 90
      499
 91
      511
 95
       25
 70
     0
 93
      120
310
000101422565255A6557080C402B00
330
1D64F
330
0
330
0
 94
        0
  0
ACAD_PROXY_OBJECT
  5
1D65A
330
1D64F
100
AcDbProxyObject
 90
      499
 91
      536
 95
       25
 70
     0
 93
      462
310
0001014124FEA55D00507392E322E302E32014124FEA55D00507392E322E302E324050100004097D54182D4454FB21E93F400000000000004408
330
1D64F
330
1D65B
330
1D661
 94
        0
  0
ACAD_PROXY_OBJECT
  5
1D65B
330
1D64F
100
AcDbProxyObject
 90
      499
 91
      537
 95
       25
 70
     0
 93
       56
310
000190240E0000
330
1D64F
330
1D65C
330
1D65E
 94
        0
  0
ACAD_PROXY_OBJECT
  5
1D65C
330
1D64F
100
AcDbProxyObject
 90
      499
 91
      538
 95
       25
 70
     0
 93
       48
310
0001AA000000
330
1D64F
330
1E
330
1D65D
330
0
 94
        0
  0
ACAD_PROXY_OBJECT
  5
1D65D
330
1D64F
100
AcDbProxyObject
 90
      499
 91
      539
 95
       25
 70
     0
 93
       28
310
0001AAA0
330
1D64F
 94
        0
  0
ACAD_PROXY_OBJECT
  5
1D65E
330
1D64F
100
AcDbProxyObject
 90
      499
 91
      538
 95
       25
 70
     0
 93
       48
310
0001AA000000
330
1D64F
330
26
330
1D65F
330
0
 94
        0
  0
ACAD_PROXY_OBJECT
  5
1D65F
330
1D64F
100
AcDbProxyObject
 90
      499
 91
      539
 95
       25
 70
     0
 93
       28
310
0001AAA0
330
1D64F
 94
        0
  0
ACAD_PROXY_OBJECT
  5
1D662
330
1D64F
100
AcDbProxyObject
 90
      499
 91
      509
 95
       25
 70
     0
 93
      108
310
000101421053521310D05310D010
330
1D64F
 94
        0
  0
ACAD_PROXY_OBJECT
  5
1D663
330
1D64F
100
AcDbProxyObject
 90
      499
 91
      509
 95
       25
 70
     0
 93
      124
310
00010142905354915554D15112535010
330
1D64F
 94
        0
  0
ACAD_PROXY_OBJECT
  5
1D664
330
1D64F
100
AcDbProxyObject
 90
      499
 91
      509
 95
       25
 70
     0
 93
      132
310
00010143105354D150D51253D391125360
330
1D64F
 94
        0
  0
ACAD_PROXY_OBJECT
  5
1D665
330
1D64F
100
AcDbProxyObject
 90
      499
 91
      509
 95
       25
 70
     0
 93
      124
310
00010142905355941093D49111549010
330
1D64F
 94
        0
  0
ACAD_PROXY_OBJECT
  5
1D666
330
1D64F
100
AcDbProxyObject
 90
      499
 91
      509
 95
       25
 70
     0
 93
      116
310
0001014290535115D1D0D3D313D4A0
330
1D64F
 94
        0
  0
ACAD_PROXY_OBJECT
  5
1D667
330
1D64F
100
AcDbProxyObject
 90
      499
 91
      509
 95
       25
 70
     0
 93
      148
310
00010143505355925155D49151949154D21010
330
1D64F
 94
        0
  0
ACAD_PROXY_OBJECT
  5
1D668
330
1D64F
100
AcDbProxyObject
 90
      499
 91
      509
 95
       25
 70
     0
 93
      172
310
00010144105350539393D51154149154D15495915010
330
1D64F
 94
        0
  0
ACAD_PROXY_OBJECT
  5
1D669
330
1D64F
100
AcDbProxyObject
 90
      499
 91
      509
 95
       25
 70
     0
 93
      172
310
00010144105350555513D11253505494905391D15010
330
1D64F
 94
        0
  0
ACAD_PROXY_OBJECT
  5
1D66A
330
1D64F
100
AcDbProxyObject
 90
      499
 91
      509
 95
       25
 70
     0
 93
      124
310
00010142D05351561514915191125360
330
1D64F
 94
        0
  0
ACAD_PROXY_OBJECT
  5
1D66B
330
1D64F
100
AcDbProxyObject
 90
      499
 91
      509
 95
       25
 70
     0
 93
      132
310
00010142D05355105410539393D5115010
330
1D64F
 94
        0
  0
ACAD_PROXY_OBJECT
  5
1D66C
330
1D64F
100
AcDbProxyObject
 90
      499
 91
      509
 95
       25
 70
     0
 93
      108
310
00010142105350555513D0D31010
330
1D64F
 94
        0
  0
ACAD_PROXY_OBJECT
  5
1D66D
330
1D64F
100
AcDbProxyObject
 90
      499
 91
      509
 95
       25
 70
     0
 93
      108
310
00010142105350D3119150551050
330
1D64F
 94
        0
  0
ACAD_PROXY_OBJECT
  5
1D66E
330
1D64F
100
AcDbProxyObject
 90
      499
 91
      509
 95
       25
 70
     0
 93
      108
310
00010142105350D315925155D3F0
330
1D64F
 94
        0
  0
ACAD_PROXY_OBJECT
  5
1D66F
330
1D64F
100
AcDbProxyObject
 90
      499
 91
      509
 95
       25
 70
     0
 93
      148
310
0001014350535212511156915493D112535010
330
1D64F
 94
        0
  0
ACAD_PROXY_OBJECT
  5
1D670
330
1D64F
100
AcDbProxyObject
 90
      499
 91
      509
 95
       25
 70
     0
 93
      124
310
00010142905352105510D21254D3D010
330
1D64F
 94
        0
  0
ACAD_PROXY_OBJECT
  5
1D671
330
1D64F
100
AcDbProxyObject
 90
      499
 91
      509
 95
       25
 70
     0
 93
      148
310
00010143905354D25391D31152105513105660
330
1D64F
 94
        0
  0
ACAD_PROXY_OBJECT
  5
1D672
330
1D64F
100
AcDbProxyObject
 90
      499
 91
      509
 95
       25
 70
     0
 93
      124
310
00010142D0535115D1D193111254D420
330
1D64F
 94
        0
  0
ACAD_PROXY_OBJECT
  5
1D673
330
1D64F
100
AcDbProxyObject
 90
      499
 91
      509
 95
       25
 70
     0
 93
      100
310
00010142105350555513D213A0
330
1D64F
 94
        0
  0
ACAD_PROXY_OBJECT
  5
1D674
330
1D64F
100
AcDbProxyObject
 90
      499
 91
      509
 95
       25
 70
     0
 93
      116
310
000101425053521390D3D553951010
330
1D64F
 94
        0
  0
ACAD_PROXY_OBJECT
  5
1D675
330
1D64F
100
AcDbProxyObject
 90
      499
 91
      509
 95
       25
 70
     0
 93
      108
310
0001014210535213941493D29010
330
1D64F
 94
        0
  0
ACAD_PROXY_OBJECT
  5
1D676
330
1D64F
100
AcDbProxyObject
 90
      499
 91
      509
 95
       25
 70
     0
 93
      108
310
0001014210535213951654115070
330
1D64F
 94
        0
  0
ACAD_PROXY_OBJECT
  5
1D677
330
1D64F
100
AcDbProxyObject
 90
      499
 91
      509
 95
       25
 70
     0
 93
      108
310
000101421053521395925155D0F0
330
1D64F
 94
        0
  0
ACAD_PROXY_OBJECT
  5
1D678
330
1D64F
100
AcDbProxyObject
 90
      499
 91
      509
 95
       25
 70
     0
 93
      140
310
00010143505354D150D51253D390D3D41660
330
1D64F
 94
        0
  0
ACAD_PROXY_OBJECT
  5
1D679
330
1D64F
100
AcDbProxyObject
 90
      499
 91
      509
 95
       25
 70
     0
 93
      108
310
00010142105350D3141493D29030
330
1D64F
 94
        0
  0
ACAD_PROXY_OBJECT
  5
1D67A
330
1D64F
100
AcDbProxyObject
 90
      499
 91
      508
 95
       25
 70
     0
 93
      212
310
00010143905350555513D2105510D21493D500000000000002E400
330
1D64F
 94
        0
  0
ACAD_PROXY_OBJECT
  5
1D67B
330
1D64F
100
AcDbProxyObject
 90
      499
 91
      509
 95
       25
 70
     0
 93
      156
310
00010143905350555513D2105510D21111551010
330
1D64F
 94
        0
  0
ACAD_PROXY_OBJECT
  5
1D685
330
1D64F
100
AcDbProxyObject
 90
      499
 91
      547
 95
       25
 70
     0
 93
      698
310
0001000000009AA6A9AA4051E4D6F6E204D61722030362030363A32393A323420323030362028555443290141CE4B8C8B8C0B8C80518467269204F63742030312031373A32343A323720323031300141CE4B8C8B8C0B8C80
330
1D64F
330
1D686
330
1D687
330
1D689
330
0
 94
        0
  0
ACAD_PROXY_OBJECT
  5
1D686
330
1D64F
100
AcDbProxyObject
 90
      499
 91
      548
 95
       25
 70
     0
 93
       70
310
0001AAA80820000000
330
1D64F
330
1D686
330
1D686
 94
        0
  0
ACAD_PROXY_OBJECT
  5
1D687
330
1D64F
100
AcDbProxyObject
 90
      499
 91
      549
 95
       25
 70
     0
 93
       48
310
000100000000
330
1D64F
330
0
330
1D688
330
0
330
0
 94
        0
  0
ACAD_PROXY_OBJECT
  5
1D688
330
1D64F
100
AcDbProxyObject
 90
      499
 91
      550
 95
       25
 70
     0
 93
       40
310
000100AAAA
330
1D64F
330
0
 94
        0
  0
ACAD_PROXY_OBJECT
  5
1D68E
330
1D64F
100
AcDbProxyObject
 90
      499
 91
      522
 95
       25
 70
     0
 93
      180
310
00010143105050D3D35411119390535140504434F4D500
330
1D64F
 94
        0
  0
ACAD_PROXY_OBJECT
  5
1D68F
330
1D64F
100
AcDbProxyObject
 90
      499
 91
      522
 95
       25
 70
     0
 93
      212
310
0001014390505193D311115491119390535140506466F6C6465720
330
1D64F
 94
        0
  0
ACAD_PROXY_OBJECT
  5
1D690
330
1D64F
100
AcDbProxyObject
 90
      499
 91
      522
 95
       25
 70
     0
 93
      180
310
00010143105050539393D1119390535140504284156290
330
1D64F
 94
        0
  0
ACAD_PROXY_OBJECT
  5
1D691
330
1D64F
100
AcDbProxyObject
 90
      499
 91
      522
 95
       25
 70
     0
 93
      436
310
00010143905050D3D35415925155D31254D50052295BD96CA0A90B396CA0A894591A496CA0A8DB691A496CA0A89BA96CA0A95E28F95310
330
1D64F
 94
        0
  0
ACAD_PROXY_OBJECT
  5
1D696
330
1D64F
100
AcDbProxyObject
 90
      499
 91
      555
 95
       25
 70
     0
 93
       32
310
00010000
330
1D64F
340
1D693
330
1D698
330
1D693
 94
        0
  0
ACAD_PROXY_OBJECT
  5
1D697
330
1D64F
100
AcDbProxyObject
 90
      499
 91
      556
 95
       25
 70
     0
 93
       18
310
000180
330
1D64F
 94
        0
  0
ACAD_PROXY_OBJECT
  5
1D698
330
1D64F
100
AcDbProxyObject
 90
      499
 91
      557
 95
       25
 70
     0
 93
      162
310
00010142509094150B4C8C8D549050055401550000
330
1D64F
330
1D696
330
1D697
 94
        0
  0
ACAD_PROXY_OBJECT
  5
1D699
330
1D64F
100
AcDbProxyObject
 90
      499
 91
      558
 95
       25
 70
     0
 93
      178
310
000100AAAAAA996556058C708B126E2238E5669EBDF840
330
1D64F
330
1D698
 94
        0
  0
ACAD_PROXY_OBJECT
  5
1D69A
330
1D64F
100
AcDbProxyObject
 90
      499
 91
      559
 95
       25
 70
     0
 93
      108
310
000190140A000000000000AAAAA0
330
1D64F
330
1D69B
330
1D69B
330
1D69B
330
1D69B
330
1D69B
330
0
 94
        0
  0
ACAD_PROXY_OBJECT
  5
1D69B
330
1D64F
100
AcDbProxyObject
 90
      499
 91
      560
 95
       25
 70
     0
 93
       51
310
00010000AAAA80
330
1D64F
330
1D69A
330
1D698
 94
        0
  0
ACAD_PROXY_OBJECT
  5
1D6A5
330
1D64F
100
AcDbProxyObject
 90
      499
 91
      522
 95
       25
 70
     0
 93
      140
310
00010142105350D55494D5110050349534F0
330
1D64F
 94
        0
  0
DICTIONARY
  5
1D64B
102
{ACAD_REACTORS
330
3F
102
}
330
3F
100
AcDbDictionary
281
     1
  3
DWGSETTINGS
350
1D64C
  3
TRANSSETTINGS
350
1D64D
  0
ACAD_PROXY_OBJECT
  5
1D6A7
102
{ACAD_REACTORS
330
3F
102
}
330
3F
100
AcDbProxyObject
 90
      499
 91
      519
 95
       25
 70
     0
 93
    17944
310
41502491013041105357CC201C00030C0132441013141105357CC603800030C0132441013241105357CCA01400030C0132441013341105357CCE01800030C01199013441105357CD200C00030C01199013541105357CD600C00030C01199013641105357CDA00800030C01239013741105357CDE01000030C0119901384110
310
5357CE200400030C01199013941105357CE63F400030C0241102324141505357CC4C201C00030C0132902344141505357CC4C600C00030C0119902495041505357CC4CA01C00030C013240902304E41505357CC13A01C00030C0132902314E41505357CC53A03800030C0132902324E41505357CC93A01400030C013290233
310
4E41505357CCD3A01800030C0119902344E41505357CD13A00C00030C0119902354E41505357CD53A00C00030C0119902364E41505357CD93A00800030C0123902374E41505357CDD3A01000030C0119902384E41505357CE13A00400030C0119902394E41505357CE53A3F400030C024110332414E41905357CC4C13A01C0
310
0030C013290334414E41905357CC4C53A00C00030C011990349504E41905357CC4C93A01C00030C0132409044B4C494E41505357D0D3200400030C011942504494E464F42105357D410549151A01000030C011942D055241484D3541905357D093D4A01C00030C0132425045649455742105357D5925155D4E00400030C011
310
942D06424548494E4441905357D25395A3F400030C0243505545241494C41505357D514A00C00030C01194250348494441905357D21251201C00030C01194250356495341905357D59254E01C00030C01324250650415244494D42505357D41054911253600C00030C01194250652454644494D42505357D49151911253601
310
000030C0119425534110921395901398000000C0003FFFFFFFE415092139594D06424548494E448000000C0003FFFFFFFE411093D48C9055241484D358010000C300466411093D48CD055241484D358020000C30048E411093D48D5055241484D358000000C0003FFFFFFFE4110D0530C901348000000C0003FFFFFFFE4110
310
D0530CD01348020000C30048E4110D0530D501348070000C3004CA4110D0530DD013481E0000C30051A4110D15393901378000000C0003FFFFFFFE4110D15395D01378000000C0003FFFFFFFE4110D312539044B4C494E8000000C0003FFFFFFFE4110D3D38C501308000000C0003FFFFFFFD034110D3D38C901318000000C
310
0003FFFFFFFD034110D3D38CD01328000000C0003FFFFFFFD034110D3D38D101328000000C0003FFFFFFFD034111115510501348000000C0003FFFFFFFE4111125051D01358000000C0003FFFFFFFE4111125312501358000000C0003FFFFFFFE411112535410650415244494D8000000C0003FFFFFFFE4111125354906524
310
54644494D8000000C0003FFFFFFFE4111915353901388000000C0003FFFFFFFE415191535413901388030000C3003FFFFFFFE4151915354D410234418000000C0003FFFFFFFE4151915354D510234418030000C300466415191535593901328000000C0003FFFFFFFE415191535595101328030000C3004664112105510D01
310
388000000C0003FFFFFFFD014112125113901338000000C0003FFFFFFFD034112125115D01338000000C0003FFFFFFFD034112131253901348000000C0003FFFFFFFD01411213D0D3901378000000C0003FFFFFFFE411213D0D5D01378000000C0003FFFFFFFE4112539193D04494E464F8000000C0003FFFFFFFE41131150
310
51101358000000C0003FFFFFFFE419397D0921395902394E8000000C0003FFFFFFFE419397D0D3D38C502304E8000000C0003FFFFFFFD03419397D0D3D38C902314E8000000C0003FFFFFFFD03419397D0D3D38CD02324E8000000C0003FFFFFFFD03419397D0D3D38D102324E8000000C0003FFFFFFFD03419397D0D15393
310
902374E8000000C0003FFFFFFFE419397D0D15395D02374E8000000C0003FFFFFFFE419397D1125312502354E8000000C0003FFFFFFFE419397D2105510D02384E8000000C0003FFFFFFFD01419397D2125113902334E8000000C0003FFFFFFFD03419397D2125115D02334E8000000C0003FFFFFFFD03419397D311505110
310
2354E8000000C0003FFFFFFFE419397D391D25410349504E8000000C0003FFFFFFFE419397D412105390334414E8000000C0003FFFFFFFE419397D510D3D3902304E8000000C0003FFFFFFFD03419397D5121312502344E8000000C0003FFFFFFFD01419397D5131153902304E8000000C0003FFFFFFFD03419397D5941312
310
50332414E8000000C0003FFFFFFFE411391D25410249508000000C0003FFFFFFFE411410530C9055241484D358010000C300466411410530CD055241484D358020000C30048E411410530D5055241484D358000000C0003FFFFFFFE411412105390234418000000C0003FFFFFFFE411413D4D3901358000000C0003FFFFFFF
310
E411490D1D3901378000000C0003FFFFFFFE411490D1D5D01378000000C0003FFFFFFFE4114D09492D01348000000C0003FFFFFFFD014114D150D5101348000000C0003FFFFFFFD014114D6508CD01358020000C30048E411354D653501358020000C30048E411510D3D3901308000000C0003FFFFFFFD0341151213125013
310
48000000C0003FFFFFFFD01411512550C9055241484D358010000C300466411512550CD055241484D358020000C30048E411512550D5055241484D358000000C0003FFFFFFFE4115131153901308000000C0003FFFFFFFD03415514905253105545241494C8000000C0003FFFFFFFE4115149312501348000000C0003FFFFF
310
FFD01411516150C501368030000C300466411516150C901368030000C300466411516150CD01368000000C0003FFFFFFFE411516150D501368070000C3004CA411516150DD013681E0000C30051A4115925155D04564945578000000C0003FFFFFFFE41159151121034849448000000C0003FFFFFFFD024115915115903564
310
9538000000C0003FFFFFFFD02411594131250232418000000C0003FFFFFFFE4116925690501348000000C0003FFFFFFFD01AAA3F400030C01013F90A4393241D3241919415324111940D194092340519479467F6
340
16
340
16
340
16
340
43
340
16
340
16
340
16
340
44
340
16
340
16
340
44
340
45
340
16
340
16
340
16
340
16
340
43
340
16
340
16
340
16
340
44
340
16
340
16
340
44
340
45
340
16
340
46
340
16
340
16
340
16
340
16
340
16
340
43
340
16
340
16
340
16
340
15
340
15
340
15
340
15
340
15
340
15
340
15
340
15
340
15
340
48
340
15
340
15
340
15
340
15
340
15
340
15
340
15
340
15
340
15
340
15
340
15
340
15
340
15
340
16
340
15
340
15
340
15
340
15
340
47
340
15
340
15
340
48
340
15
340
15
340
15
340
15
340
15
340
15
340
15
340
15
340
48
340
15
340
15
340
15
340
47
340
15
340
15
340
15
340
15
340
15
340
15
340
15
340
15
340
15
340
15
340
15
340
15
340
15
340
15
340
48
340
15
340
15
340
15
340
15
340
15
340
15
340
15
340
15
340
15
340
15
340
15
340
15
340
15
340
15
340
15
340
15
340
15
340
15
340
15
340
15
340
15
340
15
340
4B
 94
        0
  0
XRECORD
  5
2A41
102
{ACAD_REACTORS
330
2A40
102
}
330
2A40
100
AcDbXrecord
280
     1
  1
LINE
  0

  0
XRECORD
  5
2917
102
{ACAD_REACTORS
330
2916
102
}
330
2916
100
AcDbXrecord
280
     1
  1
25000259__00___
  0

  0
XRECORD
  5
2A3F
102
{ACAD_REACTORS
330
2A3E
102
}
330
2A3E
100
AcDbXrecord
280
     1
  1
110 ^M^J ^M^J ^M^J ^M^J ^M^J ^M^J ^M^J ^M^J ^M^J ^M^J ^M^Jボーリングクイル ^M^J鋼 ^M^J特型 ^M^J直付け ^M^Jストレート ^M^J25 ^M^J2 ^M^J ^M^Jアルミ ^M^J ^M^J
  0

  0
XRECORD
  5
168A
102
{ACAD_REACTORS
330
1688
102
}
330
1688
100
AcDbXrecord
280
     1
  1
1,,,,,,,,,^M^J2,,,,,,,,,^M^J3,,,,,,,,,^M^J4,,,,,,,,,^M^J5,,,,,,,,,^M^J6,,,,,,,,,^M^J7,,,,,,,,,^M^J8,,,,,,,,,^M^J9,,,,,,,,,^M^J10,,,,,,,,,
  0

  0
XRECORD
  5
1689
102
{ACAD_REACTORS
330
1688
102
}
330
1688
100
AcDbXrecord
280
     1
  1
10,10
  0

  0
XRECORD
  5
2919
102
{ACAD_REACTORS
330
2918
102
}
330
2918
100
AcDbXrecord
280
     1
  1
3
  0

  0
ACAD_PROXY_OBJECT
  5
1E965
102
{ACAD_REACTORS
330
17E
102
}
330
17E
100
AcDbProxyObject
 90
      499
 91
      578
 95
       25
 70
     0
 93
     2395
310
5DCB81E85EB51B8BE3F8030000C30041105394D2501640600800030C0200800030C00B81E85EB51B8BE3F48821E8720B1B6A9BAB9332A32BC3A29BA3220480A1282C6DA8C868CA6E8C88120286A0B1B6ABB2B63234B733A9BA3220480A1082C6DA92C8A6E8C88120285A0B1B6A230BA3AB6A9BA3220480A1282C6DA849E9AA
310
6E8C8812028820B6B23A2232BA30B4B629BCB6A9BA3220480A2282DAC8E8A6CAC6E8D2DEDCA6F2DAA6E8C88120288A0B6B23A21B2B73A32B92634B732A9BA3220480A2282DAC8E8A8D0E4CAC2C898D2DCCAA6E8C88120285A0B6B23A2737BA32A9BA3220480A1682C682DACE98C2F2A6E8C88120285A0B1A0B6B3A234B6A9B
310
A3220480A2282C682DACE90DED8CA86D0C2E4E8A6E8C88120286A0B1A0B6B3AA34BA3632A9BA3220480A02812020
340
1B4F6
360
1E966
360
1E967
360
1E968
360
1E969
360
1E96A
360
1E96B
360
1E96C
360
1E96D
360
1E96E
360
1E96F
360
1E970
360
1E976
360
1E977
360
1E978
360
1E979
340
0
340
0
 94
        0
  0
ACAD_PROXY_OBJECT
  5
1D6A6
102
{ACAD_REACTORS
330
17E
102
}
330
17E
100
AcDbProxyObject
 90
      499
 91
      592
 95
       25
 70
     0
 93
     2497
310
5DC0000000000000C408030000C30040D254D3D01640600800030C0200800030C000000000000000C40C88A2085A0B6B23A22B233B2A9BA3220480A1C82C6DAA6EAE4CCA8CAF0E8A6E8C88120284A0B1B6A321A329BA3220480A1A82C6DAAECAD8C8D2DCCEA6E8C8812028420B1B6A4B229BA3220480A1682C6DA88C2E8EAD
310
AA6E8C88120284A0B1B6A127A6A9BA3220480A2082DAC8E888CAE8C2D2D8A6F2DAA6E8C88120288A0B6B23A29B2B1BA34B7B729BCB6A9BA3220480A2282DAC8E886CADCE8CAE498D2DCCAA6E8C88120288A0B6B23A2A343932B0B22634B732A9BA3220480A1682DAC8E89CDEE8CAA6E8C88120285A0B1A0B6B3A630BCA9BA3
310
220480A1682C682DACE88D2DAA6E8C88120288A0B1A0B6B3A437B632A1B430B93A29BA3220480A1A82C682DACEA8D2E8D8CAA6E8C8812032048080
340
1B32C
360
1D6A8
360
1D6A9
360
1D6AA
360
1D6AB
360
1D6AC
360
1D6AD
360
1D6AE
360
1D6AF
360
1D6B0
360
1D6B1
360
1D6B2
360
1D6B3
360
1D6B9
360
1D6BA
360
1D6BB
360
1D6BC
340
0
340
0
 94
        0
  0
ACAD_PROXY_OBJECT
  5
1E0E8
102
{ACAD_REACTORS
330
17E
102
}
330
17E
100
AcDbProxyObject
 90
      499
 91
      526
 95
       25
 70
     0
 93
     2379
310
5DC33333333333309408000000C00040D29254D01640600800030C0200800030C003333333333330940C8121E8720B1B6A9BAB9332A32BC3A29BA3220480A1282C6DA8C868CA6E8C88120286A0B1B6ABB2B63234B733A9BA3220480A1082C6DA92C8A6E8C88120285A0B1B6A230BA3AB6A9BA3220480A1282C6DA849E9AA6E
310
8C88120286A0B1A0B6B3AA34BA3632A9BA3220480A2082DAC8E888CAE8C2D2D8A6F2DAA6E8C88120288A0B6B23A29B2B1BA34B7B729BCB6A9BA3220480A2282DAC8E886CADCE8CAE498D2DCCAA6E8C88120288A0B6B23A2A343932B0B22634B732A9BA3220480A1682DAC8E89CDEE8CAA6E8C88120285A0B1A0B6B3A630BCA
310
9BA3220480A1682C682DACE88D2DAA6E8C88120288A0B1A0B6B3A437B632A1B430B93A29BA3220480C812020
340
180
360
1E0E9
360
1E0EA
360
1E0EB
360
1E0EC
360
1E0ED
360
1E0EE
360
1E0EF
360
1E0F0
360
1E0F1
360
1E0F2
360
1E0F3
360
1E0F4
360
1E0FA
360
1E0FB
360
1E0FC
340
0
340
0
 94
        0
  0
ACAD_PROXY_OBJECT
  5
1D64C
102
{ACAD_REACTORS
330
1D64B
102
}
330
1D64B
100
AcDbProxyObject
 90
      499
 91
      518
 95
       25
 70
     0
 93
     2632
310
4050B44574753455454494E4753A1286829C8E82A4A482B282A065A6C608321A2A720A723A0A849A1ABE1C983E18999AA0C868A9C889282940000000000000488083A1A2A72224A0A9A0A8418983E19183E199820E868A9C8892A6A894000000000000010808321A2A72622A7250000000000000122020C868A9C9E8C8C940
310
000000000000488083A1A2A727A32318A50000000000000122020E868A9C9E8C8C64940000000000000488084A1A624A720A92920ACA0A83989A17181818182108698929C8AA8B2A082A0AB098929C8A84A22BA3AAA9A1A0A622A50A0E9882A6A89E849482A02608426A0A5A2AB24A2ABA7E8120CA0A68682988A0C0080001
310
0652455649534941501304154D0D0531150540CC4E8C50954494D455354414D504A0E3E3BD92782B734141D5915494D253D3905414C4D4B8C0C1107B44574753455454494E4753454E447D
  0
ACAD_PROXY_OBJECT
  5
1D64D
102
{ACAD_REACTORS
330
1D64B
102
}
330
1D64B
100
AcDbProxyObject
 90
      499
 91
      518
 95
       25
 70
     0
 93
      852
310
4050D5452414E5353455454494E4753A2488A482AE929C8EA8A4829CA69882A8929E9C0C00800050D4F524947494E414C4C595F4F4E0600400008529A7AAA921A2A620A723A0A81A52827212AAA0A48AA68AA4AC8A0C0080001107B44574753455454494E4753454E447D0
  0
ACAD_PROXY_OBJECT
  5
1E966
330
1E965
100
AcDbProxyObject
 90
      499
 91
      579
 95
       25
 70
     0
 93
       96
310
5DC20E80A0280A0280A02808
  0
ACAD_PROXY_OBJECT
  5
1E967
330
1E965
100
AcDbProxyObject
 90
      499
 91
      580
 95
       25
 70
     0
 93
      332
310
5DD0E4050140501405014050140501405014050142501405014050140501405012000000000000000400
340
1B4F7
 94
        0
  0
ACAD_PROXY_OBJECT
  5
1E968
330
1E965
100
AcDbProxyObject
 90
      499
 91
      581
 95
       25
 70
     0
 93
      403
310
5DCC199999999999E99F91F4050140501405014050140501405014050140501405014050140501405014050140501405014040
340
0
 94
        0
  0
ACAD_PROXY_OBJECT
  5
1E969
330
1E965
100
AcDbProxyObject
 90
      499
 91
      582
 95
       25
 70
     0
 93
       10
310
5DC0
  0
ACAD_PROXY_OBJECT
  5
1E96A
330
1E965
100
AcDbProxyObject
 90
      499
 91
      583
 95
       25
 70
     0
 93
      257
310
5DE290EA22A7D90F49F9353333333333727F44D4CCCCCCCCCDC9FC010000618000
340
1B4F4
340
1B4F5
 94
        0
  0
ACAD_PROXY_OBJECT
  5
1E96B
330
1E965
100
AcDbProxyObject
 90
      499
 91
      584
 95
       25
 70
     0
 93
    13023
310
5DD0E411255115350141236025B6901405014069011309A4F2590CB64FD3347454E545241434F2C4A504E2C302C8D8096DA2C47454E54524154582C25732C2847454E4D53472067656E647767203232322940690120281A8AA2CA0282484A4BE52028120280A03202261349E4B2196C9FA668E8A9CA8A482869E5894A09C58
310
605921292F94588E8A9CA8A482A8B0584AE658508E8A9C9AA68E40CECADCC8EECE406464665280D202405044E414D454050496BC914F4051C40640A8B95C2E97CBE502404CD1D15395149050D3CB1294138B0C0B25AF2453CB11D15395149055160B095CCB0A11D1539354D1C819D95B991DD9C80C8C8D8A50192C3D494628
310
4953424C414E4B28504152543A4E414D45292C424C4F434B3A4E414D452C504152543A4E414D452940480A0A888AA686A480A09251B1DBE80A3A80C81D10782C06030180C8099A3A2A72A2920A1A7962528271618164946C76F9623A2A72A2920AA2C1612B9961423A2A726A9A39033B2B7323BB39019189B94A0248090142
310
14D51053911054911014122D2E29A50147501904A383BFDFEFF5FBFCFD3347454E545241434F2C4A504E2C302C8B4B8A692C47454E54524154582C25732C2847454E4D53472067656E64776720323138294049012028426A0AA22A924A0A62028246EF4BDFA028EA0320B41396D838E9017D9FA668E8A9CA8A482869E5894A
310
09C5860591BBD2F7E588E8A9CA8A482A8B0584AE658508E8A9C9AA68E40CECADCC8EECE406464625280D202405044E4F544540504928D8B4C4051D40641A8B95C2E97CBE5F23F4CD1D15395149050D3CB1294138B0C0B24A362D30B11D15395149055160B095CCB0A11D1539354D1C819D95B991DD9C80C8C8D4A501A40480
310
A0CAC8A9C889EA480A1106F1072706BF02B680A3A80C83D172B85D2F97CBE47E9BA3A2A72A2920A1A79625282716181641BC41C9C1AFC0AD9623A2A72A2920AA2C1612B9961423A2A726A9A39033B2B7323BB39019191A14A0348090141911154D0D48C90141A43825AF880C90147501908A20F0580C0603019013447454E5
310
45241434F2C4A504E2C302C90E096BE20322C47454E54524154582C25732C2847454E4D53472067656E6477672033362940490120284A9AA20A72220A922192028345A5C53490192028EA0321347077FBFDFEBF7F9FA6A8E8A9CA8A482869E5894A09C586059169714D24064588E8A9CA8A482A8B0584AE658508E8A9C9AA6
310
8E40CECADCC8EECE4064646052809202405094D4154455249414C32405068DDE97BF20324051D40642A8272DB071D202FB3F4D11D15395149050D3CB1294138B0C0B2377A5EFC80C8B11D15395149055160B095CCB0A11D1539354D1C819D95B991DD9C80D0C0A501240480A089A82A6A680A091D7F2F9480A3A80A0485A06
310
81172B85D2F97CBE47E9923A2A72A2920A1A796252827161816475FCBE51623A2A72A2920AA2C1612B9961423A2A726A9A39033B2B7323BB3901A1914A024809014154149250D150141226FE29A501475014090C409022E570BA5F2F97C8FD3247454E545241434F2C4A504E2C302C89BF8A692C47454E54524154582C2573
310
2C2847454E4D53472067656E6477672034332940490120281A224A6A02824850CB202028EA028121A81A045CAE174BE5F2F91FA648E8A9CA8A482869E5894A09C58605921432C80588E8A9CA8A482A8B0584AE658508E8A9C9AA68E40CECADCC8EECE406868528092024050E441022E07A17AD46E338FE07800030C0001018
310
ACD56AB55AADF63F2B355AAD56AB7D8FD073D3C4954454D3E405018ACD56AB55AADF63F2B355AAD56AB7D8FD073D3C4954454D3E40501890C7E3F1783CEE3F2431F8FC5E0F3B8FD073D3C4954454D3E40501890C7E3F1783CEE3F2431F8FC5E0F3B8FD073D3C4954454D3E405029012B355AAD56AB7D8FCACD56AB55AADF63
310
F41CF4F125511534F901418F4F1455164F9014062B355AAD56AB7D8FCACD56AB55AADF63F41CF4F125511534F9014061309A4F2590CBA4FC4C2693C96432E93F41CF4F125511534F901901002B355AAD56AB7D8FCACD56AB55AADF63FA2000000000000008204018000618048220681A048120280C88214844882034852034
310
8452028521485214814000000000000F0BF0000000000003C2FD018020000C3008070000C3000EF7D3E365DBA88FC3BDF4F8D976EA23F2E07A17AD46E2F8FF20341A405024150741A4069703D0BD6A3717C7F0040001860100400018601002000186002026280A02
340
0
340
0
 94
        0
  0
ACAD_PROXY_OBJECT
  5
1E96C
330
1E965
100
AcDbProxyObject
 90
      499
 91
      585
 95
       25
 70
     0
 93
      994
310
5DC0B81E85EB51B8CE3F4BCF511155105253080F11115510525317D3105091530F971414D0D05311480F11115510525317D05094D4D0D053114F92341C9A9999999999B93F26A666666666724FC000000000000E03F4000000000000004000000000000005100000000000000244081E0000C3002E07A17AD46E338FC0
340
12AC
340
1B4F6
 94
        0
  0
ACAD_PROXY_OBJECT
  5
1E96D
330
1E965
100
AcDbProxyObject
 90
      499
 91
      586
 95
       25
 70
     0
 93
      823
310
5DC031703D0BD6A3719C7E999EA9A2A1AA24A7A7101E29A2A1AA24A7A72FA620A122A62FA324A929AA1F169E29A2A1AA24A7A72FA620A122A62FA620A9AA1F1353333333333B27E3FFFE01C00030C008840F000061801353333333333B27F1703D0BD6A3719C7E
340
12AC
340
1B4F6
 94
        0
  0
ACAD_PROXY_OBJECT
  5
1E96E
330
1E965
100
AcDbProxyObject
 90
      499
 91
      587
 95
       25
 70
     0
 93
      280
310
5DC2B8716D9CEF7C33F0A5723F0BD4A2F0FC295C8FC2F528BC3FA199999999999F99FC
  0
ACAD_PROXY_OBJECT
  5
1E96F
330
1E965
100
AcDbProxyObject
 90
      499
 91
      588
 95
       25
 70
     0
 93
       14
310
5DE4
340
0
 94
        0
  0
ACAD_PROXY_OBJECT
  5
1E970
330
1E965
100
AcDbProxyObject
 90
      499
 91
      589
 95
       25
 70
     0
 93
     7123
310
5DD084050BA4050AA405024050E836583938376838C815B8367203140405013D3C696628657175616C28486F6C653A7461707065642C223022292C22252563222C486F6C653A6E6F6D696E616C2022202220696628657175616C28486F6C653A756E6974732C223122292C2278222C222D222920222022293E3C6966286571
310
75616C28486F6C653A7461707065642C223022292C486F6C653A6469612C486F6C653A706974636864657363293E207B5C46414D4744543B787D203C696628657175616C28486F6C653A7465726D696E6174696F6E2C223022292C486F6C653A64657074682C228AD192CA22293E5C507B5C46414D4744543B767D2525633C
310
486F6C653A63746469613E207B5C46414D4744543B787D203C486F6C653A637464657074683E406901405034050E836583938376838C815B83672031405FE3D3C696628657175616C28486F6C653A7461707065642C223022292C22252563222C486F6C653A6E6F6D696E616C2022202220696628657175616C28486F6C653
310
A756E6974732C223122292C2278222C222D222920222022293E3C696628657175616C28486F6C653A7461707065642C223022292C486F6C653A6469612C486F6C653A706974636864657363293E207B5C46414D4744543B787D203C696628657175616C28486F6C653A7465726D696E6174696F6E2C223022292C486F6C653
310
A64657074682C228AD192CA22293E5C507B5C46414D4744543B777D2525633C486F6C653A63746469613E2058203C486F6C653A6374616E676C653E252564406901405014050E836583938376838C815B83672031405CF3D3C696628657175616C28486F6C653A7461707065642C223022292C22252563222C486F6C653A6E
310
6F6D696E616C2022202220696628657175616C28486F6C653A756E6974732C223122292C2278222C222D222920222022293E3C696628657175616C28486F6C653A7461707065642C223022292C486F6C653A6469612C486F6C653A706974636864657363293E5C507B5C46414D4744543B787D203C696628657175616C2848
310
6F6C653A7465726D696E6174696F6E2C223022292C486F6C653A64657074682C228AD192CA22293E4069014051E4090E836583938376838C815B83672032405173D3C535444503A444553433E203C535444503A5354443E40690E836583938376838C815B836720314050C3D3C535444503A444553433E40690240515AAABB
310
A060
360
1E971
330
1E971
360
1E972
330
1E972
360
1E973
330
1E973
360
1E974
360
1E975
330
1E974
330
1E975
 94
        0
  0
ACAD_PROXY_OBJECT
  5
1E976
330
1E965
100
AcDbProxyObject
 90
      499
 91
      568
 95
       25
 70
     0
 93
       26
310
5DD02A80
340
0
 94
        0
  0
ACAD_PROXY_OBJECT
  5
1E977
330
1E965
100
AcDbProxyObject
 90
      499
 91
      569
 95
       25
 70
     0
 93
      258
310
5DD02000000000000380FC000000000000E03F408F0F9023C3E40DB18CCCFFFF80
340
8841
340
0
340
0
340
8842
340
8843
340
0
340
8844
340
8845
340
8846
340
0
 94
        0
  0
ACAD_PROXY_OBJECT
  5
1E978
330
1E965
100
AcDbProxyObject
 90
      499
 91
      590
 95
       25
 70
     0
 93
    13993
310
5DD1D023FFFFFFFD010300002E07A17AD46E2F8FE00800030C01010300002E07A17AD46E2F8FE00800030C00050C8DC0955782CC838A83588367014ED1D15395149050D3CB1294138B0C0B23702555E0B320E2A0D620D9CB11D15395149055160B095CCB0A11D1539354D1C819D95B991A5B5E880CCC0A78000C0000000000
310
00000000000000000000007B14AE47E17AA43F2E07A17AD46E2F8FE00800030C007B14AE47E17AA43F2E07A17AD46E2F8FE00800030C020143CF4F111959985D5B1D151A5D1B194F8050A8C8A8365815B8375838B014E51D15395149050D3CB1294138B0C0B2322A0D96056E0DD60E2CB11D15395149055160B095CCB0A11D
310
1539354D1C819D95B991A5B5E880CCC4A78000C000000000000000000000000000000007B14AE47E17AA43F2E07A17AD46E2F8FE00800030C007B14AE47E17AA43F2E07A17AD46E2F8FE00800030C020143CF4F111959985D5B1D151A5D1B194F90D4410F4450240D0441507431014391244D05449074510C4350F00014123
310
2D24D7C053247454E545241434F2C4A504E2C302C8CB4935F2C47454E54524154582C25732C2847454E4D53472067656E64696D7A20312900010104002214000282465A49AF80A648E8A9CA8A482869E5894A09C586059196926BE588E8A9CA8A482A8B0584AE658508E8A9C9AA68E40CECADCC8D2DAF44062520002020800
310
43E80005028C8A014C11D15395149050D3CB1294138B0C0B23228B11D15395149055160B095CCB0A11D1539354D1C819D95B991A5B5E880C8A4054E3D3C4946284953424C414E4B28486F6C654974656D292C4F726967696E2C20486F6C654974656D293E3C4946284953424C414E4B28486F6C654974656D292C22222C204
310
86F6C65496E646578293E010104002234000280AC00A5E8E8A9CA8A482869E5894A09C586058B0588E8A9CA8A482A8B0584AE658508E8A9C9AA68E40CECADCC8D2DAF4406652000202000040A800050159014BD1D15395149050D3CB1294138B0C0B164B11D15395149055160B095CCB0A11D1539354D1C819D95B991A5B5E
310
880D0A4000404000081D0000A02A40297A3A2A72A2920A1A796252827161816291623A2A72A2920AA2C1612B9961423A2A726A9A39033B2B73234B6BD101B148000808000104A000140A0F4C053047454E545241434F2C4A504E2C302C83D32C47454E54524154582C25732C2847454E4D53472067656E64696D7A20372900
310
0101030020B400028141E980A608E8A9CA8A482869E5894A09C58605907A6588E8A9CA8A482A8B0584AE658508E8A9C9AA68E40CECADCC8D2DAF4407052000202020041E800050490E096BE014CD1D15395149050D3CB1294138B0C0B243825AF8B11D15395149055160B095CCB0A11D1539354D1C819D95B991A5B5E880C8
310
C0A400040010008650000A091B012DB40299A3A2A72A2920A1A79625282716181646C04B6D1623A2A72A2920AA2C1612B9961423A2A726A9A39033B2B73234B6BD10189A148000808280501A00014320D0E0E4E0D9A0D8A0D3A0D60053B47454E545241434F2C4A504E2C302C8343839383668362834E83582C47454E54524
310
154582C25732C2847454E4D53472067656E64696D7A203135290001010500A1D4000281464500A628E8A9CA8A482869E5894A09C5860591914588E8A9CA8A482A8B0584AE658508E8A9C9AA68E40CECADCC8D2DAF440626C52000202080044A800050E8C8A8343839383668362834E8358014F51D15395149050D3CB129413
310
8B0C0B2322A0D0E0E4E0D9A0D8A0D3A0D60B11D15395149055160B095CCB0A11D1539354D1C819D95B991A5B5E880C4DCA4000404140089D0000A0921292F940299A3A2A72A2920A1A796252827161816484A4BE51623A2A72A2920AA2C1612B9961423A2A726A9A39033B2B73234B6BD10189C948000808300114A0001412
310
2D2E29A4053347454E545241434F2C4A504E2C302C8B4B8A692C47454E54524154582C25732C2847454E4D53472067656E64696D7A20323129000100040021B4878030026A6666666667A4FE064D4CCCCCCCCCF49FC049A9999999999E93F809353333333333D27F0226A6666666667A4FE044D4CCCCCCCCCF49FC0D818000
310
00000000000810026A666666666764FE004D4CCCCCCCCCF49FC009A9999999999E93F801353333333333D27F032E07A17AD46E378FE0633B333333333032050F006004D4CCCCCCCCCF49FC0C9A9999999999E93F819353333333333D27F0326A6666666667A4FE064D4CCCCCCCCCF49FC0C9A9999999999E93F81B03000000
310
00000000102004D4CCCCCCCCCEC9FC009A9999999999E93F819353333333333D27F0026A6666666667A4FE065C0F42F5A8DC6F1FC0C6766666666660640A088800000021E000000890000002260000008220E000200890000002060002008100008000
340
0
340
0
340
0
340
0
340
1B4F6
340
1B4F6
 94
        0
  0
ACAD_PROXY_OBJECT
  5
1E979
330
1E965
100
AcDbProxyObject
 90
      499
 91
      561
 95
       25
 70
     0
 93
     5214
310
5DD9741105394D2506414E53495F4342905394D257D512551554D15414E53495F54525F5265766973696F6E6C697374614191143202831372E307832322E30696E63682941905394D257D0D1146202832382E307834302E30696E63682941905394D257D191142202831312E307831372E30696E63682941905394D257D091
310
144202832322E307833342E30696E63682941905394D257D111145202833342E307834342E30696E63682941905394D257D1510412028382E357831312E30696E63682941905394D257D050543905B9CDA482557247A25E4C81110D0C414E53495F5449544C45444343505B9CDA482557247A25E4C81050B414E53495F5449
310
544C454143905B9CDA482557247A25E4C81050D0C414E53495F5449544C45414343505B9CDA482557247A25E4C81110B414E53495F5449544C4544425554C82557247A25E4D0A414E53495F544954555342110979A97F0838A8358836720415F42525F45505394D257D09497D4995D9A5CDA5BDB9B1A5CDD18510979A97F08
310
38A8358836720415F54525F45505394D257D51497D4995D9A5CDA5BDB9B1A5CDD18510979A97F0838A8358836720445F42525F45505394D257D09497D4995D9A5CDA5BDB9B1A5CDD19110979A97F0838A8358836720445F54525F45505394D257D51497D4995D9A5CDA5BDB9B1A5CDD19110979A97F0838A8358836720415F
310
424C5F45505394D257D09317D4995D9A5CDA5BDB9B1A5CDD18510979A97F0838A8358836720415F544C5F45505394D257D51317D4995D9A5CDA5BDB9B1A5CDD18510979A97F0838A8358836720445F424C5F45505394D257D09317D4995D9A5CDA5BDB9B1A5CDD19110979A97F0838A8358836720445F544C5F45505394D25
310
7D51317D4995D9A5CDA5BDB9B1A5CDD190
  0
ACAD_PROXY_OBJECT
  5
1D6A8
330
1D6A6
100
AcDbProxyObject
 90
      499
 91
      593
 95
       25
 70
     0
 93
       13
310
5DD8
  0
ACAD_PROXY_OBJECT
  5
1D6A9
330
1D6A6
100
AcDbProxyObject
 90
      499
 91
      594
 95
       25
 70
     0
 93
       96
310
5DEA0E80A0280A0280A0280F
  0
ACAD_PROXY_OBJECT
  5
1D6AA
330
1D6A6
100
AcDbProxyObject
 90
      499
 91
      595
 95
       25
 70
     0
 93
      272
310
5DD0E4050140501405014050140501405014050140D01405012C0000000000000040
340
1B32D
 94
        0
  0
ACAD_PROXY_OBJECT
  5
1D6AB
330
1D6A6
100
AcDbProxyObject
 90
      499
 91
      596
 95
       25
 70
     0
 93
      497
310
5DE8666666666667A67E199999999999E99FD22405014050140501405014050140501405014050140501405014050140501405014050140501405014050100
340
1B328
 94
        0
  0
ACAD_PROXY_OBJECT
  5
1D6AC
330
1D6A6
100
AcDbProxyObject
 90
      499
 91
      597
 95
       25
 70
     0
 93
       10
310
5DC0
  0
ACAD_PROXY_OBJECT
  5
1D6AD
330
1D6A6
100
AcDbProxyObject
 90
      499
 91
      598
 95
       25
 70
     0
 93
      257
310
5DE290EA22A7D90F49F80000000000001081400000000000004204010000618000
340
1B329
340
1B32A
 94
        0
  0
ACAD_PROXY_OBJECT
  5
1D6AE
330
1D6A6
100
AcDbProxyObject
 90
      499
 91
      599
 95
       25
 70
     0
 93
    13013
310
5DD0E411255115350141236025B690140501406901000000000000091013347454E545241434F2C4A504E2C302C8D8096DA2C47454E54524154582C25732C2847454E4D53472067656E647767203232322940690120281A8AA2CA0282484A4BE52028120280A0320200000000000012202668E8A9CA8A482869E5894A09C58
310
605921292F94588E8A9CA8A482A8B0584AE658508E8A9C9AA68E40CECADCC8EECE406464665280D202405044E414D454050496BC914F4051C40640A80000000000004E404CD1D15395149050D3CB1294138B0C0B25AF2453CB11D15395149055160B095CCB0A11D1539354D1C819D95B991DD9C80C8C8D8A50192C3D494628
310
4953424C414E4B28504152543A4E414D45292C424C4F434B3A4E414D452C504152543A4E414D452940480A0A888AA686A480A09251B1DBE80A3A80C81D0000000000100A28099A3A2A72A2920A1A7962528271618164946C76F9623A2A72A2920AA2C1612B9961423A2A726A9A39033B2B7323BB39019189B94A0348090142
310
14D51053911054911014122D2E29A50147501904A000000000000125013347454E545241434F2C4A504E2C302C8B4B8A692C47454E54524154582C25732C2847454E4D53472067656E64776720323138294069012028426A0AA22A924A0A62028246EF4BDFA028EA0320B40000000000001CA02668E8A9CA8A482869E5894A
310
09C5860591BBD2F7E588E8A9CA8A482A8B0584AE658508E8A9C9AA68E40CECADCC8EECE406464625280D202405044E4F544540504928D8B4C4051D40641A80000000000003E404CD1D15395149050D3CB1294138B0C0B24A362D30B11D15395149055160B095CCB0A11D1539354D1C819D95B991DD9C80C8C8D4A501240480
310
A0CAC8A9C889EA480A1106F1072706BF02B680A3A80C83D00000000000007C809BA3A2A72A2920A1A79625282716181641BC41C9C1AFC0AD9623A2A72A2920AA2C1612B9961423A2A726A9A39033B2B7323BB39019191A14A0248090141911154D0D48C90141A43825AF880C90147501908A000000000020145013447454E5
310
45241434F2C4A504E2C302C90E096BE20322C47454E54524154582C25732C2847454E4D53472067656E6477672033362940490120284A9AA20A72220A922192028345A5C53490192028EA03213400000000000024A026A8E8A9CA8A482869E5894A09C586059169714D24064588E8A9CA8A482A8B0584AE658508E8A9C9AA6
310
8E40CECADCC8EECE4064646052809202405094D4154455249414C32405068DDE97BF20324051D40642A8713D0AD7A37045404D11D15395149050D3CB1294138B0C0B2377A5EFC80C8B11D15395149055160B095CCB0A11D1539354D1C819D95B991DD9C80D0C0A501240480A089A82A6A680A091D7F2F9480A3A80A0485A06
310
8100000000000007C809923A2A72A2920A1A796252827161816475FCBE51623A2A72A2920AA2C1612B9961423A2A726A9A39033B2B7323BB3901A1914A024809014154149250D150141226FE29A501475014090C409020000000000000F9013247454E545241434F2C4A504E2C302C89BF8A692C47454E54524154582C2573
310
2C2847454E4D53472067656E6477672034332940490120281A224A6A02824850CB202028EA028121A81A040000000000001F202648E8A9CA8A482869E5894A09C58605921432C80588E8A9CA8A482A8B0584AE658508E8A9C9AA68E40CECADCC8EECE406868528092024050E445020000000000000510201C00030C0001018
310
0000000000003E400000000000000F901073D3C4954454D3E4050180000000000003E400000000000000F901073D3C4954454D3E40501800000000000034400000000000000D101073D3C4954454D3E40501800000000000034400000000000000D101073D3C4954454D3E405029010000000000000F9000000000000003E4
310
041CF4F125511534F901418F4F1455164F9014060000000000000F9000000000000003E4041CF4F125511534F9014060000000000000D100000000000000344041CF4F125511534F901901000000000000000F9000000000000003E40A2200000000000008204018000618048220681A048120280C88214844882034852034
310
8452028521485214814000000000000F0BF0000000000003C2FD018020000C3008070000C3003373333333333B0FCCDCCCCCCCCCCEC3F000000000000031012034164050341105901A000000000000062040100006180401000061804008000618008098A02808
340
0
340
0
 94
        0
  0
ACAD_PROXY_OBJECT
  5
1D6AF
330
1D6A6
100
AcDbProxyObject
 90
      499
 91
      600
 95
       25
 70
     0
 93
      898
310
5DC4000000000000144048CF4F11115510525317D3105091530F880A0F11115510525317D05094D4D0D053114F8A51141C9A9999999999B93F26A666666666724FC000000000000E03F400000000000000400000000000000510000000000000024408070000C300000000000000051000
340
16
340
1B32C
 94
        0
  0
ACAD_PROXY_OBJECT
  5
1D6B0
330
1D6A6
100
AcDbProxyObject
 90
      499
 91
      601
 95
       25
 70
     0
 93
      823
310
5DC0B00000000000002880959E9E29A2A1AA24A7A72FA620A122A62FA324A929AA1F169E29A2A1AA24A7A72FA620A122A62FA620A9AA1F000000000000048803FFFE01C00030C0088C0380006180000000000000048800000000000000A2000000000000002880
340
652
340
1B32C
 94
        0
  0
ACAD_PROXY_OBJECT
  5
1D6B1
330
1D6A6
100
AcDbProxyObject
 90
      499
 91
      602
 95
       25
 70
     0
 93
      152
310
5DE80000000000000840A3D0A5723F0BD1F200
  0
ACAD_PROXY_OBJECT
  5
1D6B2
330
1D6A6
100
AcDbProxyObject
 90
      499
 91
      603
 95
       25
 70
     0
 93
       14
310
5DE0
340
0
 94
        0
  0
ACAD_PROXY_OBJECT
  5
1D6B3
330
1D6A6
100
AcDbProxyObject
 90
      499
 91
      604
 95
       25
 70
     0
 93
     8619
310
5DD084050BA4050AA405024050E836583938376838C815B836720314043A013D2525633C486F6C653A63746469613E2078203C486F6C653A637464657074683E20555C503C696628657175616C28486F6C653A7461707065642C223022292C22252563222C486F6C653A6E6F6D696E616C202220782022293E3C6966286571
310
75616C28486F6C653A7461707065642C223022292C486F6C653A6469612C486F6C653A706974636864657363293E3C696628657175616C28486F6C653A7461707065642C223122292C22207820222C2222293E3C696628657175616C28486F6C653A7461707065642C223122292C486F6C653A74617064657074682C222229
310
3E203C696628657175616C28486F6C653A7465726D696E6174696F6E2C223022292C22202F20222C2222293E3C696628657175616C28486F6C653A7465726D696E6174696F6E2C223022292C486F6C653A64657074682C2222293E406901405034050E836583938376838C815B836720314043B013D2525633C486F6C653A6
310
3746469613E2078203C486F6C653A6374616E676C653E2525645C503C696628657175616C28486F6C653A7461707065642C223022292C22252563222C486F6C653A6E6F6D696E616C202220782022293E3C696628657175616C28486F6C653A7461707065642C223022292C486F6C653A6469612C486F6C653A70697463686
310
4657363293E3C696628657175616C28486F6C653A7461707065642C223122292C22207820222C2222293E3C696628657175616C28486F6C653A7461707065642C223122292C486F6C653A74617064657074682C2222293E203C696628657175616C28486F6C653A7465726D696E6174696F6E2C223022292C22202F20222C2
310
222293E3C696628657175616C28486F6C653A7465726D696E6174696F6E2C223022292C486F6C653A64657074682C2222293E406901405014050E836583938376838C815B8367203140416013D3C696628657175616C28486F6C653A7461707065642C223022292C22252563222C486F6C653A6E6F6D696E616C2022207820
310
22293E3C696628657175616C28486F6C653A7461707065642C223022292C486F6C653A6469612C486F6C653A706974636864657363293E3C696628657175616C28486F6C653A7461707065642C223122292C22207820222C2222293E3C696628657175616C28486F6C653A7461707065642C223122292C486F6C653A746170
310
64657074682C2222293E203C696628657175616C28486F6C653A7465726D696E6174696F6E2C223022292C22202F20222C2222293E3C696628657175616C28486F6C653A7465726D696E6174696F6E2C223022292C486F6C653A64657074682C2222293E4069014051E4090E836583938376838C815B83672032405173D3C5
310
35444503A444553433E203C535444503A5354443E40690E836583938376838C815B836720314050C3D3C535444503A444553433E40690240515AAABBA120
360
1D6B7
330
1D6B7
360
1D6B8
330
1D6B8
360
1D6B6
330
1D6B6
360
1D6B5
360
1D6B4
330
1D6B5
330
1D6B4
 94
        0
  0
ACAD_PROXY_OBJECT
  5
1D6B9
330
1D6A6
100
AcDbProxyObject
 90
      499
 91
      568
 95
       25
 70
     0
 93
       26
310
5DD02A80
340
1D6A7
 94
        0
  0
ACAD_PROXY_OBJECT
  5
1D6BA
330
1D6A6
100
AcDbProxyObject
 90
      499
 91
      569
 95
       25
 70
     0
 93
      250
310
5DD020000000000000A1000000000000002440408F0F9023C3E409A0DCFFFF80
340
1B32E
340
0
340
0
340
1B32F
340
1B330
340
1B331
340
1B332
340
1B333
340
1B334
340
0
 94
        0
  0
ACAD_PROXY_OBJECT
  5
1D6BB
330
1D6A6
100
AcDbProxyObject
 90
      499
 91
      605
 95
       25
 70
     0
 93
    13889
310
5DD1D003FFFFFFFD030300030000000000000310200800030C01030300030000000000000310200800030C00050C8DC0955782CC838A83588367014ED1D15395149050D3CB1294138B0C0B23702555E0B320E2A0D620D9CB11D15395149055160B095CCB0A11D1539354D1C819D95B991A5B5E880CCC0A78000C0000000000
310
00000000000000000000010000000000000310200800030C010000000000000310200800030C020143CF4F111959985D5B1D151A5D1B194F8050A8C8A8365815B8375838B014E51D15395149050D3CB1294138B0C0B2322A0D96056E0DD60E2CB11D15395149055160B095CCB0A11D1539354D1C819D95B991A5B5E880CCC4
310
A78000C000000000000000000000000000000010000000000000310200800030C010000000000000310200800030C020143CF4F111959985D5B1D151A5D1B194F90D44111409034110541D0C4350F4050E44D03449074510F000141232D24D7C053247454E545241434F2C4A504E2C302C8CB4935F2C47454E54524154582C
310
25732C2847454E4D53472067656E64696D7A20312900010104002214000281464500A608E8A9CA8A482869E5894A09C5860591914588E8A9CA8A482A8B0584AE658508E8A9C9AA68E40CECADCC8D2DAF4406452029E9E9E27B934B3B4B71F1E24A31427A91424A9A12620A7259427B934B3B4B7149624A9A12620A7259424B
310
A32B6949496111116111711149F1E24BA32B69F00808200111A000140560052F47454E545241434F2C4A504E2C302C582C47454E54524154582C25732C2847454E4D53472067656E64696D7A20332900010100002054000280AC80A5E8E8A9CA8A482869E5894A09C586058B2588E8A9CA8A482A8B0584AE658508E8A9C9AA
310
68E40CECADCC8D2DAF4406852000202000040E800050152014BD1D15395149050D3CB1294138B0C0B148B11D15395149055160B095CCB0A11D1539354D1C819D95B991A5B5E880D8A400040400008250000A0507A6029823A2A72A2920A1A79625282716181641E99623A2A72A2920AA2C1612B9961423A2A726A9A39033B2
310
B73234B6BD101B948000808180105A000140A0F4C053047454E545241434F2C4A504E2C302C83D32C47454E54524154582C25732C2847454E4D53472067656E64696D7A203829000101010020F400028248704B5F00A668E8A9CA8A482869E5894A09C58605921C12D7C588E8A9CA8A482A8B0584AE658508E8A9C9AA68E40
310
CECADCC8D2DAF440646052000200080043280005048B4B8A69014CD1D15395149050D3CB1294138B0C0B22D2E29A4B11D15395149055160B095CCB0A11D1539354D1C819D95B991A5B5E880C8C4A4000400100086D0000A09196926BE029923A2A72A2920A1A796252827161816465A49AF9623A2A72A2920AA2C1612B9961
310
423A2A726A9A39033B2B73234B6BD10189480A02620202080043E80005048D8096DA014CD1D15395149050D3CB1294138B0C0B236025B68B11D15395149055160B095CCB0A11D1539354D1C819D95B991A5B5E880C4D0A4000404140280D0000A190687072706CD06C5069D06B0029DA3A2A72A2920A1A7962528271618164
310
1A1C1C9C1B341B141A741AC1623A2A72A2920AA2C1612B9961423A2A726A9A39033B2B73234B6BD10189A94800080828050EA000143A322A0D0E0E4E0D9A0D8A0D3A0D60053D47454E545241434F2C4A504E2C302C8C8A8343839383668362834E83582C47454E54524154582C25732C2847454E4D53472067656E64696D7A
310
2031372900010105002274000281464500A628E8A9CA8A482869E5894A09C5860591914588E8A9CA8A482A8B0584AE658508E8A9C9AA68E40CECADCC8D2DAF440626C52000202080044A8000504909497CA014CD1D15395149050D3CB1294138B0C0B242525F28B11D15395149055160B095CCB0A11D1539354D1C819D95B9
310
91A5B5E880C4E4A400040418008A521E000000000000001CA040C00000000000034408080000000000006881010000000000000D102040000000000001A204080000000000003440818000000000000728103000000000000125020600000000004028A040000000000000034408000000000000004881000000000000000D
310
102000000000000001A204000000000000003440818000000000000508143C0000000000000039408180000000000006881030000000000000D102060000000000001A2040C00000000000034408180000000000006881030000000000000E5020600000000000024A040C0000000000805140800000000000000688100000
310
00000000009102000000000000001A2040000000000000034408180000000000006881030000000000000A10284220000000878000002020000008380000020400000081800000208000000828000002028900000000
340
0
340
0
340
0
340
0
340
1B32C
340
1B32C
 94
        0
  0
ACAD_PROXY_OBJECT
  5
1D6BC
330
1D6A6
100
AcDbProxyObject
 90
      499
 91
      561
 95
       25
 70
     0
 93
     7018
310
5DD9740D254D3D0649534F5F4133429254D3D7D5125513115051349534F5F42525F5265766973696F6E6C69737446111413478342028323937783834316D6D2920421254D3D7D04D1E0D11141327835202835393478323130326D6D29421254D3D7D04C9E0D51141347839202832393778313839326D6D29421254D3D7D04D
310
1E0E51141337837202834323078323038306D6D29421254D3D7D04CDE0DD1141347838202832393778313638326D6D29421254D3D7D04D1E0E11141327834202835393478313638326D6D29421254D3D7D04C9E0D10E41312028353934783834316D6D29419254D3D7D04C51141347837202832393778313437316D6D29421
310
254D3D7D04D1E0DD1141347836202832393778313236316D6D29421254D3D7D04D1E0D91141347835202832393778313035316D6D29421254D3D7D04D1E0D5104130202838343078313138396D6D2920419254D3D7D04C10E41332028323937783432306D6D29419254D3D7D04CD1141327833202835393478313236316D6D
310
29421254D3D7D04C9E0CD10413478332028323937783633306D6D29421254D3D7D04D1E0CD1141337834202834323078313138396D6D29421254D3D7D04CDE0D11141337836202834323078313738336D6D29421254D3D7D04CDE0D91141337835202834323078313438366D6D29421254D3D7D04CDE0D50E4132202834323
310
0783539346D6D29419254D3D7D04C910413378332028343230783839316D6D29421254D3D7D04CDE0CD0E41342028323937783231306D6D29419254D3D7D04D1124130783220283131383978313638326D6D29421254D3D7D04C1E0C9124130783320283131383978323532336D6D29421254D3D7D04C1E0CD114131783420
310
2838343178323337386D6D29421254D3D7D04C5E0D11141317833202838343178313738336D6D29421254D3D7D04C5E0CD02431254D3C82557247A25E4C81050A49534F5F5449544C4541431254D3C82557247A25E4C81090A49534F5F5449544C45424110E979A97F0838A835883675F42525F44D254D3D7D09497D4995D9
310
A5CDA5BDB9B1A5CDD10E979A97F0838A835883675F54525F44D254D3D7D51497D4995D9A5CDA5BDB9B1A5CDD10E979A97F0838A835883675F424C5F44D254D3D7D09317D4995D9A5CDA5BDB9B1A5CDD10E979A97F0838A835883675F544C5F44D254D3D7D51317D4995D9A5CDA5BDB9B1A5CDD00
  0
ACAD_PROXY_OBJECT
  5
1E0E9
330
1E0E8
100
AcDbProxyObject
 90
      499
 91
      527
 95
       25
 70
     0
 93
       86
310
5DEA0C80A0280A0280A034
  0
ACAD_PROXY_OBJECT
  5
1E0EA
330
1E0E8
100
AcDbProxyObject
 90
      499
 91
      528
 95
       25
 70
     0
 93
      282
310
5DD0E4050140501405014050140501405014050141101405014041000000000000001000
340
187
 94
        0
  0
ACAD_PROXY_OBJECT
  5
1E0EB
330
1E0E8
100
AcDbProxyObject
 90
      499
 91
      529
 95
       25
 70
     0
 93
      323
310
5DCC199999999999E99F91740501405014050140501405014050140501405014050140501405014040
340
0
 94
        0
  0
ACAD_PROXY_OBJECT
  5
1E0EC
330
1E0E8
100
AcDbProxyObject
 90
      499
 91
      530
 95
       25
 70
     0
 93
       10
310
5DC0
  0
ACAD_PROXY_OBJECT
  5
1E0ED
330
1E0E8
100
AcDbProxyObject
 90
      499
 91
      531
 95
       25
 70
     0
 93
      257
310
5DE0C16A22A7D90F49F80000000000001081400000000000004204010000618000
340
188
340
189
 94
        0
  0
ACAD_PROXY_OBJECT
  5
1E0EE
330
1E0E8
100
AcDbProxyObject
 90
      499
 91
      532
 95
       25
 70
     0
 93
     5277
310
5DD06411255115350141236025B6901405014069010000000000000910240690120281A8AA2CA0282484A4BE52028120280A032020000000000001220480D202405044E414D454050496BC914F4051C40640A80000000000004E4090193C3D3C4946284953424C414E4B28504152543A4E414D45292C424C4F434B3A4E414D
310
452C504152543A4E414D45293E3C41435F44455343524950544E3E40480A109A82A88AA492829880A091BBD2F7E80A3A80C81D0E27A15AF46E08A81203480901411393D5115014124A363B7D0147501904A0000000000000F902406428F4F1050D7D393D5114F901202832B22A72227A92028366EF6EE06F582028EA0320B4
310
0000000000001F20480C879E9E20A1AFAB27222FA620A122A61F20240506445020000000000000490201C00030C00010180000000000003E400000000000000F901073D3C4954454D3E4050180000000000003E400000000000000F901073D3C4954454D3E40501800000000000034400000000000000D101073D3C4954454
310
D3E40501800000000000034400000000000000D101073D3C4954454D3E405029010000000000000F9000000000000003E4041CF4F125511534F901418F4F1455164F9014060000000000000F9000000000000003E4041CF4F125511534F901800000000000034400000000000000D101073D3C4954454D3E40640400000000
310
0000003E400000000000000F90288800000000000020810000001800120881A068120480A032208521122080D21480D211480A1485214852050000000000003C2FC000000000000F0BF40600800030C0200400030C00CDCCCCCCCCCCEC3F3373333333333B0FC3333333333330940C80D069014090341504901A1999999999
310
9984A040100006180400800061804010000618008098A02808
340
0
340
0
 94
        0
  0
ACAD_PROXY_OBJECT
  5
1E0EF
330
1E0E8
100
AcDbProxyObject
 90
      499
 91
      561
 95
       25
 70
     0
 93
     3042
310
5DD9740D29254D064A49535F413342929254D7D512551311505134A49535F42525F5265766973696F6E6C6973744190F4134522028323937783231306D6D2941D29254D7D04D1490E41312028353934783834316D6D2941929254D7D04C50E41332028323937783432306D6D2941929254D7D04CD0F41344C2028323130783
310
239376D6D2941D29254D7D04D1310E41322028343230783539346D6D2941929254D7D04C90F4130202838343178313138396D6D2941929254D7D04C10243129254C82557247A25E4C81050A4A49535F5449544C454143129254C82557247A25E4C81090A4A49535F5449544C45424110E979A97F0838A835883675F42525F4
310
4D29254D7D09497D4995D9A5CDA5BDB9B1A5CDD10E979A97F0838A835883675F54525F44D29254D7D51497D4995D9A5CDA5BDB9B1A5CDD10E979A97F0838A835883675F424C5F44D29254D7D09317D4995D9A5CDA5BDB9B1A5CDD10E979A97F0838A835883675F544C5F44D29254D7D51317D4995D9A5CDA5BDB9B1A5CDD00
  0
ACAD_PROXY_OBJECT
  5
1E0F0
330
1E0E8
100
AcDbProxyObject
 90
      499
 91
      562
 95
       25
 70
     0
 93
      898
310
5DC4000000000000124048CF4F11115510525317D3105091530F880A0F11115510525317D05094D4D0D053114F8A50241C9A9999999999B93F26A666666666724FC000000000000E03F400000000000000400000000000000510000000000000024408070000C300000000000000049000
340
16
340
180
 94
        0
  0
ACAD_PROXY_OBJECT
  5
1E0F1
330
1E0E8
100
AcDbProxyObject
 90
      499
 91
      563
 95
       25
 70
     0
 93
      823
310
5DC0B00000000000002480959E9E29A2A1AA24A7A72FA620A122A62FA324A929AA1F169E29A2A1AA24A7A72FA620A122A62FA620A9AA1F000000000000048803FFFE01C00030C008140380006180000000000000048800000000000000A2000000000000002480
340
652
340
180
 94
        0
  0
ACAD_PROXY_OBJECT
  5
1E0F2
330
1E0E8
100
AcDbProxyObject
 90
      499
 91
      564
 95
       25
 70
     0
 93
      152
310
5DE8273108AC1C5A0640A3D0A5723F0BD1F200
  0
ACAD_PROXY_OBJECT
  5
1E0F3
330
1E0E8
100
AcDbProxyObject
 90
      499
 91
      565
 95
       25
 70
     0
 93
       14
310
5DE0
340
0
 94
        0
  0
ACAD_PROXY_OBJECT
  5
1E0F4
330
1E0E8
100
AcDbProxyObject
 90
      499
 91
      566
 95
       25
 70
     0
 93
     6059
310
5DD084050BA4050AA405024050E836583938376838C815B83672031405983D3C486F6C653A6469613E3C696628657175616C28486F6C653A7465726D696E6174696F6E2C223022292C2220905B82B320222C22208368838A838B22293E3C696628657175616C28486F6C653A7465726D696E6174696F6E2C223022292C486F
310
6C653A64657074682C2222293E2C203C486F6C653A63746469613E2082B482AE82E882CC905B82B3203C486F6C653A637464657074683E406901405034050E836583938376838C815B83672031405EF3D3C486F6C653A6374616E676C653E252564202525633C486F6C653A63746469613E208E4D8C8A2C203C69662865717
310
5616C28486F6C653A7461707065642C223022292C22252563222C486F6C653A6E6F6D696E616C202220782022293E3C696628657175616C28486F6C653A7461707065642C223022292C486F6C653A6469612C486F6C653A706974636864657363293E203C696628657175616C28486F6C653A7465726D696E6174696F6E2C2
310
23022292C22905B82B320222C222022293E3C696628657175616C28486F6C653A7465726D696E6174696F6E2C223022292C486F6C653A64657074682C2222293E406901405014050E836583938376838C815B83672031405C73D3C696628657175616C28486F6C653A7461707065642C223022292C22252563222C486F6C65
310
3A6E6F6D696E616C202220782022293E3C696628657175616C28486F6C653A7461707065642C223022292C486F6C653A6469612C486F6C653A706974636864657363293E203C696628657175616C28486F6C653A7465726D696E6174696F6E2C223022292C22905B82B320222C222022293E3C696628657175616C28486F6C
310
653A7465726D696E6174696F6E2C223022292C486F6C653A64657074682C2222293E4069014051E4090E836583938376838C815B83672032405173D3C535444503A444553433E203C535444503A5354443E40690E836583938376838C815B836720314050C3D3C535444503A444553433E40690240515AAABBA120
360
1E0F5
330
1E0F5
360
1E0F6
330
1E0F6
360
1E0F7
330
1E0F7
360
1E0F8
360
1E0F9
330
1E0F8
330
1E0F9
 94
        0
  0
ACAD_PROXY_OBJECT
  5
1E0FA
330
1E0E8
100
AcDbProxyObject
 90
      499
 91
      568
 95
       25
 70
     0
 93
       26
310
5DD02A80
340
0
 94
        0
  0
ACAD_PROXY_OBJECT
  5
1E0FB
330
1E0E8
100
AcDbProxyObject
 90
      499
 91
      569
 95
       25
 70
     0
 93
      250
310
5DD020000000000000A1000000000000002440408F0F9023C3E409A0DCFFFF80
340
58
340
1B97
340
1B98
340
5F
340
60
340
61
340
62
340
63
340
68
340
0
 94
        0
  0
ACAD_PROXY_OBJECT
  5
1E0FC
330
1E0E8
100
AcDbProxyObject
 90
      499
 91
      570
 95
       25
 70
     0
 93
    13889
310
5DD1D003FFFFFFFD030300030CCCCCCCCCCCC250200800030C01030300030CCCCCCCCCCCC250200800030C00050C8DC0955782CC838A83588367014ED1D15395149050D3CB1294138B0C0B23702555E0B320E2A0D620D9CB11D15395149055160B095CCB0A11D1539354D1C819D95B991A5B5E880CCC0A78000C0000000000
310
00000000000000000000010CCCCCCCCCCCC250200800030C010CCCCCCCCCCCC250200800030C020143CF4F111959985D5B1D151A5D1B194F8050A8C8A8365815B8375838B014E51D15395149050D3CB1294138B0C0B2322A0D96056E0DD60E2CB11D15395149055160B095CCB0A11D1539354D1C819D95B991A5B5E880CCC4
310
A78000C000000000000000000000000000000010CCCCCCCCCCCC250200800030C010CCCCCCCCCCCC250200800030C020143CF4F111959985D5B1D151A5D1B194F90D44111409034110541D0C4350F4050E44D03449074510F000141232D24D7C053247454E545241434F2C4A504E2C302C8CB4935F2C47454E54524154582C
310
25732C2847454E4D53472067656E64696D7A20312900010104002214000281464500A608E8A9CA8A482869E5894A09C5860591914588E8A9CA8A482A8B0584AE658508E8A9C9AA68E40CECADCC8D2DAF4406452029E9E9E27B934B3B4B71F1E24A31427A91424A9A12620A7259427B934B3B4B7149624A9A12620A7259424B
310
A32B6949496111116111711149F1E24BA32B69F00808200111A000140560052F47454E545241434F2C4A504E2C302C582C47454E54524154582C25732C2847454E4D53472067656E64696D7A20332900010100002054000280AC80A5E8E8A9CA8A482869E5894A09C586058B2588E8A9CA8A482A8B0584AE658508E8A9C9AA
310
68E40CECADCC8D2DAF4406852000202000040E800050152014BD1D15395149050D3CB1294138B0C0B148B11D15395149055160B095CCB0A11D1539354D1C819D95B991A5B5E880D8A400040400008250000A0507A6029823A2A72A2920A1A79625282716181641E99623A2A72A2920AA2C1612B9961423A2A726A9A39033B2
310
B73234B6BD101B948000808180105A000140A0F4C053047454E545241434F2C4A504E2C302C83D32C47454E54524154582C25732C2847454E4D53472067656E64696D7A203829000101010020F400028248704B5F00A668E8A9CA8A482869E5894A09C58605921C12D7C588E8A9CA8A482A8B0584AE658508E8A9C9AA68E40
310
CECADCC8D2DAF440646052000200080043280005048B4B8A69014CD1D15395149050D3CB1294138B0C0B22D2E29A4B11D15395149055160B095CCB0A11D1539354D1C819D95B991A5B5E880C8C4A4000400100086D0000A09196926BE029923A2A72A2920A1A796252827161816465A49AF9623A2A72A2920AA2C1612B9961
310
423A2A726A9A39033B2B73234B6BD10189480A02620202080043E80005048D8096DA014CD1D15395149050D3CB1294138B0C0B236025B68B11D15395149055160B095CCB0A11D1539354D1C819D95B991A5B5E880C4D0A4000404140280D0000A190687072706CD06C5069D06B0029DA3A2A72A2920A1A7962528271618164
310
1A1C1C9C1B341B141A741AC1623A2A72A2920AA2C1612B9961423A2A726A9A39033B2B73234B6BD10189A94800080820050EA000143A322A0D0E0E4E0D9A0D8A0D3A0D60053D47454E545241434F2C4A504E2C302C8C8A8343839383668362834E83582C47454E54524154582C25732C2847454E4D53472067656E64696D7A
310
2031372900010105002274000281464500A628E8A9CA8A482869E5894A09C5860591914588E8A9CA8A482A8B0584AE658508E8A9C9AA68E40CECADCC8D2DAF440626C52000202080044A8000504909497CA014CD1D15395149050D3CB1294138B0C0B242525F28B11D15395149055160B095CCB0A11D1539354D1C819D95B9
310
91A5B5E880C4E4A400040418008A521E000000000000001CA040C00000000000034408080000000000006881010000000000000D102040000000000001A204080000000000003440818000000000000728103000000000000125020600000000004028A040000000000000034408000000000000004881000000000000000D
310
102000000000000001A204000000000000003440818000000000000508143C0000000000000039408180000000000006881030000000000000D102060000000000001A2040C00000000000034408180000000000006881030000000000000E5020600000000000024A040C0000000000805140800000000000000688100000
310
00000000009102000000000000001A2040000000000000034408180000000000006881030000000000000A10284220000000878000002020000008380000020400000081800000208000000828000002028900000000
340
0
340
0
340
0
340
0
340
180
340
180
 94
        0
  0
ACAD_PROXY_OBJECT
  5
1E971
330
1E970
100
AcDbProxyObject
 90
      499
 91
      567
 95
       25
 70
     0
 93
     2256
310
5DE0143A0D960E4E0DDA0E32056E0D9C80C40405013D3C696628657175616C28486F6C653A7461707065642C223022292C22252563222C486F6C653A6E6F6D696E616C2022202220696628657175616C28486F6C653A756E6974732C223122292C2278222C222D222920222022293E3C696628657175616C28486F6C653A74
310
61707065642C223022292C486F6C653A6469612C486F6C653A706974636864657363293E207B5C46414D4744543B787D203C696628657175616C28486F6C653A7465726D696E6174696F6E2C223022292C486F6C653A64657074682C228AD192CA22293E5C507B5C46414D4744543B767D2525633C486F6C653A6374646961
310
3E207B5C46414D4744543B787D203C486F6C653A637464657074683E
  0
ACAD_PROXY_OBJECT
  5
1E972
330
1E970
100
AcDbProxyObject
 90
      499
 91
      567
 95
       25
 70
     0
 93
     2192
310
5DE0143A0D960E4E0DDA0E32056E0D9C80C405FE3D3C696628657175616C28486F6C653A7461707065642C223022292C22252563222C486F6C653A6E6F6D696E616C2022202220696628657175616C28486F6C653A756E6974732C223122292C2278222C222D222920222022293E3C696628657175616C28486F6C653A7461
310
707065642C223022292C486F6C653A6469612C486F6C653A706974636864657363293E207B5C46414D4744543B787D203C696628657175616C28486F6C653A7465726D696E6174696F6E2C223022292C486F6C653A64657074682C228AD192CA22293E5C507B5C46414D4744543B777D2525633C486F6C653A63746469613E
310
2058203C486F6C653A6374616E676C653E252564
  0
ACAD_PROXY_OBJECT
  5
1E973
330
1E970
100
AcDbProxyObject
 90
      499
 91
      567
 95
       25
 70
     0
 93
     1816
310
5DE0143A0D960E4E0DDA0E32056E0D9C80C405CF3D3C696628657175616C28486F6C653A7461707065642C223022292C22252563222C486F6C653A6E6F6D696E616C2022202220696628657175616C28486F6C653A756E6974732C223122292C2278222C222D222920222022293E3C696628657175616C28486F6C653A7461
310
707065642C223022292C486F6C653A6469612C486F6C653A706974636864657363293E5C507B5C46414D4744543B787D203C696628657175616C28486F6C653A7465726D696E6174696F6E2C223022292C486F6C653A64657074682C228AD192CA22293E
  0
ACAD_PROXY_OBJECT
  5
1E974
330
1E970
100
AcDbProxyObject
 90
      499
 91
      567
 95
       25
 70
     0
 93
      344
310
5DE0143A0D960E4E0DDA0E32056E0D9C80C805173D3C535444503A444553433E203C535444503A5354443E
  0
ACAD_PROXY_OBJECT
  5
1E975
330
1E970
100
AcDbProxyObject
 90
      499
 91
      567
 95
       25
 70
     0
 93
      256
310
5DE0143A0D960E4E0DDA0E32056E0D9C80C4050C3D3C535444503A444553433E
  0
ACAD_PROXY_OBJECT
  5
1D6B7
330
1D6B3
100
AcDbProxyObject
 90
      499
 91
      567
 95
       25
 70
     0
 93
     2680
310
5DE0143A0D960E4E0DDA0E32056E0D9C80C4043A013D2525633C486F6C653A63746469613E2078203C486F6C653A637464657074683E20555C503C696628657175616C28486F6C653A7461707065642C223022292C22252563222C486F6C653A6E6F6D696E616C202220782022293E3C696628657175616C28486F6C653A74
310
61707065642C223022292C486F6C653A6469612C486F6C653A706974636864657363293E3C696628657175616C28486F6C653A7461707065642C223122292C22207820222C2222293E3C696628657175616C28486F6C653A7461707065642C223122292C486F6C653A74617064657074682C2222293E203C69662865717561
310
6C28486F6C653A7465726D696E6174696F6E2C223022292C22202F20222C2222293E3C696628657175616C28486F6C653A7465726D696E6174696F6E2C223022292C486F6C653A64657074682C2222293E
  0
ACAD_PROXY_OBJECT
  5
1D6B8
330
1D6B3
100
AcDbProxyObject
 90
      499
 91
      567
 95
       25
 70
     0
 93
     2688
310
5DE0143A0D960E4E0DDA0E32056E0D9C80C4043B013D2525633C486F6C653A63746469613E2078203C486F6C653A6374616E676C653E2525645C503C696628657175616C28486F6C653A7461707065642C223022292C22252563222C486F6C653A6E6F6D696E616C202220782022293E3C696628657175616C28486F6C653A
310
7461707065642C223022292C486F6C653A6469612C486F6C653A706974636864657363293E3C696628657175616C28486F6C653A7461707065642C223122292C22207820222C2222293E3C696628657175616C28486F6C653A7461707065642C223122292C486F6C653A74617064657074682C2222293E203C696628657175
310
616C28486F6C653A7465726D696E6174696F6E2C223022292C22202F20222C2222293E3C696628657175616C28486F6C653A7465726D696E6174696F6E2C223022292C486F6C653A64657074682C2222293E
  0
ACAD_PROXY_OBJECT
  5
1D6B6
330
1D6B3
100
AcDbProxyObject
 90
      499
 91
      567
 95
       25
 70
     0
 93
     2392
310
5DE0143A0D960E4E0DDA0E32056E0D9C80C40416013D3C696628657175616C28486F6C653A7461707065642C223022292C22252563222C486F6C653A6E6F6D696E616C202220782022293E3C696628657175616C28486F6C653A7461707065642C223022292C486F6C653A6469612C486F6C653A706974636864657363293E
310
3C696628657175616C28486F6C653A7461707065642C223122292C22207820222C2222293E3C696628657175616C28486F6C653A7461707065642C223122292C486F6C653A74617064657074682C2222293E203C696628657175616C28486F6C653A7465726D696E6174696F6E2C223022292C22202F20222C2222293E3C69
310
6628657175616C28486F6C653A7465726D696E6174696F6E2C223022292C486F6C653A64657074682C2222293E
  0
ACAD_PROXY_OBJECT
  5
1D6B5
330
1D6B3
100
AcDbProxyObject
 90
      499
 91
      567
 95
       25
 70
     0
 93
      344
310
5DE0143A0D960E4E0DDA0E32056E0D9C80C805173D3C535444503A444553433E203C535444503A5354443E
  0
ACAD_PROXY_OBJECT
  5
1D6B4
330
1D6B3
100
AcDbProxyObject
 90
      499
 91
      567
 95
       25
 70
     0
 93
      256
310
5DE0143A0D960E4E0DDA0E32056E0D9C80C4050C3D3C535444503A444553433E
  0
ACAD_PROXY_OBJECT
  5
1E0F5
330
1E0F4
100
AcDbProxyObject
 90
      499
 91
      567
 95
       25
 70
     0
 93
     1376
310
5DE0143A0D960E4E0DDA0E32056E0D9C80C405983D3C486F6C653A6469613E3C696628657175616C28486F6C653A7465726D696E6174696F6E2C223022292C2220905B82B320222C22208368838A838B22293E3C696628657175616C28486F6C653A7465726D696E6174696F6E2C223022292C486F6C653A64657074682C22
310
22293E2C203C486F6C653A63746469613E2082B482AE82E882CC905B82B3203C486F6C653A637464657074683E
  0
ACAD_PROXY_OBJECT
  5
1E0F6
330
1E0F4
100
AcDbProxyObject
 90
      499
 91
      567
 95
       25
 70
     0
 93
     2072
310
5DE0143A0D960E4E0DDA0E32056E0D9C80C405EF3D3C486F6C653A6374616E676C653E252564202525633C486F6C653A63746469613E208E4D8C8A2C203C696628657175616C28486F6C653A7461707065642C223022292C22252563222C486F6C653A6E6F6D696E616C202220782022293E3C696628657175616C28486F6C
310
653A7461707065642C223022292C486F6C653A6469612C486F6C653A706974636864657363293E203C696628657175616C28486F6C653A7465726D696E6174696F6E2C223022292C22905B82B320222C222022293E3C696628657175616C28486F6C653A7465726D696E6174696F6E2C223022292C486F6C653A6465707468
310
2C2222293E
  0
ACAD_PROXY_OBJECT
  5
1E0F7
330
1E0F4
100
AcDbProxyObject
 90
      499
 91
      567
 95
       25
 70
     0
 93
     1752
310
5DE0143A0D960E4E0DDA0E32056E0D9C80C405C73D3C696628657175616C28486F6C653A7461707065642C223022292C22252563222C486F6C653A6E6F6D696E616C202220782022293E3C696628657175616C28486F6C653A7461707065642C223022292C486F6C653A6469612C486F6C653A706974636864657363293E20
310
3C696628657175616C28486F6C653A7465726D696E6174696F6E2C223022292C22905B82B320222C222022293E3C696628657175616C28486F6C653A7465726D696E6174696F6E2C223022292C486F6C653A64657074682C2222293E
  0
ACAD_PROXY_OBJECT
  5
1E0F8
330
1E0F4
100
AcDbProxyObject
 90
      499
 91
      567
 95
       25
 70
     0
 93
      344
310
5DE0143A0D960E4E0DDA0E32056E0D9C80C805173D3C535444503A444553433E203C535444503A5354443E
  0
ACAD_PROXY_OBJECT
  5
1E0F9
330
1E0F4
100
AcDbProxyObject
 90
      499
 91
      567
 95
       25
 70
     0
 93
      256
310
5DE0143A0D960E4E0DDA0E32056E0D9C80C4050C3D3C535444503A444553433E
  0
ENDSEC
  0
EOF
