  0
SECTION
  2
HEADER
  9
$ACADVER
  1
AC1014
  9
$ACADMAINTVER
 70
     0
  9
$DWGCODEPAGE
  3
ANSI_932
  9
$INSBASE
 10
-587.250952
 20
747.890188
 30
0.0
  9
$EXTMIN
 10
-18.686237
 20
150.213866
 30
0.0
  9
$EXTMAX
 10
302.653552
 20
292.425452
 30
0.0
  9
$LIMMIN
 10
-587.250952
 20
327.890188
  9
$LIMMAX
 10
600.749048
 20
957.890188
  9
$ORTHOMODE
 70
     1
  9
$REGENMODE
 70
     1
  9
$FILLMODE
 70
     1
  9
$QTEXTMODE
 70
     0
  9
$MIRRTEXT
 70
     1
  9
$DRAGMODE
 70
     2
  9
$LTSCALE
 40
5.0
  9
$OSMODE
 70
    37
  9
$ATTMODE
 70
     1
  9
$TEXTSIZE
 40
5.0
  9
$TRACEWID
 40
0.05
  9
$TEXTSTYLE
  7
STANDARD
  9
$CLAYER
  8
外形
  9
$CELTYPE
  6
CONTINUOUS
  9
$CECOLOR
 62
   256
  9
$CELTSCALE
 40
1.0
  9
$DELOBJ
 70
     1
  9
$DISPSILH
 70
     0
  9
$DIMSCALE
 40
1.0
  9
$DIMASZ
 40
1.0
  9
$DIMEXO
 40
1.0
  9
$DIMDLI
 40
8.0
  9
$DIMRND
 40
0.0
  9
$DIMDLE
 40
0.0
  9
$DIMEXE
 40
2.0
  9
$DIMTP
 40
0.0
  9
$DIMTM
 40
0.0
  9
$DIMTXT
 40
1.5
  9
$DIMCEN
 40
-1.0
  9
$DIMTSZ
 40
0.0
  9
$DIMTOL
 70
     0
  9
$DIMLIM
 70
     0
  9
$DIMTIH
 70
     0
  9
$DIMTOH
 70
     0
  9
$DIMSE1
 70
     0
  9
$DIMSE2
 70
     0
  9
$DIMTAD
 70
     1
  9
$DIMZIN
 70
     8
  9
$DIMBLK
  1

  9
$DIMASO
 70
     1
  9
$DIMSHO
 70
     1
  9
$DIMPOST
  1

  9
$DIMAPOST
  1

  9
$DIMALT
 70
     0
  9
$DIMALTD
 70
     2
  9
$DIMALTF
 40
25.4
  9
$DIMLFAC
 40
1.0
  9
$DIMTOFL
 70
     1
  9
$DIMTVP
 40
0.0
  9
$DIMTIX
 70
     0
  9
$DIMSOXD
 70
     0
  9
$DIMSAH
 70
     1
  9
$DIMBLK1
  1
_DOTSMALL
  9
$DIMBLK2
  1
_DOTSMALL
  9
$DIMSTYLE
  2
STANDARD
  9
$DIMCLRD
 70
     2
  9
$DIMCLRE
 70
     2
  9
$DIMCLRT
 70
     2
  9
$DIMTFAC
 40
1.0
  9
$DIMGAP
 40
1.0
  9
$DIMJUST
 70
     0
  9
$DIMSD1
 70
     0
  9
$DIMSD2
 70
     0
  9
$DIMTOLJ
 70
     1
  9
$DIMTZIN
 70
     8
  9
$DIMALTZ
 70
     0
  9
$DIMALTTZ
 70
     0
  9
$DIMFIT
 70
     3
  9
$DIMUPT
 70
     0
  9
$DIMUNIT
 70
     2
  9
$DIMDEC
 70
     3
  9
$DIMTDEC
 70
     2
  9
$DIMALTU
 70
     2
  9
$DIMALTTD
 70
     2
  9
$DIMTXSTY
  7
STANDARD
  9
$DIMAUNIT
 70
     0
  9
$LUNITS
 70
     2
  9
$LUPREC
 70
     0
  9
$SKETCHINC
 40
0.1
  9
$FILLETRAD
 40
0.0
  9
$AUNITS
 70
     0
  9
$AUPREC
 70
     0
  9
$MENU
  1
acad
  9
$ELEVATION
 40
0.0
  9
$PELEVATION
 40
0.0
  9
$THICKNESS
 40
0.0
  9
$LIMCHECK
 70
     0
  9
$BLIPMODE
 70
     0
  9
$CHAMFERA
 40
1.5
  9
$CHAMFERB
 40
1.5
  9
$CHAMFERC
 40
0.0
  9
$CHAMFERD
 40
0.0
  9
$SKPOLY
 70
     0
  9
$TDCREATE
 40
2450751.535399305
  9
$TDUPDATE
 40
2452009.704201389
  9
$TDINDWG
 40
2.3561862269
  9
$TDUSRTIMER
 40
2.3561862269
  9
$USRTIMER
 70
     1
  9
$ANGBASE
 50
0.0
  9
$ANGDIR
 70
     0
  9
$PDMODE
 70
    32
  9
$PDSIZE
 40
0.0
  9
$PLINEWID
 40
0.0
  9
$COORDS
 70
     2
  9
$SPLFRAME
 70
     0
  9
$SPLINETYPE
 70
     5
  9
$SPLINESEGS
 70
     8
  9
$ATTDIA
 70
     0
  9
$ATTREQ
 70
     1
  9
$HANDLING
 70
     1
  9
$HANDSEED
  5
3D55
  9
$SURFTAB1
 70
     6
  9
$SURFTAB2
 70
     6
  9
$SURFTYPE
 70
     6
  9
$SURFU
 70
     6
  9
$SURFV
 70
     6
  9
$UCSNAME
  2

  9
$UCSORG
 10
40.53800450572526
 20
146.9196145921314
 30
0.0
  9
$UCSXDIR
 10
1.0
 20
0.0
 30
0.0
  9
$UCSYDIR
 10
0.0
 20
1.0
 30
0.0
  9
$PUCSNAME
  2

  9
$PUCSORG
 10
0.0
 20
0.0
 30
0.0
  9
$PUCSXDIR
 10
1.0
 20
0.0
 30
0.0
  9
$PUCSYDIR
 10
0.0
 20
1.0
 30
0.0
  9
$USERI1
 70
     0
  9
$USERI2
 70
     0
  9
$USERI3
 70
     0
  9
$USERI4
 70
     0
  9
$USERI5
 70
     0
  9
$USERR1
 40
0.0
  9
$USERR2
 40
0.0
  9
$USERR3
 40
0.0
  9
$USERR4
 40
0.0
  9
$USERR5
 40
0.0
  9
$WORLDVIEW
 70
     1
  9
$SHADEDGE
 70
     3
  9
$SHADEDIF
 70
    70
  9
$TILEMODE
 70
     1
  9
$MAXACTVP
 70
    16
  9
$PINSBASE
 10
0.0
 20
0.0
 30
0.0
  9
$PLIMCHECK
 70
     0
  9
$PEXTMIN
 10
1.000000E+20
 20
1.000000E+20
 30
1.000000E+20
  9
$PEXTMAX
 10
-1.000000E+20
 20
-1.000000E+20
 30
-1.000000E+20
  9
$PLIMMIN
 10
0.0
 20
0.0
  9
$PLIMMAX
 10
12.0
 20
9.0
  9
$UNITMODE
 70
     0
  9
$VISRETAIN
 70
     0
  9
$PLINEGEN
 70
     0
  9
$PSLTSCALE
 70
     1
  9
$TREEDEPTH
 70
  3020
  9
$PICKSTYLE
 70
     1
  9
$CMLSTYLE
  2
STANDARD
  9
$CMLJUST
 70
     0
  9
$CMLSCALE
 40
1.0
  9
$PROXYGRAPHICS
 70
     1
  9
$MEASUREMENT
 70
     0
  0
ENDSEC
  0
SECTION
  2
CLASSES
  0
CLASS
  1
LWPOLYLINE
  2
AcDbPolyline
  3
"AutoCAD"
 90
        0
280
     0
281
     1
  0
CLASS
  1
ACDBDICTIONARYWDFLT
  2
AcDbDictionaryWithDefault
  3
AutoCAD 2000
 90
        0
280
     1
281
     0
  0
CLASS
  1
ACDBPLACEHOLDER
  2
AcDbPlaceHolder
  3
AutoCAD 2000
 90
        0
280
     1
281
     0
  0
CLASS
  1
LAYOUT
  2
AcDbLayout
  3
AutoCAD 2000
 90
        0
280
     1
281
     0
  0
CLASS
  1
LONG_TRANSACTION
  2
AcDbLongTransaction
  3
AutoCAD 2000
 90
        0
280
     1
281
     0
  0
CLASS
  1
LWPOLYLINE
  2
AcDbPolyline
  3
"AutoCAD"
 90
        0
280
     0
281
     1
  0
CLASS
  1
HATCH
  2
AcDbHatch
  3
"ACAD_SEDONA"
 90
        0
280
     0
281
     1
  0
CLASS
  1
XRECORD
  2
AcDbXrecord
  3
"<Built In>"
 90
        0
280
     0
281
     0
  0
CLASS
  1
DICTIONARYVAR
  2
AcDbDictionaryVar
  3
"AutoCAD"
 90
        0
280
     0
281
     0
  0
ENDSEC
  0
SECTION
  2
TABLES
  0
TABLE
  2
VPORT
  5
16
100
AcDbSymbolTable
 70
     1
  0
VPORT
  5
3D50
100
AcDbSymbolTableRecord
100
AcDbViewportTableRecord
  2
*ACTIVE
 70
     0
 10
0.0
 20
0.0
 11
1.0
 21
1.0
 12
137.879277
 22
227.853311
 13
0.0
 23
0.0
 14
1.0
 24
1.0
 15
10.0
 25
10.0
 16
0.0
 26
0.0
 36
1.0
 17
0.0
 27
0.0
 37
0.0
 40
214.650547
 41
1.710425
 42
50.0
 43
0.0
 44
0.0
 50
0.0
 51
0.0
 71
     0
 72
   100
 73
     1
 74
     1
 75
     0
 76
     0
 77
     0
 78
     2
  0
ENDTAB
  0
TABLE
  2
LTYPE
  5
11
100
AcDbSymbolTable
 70
     3
  0
LTYPE
  5
12
100
AcDbSymbolTableRecord
100
AcDbLinetypeTableRecord
  2
BYBLOCK
 70
     0
  3

 72
    65
 73
     0
 40
0.0
  0
LTYPE
  5
13
100
AcDbSymbolTableRecord
100
AcDbLinetypeTableRecord
  2
BYLAYER
 70
     0
  3

 72
    65
 73
     0
 40
0.0
  0
LTYPE
  5
7
100
AcDbSymbolTableRecord
100
AcDbLinetypeTableRecord
  2
CONTINUOUS
 70
     0
  3
Solid line
 72
    65
 73
     0
 40
0.0
  0
LTYPE
  5
AA
100
AcDbSymbolTableRecord
100
AcDbLinetypeTableRecord
  2
CENTER
 70
     0
  3
Center ____ _ ____ _ ____ _ ____ _ ____ _ ____
 72
    65
 73
     4
 40
2.0
 49
1.25
 74
     0
 49
-0.25
 74
     0
 49
0.25
 74
     0
 49
-0.25
 74
     0
  0
LTYPE
  5
1FC7
100
AcDbSymbolTableRecord
100
AcDbLinetypeTableRecord
  2
PHANTOM
 70
     0
  3
Phantom ______  __  __  ______  __  __  ______
 72
    65
 73
     6
 40
2.5
 49
1.25
 74
     0
 49
-0.25
 74
     0
 49
0.25
 74
     0
 49
-0.25
 74
     0
 49
0.25
 74
     0
 49
-0.25
 74
     0
  0
ENDTAB
  0
TABLE
  2
LAYER
  5
E
100
AcDbSymbolTable
 70
     5
  0
LAYER
  5
6
100
AcDbSymbolTableRecord
100
AcDbLayerTableRecord
  2
0
 70
     0
 62
     7
  6
CONTINUOUS
  0
LAYER
  5
2C
100
AcDbSymbolTableRecord
100
AcDbLayerTableRecord
  2
外形
 70
     0
 62
     3
  6
CONTINUOUS
  0
LAYER
  5
37
102
{ACAD_XDICTIONARY
360
38
102
}
100
AcDbSymbolTableRecord
100
AcDbLayerTableRecord
  2
DEFPOINTS
 70
     0
 62
     7
  6
CONTINUOUS
  0
LAYER
  5
1F
100
AcDbSymbolTableRecord
100
AcDbLayerTableRecord
  2
寸法
 70
     0
 62
     1
  6
CONTINUOUS
  0
LAYER
  5
673
100
AcDbSymbolTableRecord
100
AcDbLayerTableRecord
  2
参考
 70
     0
 62
     2
  6
CONTINUOUS
  0
ENDTAB
  0
TABLE
  2
STYLE
  5
F
100
AcDbSymbolTable
 70
     1
  0
STYLE
  5
10
100
AcDbSymbolTableRecord
100
AcDbTextStyleTableRecord
  2
STANDARD
 70
     0
 40
0.0
 41
1.0
 50
0.0
 71
     0
 42
5.0
  3
MONOTXT
  4
BIGFONT
  0
ENDTAB
  0
TABLE
  2
VIEW
  5
14
100
AcDbSymbolTable
 70
     1
  0
VIEW
  5
2FE5
100
AcDbSymbolTableRecord
100
AcDbViewTableRecord
  2
1
 70
     0
 40
161.885264
 10
134.258894
 20
211.661111
 41
295.727411
 11
0.0
 21
0.0
 31
1.0
 12
0.0
 22
0.0
 32
0.0
 42
50.0
 43
0.0
 44
0.0
 50
0.0
 71
     0
  0
ENDTAB
  0
TABLE
  2
UCS
  5
15
100
AcDbSymbolTable
 70
     0
  0
ENDTAB
  0
TABLE
  2
APPID
  5
18
100
AcDbSymbolTable
 70
     2
  0
APPID
  5
19
100
AcDbSymbolTableRecord
100
AcDbRegAppTableRecord
  2
ACAD
 70
     0
  0
APPID
  5
C59
100
AcDbSymbolTableRecord
100
AcDbRegAppTableRecord
  2
DRAWINGVARIABLESXDATA
 70
     0
  0
ENDTAB
  0
TABLE
  2
DIMSTYLE
  5
1A
100
AcDbSymbolTable
 70
     1
  0
DIMSTYLE
105
21
102
{ACAD_XDICTIONARY
360
22
102
}
102
{ACAD_REACTORS
330
3B4E
330
3B68
330
3B73
330
3B80
330
3B8F
330
3B9C
330
3C4A
330
3C95
330
3D35
102
}
100
AcDbSymbolTableRecord
100
AcDbDimStyleTableRecord
  2
STANDARD
 70
     0
  3

  4

  5

  6
_OPEN30
  7
_OPEN30
 40
0.0
 41
2.0
 42
1.0
 43
8.0
 44
2.0
 45
0.0
 46
0.0
 47
0.0
 48
0.0
140
3.0
141
-1.0
142
0.0
143
25.4
144
1.0
145
0.0
146
1.0
147
1.0
 71
     0
 72
     0
 73
     0
 74
     0
 75
     0
 76
     0
 77
     1
 78
     8
170
     0
171
     2
172
     1
173
     1
174
     0
175
     0
176
     1
177
     1
178
     3
270
     2
271
     2
272
     2
273
     2
274
     2
340
10
275
     0
280
     0
281
     0
282
     0
283
     1
284
     8
285
     0
286
     0
287
     3
288
     0
  0
ENDTAB
  0
TABLE
  2
BLOCK_RECORD
  5
1
100
AcDbSymbolTable
 70
    15
  0
BLOCK_RECORD
  5
2
102
{ACAD_XDICTIONARY
360
3
102
}
100
AcDbSymbolTableRecord
100
AcDbBlockTableRecord
  2
*MODEL_SPACE
  0
BLOCK_RECORD
  5
9
102
{ACAD_XDICTIONARY
360
A
102
}
100
AcDbSymbolTableRecord
100
AcDbBlockTableRecord
  2
*PAPER_SPACE
  0
BLOCK_RECORD
  5
24
100
AcDbSymbolTableRecord
100
AcDbBlockTableRecord
  2
_DOTSMALL
  0
BLOCK_RECORD
  5
470
100
AcDbSymbolTableRecord
100
AcDbBlockTableRecord
  2
_OPEN30
  0
BLOCK_RECORD
  5
3B3E
100
AcDbSymbolTableRecord
100
AcDbBlockTableRecord
  2
*D2
  0
BLOCK_RECORD
  5
3B5C
100
AcDbSymbolTableRecord
100
AcDbBlockTableRecord
  2
*D3
  0
BLOCK_RECORD
  5
3B69
100
AcDbSymbolTableRecord
100
AcDbBlockTableRecord
  2
*D4
  0
BLOCK_RECORD
  5
3B74
100
AcDbSymbolTableRecord
100
AcDbBlockTableRecord
  2
*D5
  0
BLOCK_RECORD
  5
3B81
100
AcDbSymbolTableRecord
100
AcDbBlockTableRecord
  2
*D6
  0
BLOCK_RECORD
  5
3B90
100
AcDbSymbolTableRecord
100
AcDbBlockTableRecord
  2
*D7
  0
BLOCK_RECORD
  5
3C3A
100
AcDbSymbolTableRecord
100
AcDbBlockTableRecord
  2
*D12
  0
BLOCK_RECORD
  5
3C8B
100
AcDbSymbolTableRecord
100
AcDbBlockTableRecord
  2
*D13
  0
BLOCK_RECORD
  5
3D29
100
AcDbSymbolTableRecord
100
AcDbBlockTableRecord
  2
*D14
  0
ENDTAB
  0
ENDSEC
  0
SECTION
  2
BLOCKS
  0
BLOCK
  5
5
100
AcDbEntity
  8
0
100
AcDbBlockBegin
  2
*MODEL_SPACE
 70
     0
 10
0.0
 20
0.0
 30
0.0
  3
*MODEL_SPACE
  1

  0
ENDBLK
  5
8
100
AcDbEntity
  8
0
100
AcDbBlockEnd
  0
BLOCK
  5
C
100
AcDbEntity
 67
     1
  8
0
100
AcDbBlockBegin
  2
*PAPER_SPACE
 70
     0
 10
0.0
 20
0.0
 30
0.0
  3
*PAPER_SPACE
  1

  0
ENDBLK
  5
D
100
AcDbEntity
 67
     1
  8
0
100
AcDbBlockEnd
  0
BLOCK
  5
29
100
AcDbEntity
  8
0
100
AcDbBlockBegin
  2
_DOTSMALL
 70
     0
 10
0.0
 20
0.0
 30
0.0
  3
_DOTSMALL
  1

  0
POLYLINE
  5
25
100
AcDbEntity
  8
0
  6
BYBLOCK
 62
     0
100
AcDb2dPolyline
 66
     1
 10
0.0
 20
0.0
 30
0.0
 70
     1
 40
0.5
 41
0.5
  0
VERTEX
  5
26
100
AcDbEntity
  8
0
  6
BYBLOCK
 62
     0
100
AcDbVertex
100
AcDb2dVertex
 10
-0.0625
 20
0.0
 30
0.0
 42
1.0
  0
VERTEX
  5
27
100
AcDbEntity
  8
0
  6
BYBLOCK
 62
     0
100
AcDbVertex
100
AcDb2dVertex
 10
0.0625
 20
0.0
 30
0.0
 42
1.0
  0
SEQEND
  5
28
100
AcDbEntity
  8
0
  6
BYBLOCK
 62
     0
  0
ENDBLK
  5
2A
100
AcDbEntity
  8
0
100
AcDbBlockEnd
  0
BLOCK
  5
471
100
AcDbEntity
  8
0
100
AcDbBlockBegin
  2
_OPEN30
 70
     0
 10
0.0
 20
0.0
 30
0.0
  3
_OPEN30
  1

  0
LINE
  5
472
100
AcDbEntity
  8
0
  6
BYBLOCK
 62
     0
100
AcDbLine
 10
-1.0
 20
0.267949
 30
0.0
 11
0.0
 21
0.0
 31
0.0
  0
LINE
  5
473
100
AcDbEntity
  8
0
  6
BYBLOCK
 62
     0
100
AcDbLine
 10
0.0
 20
0.0
 30
0.0
 11
-1.0
 21
-0.267949
 31
0.0
  0
LINE
  5
474
100
AcDbEntity
  8
0
  6
BYBLOCK
 62
     0
100
AcDbLine
 10
0.0
 20
0.0
 30
0.0
 11
-1.0
 21
0.0
 31
0.0
  0
ENDBLK
  5
475
100
AcDbEntity
  8
0
100
AcDbBlockEnd
  0
BLOCK
  5
3BD7
100
AcDbEntity
  8
0
100
AcDbBlockBegin
  2
*D2
 70
     1
 10
0.0
 20
0.0
 30
0.0
  3
*D2
  1

  0
LINE
  5
3BD8
100
AcDbEntity
  8
0
  6
BYBLOCK
 62
     1
100
AcDbLine
 10
35.178672
 20
196.847632
 30
0.0
 11
17.809583
 21
198.36723
 31
0.0
  0
LINE
  5
3BD9
100
AcDbEntity
  8
0
  6
BYBLOCK
 62
     1
100
AcDbLine
 10
20.557623
 20
196.760476
 30
0.0
 11
17.739431
 21
196.760476
 31
0.0
  0
ARC
  5
3BDA
100
AcDbEntity
  8
0
  6
BYBLOCK
 62
     1
100
AcDbCircle
 10
36.174867
 20
196.760476
 30
0.0
 40
16.435436
100
AcDbArc
 50
161.020903
 51
175.0
  0
LINE
  5
3BDB
100
AcDbEntity
  8
0
  6
BYBLOCK
 62
     1
100
AcDbLine
 10
20.632906
 20
202.105661
 30
0.0
 11
23.429825
 21
210.238142
 31
0.0
  0
ARC
  5
3BDC
100
AcDbEntity
  8
0
  6
BYBLOCK
 62
     1
100
AcDbCircle
 10
36.174867
 20
196.760476
 30
0.0
 40
16.435436
100
AcDbArc
 50
161.046931
 51
168.023466
  0
ARC
  5
3BDD
100
AcDbEntity
  8
0
  6
BYBLOCK
 62
     1
100
AcDbCircle
 10
36.174867
 20
196.760476
 30
0.0
 40
16.435436
100
AcDbArc
 50
186.976534
 51
193.953069
  0
ARC
  5
3BDE
100
AcDbEntity
  8
0
  6
BYBLOCK
 62
     1
100
AcDbCircle
 10
36.174867
 20
196.760476
 30
0.0
 40
16.435436
100
AcDbArc
 50
175.0
 51
180.0
  0
INSERT
  5
3BDF
100
AcDbEntity
  8
0
  6
BYBLOCK
 62
     1
100
AcDbBlockReference
  2
_OPEN30
 10
19.801973
 20
198.192919
 30
0.0
 41
2.0
 42
2.0
 43
2.0
 50
261.511733
  0
INSERT
  5
3BE0
100
AcDbEntity
  8
0
  6
BYBLOCK
 62
     1
100
AcDbBlockReference
  2
_OPEN30
 10
19.739431
 20
196.760476
 30
0.0
 41
2.0
 42
2.0
 43
2.0
 50
93.488267
  0
MTEXT
  5
3BE1
100
AcDbEntity
  8
0
  6
BYBLOCK
 62
     3
100
AcDbMText
 10
19.667272
 20
206.984959
 30
0.0
 40
3.0
 41
0.0
 71
     5
 72
     1
  1
\A1;5°
 11
0.325223
 21
0.945637
 31
0.0
  0
POINT
  5
3BE2
100
AcDbEntity
  8
DEFPOINTS
  6
BYBLOCK
 62
     0
100
AcDbPoint
 10
19.746384
 20
197.238496
 30
0.0
  0
POINT
  5
3BE3
100
AcDbEntity
  8
DEFPOINTS
  6
BYBLOCK
 62
     0
100
AcDbPoint
 10
40.381306
 20
196.39246
 30
0.0
  0
POINT
  5
3BE4
100
AcDbEntity
  8
DEFPOINTS
  6
BYBLOCK
 62
     0
100
AcDbPoint
 10
21.557623
 20
196.760476
 30
0.0
  0
POINT
  5
3BE5
100
AcDbEntity
  8
DEFPOINTS
  6
BYBLOCK
 62
     0
100
AcDbPoint
 10
301.069522
 20
196.760476
 30
0.0
  0
POINT
  5
3BE6
100
AcDbEntity
  8
DEFPOINTS
  6
BYBLOCK
 62
     0
100
AcDbPoint
 10
36.174867
 20
196.760476
 30
0.0
  0
ENDBLK
  5
3BE7
100
AcDbEntity
  8
0
100
AcDbBlockEnd
  0
BLOCK
  5
3BCC
100
AcDbEntity
  8
0
100
AcDbBlockBegin
  2
*D3
 70
     1
 10
0.0
 20
0.0
 30
0.0
  3
*D3
  1

  0
LINE
  5
3BCD
100
AcDbEntity
  8
0
  6
BYBLOCK
 62
     1
100
AcDbLine
 10
162.67145
 20
262.372565
 30
0.0
 11
162.67145
 21
241.167469
 31
0.0
  0
LINE
  5
3BCE
100
AcDbEntity
  8
0
  6
BYBLOCK
 62
     1
100
AcDbLine
 10
180.67145
 20
262.372565
 30
0.0
 11
180.67145
 21
241.167469
 31
0.0
  0
LINE
  5
3BCF
100
AcDbEntity
  8
0
  6
BYBLOCK
 62
     1
100
AcDbLine
 10
164.67145
 20
243.167469
 30
0.0
 11
178.67145
 21
243.167469
 31
0.0
  0
INSERT
  5
3BD0
100
AcDbEntity
  8
0
  6
BYBLOCK
 62
     1
100
AcDbBlockReference
  2
_OPEN30
 10
162.67145
 20
243.167469
 30
0.0
 41
2.0
 42
2.0
 43
2.0
 50
180.0
  0
INSERT
  5
3BD1
100
AcDbEntity
  8
0
  6
BYBLOCK
 62
     1
100
AcDbBlockReference
  2
_OPEN30
 10
180.67145
 20
243.167469
 30
0.0
 41
2.0
 42
2.0
 43
2.0
  0
MTEXT
  5
3BD2
100
AcDbEntity
  8
0
  6
BYBLOCK
 62
     3
100
AcDbMText
 10
171.67145
 20
245.667469
 30
0.0
 40
3.0
 41
0.0
 71
     5
 72
     1
  1
\A1;18
  0
POINT
  5
3BD3
100
AcDbEntity
  8
DEFPOINTS
  6
BYBLOCK
 62
     0
100
AcDbPoint
 10
162.67145
 20
263.372565
 30
0.0
  0
POINT
  5
3BD4
100
AcDbEntity
  8
DEFPOINTS
  6
BYBLOCK
 62
     0
100
AcDbPoint
 10
180.67145
 20
263.372565
 30
0.0
  0
POINT
  5
3BD5
100
AcDbEntity
  8
DEFPOINTS
  6
BYBLOCK
 62
     0
100
AcDbPoint
 10
180.67145
 20
243.167469
 30
0.0
  0
ENDBLK
  5
3BD6
100
AcDbEntity
  8
0
100
AcDbBlockEnd
  0
BLOCK
  5
3BC2
100
AcDbEntity
  8
0
100
AcDbBlockBegin
  2
*D4
 70
     1
 10
0.0
 20
0.0
 30
0.0
  3
*D4
  1

  0
LINE
  5
3BC3
100
AcDbEntity
  8
0
  6
BYBLOCK
 62
     1
100
AcDbLine
 10
166.302838
 20
256.999362
 30
0.0
 11
165.40807
 21
255.210678
 31
0.0
  0
LINE
  5
3BC4
100
AcDbEntity
  8
0
  6
BYBLOCK
 62
     1
100
AcDbLine
 10
177.040062
 20
278.463566
 30
0.0
 11
182.802527
 21
289.982998
 31
0.0
  0
LINE
  5
3BC5
100
AcDbEntity
  8
0
  6
BYBLOCK
 62
     1
100
AcDbLine
 10
167.197607
 20
258.788046
 30
0.0
 11
176.145293
 21
276.674882
 31
0.0
  0
INSERT
  5
3BC6
100
AcDbEntity
  8
0
  6
BYBLOCK
 62
     1
100
AcDbBlockReference
  2
_OPEN30
 10
167.197607
 20
258.788046
 30
0.0
 41
2.0
 42
2.0
 43
2.0
 50
63.424013
  0
INSERT
  5
3BC7
100
AcDbEntity
  8
0
  6
BYBLOCK
 62
     1
100
AcDbBlockReference
  2
_OPEN30
 10
176.145293
 20
276.674882
 30
0.0
 41
2.0
 42
2.0
 43
2.0
 50
243.424013
  0
MTEXT
  5
3BC8
100
AcDbEntity
  8
0
  6
BYBLOCK
 62
     3
100
AcDbMText
 10
178.329751
 20
286.62975
 30
0.0
 40
3.0
 41
0.0
 71
     5
 72
     1
  1
\A1;\U+220520
 11
0.447384
 21
0.894342
 31
0.0
  0
POINT
  5
3BC9
100
AcDbEntity
  8
DEFPOINTS
  6
BYBLOCK
 62
     0
100
AcDbPoint
 10
176.145293
 20
276.674882
 30
0.0
  0
POINT
  5
3BCA
100
AcDbEntity
  8
DEFPOINTS
  6
BYBLOCK
 62
     0
100
AcDbPoint
 10
167.197607
 20
258.788046
 30
0.0
  0
ENDBLK
  5
3BCB
100
AcDbEntity
  8
0
100
AcDbBlockEnd
  0
BLOCK
  5
3BB7
100
AcDbEntity
  8
0
100
AcDbBlockBegin
  2
*D5
 70
     1
 10
0.0
 20
0.0
 30
0.0
  3
*D5
  1

  0
LINE
  5
3BB8
100
AcDbEntity
  8
0
  6
BYBLOCK
 62
     1
100
AcDbLine
 10
36.174867
 20
254.231464
 30
0.0
 11
36.174867
 21
224.599663
 31
0.0
  0
LINE
  5
3BB9
100
AcDbEntity
  8
0
  6
BYBLOCK
 62
     1
100
AcDbLine
 10
286.174867
 20
257.731464
 30
0.0
 11
286.174867
 21
224.599663
 31
0.0
  0
LINE
  5
3BBA
100
AcDbEntity
  8
0
  6
BYBLOCK
 62
     1
100
AcDbLine
 10
38.174867
 20
226.599663
 30
0.0
 11
284.174867
 21
226.599663
 31
0.0
  0
INSERT
  5
3BBB
100
AcDbEntity
  8
0
  6
BYBLOCK
 62
     1
100
AcDbBlockReference
  2
_OPEN30
 10
36.174867
 20
226.599663
 30
0.0
 41
2.0
 42
2.0
 43
2.0
 50
180.0
  0
INSERT
  5
3BBC
100
AcDbEntity
  8
0
  6
BYBLOCK
 62
     1
100
AcDbBlockReference
  2
_OPEN30
 10
286.174867
 20
226.599663
 30
0.0
 41
2.0
 42
2.0
 43
2.0
  0
MTEXT
  5
3BBD
100
AcDbEntity
  8
0
  6
BYBLOCK
 62
     3
100
AcDbMText
 10
161.174867
 20
229.099663
 30
0.0
 40
3.0
 41
0.0
 71
     5
 72
     1
  1
\A1;250
  0
POINT
  5
3BBE
100
AcDbEntity
  8
DEFPOINTS
  6
BYBLOCK
 62
     0
100
AcDbPoint
 10
36.174867
 20
255.231464
 30
0.0
  0
POINT
  5
3BBF
100
AcDbEntity
  8
DEFPOINTS
  6
BYBLOCK
 62
     0
100
AcDbPoint
 10
286.174867
 20
258.731464
 30
0.0
  0
POINT
  5
3BC0
100
AcDbEntity
  8
DEFPOINTS
  6
BYBLOCK
 62
     0
100
AcDbPoint
 10
286.174867
 20
226.599663
 30
0.0
  0
ENDBLK
  5
3BC1
100
AcDbEntity
  8
0
100
AcDbBlockEnd
  0
BLOCK
  5
3BAA
100
AcDbEntity
  8
0
100
AcDbBlockBegin
  2
*D6
 70
     1
 10
0.0
 20
0.0
 30
0.0
  3
*D6
  1

  0
LINE
  5
3BAB
100
AcDbEntity
  8
0
  6
BYBLOCK
 62
     1
100
AcDbLine
 10
37.122827
 20
273.730093
 30
0.0
 11
37.387664
 21
278.783486
 31
0.0
  0
LINE
  5
3BAC
100
AcDbEntity
  8
0
  6
BYBLOCK
 62
     1
100
AcDbLine
 10
35.153355
 20
255.231464
 30
0.0
 11
12.569011
 21
255.231464
 31
0.0
  0
ARC
  5
3BAD
100
AcDbEntity
  8
0
  6
BYBLOCK
 62
     1
100
AcDbCircle
 10
36.153355
 20
255.231464
 30
0.0
 40
21.584344
100
AcDbArc
 50
92.310914
 51
174.689086
  0
INSERT
  5
3BAE
100
AcDbEntity
  8
0
  6
BYBLOCK
 62
     1
100
AcDbBlockReference
  2
_OPEN30
 10
37.282992
 20
276.786227
 30
0.0
 41
2.0
 42
2.0
 43
2.0
 50
359.655457
  0
INSERT
  5
3BAF
100
AcDbEntity
  8
0
  6
BYBLOCK
 62
     1
100
AcDbBlockReference
  2
_OPEN30
 10
14.569011
 20
255.231464
 30
0.0
 41
2.0
 42
2.0
 43
2.0
 50
267.344543
  0
MTEXT
  5
3BB0
100
AcDbEntity
  8
0
  6
BYBLOCK
 62
     3
100
AcDbMText
 10
19.574786
 20
272.701629
 30
0.0
 40
3.0
 41
0.0
 71
     5
 72
     1
  1
\A1;93°
 11
0.725374
 21
0.688355
 31
0.0
  0
POINT
  5
3BB1
100
AcDbEntity
  8
DEFPOINTS
  6
BYBLOCK
 62
     0
100
AcDbPoint
 10
26.020119
 20
274.289308
 30
0.0
  0
POINT
  5
3BB2
100
AcDbEntity
  8
DEFPOINTS
  6
BYBLOCK
 62
     0
100
AcDbPoint
 10
36.175415
 20
255.652398
 30
0.0
  0
POINT
  5
3BB3
100
AcDbEntity
  8
DEFPOINTS
  6
BYBLOCK
 62
     0
100
AcDbPoint
 10
36.574867
 20
255.231464
 30
0.0
  0
POINT
  5
3BB4
100
AcDbEntity
  8
DEFPOINTS
  6
BYBLOCK
 62
     0
100
AcDbPoint
 10
36.174867
 20
255.231464
 30
0.0
  0
POINT
  5
3BB5
100
AcDbEntity
  8
DEFPOINTS
  6
BYBLOCK
 62
     0
100
AcDbPoint
 10
37.070491
 20
272.731464
 30
0.0
  0
ENDBLK
  5
3BB6
100
AcDbEntity
  8
0
100
AcDbBlockEnd
  0
BLOCK
  5
3B9D
100
AcDbEntity
  8
0
100
AcDbBlockBegin
  2
*D7
 70
     1
 10
0.0
 20
0.0
 30
0.0
  3
*D7
  1

  0
LINE
  5
3B9E
100
AcDbEntity
  8
0
  6
BYBLOCK
 62
     1
100
AcDbLine
 10
23.820467
 20
267.731464
 30
0.0
 11
28.3196
 21
267.731464
 31
0.0
  0
LINE
  5
3B9F
100
AcDbEntity
  8
0
  6
BYBLOCK
 62
     1
100
AcDbLine
 10
34.153355
 20
255.231464
 30
0.0
 11
24.3196
 21
255.231464
 31
0.0
  0
LINE
  5
3BA0
100
AcDbEntity
  8
0
  6
BYBLOCK
 62
     1
100
AcDbLine
 10
26.3196
 20
269.731464
 30
0.0
 11
26.3196
 21
271.731464
 31
0.0
  0
LINE
  5
3BA1
100
AcDbEntity
  8
0
  6
BYBLOCK
 62
     1
100
AcDbLine
 10
26.3196
 20
253.231464
 30
0.0
 11
26.3196
 21
238.231464
 31
0.0
  0
LINE
  5
3BA2
100
AcDbEntity
  8
0
  6
BYBLOCK
 62
     1
100
AcDbLine
 10
26.3196
 20
267.731464
 30
0.0
 11
26.3196
 21
255.231464
 31
0.0
  0
INSERT
  5
3BA3
100
AcDbEntity
  8
0
  6
BYBLOCK
 62
     1
100
AcDbBlockReference
  2
_OPEN30
 10
26.3196
 20
267.731464
 30
0.0
 41
2.0
 42
2.0
 43
2.0
 50
270.0
  0
INSERT
  5
3BA4
100
AcDbEntity
  8
0
  6
BYBLOCK
 62
     1
100
AcDbBlockReference
  2
_OPEN30
 10
26.3196
 20
255.231464
 30
0.0
 41
2.0
 42
2.0
 43
2.0
 50
90.0
  0
MTEXT
  5
3BA5
100
AcDbEntity
  8
0
  6
BYBLOCK
 62
     3
100
AcDbMText
 10
23.8196
 20
244.731464
 30
0.0
 40
3.0
 41
0.0
 71
     5
 72
     1
  1
\A1;12.5
 11
0.0
 21
1.0
 31
0.0
  0
POINT
  5
3BA6
100
AcDbEntity
  8
DEFPOINTS
  6
BYBLOCK
 62
     0
100
AcDbPoint
 10
22.820467
 20
267.731464
 30
0.0
  0
POINT
  5
3BA7
100
AcDbEntity
  8
DEFPOINTS
  6
BYBLOCK
 62
     0
100
AcDbPoint
 10
35.153355
 20
255.231464
 30
0.0
  0
POINT
  5
3BA8
100
AcDbEntity
  8
DEFPOINTS
  6
BYBLOCK
 62
     0
100
AcDbPoint
 10
26.3196
 20
255.231464
 30
0.0
  0
ENDBLK
  5
3BA9
100
AcDbEntity
  8
0
100
AcDbBlockEnd
  0
BLOCK
  5
3C4B
100
AcDbEntity
  8
0
100
AcDbBlockBegin
  2
*D12
 70
     1
 10
0.0
 20
0.0
 30
0.0
  3
*D12
  1

  0
LINE
  5
3C4C
100
AcDbEntity
  8
0
  6
BYBLOCK
 62
     1
100
AcDbLine
 10
-3.277773
 20
254.232834
 30
0.0
 11
-4.33481
 21
234.063352
 31
0.0
  0
LINE
  5
3C4D
100
AcDbEntity
  8
0
  6
BYBLOCK
 62
     1
100
AcDbLine
 10
-3.225437
 20
251.270663
 30
0.0
 11
-3.225437
 21
234.034302
 31
0.0
  0
ARC
  5
3C4E
100
AcDbEntity
  8
0
  6
BYBLOCK
 62
     1
100
AcDbCircle
 10
-3.225437
 20
255.231464
 30
0.0
 40
19.197162
100
AcDbArc
 50
255.039912
 51
267.0
  0
LINE
  5
3C4F
100
AcDbEntity
  8
0
  6
BYBLOCK
 62
     1
100
AcDbLine
 10
-8.181109
 20
236.684973
 30
0.0
 11
-16.48962
 21
238.905029
 31
0.0
  0
ARC
  5
3C50
100
AcDbEntity
  8
0
  6
BYBLOCK
 62
     1
100
AcDbCircle
 10
-3.225437
 20
255.231464
 30
0.0
 40
19.197162
100
AcDbArc
 50
255.056209
 51
261.028104
  0
ARC
  5
3C51
100
AcDbEntity
  8
0
  6
BYBLOCK
 62
     1
100
AcDbCircle
 10
-3.225437
 20
255.231464
 30
0.0
 40
19.197162
100
AcDbArc
 50
275.971896
 51
281.943791
  0
ARC
  5
3C52
100
AcDbEntity
  8
0
  6
BYBLOCK
 62
     1
100
AcDbCircle
 10
-3.225437
 20
255.231464
 30
0.0
 40
19.197162
100
AcDbArc
 50
267.0
 51
270.0
  0
INSERT
  5
3C53
100
AcDbEntity
  8
0
  6
BYBLOCK
 62
     1
100
AcDbBlockReference
  2
_OPEN30
 10
-4.230138
 20
236.060611
 30
0.0
 41
2.0
 42
2.0
 43
2.0
 50
354.014052
  0
INSERT
  5
3C54
100
AcDbEntity
  8
0
  6
BYBLOCK
 62
     1
100
AcDbBlockReference
  2
_OPEN30
 10
-3.225437
 20
236.034302
 30
0.0
 41
2.0
 42
2.0
 43
2.0
 50
182.985948
  0
MTEXT
  5
3C55
100
AcDbEntity
  8
0
  6
BYBLOCK
 62
     3
100
AcDbMText
 10
-11.689999
 20
240.210266
 30
0.0
 40
3.0
 41
0.0
 71
     5
 72
     1
  1
\A1;3°
 11
0.966106
 21
-0.258146
 31
0.0
  0
POINT
  5
3C56
100
AcDbEntity
  8
DEFPOINTS
  6
BYBLOCK
 62
     0
100
AcDbPoint
 10
-3.560473
 20
236.037226
 30
0.0
  0
POINT
  5
3C57
100
AcDbEntity
  8
DEFPOINTS
  6
BYBLOCK
 62
     0
100
AcDbPoint
 10
-3.225437
 20
283.192264
 30
0.0
  0
POINT
  5
3C58
100
AcDbEntity
  8
DEFPOINTS
  6
BYBLOCK
 62
     0
100
AcDbPoint
 10
-3.225437
 20
255.231464
 30
0.0
  0
POINT
  5
3C59
100
AcDbEntity
  8
DEFPOINTS
  6
BYBLOCK
 62
     0
100
AcDbPoint
 10
-2.063008
 20
277.411921
 30
0.0
  0
POINT
  5
3C5A
100
AcDbEntity
  8
DEFPOINTS
  6
BYBLOCK
 62
     0
100
AcDbPoint
 10
-3.225437
 20
252.270663
 30
0.0
  0
ENDBLK
  5
3C5B
100
AcDbEntity
  8
0
100
AcDbBlockEnd
  0
BLOCK
  5
3C96
100
AcDbEntity
  8
0
100
AcDbBlockBegin
  2
*D13
 70
     1
 10
0.0
 20
0.0
 30
0.0
  3
*D13
  1

  0
LINE
  5
3C97
100
AcDbEntity
  8
0
  6
BYBLOCK
 62
     1
100
AcDbLine
 10
-11.612092
 20
255.902938
 30
0.0
 11
-12.768872
 21
254.271418
 31
0.0
  0
LINE
  5
3C98
100
AcDbEntity
  8
0
  6
BYBLOCK
 62
     1
100
AcDbLine
 10
5.161219
 20
279.559989
 30
0.0
 11
12.101899
 21
289.349114
 31
0.0
  0
LINE
  5
3C99
100
AcDbEntity
  8
0
  6
BYBLOCK
 62
     1
100
AcDbLine
 10
-10.455312
 20
257.534459
 30
0.0
 11
4.004439
 21
277.928468
 31
0.0
  0
INSERT
  5
3C9A
100
AcDbEntity
  8
0
  6
BYBLOCK
 62
     1
100
AcDbBlockReference
  2
_OPEN30
 10
-10.455312
 20
257.534459
 30
0.0
 41
2.0
 42
2.0
 43
2.0
 50
54.662615
  0
INSERT
  5
3C9B
100
AcDbEntity
  8
0
  6
BYBLOCK
 62
     1
100
AcDbBlockReference
  2
_OPEN30
 10
4.004439
 20
277.928468
 30
0.0
 41
2.0
 42
2.0
 43
2.0
 50
234.662615
  0
MTEXT
  5
3C9C
100
AcDbEntity
  8
0
  6
BYBLOCK
 62
     3
100
AcDbMText
 10
7.170548
 20
286.716287
 30
0.0
 40
3.0
 41
0.0
 71
     5
 72
     1
  1
\A1;\U+220525
 11
0.57839
 21
0.81576
 31
0.0
  0
POINT
  5
3C9D
100
AcDbEntity
  8
DEFPOINTS
  6
BYBLOCK
 62
     0
100
AcDbPoint
 10
4.004439
 20
277.928468
 30
0.0
  0
POINT
  5
3C9E
100
AcDbEntity
  8
DEFPOINTS
  6
BYBLOCK
 62
     0
100
AcDbPoint
 10
-10.455312
 20
257.534459
 30
0.0
  0
ENDBLK
  5
3C9F
100
AcDbEntity
  8
0
100
AcDbBlockEnd
  0
BLOCK
  5
3D36
100
AcDbEntity
  8
0
100
AcDbBlockBegin
  2
*D14
 70
     1
 10
0.0
 20
0.0
 30
0.0
  3
*D14
  1

  0
LINE
  5
3D37
100
AcDbEntity
  8
0
  6
BYBLOCK
 62
     1
100
AcDbLine
 10
36.174867
 20
195.760476
 30
0.0
 11
36.174867
 21
167.184003
 31
0.0
  0
LINE
  5
3D38
100
AcDbEntity
  8
0
  6
BYBLOCK
 62
     1
100
AcDbLine
 10
54.174867
 20
186.010476
 30
0.0
 11
54.174867
 21
167.184003
 31
0.0
  0
LINE
  5
3D39
100
AcDbEntity
  8
0
  6
BYBLOCK
 62
     1
100
AcDbLine
 10
38.174867
 20
169.184003
 30
0.0
 11
52.174867
 21
169.184003
 31
0.0
  0
INSERT
  5
3D3A
100
AcDbEntity
  8
0
  6
BYBLOCK
 62
     1
100
AcDbBlockReference
  2
_OPEN30
 10
36.174867
 20
169.184003
 30
0.0
 41
2.0
 42
2.0
 43
2.0
 50
180.0
  0
INSERT
  5
3D3B
100
AcDbEntity
  8
0
  6
BYBLOCK
 62
     1
100
AcDbBlockReference
  2
_OPEN30
 10
54.174867
 20
169.184003
 30
0.0
 41
2.0
 42
2.0
 43
2.0
  0
MTEXT
  5
3D3C
100
AcDbEntity
  8
0
  6
BYBLOCK
 62
     3
100
AcDbMText
 10
45.174867
 20
171.684003
 30
0.0
 40
3.0
 41
0.0
 71
     5
 72
     1
  1
\A1;18
  0
POINT
  5
3D3D
100
AcDbEntity
  8
DEFPOINTS
  6
BYBLOCK
 62
     0
100
AcDbPoint
 10
36.174867
 20
196.760476
 30
0.0
  0
POINT
  5
3D3E
100
AcDbEntity
  8
DEFPOINTS
  6
BYBLOCK
 62
     0
100
AcDbPoint
 10
54.174867
 20
187.010476
 30
0.0
  0
POINT
  5
3D3F
100
AcDbEntity
  8
DEFPOINTS
  6
BYBLOCK
 62
     0
100
AcDbPoint
 10
54.174867
 20
169.184003
 30
0.0
  0
ENDBLK
  5
3D40
100
AcDbEntity
  8
0
100
AcDbBlockEnd
  0
ENDSEC
  0
SECTION
  2
ENTITIES
  0
TEXT
  5
1453
100
AcDbEntity
  8
外形
  6
CONTINUOUS
 62
     2
100
AcDbText
 10
117.019241
 20
150.213866
 30
0.0
 40
6.0
  1
BBPT320R
100
AcDbText
  0
LINE
  5
39DC
100
AcDbEntity
  8
外形
  6
CENTER
 62
     1
100
AcDbLine
 10
22.820467
 20
267.731464
 30
0.0
 11
302.653552
 21
267.731464
 31
0.0
  0
LINE
  5
39DE
100
AcDbEntity
  8
外形
  6
CENTER
 62
     1
100
AcDbLine
 10
30.294835
 20
263.032732
 30
0.0
 11
52.467778
 21
263.032732
 31
0.0
  0
LINE
  5
39DF
100
AcDbEntity
  8
外形
  6
CENTER
 62
     1
100
AcDbLine
 10
41.381306
 20
251.94626
 30
0.0
 11
41.381306
 21
274.119203
 31
0.0
  0
LINE
  5
39E1
100
AcDbEntity
  8
外形
  6
CONTINUOUS
100
AcDbLine
 10
36.756463
 20
255.275061
 30
0.0
 11
50.375808
 21
262.214464
 31
0.0
  0
LINE
  5
39E4
100
AcDbEntity
  8
外形
  6
CONTINUOUS
100
AcDbLine
 10
36.175415
 20
255.652398
 30
0.0
 11
37.070491
 21
272.731464
 31
0.0
  0
LINE
  5
39E5
100
AcDbEntity
  8
外形
  6
CONTINUOUS
100
AcDbLine
 10
37.011647
 20
271.608669
 30
0.0
 11
50.412067
 21
262.906335
 31
0.0
  0
ARC
  5
39E6
100
AcDbEntity
  8
外形
  6
CONTINUOUS
100
AcDbCircle
 10
36.574867
 20
255.631464
 30
0.0
 40
0.4
100
AcDbArc
 50
177.0
 51
297.0
  0
ARC
  5
39E7
100
AcDbEntity
  8
外形
  6
CONTINUOUS
100
AcDbCircle
 10
37.37484
 20
270.895864
 30
0.0
 40
0.4
100
AcDbArc
 50
57.0
 51
177.0
  0
ARC
  5
39E8
100
AcDbEntity
  8
外形
  6
CONTINUOUS
100
AcDbCircle
 10
50.194212
 20
262.570867
 30
0.0
 40
0.4
100
AcDbArc
 50
297.0
 51
57.0
  0
ARC
  5
39F0
100
AcDbEntity
  8
外形
  6
CONTINUOUS
100
AcDbCircle
 10
49.39651
 20
263.113359
 30
0.0
 40
2.0
100
AcDbArc
 50
267.0
 51
87.0
  0
LINE
  5
39F1
100
AcDbEntity
  8
外形
  6
CONTINUOUS
100
AcDbLine
 10
49.501182
 20
265.110618
 30
0.0
 11
46.799762
 21
265.252193
 31
0.0
  0
LINE
  5
39F2
100
AcDbEntity
  8
外形
  6
CONTINUOUS
100
AcDbLine
 10
49.291838
 20
261.1161
 30
0.0
 11
48.320096
 21
261.167026
 31
0.0
  0
LINE
  5
3A14
100
AcDbEntity
  8
外形
  6
CONTINUOUS
100
AcDbLine
 10
65.526314
 20
257.731464
 30
0.0
 11
158.451717
 21
257.731464
 31
0.0
  0
LINE
  5
3A19
100
AcDbEntity
  8
外形
  6
CONTINUOUS
100
AcDbLine
 10
63.424867
 20
277.731464
 30
0.0
 11
158.451717
 21
277.731464
 31
0.0
  0
LINE
  5
3A1C
100
AcDbEntity
  8
外形
  6
CENTER
 62
     1
100
AcDbLine
 10
12.235364
 20
267.731464
 30
0.0
 11
-18.686237
 21
267.731464
 31
0.0
  0
LINE
  5
3A1D
100
AcDbEntity
  8
外形
  6
CENTER
 62
     1
100
AcDbLine
 10
-3.225437
 20
283.192264
 30
0.0
 11
-3.225437
 21
252.270663
 31
0.0
  0
ARC
  5
3A1E
100
AcDbEntity
  8
外形
  6
CONTINUOUS
100
AcDbCircle
 10
-3.225437
 20
267.731464
 30
0.0
 40
11.75
100
AcDbArc
 50
179.0518
 51
246.547555
  0
ARC
  5
3A20
100
AcDbEntity
  8
外形
  6
CONTINUOUS
100
AcDbCircle
 10
-3.225437
 20
267.731464
 30
0.0
 40
9.75
100
AcDbArc
 50
270.847287
 51
337.380135
  0
LINE
  5
3A21
100
AcDbEntity
  8
外形
  6
CENTER
 62
     1
100
AcDbLine
 10
-0.955998
 20
265.481464
 30
0.0
 11
-5.494874
 21
265.481464
 31
0.0
  0
ARC
  5
3A22
100
AcDbEntity
  8
外形
  6
CONTINUOUS
100
AcDbCircle
 10
-3.225437
 20
265.481464
 30
0.0
 40
12.0
100
AcDbArc
 50
90.0
 51
168.246374
  0
LINE
  5
3A26
100
AcDbEntity
  8
外形
  6
CONTINUOUS
100
AcDbLine
 10
-3.225437
 20
255.231464
 30
0.0
 11
-2.3083
 21
272.731464
 31
0.0
  0
LINE
  5
3A27
100
AcDbEntity
  8
外形
  6
CONTINUOUS
100
AcDbLine
 10
-7.930489
 20
256.404565
 30
0.0
 11
-3.225437
 21
255.231464
 31
0.0
  0
LINE
  5
3A2B
100
AcDbEntity
  8
外形
  6
CONTINUOUS
100
AcDbLine
 10
-2.383537
 20
271.295864
 30
0.0
 11
-7.185437
 21
270.621001
 31
0.0
  0
LINE
  5
3A2D
100
AcDbEntity
  8
外形
  6
CONTINUOUS
100
AcDbLine
 10
-7.930489
 20
256.404565
 30
0.0
 11
-7.185437
 21
270.621001
 31
0.0
  0
LINE
  5
3A2F
100
AcDbEntity
  8
外形
  6
CONTINUOUS
100
AcDbLine
 10
45.297732
 20
277.481464
 30
0.0
 11
37.070491
 21
272.731464
 31
0.0
  0
LINE
  5
3A30
100
AcDbEntity
  8
外形
  6
CONTINUOUS
100
AcDbLine
 10
286.174867
 20
276.731464
 30
0.0
 11
286.174867
 21
258.731464
 31
0.0
  0
LINE
  5
3A31
100
AcDbEntity
  8
外形
  6
CONTINUOUS
100
AcDbLine
 10
285.174867
 20
277.731464
 30
0.0
 11
285.174867
 21
272.090363
 31
0.0
  0
LINE
  5
3A32
100
AcDbEntity
  8
外形
  6
CENTER
 62
     1
100
AcDbLine
 10
171.67145
 20
285.27921
 30
0.0
 11
171.67145
 21
250.183717
 31
0.0
  0
ARC
  5
3A33
100
AcDbEntity
  8
外形
  6
CONTINUOUS
100
AcDbCircle
 10
171.67145
 20
267.731464
 30
0.0
 40
10.0
100
AcDbArc
 50
25.841933
 51
154.158067
  0
LINE
  5
3A34
100
AcDbEntity
  8
外形
  6
CONTINUOUS
100
AcDbLine
 10
162.67145
 20
263.372565
 30
0.0
 11
162.67145
 21
272.090363
 31
0.0
  0
LINE
  5
3A35
100
AcDbEntity
  8
外形
  6
CONTINUOUS
100
AcDbLine
 10
180.67145
 20
272.090363
 30
0.0
 11
180.67145
 21
263.372565
 31
0.0
  0
LINE
  5
3A36
100
AcDbEntity
  8
外形
  6
CONTINUOUS
100
AcDbLine
 10
158.451717
 20
272.090363
 30
0.0
 11
63.424867
 21
272.090363
 31
0.0
  0
LINE
  5
3A37
100
AcDbEntity
  8
外形
  6
CONTINUOUS
100
AcDbLine
 10
158.451717
 20
263.372565
 30
0.0
 11
65.828405
 21
263.372565
 31
0.0
  0
LINE
  5
3A3A
100
AcDbEntity
  8
外形
  6
CONTINUOUS
100
AcDbLine
 10
185.543099
 20
277.731464
 30
0.0
 11
285.174867
 21
277.731464
 31
0.0
  0
LINE
  5
3A3B
100
AcDbEntity
  8
外形
  6
CONTINUOUS
100
AcDbLine
 10
185.543099
 20
272.090363
 30
0.0
 11
285.174867
 21
272.090363
 31
0.0
  0
LINE
  5
3A3C
100
AcDbEntity
  8
外形
  6
CONTINUOUS
100
AcDbLine
 10
185.543099
 20
263.372565
 30
0.0
 11
285.174867
 21
263.372565
 31
0.0
  0
LINE
  5
3A3D
100
AcDbEntity
  8
外形
  6
CONTINUOUS
100
AcDbLine
 10
185.543099
 20
257.731464
 30
0.0
 11
285.174867
 21
257.731464
 31
0.0
  0
ARC
  5
3A3E
100
AcDbEntity
  8
外形
  6
CONTINUOUS
100
AcDbCircle
 10
171.67145
 20
267.731464
 30
0.0
 40
10.0
100
AcDbArc
 50
205.841933
 51
334.158067
  0
ELLIPSE
  5
3A41
100
AcDbEntity
  8
外形
  6
CONTINUOUS
100
AcDbEllipse
 10
285.174867
 20
267.731464
 30
0.0
 11
0.0
 21
4.358898943542556
 31
0.0
210
0.0
220
0.0
230
1.0
 40
0.229416
 41
3.141592653589793
 42
6.283185307179586
  0
LINE
  5
3A42
100
AcDbEntity
  8
外形
  6
CONTINUOUS
100
AcDbLine
 10
285.174867
 20
263.372565
 30
0.0
 11
285.174867
 21
257.731464
 31
0.0
  0
LINE
  5
3A43
100
AcDbEntity
  8
外形
  6
CONTINUOUS
100
AcDbLine
 10
285.174867
 20
277.731464
 30
0.0
 11
286.174867
 21
276.731464
 31
0.0
  0
LINE
  5
3A44
100
AcDbEntity
  8
外形
  6
CONTINUOUS
100
AcDbLine
 10
286.174867
 20
258.731464
 30
0.0
 11
285.174867
 21
257.731464
 31
0.0
  0
LINE
  5
3A48
100
AcDbEntity
  8
外形
  6
CONTINUOUS
100
AcDbLine
 10
5.774563
 20
271.481464
 30
0.0
 11
5.774563
 21
263.981464
 31
0.0
  0
ARC
  5
3A49
100
AcDbEntity
  8
外形
  6
CONTINUOUS
100
AcDbCircle
 10
-3.225437
 20
267.731464
 30
0.0
 40
9.75
100
AcDbArc
 50
22.619865
 51
90.0
  0
SPLINE
  5
3A8B
100
AcDbEntity
  8
外形
  6
CONTINUOUS
100
AcDbSpline
210
0.0
220
0.0
230
-1.0
 70
     8
 71
     3
 72
    12
 73
     8
 74
     0
 42
0.0000001
 43
0.0000001
 40
1.543733586761274
 40
1.543733586761274
 40
1.543733586761274
 40
1.543733586761274
 40
2.937898246816408
 40
7.858333869682627
 40
12.26785242200053
 40
16.3929020096244
 40
18.80100955181625
 40
18.80100955181625
 40
18.80100955181625
 40
18.80100955181625
 10
60.84586492639309
 20
272.0903627345139
 30
0.0
 10
60.41896349597222
 20
272.2739474308531
 30
0.0
 10
58.48572861354174
 20
273.1071974322615
 30
0.0
 10
55.20737922916134
 20
274.5477599496806
 30
0.0
 10
50.8751158166407
 20
275.7503244753277
 30
0.0
 10
47.30385881248497
 20
276.4924985747538
 30
0.0
 10
45.15041395600064
 20
276.8307599947112
 30
0.0
 10
44.35457566895316
 20
276.9369322436403
 30
0.0
  0
SPLINE
  5
3A90
100
AcDbEntity
  8
外形
  6
CONTINUOUS
100
AcDbSpline
210
0.0
220
0.0
230
1.0
 70
     8
 71
     3
 72
    10
 73
     6
 74
     0
 42
0.0000001
 43
0.0000001
 40
0.6441433286496159
 40
0.6441433286496159
 40
0.6441433286496159
 40
0.6441433286496159
 40
2.286142130550354
 40
5.514136003959283
 40
7.660116051698842
 40
7.660116051698842
 40
7.660116051698842
 40
7.660116051698842
 10
65.82840531093925
 20
263.3725648474326
 30
0.0
 10
65.60294883809682
 20
262.8612239160104
 30
0.0
 10
64.85570726268388
 20
261.4131911235444
 30
0.0
 10
62.5878193175373
 20
260.3666172757428
 30
0.0
 10
60.91440790600236
 20
259.7353343367583
 30
0.0
 10
60.24015742429114
 20
259.513579927769
 30
0.0
  0
LINE
  5
3A91
100
AcDbEntity
  8
外形
  6
CENTER
 62
     1
100
AcDbLine
 10
21.557623
 20
196.760476
 30
0.0
 11
301.069522
 21
196.760476
 31
0.0
  0
LINE
  5
3AA5
100
AcDbEntity
  8
外形
  6
CONTINUOUS
100
AcDbLine
 10
62.264146
 20
205.760476
 30
0.0
 11
286.174867
 21
205.760476
 31
0.0
  0
LINE
  5
3AAB
100
AcDbEntity
  8
外形
  6
CONTINUOUS
100
AcDbLine
 10
40.381306
 20
196.904654
 30
0.0
 11
43.175631
 21
196.904654
 31
0.0
  0
SPLINE
  5
3AB3
100
AcDbEntity
  8
外形
  6
CONTINUOUS
100
AcDbSpline
210
0.0
220
0.0
230
1.0
 70
     8
 71
     3
 72
    13
 73
     9
 74
     7
 42
0.0000001
 43
0.0000001
 44
0.0000000001
 40
0.0
 40
0.0
 40
0.0
 40
0.0
 40
1.568344318310928
 40
4.740303168625677
 40
8.178718122179361
 40
11.78505811879138
 40
15.52065613526991
 40
24.98880472815717
 40
24.98880472815717
 40
24.98880472815717
 40
24.98880472815717
 10
66.08558698741598
 20
205.7604762438265
 30
0.0
 10
65.74151760469475
 20
205.3614351396457
 30
0.0
 10
64.70157174197942
 20
204.155337863381
 30
0.0
 10
62.14551497635316
 20
203.0264036873584
 30
0.0
 10
59.16906788221709
 20
201.4108325399307
 30
0.0
 10
55.88672979447707
 20
199.9443139384651
 30
0.0
 10
50.84300275556671
 20
197.4173375548249
 30
0.0
 10
46.37764867802876
 20
197.1187586226245
 30
0.0
 10
43.17563055568801
 20
196.9046535068255
 30
0.0
 11
66.08558698741598
 21
205.7604762438265
 31
0.0
 11
65.00504847736607
 21
204.6237526938473
 31
0.0
 11
62.26104789450984
 21
203.0325947037738
 31
0.0
 11
59.19593287407699
 21
201.4744652790025
 31
0.0
 11
55.93393713557043
 21
199.9365862287749
 31
0.0
 11
52.52269075173095
 21
198.4140585116346
 31
0.0
 11
43.17563055568801
 21
196.9046535068255
 31
0.0
  0
SPLINE
  5
3AC1
100
AcDbEntity
  8
外形
  6
CONTINUOUS
100
AcDbSpline
210
0.0
220
0.0
230
1.0
 70
     8
 71
     3
 72
    13
 73
     9
 74
     0
 42
0.0000001
 43
0.0000001
 40
0.0
 40
0.0
 40
0.0
 40
0.0
 40
2.759740175026769
 40
7.527867052351215
 40
12.0006414378473
 40
16.29428539675505
 40
20.45327004744876
 40
26.42047154139987
 40
26.42047154139987
 40
26.42047154139987
 40
26.42047154139987
 10
62.26414611620777
 20
205.7604762438265
 30
0.0
 10
61.36087032907678
 20
205.5825745522889
 30
0.0
 10
58.89696445175479
 20
205.0973041292242
 30
0.0
 10
55.1011027519762
 20
203.8074609883761
 30
0.0
 10
50.82698112845372
 20
202.3681657048189
 30
0.0
 10
46.76296705504078
 20
200.9463109719298
 30
0.0
 10
42.32431622450177
 20
199.0377612611871
 30
0.0
 10
38.9989832971332
 20
198.4817849594464
 30
0.0
 10
37.01164747582641
 20
198.2586976207083
 30
0.0
  0
LINE
  5
3AC2
100
AcDbEntity
  8
外形
  6
CONTINUOUS
100
AcDbLine
 10
37.011647
 20
197.602376
 30
0.0
 11
37.011647
 21
198.258698
 31
0.0
  0
LINE
  5
3AC5
100
AcDbEntity
  8
外形
  6
CONTINUOUS
100
AcDbLine
 10
36.174867
 20
196.760476
 30
0.0
 11
37.011647
 21
197.602376
 31
0.0
  0
LINE
  5
3AC6
100
AcDbEntity
  8
外形
  6
CONTINUOUS
100
AcDbLine
 10
38.361645
 20
185.510476
 30
0.0
 11
36.174867
 21
196.760476
 31
0.0
  0
LINE
  5
3AC8
100
AcDbEntity
  8
外形
  6
CONTINUOUS
100
AcDbLine
 10
40.381306
 20
196.39246
 30
0.0
 11
36.174867
 21
196.760476
 31
0.0
  0
LINE
  5
3AC9
100
AcDbEntity
  8
外形
  6
CONTINUOUS
100
AcDbLine
 10
40.381306
 20
191.767422
 30
0.0
 11
37.089436
 21
192.055424
 31
0.0
  0
LINE
  5
3ACB
100
AcDbEntity
  8
外形
  6
CONTINUOUS
100
AcDbLine
 10
40.381306
 20
196.904654
 30
0.0
 11
40.381306
 21
191.767422
 31
0.0
  0
LINE
  5
3ACF
100
AcDbEntity
  8
外形
  6
CONTINUOUS
100
AcDbLine
 10
65.828405
 20
263.372565
 30
0.0
 11
60.845865
 21
272.090363
 31
0.0
  0
LINE
  5
3AD3
100
AcDbEntity
  8
外形
  6
CONTINUOUS
100
AcDbLine
 10
54.174867
 20
187.760476
 30
0.0
 11
286.174867
 21
187.760476
 31
0.0
  0
LINE
  5
3AD4
100
AcDbEntity
  8
外形
  6
CONTINUOUS
100
AcDbLine
 10
285.174867
 20
205.760476
 30
0.0
 11
285.174867
 21
187.760476
 31
0.0
  0
LINE
  5
3AD5
100
AcDbEntity
  8
外形
  6
CONTINUOUS
100
AcDbLine
 10
286.174867
 20
205.760476
 30
0.0
 11
286.174867
 21
187.760476
 31
0.0
  0
DIMENSION
  5
3B4E
100
AcDbEntity
  8
寸法
  6
CONTINUOUS
100
AcDbDimension
  2
*D2
 10
36.174867
 20
196.760476
 30
0.0
 11
19.667272
 21
206.984959
 31
0.0
 70
    34
  3
STANDARD
100
AcDb2LineAngularDimension
 13
21.557623
 23
196.760476
 33
0.0
 14
301.069522
 24
196.760476
 34
0.0
 15
40.381306
 25
196.39246
 35
0.0
 16
19.746384
 26
197.238496
 36
0.0
1001
ACAD
1000
DSTYLE
1002
{
1070
   284
1070
    13
1070
   146
1040
0.5
1070
   272
1070
     3
1070
    40
1040
1.0
1070
   287
1070
     0
1002
}
  0
DIMENSION
  5
3B68
100
AcDbEntity
  8
寸法
  6
CONTINUOUS
100
AcDbDimension
  2
*D3
 10
180.67145
 20
243.167469
 30
0.0
 11
171.67145
 21
245.667469
 31
0.0
 70
    32
  3
STANDARD
100
AcDbAlignedDimension
 13
162.67145
 23
263.372565
 33
0.0
 14
180.67145
 24
263.372565
 34
0.0
100
AcDbRotatedDimension
1001
ACAD
1000
DSTYLE
1002
{
1070
   284
1070
    13
1070
   146
1040
0.5
1070
   272
1070
     3
1070
    40
1040
1.0
1070
   287
1070
     0
1002
}
  0
DIMENSION
  5
3B73
100
AcDbEntity
  8
寸法
  6
CONTINUOUS
100
AcDbDimension
  2
*D4
 10
167.197607
 20
258.788046
 30
0.0
 11
180.565605
 21
285.511289
 31
0.0
 70
   163
  3
STANDARD
100
AcDbDiametricDimension
 15
176.145293
 25
276.674882
 35
0.0
 40
0.0
1001
ACAD
1000
DSTYLE
1002
{
1070
   284
1070
    13
1070
   146
1040
0.5
1070
   272
1070
     3
1070
    40
1040
1.0
1070
   287
1070
     0
1002
}
  0
DIMENSION
  5
3B80
100
AcDbEntity
  8
寸法
  6
CONTINUOUS
100
AcDbDimension
  2
*D5
 10
286.174867
 20
226.599663
 30
0.0
 11
161.174867
 21
229.099663
 31
0.0
 70
    32
  3
STANDARD
100
AcDbAlignedDimension
 13
36.174867
 23
255.231464
 33
0.0
 14
286.174867
 24
258.731464
 34
0.0
100
AcDbRotatedDimension
1001
ACAD
1000
DSTYLE
1002
{
1070
   284
1070
    13
1070
   146
1040
0.5
1070
   272
1070
     3
1070
    40
1040
1.0
1070
   287
1070
     0
1002
}
  0
DIMENSION
  5
3B8F
100
AcDbEntity
  8
寸法
  6
CONTINUOUS
100
AcDbDimension
  2
*D6
 10
37.070491
 20
272.731464
 30
0.0
 11
19.574786
 21
272.701629
 31
0.0
 70
    34
  3
STANDARD
100
AcDb2LineAngularDimension
 13
36.574867
 23
255.231464
 33
0.0
 14
36.174867
 24
255.231464
 34
0.0
 15
36.175415
 25
255.652398
 35
0.0
 16
26.020119
 26
274.289308
 36
0.0
1001
ACAD
1000
DSTYLE
1002
{
1070
   284
1070
    13
1070
   146
1040
0.5
1070
   272
1070
     3
1070
    40
1040
1.0
1070
   287
1070
     0
1002
}
  0
DIMENSION
  5
3B9C
100
AcDbEntity
  8
寸法
  6
CONTINUOUS
100
AcDbDimension
  2
*D7
 10
26.3196
 20
255.231464
 30
0.0
 11
23.8196
 21
244.731464
 31
0.0
 70
    32
  3
STANDARD
100
AcDbAlignedDimension
 13
22.820467
 23
267.731464
 33
0.0
 14
35.153355
 24
255.231464
 34
0.0
 50
90.0
100
AcDbRotatedDimension
1001
ACAD
1000
DSTYLE
1002
{
1070
   284
1070
    13
1070
   146
1040
0.5
1070
   272
1070
     3
1070
    40
1040
1.0
1070
   287
1070
     0
1002
}
  0
CIRCLE
  5
3BF3
100
AcDbEntity
  8
外形
  6
CONTINUOUS
100
AcDbCircle
 10
41.381306
 20
263.032732
 30
0.0
 40
1.944
  0
LINE
  5
3BF4
100
AcDbEntity
  8
外形
  6
CONTINUOUS
100
AcDbLine
 10
40.206327
 20
263.032732
 30
0.0
 11
40.648519
 21
263.290956
 31
0.0
  0
LINE
  5
3BF5
100
AcDbEntity
  8
外形
  6
CONTINUOUS
100
AcDbLine
 10
40.648519
 20
262.774507
 30
0.0
 11
40.206327
 21
263.032732
 31
0.0
  0
ARC
  5
3BF6
100
AcDbEntity
  8
外形
  6
CONTINUOUS
100
AcDbCircle
 10
41.381306
 20
264.046581
 30
0.0
 40
0.288
100
AcDbArc
 50
240.283476
 51
299.716524
  0
ARC
  5
3BF7
100
AcDbEntity
  8
外形
  6
CONTINUOUS
100
AcDbCircle
 10
40.503287
 20
263.539656
 30
0.0
 40
0.288
100
AcDbArc
 50
300.283476
 51
359.716524
  0
ARC
  5
3BF8
100
AcDbEntity
  8
外形
  6
CONTINUOUS
100
AcDbCircle
 10
40.503287
 20
262.525807
 30
0.0
 40
0.288
100
AcDbArc
 50
0.283476
 51
59.716524
  0
ARC
  5
3BF9
100
AcDbEntity
  8
外形
  6
CONTINUOUS
100
AcDbCircle
 10
41.381306
 20
262.018882
 30
0.0
 40
0.288
100
AcDbArc
 50
60.283476
 51
119.716524
  0
ARC
  5
3BFA
100
AcDbEntity
  8
外形
  6
CONTINUOUS
100
AcDbCircle
 10
42.259325
 20
262.525807
 30
0.0
 40
0.288
100
AcDbArc
 50
120.283476
 51
179.716524
  0
ARC
  5
3BFB
100
AcDbEntity
  8
外形
  6
CONTINUOUS
100
AcDbCircle
 10
42.259325
 20
263.539656
 30
0.0
 40
0.288
100
AcDbArc
 50
180.283476
 51
239.716524
  0
LINE
  5
3BFC
100
AcDbEntity
  8
外形
  6
CONTINUOUS
100
AcDbLine
 10
41.968795
 20
262.01517
 30
0.0
 11
41.52407
 21
262.269007
 31
0.0
  0
LINE
  5
3BFD
100
AcDbEntity
  8
外形
  6
CONTINUOUS
100
AcDbLine
 10
41.971329
 20
262.527232
 30
0.0
 11
41.968795
 21
262.01517
 31
0.0
  0
LINE
  5
3BFE
100
AcDbEntity
  8
外形
  6
CONTINUOUS
100
AcDbLine
 10
40.793817
 20
262.01517
 30
0.0
 11
40.791283
 21
262.527232
 31
0.0
  0
LINE
  5
3BFF
100
AcDbEntity
  8
外形
  6
CONTINUOUS
100
AcDbLine
 10
41.238542
 20
262.269007
 30
0.0
 11
40.793817
 21
262.01517
 31
0.0
  0
LINE
  5
3C00
100
AcDbEntity
  8
外形
  6
CONTINUOUS
100
AcDbLine
 10
40.793817
 20
264.050293
 30
0.0
 11
41.238542
 21
263.796456
 31
0.0
  0
LINE
  5
3C01
100
AcDbEntity
  8
外形
  6
CONTINUOUS
100
AcDbLine
 10
40.791283
 20
263.538231
 30
0.0
 11
40.793817
 21
264.050293
 31
0.0
  0
LINE
  5
3C02
100
AcDbEntity
  8
外形
  6
CONTINUOUS
100
AcDbLine
 10
41.968795
 20
264.050293
 30
0.0
 11
41.971329
 21
263.538231
 31
0.0
  0
LINE
  5
3C03
100
AcDbEntity
  8
外形
  6
CONTINUOUS
100
AcDbLine
 10
41.52407
 20
263.796456
 30
0.0
 11
41.968795
 21
264.050293
 31
0.0
  0
LINE
  5
3C04
100
AcDbEntity
  8
外形
  6
CONTINUOUS
100
AcDbLine
 10
42.556285
 20
263.032732
 30
0.0
 11
42.114093
 21
262.774507
 31
0.0
  0
LINE
  5
3C05
100
AcDbEntity
  8
外形
  6
CONTINUOUS
100
AcDbLine
 10
42.114093
 20
263.290956
 30
0.0
 11
42.556285
 21
263.032732
 31
0.0
  0
DIMENSION
  5
3C4A
100
AcDbEntity
  8
寸法
  6
CONTINUOUS
100
AcDbDimension
  2
*D12
 10
-3.225437
 20
252.270663
 30
0.0
 11
-11.689999
 21
240.210266
 31
0.0
 70
    34
  3
STANDARD
100
AcDb2LineAngularDimension
 13
-3.225437
 23
255.231464
 33
0.0
 14
-2.063008
 24
277.411921
 34
0.0
 15
-3.225437
 25
283.192264
 35
0.0
 16
-3.560473
 26
236.037226
 36
0.0
1001
ACAD
1000
DSTYLE
1002
{
1070
   284
1070
    13
1070
   146
1040
0.5
1070
   272
1070
     3
1070
    40
1040
1.0
1070
   287
1070
     0
1002
}
  0
MTEXT
  5
3C88
100
AcDbEntity
  8
寸法
  6
BYBLOCK
 62
     3
100
AcDbMText
 10
11.921087
 20
284.752377
 30
0.0
 40
3.0
 41
0.0
 71
     5
 72
     1
  1
最小加工径
 11
0.581085
 21
0.813843
 31
0.0
  0
CIRCLE
  5
3C8A
100
AcDbEntity
  8
外形
  6
PHANTOM
 62
     1
100
AcDbCircle
 10
-3.225437
 20
267.731464
 30
0.0
 40
12.5
  0
DIMENSION
  5
3C95
100
AcDbEntity
  8
寸法
  6
CONTINUOUS
100
AcDbDimension
  2
*D13
 10
-10.455312
 20
257.534459
 30
0.0
 11
9.209949
 21
285.270312
 31
0.0
 70
   163
  3
STANDARD
100
AcDbDiametricDimension
 15
4.004439
 25
277.928468
 35
0.0
 40
0.0
1001
ACAD
1000
DSTYLE
1002
{
1070
   284
1070
    13
1070
   146
1040
0.5
1070
   272
1070
     3
1070
    40
1040
1.0
1070
   287
1070
     0
1002
}
  0
LINE
  5
3CA5
100
AcDbEntity
  8
外形
  6
CONTINUOUS
100
AcDbLine
 10
-2.3083
 20
272.731464
 30
0.0
 11
-12.364261
 21
273.258474
 31
0.0
  0
LINE
  5
3CA7
100
AcDbEntity
  8
外形
  6
CONTINUOUS
100
AcDbLine
 10
-2.3083
 20
272.731464
 30
0.0
 11
-0.012673
 21
276.936932
 31
0.0
  0
LINE
  5
3CC8
100
AcDbEntity
  8
外形
  6
CONTINUOUS
100
AcDbLine
 10
63.424867
 20
277.731464
 30
0.0
 11
63.424867
 21
272.090363
 31
0.0
  0
LINE
  5
3CC9
100
AcDbEntity
  8
外形
  6
CONTINUOUS
100
AcDbLine
 10
63.174867
 20
258.798577
 30
0.0
 11
63.174867
 21
260.668049
 31
0.0
  0
LINE
  5
3CCC
100
AcDbEntity
  8
外形
  6
CONTINUOUS
100
AcDbLine
 10
47.174867
 20
256.481464
 30
0.0
 11
49.174867
 21
256.656441
 31
0.0
  0
LINE
  5
3CCD
100
AcDbEntity
  8
外形
  6
CONTINUOUS
100
AcDbLine
 10
39.124161
 20
256.481464
 30
0.0
 11
47.174867
 21
256.481464
 31
0.0
  0
LINE
  5
3CD4
100
AcDbEntity
  8
外形
  6
CONTINUOUS
100
AcDbLine
 10
63.174867
 20
277.481464
 30
0.0
 11
63.424867
 21
277.731464
 31
0.0
  0
LINE
  5
3CD5
100
AcDbEntity
  8
外形
  6
CONTINUOUS
100
AcDbLine
 10
45.297732
 20
277.481464
 30
0.0
 11
63.174867
 21
277.481464
 31
0.0
  0
LINE
  5
3CDB
100
AcDbEntity
  8
外形
  6
CONTINUOUS
100
AcDbLine
 10
63.424867
 20
272.090363
 30
0.0
 11
63.174867
 21
271.481464
 31
0.0
  0
LINE
  5
3CDC
100
AcDbEntity
  8
外形
  6
CONTINUOUS
100
AcDbLine
 10
63.174867
 20
271.481464
 30
0.0
 11
61.193873
 21
271.481464
 31
0.0
  0
LINE
  5
3CDD
100
AcDbEntity
  8
外形
  6
CONTINUOUS
100
AcDbLine
 10
63.424867
 20
260.792224
 30
0.0
 11
63.424867
 21
258.707687
 31
0.0
  0
LINE
  5
3CDE
100
AcDbEntity
  8
外形
  6
CONTINUOUS
100
AcDbLine
 10
63.174867
 20
271.481464
 30
0.0
 11
63.174867
 21
277.481464
 31
0.0
  0
LINE
  5
3CDF
100
AcDbEntity
  8
外形
  6
CONTINUOUS
100
AcDbLine
 10
54.174867
 20
187.010476
 30
0.0
 11
54.174867
 21
192.200476
 31
0.0
  0
LINE
  5
3CE0
100
AcDbEntity
  8
外形
  6
CONTINUOUS
100
AcDbLine
 10
53.202189
 20
190.814476
 30
0.0
 11
53.202189
 21
186.037799
 31
0.0
  0
LINE
  5
3CE1
100
AcDbEntity
  8
外形
  6
CONTINUOUS
100
AcDbLine
 10
63.424867
 20
203.604072
 30
0.0
 11
63.424867
 21
201.035476
 31
0.0
  0
LINE
  5
3CE2
100
AcDbEntity
  8
外形
  6
CONTINUOUS
100
AcDbLine
 10
63.174867
 20
187.760476
 30
0.0
 11
63.174867
 21
192.304399
 31
0.0
  0
LINE
  5
3CE4
100
AcDbEntity
  8
外形
  6
CONTINUOUS
100
AcDbLine
 10
47.174867
 20
197.236796
 30
0.0
 11
47.174867
 21
185.510476
 31
0.0
  0
LINE
  5
3CE5
100
AcDbEntity
  8
外形
  6
CONTINUOUS
100
AcDbLine
 10
47.174867
 20
185.510476
 30
0.0
 11
53.202189
 21
186.037799
 31
0.0
  0
LINE
  5
3CE6
100
AcDbEntity
  8
外形
  6
CONTINUOUS
100
AcDbLine
 10
38.361645
 20
185.510476
 30
0.0
 11
47.174867
 21
185.510476
 31
0.0
  0
LINE
  5
3CE7
100
AcDbEntity
  8
外形
  6
CONTINUOUS
100
AcDbLine
 10
53.202189
 20
186.037799
 30
0.0
 11
54.174867
 21
187.010476
 31
0.0
  0
ARC
  5
3CF5
100
AcDbEntity
  8
外形
  6
CONTINUOUS
100
AcDbCircle
 10
58.174867
 20
244.656441
 30
0.0
 40
15.0
100
AcDbArc
 50
60.653075
 51
126.869898
  0
LINE
  5
3D17
100
AcDbEntity
  8
外形
  6
CONTINUOUS
100
AcDbLine
 10
53.202189
 20
190.814476
 30
0.0
 11
54.174867
 21
192.200476
 31
0.0
  0
SPLINE
  5
3D25
100
AcDbEntity
  8
外形
  6
CONTINUOUS
100
AcDbSpline
210
0.0
220
0.0
230
-1.0
 70
     8
 71
     3
 72
     9
 73
     5
 74
     0
 42
0.0000001
 43
0.0000001
 40
6.23184628945599
 40
6.23184628945599
 40
6.23184628945599
 40
6.23184628945599
 40
7.181520838200104
 40
14.3630416764002
 40
14.3630416764002
 40
14.3630416764002
 40
14.3630416764002
 10
49.27584906078099
 20
197.5467671972408
 30
0.0
 10
49.21007956164503
 20
197.2846702127694
 30
0.0
 10
48.90858273465833
 20
195.0405732282979
 30
0.0
 10
51.18852774162888
 20
192.7964762438265
 30
0.0
 10
53.20218893144597
 20
190.8144762438265
 30
0.0
  0
SPLINE
  5
3D26
100
AcDbEntity
  8
外形
  6
CONTINUOUS
100
AcDbSpline
210
0.0
220
0.0
230
-1.0
 70
     8
 71
     3
 72
    12
 73
     8
 74
     0
 42
0.0000001
 43
0.0000001
 40
6.42398133716329
 40
6.42398133716329
 40
6.42398133716329
 40
6.42398133716329
 40
9.483836435221803
 40
14.24741776625828
 40
19.01099909729476
 40
24.39395562693532
 40
28.49483553251655
 40
28.49483553251655
 40
28.49483553251655
 40
28.49483553251655
 10
60.57484329103234
 20
202.1767541978547
 30
0.0
 10
61.61687991995335
 20
202.0201267491527
 30
0.0
 10
64.1572775055355
 20
201.1129934995286
 30
0.0
 10
66.35990150360425
 20
196.7604762438265
 30
0.0
 10
63.75075396988451
 20
191.6046440758557
 30
0.0
 10
58.49095280175649
 20
190.9250317739533
 30
0.0
 10
55.47778307425631
 20
191.8154520397158
 30
0.0
 10
54.17486655181187
 20
192.2004762438265
 30
0.0
  0
LINE
  5
3D27
100
AcDbEntity
  8
外形
  6
CONTINUOUS
100
AcDbLine
 10
63.424867
 20
192.485476
 30
0.0
 11
63.424867
 21
187.760476
 31
0.0
  0
LINE
  5
3D28
100
AcDbEntity
  8
外形
  6
CONTINUOUS
100
AcDbLine
 10
63.174867
 20
201.216553
 30
0.0
 11
63.174867
 21
203.477367
 31
0.0
  0
DIMENSION
  5
3D35
100
AcDbEntity
  8
寸法
  6
CONTINUOUS
100
AcDbDimension
  2
*D14
 10
54.174867
 20
169.184003
 30
0.0
 11
45.174867
 21
171.684003
 31
0.0
 70
    32
  3
STANDARD
100
AcDbAlignedDimension
 13
36.174867
 23
196.760476
 33
0.0
 14
54.174867
 24
187.010476
 34
0.0
100
AcDbRotatedDimension
1001
ACAD
1000
DSTYLE
1002
{
1070
   284
1070
    13
1070
   146
1040
0.5
1070
   272
1070
     3
1070
    40
1040
1.0
1070
   287
1070
     0
1002
}
  0
ENDSEC
  0
SECTION
  2
OBJECTS
  0
DICTIONARY
  5
1E
100
AcDbDictionary
  3
ACAD_GROUP
350
1C
  3
ACAD_MLINESTYLE
350
1D
  3
ACDBVARIABLEDICTIONARY
350
147A
  3
DRAWINGVARIABLESDICT
350
C58
  0
DICTIONARY
  5
38
100
AcDbDictionary
280
     1
  3
ACAD_XREC_ROUNDTRIP
360
39
  0
DICTIONARY
  5
22
100
AcDbDictionary
280
     1
  3
ACAD_XREC_ROUNDTRIP
360
23
  0
DICTIONARY
  5
3
100
AcDbDictionary
280
     1
  3
ACAD_LAYOUTSELFREF
360
4
  0
DICTIONARY
  5
A
100
AcDbDictionary
280
     1
  3
ACAD_LAYOUTSELFREF
360
B
  0
DICTIONARY
  5
1C
102
{ACAD_REACTORS
330
1E
102
}
100
AcDbDictionary
  0
DICTIONARY
  5
1D
102
{ACAD_REACTORS
330
1E
102
}
100
AcDbDictionary
  3
STANDARD
350
20
  0
DICTIONARY
  5
147A
102
{ACAD_REACTORS
330
1E
102
}
100
AcDbDictionary
  3
SORTENTS
350
147B
  0
DICTIONARY
  5
C58
102
{ACAD_REACTORS
330
1E
102
}
100
AcDbDictionary
1001
DRAWINGVARIABLESXDATA
1000
POLARMODE
1000
0
  0
XRECORD
  5
39
102
{ACAD_REACTORS
330
38
102
}
100
AcDbXrecord
102
PLOTBIT
280
     0
  0
XRECORD
  5
23
102
{ACAD_REACTORS
330
22
102
}
100
AcDbXrecord
102
ACADR14ROUNDTRIP
1000
DSTYLE
1002
{
1070
   341
340
0
1070
   343
340
0
1070
   344
340
0
1002
}
  0
XRECORD
  5
4
102
{ACAD_REACTORS
330
3
102
}
100
AcDbXrecord
340
2
  0
XRECORD
  5
B
102
{ACAD_REACTORS
330
A
102
}
100
AcDbXrecord
340
9
  0
MLINESTYLE
  5
20
102
{ACAD_REACTORS
330
1D
102
}
100
AcDbMlineStyle
  2
STANDARD
 70
     0
  3

 62
     0
 51
90.0
 52
90.0
 71
     2
 49
0.5
 62
   256
  6
BYLAYER
 49
-0.5
 62
   256
  6
BYLAYER
  0
DICTIONARYVAR
  5
147B
102
{ACAD_REACTORS
330
147A
102
}
100
DictionaryVariables
280
     0
  1
96
  0
ENDSEC
  0
EOF
