  0
SECTION
  2
HEADER
  9
$ACADVER
  1
AC1014
  9
$ACADMAINTVER
 70
     0
  9
$DWGCODEPAGE
  3
ANSI_932
  9
$INSBASE
 10
-587.250952
 20
747.890188
 30
0.0
  9
$EXTMIN
 10
20.198885
 20
150.213866
 30
0.0
  9
$EXTMAX
 10
166.050885
 20
233.78088
 30
0.0
  9
$LIMMIN
 10
-587.250952
 20
327.890188
  9
$LIMMAX
 10
600.749048
 20
957.890188
  9
$ORTHOMODE
 70
     0
  9
$REGENMODE
 70
     1
  9
$FILLMODE
 70
     1
  9
$QTEXTMODE
 70
     0
  9
$MIRRTEXT
 70
     1
  9
$DRAGMODE
 70
     2
  9
$LTSCALE
 40
5.0
  9
$OSMODE
 70
    37
  9
$ATTMODE
 70
     1
  9
$TEXTSIZE
 40
5.0
  9
$TRACEWID
 40
0.05
  9
$TEXTSTYLE
  7
STANDARD
  9
$CLAYER
  8
外形
  9
$CELTYPE
  6
CONTINUOUS
  9
$CECOLOR
 62
   256
  9
$CELTSCALE
 40
1.0
  9
$DELOBJ
 70
     1
  9
$DISPSILH
 70
     0
  9
$DIMSCALE
 40
1.0
  9
$DIMASZ
 40
1.0
  9
$DIMEXO
 40
1.0
  9
$DIMDLI
 40
8.0
  9
$DIMRND
 40
0.0
  9
$DIMDLE
 40
0.0
  9
$DIMEXE
 40
2.0
  9
$DIMTP
 40
0.0
  9
$DIMTM
 40
0.0
  9
$DIMTXT
 40
1.5
  9
$DIMCEN
 40
-1.0
  9
$DIMTSZ
 40
0.0
  9
$DIMTOL
 70
     0
  9
$DIMLIM
 70
     0
  9
$DIMTIH
 70
     0
  9
$DIMTOH
 70
     0
  9
$DIMSE1
 70
     0
  9
$DIMSE2
 70
     0
  9
$DIMTAD
 70
     1
  9
$DIMZIN
 70
     8
  9
$DIMBLK
  1

  9
$DIMASO
 70
     1
  9
$DIMSHO
 70
     1
  9
$DIMPOST
  1

  9
$DIMAPOST
  1

  9
$DIMALT
 70
     0
  9
$DIMALTD
 70
     2
  9
$DIMALTF
 40
25.4
  9
$DIMLFAC
 40
1.0
  9
$DIMTOFL
 70
     1
  9
$DIMTVP
 40
0.0
  9
$DIMTIX
 70
     0
  9
$DIMSOXD
 70
     0
  9
$DIMSAH
 70
     1
  9
$DIMBLK1
  1
_DOTSMALL
  9
$DIMBLK2
  1
_DOTSMALL
  9
$DIMSTYLE
  2
STANDARD
  9
$DIMCLRD
 70
     2
  9
$DIMCLRE
 70
     2
  9
$DIMCLRT
 70
     2
  9
$DIMTFAC
 40
1.0
  9
$DIMGAP
 40
1.0
  9
$DIMJUST
 70
     0
  9
$DIMSD1
 70
     0
  9
$DIMSD2
 70
     0
  9
$DIMTOLJ
 70
     1
  9
$DIMTZIN
 70
     8
  9
$DIMALTZ
 70
     0
  9
$DIMALTTZ
 70
     0
  9
$DIMFIT
 70
     3
  9
$DIMUPT
 70
     0
  9
$DIMUNIT
 70
     2
  9
$DIMDEC
 70
     3
  9
$DIMTDEC
 70
     2
  9
$DIMALTU
 70
     2
  9
$DIMALTTD
 70
     2
  9
$DIMTXSTY
  7
STANDARD
  9
$DIMAUNIT
 70
     0
  9
$LUNITS
 70
     2
  9
$LUPREC
 70
     0
  9
$SKETCHINC
 40
0.1
  9
$FILLETRAD
 40
0.0
  9
$AUNITS
 70
     0
  9
$AUPREC
 70
     0
  9
$MENU
  1
acad
  9
$ELEVATION
 40
0.0
  9
$PELEVATION
 40
0.0
  9
$THICKNESS
 40
0.0
  9
$LIMCHECK
 70
     0
  9
$BLIPMODE
 70
     0
  9
$CHAMFERA
 40
1.5
  9
$CHAMFERB
 40
1.5
  9
$CHAMFERC
 40
0.0
  9
$CHAMFERD
 40
0.0
  9
$SKPOLY
 70
     0
  9
$TDCREATE
 40
2450751.535399305
  9
$TDUPDATE
 40
2452009.721157407
  9
$TDINDWG
 40
1.9886900463
  9
$TDUSRTIMER
 40
1.9886900463
  9
$USRTIMER
 70
     1
  9
$ANGBASE
 50
0.0
  9
$ANGDIR
 70
     0
  9
$PDMODE
 70
    32
  9
$PDSIZE
 40
0.0
  9
$PLINEWID
 40
0.0
  9
$COORDS
 70
     2
  9
$SPLFRAME
 70
     0
  9
$SPLINETYPE
 70
     5
  9
$SPLINESEGS
 70
     8
  9
$ATTDIA
 70
     0
  9
$ATTREQ
 70
     1
  9
$HANDLING
 70
     1
  9
$HANDSEED
  5
20D4
  9
$SURFTAB1
 70
     6
  9
$SURFTAB2
 70
     6
  9
$SURFTYPE
 70
     6
  9
$SURFU
 70
     6
  9
$SURFV
 70
     6
  9
$UCSNAME
  2

  9
$UCSORG
 10
40.53800450572526
 20
146.9196145921314
 30
0.0
  9
$UCSXDIR
 10
1.0
 20
0.0
 30
0.0
  9
$UCSYDIR
 10
0.0
 20
1.0
 30
0.0
  9
$PUCSNAME
  2

  9
$PUCSORG
 10
0.0
 20
0.0
 30
0.0
  9
$PUCSXDIR
 10
1.0
 20
0.0
 30
0.0
  9
$PUCSYDIR
 10
0.0
 20
1.0
 30
0.0
  9
$USERI1
 70
     0
  9
$USERI2
 70
     0
  9
$USERI3
 70
     0
  9
$USERI4
 70
     0
  9
$USERI5
 70
     0
  9
$USERR1
 40
0.0
  9
$USERR2
 40
0.0
  9
$USERR3
 40
0.0
  9
$USERR4
 40
0.0
  9
$USERR5
 40
0.0
  9
$WORLDVIEW
 70
     1
  9
$SHADEDGE
 70
     3
  9
$SHADEDIF
 70
    70
  9
$TILEMODE
 70
     1
  9
$MAXACTVP
 70
    16
  9
$PINSBASE
 10
0.0
 20
0.0
 30
0.0
  9
$PLIMCHECK
 70
     0
  9
$PEXTMIN
 10
1.000000E+20
 20
1.000000E+20
 30
1.000000E+20
  9
$PEXTMAX
 10
-1.000000E+20
 20
-1.000000E+20
 30
-1.000000E+20
  9
$PLIMMIN
 10
0.0
 20
0.0
  9
$PLIMMAX
 10
12.0
 20
9.0
  9
$UNITMODE
 70
     0
  9
$VISRETAIN
 70
     0
  9
$PLINEGEN
 70
     0
  9
$PSLTSCALE
 70
     1
  9
$TREEDEPTH
 70
  3020
  9
$PICKSTYLE
 70
     1
  9
$CMLSTYLE
  2
STANDARD
  9
$CMLJUST
 70
     0
  9
$CMLSCALE
 40
1.0
  9
$PROXYGRAPHICS
 70
     1
  9
$MEASUREMENT
 70
     0
  0
ENDSEC
  0
SECTION
  2
CLASSES
  0
CLASS
  1
LWPOLYLINE
  2
AcDbPolyline
  3
"AutoCAD"
 90
        0
280
     0
281
     1
  0
CLASS
  1
ACDBDICTIONARYWDFLT
  2
AcDbDictionaryWithDefault
  3
AutoCAD 2000
 90
        0
280
     1
281
     0
  0
CLASS
  1
ACDBPLACEHOLDER
  2
AcDbPlaceHolder
  3
AutoCAD 2000
 90
        0
280
     1
281
     0
  0
CLASS
  1
LAYOUT
  2
AcDbLayout
  3
AutoCAD 2000
 90
        0
280
     1
281
     0
  0
CLASS
  1
LONG_TRANSACTION
  2
AcDbLongTransaction
  3
AutoCAD 2000
 90
        0
280
     1
281
     0
  0
CLASS
  1
LWPOLYLINE
  2
AcDbPolyline
  3
"AutoCAD"
 90
        0
280
     0
281
     1
  0
CLASS
  1
HATCH
  2
AcDbHatch
  3
"ACAD_SEDONA"
 90
        0
280
     0
281
     1
  0
CLASS
  1
XRECORD
  2
AcDbXrecord
  3
"<Built In>"
 90
        0
280
     0
281
     0
  0
CLASS
  1
DICTIONARYVAR
  2
AcDbDictionaryVar
  3
"AutoCAD"
 90
        0
280
     0
281
     0
  0
ENDSEC
  0
SECTION
  2
TABLES
  0
TABLE
  2
VPORT
  5
16
100
AcDbSymbolTable
 70
     1
  0
VPORT
  5
20CF
100
AcDbSymbolTableRecord
100
AcDbViewportTableRecord
  2
*ACTIVE
 70
     0
 10
0.0
 20
0.0
 11
1.0
 21
1.0
 12
92.001607
 22
195.233653
 13
0.0
 23
0.0
 14
1.0
 24
1.0
 15
10.0
 25
10.0
 16
0.0
 26
0.0
 36
1.0
 17
0.0
 27
0.0
 37
0.0
 40
111.917897
 41
1.710425
 42
50.0
 43
0.0
 44
0.0
 50
0.0
 51
0.0
 71
     0
 72
   100
 73
     1
 74
     1
 75
     0
 76
     0
 77
     0
 78
     2
  0
ENDTAB
  0
TABLE
  2
LTYPE
  5
11
100
AcDbSymbolTable
 70
     3
  0
LTYPE
  5
12
100
AcDbSymbolTableRecord
100
AcDbLinetypeTableRecord
  2
BYBLOCK
 70
     0
  3

 72
    65
 73
     0
 40
0.0
  0
LTYPE
  5
13
100
AcDbSymbolTableRecord
100
AcDbLinetypeTableRecord
  2
BYLAYER
 70
     0
  3

 72
    65
 73
     0
 40
0.0
  0
LTYPE
  5
7
100
AcDbSymbolTableRecord
100
AcDbLinetypeTableRecord
  2
CONTINUOUS
 70
     0
  3
Solid line
 72
    65
 73
     0
 40
0.0
  0
LTYPE
  5
AA
100
AcDbSymbolTableRecord
100
AcDbLinetypeTableRecord
  2
CENTER
 70
     0
  3
Center ____ _ ____ _ ____ _ ____ _ ____ _ ____
 72
    65
 73
     4
 40
2.0
 49
1.25
 74
     0
 49
-0.25
 74
     0
 49
0.25
 74
     0
 49
-0.25
 74
     0
  0
LTYPE
  5
1FC7
100
AcDbSymbolTableRecord
100
AcDbLinetypeTableRecord
  2
PHANTOM
 70
     0
  3
Phantom ______  __  __  ______  __  __  ______
 72
    65
 73
     6
 40
2.5
 49
1.25
 74
     0
 49
-0.25
 74
     0
 49
0.25
 74
     0
 49
-0.25
 74
     0
 49
0.25
 74
     0
 49
-0.25
 74
     0
  0
ENDTAB
  0
TABLE
  2
LAYER
  5
E
100
AcDbSymbolTable
 70
     5
  0
LAYER
  5
6
100
AcDbSymbolTableRecord
100
AcDbLayerTableRecord
  2
0
 70
     0
 62
     7
  6
CONTINUOUS
  0
LAYER
  5
2C
100
AcDbSymbolTableRecord
100
AcDbLayerTableRecord
  2
外形
 70
     0
 62
     3
  6
CONTINUOUS
  0
LAYER
  5
37
102
{ACAD_XDICTIONARY
360
38
102
}
100
AcDbSymbolTableRecord
100
AcDbLayerTableRecord
  2
DEFPOINTS
 70
     0
 62
     7
  6
CONTINUOUS
  0
LAYER
  5
1F
100
AcDbSymbolTableRecord
100
AcDbLayerTableRecord
  2
寸法
 70
     0
 62
     1
  6
CONTINUOUS
  0
LAYER
  5
673
100
AcDbSymbolTableRecord
100
AcDbLayerTableRecord
  2
参考
 70
     0
 62
     2
  6
CONTINUOUS
  0
ENDTAB
  0
TABLE
  2
STYLE
  5
F
100
AcDbSymbolTable
 70
     1
  0
STYLE
  5
10
100
AcDbSymbolTableRecord
100
AcDbTextStyleTableRecord
  2
STANDARD
 70
     0
 40
0.0
 41
1.0
 50
0.0
 71
     0
 42
5.0
  3
MONOTXT
  4
BIGFONT
  0
ENDTAB
  0
TABLE
  2
VIEW
  5
14
100
AcDbSymbolTable
 70
     0
  0
ENDTAB
  0
TABLE
  2
UCS
  5
15
100
AcDbSymbolTable
 70
     0
  0
ENDTAB
  0
TABLE
  2
APPID
  5
18
100
AcDbSymbolTable
 70
     2
  0
APPID
  5
19
100
AcDbSymbolTableRecord
100
AcDbRegAppTableRecord
  2
ACAD
 70
     0
  0
APPID
  5
C59
100
AcDbSymbolTableRecord
100
AcDbRegAppTableRecord
  2
DRAWINGVARIABLESXDATA
 70
     0
  0
ENDTAB
  0
TABLE
  2
DIMSTYLE
  5
1A
100
AcDbSymbolTable
 70
     1
  0
DIMSTYLE
105
21
102
{ACAD_XDICTIONARY
360
22
102
}
102
{ACAD_REACTORS
330
1ED0
330
1EDD
330
1EEC
330
1F04
330
1F1D
330
1F54
330
1F9A
330
1FD2
330
20AF
102
}
100
AcDbSymbolTableRecord
100
AcDbDimStyleTableRecord
  2
STANDARD
 70
     0
  3

  4

  5

  6
_OPEN30
  7
_OPEN30
 40
0.0
 41
2.0
 42
1.0
 43
8.0
 44
2.0
 45
0.0
 46
0.0
 47
0.0
 48
0.0
140
3.0
141
-1.0
142
0.0
143
25.4
144
1.0
145
0.0
146
1.0
147
1.0
 71
     0
 72
     0
 73
     0
 74
     0
 75
     0
 76
     0
 77
     1
 78
     8
170
     0
171
     2
172
     1
173
     1
174
     0
175
     0
176
     1
177
     1
178
     3
270
     2
271
     2
272
     2
273
     2
274
     2
340
10
275
     0
280
     0
281
     0
282
     0
283
     1
284
     8
285
     0
286
     0
287
     3
288
     0
  0
ENDTAB
  0
TABLE
  2
BLOCK_RECORD
  5
1
100
AcDbSymbolTable
 70
    11
  0
BLOCK_RECORD
  5
2
102
{ACAD_XDICTIONARY
360
3
102
}
100
AcDbSymbolTableRecord
100
AcDbBlockTableRecord
  2
*MODEL_SPACE
  0
BLOCK_RECORD
  5
9
102
{ACAD_XDICTIONARY
360
A
102
}
100
AcDbSymbolTableRecord
100
AcDbBlockTableRecord
  2
*PAPER_SPACE
  0
BLOCK_RECORD
  5
24
100
AcDbSymbolTableRecord
100
AcDbBlockTableRecord
  2
_DOTSMALL
  0
BLOCK_RECORD
  5
470
100
AcDbSymbolTableRecord
100
AcDbBlockTableRecord
  2
_OPEN30
  0
BLOCK_RECORD
  5
1EC0
100
AcDbSymbolTableRecord
100
AcDbBlockTableRecord
  2
*D2
  0
BLOCK_RECORD
  5
1ED1
100
AcDbSymbolTableRecord
100
AcDbBlockTableRecord
  2
*D3
  0
BLOCK_RECORD
  5
1EDE
100
AcDbSymbolTableRecord
100
AcDbBlockTableRecord
  2
*D4
  0
BLOCK_RECORD
  5
1EF8
100
AcDbSymbolTableRecord
100
AcDbBlockTableRecord
  2
*D5
  0
BLOCK_RECORD
  5
1F11
100
AcDbSymbolTableRecord
100
AcDbBlockTableRecord
  2
*D6
  0
BLOCK_RECORD
  5
1F4A
100
AcDbSymbolTableRecord
100
AcDbBlockTableRecord
  2
*D7
  0
BLOCK_RECORD
  5
1F8A
100
AcDbSymbolTableRecord
100
AcDbBlockTableRecord
  2
*D8
  0
BLOCK_RECORD
  5
1FC8
100
AcDbSymbolTableRecord
100
AcDbBlockTableRecord
  2
*D9
  0
BLOCK_RECORD
  5
20A3
100
AcDbSymbolTableRecord
100
AcDbBlockTableRecord
  2
*D10
  0
ENDTAB
  0
ENDSEC
  0
SECTION
  2
BLOCKS
  0
BLOCK
  5
5
100
AcDbEntity
  8
0
100
AcDbBlockBegin
  2
*MODEL_SPACE
 70
     0
 10
0.0
 20
0.0
 30
0.0
  3
*MODEL_SPACE
  1

  0
ENDBLK
  5
8
100
AcDbEntity
  8
0
100
AcDbBlockEnd
  0
BLOCK
  5
C
100
AcDbEntity
 67
     1
  8
0
100
AcDbBlockBegin
  2
*PAPER_SPACE
 70
     0
 10
0.0
 20
0.0
 30
0.0
  3
*PAPER_SPACE
  1

  0
ENDBLK
  5
D
100
AcDbEntity
 67
     1
  8
0
100
AcDbBlockEnd
  0
BLOCK
  5
29
100
AcDbEntity
  8
0
100
AcDbBlockBegin
  2
_DOTSMALL
 70
     0
 10
0.0
 20
0.0
 30
0.0
  3
_DOTSMALL
  1

  0
POLYLINE
  5
25
100
AcDbEntity
  8
0
  6
BYBLOCK
 62
     0
100
AcDb2dPolyline
 66
     1
 10
0.0
 20
0.0
 30
0.0
 70
     1
 40
0.5
 41
0.5
  0
VERTEX
  5
26
100
AcDbEntity
  8
0
  6
BYBLOCK
 62
     0
100
AcDbVertex
100
AcDb2dVertex
 10
-0.0625
 20
0.0
 30
0.0
 42
1.0
  0
VERTEX
  5
27
100
AcDbEntity
  8
0
  6
BYBLOCK
 62
     0
100
AcDbVertex
100
AcDb2dVertex
 10
0.0625
 20
0.0
 30
0.0
 42
1.0
  0
SEQEND
  5
28
100
AcDbEntity
  8
0
  6
BYBLOCK
 62
     0
  0
ENDBLK
  5
2A
100
AcDbEntity
  8
0
100
AcDbBlockEnd
  0
BLOCK
  5
471
100
AcDbEntity
  8
0
100
AcDbBlockBegin
  2
_OPEN30
 70
     0
 10
0.0
 20
0.0
 30
0.0
  3
_OPEN30
  1

  0
LINE
  5
472
100
AcDbEntity
  8
0
  6
BYBLOCK
 62
     0
100
AcDbLine
 10
-1.0
 20
0.267949
 30
0.0
 11
0.0
 21
0.0
 31
0.0
  0
LINE
  5
473
100
AcDbEntity
  8
0
  6
BYBLOCK
 62
     0
100
AcDbLine
 10
0.0
 20
0.0
 30
0.0
 11
-1.0
 21
-0.267949
 31
0.0
  0
LINE
  5
474
100
AcDbEntity
  8
0
  6
BYBLOCK
 62
     0
100
AcDbLine
 10
0.0
 20
0.0
 30
0.0
 11
-1.0
 21
0.0
 31
0.0
  0
ENDBLK
  5
475
100
AcDbEntity
  8
0
100
AcDbBlockEnd
  0
BLOCK
  5
1F79
100
AcDbEntity
  8
0
100
AcDbBlockBegin
  2
*D2
 70
     1
 10
0.0
 20
0.0
 30
0.0
  3
*D2
  1

  0
LINE
  5
1F7A
100
AcDbEntity
  8
0
  6
BYBLOCK
 62
     1
100
AcDbLine
 10
49.456645
 20
289.927
 30
0.0
 11
47.603952
 21
279.419857
 31
0.0
  0
LINE
  5
1F7B
100
AcDbEntity
  8
0
  6
BYBLOCK
 62
     1
100
AcDbLine
 10
49.630293
 20
287.717704
 30
0.0
 11
49.630293
 21
279.242575
 31
0.0
  0
ARC
  5
1F7C
100
AcDbEntity
  8
0
  6
BYBLOCK
 62
     1
100
AcDbCircle
 10
49.630293
 20
290.911807
 30
0.0
 40
9.669233
100
AcDbArc
 50
236.125343
 51
260.0
  0
LINE
  5
1F7D
100
AcDbEntity
  8
0
  6
BYBLOCK
 62
     1
100
AcDbLine
 10
44.240876
 20
282.883841
 30
0.0
 11
34.609873
 21
289.349425
 31
0.0
  0
ARC
  5
1F7E
100
AcDbEntity
  8
0
  6
BYBLOCK
 62
     1
100
AcDbCircle
 10
49.630293
 20
290.911807
 30
0.0
 40
9.669233
100
AcDbArc
 50
236.255236
 51
248.127618
  0
ARC
  5
1F7F
100
AcDbEntity
  8
0
  6
BYBLOCK
 62
     1
100
AcDbCircle
 10
49.630293
 20
290.911807
 30
0.0
 40
9.669233
100
AcDbArc
 50
281.872382
 51
293.744764
  0
ARC
  5
1F80
100
AcDbEntity
  8
0
  6
BYBLOCK
 62
     1
100
AcDbCircle
 10
49.630293
 20
290.911807
 30
0.0
 40
9.669233
100
AcDbArc
 50
260.0
 51
270.0
  0
INSERT
  5
1F81
100
AcDbEntity
  8
0
  6
BYBLOCK
 62
     1
100
AcDbBlockReference
  2
_OPEN30
 10
47.951248
 20
281.389472
 30
0.0
 41
2.0
 42
2.0
 43
2.0
 50
344.063809
  0
INSERT
  5
1F82
100
AcDbEntity
  8
0
  6
BYBLOCK
 62
     1
100
AcDbBlockReference
  2
_OPEN30
 10
49.630293
 20
281.242575
 30
0.0
 41
2.0
 42
2.0
 43
2.0
 50
185.936191
  0
MTEXT
  5
1F83
100
AcDbEntity
  8
0
  6
BYBLOCK
 62
     3
100
AcDbMText
 10
40.818819
 20
288.19228
 30
0.0
 40
3.0
 41
0.0
 71
     5
 72
     1
  1
\A1;10°
 11
0.830259
 21
-0.557378
 31
0.0
  0
POINT
  5
1F84
100
AcDbEntity
  8
DEFPOINTS
  6
BYBLOCK
 62
     0
100
AcDbPoint
 10
49.068077
 20
281.258934
 30
0.0
  0
POINT
  5
1F85
100
AcDbEntity
  8
DEFPOINTS
  6
BYBLOCK
 62
     0
100
AcDbPoint
 10
49.630293
 20
303.105911
 30
0.0
  0
POINT
  5
1F86
100
AcDbEntity
  8
DEFPOINTS
  6
BYBLOCK
 62
     0
100
AcDbPoint
 10
49.630293
 20
290.911807
 30
0.0
  0
POINT
  5
1F87
100
AcDbEntity
  8
DEFPOINTS
  6
BYBLOCK
 62
     0
100
AcDbPoint
 10
51.207784
 20
299.858201
 30
0.0
  0
POINT
  5
1F88
100
AcDbEntity
  8
DEFPOINTS
  6
BYBLOCK
 62
     0
100
AcDbPoint
 10
49.630293
 20
288.717704
 30
0.0
  0
ENDBLK
  5
1F89
100
AcDbEntity
  8
0
100
AcDbBlockEnd
  0
BLOCK
  5
1F5F
100
AcDbEntity
  8
0
100
AcDbBlockBegin
  2
*D3
 70
     1
 10
0.0
 20
0.0
 30
0.0
  3
*D3
  1

  0
LINE
  5
1F60
100
AcDbEntity
  8
0
  6
BYBLOCK
 62
     1
100
AcDbLine
 10
69.147853
 20
290.911807
 30
0.0
 11
63.119269
 21
290.911807
 31
0.0
  0
LINE
  5
1F61
100
AcDbEntity
  8
0
  6
BYBLOCK
 62
     1
100
AcDbLine
 10
66.256139
 20
295.911807
 30
0.0
 11
63.119269
 21
295.911807
 31
0.0
  0
LINE
  5
1F62
100
AcDbEntity
  8
0
  6
BYBLOCK
 62
     1
100
AcDbLine
 10
65.119269
 20
288.911807
 30
0.0
 11
65.119269
 21
286.911807
 31
0.0
  0
LINE
  5
1F63
100
AcDbEntity
  8
0
  6
BYBLOCK
 62
     1
100
AcDbLine
 10
65.119269
 20
297.911807
 30
0.0
 11
65.119269
 21
299.911807
 31
0.0
  0
LINE
  5
1F64
100
AcDbEntity
  8
0
  6
BYBLOCK
 62
     1
100
AcDbLine
 10
65.119269
 20
290.911807
 30
0.0
 11
65.119269
 21
295.911807
 31
0.0
  0
INSERT
  5
1F65
100
AcDbEntity
  8
0
  6
BYBLOCK
 62
     1
100
AcDbBlockReference
  2
_OPEN30
 10
65.119269
 20
290.911807
 30
0.0
 41
2.0
 42
2.0
 43
2.0
 50
90.0
  0
INSERT
  5
1F66
100
AcDbEntity
  8
0
  6
BYBLOCK
 62
     1
100
AcDbBlockReference
  2
_OPEN30
 10
65.119269
 20
295.911807
 30
0.0
 41
2.0
 42
2.0
 43
2.0
 50
270.0
  0
MTEXT
  5
1F67
100
AcDbEntity
  8
0
  6
BYBLOCK
 62
     3
100
AcDbMText
 10
62.619269
 20
293.411807
 30
0.0
 40
3.0
 41
0.0
 71
     5
 72
     1
  1
\A1;5
 11
0.0
 21
1.0
 31
0.0
  0
POINT
  5
1F68
100
AcDbEntity
  8
DEFPOINTS
  6
BYBLOCK
 62
     0
100
AcDbPoint
 10
70.147853
 20
290.911807
 30
0.0
  0
POINT
  5
1F69
100
AcDbEntity
  8
DEFPOINTS
  6
BYBLOCK
 62
     0
100
AcDbPoint
 10
67.256139
 20
295.911807
 30
0.0
  0
POINT
  5
1F6A
100
AcDbEntity
  8
DEFPOINTS
  6
BYBLOCK
 62
     0
100
AcDbPoint
 10
65.119269
 20
295.911807
 30
0.0
  0
ENDBLK
  5
1F6B
100
AcDbEntity
  8
0
100
AcDbBlockEnd
  0
BLOCK
  5
1F6C
100
AcDbEntity
  8
0
100
AcDbBlockBegin
  2
*D4
 70
     1
 10
0.0
 20
0.0
 30
0.0
  3
*D4
  1

  0
LINE
  5
1F6D
100
AcDbEntity
  8
0
  6
BYBLOCK
 62
     1
100
AcDbLine
 10
70.674205
 20
301.160437
 30
0.0
 11
70.79732
 21
303.509619
 31
0.0
  0
LINE
  5
1F6E
100
AcDbEntity
  8
0
  6
BYBLOCK
 62
     1
100
AcDbLine
 10
69.137097
 20
290.911807
 30
0.0
 11
57.521996
 21
290.911807
 31
0.0
  0
ARC
  5
1F6F
100
AcDbEntity
  8
0
  6
BYBLOCK
 62
     1
100
AcDbCircle
 10
70.137097
 20
290.911807
 30
0.0
 40
10.615101
100
AcDbArc
 50
97.811177
 51
169.188823
  0
INSERT
  5
1F70
100
AcDbEntity
  8
0
  6
BYBLOCK
 62
     1
100
AcDbBlockReference
  2
_OPEN30
 10
70.692648
 20
301.51236
 30
0.0
 41
2.0
 42
2.0
 43
2.0
 50
2.405589
  0
INSERT
  5
1F71
100
AcDbEntity
  8
0
  6
BYBLOCK
 62
     1
100
AcDbBlockReference
  2
_OPEN30
 10
59.521996
 20
290.911807
 30
0.0
 41
2.0
 42
2.0
 43
2.0
 50
264.594411
  0
MTEXT
  5
1F72
100
AcDbEntity
  8
0
  6
BYBLOCK
 62
     3
100
AcDbMText
 10
61.109257
 20
300.425165
 30
0.0
 40
3.0
 41
0.0
 71
     5
 72
     1
  1
\A1;93°
 11
0.725374
 21
0.688355
 31
0.0
  0
POINT
  5
1F73
100
AcDbEntity
  8
DEFPOINTS
  6
BYBLOCK
 62
     0
100
AcDbPoint
 10
65.153609
 20
300.284385
 30
0.0
  0
POINT
  5
1F74
100
AcDbEntity
  8
DEFPOINTS
  6
BYBLOCK
 62
     0
100
AcDbPoint
 10
70.147853
 20
290.911807
 30
0.0
  0
POINT
  5
1F75
100
AcDbEntity
  8
DEFPOINTS
  6
BYBLOCK
 62
     0
100
AcDbPoint
 10
70.621869
 20
300.161807
 30
0.0
  0
POINT
  5
1F76
100
AcDbEntity
  8
DEFPOINTS
  6
BYBLOCK
 62
     0
100
AcDbPoint
 10
70.148127
 20
291.122274
 30
0.0
  0
POINT
  5
1F77
100
AcDbEntity
  8
DEFPOINTS
  6
BYBLOCK
 62
     0
100
AcDbPoint
 10
70.347853
 20
290.911807
 30
0.0
  0
ENDBLK
  5
1F78
100
AcDbEntity
  8
0
100
AcDbBlockEnd
  0
BLOCK
  5
1F3F
100
AcDbEntity
  8
0
100
AcDbBlockBegin
  2
*D5
 70
     1
 10
0.0
 20
0.0
 30
0.0
  3
*D5
  1

  0
LINE
  5
1F40
100
AcDbEntity
  8
0
  6
BYBLOCK
 62
     1
100
AcDbLine
 10
118.063595
 20
292.975316
 30
0.0
 11
118.063595
 21
279.994454
 31
0.0
  0
LINE
  5
1F41
100
AcDbEntity
  8
0
  6
BYBLOCK
 62
     1
100
AcDbLine
 10
125.063595
 20
292.975316
 30
0.0
 11
125.063595
 21
279.994454
 31
0.0
  0
LINE
  5
1F42
100
AcDbEntity
  8
0
  6
BYBLOCK
 62
     1
100
AcDbLine
 10
120.063595
 20
281.994454
 30
0.0
 11
123.063595
 21
281.994454
 31
0.0
  0
INSERT
  5
1F43
100
AcDbEntity
  8
0
  6
BYBLOCK
 62
     1
100
AcDbBlockReference
  2
_OPEN30
 10
118.063595
 20
281.994454
 30
0.0
 41
2.0
 42
2.0
 43
2.0
 50
180.0
  0
INSERT
  5
1F44
100
AcDbEntity
  8
0
  6
BYBLOCK
 62
     1
100
AcDbBlockReference
  2
_OPEN30
 10
125.063595
 20
281.994454
 30
0.0
 41
2.0
 42
2.0
 43
2.0
  0
MTEXT
  5
1F45
100
AcDbEntity
  8
0
  6
BYBLOCK
 62
     3
100
AcDbMText
 10
121.563595
 20
284.494454
 30
0.0
 40
3.0
 41
0.0
 71
     5
 72
     1
  1
\A1;7
  0
POINT
  5
1F46
100
AcDbEntity
  8
DEFPOINTS
  6
BYBLOCK
 62
     0
100
AcDbPoint
 10
118.063595
 20
293.975316
 30
0.0
  0
POINT
  5
1F47
100
AcDbEntity
  8
DEFPOINTS
  6
BYBLOCK
 62
     0
100
AcDbPoint
 10
125.063595
 20
293.975316
 30
0.0
  0
POINT
  5
1F48
100
AcDbEntity
  8
DEFPOINTS
  6
BYBLOCK
 62
     0
100
AcDbPoint
 10
125.063595
 20
281.994454
 30
0.0
  0
ENDBLK
  5
1F49
100
AcDbEntity
  8
0
100
AcDbBlockEnd
  0
BLOCK
  5
1F34
100
AcDbEntity
  8
0
100
AcDbBlockBegin
  2
*D6
 70
     1
 10
0.0
 20
0.0
 30
0.0
  3
*D6
  1

  0
LINE
  5
1F35
100
AcDbEntity
  8
0
  6
BYBLOCK
 62
     1
100
AcDbLine
 10
70.147853
 20
289.911807
 30
0.0
 11
70.147853
 21
271.086161
 31
0.0
  0
LINE
  5
1F36
100
AcDbEntity
  8
0
  6
BYBLOCK
 62
     1
100
AcDbLine
 10
170.147853
 20
291.911807
 30
0.0
 11
170.147853
 21
271.086161
 31
0.0
  0
LINE
  5
1F37
100
AcDbEntity
  8
0
  6
BYBLOCK
 62
     1
100
AcDbLine
 10
72.147853
 20
273.086161
 30
0.0
 11
168.147853
 21
273.086161
 31
0.0
  0
INSERT
  5
1F38
100
AcDbEntity
  8
0
  6
BYBLOCK
 62
     1
100
AcDbBlockReference
  2
_OPEN30
 10
70.147853
 20
273.086161
 30
0.0
 41
2.0
 42
2.0
 43
2.0
 50
180.0
  0
INSERT
  5
1F39
100
AcDbEntity
  8
0
  6
BYBLOCK
 62
     1
100
AcDbBlockReference
  2
_OPEN30
 10
170.147853
 20
273.086161
 30
0.0
 41
2.0
 42
2.0
 43
2.0
  0
MTEXT
  5
1F3A
100
AcDbEntity
  8
0
  6
BYBLOCK
 62
     3
100
AcDbMText
 10
120.147853
 20
275.586161
 30
0.0
 40
3.0
 41
0.0
 71
     5
 72
     1
  1
\A1;100
  0
POINT
  5
1F3B
100
AcDbEntity
  8
DEFPOINTS
  6
BYBLOCK
 62
     0
100
AcDbPoint
 10
70.147853
 20
290.911807
 30
0.0
  0
POINT
  5
1F3C
100
AcDbEntity
  8
DEFPOINTS
  6
BYBLOCK
 62
     0
100
AcDbPoint
 10
170.147853
 20
292.911807
 30
0.0
  0
POINT
  5
1F3D
100
AcDbEntity
  8
DEFPOINTS
  6
BYBLOCK
 62
     0
100
AcDbPoint
 10
170.147853
 20
273.086161
 30
0.0
  0
ENDBLK
  5
1F3E
100
AcDbEntity
  8
0
100
AcDbBlockEnd
  0
BLOCK
  5
1F55
100
AcDbEntity
  8
0
100
AcDbBlockBegin
  2
*D7
 70
     1
 10
0.0
 20
0.0
 30
0.0
  3
*D7
  1

  0
LINE
  5
1F56
100
AcDbEntity
  8
0
  6
BYBLOCK
 62
     1
100
AcDbLine
 10
118.831774
 20
290.56979
 30
0.0
 11
117.921167
 21
288.789117
 31
0.0
  0
LINE
  5
1F57
100
AcDbEntity
  8
0
  6
BYBLOCK
 62
     1
100
AcDbLine
 10
124.295416
 20
301.253825
 30
0.0
 11
128.393148
 21
309.266851
 31
0.0
  0
LINE
  5
1F58
100
AcDbEntity
  8
0
  6
BYBLOCK
 62
     1
100
AcDbLine
 10
119.742381
 20
292.350462
 30
0.0
 11
123.384809
 21
299.473152
 31
0.0
  0
INSERT
  5
1F59
100
AcDbEntity
  8
0
  6
BYBLOCK
 62
     1
100
AcDbBlockReference
  2
_OPEN30
 10
119.742381
 20
292.350462
 30
0.0
 41
2.0
 42
2.0
 43
2.0
 50
62.915534
  0
INSERT
  5
1F5A
100
AcDbEntity
  8
0
  6
BYBLOCK
 62
     1
100
AcDbBlockReference
  2
_OPEN30
 10
123.384809
 20
299.473152
 30
0.0
 41
2.0
 42
2.0
 43
2.0
 50
242.915534
  0
MTEXT
  5
1F5B
100
AcDbEntity
  8
0
  6
BYBLOCK
 62
     3
100
AcDbMText
 10
124.573745
 20
307.288933
 30
0.0
 40
3.0
 41
0.0
 71
     5
 72
     1
  1
\A1;\U+22058
 11
0.455304
 21
0.890336
 31
0.0
  0
POINT
  5
1F5C
100
AcDbEntity
  8
DEFPOINTS
  6
BYBLOCK
 62
     0
100
AcDbPoint
 10
123.384809
 20
299.473152
 30
0.0
  0
POINT
  5
1F5D
100
AcDbEntity
  8
DEFPOINTS
  6
BYBLOCK
 62
     0
100
AcDbPoint
 10
119.742381
 20
292.350462
 30
0.0
  0
ENDBLK
  5
1F5E
100
AcDbEntity
  8
0
100
AcDbBlockEnd
  0
BLOCK
  5
1F9B
100
AcDbEntity
  8
0
100
AcDbBlockBegin
  2
*D8
 70
     1
 10
0.0
 20
0.0
 30
0.0
  3
*D8
  1

  0
LINE
  5
1F9C
100
AcDbEntity
  8
0
  6
BYBLOCK
 62
     1
100
AcDbLine
 10
69.151658
 20
261.520758
 30
0.0
 11
61.010722
 21
262.232997
 31
0.0
  0
LINE
  5
1F9D
100
AcDbEntity
  8
0
  6
BYBLOCK
 62
     1
100
AcDbLine
 10
66.256139
 20
261.433602
 30
0.0
 11
60.975819
 21
261.433602
 31
0.0
  0
ARC
  5
1F9E
100
AcDbEntity
  8
0
  6
BYBLOCK
 62
     1
100
AcDbCircle
 10
70.147853
 20
261.433602
 30
0.0
 40
7.172034
100
AcDbArc
 50
142.615533
 51
175.0
  0
LINE
  5
1F9F
100
AcDbEntity
  8
0
  6
BYBLOCK
 62
     1
100
AcDbLine
 10
64.449104
 20
265.788177
 30
0.0
 11
69.670684
 21
272.621559
 31
0.0
  0
ARC
  5
1FA0
100
AcDbEntity
  8
0
  6
BYBLOCK
 62
     1
100
AcDbCircle
 10
70.147853
 20
261.433602
 30
0.0
 40
7.172034
100
AcDbArc
 50
142.940435
 51
158.970218
  0
ARC
  5
1FA1
100
AcDbEntity
  8
0
  6
BYBLOCK
 62
     1
100
AcDbCircle
 10
70.147853
 20
261.433602
 30
0.0
 40
7.172034
100
AcDbArc
 50
196.029782
 51
212.059565
  0
ARC
  5
1FA2
100
AcDbEntity
  8
0
  6
BYBLOCK
 62
     1
100
AcDbCircle
 10
70.147853
 20
261.433602
 30
0.0
 40
7.172034
100
AcDbArc
 50
175.0
 51
180.0
  0
INSERT
  5
1FA3
100
AcDbEntity
  8
0
  6
BYBLOCK
 62
     1
100
AcDbBlockReference
  2
_OPEN30
 10
63.003111
 20
262.058686
 30
0.0
 41
2.0
 42
2.0
 43
2.0
 50
256.985109
  0
INSERT
  5
1FA4
100
AcDbEntity
  8
0
  6
BYBLOCK
 62
     1
100
AcDbBlockReference
  2
_OPEN30
 10
62.975819
 20
261.433602
 30
0.0
 41
2.0
 42
2.0
 43
2.0
 50
98.014891
  0
MTEXT
  5
1FA5
100
AcDbEntity
  8
0
  6
BYBLOCK
 62
     3
100
AcDbMText
 10
65.073446
 20
270.722769
 30
0.0
 40
3.0
 41
0.0
 71
     5
 72
     1
  1
\A1;5°
 11
0.60716
 21
0.794579
 31
0.0
  0
POINT
  5
1FA6
100
AcDbEntity
  8
DEFPOINTS
  6
BYBLOCK
 62
     0
100
AcDbPoint
 10
62.978853
 20
261.642198
 30
0.0
  0
POINT
  5
1FA7
100
AcDbEntity
  8
DEFPOINTS
  6
BYBLOCK
 62
     0
100
AcDbPoint
 10
77.290108
 20
260.808735
 30
0.0
  0
POINT
  5
1FA8
100
AcDbEntity
  8
DEFPOINTS
  6
BYBLOCK
 62
     0
100
AcDbPoint
 10
67.256139
 20
261.433602
 30
0.0
  0
POINT
  5
1FA9
100
AcDbEntity
  8
DEFPOINTS
  6
BYBLOCK
 62
     0
100
AcDbPoint
 10
177.711056
 20
261.433602
 30
0.0
  0
POINT
  5
1FAA
100
AcDbEntity
  8
DEFPOINTS
  6
BYBLOCK
 62
     0
100
AcDbPoint
 10
70.147853
 20
261.433602
 30
0.0
  0
ENDBLK
  5
1FAB
100
AcDbEntity
  8
0
100
AcDbBlockEnd
  0
BLOCK
  5
1FD3
100
AcDbEntity
  8
0
100
AcDbBlockBegin
  2
*D9
 70
     1
 10
0.0
 20
0.0
 30
0.0
  3
*D9
  1

  0
LINE
  5
1FD4
100
AcDbEntity
  8
0
  6
BYBLOCK
 62
     1
100
AcDbLine
 10
53.07915
 20
289.820388
 30
0.0
 11
54.064538
 21
288.079983
 31
0.0
  0
LINE
  5
1FD5
100
AcDbEntity
  8
0
  6
BYBLOCK
 62
     1
100
AcDbLine
 10
46.181436
 20
302.003226
 30
0.0
 11
39.025279
 21
314.642528
 31
0.0
  0
LINE
  5
1FD6
100
AcDbEntity
  8
0
  6
BYBLOCK
 62
     1
100
AcDbLine
 10
52.093762
 20
291.560794
 30
0.0
 11
47.166824
 21
300.262821
 31
0.0
  0
INSERT
  5
1FD7
100
AcDbEntity
  8
0
  6
BYBLOCK
 62
     1
100
AcDbBlockReference
  2
_OPEN30
 10
52.093762
 20
291.560794
 30
0.0
 41
2.0
 42
2.0
 43
2.0
 50
119.517797
  0
INSERT
  5
1FD8
100
AcDbEntity
  8
0
  6
BYBLOCK
 62
     1
100
AcDbBlockReference
  2
_OPEN30
 10
47.166824
 20
300.262821
 30
0.0
 41
2.0
 42
2.0
 43
2.0
 50
299.517797
  0
MTEXT
  5
1FD9
100
AcDbEntity
  8
0
  6
BYBLOCK
 62
     3
100
AcDbMText
 10
43.664255
 20
311.52325
 30
0.0
 40
3.0
 41
0.0
 71
     5
 72
     1
  1
\A1;\U+220510
 11
0.492694
 21
-0.870203
 31
0.0
  0
POINT
  5
1FDA
100
AcDbEntity
  8
DEFPOINTS
  6
BYBLOCK
 62
     0
100
AcDbPoint
 10
47.166824
 20
300.262821
 30
0.0
  0
POINT
  5
1FDB
100
AcDbEntity
  8
DEFPOINTS
  6
BYBLOCK
 62
     0
100
AcDbPoint
 10
52.093762
 20
291.560794
 30
0.0
  0
ENDBLK
  5
1FDC
100
AcDbEntity
  8
0
100
AcDbBlockEnd
  0
BLOCK
  5
20B0
100
AcDbEntity
  8
0
100
AcDbBlockBegin
  2
*D10
 70
     1
 10
0.0
 20
0.0
 30
0.0
  3
*D10
  1

  0
LINE
  5
20B1
100
AcDbEntity
  8
0
  6
BYBLOCK
 62
     1
100
AcDbLine
 10
58.487681
 20
173.819843
 30
0.0
 11
58.487681
 21
160.721486
 31
0.0
  0
LINE
  5
20B2
100
AcDbEntity
  8
0
  6
BYBLOCK
 62
     1
100
AcDbLine
 10
71.487681
 20
170.069843
 30
0.0
 11
71.487681
 21
160.721486
 31
0.0
  0
LINE
  5
20B3
100
AcDbEntity
  8
0
  6
BYBLOCK
 62
     1
100
AcDbLine
 10
60.487681
 20
162.721486
 30
0.0
 11
69.487681
 21
162.721486
 31
0.0
  0
INSERT
  5
20B4
100
AcDbEntity
  8
0
  6
BYBLOCK
 62
     1
100
AcDbBlockReference
  2
_OPEN30
 10
58.487681
 20
162.721486
 30
0.0
 41
2.0
 42
2.0
 43
2.0
 50
180.0
  0
INSERT
  5
20B5
100
AcDbEntity
  8
0
  6
BYBLOCK
 62
     1
100
AcDbBlockReference
  2
_OPEN30
 10
71.487681
 20
162.721486
 30
0.0
 41
2.0
 42
2.0
 43
2.0
  0
MTEXT
  5
20B6
100
AcDbEntity
  8
0
  6
BYBLOCK
 62
     3
100
AcDbMText
 10
64.987681
 20
165.221486
 30
0.0
 40
3.0
 41
0.0
 71
     5
 72
     1
  1
\A1;13
  0
POINT
  5
20B7
100
AcDbEntity
  8
DEFPOINTS
  6
BYBLOCK
 62
     0
100
AcDbPoint
 10
58.487681
 20
174.819843
 30
0.0
  0
POINT
  5
20B8
100
AcDbEntity
  8
DEFPOINTS
  6
BYBLOCK
 62
     0
100
AcDbPoint
 10
71.487681
 20
171.069843
 30
0.0
  0
POINT
  5
20B9
100
AcDbEntity
  8
DEFPOINTS
  6
BYBLOCK
 62
     0
100
AcDbPoint
 10
71.487681
 20
162.721486
 30
0.0
  0
ENDBLK
  5
20BA
100
AcDbEntity
  8
0
100
AcDbBlockEnd
  0
ENDSEC
  0
SECTION
  2
ENTITIES
  0
TEXT
  5
1453
100
AcDbEntity
  8
外形
  6
CONTINUOUS
 62
     2
100
AcDbText
 10
81.945496
 20
150.213866
 30
0.0
 40
6.0
  1
BBPT608R
100
AcDbText
  0
LINE
  5
1C86
100
AcDbEntity
  8
外形
  6
CENTER
 62
     1
100
AcDbLine
 10
61.062307
 20
202.081401
 30
0.0
 11
61.062307
 21
214.227903
 31
0.0
  0
LINE
  5
1C87
100
AcDbEntity
  8
外形
  6
CONTINUOUS
100
AcDbLine
 10
58.961697
 20
213.548049
 30
0.0
 11
58.487955
 21
204.508516
 31
0.0
  0
LINE
  5
1C8C
100
AcDbEntity
  8
外形
  6
CONTINUOUS
100
AcDbLine
 10
58.778479
 20
204.319847
 30
0.0
 11
65.50713
 21
207.748266
 31
0.0
  0
LINE
  5
1C8D
100
AcDbEntity
  8
外形
  6
CONTINUOUS
100
AcDbLine
 10
65.52526
 20
208.094202
 30
0.0
 11
58.901313
 21
212.395843
 31
0.0
  0
ARC
  5
1C8E
100
AcDbEntity
  8
外形
  6
CONTINUOUS
100
AcDbCircle
 10
58.687681
 20
204.498049
 30
0.0
 40
0.2
100
AcDbArc
 50
177.0
 51
297.0
  0
ARC
  5
1C8F
100
AcDbEntity
  8
外形
  6
CONTINUOUS
100
AcDbCircle
 10
65.416332
 20
207.926467
 30
0.0
 40
0.2
100
AcDbArc
 50
297.0
 51
57.0
  0
ARC
  5
1C90
100
AcDbEntity
  8
外形
  6
CONTINUOUS
100
AcDbCircle
 10
59.082909
 20
212.039441
 30
0.0
 40
0.2
100
AcDbArc
 50
57.0
 51
177.0
  0
LINE
  5
1CA4
100
AcDbEntity
  8
外形
  6
CENTER
 62
     1
100
AcDbLine
 10
65.606645
 20
207.922265
 30
0.0
 11
57.113872
 21
208.367353
 31
0.0
  0
LINE
  5
1CA5
100
AcDbEntity
  8
外形
  6
CENTER
 62
     1
100
AcDbLine
 10
63.677905
 20
208.423895
 30
0.0
 11
66.47821
 21
208.277138
 31
0.0
  0
LINE
  5
1CA8
100
AcDbEntity
  8
外形
  6
CENTER
 62
     1
100
AcDbLine
 10
65.151436
 20
209.750669
 30
0.0
 11
65.004679
 21
206.950364
 31
0.0
  0
ARC
  5
1CA9
100
AcDbEntity
  8
外形
  6
CONTINUOUS
100
AcDbCircle
 10
65.078057
 20
208.350516
 30
0.0
 40
1.0
100
AcDbArc
 50
267.0
 51
87.0
  0
LINE
  5
1CAD
100
AcDbEntity
  8
外形
  6
CONTINUOUS
100
AcDbLine
 10
63.457838
 20
209.436801
 30
0.0
 11
65.130393
 21
209.349146
 31
0.0
  0
LINE
  5
1CAE
100
AcDbEntity
  8
外形
  6
CONTINUOUS
100
AcDbLine
 10
64.756848
 20
207.365978
 30
0.0
 11
65.025721
 21
207.351887
 31
0.0
  0
LINE
  5
1CAF
100
AcDbEntity
  8
外形
  6
CENTER
 62
     1
100
AcDbLine
 10
61.34976
 20
211.538092
 30
0.0
 11
60.985804
 21
204.593389
 31
0.0
  0
LINE
  5
1CB1
100
AcDbEntity
  8
外形
  6
CONTINUOUS
100
AcDbLine
 10
37.970121
 20
204.298049
 30
0.0
 11
35.706613
 21
205.166928
 31
0.0
  0
LINE
  5
1CB2
100
AcDbEntity
  8
外形
  6
CENTER
 62
     1
100
AcDbLine
 10
45.164225
 20
209.298049
 30
0.0
 11
30.776018
 21
209.298049
 31
0.0
  0
LINE
  5
1CB5
100
AcDbEntity
  8
外形
  6
CONTINUOUS
100
AcDbLine
 10
76.737681
 20
213.298049
 30
0.0
 11
104.465927
 21
213.298049
 31
0.0
  0
LINE
  5
1CB6
100
AcDbEntity
  8
外形
  6
CONTINUOUS
100
AcDbLine
 10
76.737681
 20
205.298049
 30
0.0
 11
104.465927
 21
205.298049
 31
0.0
  0
LINE
  5
1CC4
100
AcDbEntity
  8
外形
  6
CONTINUOUS
100
AcDbLine
 10
65.5403
 20
205.048049
 30
0.0
 11
60.207655
 21
205.048049
 31
0.0
  0
ARC
  5
1CC8
100
AcDbEntity
  8
外形
  6
CONTINUOUS
100
AcDbCircle
 10
37.970121
 20
209.298049
 30
0.0
 40
4.25
100
AcDbArc
 50
271.788055
 51
332.893551
  0
LINE
  5
1CD4
100
AcDbEntity
  8
外形
  6
CONTINUOUS
100
AcDbLine
 10
37.970121
 20
204.298049
 30
0.0
 11
39.547612
 21
213.244442
 31
0.0
  0
LINE
  5
1CD5
100
AcDbEntity
  8
外形
  6
CONTINUOUS
100
AcDbLine
 10
36.924953
 20
212.076479
 30
0.0
 11
35.706613
 21
205.166928
 31
0.0
  0
LINE
  5
1CD6
100
AcDbEntity
  8
外形
  6
CONTINUOUS
100
AcDbLine
 10
36.924953
 20
212.076479
 30
0.0
 11
39.34913
 21
212.118793
 31
0.0
  0
LINE
  5
1CD8
100
AcDbEntity
  8
外形
  6
CONTINUOUS
100
AcDbLine
 10
37.25227
 20
207.079847
 30
0.0
 11
36.838367
 21
204.732488
 31
0.0
  0
LINE
  5
1CDB
100
AcDbEntity
  8
外形
  6
CONTINUOUS
100
AcDbLine
 10
36.555943
 20
209.983718
 30
0.0
 11
38.899785
 21
209.570436
 31
0.0
  0
LINE
  5
1CDC
100
AcDbEntity
  8
外形
  6
CONTINUOUS
100
AcDbLine
 10
38.424191
 20
206.873206
 30
0.0
 11
36.080349
 21
207.286488
 31
0.0
  0
LINE
  5
1CDD
100
AcDbEntity
  8
外形
  6
CONTINUOUS
100
AcDbLine
 10
37.727864
 20
209.777077
 30
0.0
 11
38.137041
 21
212.097636
 31
0.0
  0
LINE
  5
1CDF
100
AcDbEntity
  8
外形
  6
CONTINUOUS
100
AcDbLine
 10
69.621656
 20
170.569843
 30
0.0
 11
60.034555
 21
170.569843
 31
0.0
  0
LINE
  5
1CE0
100
AcDbEntity
  8
外形
  6
CENTER
 62
     1
100
AcDbLine
 10
55.595967
 20
174.819843
 30
0.0
 11
166.050885
 21
174.819843
 31
0.0
  0
LINE
  5
1CF7
100
AcDbEntity
  8
外形
  6
CENTER
 62
     1
100
AcDbLine
 10
37.970121
 20
216.492152
 30
0.0
 11
37.970121
 21
202.103945
 31
0.0
  0
LINE
  5
1CFA
100
AcDbEntity
  8
外形
  6
CENTER
 62
     1
100
AcDbLine
 10
55.595967
 20
209.298049
 30
0.0
 11
166.050885
 21
209.298049
 31
0.0
  0
ARC
  5
1D0E
100
AcDbEntity
  8
外形
  6
CONTINUOUS
100
AcDbCircle
 10
69.502307
 20
198.098049
 30
0.0
 40
8.0
100
AcDbArc
 50
68.630513
 51
119.686295
  0
LINE
  5
1D88
100
AcDbEntity
  8
外形
  6
CONTINUOUS
100
AcDbLine
 10
158.487681
 20
206.298049
 30
0.0
 11
158.487681
 21
212.298049
 31
0.0
  0
LINE
  5
1D89
100
AcDbEntity
  8
外形
  6
CENTER
 62
     1
100
AcDbLine
 10
109.903424
 20
202.181099
 30
0.0
 11
109.903424
 21
215.780494
 31
0.0
  0
ARC
  5
1D8A
100
AcDbEntity
  8
外形
  6
CONTINUOUS
100
AcDbCircle
 10
109.903424
 20
209.298049
 30
0.0
 40
4.0
100
AcDbArc
 50
28.955024
 51
151.044976
  0
LINE
  5
1D8D
100
AcDbEntity
  8
外形
  6
CONTINUOUS
100
AcDbLine
 10
106.403424
 20
207.361557
 30
0.0
 11
106.403424
 21
211.23454
 31
0.0
  0
LINE
  5
1D8E
100
AcDbEntity
  8
外形
  6
CONTINUOUS
100
AcDbLine
 10
113.403424
 20
211.23454
 30
0.0
 11
113.403424
 21
207.361557
 31
0.0
  0
LINE
  5
1D8F
100
AcDbEntity
  8
外形
  6
CONTINUOUS
100
AcDbLine
 10
104.465927
 20
211.23454
 30
0.0
 11
76.737681
 21
211.23454
 31
0.0
  0
LINE
  5
1D90
100
AcDbEntity
  8
外形
  6
CONTINUOUS
100
AcDbLine
 10
104.465927
 20
207.361557
 30
0.0
 11
76.737681
 21
207.361557
 31
0.0
  0
LINE
  5
1D93
100
AcDbEntity
  8
外形
  6
CONTINUOUS
100
AcDbLine
 10
115.781798
 20
211.23454
 30
0.0
 11
157.487681
 21
211.23454
 31
0.0
  0
LINE
  5
1D94
100
AcDbEntity
  8
外形
  6
CONTINUOUS
100
AcDbLine
 10
115.781798
 20
207.361557
 30
0.0
 11
157.487681
 21
207.361557
 31
0.0
  0
LINE
  5
1D95
100
AcDbEntity
  8
外形
  6
CONTINUOUS
100
AcDbLine
 10
115.781798
 20
205.298049
 30
0.0
 11
157.487681
 21
205.298049
 31
0.0
  0
LINE
  5
1D96
100
AcDbEntity
  8
外形
  6
CONTINUOUS
100
AcDbLine
 10
115.781798
 20
213.298049
 30
0.0
 11
157.487681
 21
213.298049
 31
0.0
  0
ARC
  5
1D97
100
AcDbEntity
  8
外形
  6
CONTINUOUS
100
AcDbCircle
 10
109.903424
 20
209.298049
 30
0.0
 40
4.0
100
AcDbArc
 50
208.955024
 51
331.044976
  0
LINE
  5
1DA8
100
AcDbEntity
  8
外形
  6
CONTINUOUS
100
AcDbLine
 10
41.753308
 20
211.23454
 30
0.0
 11
41.753308
 21
207.361557
 31
0.0
  0
ARC
  5
1DA9
100
AcDbEntity
  8
外形
  6
CONTINUOUS
100
AcDbCircle
 10
37.970121
 20
209.298049
 30
0.0
 40
4.25
100
AcDbArc
 50
27.106449
 51
239.163156
  0
SPLINE
  5
1DC0
100
AcDbEntity
  8
外形
  6
CONTINUOUS
100
AcDbSpline
210
0.0
220
0.0
230
-1.0
 70
     8
 71
     3
 72
    13
 73
     9
 74
     7
 42
0.0000001
 43
0.0000001
 44
0.0000000001
 40
0.0
 40
0.0
 40
0.0
 40
0.0
 40
0.8821124595050941
 40
2.244907545297782
 40
3.48109735763755
 40
4.693835827684538
 40
6.20083414942955
 40
9.777526930820247
 40
9.777526930820247
 40
9.777526930820247
 40
9.777526930820247
 10
71.50098942778365
 20
211.2345401882589
 30
0.0
 10
71.31930721582534
 20
211.4735001751383
 30
0.0
 10
70.85694012863967
 20
212.0816347409631
 30
0.0
 10
69.68350195345758
 20
212.4063291062489
 30
0.0
 10
68.50703534833851
 20
212.847749812905
 30
0.0
 10
67.21783304788779
 20
213.1575022582504
 30
0.0
 10
65.13493947717873
 20
213.4285797940692
 30
0.0
 10
63.43805461071739
 20
213.4460938152531
 30
0.0
 10
62.24419059939307
 20
213.4584160181311
 30
0.0
 11
71.50098942778365
 21
211.2345401882589
 31
0.0
 11
70.9104923538527
 21
211.8898535460452
 31
0.0
 11
69.66115079740944
 21
212.4342395499107
 31
0.0
 11
68.48903480689839
 21
212.8270618467841
 31
0.0
 11
67.31107239986865
 21
213.1154004747142
 31
0.0
 11
65.81827256717763
 21
213.3217802248351
 31
0.0
 11
62.24419059939307
 21
213.4584160181311
 31
0.0
  0
SPLINE
  5
1DC2
100
AcDbEntity
  8
外形
  6
CONTINUOUS
100
AcDbSpline
210
0.0
220
0.0
230
1.0
 70
     8
 71
     3
 72
    10
 73
     6
 74
     0
 42
0.0000001
 43
0.0000001
 40
0.0
 40
0.0
 40
0.0
 40
0.0
 40
1.332267874530478
 40
2.198293364879158
 40
2.347610107123461
 40
2.347610107123461
 40
2.347610107123461
 40
2.347610107123461
 10
73.48768121796443
 20
207.3354380096493
 30
0.0
 10
73.33481907721744
 20
206.8878319141797
 30
0.0
 10
73.08259065066041
 20
206.1492645970799
 30
0.0
 10
72.31311317277887
 20
205.8525996116488
 30
0.0
 10
71.99004833246604
 20
205.733921087424
 30
0.0
 10
71.94267840036847
 20
205.7167484982517
 30
0.0
  0
LINE
  5
1DD7
100
AcDbEntity
  8
外形
  6
CONTINUOUS
100
AcDbLine
 10
60.034555
 20
170.569843
 30
0.0
 11
58.487681
 21
174.819843
 31
0.0
  0
LINE
  5
1DD8
100
AcDbEntity
  8
外形
  6
CONTINUOUS
100
AcDbLine
 10
58.903325
 20
176.397334
 30
0.0
 11
58.903325
 21
176.198851
 31
0.0
  0
LINE
  5
1DDA
100
AcDbEntity
  8
外形
  6
CONTINUOUS
100
AcDbLine
 10
58.487681
 20
174.819843
 30
0.0
 11
58.903325
 21
176.198851
 31
0.0
  0
LINE
  5
1DDC
100
AcDbEntity
  8
外形
  6
CONTINUOUS
100
AcDbLine
 10
65.629936
 20
174.194977
 30
0.0
 11
58.487681
 21
174.819843
 31
0.0
  0
LINE
  5
1DDE
100
AcDbEntity
  8
外形
  6
CONTINUOUS
100
AcDbLine
 10
65.616332
 20
174.196167
 30
0.0
 11
58.903325
 21
176.198851
 31
0.0
  0
LINE
  5
1DDF
100
AcDbEntity
  8
外形
  6
CONTINUOUS
100
AcDbLine
 10
58.903325
 20
176.397334
 30
0.0
 11
62.244191
 21
176.397334
 31
0.0
  0
LINE
  5
1DE0
100
AcDbEntity
  8
外形
  6
CONTINUOUS
100
AcDbLine
 10
71.487681
 20
178.319843
 30
0.0
 11
157.987681
 21
178.319843
 31
0.0
  0
SPLINE
  5
1DEE
100
AcDbEntity
  8
外形
  6
CONTINUOUS
100
AcDbSpline
210
0.0
220
0.0
230
1.0
 70
     8
 71
     3
 72
    12
 73
     8
 74
     6
 42
0.0000001
 43
0.0000001
 44
0.0000000001
 40
0.0
 40
0.0
 40
0.0
 40
0.0
 40
0.5918107848572546
 40
1.911201678236666
 40
3.164004781653465
 40
4.427352840656293
 40
9.515864272998012
 40
9.515864272998012
 40
9.515864272998012
 40
9.515864272998012
 10
71.48768121796443
 20
178.3198430384827
 30
0.0
 10
71.29440962232942
 20
178.2794469359876
 30
0.0
 10
70.67025574175723
 20
178.148991221326
 30
0.0
 10
69.6823033330852
 20
177.7681020134085
 30
0.0
 10
68.48262107602844
 20
177.3337210596303
 30
0.0
 10
66.14201369744013
 20
176.3220657215891
 30
0.0
 10
63.97788596321331
 20
176.3638555547201
 30
0.0
 10
62.24419069938278
 20
176.3973336321135
 30
0.0
 11
71.48768121796443
 21
178.3198430384827
 31
0.0
 11
70.91049235383884
 21
178.1891027608221
 31
0.0
 11
69.66115079740946
 21
177.7649117603151
 31
0.0
 11
68.48903480690267
 21
177.3225773610999
 31
0.0
 11
67.31107239987605
 21
176.8660109521096
 31
0.0
 11
62.24419069938278
 21
176.3973336321135
 31
0.0
  0
SPLINE
  5
1DFB
100
AcDbEntity
  8
外形
  6
CONTINUOUS
100
AcDbSpline
210
0.0
220
0.0
230
1.0
 70
     8
 71
     3
 72
    12
 73
     8
 74
     6
 42
0.0000001
 43
0.0000001
 44
0.0000000001
 40
0.0
 40
0.0
 40
0.0
 40
0.0
 40
0.8934908562186038
 40
1.863121760550795
 40
2.910011526695593
 40
4.302510625876361
 40
7.892616446552239
 40
7.892616446552239
 40
7.892616446552239
 40
7.892616446552239
 10
73.48768121796446
 20
178.3198430384827
 30
0.0
 10
73.28374934680181
 20
178.101742929837
 30
0.0
 10
72.85850727052473
 20
177.6469570128151
 30
0.0
 10
72.06666770662774
 20
177.0813353984811
 30
0.0
 10
71.12141141525123
 20
176.4447710577683
 30
0.0
 10
69.2335626462578
 20
175.7213838266838
 30
0.0
 10
67.63536373575817
 20
175.2744682790313
 30
0.0
 10
66.48381684342549
 20
174.9524531614802
 30
0.0
 11
73.48768121796446
 21
178.3198430384827
 31
0.0
 11
72.85708909077861
 21
177.6868505588453
 31
0.0
 11
72.08527901503943
 21
177.0999150448205
 31
0.0
 11
71.20114834637703
 21
176.5392982923155
 31
0.0
 11
69.91865998321765
 21
175.9968249385183
 31
0.0
 11
66.48381684342549
 21
174.9524531614802
 31
0.0
  0
LINE
  5
1DFC
100
AcDbEntity
  8
外形
  6
CONTINUOUS
100
AcDbLine
 10
66.483817
 20
174.952453
 30
0.0
 11
65.616332
 21
174.196167
 31
0.0
  0
LINE
  5
1DFD
100
AcDbEntity
  8
外形
  6
CONTINUOUS
100
AcDbLine
 10
60.207655
 20
172.435164
 30
0.0
 11
59.32761
 21
172.512158
 31
0.0
  0
LINE
  5
1DFF
100
AcDbEntity
  8
外形
  6
CONTINUOUS
100
AcDbLine
 10
62.244191
 20
213.458416
 30
0.0
 11
58.957
 21
213.458416
 31
0.0
  0
LINE
  5
1E01
100
AcDbEntity
  8
外形
  6
CONTINUOUS
100
AcDbLine
 10
65.65204
 20
205.137681
 30
0.0
 11
65.65204
 21
205.110569
 31
0.0
  0
LINE
  5
1E04
100
AcDbEntity
  8
外形
  6
CONTINUOUS
100
AcDbLine
 10
60.207655
 20
172.435164
 30
0.0
 11
60.207655
 21
174.669365
 31
0.0
  0
LINE
  5
1E08
100
AcDbEntity
  8
外形
  6
CONTINUOUS
100
AcDbLine
 10
71.487681
 20
171.319843
 30
0.0
 11
157.987681
 21
171.319843
 31
0.0
  0
CIRCLE
  5
1E8C
100
AcDbEntity
  8
外形
  6
CONTINUOUS
100
AcDbCircle
 10
61.062307
 20
208.154652
 30
0.0
 40
1.35
  0
LINE
  5
1E8D
100
AcDbEntity
  8
外形
  6
CONTINUOUS
100
AcDbLine
 10
60.553427
 20
207.975329
 30
0.0
 11
60.24635
 21
208.154652
 31
0.0
  0
LINE
  5
1E8E
100
AcDbEntity
  8
外形
  6
CONTINUOUS
100
AcDbLine
 10
60.24635
 20
208.154652
 30
0.0
 11
60.553427
 21
208.333975
 31
0.0
  0
LINE
  5
1E8F
100
AcDbEntity
  8
外形
  6
CONTINUOUS
100
AcDbLine
 10
61.571187
 20
208.333975
 30
0.0
 11
61.878265
 21
208.154652
 31
0.0
  0
LINE
  5
1E90
100
AcDbEntity
  8
外形
  6
CONTINUOUS
100
AcDbLine
 10
61.878265
 20
208.154652
 30
0.0
 11
61.571187
 21
207.975329
 31
0.0
  0
LINE
  5
1E91
100
AcDbEntity
  8
外形
  6
CONTINUOUS
100
AcDbLine
 10
61.161449
 20
208.685017
 30
0.0
 11
61.470286
 21
208.861292
 31
0.0
  0
LINE
  5
1E92
100
AcDbEntity
  8
外形
  6
CONTINUOUS
100
AcDbLine
 10
61.470286
 20
208.861292
 30
0.0
 11
61.472045
 21
208.505694
 31
0.0
  0
LINE
  5
1E93
100
AcDbEntity
  8
外形
  6
CONTINUOUS
100
AcDbLine
 10
60.652569
 20
208.505694
 30
0.0
 11
60.654329
 21
208.861292
 31
0.0
  0
LINE
  5
1E94
100
AcDbEntity
  8
外形
  6
CONTINUOUS
100
AcDbLine
 10
60.654329
 20
208.861292
 30
0.0
 11
60.963166
 21
208.685017
 31
0.0
  0
LINE
  5
1E95
100
AcDbEntity
  8
外形
  6
CONTINUOUS
100
AcDbLine
 10
60.963166
 20
207.624288
 30
0.0
 11
60.654329
 21
207.448012
 31
0.0
  0
LINE
  5
1E96
100
AcDbEntity
  8
外形
  6
CONTINUOUS
100
AcDbLine
 10
60.654329
 20
207.448012
 30
0.0
 11
60.652569
 21
207.803611
 31
0.0
  0
LINE
  5
1E97
100
AcDbEntity
  8
外形
  6
CONTINUOUS
100
AcDbLine
 10
61.472045
 20
207.803611
 30
0.0
 11
61.470286
 21
207.448012
 31
0.0
  0
LINE
  5
1E98
100
AcDbEntity
  8
外形
  6
CONTINUOUS
100
AcDbLine
 10
61.470286
 20
207.448012
 30
0.0
 11
61.161449
 21
207.624288
 31
0.0
  0
ARC
  5
1E99
100
AcDbEntity
  8
外形
  6
CONTINUOUS
100
AcDbCircle
 10
61.672043
 20
208.506683
 30
0.0
 40
0.2
100
AcDbArc
 50
180.283476
 51
239.716524
  0
ARC
  5
1E9A
100
AcDbEntity
  8
外形
  6
CONTINUOUS
100
AcDbCircle
 10
61.672043
 20
207.802621
 30
0.0
 40
0.2
100
AcDbArc
 50
120.283476
 51
179.716524
  0
ARC
  5
1E9B
100
AcDbEntity
  8
外形
  6
CONTINUOUS
100
AcDbCircle
 10
61.062307
 20
207.45059
 30
0.0
 40
0.2
100
AcDbArc
 50
60.283476
 51
119.716524
  0
ARC
  5
1E9C
100
AcDbEntity
  8
外形
  6
CONTINUOUS
100
AcDbCircle
 10
60.452572
 20
207.802621
 30
0.0
 40
0.2
100
AcDbArc
 50
0.283476
 51
59.716524
  0
ARC
  5
1E9D
100
AcDbEntity
  8
外形
  6
CONTINUOUS
100
AcDbCircle
 10
60.452572
 20
208.506683
 30
0.0
 40
0.2
100
AcDbArc
 50
300.283476
 51
359.716524
  0
ARC
  5
1E9E
100
AcDbEntity
  8
外形
  6
CONTINUOUS
100
AcDbCircle
 10
61.062307
 20
208.858714
 30
0.0
 40
0.2
100
AcDbArc
 50
240.283476
 51
299.716524
  0
DIMENSION
  5
1ED0
100
AcDbEntity
  8
寸法
  6
CONTINUOUS
100
AcDbDimension
  2
*D2
 10
37.970121
 20
202.103945
 30
0.0
 11
29.158648
 21
201.578521
 31
0.0
 12
-11.660172
 22
-86.613759
 32
0.0
 70
    34
  3
STANDARD
100
AcDb2LineAngularDimension
 13
37.970121
 23
204.298049
 33
0.0
 14
39.547612
 24
213.244442
 34
0.0
 15
37.970121
 25
216.492152
 35
0.0
 16
37.407905
 26
194.645175
 36
0.0
1001
ACAD
1000
DSTYLE
1002
{
1070
   284
1070
    13
1070
   146
1040
0.5
1070
   272
1070
     3
1070
    40
1040
1.0
1070
   287
1070
     0
1002
}
  0
DIMENSION
  5
1EDD
100
AcDbEntity
  8
寸法
  6
CONTINUOUS
100
AcDbDimension
  2
*D3
 10
53.459097
 20
209.298049
 30
0.0
 11
53.459097
 21
206.798049
 31
0.0
 12
-11.660172
 22
-86.613759
 32
0.0
 70
   160
  3
STANDARD
100
AcDbAlignedDimension
 13
58.487681
 23
204.298049
 33
0.0
 14
55.595967
 24
209.298049
 34
0.0
 50
90.0
100
AcDbRotatedDimension
1001
ACAD
1000
DSTYLE
1002
{
1070
   284
1070
    13
1070
   146
1040
0.5
1070
   272
1070
     3
1070
    40
1040
1.0
1070
   287
1070
     0
1002
}
  0
DIMENSION
  5
1EEC
100
AcDbEntity
  8
寸法
  6
CONTINUOUS
100
AcDbDimension
  2
*D4
 10
58.687681
 20
204.298049
 30
0.0
 11
49.449086
 21
213.811406
 31
0.0
 12
-11.660172
 22
-86.613759
 32
0.0
 70
    34
  3
STANDARD
100
AcDb2LineAngularDimension
 13
58.961697
 23
213.548049
 33
0.0
 14
58.487955
 24
204.508516
 34
0.0
 15
58.487681
 25
204.298049
 35
0.0
 16
53.493437
 26
213.670626
 36
0.0
1001
ACAD
1000
DSTYLE
1002
{
1070
   284
1070
    13
1070
   146
1040
0.5
1070
   272
1070
     3
1070
    40
1040
1.0
1070
   287
1070
     0
1002
}
  0
DIMENSION
  5
1F04
100
AcDbEntity
  8
寸法
  6
CONTINUOUS
100
AcDbDimension
  2
*D5
 10
113.403424
 20
195.380695
 30
0.0
 11
109.903424
 21
195.380695
 31
0.0
 12
-11.660172
 22
-86.613759
 32
0.0
 70
   160
  3
STANDARD
100
AcDbAlignedDimension
 13
106.403424
 23
207.361557
 33
0.0
 14
113.403424
 24
207.361557
 34
0.0
100
AcDbRotatedDimension
1001
ACAD
1000
DSTYLE
1002
{
1070
   284
1070
    13
1070
   146
1040
0.5
1070
   272
1070
     3
1070
    40
1040
1.0
1070
   287
1070
     0
1002
}
  0
LINE
  5
1F05
100
AcDbEntity
  8
外形
  6
CONTINUOUS
100
AcDbLine
 10
157.487681
 20
205.298049
 30
0.0
 11
157.487681
 21
207.361557
 31
0.0
  0
LINE
  5
1F06
100
AcDbEntity
  8
外形
  6
CONTINUOUS
100
AcDbLine
 10
158.487681
 20
212.298049
 30
0.0
 11
157.487681
 21
213.298049
 31
0.0
  0
LINE
  5
1F07
100
AcDbEntity
  8
外形
  6
CONTINUOUS
100
AcDbLine
 10
158.487681
 20
206.298049
 30
0.0
 11
157.487681
 21
205.298049
 31
0.0
  0
ELLIPSE
  5
1F09
100
AcDbEntity
  8
外形
  6
CONTINUOUS
100
AcDbEllipse
 10
157.487681
 20
209.298049
 30
0.0
 11
0.0
 21
1.936491673104455
 31
0.0
210
0.0
220
0.0
230
1.0
 40
0.258199
 41
3.141592653589793
 42
6.283185307179586
  0
LINE
  5
1F0A
100
AcDbEntity
  8
外形
  6
CONTINUOUS
100
AcDbLine
 10
157.487681
 20
211.23454
 30
0.0
 11
157.487681
 21
213.298049
 31
0.0
  0
LINE
  5
1F0B
100
AcDbEntity
  8
外形
  6
CONTINUOUS
100
AcDbLine
 10
158.487681
 20
177.819843
 30
0.0
 11
157.987681
 21
178.319843
 31
0.0
  0
LINE
  5
1F0C
100
AcDbEntity
  8
外形
  6
CONTINUOUS
100
AcDbLine
 10
157.487681
 20
171.319843
 30
0.0
 11
157.487681
 21
178.319843
 31
0.0
  0
LINE
  5
1F0D
100
AcDbEntity
  8
外形
  6
CONTINUOUS
100
AcDbLine
 10
158.487681
 20
171.819843
 30
0.0
 11
158.487681
 21
177.819843
 31
0.0
  0
LINE
  5
1F0E
100
AcDbEntity
  8
外形
  6
CONTINUOUS
100
AcDbLine
 10
158.487681
 20
171.819843
 30
0.0
 11
157.987681
 21
171.319843
 31
0.0
  0
DIMENSION
  5
1F1D
100
AcDbEntity
  8
寸法
  6
CONTINUOUS
100
AcDbDimension
  2
*D6
 10
158.487681
 20
186.472403
 30
0.0
 11
108.487681
 21
186.472403
 31
0.0
 12
-11.660172
 22
-86.613759
 32
0.0
 70
   160
  3
STANDARD
100
AcDbAlignedDimension
 13
58.487681
 23
204.298049
 33
0.0
 14
158.487681
 24
206.298049
 34
0.0
100
AcDbRotatedDimension
1001
ACAD
1000
DSTYLE
1002
{
1070
   284
1070
    13
1070
   146
1040
0.5
1070
   272
1070
     3
1070
    40
1040
1.0
1070
   287
1070
     0
1002
}
  0
DIMENSION
  5
1F54
100
AcDbEntity
  8
寸法
  6
CONTINUOUS
100
AcDbDimension
  2
*D7
 10
108.082209
 20
205.736703
 30
0.0
 11
115.139414
 21
219.536916
 31
0.0
 12
-11.660172
 22
-86.613759
 32
0.0
 70
   163
  3
STANDARD
100
AcDbDiametricDimension
 15
111.724638
 25
212.859394
 35
0.0
 40
0.0
1001
ACAD
1000
DSTYLE
1002
{
1070
   284
1070
    13
1070
   146
1040
0.5
1070
   272
1070
     3
1070
    40
1040
1.0
1070
   287
1070
     0
1002
}
  0
DIMENSION
  5
1F9A
100
AcDbEntity
  8
寸法
  6
CONTINUOUS
100
AcDbDimension
  2
*D8
 10
58.487681
 20
174.819843
 30
0.0
 11
53.413274
 21
184.10901
 31
0.0
 12
-11.660172
 22
-86.613759
 32
0.0
 70
    34
  3
STANDARD
100
AcDb2LineAngularDimension
 13
55.595967
 23
174.819843
 33
0.0
 14
166.050885
 24
174.819843
 34
0.0
 15
65.629936
 25
174.194977
 35
0.0
 16
51.318682
 26
175.02844
 36
0.0
1001
ACAD
1000
DSTYLE
1002
{
1070
   284
1070
    13
1070
   146
1040
0.5
1070
   272
1070
     3
1070
    40
1040
1.0
1070
   287
1070
     0
1002
}
  0
CIRCLE
  5
1FC4
100
AcDbEntity
  8
外形
  6
PHANTOM
 62
     1
100
AcDbCircle
 10
37.970121
 20
209.298049
 30
0.0
 40
5.0
  0
DIMENSION
  5
1FD2
100
AcDbEntity
  8
寸法
  6
CONTINUOUS
100
AcDbDimension
  2
*D9
 10
40.433591
 20
204.947035
 30
0.0
 11
29.828577
 21
223.677756
 31
0.0
 12
-11.660172
 22
-86.613759
 32
0.0
 70
   163
  3
STANDARD
100
AcDbDiametricDimension
 15
35.506652
 25
213.649062
 35
0.0
 40
0.0
1001
ACAD
1000
DSTYLE
1002
{
1070
   284
1070
    13
1070
   146
1040
0.5
1070
   272
1070
     3
1070
    40
1040
1.0
1070
   287
1070
     0
1002
}
  0
MTEXT
  5
1FDD
100
AcDbEntity
  8
寸法
  6
BYBLOCK
 62
     3
100
AcDbMText
 10
25.676254
 20
226.161474
 30
0.0
 40
3.0
 41
0.0
 71
     5
 72
     1
  1
最小加工径
 11
0.513125
 21
-0.858314
 31
0.0
  0
LINE
  5
2046
100
AcDbEntity
  8
外形
  6
CONTINUOUS
100
AcDbLine
 10
71.487681
 20
176.704655
 30
0.0
 11
71.487681
 21
176.288843
 31
0.0
  0
LINE
  5
2047
100
AcDbEntity
  8
外形
  6
CONTINUOUS
100
AcDbLine
 10
76.487681
 20
178.319843
 30
0.0
 11
76.487681
 21
171.319843
 31
0.0
  0
LINE
  5
204A
100
AcDbEntity
  8
外形
  6
CONTINUOUS
100
AcDbLine
 10
71.487681
 20
171.069843
 30
0.0
 11
69.621656
 21
170.569843
 31
0.0
  0
LINE
  5
204C
100
AcDbEntity
  8
外形
  6
CONTINUOUS
100
AcDbLine
 10
69.621656
 20
172.023843
 30
0.0
 11
69.621656
 21
170.569843
 31
0.0
  0
LINE
  5
204E
100
AcDbEntity
  8
外形
  6
CONTINUOUS
100
AcDbLine
 10
72.417355
 20
205.548049
 30
0.0
 11
76.487681
 21
205.548049
 31
0.0
  0
LINE
  5
204F
100
AcDbEntity
  8
外形
  6
CONTINUOUS
100
AcDbLine
 10
71.487681
 20
213.048049
 30
0.0
 11
76.487681
 21
213.048049
 31
0.0
  0
LINE
  5
2050
100
AcDbEntity
  8
外形
  6
CONTINUOUS
100
AcDbLine
 10
65.5403
 20
205.048049
 30
0.0
 11
60.207655
 21
205.048049
 31
0.0
  0
LINE
  5
2051
100
AcDbEntity
  8
外形
  6
CONTINUOUS
100
AcDbLine
 10
69.621656
 20
213.548049
 30
0.0
 11
58.961697
 21
213.548049
 31
0.0
  0
LINE
  5
2053
100
AcDbEntity
  8
外形
  6
CONTINUOUS
100
AcDbLine
 10
71.487681
 20
213.048049
 30
0.0
 11
71.487681
 21
211.252042
 31
0.0
  0
LINE
  5
2055
100
AcDbEntity
  8
外形
  6
CONTINUOUS
100
AcDbLine
 10
71.487681
 20
213.048049
 30
0.0
 11
69.621656
 21
213.548049
 31
0.0
  0
LINE
  5
2056
100
AcDbEntity
  8
外形
  6
CONTINUOUS
100
AcDbLine
 10
69.621656
 20
213.548049
 30
0.0
 11
69.621656
 21
212.447182
 31
0.0
  0
LINE
  5
2057
100
AcDbEntity
  8
外形
  6
CONTINUOUS
100
AcDbLine
 10
76.487681
 20
213.048049
 30
0.0
 11
76.487681
 21
210.64434
 31
0.0
  0
LINE
  5
2059
100
AcDbEntity
  8
外形
  6
CONTINUOUS
100
AcDbLine
 10
76.487681
 20
213.048049
 30
0.0
 11
76.737681
 21
213.298049
 31
0.0
  0
LINE
  5
205A
100
AcDbEntity
  8
外形
  6
CONTINUOUS
100
AcDbLine
 10
76.737681
 20
213.298049
 30
0.0
 11
76.737681
 21
211.23454
 31
0.0
  0
LINE
  5
205B
100
AcDbEntity
  8
外形
  6
CONTINUOUS
100
AcDbLine
 10
76.737681
 20
205.298049
 30
0.0
 11
76.487681
 21
205.548049
 31
0.0
  0
LINE
  5
205E
100
AcDbEntity
  8
外形
  6
CONTINUOUS
100
AcDbLine
 10
71.958946
 20
210.64434
 30
0.0
 11
76.557982
 21
210.64434
 31
0.0
  0
LINE
  5
205F
100
AcDbEntity
  8
外形
  6
CONTINUOUS
100
AcDbLine
 10
73.616786
 20
207.951757
 30
0.0
 11
76.557982
 21
207.951757
 31
0.0
  0
SPLINE
  5
2062
100
AcDbEntity
  8
外形
  6
CONTINUOUS
100
AcDbSpline
210
0.0
220
0.0
230
1.0
 70
     8
 71
     3
 72
     9
 73
     5
 74
     3
 42
0.0000001
 43
0.0000001
 44
0.0000000001
 40
0.0
 40
0.0
 40
0.0
 40
0.0
 40
0.4963809937509519
 40
0.769292239695054
 40
0.769292239695054
 40
0.769292239695054
 40
0.769292239695054
 10
71.48768121796442
 20
211.2520422251308
 30
0.0
 10
71.59399093750744
 20
211.1251115445858
 30
0.0
 10
71.75874994979476
 20
210.9283941264097
 30
0.0
 10
71.90652258976818
 20
210.7187221613197
 30
0.0
 10
71.95894586041965
 20
210.6443397169381
 30
0.0
 11
71.48768121796442
 21
211.2520422251308
 31
0.0
 11
71.79953827934117
 21
210.8658566942953
 31
0.0
 11
71.95894586041965
 21
210.6443397169381
 31
0.0
  0
SPLINE
  5
2063
100
AcDbEntity
  8
外形
  6
CONTINUOUS
100
AcDbSpline
210
0.0
220
0.0
230
1.0
 70
     8
 71
     3
 72
     9
 73
     5
 74
     3
 42
0.0000001
 43
0.0000001
 44
0.0000000001
 40
0.0
 40
0.0
 40
0.0
 40
0.0
 40
0.379016323347687
 40
0.6310258881308377
 40
0.6310258881308377
 40
0.6310258881308377
 40
0.6310258881308377
 10
73.48768121796443
 20
207.3354380096493
 30
0.0
 10
73.52502167010446
 20
207.4565848409183
 30
0.0
 10
73.58718994762547
 20
207.6582827153541
 30
0.0
 10
73.60833967503045
 20
207.8680025722933
 30
0.0
 10
73.61678613293157
 20
207.9517573133708
 30
0.0
 11
73.48768121796443
 21
207.3354380096493
 31
0.0
 11
73.58490461671585
 21
207.7017725345023
 31
0.0
 11
73.61678613293157
 21
207.9517573133708
 31
0.0
  0
LINE
  5
2064
100
AcDbEntity
  8
外形
  6
CONTINUOUS
100
AcDbLine
 10
71.958946
 20
210.64434
 30
0.0
 11
73.616786
 21
207.951757
 31
0.0
  0
ELLIPSE
  5
2065
100
AcDbEntity
  8
外形
  6
CONTINUOUS
100
AcDbEllipse
 10
76.737681
 20
209.298049
 30
0.0
 11
0.0
 21
-1.936491673104455
 31
0.0
210
0.0
220
0.0
230
1.0
 40
0.129099
 41
3.141592653589793
 42
3.943660571618267
  0
LINE
  5
2066
100
AcDbEntity
  8
外形
  6
CONTINUOUS
100
AcDbLine
 10
76.737681
 20
207.361557
 30
0.0
 11
76.737681
 21
205.298049
 31
0.0
  0
LINE
  5
2068
100
AcDbEntity
  8
外形
  6
CONTINUOUS
100
AcDbLine
 10
76.487681
 20
207.951757
 30
0.0
 11
76.487681
 21
205.548049
 31
0.0
  0
ELLIPSE
  5
2069
100
AcDbEntity
  8
外形
  6
CONTINUOUS
100
AcDbEllipse
 10
76.737681
 20
209.298049
 30
0.0
 11
0.0
 21
-1.936491673104455
 31
0.0
210
0.0
220
0.0
230
1.0
 40
0.129099
 41
5.481117389151118
 42
6.283185307179586
  0
LINE
  5
2096
100
AcDbEntity
  8
外形
  6
CONTINUOUS
100
AcDbLine
 10
71.163682
 20
176.519251
 30
0.0
 11
71.487681
 21
176.288843
 31
0.0
  0
LINE
  5
2097
100
AcDbEntity
  8
外形
  6
CONTINUOUS
100
AcDbLine
 10
71.487681
 20
173.350843
 30
0.0
 11
69.621656
 21
172.023843
 31
0.0
  0
SPLINE
  5
2099
100
AcDbEntity
  8
外形
  6
CONTINUOUS
100
AcDbSpline
210
0.0
220
0.0
230
1.0
 70
     8
 71
     3
 72
     9
 73
     5
 74
     0
 42
0.0000001
 43
0.0000001
 40
7.236984777345371
 40
7.236984777345371
 40
7.236984777345371
 40
7.236984777345371
 40
8.975447765214081
 40
10.71391075308276
 40
10.71391075308276
 40
10.71391075308276
 40
10.71391075308279
 10
71.48768121796443
 20
176.2888430384827
 30
0.0
 10
71.95499926121343
 20
175.8212702564818
 30
0.0
 10
72.87970989890585
 20
174.8198430384827
 30
0.0
 10
71.95499926121342
 20
173.8184158204836
 30
0.0
 10
71.48768121796443
 20
173.3508430384827
 30
0.0
  0
SPLINE
  5
209A
100
AcDbEntity
  8
外形
  6
CONTINUOUS
100
AcDbSpline
210
0.0
220
0.0
230
1.0
 70
     8
 71
     3
 72
     8
 73
     4
 74
     0
 42
0.0000001
 43
0.0000001
 40
13.00366615651981
 40
13.00366615651981
 40
13.00366615651981
 40
13.00366615651981
 40
17.5368143276211
 40
17.5368143276211
 40
17.5368143276211
 40
17.5368143276211
 10
69.62165581417995
 20
172.0238430384827
 30
0.0
 10
68.38155282928609
 20
171.7213402297867
 30
0.0
 10
67.13254403366732
 20
173.0083823167571
 30
0.0
 10
65.8827898251036
 20
174.4284687023776
 30
0.0
  0
LINE
  5
209B
100
AcDbEntity
  8
外形
  6
CONTINUOUS
100
AcDbLine
 10
71.487681
 20
173.350843
 30
0.0
 11
71.487681
 21
171.069843
 31
0.0
  0
DIMENSION
  5
20AF
100
AcDbEntity
  8
寸法
  6
CONTINUOUS
100
AcDbDimension
  2
*D10
 10
71.487681
 20
162.721486
 30
0.0
 11
64.987681
 21
165.221486
 31
0.0
 70
    32
  3
STANDARD
100
AcDbAlignedDimension
 13
58.487681
 23
174.819843
 33
0.0
 14
71.487681
 24
171.069843
 34
0.0
100
AcDbRotatedDimension
1001
ACAD
1000
DSTYLE
1002
{
1070
   284
1070
    13
1070
   146
1040
0.5
1070
   272
1070
     3
1070
    40
1040
1.0
1070
   287
1070
     0
1002
}
  0
ENDSEC
  0
SECTION
  2
OBJECTS
  0
DICTIONARY
  5
1E
100
AcDbDictionary
  3
ACAD_GROUP
350
1C
  3
ACAD_MLINESTYLE
350
1D
  3
ACDBVARIABLEDICTIONARY
350
147A
  3
DRAWINGVARIABLESDICT
350
C58
  0
DICTIONARY
  5
38
100
AcDbDictionary
280
     1
  3
ACAD_XREC_ROUNDTRIP
360
39
  0
DICTIONARY
  5
22
100
AcDbDictionary
280
     1
  3
ACAD_XREC_ROUNDTRIP
360
23
  0
DICTIONARY
  5
3
100
AcDbDictionary
280
     1
  3
ACAD_LAYOUTSELFREF
360
4
  0
DICTIONARY
  5
A
100
AcDbDictionary
280
     1
  3
ACAD_LAYOUTSELFREF
360
B
  0
DICTIONARY
  5
1C
102
{ACAD_REACTORS
330
1E
102
}
100
AcDbDictionary
  0
DICTIONARY
  5
1D
102
{ACAD_REACTORS
330
1E
102
}
100
AcDbDictionary
  3
STANDARD
350
20
  0
DICTIONARY
  5
147A
102
{ACAD_REACTORS
330
1E
102
}
100
AcDbDictionary
  3
SORTENTS
350
147B
  0
DICTIONARY
  5
C58
102
{ACAD_REACTORS
330
1E
102
}
100
AcDbDictionary
1001
DRAWINGVARIABLESXDATA
1000
POLARMODE
1000
0
  0
XRECORD
  5
39
102
{ACAD_REACTORS
330
38
102
}
100
AcDbXrecord
102
PLOTBIT
280
     0
  0
XRECORD
  5
23
102
{ACAD_REACTORS
330
22
102
}
100
AcDbXrecord
102
ACADR14ROUNDTRIP
1000
DSTYLE
1002
{
1070
   341
340
0
1070
   343
340
0
1070
   344
340
0
1002
}
  0
XRECORD
  5
4
102
{ACAD_REACTORS
330
3
102
}
100
AcDbXrecord
340
2
  0
XRECORD
  5
B
102
{ACAD_REACTORS
330
A
102
}
100
AcDbXrecord
340
9
  0
MLINESTYLE
  5
20
102
{ACAD_REACTORS
330
1D
102
}
100
AcDbMlineStyle
  2
STANDARD
 70
     0
  3

 62
     0
 51
90.0
 52
90.0
 71
     2
 49
0.5
 62
   256
  6
BYLAYER
 49
-0.5
 62
   256
  6
BYLAYER
  0
DICTIONARYVAR
  5
147B
102
{ACAD_REACTORS
330
147A
102
}
100
DictionaryVariables
280
     0
  1
96
  0
ENDSEC
  0
EOF
