  0
SECTION
  2
HEADER
  9
$ACADVER
  1
AC1014
  9
$ACADMAINTVER
 70
     0
  9
$DWGCODEPAGE
  3
ANSI_932
  9
$INSBASE
 10
-587.250952
 20
747.890188
 30
0.0
  9
$EXTMIN
 10
10.981083
 20
150.213866
 30
0.0
  9
$EXTMAX
 10
168.177948
 20
240.902834
 30
0.0
  9
$LIMMIN
 10
-587.250952
 20
327.890188
  9
$LIMMAX
 10
600.749048
 20
957.890188
  9
$ORTHOMODE
 70
     1
  9
$REGENMODE
 70
     1
  9
$FILLMODE
 70
     1
  9
$QTEXTMODE
 70
     0
  9
$MIRRTEXT
 70
     1
  9
$DRAGMODE
 70
     2
  9
$LTSCALE
 40
5.0
  9
$OSMODE
 70
    37
  9
$ATTMODE
 70
     1
  9
$TEXTSIZE
 40
5.0
  9
$TRACEWID
 40
0.05
  9
$TEXTSTYLE
  7
STANDARD
  9
$CLAYER
  8
外形
  9
$CELTYPE
  6
CONTINUOUS
  9
$CECOLOR
 62
   256
  9
$CELTSCALE
 40
1.0
  9
$DELOBJ
 70
     1
  9
$DISPSILH
 70
     0
  9
$DIMSCALE
 40
0.0
  9
$DIMASZ
 40
2.0
  9
$DIMEXO
 40
1.0
  9
$DIMDLI
 40
8.0
  9
$DIMRND
 40
0.0
  9
$DIMDLE
 40
0.0
  9
$DIMEXE
 40
2.0
  9
$DIMTP
 40
0.0
  9
$DIMTM
 40
0.0
  9
$DIMTXT
 40
3.0
  9
$DIMCEN
 40
-1.0
  9
$DIMTSZ
 40
0.0
  9
$DIMTOL
 70
     0
  9
$DIMLIM
 70
     0
  9
$DIMTIH
 70
     0
  9
$DIMTOH
 70
     0
  9
$DIMSE1
 70
     0
  9
$DIMSE2
 70
     0
  9
$DIMTAD
 70
     1
  9
$DIMZIN
 70
     8
  9
$DIMBLK
  1

  9
$DIMASO
 70
     1
  9
$DIMSHO
 70
     1
  9
$DIMPOST
  1

  9
$DIMAPOST
  1

  9
$DIMALT
 70
     0
  9
$DIMALTD
 70
     2
  9
$DIMALTF
 40
25.4
  9
$DIMLFAC
 40
1.0
  9
$DIMTOFL
 70
     1
  9
$DIMTVP
 40
0.0
  9
$DIMTIX
 70
     0
  9
$DIMSOXD
 70
     0
  9
$DIMSAH
 70
     1
  9
$DIMBLK1
  1
_OPEN30
  9
$DIMBLK2
  1
_OPEN30
  9
$DIMSTYLE
  2
STANDARD
  9
$DIMCLRD
 70
     1
  9
$DIMCLRE
 70
     1
  9
$DIMCLRT
 70
     3
  9
$DIMTFAC
 40
1.0
  9
$DIMGAP
 40
1.0
  9
$DIMJUST
 70
     0
  9
$DIMSD1
 70
     0
  9
$DIMSD2
 70
     0
  9
$DIMTOLJ
 70
     1
  9
$DIMTZIN
 70
     8
  9
$DIMALTZ
 70
     0
  9
$DIMALTTZ
 70
     0
  9
$DIMFIT
 70
     3
  9
$DIMUPT
 70
     0
  9
$DIMUNIT
 70
     2
  9
$DIMDEC
 70
     2
  9
$DIMTDEC
 70
     2
  9
$DIMALTU
 70
     2
  9
$DIMALTTD
 70
     2
  9
$DIMTXSTY
  7
STANDARD
  9
$DIMAUNIT
 70
     0
  9
$LUNITS
 70
     2
  9
$LUPREC
 70
     0
  9
$SKETCHINC
 40
0.1
  9
$FILLETRAD
 40
0.0
  9
$AUNITS
 70
     0
  9
$AUPREC
 70
     0
  9
$MENU
  1
acad
  9
$ELEVATION
 40
0.0
  9
$PELEVATION
 40
0.0
  9
$THICKNESS
 40
0.0
  9
$LIMCHECK
 70
     0
  9
$BLIPMODE
 70
     0
  9
$CHAMFERA
 40
0.0
  9
$CHAMFERB
 40
0.0
  9
$CHAMFERC
 40
0.0
  9
$CHAMFERD
 40
0.0
  9
$SKPOLY
 70
     0
  9
$TDCREATE
 40
2450751.535399305
  9
$TDUPDATE
 40
2451998.393784722
  9
$TDINDWG
 40
1.9382046296
  9
$TDUSRTIMER
 40
1.9382046296
  9
$USRTIMER
 70
     1
  9
$ANGBASE
 50
0.0
  9
$ANGDIR
 70
     0
  9
$PDMODE
 70
    32
  9
$PDSIZE
 40
0.0
  9
$PLINEWID
 40
0.0
  9
$COORDS
 70
     2
  9
$SPLFRAME
 70
     0
  9
$SPLINETYPE
 70
     5
  9
$SPLINESEGS
 70
     8
  9
$ATTDIA
 70
     0
  9
$ATTREQ
 70
     1
  9
$HANDLING
 70
     1
  9
$HANDSEED
  5
2026
  9
$SURFTAB1
 70
     6
  9
$SURFTAB2
 70
     6
  9
$SURFTYPE
 70
     6
  9
$SURFU
 70
     6
  9
$SURFV
 70
     6
  9
$UCSNAME
  2

  9
$UCSORG
 10
40.53800450572526
 20
146.9196145921314
 30
0.0
  9
$UCSXDIR
 10
1.0
 20
0.0
 30
0.0
  9
$UCSYDIR
 10
0.0
 20
1.0
 30
0.0
  9
$PUCSNAME
  2

  9
$PUCSORG
 10
0.0
 20
0.0
 30
0.0
  9
$PUCSXDIR
 10
1.0
 20
0.0
 30
0.0
  9
$PUCSYDIR
 10
0.0
 20
1.0
 30
0.0
  9
$USERI1
 70
     0
  9
$USERI2
 70
     0
  9
$USERI3
 70
     0
  9
$USERI4
 70
     0
  9
$USERI5
 70
     0
  9
$USERR1
 40
0.0
  9
$USERR2
 40
0.0
  9
$USERR3
 40
0.0
  9
$USERR4
 40
0.0
  9
$USERR5
 40
0.0
  9
$WORLDVIEW
 70
     1
  9
$SHADEDGE
 70
     3
  9
$SHADEDIF
 70
    70
  9
$TILEMODE
 70
     1
  9
$MAXACTVP
 70
    16
  9
$PINSBASE
 10
0.0
 20
0.0
 30
0.0
  9
$PLIMCHECK
 70
     0
  9
$PEXTMIN
 10
1.000000E+20
 20
1.000000E+20
 30
1.000000E+20
  9
$PEXTMAX
 10
-1.000000E+20
 20
-1.000000E+20
 30
-1.000000E+20
  9
$PLIMMIN
 10
0.0
 20
0.0
  9
$PLIMMAX
 10
12.0
 20
9.0
  9
$UNITMODE
 70
     0
  9
$VISRETAIN
 70
     0
  9
$PLINEGEN
 70
     0
  9
$PSLTSCALE
 70
     1
  9
$TREEDEPTH
 70
  3020
  9
$PICKSTYLE
 70
     0
  9
$CMLSTYLE
  2
STANDARD
  9
$CMLJUST
 70
     0
  9
$CMLSCALE
 40
1.0
  9
$PROXYGRAPHICS
 70
     1
  9
$MEASUREMENT
 70
     0
  0
ENDSEC
  0
SECTION
  2
CLASSES
  0
CLASS
  1
LWPOLYLINE
  2
AcDbPolyline
  3
"AutoCAD"
 90
        0
280
     0
281
     1
  0
CLASS
  1
ACDBDICTIONARYWDFLT
  2
AcDbDictionaryWithDefault
  3
AutoCAD 2000
 90
        0
280
     1
281
     0
  0
CLASS
  1
ACDBPLACEHOLDER
  2
AcDbPlaceHolder
  3
AutoCAD 2000
 90
        0
280
     1
281
     0
  0
CLASS
  1
LAYOUT
  2
AcDbLayout
  3
AutoCAD 2000
 90
        0
280
     1
281
     0
  0
CLASS
  1
LONG_TRANSACTION
  2
AcDbLongTransaction
  3
AutoCAD 2000
 90
        0
280
     1
281
     0
  0
CLASS
  1
LWPOLYLINE
  2
AcDbPolyline
  3
"AutoCAD"
 90
        0
280
     0
281
     1
  0
CLASS
  1
HATCH
  2
AcDbHatch
  3
"ACAD_SEDONA"
 90
        0
280
     0
281
     1
  0
CLASS
  1
XRECORD
  2
AcDbXrecord
  3
"<Built In>"
 90
        0
280
     0
281
     0
  0
CLASS
  1
DICTIONARYVAR
  2
AcDbDictionaryVar
  3
"AutoCAD"
 90
        0
280
     0
281
     0
  0
ENDSEC
  0
SECTION
  2
TABLES
  0
TABLE
  2
VPORT
  5
16
100
AcDbSymbolTable
 70
     1
  0
VPORT
  5
2021
100
AcDbSymbolTableRecord
100
AcDbViewportTableRecord
  2
*ACTIVE
 70
     0
 10
0.0
 20
0.0
 11
1.0
 21
1.0
 12
115.334014
 22
186.322781
 13
0.0
 23
0.0
 14
1.0
 24
1.0
 15
10.0
 25
10.0
 16
0.0
 26
0.0
 36
1.0
 17
0.0
 27
0.0
 37
0.0
 40
149.462448
 41
1.710425
 42
50.0
 43
0.0
 44
0.0
 50
0.0
 51
0.0
 71
     0
 72
   100
 73
     1
 74
     1
 75
     0
 76
     0
 77
     0
 78
     2
  0
ENDTAB
  0
TABLE
  2
LTYPE
  5
11
100
AcDbSymbolTable
 70
     2
  0
LTYPE
  5
12
100
AcDbSymbolTableRecord
100
AcDbLinetypeTableRecord
  2
BYBLOCK
 70
     0
  3

 72
    65
 73
     0
 40
0.0
  0
LTYPE
  5
13
100
AcDbSymbolTableRecord
100
AcDbLinetypeTableRecord
  2
BYLAYER
 70
     0
  3

 72
    65
 73
     0
 40
0.0
  0
LTYPE
  5
7
100
AcDbSymbolTableRecord
100
AcDbLinetypeTableRecord
  2
CONTINUOUS
 70
     0
  3
Solid line
 72
    65
 73
     0
 40
0.0
  0
LTYPE
  5
AA
100
AcDbSymbolTableRecord
100
AcDbLinetypeTableRecord
  2
CENTER
 70
     0
  3
Center ____ _ ____ _ ____ _ ____ _ ____ _ ____
 72
    65
 73
     4
 40
2.0
 49
1.25
 74
     0
 49
-0.25
 74
     0
 49
0.25
 74
     0
 49
-0.25
 74
     0
  0
ENDTAB
  0
TABLE
  2
LAYER
  5
E
100
AcDbSymbolTable
 70
     4
  0
LAYER
  5
6
100
AcDbSymbolTableRecord
100
AcDbLayerTableRecord
  2
0
 70
     0
 62
     7
  6
CONTINUOUS
  0
LAYER
  5
2C
100
AcDbSymbolTableRecord
100
AcDbLayerTableRecord
  2
外形
 70
     0
 62
     3
  6
CONTINUOUS
  0
LAYER
  5
37
102
{ACAD_XDICTIONARY
360
38
102
}
100
AcDbSymbolTableRecord
100
AcDbLayerTableRecord
  2
DEFPOINTS
 70
     0
 62
     7
  6
CONTINUOUS
  0
LAYER
  5
1F
100
AcDbSymbolTableRecord
100
AcDbLayerTableRecord
  2
寸法
 70
     0
 62
     1
  6
CONTINUOUS
  0
ENDTAB
  0
TABLE
  2
STYLE
  5
F
100
AcDbSymbolTable
 70
     1
  0
STYLE
  5
10
100
AcDbSymbolTableRecord
100
AcDbTextStyleTableRecord
  2
STANDARD
 70
     0
 40
0.0
 41
1.0
 50
0.0
 71
     0
 42
5.0
  3
MONOTXT
  4
BIGFONT
  0
ENDTAB
  0
TABLE
  2
VIEW
  5
14
100
AcDbSymbolTable
 70
     0
  0
ENDTAB
  0
TABLE
  2
UCS
  5
15
100
AcDbSymbolTable
 70
     0
  0
ENDTAB
  0
TABLE
  2
APPID
  5
18
100
AcDbSymbolTable
 70
     2
  0
APPID
  5
19
100
AcDbSymbolTableRecord
100
AcDbRegAppTableRecord
  2
ACAD
 70
     0
  0
APPID
  5
C59
100
AcDbSymbolTableRecord
100
AcDbRegAppTableRecord
  2
DRAWINGVARIABLESXDATA
 70
     0
  0
ENDTAB
  0
TABLE
  2
DIMSTYLE
  5
1A
100
AcDbSymbolTable
 70
     1
  0
DIMSTYLE
105
21
102
{ACAD_XDICTIONARY
360
22
102
}
102
{ACAD_REACTORS
330
1E33
330
1EAB
330
1EE3
330
1EFD
330
1F15
330
1F20
330
1FB2
330
200F
102
}
100
AcDbSymbolTableRecord
100
AcDbDimStyleTableRecord
  2
STANDARD
 70
     0
  3

  4

  5

  6
_OPEN30
  7
_OPEN30
 40
0.0
 41
2.0
 42
1.0
 43
8.0
 44
2.0
 45
0.0
 46
0.0
 47
0.0
 48
0.0
140
3.0
141
-1.0
142
0.0
143
25.4
144
1.0
145
0.0
146
1.0
147
1.0
 71
     0
 72
     0
 73
     0
 74
     0
 75
     0
 76
     0
 77
     1
 78
     8
170
     0
171
     2
172
     1
173
     1
174
     0
175
     0
176
     1
177
     1
178
     3
270
     2
271
     2
272
     2
273
     2
274
     2
340
10
275
     0
280
     0
281
     0
282
     0
283
     1
284
     8
285
     0
286
     0
287
     3
288
     0
  0
ENDTAB
  0
TABLE
  2
BLOCK_RECORD
  5
1
100
AcDbSymbolTable
 70
    10
  0
BLOCK_RECORD
  5
2
102
{ACAD_XDICTIONARY
360
3
102
}
100
AcDbSymbolTableRecord
100
AcDbBlockTableRecord
  2
*MODEL_SPACE
  0
BLOCK_RECORD
  5
9
102
{ACAD_XDICTIONARY
360
A
102
}
100
AcDbSymbolTableRecord
100
AcDbBlockTableRecord
  2
*PAPER_SPACE
  0
BLOCK_RECORD
  5
470
100
AcDbSymbolTableRecord
100
AcDbBlockTableRecord
  2
_OPEN30
  0
BLOCK_RECORD
  5
1A9A
100
AcDbSymbolTableRecord
100
AcDbBlockTableRecord
  2
A$C613D5998
  0
BLOCK_RECORD
  5
1E44
100
AcDbSymbolTableRecord
100
AcDbBlockTableRecord
  2
*D2
  0
BLOCK_RECORD
  5
1E9B
100
AcDbSymbolTableRecord
100
AcDbBlockTableRecord
  2
*D3
  0
BLOCK_RECORD
  5
1ED7
100
AcDbSymbolTableRecord
100
AcDbBlockTableRecord
  2
*D4
  0
BLOCK_RECORD
  5
1EF1
100
AcDbSymbolTableRecord
100
AcDbBlockTableRecord
  2
*D5
  0
BLOCK_RECORD
  5
1F09
100
AcDbSymbolTableRecord
100
AcDbBlockTableRecord
  2
*D6
  0
BLOCK_RECORD
  5
1F16
100
AcDbSymbolTableRecord
100
AcDbBlockTableRecord
  2
*D7
  0
BLOCK_RECORD
  5
1FA6
100
AcDbSymbolTableRecord
100
AcDbBlockTableRecord
  2
*D8
  0
BLOCK_RECORD
  5
2001
100
AcDbSymbolTableRecord
100
AcDbBlockTableRecord
  2
*D9
  0
ENDTAB
  0
ENDSEC
  0
SECTION
  2
BLOCKS
  0
BLOCK
  5
5
100
AcDbEntity
  8
0
100
AcDbBlockBegin
  2
*MODEL_SPACE
 70
     0
 10
0.0
 20
0.0
 30
0.0
  3
*MODEL_SPACE
  1

  0
ENDBLK
  5
8
100
AcDbEntity
  8
0
100
AcDbBlockEnd
  0
BLOCK
  5
C
100
AcDbEntity
 67
     1
  8
0
100
AcDbBlockBegin
  2
*PAPER_SPACE
 70
     0
 10
0.0
 20
0.0
 30
0.0
  3
*PAPER_SPACE
  1

  0
ENDBLK
  5
D
100
AcDbEntity
 67
     1
  8
0
100
AcDbBlockEnd
  0
BLOCK
  5
471
100
AcDbEntity
  8
0
100
AcDbBlockBegin
  2
_OPEN30
 70
     0
 10
0.0
 20
0.0
 30
0.0
  3
_OPEN30
  1

  0
LINE
  5
472
100
AcDbEntity
  8
0
  6
BYBLOCK
 62
     0
100
AcDbLine
 10
-1.0
 20
0.267949
 30
0.0
 11
0.0
 21
0.0
 31
0.0
  0
LINE
  5
473
100
AcDbEntity
  8
0
  6
BYBLOCK
 62
     0
100
AcDbLine
 10
0.0
 20
0.0
 30
0.0
 11
-1.0
 21
-0.267949
 31
0.0
  0
LINE
  5
474
100
AcDbEntity
  8
0
  6
BYBLOCK
 62
     0
100
AcDbLine
 10
0.0
 20
0.0
 30
0.0
 11
-1.0
 21
0.0
 31
0.0
  0
ENDBLK
  5
475
100
AcDbEntity
  8
0
100
AcDbBlockEnd
  0
BLOCK
  5
1AAE
100
AcDbEntity
  8
0
100
AcDbBlockBegin
  2
A$C613D5998
 70
     0
 10
0.0
 20
0.0
 30
0.0
  3
A$C613D5998
  1

  0
ARC
  5
1A9B
100
AcDbEntity
  8
外形
  6
CONTINUOUS
100
AcDbCircle
 10
1.35
 20
2.054062
 30
0.0
 40
0.2
100
AcDbArc
 50
240.283476
 51
299.716524
  0
ARC
  5
1A9C
100
AcDbEntity
  8
外形
  6
CONTINUOUS
100
AcDbCircle
 10
0.740264
 20
1.702031
 30
0.0
 40
0.2
100
AcDbArc
 50
300.283476
 51
359.716524
  0
ARC
  5
1A9D
100
AcDbEntity
  8
外形
  6
CONTINUOUS
100
AcDbCircle
 10
0.740264
 20
0.997969
 30
0.0
 40
0.2
100
AcDbArc
 50
0.283476
 51
59.716524
  0
ARC
  5
1A9E
100
AcDbEntity
  8
外形
  6
CONTINUOUS
100
AcDbCircle
 10
1.35
 20
0.645938
 30
0.0
 40
0.2
100
AcDbArc
 50
60.283476
 51
119.716524
  0
ARC
  5
1A9F
100
AcDbEntity
  8
外形
  6
CONTINUOUS
100
AcDbCircle
 10
1.959736
 20
0.997969
 30
0.0
 40
0.2
100
AcDbArc
 50
120.283476
 51
179.716524
  0
ARC
  5
1AA0
100
AcDbEntity
  8
外形
  6
CONTINUOUS
100
AcDbCircle
 10
1.959736
 20
1.702031
 30
0.0
 40
0.2
100
AcDbArc
 50
180.283476
 51
239.716524
  0
LINE
  5
1AA1
100
AcDbEntity
  8
外形
  6
CONTINUOUS
100
AcDbLine
 10
1.757979
 20
0.64336
 30
0.0
 11
1.449142
 21
0.819635
 31
0.0
  0
LINE
  5
1AA2
100
AcDbEntity
  8
外形
  6
CONTINUOUS
100
AcDbLine
 10
1.759738
 20
0.998958
 30
0.0
 11
1.757979
 21
0.64336
 31
0.0
  0
LINE
  5
1AA3
100
AcDbEntity
  8
外形
  6
CONTINUOUS
100
AcDbLine
 10
0.942021
 20
0.64336
 30
0.0
 11
0.940262
 21
0.998958
 31
0.0
  0
LINE
  5
1AA4
100
AcDbEntity
  8
外形
  6
CONTINUOUS
100
AcDbLine
 10
1.250858
 20
0.819635
 30
0.0
 11
0.942021
 21
0.64336
 31
0.0
  0
LINE
  5
1AA5
100
AcDbEntity
  8
外形
  6
CONTINUOUS
100
AcDbLine
 10
0.534043
 20
1.35
 30
0.0
 11
0.84112
 21
1.529323
 31
0.0
  0
LINE
  5
1AA6
100
AcDbEntity
  8
外形
  6
CONTINUOUS
100
AcDbLine
 10
0.84112
 20
1.170677
 30
0.0
 11
0.534043
 21
1.35
 31
0.0
  0
LINE
  5
1AA7
100
AcDbEntity
  8
外形
  6
CONTINUOUS
100
AcDbLine
 10
0.942021
 20
2.05664
 30
0.0
 11
1.250858
 21
1.880364
 31
0.0
  0
LINE
  5
1AA8
100
AcDbEntity
  8
外形
  6
CONTINUOUS
100
AcDbLine
 10
0.940262
 20
1.701041
 30
0.0
 11
0.942021
 21
2.05664
 31
0.0
  0
LINE
  5
1AA9
100
AcDbEntity
  8
外形
  6
CONTINUOUS
100
AcDbLine
 10
1.757979
 20
2.05664
 30
0.0
 11
1.759738
 21
1.701041
 31
0.0
  0
LINE
  5
1AAA
100
AcDbEntity
  8
外形
  6
CONTINUOUS
100
AcDbLine
 10
1.449142
 20
1.880364
 30
0.0
 11
1.757979
 21
2.05664
 31
0.0
  0
LINE
  5
1AAB
100
AcDbEntity
  8
外形
  6
CONTINUOUS
100
AcDbLine
 10
2.165958
 20
1.35
 30
0.0
 11
1.85888
 21
1.170677
 31
0.0
  0
LINE
  5
1AAC
100
AcDbEntity
  8
外形
  6
CONTINUOUS
100
AcDbLine
 10
1.85888
 20
1.529323
 30
0.0
 11
2.165958
 21
1.35
 31
0.0
  0
CIRCLE
  5
1AAD
100
AcDbEntity
  8
外形
  6
CONTINUOUS
100
AcDbCircle
 10
1.35
 20
1.35
 30
0.0
 40
1.35
  0
ENDBLK
  5
1AAF
100
AcDbEntity
  8
0
100
AcDbBlockEnd
  0
BLOCK
  5
2010
100
AcDbEntity
  8
0
100
AcDbBlockBegin
  2
*D2
 70
     1
 10
0.0
 20
0.0
 30
0.0
  3
*D2
  1

  0
LINE
  5
2011
100
AcDbEntity
  8
0
  6
BYBLOCK
 62
     1
100
AcDbLine
 10
56.902821
 20
214.105933
 30
0.0
 11
34.956391
 21
214.105933
 31
0.0
  0
LINE
  5
2012
100
AcDbEntity
  8
0
  6
BYBLOCK
 62
     1
100
AcDbLine
 10
36.956391
 20
216.105933
 30
0.0
 11
36.956391
 21
236.852359
 31
0.0
  0
INSERT
  5
2013
100
AcDbEntity
  8
0
  6
BYBLOCK
 62
     1
100
AcDbBlockReference
  2
_OPEN30
 10
36.956391
 20
214.105933
 30
0.0
 41
2.0
 42
2.0
 43
2.0
 50
270.0
  0
MTEXT
  5
2014
100
AcDbEntity
  8
0
  6
BYBLOCK
 62
     3
100
AcDbMText
 10
34.456391
 20
230.352359
 30
0.0
 40
3.0
 41
0.0
 71
     5
 72
     1
  1
\A1;\U+22058.0
 11
0.0
 21
1.0
 31
0.0
  0
POINT
  5
2015
100
AcDbEntity
  8
DEFPOINTS
  6
BYBLOCK
 62
     0
100
AcDbPoint
 10
57.902821
 20
214.105933
 30
0.0
  0
POINT
  5
2016
100
AcDbEntity
  8
DEFPOINTS
  6
BYBLOCK
 62
     0
100
AcDbPoint
 10
53.267376
 20
240.902834
 30
0.0
  0
POINT
  5
2017
100
AcDbEntity
  8
DEFPOINTS
  6
BYBLOCK
 62
     0
100
AcDbPoint
 10
36.956391
 20
240.902834
 30
0.0
  0
ENDBLK
  5
2018
100
AcDbEntity
  8
0
100
AcDbBlockEnd
  0
BLOCK
  5
1FDF
100
AcDbEntity
  8
0
100
AcDbBlockBegin
  2
*D3
 70
     1
 10
0.0
 20
0.0
 30
0.0
  3
*D3
  1

  0
LINE
  5
1FE0
100
AcDbEntity
  8
0
  6
BYBLOCK
 62
     1
100
AcDbLine
 10
28.422448
 20
213.019582
 30
0.0
 11
25.156189
 21
194.495701
 31
0.0
  0
LINE
  5
1FE1
100
AcDbEntity
  8
0
  6
BYBLOCK
 62
     1
100
AcDbLine
 10
28.596097
 20
210.74211
 30
0.0
 11
28.596097
 21
194.194748
 31
0.0
  0
ARC
  5
1FE2
100
AcDbEntity
  8
0
  6
BYBLOCK
 62
     1
100
AcDbCircle
 10
28.596097
 20
214.004389
 30
0.0
 40
17.809641
100
AcDbArc
 50
247.104312
 51
260.0
  0
LINE
  5
1FE3
100
AcDbEntity
  8
0
  6
BYBLOCK
 62
     1
100
AcDbLine
 10
21.667173
 20
197.597887
 30
0.0
 11
10.981083
 21
202.11092
 31
0.0
  0
ARC
  5
1FE4
100
AcDbEntity
  8
0
  6
BYBLOCK
 62
     1
100
AcDbCircle
 10
28.596097
 20
214.004389
 30
0.0
 40
17.809641
100
AcDbArc
 50
247.124742
 51
253.562371
  0
ARC
  5
1FE5
100
AcDbEntity
  8
0
  6
BYBLOCK
 62
     1
100
AcDbCircle
 10
28.596097
 20
214.004389
 30
0.0
 40
17.809641
100
AcDbArc
 50
276.437629
 51
282.875258
  0
ARC
  5
1FE6
100
AcDbEntity
  8
0
  6
BYBLOCK
 62
     1
100
AcDbCircle
 10
28.596097
 20
214.004389
 30
0.0
 40
17.809641
100
AcDbArc
 50
260.0
 51
270.0
  0
INSERT
  5
1FE7
100
AcDbEntity
  8
0
  6
BYBLOCK
 62
     1
100
AcDbBlockReference
  2
_OPEN30
 10
25.503485
 20
196.465317
 30
0.0
 41
2.0
 42
2.0
 43
2.0
 50
346.781186
  0
INSERT
  5
1FE8
100
AcDbEntity
  8
0
  6
BYBLOCK
 62
     1
100
AcDbBlockReference
  2
_OPEN30
 10
28.596097
 20
196.194748
 30
0.0
 41
2.0
 42
2.0
 43
2.0
 50
183.218814
  0
MTEXT
  5
1FE9
100
AcDbEntity
  8
0
  6
BYBLOCK
 62
     3
100
AcDbMText
 10
17.296765
 20
202.15744
 30
0.0
 40
3.0
 41
0.0
 71
     5
 72
     1
  1
\A1;10°
 11
0.921215
 21
-0.389055
 31
0.0
  0
POINT
  5
1FEA
100
AcDbEntity
  8
DEFPOINTS
  6
BYBLOCK
 62
     0
100
AcDbPoint
 10
27.560558
 20
196.224879
 30
0.0
  0
POINT
  5
1FEB
100
AcDbEntity
  8
DEFPOINTS
  6
BYBLOCK
 62
     0
100
AcDbPoint
 10
28.596097
 20
214.004389
 30
0.0
  0
POINT
  5
1FEC
100
AcDbEntity
  8
DEFPOINTS
  6
BYBLOCK
 62
     0
100
AcDbPoint
 10
28.596097
 20
224.49069
 30
0.0
  0
POINT
  5
1FED
100
AcDbEntity
  8
DEFPOINTS
  6
BYBLOCK
 62
     0
100
AcDbPoint
 10
28.596097
 20
211.74211
 30
0.0
  0
POINT
  5
1FEE
100
AcDbEntity
  8
DEFPOINTS
  6
BYBLOCK
 62
     0
100
AcDbPoint
 10
29.92753
 20
221.555325
 30
0.0
  0
ENDBLK
  5
1FEF
100
AcDbEntity
  8
0
100
AcDbBlockEnd
  0
BLOCK
  5
1EE4
100
AcDbEntity
  8
0
100
AcDbBlockBegin
  2
*D4
 70
     1
 10
0.0
 20
0.0
 30
0.0
  3
*D4
  1

  0
LINE
  5
1EE5
100
AcDbEntity
  8
0
  6
BYBLOCK
 62
     1
100
AcDbLine
 10
64.966019
 20
304.891015
 30
0.0
 11
60.978067
 21
304.891015
 31
0.0
  0
LINE
  5
1EE6
100
AcDbEntity
  8
0
  6
BYBLOCK
 62
     1
100
AcDbLine
 10
66.709159
 20
300.891015
 30
0.0
 11
60.978067
 21
300.891015
 31
0.0
  0
LINE
  5
1EE7
100
AcDbEntity
  8
0
  6
BYBLOCK
 62
     1
100
AcDbLine
 10
62.978067
 20
306.891015
 30
0.0
 11
62.978067
 21
308.891015
 31
0.0
  0
LINE
  5
1EE8
100
AcDbEntity
  8
0
  6
BYBLOCK
 62
     1
100
AcDbLine
 10
62.978067
 20
298.891015
 30
0.0
 11
62.978067
 21
292.891015
 31
0.0
  0
LINE
  5
1EE9
100
AcDbEntity
  8
0
  6
BYBLOCK
 62
     1
100
AcDbLine
 10
62.978067
 20
304.891015
 30
0.0
 11
62.978067
 21
300.891015
 31
0.0
  0
INSERT
  5
1EEA
100
AcDbEntity
  8
0
  6
BYBLOCK
 62
     1
100
AcDbBlockReference
  2
_OPEN30
 10
62.978067
 20
304.891015
 30
0.0
 41
2.0
 42
2.0
 43
2.0
 50
270.0
  0
INSERT
  5
1EEB
100
AcDbEntity
  8
0
  6
BYBLOCK
 62
     1
100
AcDbBlockReference
  2
_OPEN30
 10
62.978067
 20
300.891015
 30
0.0
 41
2.0
 42
2.0
 43
2.0
 50
90.0
  0
MTEXT
  5
1EEC
100
AcDbEntity
  8
0
  6
BYBLOCK
 62
     3
100
AcDbMText
 10
60.478067
 20
294.891015
 30
0.0
 40
3.0
 41
0.0
 71
     5
 72
     1
  1
\A1;4
 11
0.0
 21
1.0
 31
0.0
  0
POINT
  5
1EED
100
AcDbEntity
  8
DEFPOINTS
  6
BYBLOCK
 62
     0
100
AcDbPoint
 10
65.966019
 20
304.891015
 30
0.0
  0
POINT
  5
1EEE
100
AcDbEntity
  8
DEFPOINTS
  6
BYBLOCK
 62
     0
100
AcDbPoint
 10
67.709159
 20
300.891015
 30
0.0
  0
POINT
  5
1EEF
100
AcDbEntity
  8
DEFPOINTS
  6
BYBLOCK
 62
     0
100
AcDbPoint
 10
62.978067
 20
300.891015
 30
0.0
  0
ENDBLK
  5
1EF0
100
AcDbEntity
  8
0
100
AcDbBlockEnd
  0
BLOCK
  5
1FBE
100
AcDbEntity
  8
0
100
AcDbBlockBegin
  2
*D5
 70
     1
 10
0.0
 20
0.0
 30
0.0
  3
*D5
  1

  0
LINE
  5
1FBF
100
AcDbEntity
  8
0
  6
BYBLOCK
 62
     1
100
AcDbLine
 10
57.742553
 20
213.1164
 30
0.0
 11
57.742553
 21
189.20212
 31
0.0
  0
LINE
  5
1FC0
100
AcDbEntity
  8
0
  6
BYBLOCK
 62
     1
100
AcDbLine
 10
157.742553
 20
214.1164
 30
0.0
 11
157.742553
 21
189.20212
 31
0.0
  0
LINE
  5
1FC1
100
AcDbEntity
  8
0
  6
BYBLOCK
 62
     1
100
AcDbLine
 10
59.742553
 20
191.20212
 30
0.0
 11
155.742553
 21
191.20212
 31
0.0
  0
INSERT
  5
1FC2
100
AcDbEntity
  8
0
  6
BYBLOCK
 62
     1
100
AcDbBlockReference
  2
_OPEN30
 10
57.742553
 20
191.20212
 30
0.0
 41
2.0
 42
2.0
 43
2.0
 50
180.0
  0
INSERT
  5
1FC3
100
AcDbEntity
  8
0
  6
BYBLOCK
 62
     1
100
AcDbBlockReference
  2
_OPEN30
 10
157.742553
 20
191.20212
 30
0.0
 41
2.0
 42
2.0
 43
2.0
  0
MTEXT
  5
1FC4
100
AcDbEntity
  8
0
  6
BYBLOCK
 62
     3
100
AcDbMText
 10
107.742553
 20
193.70212
 30
0.0
 40
3.0
 41
0.0
 71
     5
 72
     1
  1
\A1;100
  0
POINT
  5
1FC5
100
AcDbEntity
  8
DEFPOINTS
  6
BYBLOCK
 62
     0
100
AcDbPoint
 10
57.742553
 20
214.1164
 30
0.0
  0
POINT
  5
1FC6
100
AcDbEntity
  8
DEFPOINTS
  6
BYBLOCK
 62
     0
100
AcDbPoint
 10
157.742553
 20
215.1164
 30
0.0
  0
POINT
  5
1FC7
100
AcDbEntity
  8
DEFPOINTS
  6
BYBLOCK
 62
     0
100
AcDbPoint
 10
157.742553
 20
191.20212
 30
0.0
  0
ENDBLK
  5
1FC8
100
AcDbEntity
  8
0
100
AcDbBlockEnd
  0
BLOCK
  5
1F2B
100
AcDbEntity
  8
0
100
AcDbBlockBegin
  2
*D6
 70
     1
 10
0.0
 20
0.0
 30
0.0
  3
*D6
  1

  0
LINE
  5
1F2C
100
AcDbEntity
  8
0
  6
BYBLOCK
 62
     1
100
AcDbLine
 10
134.75734
 20
301.954524
 30
0.0
 11
134.75734
 21
286.899149
 31
0.0
  0
LINE
  5
1F2D
100
AcDbEntity
  8
0
  6
BYBLOCK
 62
     1
100
AcDbLine
 10
141.75734
 20
301.954524
 30
0.0
 11
141.75734
 21
286.899149
 31
0.0
  0
LINE
  5
1F2E
100
AcDbEntity
  8
0
  6
BYBLOCK
 62
     1
100
AcDbLine
 10
136.75734
 20
288.899149
 30
0.0
 11
139.75734
 21
288.899149
 31
0.0
  0
INSERT
  5
1F2F
100
AcDbEntity
  8
0
  6
BYBLOCK
 62
     1
100
AcDbBlockReference
  2
_OPEN30
 10
134.75734
 20
288.899149
 30
0.0
 41
2.0
 42
2.0
 43
2.0
 50
180.0
  0
INSERT
  5
1F30
100
AcDbEntity
  8
0
  6
BYBLOCK
 62
     1
100
AcDbBlockReference
  2
_OPEN30
 10
141.75734
 20
288.899149
 30
0.0
 41
2.0
 42
2.0
 43
2.0
  0
MTEXT
  5
1F31
100
AcDbEntity
  8
0
  6
BYBLOCK
 62
     3
100
AcDbMText
 10
138.25734
 20
291.399149
 30
0.0
 40
3.0
 41
0.0
 71
     5
 72
     1
  1
\A1;7
  0
POINT
  5
1F32
100
AcDbEntity
  8
DEFPOINTS
  6
BYBLOCK
 62
     0
100
AcDbPoint
 10
134.75734
 20
302.954524
 30
0.0
  0
POINT
  5
1F33
100
AcDbEntity
  8
DEFPOINTS
  6
BYBLOCK
 62
     0
100
AcDbPoint
 10
141.75734
 20
302.954524
 30
0.0
  0
POINT
  5
1F34
100
AcDbEntity
  8
DEFPOINTS
  6
BYBLOCK
 62
     0
100
AcDbPoint
 10
141.75734
 20
288.899149
 30
0.0
  0
ENDBLK
  5
1F35
100
AcDbEntity
  8
0
100
AcDbBlockEnd
  0
BLOCK
  5
1F21
100
AcDbEntity
  8
0
100
AcDbBlockBegin
  2
*D7
 70
     1
 10
0.0
 20
0.0
 30
0.0
  3
*D7
  1

  0
LINE
  5
1F22
100
AcDbEntity
  8
0
  6
BYBLOCK
 62
     1
100
AcDbLine
 10
135.554325
 20
299.534364
 30
0.0
 11
134.65332
 21
297.748814
 31
0.0
  0
LINE
  5
1F23
100
AcDbEntity
  8
0
  6
BYBLOCK
 62
     1
100
AcDbLine
 10
140.960355
 20
310.247666
 30
0.0
 11
145.014877
 21
318.282643
 31
0.0
  0
LINE
  5
1F24
100
AcDbEntity
  8
0
  6
BYBLOCK
 62
     1
100
AcDbLine
 10
136.45533
 20
301.319915
 30
0.0
 11
140.05935
 21
308.462116
 31
0.0
  0
INSERT
  5
1F25
100
AcDbEntity
  8
0
  6
BYBLOCK
 62
     1
100
AcDbBlockReference
  2
_OPEN30
 10
136.45533
 20
301.319915
 30
0.0
 41
2.0
 42
2.0
 43
2.0
 50
63.224072
  0
INSERT
  5
1F26
100
AcDbEntity
  8
0
  6
BYBLOCK
 62
     1
100
AcDbBlockReference
  2
_OPEN30
 10
140.05935
 20
308.462116
 30
0.0
 41
2.0
 42
2.0
 43
2.0
 50
243.224072
  0
MTEXT
  5
1F27
100
AcDbEntity
  8
0
  6
BYBLOCK
 62
     3
100
AcDbMText
 10
141.206181
 20
316.284186
 30
0.0
 40
3.0
 41
0.0
 71
     5
 72
     1
  1
\A1;\U+22058
 11
0.450502
 21
0.892775
 31
0.0
  0
POINT
  5
1F28
100
AcDbEntity
  8
DEFPOINTS
  6
BYBLOCK
 62
     0
100
AcDbPoint
 10
140.05935
 20
308.462116
 30
0.0
  0
POINT
  5
1F29
100
AcDbEntity
  8
DEFPOINTS
  6
BYBLOCK
 62
     0
100
AcDbPoint
 10
136.45533
 20
301.319915
 30
0.0
  0
ENDBLK
  5
1F2A
100
AcDbEntity
  8
0
100
AcDbBlockEnd
  0
BLOCK
  5
1FD4
100
AcDbEntity
  8
0
100
AcDbBlockBegin
  2
*D8
 70
     1
 10
0.0
 20
0.0
 30
0.0
  3
*D8
  1

  0
LINE
  5
1FD5
100
AcDbEntity
  8
0
  6
BYBLOCK
 62
     1
100
AcDbLine
 10
57.742553
 20
213.1164
 30
0.0
 11
57.742553
 21
198.486826
 31
0.0
  0
LINE
  5
1FD6
100
AcDbEntity
  8
0
  6
BYBLOCK
 62
     1
100
AcDbLine
 10
88.042553
 20
213.3164
 30
0.0
 11
88.042553
 21
198.486826
 31
0.0
  0
LINE
  5
1FD7
100
AcDbEntity
  8
0
  6
BYBLOCK
 62
     1
100
AcDbLine
 10
59.742553
 20
200.486826
 30
0.0
 11
86.042553
 21
200.486826
 31
0.0
  0
INSERT
  5
1FD8
100
AcDbEntity
  8
0
  6
BYBLOCK
 62
     1
100
AcDbBlockReference
  2
_OPEN30
 10
57.742553
 20
200.486826
 30
0.0
 41
2.0
 42
2.0
 43
2.0
 50
180.0
  0
INSERT
  5
1FD9
100
AcDbEntity
  8
0
  6
BYBLOCK
 62
     1
100
AcDbBlockReference
  2
_OPEN30
 10
88.042553
 20
200.486826
 30
0.0
 41
2.0
 42
2.0
 43
2.0
  0
MTEXT
  5
1FDA
100
AcDbEntity
  8
0
  6
BYBLOCK
 62
     3
100
AcDbMText
 10
72.892553
 20
202.986826
 30
0.0
 40
3.0
 41
0.0
 71
     5
 72
     1
  1
\A1;30
  0
POINT
  5
1FDB
100
AcDbEntity
  8
DEFPOINTS
  6
BYBLOCK
 62
     0
100
AcDbPoint
 10
57.742553
 20
214.1164
 30
0.0
  0
POINT
  5
1FDC
100
AcDbEntity
  8
DEFPOINTS
  6
BYBLOCK
 62
     0
100
AcDbPoint
 10
88.042553
 20
214.3164
 30
0.0
  0
POINT
  5
1FDD
100
AcDbEntity
  8
DEFPOINTS
  6
BYBLOCK
 62
     0
100
AcDbPoint
 10
88.042553
 20
200.486826
 30
0.0
  0
ENDBLK
  5
1FDE
100
AcDbEntity
  8
0
100
AcDbBlockEnd
  0
BLOCK
  5
2002
100
AcDbEntity
  8
0
100
AcDbBlockBegin
  2
*D9
 70
     1
 10
0.0
 20
0.0
 30
0.0
  3
*D9
  1

  0
LINE
  5
2003
100
AcDbEntity
  8
0
  6
BYBLOCK
 62
     1
100
AcDbLine
 10
57.906497
 20
217.449862
 30
0.0
 11
58.48974
 21
228.578814
 31
0.0
  0
LINE
  5
2004
100
AcDbEntity
  8
0
  6
BYBLOCK
 62
     1
100
AcDbLine
 10
56.483863
 20
214.117891
 30
0.0
 11
43.251108
 21
214.117891
 31
0.0
  0
ARC
  5
2005
100
AcDbEntity
  8
0
  6
BYBLOCK
 62
     1
100
AcDbCircle
 10
57.731876
 20
214.117891
 30
0.0
 40
12.480768
100
AcDbArc
 50
96.191303
 51
170.808697
  0
INSERT
  5
2006
100
AcDbEntity
  8
0
  6
BYBLOCK
 62
     1
100
AcDbBlockReference
  2
_OPEN30
 10
58.385069
 20
226.581555
 30
0.0
 41
2.0
 42
2.0
 43
2.0
 50
1.595652
  0
INSERT
  5
2007
100
AcDbEntity
  8
0
  6
BYBLOCK
 62
     1
100
AcDbBlockReference
  2
_OPEN30
 10
45.251108
 20
214.117891
 30
0.0
 41
2.0
 42
2.0
 43
2.0
 50
265.404348
  0
MTEXT
  5
2008
100
AcDbEntity
  8
0
  6
BYBLOCK
 62
     3
100
AcDbMText
 10
47.419795
 20
224.984556
 30
0.0
 40
3.0
 41
0.0
 71
     5
 72
     1
  1
\A1;93°
 11
0.725374
 21
0.688355
 31
0.0
  0
POINT
  5
2009
100
AcDbEntity
  8
DEFPOINTS
  6
BYBLOCK
 62
     0
100
AcDbPoint
 10
51.87251
 20
225.137755
 30
0.0
  0
POINT
  5
200A
100
AcDbEntity
  8
DEFPOINTS
  6
BYBLOCK
 62
     0
100
AcDbPoint
 10
57.966927
 20
214.117891
 30
0.0
  0
POINT
  5
200B
100
AcDbEntity
  8
DEFPOINTS
  6
BYBLOCK
 62
     0
100
AcDbPoint
 10
57.742828
 20
214.326868
 30
0.0
  0
POINT
  5
200C
100
AcDbEntity
  8
DEFPOINTS
  6
BYBLOCK
 62
     0
100
AcDbPoint
 10
57.854161
 20
216.451232
 30
0.0
  0
POINT
  5
200D
100
AcDbEntity
  8
DEFPOINTS
  6
BYBLOCK
 62
     0
100
AcDbPoint
 10
57.483863
 20
214.117891
 30
0.0
  0
ENDBLK
  5
200E
100
AcDbEntity
  8
0
100
AcDbBlockEnd
  0
ENDSEC
  0
SECTION
  2
ENTITIES
  0
TEXT
  5
1453
100
AcDbEntity
  8
外形
  6
CONTINUOUS
 62
     2
100
AcDbText
 10
81.945496
 20
150.213866
 30
0.0
 40
6.0
  1
BBPW508R08
100
AcDbText
  0
LINE
  5
1CA4
100
AcDbEntity
  8
外形
  6
CENTER
 62
     1
100
AcDbLine
 10
59.966268
 20
219.003077
 30
0.0
 11
59.966268
 21
213.691614
 31
0.0
  0
ARC
  5
1CAB
100
AcDbEntity
  8
外形
  6
CONTINUOUS
100
AcDbCircle
 10
61.426716
 20
217.304542
 30
0.0
 40
0.6
100
AcDbArc
 50
322.679174
 51
115.2081
  0
ARC
  5
1CB5
100
AcDbEntity
  8
外形
  6
CONTINUOUS
100
AcDbCircle
 10
62.413044
 20
215.698149
 30
0.0
 40
0.6
100
AcDbArc
 50
230.114787
 51
96.889692
  0
LINE
  5
1CBE
100
AcDbEntity
  8
外形
  6
CONTINUOUS
100
AcDbLine
 10
61.083543
 20
217.904516
 30
0.0
 11
59.109497
 21
219.184028
 31
0.0
  0
LINE
  5
1CBF
100
AcDbEntity
  8
外形
  6
CONTINUOUS
100
AcDbLine
 10
62.028293
 20
215.237751
 30
0.0
 11
60.81145
 21
214.6164
 31
0.0
  0
LINE
  5
1CC0
100
AcDbEntity
  8
外形
  6
CONTINUOUS
100
AcDbLine
 10
62.341069
 20
216.293817
 30
0.0
 11
61.903868
 21
216.940776
 31
0.0
  0
LINE
  5
1CC2
102
{ACAD_REACTORS
330
1CD2
102
}
100
AcDbEntity
  8
外形
  6
CONTINUOUS
100
AcDbLine
 10
59.133462
 20
219.170706
 30
0.0
 11
61.171171
 21
217.847402
 31
0.0
  0
ARC
  5
1CC3
102
{ACAD_REACTORS
330
1CD2
102
}
100
AcDbEntity
  8
外形
  6
CONTINUOUS
100
AcDbCircle
 10
59.83644
 20
216.347345
 30
0.0
 40
1.985
100
AcDbArc
 50
37.0
 51
57.0
  0
LINE
  5
1CC4
102
{ACAD_REACTORS
330
1CD2
102
}
100
AcDbEntity
  8
外形
  6
CONTINUOUS
100
AcDbLine
 10
62.701961
 20
215.843027
 30
0.0
 11
61.421732
 21
217.541948
 31
0.0
  0
INSERT
  5
1CC5
102
{ACAD_REACTORS
330
1CD2
102
}
100
AcDbEntity
  8
寸法
  6
CONTINUOUS
100
AcDbBlockReference
  2
A$C613D5998
 10
58.75644
 20
215.267346
 30
0.0
 41
0.8
 42
0.8
 43
0.8
  0
ARC
  5
1CC6
102
{ACAD_REACTORS
330
1CD2
102
}
100
AcDbEntity
  8
外形
  6
CONTINUOUS
100
AcDbCircle
 10
59.024534
 20
219.002972
 30
0.0
 40
0.2
100
AcDbArc
 50
57.0
 51
157.0
  0
LINE
  5
1CC7
102
{ACAD_REACTORS
330
1CD2
102
}
100
AcDbEntity
  8
外形
  6
CONTINUOUS
100
AcDbLine
 10
58.840433
 20
219.081118
 30
0.0
 11
58.009238
 21
217.122947
 31
0.0
  0
ARC
  5
1CC9
102
{ACAD_REACTORS
330
1CD2
102
}
100
AcDbEntity
  8
外形
  6
CONTINUOUS
100
AcDbCircle
 10
57.942553
 20
214.3164
 30
0.0
 40
0.2
100
AcDbArc
 50
177.0
 51
277.0
  0
LINE
  5
1CCA
102
{ACAD_REACTORS
330
1CD2
102
}
100
AcDbEntity
  8
外形
  6
CONTINUOUS
100
AcDbLine
 10
57.742828
 20
214.326868
 30
0.0
 11
57.854161
 21
216.451232
 31
0.0
  0
LINE
  5
1CCC
102
{ACAD_REACTORS
330
1CD2
102
}
100
AcDbEntity
  8
外形
  6
CONTINUOUS
100
AcDbLine
 10
57.966927
 20
214.117891
 30
0.0
 11
60.078351
 21
214.377141
 31
0.0
  0
ARC
  5
1CCD
102
{ACAD_REACTORS
330
1CD2
102
}
100
AcDbEntity
  8
外形
  6
CONTINUOUS
100
AcDbCircle
 10
59.83644
 20
216.347345
 30
0.0
 40
1.985
100
AcDbArc
 50
277.0
 51
297.0
  0
ARC
  5
1CCF
102
{ACAD_REACTORS
330
1CD2
102
}
100
AcDbEntity
  8
外形
  6
CONTINUOUS
100
AcDbCircle
 10
62.542234
 20
215.722664
 30
0.0
 40
0.2
100
AcDbArc
 50
297.0
 51
37.0
  0
LINE
  5
1CD0
102
{ACAD_REACTORS
330
1CD2
102
}
100
AcDbEntity
  8
外形
  6
CONTINUOUS
100
AcDbLine
 10
62.633032
 20
215.544462
 30
0.0
 11
60.737612
 21
214.578698
 31
0.0
  0
LINE
  5
1CD1
100
AcDbEntity
  8
外形
  6
CENTER
 62
     1
100
AcDbLine
 10
28.596097
 20
224.49069
 30
0.0
 11
28.596097
 21
211.74211
 31
0.0
  0
LINE
  5
1D0D
100
AcDbEntity
  8
外形
  6
CENTER
 62
     1
100
AcDbLine
 10
168.177948
 20
218.1164
 30
0.0
 11
55.999414
 21
218.1164
 31
0.0
  0
LINE
  5
1D19
100
AcDbEntity
  8
外形
  6
CONTINUOUS
100
AcDbLine
 10
59.117454
 20
219.180077
 30
0.0
 11
60.393422
 21
221.9164
 31
0.0
  0
LINE
  5
1D20
100
AcDbEntity
  8
外形
  6
CONTINUOUS
100
AcDbLine
 10
88.242553
 20
222.1164
 30
0.0
 11
119.536963
 21
222.1164
 31
0.0
  0
LINE
  5
1D21
100
AcDbEntity
  8
外形
  6
CONTINUOUS
100
AcDbLine
 10
88.242553
 20
214.1164
 30
0.0
 11
119.536963
 21
214.1164
 31
0.0
  0
LINE
  5
1D22
100
AcDbEntity
  8
外形
  6
CONTINUOUS
100
AcDbLine
 10
88.242553
 20
222.1164
 30
0.0
 11
88.042553
 21
221.9164
 31
0.0
  0
LINE
  5
1D23
100
AcDbEntity
  8
外形
  6
CONTINUOUS
100
AcDbLine
 10
88.042553
 20
214.3164
 30
0.0
 11
88.242553
 21
214.1164
 31
0.0
  0
LINE
  5
1D24
100
AcDbEntity
  8
外形
  6
CONTINUOUS
100
AcDbLine
 10
88.242553
 20
222.1164
 30
0.0
 11
88.242553
 21
220.052892
 31
0.0
  0
LINE
  5
1D25
100
AcDbEntity
  8
外形
  6
CONTINUOUS
100
AcDbLine
 10
157.742553
 20
221.1164
 30
0.0
 11
157.742553
 21
215.1164
 31
0.0
  0
LINE
  5
1D27
100
AcDbEntity
  8
外形
  6
CENTER
 62
     1
100
AcDbLine
 10
128.290735
 20
210.159382
 30
0.0
 11
128.290735
 21
225.97304
 31
0.0
  0
ARC
  5
1D28
100
AcDbEntity
  8
外形
  6
CONTINUOUS
100
AcDbCircle
 10
128.290735
 20
218.1164
 30
0.0
 40
4.0
100
AcDbArc
 50
28.955024
 51
151.044976
  0
LINE
  5
1D29
100
AcDbEntity
  8
外形
  6
CONTINUOUS
100
AcDbLine
 10
124.790735
 20
216.179909
 30
0.0
 11
124.790735
 21
220.052892
 31
0.0
  0
LINE
  5
1D2A
100
AcDbEntity
  8
外形
  6
CONTINUOUS
100
AcDbLine
 10
131.790735
 20
220.052892
 30
0.0
 11
131.790735
 21
216.179909
 31
0.0
  0
LINE
  5
1D2D
100
AcDbEntity
  8
外形
  6
CONTINUOUS
100
AcDbLine
 10
136.761473
 20
222.1164
 30
0.0
 11
156.742553
 21
222.1164
 31
0.0
  0
LINE
  5
1D2E
100
AcDbEntity
  8
外形
  6
CONTINUOUS
100
AcDbLine
 10
136.761473
 20
214.1164
 30
0.0
 11
156.742553
 21
214.1164
 31
0.0
  0
ARC
  5
1D2F
100
AcDbEntity
  8
外形
  6
CONTINUOUS
100
AcDbCircle
 10
128.290735
 20
218.1164
 30
0.0
 40
4.0
100
AcDbArc
 50
208.955024
 51
331.044976
  0
LINE
  5
1D32
100
AcDbEntity
  8
外形
  6
CONTINUOUS
100
AcDbLine
 10
119.536963
 20
220.052892
 30
0.0
 11
88.242553
 21
220.052892
 31
0.0
  0
LINE
  5
1D33
100
AcDbEntity
  8
外形
  6
CONTINUOUS
100
AcDbLine
 10
119.536963
 20
216.179909
 30
0.0
 11
88.242553
 21
216.179909
 31
0.0
  0
LINE
  5
1D36
100
AcDbEntity
  8
外形
  6
CONTINUOUS
100
AcDbLine
 10
136.761473
 20
220.052892
 30
0.0
 11
156.742553
 21
220.052892
 31
0.0
  0
LINE
  5
1D37
100
AcDbEntity
  8
外形
  6
CONTINUOUS
100
AcDbLine
 10
136.761473
 20
216.179909
 30
0.0
 11
156.742553
 21
216.179909
 31
0.0
  0
LINE
  5
1D3C
100
AcDbEntity
  8
外形
  6
CONTINUOUS
100
AcDbLine
 10
88.049059
 20
219.596265
 30
0.0
 11
68.307916
 21
219.596265
 31
0.0
  0
LINE
  5
1D3E
100
AcDbEntity
  8
外形
  6
CONTINUOUS
100
AcDbLine
 10
88.042553
 20
221.9164
 30
0.0
 11
60.393422
 21
221.9164
 31
0.0
  0
LINE
  5
1D3F
100
AcDbEntity
  8
外形
  6
CONTINUOUS
100
AcDbLine
 10
88.042553
 20
214.3164
 30
0.0
 11
59.583655
 21
214.3164
 31
0.0
  0
LINE
  5
1D40
100
AcDbEntity
  8
外形
  6
CONTINUOUS
100
AcDbLine
 10
88.042553
 20
221.9164
 30
0.0
 11
88.042553
 21
219.596265
 31
0.0
  0
ELLIPSE
  5
1D4E
100
AcDbEntity
  8
外形
  6
CONTINUOUS
100
AcDbEllipse
 10
88.242553
 20
218.1164
 30
0.0
 11
0.0
 21
1.936491673104427
 31
0.0
210
0.0
220
0.0
230
1.0
 40
0.154919
 41
0.0
 42
0.7009979228886061
  0
ELLIPSE
  5
1D4F
100
AcDbEntity
  8
外形
  6
CONTINUOUS
100
AcDbEllipse
 10
88.242553
 20
218.1164
 30
0.0
 11
0.0
 21
1.936491673104427
 31
0.0
210
0.0
220
0.0
230
1.0
 40
0.154919
 41
2.440594730700039
 42
3.141592653589793
  0
LINE
  5
1D50
100
AcDbEntity
  8
外形
  6
CONTINUOUS
100
AcDbLine
 10
88.042553
 20
216.636535
 30
0.0
 11
88.042553
 21
214.3164
 31
0.0
  0
LINE
  5
1D51
100
AcDbEntity
  8
外形
  6
CONTINUOUS
100
AcDbLine
 10
88.242553
 20
216.179909
 30
0.0
 11
88.242553
 21
214.1164
 31
0.0
  0
LINE
  5
1D53
100
AcDbEntity
  8
外形
  6
CONTINUOUS
100
AcDbLine
 10
156.742553
 20
222.1164
 30
0.0
 11
156.742553
 21
220.052892
 31
0.0
  0
LINE
  5
1D54
100
AcDbEntity
  8
外形
  6
CONTINUOUS
100
AcDbLine
 10
157.742553
 20
215.1164
 30
0.0
 11
156.742553
 21
214.1164
 31
0.0
  0
LINE
  5
1D55
100
AcDbEntity
  8
外形
  6
CONTINUOUS
100
AcDbLine
 10
156.742553
 20
222.1164
 30
0.0
 11
157.742553
 21
221.1164
 31
0.0
  0
ELLIPSE
  5
1D57
100
AcDbEntity
  8
外形
  6
CONTINUOUS
100
AcDbEllipse
 10
156.742553
 20
218.1164
 30
0.0
 11
0.0
 21
1.936491673104427
 31
0.0
210
0.0
220
0.0
230
1.0
 40
0.129099
 41
3.141592653589793
 42
6.283185307179586
  0
LINE
  5
1D58
100
AcDbEntity
  8
外形
  6
CONTINUOUS
100
AcDbLine
 10
156.742553
 20
216.179909
 30
0.0
 11
156.742553
 21
214.1164
 31
0.0
  0
LINE
  5
1D65
100
AcDbEntity
  8
外形
  6
CONTINUOUS
100
AcDbLine
 10
60.766268
 20
214.593594
 30
0.0
 11
60.766268
 21
214.3164
 31
0.0
  0
ARC
  5
1D6E
100
AcDbEntity
  8
外形
  6
CONTINUOUS
100
AcDbCircle
 10
28.596097
 20
218.1164
 30
0.0
 40
3.8
100
AcDbArc
 50
22.919542
 51
246.672609
  0
LINE
  5
1D6F
100
AcDbEntity
  8
外形
  6
CONTINUOUS
100
AcDbLine
 10
28.596097
 20
214.004389
 30
0.0
 11
29.92753
 21
221.555325
 31
0.0
  0
SPLINE
  5
1D92
100
AcDbEntity
  8
外形
  6
CONTINUOUS
100
AcDbSpline
210
0.0
220
0.0
230
-1.0
 70
     8
 71
     3
 72
    13
 73
     9
 74
     0
 42
0.0000001
 43
0.0000001
 40
0.5616883765937671
 40
0.5616883765937671
 40
0.5616883765937671
 40
0.5616883765937671
 40
3.597251889749158
 40
5.139027214190669
 40
6.401480681072954
 40
7.612766056344829
 40
9.018019755160823
 40
9.034269595267053
 40
9.034269595267053
 40
9.034269595267053
 40
9.034269595267053
 10
60.32764035970207
 20
221.7753306422813
 30
0.0
 10
61.34113545138534
 20
221.7583557097851
 30
0.0
 10
62.86757341208437
 20
221.7122257462451
 30
0.0
 10
64.79264263457642
 20
221.4003882392067
 30
0.0
 10
66.08360220898234
 20
221.0207159326238
 30
0.0
 10
67.24265215869841
 20
220.4534660822025
 30
0.0
 10
67.98796710658374
 20
219.943409462784
 30
0.0
 10
68.30431111833037
 20
219.6001973986361
 30
0.0
 10
68.3079162701315
 20
219.5962652056353
 30
0.0
  0
LINE
  5
1D93
100
AcDbEntity
  8
外形
  6
CONTINUOUS
100
AcDbLine
 10
88.049059
 20
216.636535
 30
0.0
 11
69.811122
 21
216.636535
 31
0.0
  0
SPLINE
  5
1D94
100
AcDbEntity
  8
外形
  6
CONTINUOUS
100
AcDbSpline
210
0.0
220
0.0
230
1.0
 70
     8
 71
     3
 72
    12
 73
     8
 74
     0
 42
0.0000001
 43
0.0000001
 40
12.3707024919691
 40
12.37070249197062
 40
12.37070249197062
 40
12.37070249197062
 40
13.2658067523336
 40
14.02998260881753
 40
14.94028990954751
 40
16.22228892738158
 40
19.64258759581337
 40
19.64258759581337
 40
19.64258759581337
 40
19.64258759581337
 10
69.81112213818881
 20
216.636535488244
 30
0.0
 10
69.81372734289557
 20
216.3404741580217
 30
0.0
 10
69.64812982657058
 20
215.7653141594381
 30
0.0
 10
68.98817524512456
 20
215.1815173773749
 30
0.0
 10
68.06360313674591
 20
214.8108140826304
 30
0.0
 10
66.21587900916202
 20
214.4752080072476
 30
0.0
 10
64.64491527173301
 20
214.460023968186
 30
0.0
 10
63.50224725329244
 20
214.4489795911498
 30
0.0
  0
LINE
  5
1D95
100
AcDbEntity
  8
外形
  6
CONTINUOUS
100
AcDbLine
 10
68.307916
 20
219.596265
 30
0.0
 11
69.811122
 21
216.636535
 31
0.0
  0
LINE
  5
1D96
100
AcDbEntity
  8
外形
  6
CONTINUOUS
100
AcDbLine
 10
60.766268
 20
214.44898
 30
0.0
 11
63.502247
 21
214.44898
 31
0.0
  0
LINE
  5
1D99
100
AcDbEntity
  8
外形
  6
CONTINUOUS
100
AcDbLine
 10
28.596097
 20
214.004389
 30
0.0
 11
27.054408
 21
214.417484
 31
0.0
  0
LINE
  5
1D9A
100
AcDbEntity
  8
外形
  6
CONTINUOUS
100
AcDbLine
 10
27.054408
 20
214.417484
 30
0.0
 11
27.889371
 21
219.152792
 31
0.0
  0
LINE
  5
1D9C
100
AcDbEntity
  8
外形
  6
CONTINUOUS
100
AcDbLine
 10
27.889371
 20
219.152792
 30
0.0
 11
29.479371
 21
219.013685
 31
0.0
  0
LINE
  5
1D9F
100
AcDbEntity
  8
外形
  6
CONTINUOUS
100
AcDbLine
 10
32.096097
 20
219.596265
 30
0.0
 11
32.096097
 21
216.636535
 31
0.0
  0
ARC
  5
1DA0
100
AcDbEntity
  8
外形
  6
CONTINUOUS
100
AcDbCircle
 10
28.596097
 20
218.1164
 30
0.0
 40
3.8
100
AcDbArc
 50
270.830612
 51
337.080458
  0
LINE
  5
1DA3
100
AcDbEntity
  8
外形
  6
CENTER
 62
     1
100
AcDbLine
 10
34.970387
 20
218.1164
 30
0.0
 11
22.221807
 21
218.1164
 31
0.0
  0
LINE
  5
1DA9
100
AcDbEntity
  8
外形
  6
CONTINUOUS
100
AcDbLine
 10
88.042553
 20
177.287567
 30
0.0
 11
88.042553
 21
169.987567
 31
0.0
  0
LINE
  5
1DAA
100
AcDbEntity
  8
外形
  6
CONTINUOUS
100
AcDbLine
 10
88.242553
 20
177.287567
 30
0.0
 11
88.242553
 21
169.787567
 31
0.0
  0
LINE
  5
1DAE
100
AcDbEntity
  8
外形
  6
CONTINUOUS
100
AcDbLine
 10
88.242553
 20
169.787567
 30
0.0
 11
156.742553
 21
169.787567
 31
0.0
  0
LINE
  5
1DAF
100
AcDbEntity
  8
外形
  6
CONTINUOUS
100
AcDbLine
 10
88.042553
 20
169.987567
 30
0.0
 11
58.202282
 21
169.987567
 31
0.0
  0
LINE
  5
1DB0
100
AcDbEntity
  8
外形
  6
CONTINUOUS
100
AcDbLine
 10
88.042553
 20
169.987567
 30
0.0
 11
88.242553
 21
169.787567
 31
0.0
  0
LINE
  5
1DB1
100
AcDbEntity
  8
外形
  6
CENTER
 62
     1
100
AcDbLine
 10
168.177948
 20
173.787567
 30
0.0
 11
55.999414
 21
173.787567
 31
0.0
  0
LINE
  5
1DB9
100
AcDbEntity
  8
外形
  6
CONTINUOUS
100
AcDbLine
 10
57.742828
 20
173.787567
 30
0.0
 11
57.881935
 21
172.197567
 31
0.0
  0
LINE
  5
1DBF
100
AcDbEntity
  8
外形
  6
CONTINUOUS
100
AcDbLine
 10
58.202282
 20
169.987567
 30
0.0
 11
58.020176
 21
172.197567
 31
0.0
  0
LINE
  5
1DC0
100
AcDbEntity
  8
外形
  6
CONTINUOUS
100
AcDbLine
 10
60.766268
 20
174.670841
 30
0.0
 11
60.766268
 21
172.197567
 31
0.0
  0
LINE
  5
1DCC
100
AcDbEntity
  8
外形
  6
CONTINUOUS
100
AcDbLine
 10
60.766268
 20
174.670841
 30
0.0
 11
63.502247
 21
174.670841
 31
0.0
  0
LINE
  5
1DD9
100
AcDbEntity
  8
外形
  6
CONTINUOUS
100
AcDbLine
 10
57.742828
 20
173.787567
 30
0.0
 11
59.024534
 21
174.670841
 31
0.0
  0
LINE
  5
1DDA
100
AcDbEntity
  8
外形
  6
CONTINUOUS
100
AcDbLine
 10
60.766268
 20
174.463935
 30
0.0
 11
59.024534
 21
174.670841
 31
0.0
  0
LINE
  5
1DDD
100
AcDbEntity
  8
外形
  6
CONTINUOUS
100
AcDbLine
 10
57.742828
 20
173.787567
 30
0.0
 11
60.766268
 21
173.787567
 31
0.0
  0
LINE
  5
1DE7
100
AcDbEntity
  8
外形
  6
CONTINUOUS
100
AcDbLine
 10
59.024534
 20
174.670841
 30
0.0
 11
59.024534
 21
174.877747
 31
0.0
  0
LINE
  5
1DF1
100
AcDbEntity
  8
外形
  6
CONTINUOUS
100
AcDbLine
 10
60.766268
 20
174.670841
 30
0.0
 11
59.024534
 21
174.877747
 31
0.0
  0
SPLINE
  5
1E13
100
AcDbEntity
  8
外形
  6
CONTINUOUS
100
AcDbSpline
210
0.0
220
0.0
230
1.0
 70
     8
 71
     3
 72
    11
 73
     7
 74
     5
 42
0.0000001
 43
0.0000001
 44
0.0000000001
 40
0.0
 40
0.0
 40
0.0
 40
0.0
 40
1.323539039063777
 40
2.401755112837858
 40
3.947466907404648
 40
7.167111889049612
 40
7.167111889049612
 40
7.167111889049612
 40
7.167111889049612
 10
69.81112213818881
 20
177.2875666907891
 30
0.0
 10
69.61745808488648
 20
176.8698928405011
 30
0.0
 10
69.26602634281954
 20
176.1119625673319
 30
0.0
 10
67.98800130970464
 20
175.6039048516316
 30
0.0
 10
66.17632854701534
 20
174.9410588733467
 30
0.0
 10
64.58046773200108
 20
174.7797957489769
 30
0.0
 10
63.50224725329244
 20
174.6708406311369
 30
0.0
 11
69.81112213818881
 21
177.2875666907891
 31
0.0
 11
69.10071486371904
 21
176.1708406311369
 31
0.0
 11
68.145440085582
 21
175.6708406311369
 31
0.0
 11
66.6828311317386
 21
175.1708406311369
 31
0.0
 11
63.50224725329244
 21
174.6708406311369
 31
0.0
  0
SPLINE
  5
1E2A
100
AcDbEntity
  8
外形
  6
CONTINUOUS
100
AcDbSpline
210
0.0
220
0.0
230
1.0
 70
     8
 71
     3
 72
    12
 73
     8
 74
     6
 42
0.0000001
 43
0.0000001
 44
0.0000000001
 40
0.0
 40
0.0
 40
0.0
 40
0.0
 40
3.538384215884109
 40
5.936478018222354
 40
6.960201414271004
 40
7.944557371518054
 40
8.258893621918454
 40
8.258893621918454
 40
8.258893621918454
 40
8.258893621918454
 10
60.32764035970207
 20
175.4221388385687
 30
0.0
 10
61.4898934950088
 20
175.5875651855283
 30
0.0
 10
63.43984855030921
 20
175.8651070838761
 30
0.0
 10
65.79660520839174
 20
176.0763731378113
 30
0.0
 10
67.1048155265533
 20
176.7671775529044
 30
0.0
 10
67.81884417938477
 20
177.0639821057277
 30
0.0
 10
68.21260915610398
 20
177.2439960149186
 30
0.0
 10
68.30791627013148
 20
177.2875666907891
 30
0.0
 11
60.32764035970207
 21
175.4221388385687
 31
0.0
 11
63.83577395133466
 21
175.8838330690686
 31
0.0
 11
66.19188945540507
 21
176.3305696987421
 31
0.0
 11
67.12200825380365
 21
176.7582244806433
 31
0.0
 11
68.02167160208878
 21
177.1576772442089
 31
0.0
 11
68.30791627013148
 21
177.2875666907891
 31
0.0
  0
LINE
  5
1E2C
100
AcDbEntity
  8
外形
  6
CONTINUOUS
100
AcDbLine
 10
59.024534
 20
174.877747
 30
0.0
 11
60.32764
 21
175.422139
 31
0.0
  0
LINE
  5
1E2D
100
AcDbEntity
  8
外形
  6
CONTINUOUS
100
AcDbLine
 10
157.242553
 20
177.287567
 30
0.0
 11
68.307916
 21
177.287567
 31
0.0
  0
LINE
  5
1E2F
100
AcDbEntity
  8
外形
  6
CONTINUOUS
100
AcDbLine
 10
156.742553
 20
177.287567
 30
0.0
 11
156.742553
 21
169.787567
 31
0.0
  0
LINE
  5
1E30
100
AcDbEntity
  8
外形
  6
CONTINUOUS
100
AcDbLine
 10
157.242553
 20
177.287567
 30
0.0
 11
157.742553
 21
176.787567
 31
0.0
  0
LINE
  5
1E31
100
AcDbEntity
  8
外形
  6
CONTINUOUS
100
AcDbLine
 10
157.742553
 20
176.787567
 30
0.0
 11
157.742553
 21
170.787567
 31
0.0
  0
LINE
  5
1E32
100
AcDbEntity
  8
外形
  6
CONTINUOUS
100
AcDbLine
 10
157.742553
 20
170.787567
 30
0.0
 11
156.742553
 21
169.787567
 31
0.0
  0
DIMENSION
  5
1E33
100
AcDbEntity
  8
寸法
  6
CONTINUOUS
100
AcDbDimension
  2
*D2
 10
36.956391
 20
240.902834
 30
0.0
 11
36.956391
 21
230.352359
 31
0.0
 70
   160
  1
%%c8.0
  3
STANDARD
100
AcDbAlignedDimension
 13
57.902821
 23
214.105933
 33
0.0
 14
53.267376
 24
240.902834
 34
0.0
 50
90.0
100
AcDbRotatedDimension
1001
ACAD
1000
DSTYLE
1002
{
1070
   284
1070
    13
1070
   146
1040
0.5
1070
   272
1070
     3
1070
    76
1070
     1
1070
   282
1070
     1
1070
    40
1040
1.0
1070
   287
1070
     0
1002
}
  0
MTEXT
  5
1E34
100
AcDbEntity
  8
寸法
  6
BYBLOCK
 62
     3
100
AcDbMText
 10
39.629903
 20
231.021075
 30
0.0
 40
3.0
 41
0.0
 71
     5
 72
     1
  1
最小加工径
 11
0.0
 21
1.0
 31
0.0
  0
DIMENSION
  5
1EAB
100
AcDbEntity
  8
寸法
  6
CONTINUOUS
100
AcDbDimension
  2
*D3
 10
29.92753
 20
221.555325
 30
0.0
 11
17.296765
 21
202.15744
 31
0.0
 70
    34
  3
STANDARD
100
AcDb2LineAngularDimension
 13
28.596097
 23
224.49069
 33
0.0
 14
28.596097
 24
211.74211
 34
0.0
 15
28.596097
 25
214.004389
 35
0.0
 16
27.560558
 26
196.224879
 36
0.0
1001
ACAD
1000
DSTYLE
1002
{
1070
   284
1070
    13
1070
   146
1040
0.5
1070
   272
1070
     3
1070
    40
1040
1.0
1070
   287
1070
     0
1002
}
  0
DIMENSION
  5
1EE3
100
AcDbEntity
  8
寸法
  6
CONTINUOUS
100
AcDbDimension
  2
*D4
 10
53.011462
 20
214.1164
 30
0.0
 11
50.511462
 21
208.1164
 31
0.0
 12
-9.966605
 22
-86.774615
 32
0.0
 70
    32
  3
STANDARD
100
AcDbAlignedDimension
 13
55.999414
 23
218.1164
 33
0.0
 14
57.742553
 24
214.1164
 34
0.0
 50
90.0
100
AcDbRotatedDimension
1001
ACAD
1000
DSTYLE
1002
{
1070
   284
1070
    13
1070
   146
1040
0.5
1070
   272
1070
     3
1070
    40
1040
1.0
1070
   287
1070
     0
1002
}
  0
DIMENSION
  5
1EFD
100
AcDbEntity
  8
寸法
  6
CONTINUOUS
100
AcDbDimension
  2
*D5
 10
157.742553
 20
191.20212
 30
0.0
 11
107.742553
 21
193.70212
 31
0.0
 70
    32
  3
STANDARD
100
AcDbAlignedDimension
 13
57.742553
 23
214.1164
 33
0.0
 14
157.742553
 24
215.1164
 34
0.0
100
AcDbRotatedDimension
1001
ACAD
1000
DSTYLE
1002
{
1070
   284
1070
    13
1070
   146
1040
0.5
1070
   272
1070
     3
1070
    40
1040
1.0
1070
   287
1070
     0
1002
}
  0
DIMENSION
  5
1F15
100
AcDbEntity
  8
寸法
  6
CONTINUOUS
100
AcDbDimension
  2
*D6
 10
131.790735
 20
202.124534
 30
0.0
 11
128.290735
 21
204.624534
 31
0.0
 12
-9.966605
 22
-86.774615
 32
0.0
 70
    32
  3
STANDARD
100
AcDbAlignedDimension
 13
124.790735
 23
216.179909
 33
0.0
 14
131.790735
 24
216.179909
 34
0.0
100
AcDbRotatedDimension
1001
ACAD
1000
DSTYLE
1002
{
1070
   284
1070
    13
1070
   146
1040
0.5
1070
   272
1070
     3
1070
    40
1040
1.0
1070
   287
1070
     0
1002
}
  0
DIMENSION
  5
1F20
100
AcDbEntity
  8
寸法
  6
CONTINUOUS
100
AcDbDimension
  2
*D7
 10
126.488725
 20
214.5453
 30
0.0
 11
133.471513
 21
228.383315
 31
0.0
 12
-9.966605
 22
-86.774615
 32
0.0
 70
   163
  3
STANDARD
100
AcDbDiametricDimension
 15
130.092745
 25
221.687501
 35
0.0
 40
0.0
1001
ACAD
1000
DSTYLE
1002
{
1070
   284
1070
    13
1070
   146
1040
0.5
1070
   272
1070
     3
1070
    40
1040
1.0
1070
   287
1070
     0
1002
}
  0
DIMENSION
  5
1FB2
100
AcDbEntity
  8
寸法
  6
CONTINUOUS
100
AcDbDimension
  2
*D8
 10
88.042553
 20
200.486826
 30
0.0
 11
72.892553
 21
202.986826
 31
0.0
 70
    32
  1
30
  3
STANDARD
100
AcDbAlignedDimension
 13
57.742553
 23
214.1164
 33
0.0
 14
88.042553
 24
214.3164
 34
0.0
100
AcDbRotatedDimension
1001
ACAD
1000
DSTYLE
1002
{
1070
    40
1040
1.0
1002
}
  0
LINE
  5
2000
100
AcDbEntity
  8
寸法
  6
CONTINUOUS
100
AcDbLine
 10
57.966927
 20
214.117891
 30
0.0
 11
57.483863
 21
214.117891
 31
0.0
  0
DIMENSION
  5
200F
100
AcDbEntity
  8
外形
  6
CONTINUOUS
100
AcDbDimension
  2
*D9
 10
57.483863
 20
214.117891
 30
0.0
 11
47.419795
 21
224.984556
 31
0.0
 70
    34
  3
STANDARD
100
AcDb2LineAngularDimension
 13
57.742828
 23
214.326868
 33
0.0
 14
57.854161
 24
216.451232
 34
0.0
 15
57.966927
 25
214.117891
 35
0.0
 16
51.87251
 26
225.137755
 36
0.0
1001
ACAD
1000
DSTYLE
1002
{
1070
    40
1040
1.0
1002
}
  0
LINE
  5
201F
100
AcDbEntity
  8
外形
  6
CONTINUOUS
100
AcDbLine
 10
57.881935
 20
172.197567
 30
0.0
 11
60.766268
 21
172.197567
 31
0.0
  0
ENDSEC
  0
SECTION
  2
OBJECTS
  0
DICTIONARY
  5
1E
100
AcDbDictionary
  3
ACAD_GROUP
350
1C
  3
ACAD_MLINESTYLE
350
1D
  3
ACDBVARIABLEDICTIONARY
350
147A
  3
DRAWINGVARIABLESDICT
350
C58
  0
DICTIONARY
  5
38
100
AcDbDictionary
280
     1
  3
ACAD_XREC_ROUNDTRIP
360
39
  0
DICTIONARY
  5
22
100
AcDbDictionary
280
     1
  3
ACAD_XREC_ROUNDTRIP
360
23
  0
DICTIONARY
  5
3
100
AcDbDictionary
280
     1
  3
ACAD_LAYOUTSELFREF
360
4
  0
DICTIONARY
  5
A
100
AcDbDictionary
280
     1
  3
ACAD_LAYOUTSELFREF
360
B
  0
DICTIONARY
  5
1C
102
{ACAD_REACTORS
330
1E
102
}
100
AcDbDictionary
  3
*A1
350
1CD2
  0
DICTIONARY
  5
1D
102
{ACAD_REACTORS
330
1E
102
}
100
AcDbDictionary
  3
STANDARD
350
20
  0
DICTIONARY
  5
147A
102
{ACAD_REACTORS
330
1E
102
}
100
AcDbDictionary
  3
SORTENTS
350
147B
  0
DICTIONARY
  5
C58
102
{ACAD_REACTORS
330
1E
102
}
100
AcDbDictionary
1001
DRAWINGVARIABLESXDATA
1000
POLARMODE
1000
0
  0
XRECORD
  5
39
102
{ACAD_REACTORS
330
38
102
}
100
AcDbXrecord
102
PLOTBIT
280
     0
  0
XRECORD
  5
23
102
{ACAD_REACTORS
330
22
102
}
100
AcDbXrecord
102
ACADR14ROUNDTRIP
1000
DSTYLE
1002
{
1070
   341
340
0
1070
   343
340
0
1070
   344
340
0
1002
}
  0
XRECORD
  5
4
102
{ACAD_REACTORS
330
3
102
}
100
AcDbXrecord
340
2
  0
XRECORD
  5
B
102
{ACAD_REACTORS
330
A
102
}
100
AcDbXrecord
340
9
  0
GROUP
  5
1CD2
102
{ACAD_REACTORS
330
1C
102
}
100
AcDbGroup
300

 70
     1
 71
     1
340
1CC2
340
1CC7
340
1CC3
340
1CC4
340
1CC5
340
1CC9
340
1CCA
340
1CCC
340
1CCD
340
1CCF
340
1CD0
340
1CC6
  0
MLINESTYLE
  5
20
102
{ACAD_REACTORS
330
1D
102
}
100
AcDbMlineStyle
  2
STANDARD
 70
     0
  3

 62
     0
 51
90.0
 52
90.0
 71
     2
 49
0.5
 62
   256
  6
BYLAYER
 49
-0.5
 62
   256
  6
BYLAYER
  0
DICTIONARYVAR
  5
147B
102
{ACAD_REACTORS
330
147A
102
}
100
DictionaryVariables
280
     0
  1
96
  0
ENDSEC
  0
EOF
