  0
SECTION
  2
HEADER
  9
$ACADVER
  1
AC1014
  9
$ACADMAINTVER
 70
     0
  9
$DWGCODEPAGE
  3
ANSI_932
  9
$INSBASE
 10
-587.250952
 20
747.890188
 30
0.0
  9
$EXTMIN
 10
527.123403
 20
-354.808393
 30
0.0
  9
$EXTMAX
 10
814.888228
 20
-222.702808
 30
0.0
  9
$LIMMIN
 10
491.445759
 20
-397.527026
  9
$LIMMAX
 10
839.377002
 20
-190.327281
  9
$ORTHOMODE
 70
     1
  9
$REGENMODE
 70
     1
  9
$FILLMODE
 70
     1
  9
$QTEXTMODE
 70
     0
  9
$MIRRTEXT
 70
     1
  9
$DRAGMODE
 70
     2
  9
$LTSCALE
 40
5.0
  9
$OSMODE
 70
    47
  9
$ATTMODE
 70
     1
  9
$TEXTSIZE
 40
5.0
  9
$TRACEWID
 40
0.05
  9
$TEXTSTYLE
  7
STANDARD
  9
$CLAYER
  8
外形
  9
$CELTYPE
  6
CONTINUOUS
  9
$CECOLOR
 62
   256
  9
$CELTSCALE
 40
1.0
  9
$DELOBJ
 70
     1
  9
$DISPSILH
 70
     0
  9
$DIMSCALE
 40
1.0
  9
$DIMASZ
 40
2.0
  9
$DIMEXO
 40
1.0
  9
$DIMDLI
 40
8.0
  9
$DIMRND
 40
0.0
  9
$DIMDLE
 40
0.0
  9
$DIMEXE
 40
2.0
  9
$DIMTP
 40
0.0
  9
$DIMTM
 40
0.0
  9
$DIMTXT
 40
2.0
  9
$DIMCEN
 40
-1.0
  9
$DIMTSZ
 40
0.0
  9
$DIMTOL
 70
     0
  9
$DIMLIM
 70
     0
  9
$DIMTIH
 70
     0
  9
$DIMTOH
 70
     0
  9
$DIMSE1
 70
     0
  9
$DIMSE2
 70
     0
  9
$DIMTAD
 70
     1
  9
$DIMZIN
 70
     8
  9
$DIMBLK
  1

  9
$DIMASO
 70
     1
  9
$DIMSHO
 70
     1
  9
$DIMPOST
  1

  9
$DIMAPOST
  1

  9
$DIMALT
 70
     0
  9
$DIMALTD
 70
     2
  9
$DIMALTF
 40
25.4
  9
$DIMLFAC
 40
1.0
  9
$DIMTOFL
 70
     1
  9
$DIMTVP
 40
0.0
  9
$DIMTIX
 70
     0
  9
$DIMSOXD
 70
     0
  9
$DIMSAH
 70
     1
  9
$DIMBLK1
  1
_DOTSMALL
  9
$DIMBLK2
  1
_DOTSMALL
  9
$DIMSTYLE
  2
参考寸法
  9
$DIMCLRD
 70
     2
  9
$DIMCLRE
 70
     2
  9
$DIMCLRT
 70
     2
  9
$DIMTFAC
 40
1.0
  9
$DIMGAP
 40
1.0
  9
$DIMJUST
 70
     0
  9
$DIMSD1
 70
     0
  9
$DIMSD2
 70
     0
  9
$DIMTOLJ
 70
     1
  9
$DIMTZIN
 70
     8
  9
$DIMALTZ
 70
     0
  9
$DIMALTTZ
 70
     0
  9
$DIMFIT
 70
     3
  9
$DIMUPT
 70
     0
  9
$DIMUNIT
 70
     2
  9
$DIMDEC
 70
     3
  9
$DIMTDEC
 70
     2
  9
$DIMALTU
 70
     2
  9
$DIMALTTD
 70
     2
  9
$DIMTXSTY
  7
STANDARD
  9
$DIMAUNIT
 70
     0
  9
$LUNITS
 70
     2
  9
$LUPREC
 70
     3
  9
$SKETCHINC
 40
0.1
  9
$FILLETRAD
 40
15.0
  9
$AUNITS
 70
     0
  9
$AUPREC
 70
     3
  9
$MENU
  1
acad
  9
$ELEVATION
 40
0.0
  9
$PELEVATION
 40
0.0
  9
$THICKNESS
 40
0.0
  9
$LIMCHECK
 70
     0
  9
$BLIPMODE
 70
     0
  9
$CHAMFERA
 40
0.0
  9
$CHAMFERB
 40
0.0
  9
$CHAMFERC
 40
0.0
  9
$CHAMFERD
 40
0.0
  9
$SKPOLY
 70
     0
  9
$TDCREATE
 40
2450751.535399305
  9
$TDUPDATE
 40
2452030.639351852
  9
$TDINDWG
 40
2.0612871528
  9
$TDUSRTIMER
 40
2.0612871528
  9
$USRTIMER
 70
     1
  9
$ANGBASE
 50
0.0
  9
$ANGDIR
 70
     0
  9
$PDMODE
 70
    32
  9
$PDSIZE
 40
0.0
  9
$PLINEWID
 40
0.0
  9
$COORDS
 70
     2
  9
$SPLFRAME
 70
     0
  9
$SPLINETYPE
 70
     5
  9
$SPLINESEGS
 70
     8
  9
$ATTDIA
 70
     0
  9
$ATTREQ
 70
     1
  9
$HANDLING
 70
     1
  9
$HANDSEED
  5
3761
  9
$SURFTAB1
 70
     6
  9
$SURFTAB2
 70
     6
  9
$SURFTYPE
 70
     6
  9
$SURFU
 70
     6
  9
$SURFV
 70
     6
  9
$UCSNAME
  2

  9
$UCSORG
 10
40.53800450572526
 20
146.9196145921314
 30
0.0
  9
$UCSXDIR
 10
1.0
 20
0.0
 30
0.0
  9
$UCSYDIR
 10
0.0
 20
1.0
 30
0.0
  9
$PUCSNAME
  2

  9
$PUCSORG
 10
0.0
 20
0.0
 30
0.0
  9
$PUCSXDIR
 10
1.0
 20
0.0
 30
0.0
  9
$PUCSYDIR
 10
0.0
 20
1.0
 30
0.0
  9
$USERI1
 70
     0
  9
$USERI2
 70
     0
  9
$USERI3
 70
     0
  9
$USERI4
 70
     0
  9
$USERI5
 70
     0
  9
$USERR1
 40
0.0
  9
$USERR2
 40
0.0
  9
$USERR3
 40
0.0
  9
$USERR4
 40
0.0
  9
$USERR5
 40
0.0
  9
$WORLDVIEW
 70
     1
  9
$SHADEDGE
 70
     3
  9
$SHADEDIF
 70
    70
  9
$TILEMODE
 70
     1
  9
$MAXACTVP
 70
    16
  9
$PINSBASE
 10
0.0
 20
0.0
 30
0.0
  9
$PLIMCHECK
 70
     0
  9
$PEXTMIN
 10
1.000000E+20
 20
1.000000E+20
 30
1.000000E+20
  9
$PEXTMAX
 10
-1.000000E+20
 20
-1.000000E+20
 30
-1.000000E+20
  9
$PLIMMIN
 10
0.0
 20
0.0
  9
$PLIMMAX
 10
12.0
 20
9.0
  9
$UNITMODE
 70
     0
  9
$VISRETAIN
 70
     0
  9
$PLINEGEN
 70
     0
  9
$PSLTSCALE
 70
     1
  9
$TREEDEPTH
 70
  3020
  9
$PICKSTYLE
 70
     1
  9
$CMLSTYLE
  2
STANDARD
  9
$CMLJUST
 70
     0
  9
$CMLSCALE
 40
1.0
  9
$PROXYGRAPHICS
 70
     1
  9
$MEASUREMENT
 70
     0
  0
ENDSEC
  0
SECTION
  2
CLASSES
  0
CLASS
  1
LWPOLYLINE
  2
AcDbPolyline
  3
"AutoCAD"
 90
        0
280
     0
281
     1
  0
CLASS
  1
ACDBDICTIONARYWDFLT
  2
AcDbDictionaryWithDefault
  3
AutoCAD 2000
 90
        0
280
     1
281
     0
  0
CLASS
  1
ACDBPLACEHOLDER
  2
AcDbPlaceHolder
  3
AutoCAD 2000
 90
        0
280
     1
281
     0
  0
CLASS
  1
LAYOUT
  2
AcDbLayout
  3
AutoCAD 2000
 90
        0
280
     1
281
     0
  0
CLASS
  1
LONG_TRANSACTION
  2
AcDbLongTransaction
  3
AutoCAD 2000
 90
        0
280
     1
281
     0
  0
CLASS
  1
LWPOLYLINE
  2
AcDbPolyline
  3
"AutoCAD"
 90
        0
280
     0
281
     1
  0
CLASS
  1
HATCH
  2
AcDbHatch
  3
"ACAD_SEDONA"
 90
        0
280
     0
281
     1
  0
CLASS
  1
XRECORD
  2
AcDbXrecord
  3
"<Built In>"
 90
        0
280
     0
281
     0
  0
CLASS
  1
DICTIONARYVAR
  2
AcDbDictionaryVar
  3
"AutoCAD"
 90
        0
280
     0
281
     0
  0
ENDSEC
  0
SECTION
  2
TABLES
  0
TABLE
  2
VPORT
  5
16
100
AcDbSymbolTable
 70
     1
  0
VPORT
  5
375C
100
AcDbSymbolTableRecord
100
AcDbViewportTableRecord
  2
*ACTIVE
 70
     0
 10
0.0
 20
0.0
 11
1.0
 21
1.0
 12
691.541235
 22
-292.432545
 13
0.0
 23
0.0
 14
1.0
 24
1.0
 15
10.0
 25
10.0
 16
0.0
 26
0.0
 36
1.0
 17
0.0
 27
0.0
 37
0.0
 40
231.530015
 41
1.710425
 42
50.0
 43
0.0
 44
0.0
 50
0.0
 51
0.0
 71
     0
 72
   100
 73
     1
 74
     1
 75
     0
 76
     0
 77
     0
 78
     2
  0
ENDTAB
  0
TABLE
  2
LTYPE
  5
11
100
AcDbSymbolTable
 70
     2
  0
LTYPE
  5
12
100
AcDbSymbolTableRecord
100
AcDbLinetypeTableRecord
  2
BYBLOCK
 70
     0
  3

 72
    65
 73
     0
 40
0.0
  0
LTYPE
  5
13
100
AcDbSymbolTableRecord
100
AcDbLinetypeTableRecord
  2
BYLAYER
 70
     0
  3

 72
    65
 73
     0
 40
0.0
  0
LTYPE
  5
7
100
AcDbSymbolTableRecord
100
AcDbLinetypeTableRecord
  2
CONTINUOUS
 70
     0
  3
Solid line
 72
    65
 73
     0
 40
0.0
  0
LTYPE
  5
AA
100
AcDbSymbolTableRecord
100
AcDbLinetypeTableRecord
  2
CENTER
 70
     0
  3
Center ____ _ ____ _ ____ _ ____ _ ____ _ ____
 72
    65
 73
     4
 40
2.0
 49
1.25
 74
     0
 49
-0.25
 74
     0
 49
0.25
 74
     0
 49
-0.25
 74
     0
  0
ENDTAB
  0
TABLE
  2
LAYER
  5
E
100
AcDbSymbolTable
 70
     5
  0
LAYER
  5
6
100
AcDbSymbolTableRecord
100
AcDbLayerTableRecord
  2
0
 70
     0
 62
     7
  6
CONTINUOUS
  0
LAYER
  5
2C
100
AcDbSymbolTableRecord
100
AcDbLayerTableRecord
  2
外形
 70
     0
 62
     4
  6
CONTINUOUS
  0
LAYER
  5
37
102
{ACAD_XDICTIONARY
360
38
102
}
100
AcDbSymbolTableRecord
100
AcDbLayerTableRecord
  2
DEFPOINTS
 70
     0
 62
     7
  6
CONTINUOUS
  0
LAYER
  5
1F
100
AcDbSymbolTableRecord
100
AcDbLayerTableRecord
  2
寸法
 70
     0
 62
     1
  6
CONTINUOUS
  0
LAYER
  5
673
100
AcDbSymbolTableRecord
100
AcDbLayerTableRecord
  2
参考
 70
     0
 62
     2
  6
CONTINUOUS
  0
ENDTAB
  0
TABLE
  2
STYLE
  5
F
100
AcDbSymbolTable
 70
     1
  0
STYLE
  5
10
100
AcDbSymbolTableRecord
100
AcDbTextStyleTableRecord
  2
STANDARD
 70
     0
 40
0.0
 41
1.0
 50
0.0
 71
     0
 42
5.0
  3
MONOTXT
  4
BIGFONT
  0
ENDTAB
  0
TABLE
  2
VIEW
  5
14
100
AcDbSymbolTable
 70
     0
  0
ENDTAB
  0
TABLE
  2
UCS
  5
15
100
AcDbSymbolTable
 70
     0
  0
ENDTAB
  0
TABLE
  2
APPID
  5
18
100
AcDbSymbolTable
 70
     2
  0
APPID
  5
19
100
AcDbSymbolTableRecord
100
AcDbRegAppTableRecord
  2
ACAD
 70
     0
  0
APPID
  5
C59
100
AcDbSymbolTableRecord
100
AcDbRegAppTableRecord
  2
DRAWINGVARIABLESXDATA
 70
     0
  0
ENDTAB
  0
TABLE
  2
DIMSTYLE
  5
1A
100
AcDbSymbolTable
 70
     2
  0
DIMSTYLE
105
21
102
{ACAD_XDICTIONARY
360
22
102
}
102
{ACAD_REACTORS
330
312F
330
3120
330
30F9
330
31D2
330
325C
330
330A
330
32FF
330
339C
330
3728
102
}
100
AcDbSymbolTableRecord
100
AcDbDimStyleTableRecord
  2
STANDARD
 70
     0
  3

  4

  5

  6
_OPEN30
  7
_OPEN30
 40
0.0
 41
2.0
 42
1.0
 43
8.0
 44
2.0
 45
0.0
 46
0.0
 47
0.0
 48
0.0
140
3.0
141
-1.0
142
0.0
143
25.4
144
1.0
145
0.0
146
1.0
147
1.0
 71
     0
 72
     0
 73
     0
 74
     0
 75
     0
 76
     0
 77
     1
 78
     8
170
     0
171
     2
172
     1
173
     1
174
     0
175
     0
176
     1
177
     1
178
     3
270
     2
271
     2
272
     2
273
     2
274
     2
340
10
275
     0
280
     0
281
     0
282
     0
283
     1
284
     8
285
     0
286
     0
287
     3
288
     0
  0
DIMSTYLE
105
674
100
AcDbSymbolTableRecord
100
AcDbDimStyleTableRecord
  2
参考寸法
 70
     0
  3

  4

  5

  6
_DOTSMALL
  7
_DOTSMALL
 40
1.0
 41
2.0
 42
1.0
 43
8.0
 44
2.0
 45
0.0
 46
0.0
 47
0.0
 48
0.0
140
2.0
141
-1.0
142
0.0
143
25.4
144
1.0
145
0.0
146
1.0
147
1.0
 71
     0
 72
     0
 73
     0
 74
     0
 75
     0
 76
     0
 77
     1
 78
     8
170
     0
171
     2
172
     1
173
     1
174
     0
175
     0
176
     2
177
     2
178
     2
270
     2
271
     3
272
     2
273
     2
274
     2
340
10
275
     0
280
     0
281
     0
282
     0
283
     1
284
     8
285
     0
286
     0
287
     3
288
     0
  0
ENDTAB
  0
TABLE
  2
BLOCK_RECORD
  5
1
100
AcDbSymbolTable
 70
    20
  0
BLOCK_RECORD
  5
2
102
{ACAD_XDICTIONARY
360
3
102
}
100
AcDbSymbolTableRecord
100
AcDbBlockTableRecord
  2
*MODEL_SPACE
  0
BLOCK_RECORD
  5
9
102
{ACAD_XDICTIONARY
360
A
102
}
100
AcDbSymbolTableRecord
100
AcDbBlockTableRecord
  2
*PAPER_SPACE
  0
BLOCK_RECORD
  5
24
100
AcDbSymbolTableRecord
100
AcDbBlockTableRecord
  2
_DOTSMALL
  0
BLOCK_RECORD
  5
470
100
AcDbSymbolTableRecord
100
AcDbBlockTableRecord
  2
_OPEN30
  0
BLOCK_RECORD
  5
30ED
100
AcDbSymbolTableRecord
100
AcDbBlockTableRecord
  2
*D3
  0
BLOCK_RECORD
  5
3115
100
AcDbSymbolTableRecord
100
AcDbBlockTableRecord
  2
*D5
  0
BLOCK_RECORD
  5
3121
100
AcDbSymbolTableRecord
100
AcDbBlockTableRecord
  2
*D6
  0
BLOCK_RECORD
  5
31C2
100
AcDbSymbolTableRecord
100
AcDbBlockTableRecord
  2
*D11
  0
BLOCK_RECORD
  5
324C
100
AcDbSymbolTableRecord
100
AcDbBlockTableRecord
  2
*D12
  0
BLOCK_RECORD
  5
32F3
100
AcDbSymbolTableRecord
100
AcDbBlockTableRecord
  2
*D16
  0
BLOCK_RECORD
  5
3300
100
AcDbSymbolTableRecord
100
AcDbBlockTableRecord
  2
*D17
  0
BLOCK_RECORD
  5
3390
100
AcDbSymbolTableRecord
100
AcDbBlockTableRecord
  2
*D18
  0
BLOCK_RECORD
  5
371B
100
AcDbSymbolTableRecord
100
AcDbBlockTableRecord
  2
*D19
  0
ENDTAB
  0
ENDSEC
  0
SECTION
  2
BLOCKS
  0
BLOCK
  5
5
100
AcDbEntity
  8
0
100
AcDbBlockBegin
  2
*MODEL_SPACE
 70
     0
 10
0.0
 20
0.0
 30
0.0
  3
*MODEL_SPACE
  1

  0
ENDBLK
  5
8
100
AcDbEntity
  8
0
100
AcDbBlockEnd
  0
BLOCK
  5
C
100
AcDbEntity
 67
     1
  8
0
100
AcDbBlockBegin
  2
*PAPER_SPACE
 70
     0
 10
0.0
 20
0.0
 30
0.0
  3
*PAPER_SPACE
  1

  0
ENDBLK
  5
D
100
AcDbEntity
 67
     1
  8
0
100
AcDbBlockEnd
  0
BLOCK
  5
29
100
AcDbEntity
  8
0
100
AcDbBlockBegin
  2
_DOTSMALL
 70
     0
 10
0.0
 20
0.0
 30
0.0
  3
_DOTSMALL
  1

  0
POLYLINE
  5
25
100
AcDbEntity
  8
0
  6
BYBLOCK
 62
     0
100
AcDb2dPolyline
 66
     1
 10
0.0
 20
0.0
 30
0.0
 70
     1
 40
0.5
 41
0.5
  0
VERTEX
  5
26
100
AcDbEntity
  8
0
  6
BYBLOCK
 62
     0
100
AcDbVertex
100
AcDb2dVertex
 10
-0.0625
 20
0.0
 30
0.0
 42
1.0
  0
VERTEX
  5
27
100
AcDbEntity
  8
0
  6
BYBLOCK
 62
     0
100
AcDbVertex
100
AcDb2dVertex
 10
0.0625
 20
0.0
 30
0.0
 42
1.0
  0
SEQEND
  5
28
100
AcDbEntity
  8
0
  6
BYBLOCK
 62
     0
  0
ENDBLK
  5
2A
100
AcDbEntity
  8
0
100
AcDbBlockEnd
  0
BLOCK
  5
471
100
AcDbEntity
  8
0
100
AcDbBlockBegin
  2
_OPEN30
 70
     0
 10
0.0
 20
0.0
 30
0.0
  3
_OPEN30
  1

  0
LINE
  5
472
100
AcDbEntity
  8
0
  6
BYBLOCK
 62
     0
100
AcDbLine
 10
-1.0
 20
0.267949
 30
0.0
 11
0.0
 21
0.0
 31
0.0
  0
LINE
  5
473
100
AcDbEntity
  8
0
  6
BYBLOCK
 62
     0
100
AcDbLine
 10
0.0
 20
0.0
 30
0.0
 11
-1.0
 21
-0.267949
 31
0.0
  0
LINE
  5
474
100
AcDbEntity
  8
0
  6
BYBLOCK
 62
     0
100
AcDbLine
 10
0.0
 20
0.0
 30
0.0
 11
-1.0
 21
0.0
 31
0.0
  0
ENDBLK
  5
475
100
AcDbEntity
  8
0
100
AcDbBlockEnd
  0
BLOCK
  5
31EB
100
AcDbEntity
  8
0
100
AcDbBlockBegin
  2
*D3
 70
     1
 10
0.0
 20
0.0
 30
0.0
  3
*D3
  1

  0
LINE
  5
31EC
100
AcDbEntity
  8
0
  6
BYBLOCK
 62
     1
100
AcDbLine
 10
627.783521
 20
-266.892145
 30
0.0
 11
627.783521
 21
-286.893159
 31
0.0
  0
LINE
  5
31ED
100
AcDbEntity
  8
0
  6
BYBLOCK
 62
     1
100
AcDbLine
 10
807.783521
 20
-260.892145
 30
0.0
 11
807.783521
 21
-286.893159
 31
0.0
  0
LINE
  5
31EE
100
AcDbEntity
  8
0
  6
BYBLOCK
 62
     1
100
AcDbLine
 10
629.783521
 20
-284.893159
 30
0.0
 11
805.783521
 21
-284.893159
 31
0.0
  0
INSERT
  5
31EF
100
AcDbEntity
  8
0
  6
BYBLOCK
 62
     1
100
AcDbBlockReference
  2
_OPEN30
 10
627.783521
 20
-284.893159
 30
0.0
 41
2.0
 42
2.0
 43
2.0
 50
180.0
  0
INSERT
  5
31F0
100
AcDbEntity
  8
0
  6
BYBLOCK
 62
     1
100
AcDbBlockReference
  2
_OPEN30
 10
807.783521
 20
-284.893159
 30
0.0
 41
2.0
 42
2.0
 43
2.0
  0
MTEXT
  5
31F1
100
AcDbEntity
  8
0
  6
BYBLOCK
 62
     3
100
AcDbMText
 10
717.783521
 20
-282.393159
 30
0.0
 40
3.0
 41
0.0
 71
     5
 72
     1
  1
\A1;180
  0
POINT
  5
31F2
100
AcDbEntity
  8
DEFPOINTS
  6
BYBLOCK
 62
     0
100
AcDbPoint
 10
627.783521
 20
-265.892145
 30
0.0
  0
POINT
  5
31F3
100
AcDbEntity
  8
DEFPOINTS
  6
BYBLOCK
 62
     0
100
AcDbPoint
 10
807.783521
 20
-259.892145
 30
0.0
  0
POINT
  5
31F4
100
AcDbEntity
  8
DEFPOINTS
  6
BYBLOCK
 62
     0
100
AcDbPoint
 10
807.783521
 20
-284.893159
 30
0.0
  0
ENDBLK
  5
31F5
100
AcDbEntity
  8
0
100
AcDbBlockEnd
  0
BLOCK
  5
31E0
100
AcDbEntity
  8
0
100
AcDbBlockBegin
  2
*D5
 70
     1
 10
0.0
 20
0.0
 30
0.0
  3
*D5
  1

  0
LINE
  5
31E1
100
AcDbEntity
  8
0
  6
BYBLOCK
 62
     1
100
AcDbLine
 10
624.853873
 20
-252.892145
 30
0.0
 11
613.983159
 21
-252.892145
 31
0.0
  0
LINE
  5
31E2
100
AcDbEntity
  8
0
  6
BYBLOCK
 62
     1
100
AcDbLine
 10
626.783521
 20
-265.892145
 30
0.0
 11
613.983159
 21
-265.892145
 31
0.0
  0
LINE
  5
31E3
100
AcDbEntity
  8
0
  6
BYBLOCK
 62
     1
100
AcDbLine
 10
615.983159
 20
-254.892145
 30
0.0
 11
615.983159
 21
-263.892145
 31
0.0
  0
INSERT
  5
31E4
100
AcDbEntity
  8
0
  6
BYBLOCK
 62
     1
100
AcDbBlockReference
  2
_OPEN30
 10
615.983159
 20
-252.892145
 30
0.0
 41
2.0
 42
2.0
 43
2.0
 50
90.0
  0
INSERT
  5
31E5
100
AcDbEntity
  8
0
  6
BYBLOCK
 62
     1
100
AcDbBlockReference
  2
_OPEN30
 10
615.983159
 20
-265.892145
 30
0.0
 41
2.0
 42
2.0
 43
2.0
 50
270.0
  0
MTEXT
  5
31E6
100
AcDbEntity
  8
0
  6
BYBLOCK
 62
     3
100
AcDbMText
 10
613.483159
 20
-259.392145
 30
0.0
 40
3.0
 41
0.0
 71
     5
 72
     1
  1
\A1;13
 11
0.0
 21
1.0
 31
0.0
  0
POINT
  5
31E7
100
AcDbEntity
  8
DEFPOINTS
  6
BYBLOCK
 62
     0
100
AcDbPoint
 10
625.853873
 20
-252.892145
 30
0.0
  0
POINT
  5
31E8
100
AcDbEntity
  8
DEFPOINTS
  6
BYBLOCK
 62
     0
100
AcDbPoint
 10
627.783521
 20
-265.892145
 30
0.0
  0
POINT
  5
31E9
100
AcDbEntity
  8
DEFPOINTS
  6
BYBLOCK
 62
     0
100
AcDbPoint
 10
615.983159
 20
-265.892145
 30
0.0
  0
ENDBLK
  5
31EA
100
AcDbEntity
  8
0
100
AcDbBlockEnd
  0
BLOCK
  5
31D3
100
AcDbEntity
  8
0
100
AcDbBlockBegin
  2
*D6
 70
     1
 10
0.0
 20
0.0
 30
0.0
  3
*D6
  1

  0
LINE
  5
31D4
100
AcDbEntity
  8
0
  6
BYBLOCK
 62
     1
100
AcDbLine
 10
629.372426
 20
-246.895951
 30
0.0
 11
630.666078
 21
-232.109441
 31
0.0
  0
LINE
  5
31D5
100
AcDbEntity
  8
0
  6
BYBLOCK
 62
     1
100
AcDbLine
 10
626.710474
 20
-265.892145
 30
0.0
 11
593.798725
 21
-265.892145
 31
0.0
  0
ARC
  5
31D6
100
AcDbEntity
  8
0
  6
BYBLOCK
 62
     1
100
AcDbCircle
 10
627.710474
 20
-265.892145
 30
0.0
 40
31.911749
100
AcDbArc
 50
88.591477
 51
176.408523
  0
INSERT
  5
31D7
100
AcDbEntity
  8
0
  6
BYBLOCK
 62
     1
100
AcDbBlockReference
  2
_OPEN30
 10
630.491766
 20
-234.101831
 30
0.0
 41
2.0
 42
2.0
 43
2.0
 50
356.795739
  0
INSERT
  5
31D8
100
AcDbEntity
  8
0
  6
BYBLOCK
 62
     1
100
AcDbBlockReference
  2
_OPEN30
 10
595.798725
 20
-265.892145
 30
0.0
 41
2.0
 42
2.0
 43
2.0
 50
268.204261
  0
MTEXT
  5
31D9
100
AcDbEntity
  8
0
  6
BYBLOCK
 62
     3
100
AcDbMText
 10
604.462234
 20
-240.521143
 30
0.0
 40
3.0
 41
0.0
 71
     5
 72
     1
  1
\A1;95°
 11
0.737277
 21
0.67559
 31
0.0
  0
POINT
  5
31DA
100
AcDbEntity
  8
DEFPOINTS
  6
BYBLOCK
 62
     0
100
AcDbPoint
 10
613.388507
 20
-237.374765
 30
0.0
  0
POINT
  5
31DB
100
AcDbEntity
  8
DEFPOINTS
  6
BYBLOCK
 62
     0
100
AcDbPoint
 10
629.28527
 20
-247.892145
 30
0.0
  0
POINT
  5
31DC
100
AcDbEntity
  8
DEFPOINTS
  6
BYBLOCK
 62
     0
100
AcDbPoint
 10
628.583521
 20
-265.892145
 30
0.0
  0
POINT
  5
31DD
100
AcDbEntity
  8
DEFPOINTS
  6
BYBLOCK
 62
     0
100
AcDbPoint
 10
627.783521
 20
-265.892145
 30
0.0
  0
POINT
  5
31DE
100
AcDbEntity
  8
DEFPOINTS
  6
BYBLOCK
 62
     0
100
AcDbPoint
 10
627.786565
 20
-265.022421
 30
0.0
  0
ENDBLK
  5
31DF
100
AcDbEntity
  8
0
100
AcDbBlockEnd
  0
BLOCK
  5
31F6
100
AcDbEntity
  8
0
100
AcDbBlockBegin
  2
*D11
 70
     1
 10
0.0
 20
0.0
 30
0.0
  3
*D11
  1

  0
LINE
  5
31F7
100
AcDbEntity
  8
0
  6
BYBLOCK
 62
     1
100
AcDbLine
 10
623.853873
 20
-336.414951
 30
0.0
 11
617.66066
 21
-336.414951
 31
0.0
  0
LINE
  5
31F8
100
AcDbEntity
  8
0
  6
BYBLOCK
 62
     1
100
AcDbLine
 10
626.788999
 20
-336.51948
 30
0.0
 11
617.716114
 21
-337.473078
 31
0.0
  0
ARC
  5
31F9
100
AcDbEntity
  8
0
  6
BYBLOCK
 62
     1
100
AcDbCircle
 10
627.783521
 20
-336.414951
 30
0.0
 40
8.122861
100
AcDbArc
 50
151.492272
 51
180.0
  0
LINE
  5
31FA
100
AcDbEntity
  8
0
  6
BYBLOCK
 62
     1
100
AcDbLine
 10
620.645534
 20
-332.538094
 30
0.0
 11
624.750119
 21
-324.98082
 31
0.0
  0
ARC
  5
31FB
100
AcDbEntity
  8
0
  6
BYBLOCK
 62
     1
100
AcDbCircle
 10
627.783521
 20
-336.414951
 30
0.0
 40
8.122861
100
AcDbArc
 50
151.71366
 51
165.85683
  0
ARC
  5
31FC
100
AcDbEntity
  8
0
  6
BYBLOCK
 62
     1
100
AcDbCircle
 10
627.783521
 20
-336.414951
 30
0.0
 40
8.122861
100
AcDbArc
 50
200.14317
 51
214.28634
  0
ARC
  5
31FD
100
AcDbEntity
  8
0
  6
BYBLOCK
 62
     1
100
AcDbCircle
 10
627.783521
 20
-336.414951
 30
0.0
 40
8.122861
100
AcDbArc
 50
180.0
 51
186.0
  0
INSERT
  5
31FE
100
AcDbEntity
  8
0
  6
BYBLOCK
 62
     1
100
AcDbBlockReference
  2
_OPEN30
 10
619.66066
 20
-336.414951
 30
0.0
 41
2.0
 42
2.0
 43
2.0
 50
262.928415
  0
INSERT
  5
31FF
100
AcDbEntity
  8
0
  6
BYBLOCK
 62
     1
100
AcDbBlockReference
  2
_OPEN30
 10
619.705157
 20
-337.264022
 30
0.0
 41
2.0
 42
2.0
 43
2.0
 50
103.071585
  0
MTEXT
  5
3200
100
AcDbEntity
  8
0
  6
BYBLOCK
 62
     3
100
AcDbMText
 10
624.894708
 20
-329.952651
 30
0.0
 40
3.0
 41
0.0
 71
     5
 72
     1
  1
\A1;6°
 11
-0.477277
 21
-0.878753
 31
0.0
  0
POINT
  5
3201
100
AcDbEntity
  8
DEFPOINTS
  6
BYBLOCK
 62
     0
100
AcDbPoint
 10
619.680446
 20
-336.981573
 30
0.0
  0
POINT
  5
3202
100
AcDbEntity
  8
DEFPOINTS
  6
BYBLOCK
 62
     0
100
AcDbPoint
 10
627.783521
 20
-336.414951
 30
0.0
  0
POINT
  5
3203
100
AcDbEntity
  8
DEFPOINTS
  6
BYBLOCK
 62
     0
100
AcDbPoint
 10
624.853873
 20
-336.414951
 30
0.0
  0
POINT
  5
3204
100
AcDbEntity
  8
DEFPOINTS
  6
BYBLOCK
 62
     0
100
AcDbPoint
 10
812.648509
 20
-336.414951
 30
0.0
  0
POINT
  5
3205
100
AcDbEntity
  8
DEFPOINTS
  6
BYBLOCK
 62
     0
100
AcDbPoint
 10
811.635799
 20
-317.091298
 30
0.0
  0
ENDBLK
  5
3206
100
AcDbEntity
  8
0
100
AcDbBlockEnd
  0
BLOCK
  5
32A4
100
AcDbEntity
  8
0
100
AcDbBlockBegin
  2
*D12
 70
     1
 10
0.0
 20
0.0
 30
0.0
  3
*D12
  1

  0
LINE
  5
32A5
100
AcDbEntity
  8
0
  6
BYBLOCK
 62
     1
100
AcDbLine
 10
545.240395
 20
-266.870293
 30
0.0
 11
539.76676
 21
-292.621718
 31
0.0
  0
LINE
  5
32A6
100
AcDbEntity
  8
0
  6
BYBLOCK
 62
     1
100
AcDbLine
 10
545.448307
 20
-266.892145
 30
0.0
 11
545.448307
 21
-293.218873
 31
0.0
  0
ARC
  5
32A7
100
AcDbEntity
  8
0
  6
BYBLOCK
 62
     1
100
AcDbCircle
 10
545.448307
 20
-265.892145
 30
0.0
 40
25.326727
100
AcDbArc
 50
253.474293
 51
258.0
  0
LINE
  5
32A8
100
AcDbEntity
  8
0
  6
BYBLOCK
 62
     1
100
AcDbLine
 10
538.244232
 20
-290.172681
 30
0.0
 11
527.123403
 21
-286.873113
 31
0.0
  0
ARC
  5
32A9
100
AcDbEntity
  8
0
  6
BYBLOCK
 62
     1
100
AcDbCircle
 10
545.448307
 20
-265.892145
 30
0.0
 40
25.326727
100
AcDbArc
 50
262.525707
 51
265.474293
  0
INSERT
  5
32AA
100
AcDbEntity
  8
0
  6
BYBLOCK
 62
     1
100
AcDbBlockReference
  2
_OPEN30
 10
540.182584
 20
-290.665423
 30
0.0
 41
2.0
 42
2.0
 43
2.0
 50
170.262854
  0
INSERT
  5
32AB
100
AcDbEntity
  8
0
  6
BYBLOCK
 62
     1
100
AcDbBlockReference
  2
_OPEN30
 10
545.448307
 20
-291.218873
 30
0.0
 41
2.0
 42
2.0
 43
2.0
 50
357.737146
  0
MTEXT
  5
32AC
100
AcDbEntity
  8
0
  6
BYBLOCK
 62
     3
100
AcDbMText
 10
533.394931
 20
-286.126167
 30
0.0
 40
3.0
 41
0.0
 71
     5
 72
     1
  1
\A1;12°
 11
0.958692
 21
-0.284446
 31
0.0
  0
POINT
  5
32AD
100
AcDbEntity
  8
DEFPOINTS
  6
BYBLOCK
 62
     0
100
AcDbPoint
 10
543.681603
 20
-291.157178
 30
0.0
  0
POINT
  5
32AE
100
AcDbEntity
  8
DEFPOINTS
  6
BYBLOCK
 62
     0
100
AcDbPoint
 10
545.448307
 20
-222.810312
 30
0.0
  0
POINT
  5
32AF
100
AcDbEntity
  8
DEFPOINTS
  6
BYBLOCK
 62
     0
100
AcDbPoint
 10
554.405523
 20
-223.751753
 30
0.0
  0
POINT
  5
32B0
100
AcDbEntity
  8
DEFPOINTS
  6
BYBLOCK
 62
     0
100
AcDbPoint
 10
545.448307
 20
-265.892145
 30
0.0
  0
POINT
  5
32B1
100
AcDbEntity
  8
DEFPOINTS
  6
BYBLOCK
 62
     0
100
AcDbPoint
 10
545.448307
 20
-265.892145
 30
0.0
  0
ENDBLK
  5
32B2
100
AcDbEntity
  8
0
100
AcDbBlockEnd
  0
BLOCK
  5
3315
100
AcDbEntity
  8
0
100
AcDbBlockBegin
  2
*D16
 70
     1
 10
0.0
 20
0.0
 30
0.0
  3
*D16
  1

  0
LINE
  5
3316
100
AcDbEntity
  8
0
  6
BYBLOCK
 62
     1
100
AcDbLine
 10
743.19005
 20
-258.251044
 30
0.0
 11
743.19005
 21
-273.346712
 31
0.0
  0
LINE
  5
3317
100
AcDbEntity
  8
0
  6
BYBLOCK
 62
     1
100
AcDbLine
 10
761.19005
 20
-258.251044
 30
0.0
 11
761.19005
 21
-273.346712
 31
0.0
  0
LINE
  5
3318
100
AcDbEntity
  8
0
  6
BYBLOCK
 62
     1
100
AcDbLine
 10
745.19005
 20
-271.346712
 30
0.0
 11
759.19005
 21
-271.346712
 31
0.0
  0
INSERT
  5
3319
100
AcDbEntity
  8
0
  6
BYBLOCK
 62
     1
100
AcDbBlockReference
  2
_OPEN30
 10
743.19005
 20
-271.346712
 30
0.0
 41
2.0
 42
2.0
 43
2.0
 50
180.0
  0
INSERT
  5
331A
100
AcDbEntity
  8
0
  6
BYBLOCK
 62
     1
100
AcDbBlockReference
  2
_OPEN30
 10
761.19005
 20
-271.346712
 30
0.0
 41
2.0
 42
2.0
 43
2.0
  0
MTEXT
  5
331B
100
AcDbEntity
  8
0
  6
BYBLOCK
 62
     3
100
AcDbMText
 10
752.19005
 20
-268.846712
 30
0.0
 40
3.0
 41
0.0
 71
     5
 72
     1
  1
\A1;18
  0
POINT
  5
331C
100
AcDbEntity
  8
DEFPOINTS
  6
BYBLOCK
 62
     0
100
AcDbPoint
 10
743.19005
 20
-257.251044
 30
0.0
  0
POINT
  5
331D
100
AcDbEntity
  8
DEFPOINTS
  6
BYBLOCK
 62
     0
100
AcDbPoint
 10
761.19005
 20
-257.251044
 30
0.0
  0
POINT
  5
331E
100
AcDbEntity
  8
DEFPOINTS
  6
BYBLOCK
 62
     0
100
AcDbPoint
 10
761.19005
 20
-271.346712
 30
0.0
  0
ENDBLK
  5
331F
100
AcDbEntity
  8
0
100
AcDbBlockEnd
  0
BLOCK
  5
330B
100
AcDbEntity
  8
0
100
AcDbBlockBegin
  2
*D17
 70
     1
 10
0.0
 20
0.0
 30
0.0
  3
*D17
  1

  0
LINE
  5
330C
100
AcDbEntity
  8
0
  6
BYBLOCK
 62
     1
100
AcDbLine
 10
739.585122
 20
-232.468733
 30
0.0
 11
745.887586
 21
-242.680439
 31
0.0
  0
LINE
  5
330D
100
AcDbEntity
  8
0
  6
BYBLOCK
 62
     1
100
AcDbLine
 10
758.492514
 20
-263.103852
 30
0.0
 11
759.542925
 21
-264.805803
 31
0.0
  0
MTEXT
  5
330E
100
AcDbEntity
  8
0
  6
BYBLOCK
 62
     3
100
AcDbMText
 10
744.338588
 20
-235.410597
 30
0.0
 40
3.0
 41
0.0
 71
     5
 72
     1
  1
\A1;\U+220520
 11
0.525205
 21
-0.850976
 31
0.0
  0
LINE
  5
330F
100
AcDbEntity
  8
0
  6
BYBLOCK
 62
     1
100
AcDbLine
 10
757.442104
 20
-261.401901
 30
0.0
 11
746.937997
 21
-244.38239
 31
0.0
  0
INSERT
  5
3310
100
AcDbEntity
  8
0
  6
BYBLOCK
 62
     1
100
AcDbBlockReference
  2
_OPEN30
 10
757.442104
 20
-261.401901
 30
0.0
 41
2.0
 42
2.0
 43
2.0
 50
121.682068
  0
INSERT
  5
3311
100
AcDbEntity
  8
0
  6
BYBLOCK
 62
     1
100
AcDbBlockReference
  2
_OPEN30
 10
746.937997
 20
-244.38239
 30
0.0
 41
2.0
 42
2.0
 43
2.0
 50
301.682068
  0
POINT
  5
3312
100
AcDbEntity
  8
DEFPOINTS
  6
BYBLOCK
 62
     0
100
AcDbPoint
 10
746.937997
 20
-244.38239
 30
0.0
  0
POINT
  5
3313
100
AcDbEntity
  8
DEFPOINTS
  6
BYBLOCK
 62
     0
100
AcDbPoint
 10
757.442104
 20
-261.401901
 30
0.0
  0
ENDBLK
  5
3314
100
AcDbEntity
  8
0
100
AcDbBlockEnd
  0
BLOCK
  5
339D
100
AcDbEntity
  8
0
100
AcDbBlockBegin
  2
*D18
 70
     1
 10
0.0
 20
0.0
 30
0.0
  3
*D18
  1

  0
LINE
  5
339E
100
AcDbEntity
  8
0
  6
BYBLOCK
 62
     1
100
AcDbLine
 10
630.023239
 20
-320.634426
 30
0.0
 11
630.023239
 21
-338.129308
 31
0.0
  0
LINE
  5
339F
100
AcDbEntity
  8
0
  6
BYBLOCK
 62
     1
100
AcDbLine
 10
650.023239
 20
-330.384426
 30
0.0
 11
650.023239
 21
-338.129308
 31
0.0
  0
LINE
  5
33A0
100
AcDbEntity
  8
0
  6
BYBLOCK
 62
     1
100
AcDbLine
 10
632.023239
 20
-336.129308
 30
0.0
 11
648.023239
 21
-336.129308
 31
0.0
  0
INSERT
  5
33A1
100
AcDbEntity
  8
0
  6
BYBLOCK
 62
     1
100
AcDbBlockReference
  2
_OPEN30
 10
630.023239
 20
-336.129308
 30
0.0
 41
2.0
 42
2.0
 43
2.0
 50
180.0
  0
INSERT
  5
33A2
100
AcDbEntity
  8
0
  6
BYBLOCK
 62
     1
100
AcDbBlockReference
  2
_OPEN30
 10
650.023239
 20
-336.129308
 30
0.0
 41
2.0
 42
2.0
 43
2.0
  0
MTEXT
  5
33A3
100
AcDbEntity
  8
0
  6
BYBLOCK
 62
     3
100
AcDbMText
 10
640.023239
 20
-333.629308
 30
0.0
 40
3.0
 41
0.0
 71
     5
 72
     1
  1
\A1;20
  0
POINT
  5
33A4
100
AcDbEntity
  8
DEFPOINTS
  6
BYBLOCK
 62
     0
100
AcDbPoint
 10
630.023239
 20
-319.634426
 30
0.0
  0
POINT
  5
33A5
100
AcDbEntity
  8
DEFPOINTS
  6
BYBLOCK
 62
     0
100
AcDbPoint
 10
650.023239
 20
-329.384426
 30
0.0
  0
POINT
  5
33A6
100
AcDbEntity
  8
DEFPOINTS
  6
BYBLOCK
 62
     0
100
AcDbPoint
 10
650.023239
 20
-336.129308
 30
0.0
  0
ENDBLK
  5
33A7
100
AcDbEntity
  8
0
100
AcDbBlockEnd
  0
BLOCK
  5
374E
100
AcDbEntity
  8
0
100
AcDbBlockBegin
  2
*D19
 70
     1
 10
0.0
 20
0.0
 30
0.0
  3
*D19
  1

  0
LINE
  5
374F
100
AcDbEntity
  8
0
  6
BYBLOCK
 62
     1
100
AcDbLine
 10
628.783521
 20
-265.892145
 30
0.0
 11
674.413499
 21
-265.892145
 31
0.0
  0
LINE
  5
3750
100
AcDbEntity
  8
0
  6
BYBLOCK
 62
     1
100
AcDbLine
 10
669.783521
 20
-261.892145
 30
0.0
 11
674.413499
 21
-261.892145
 31
0.0
  0
LINE
  5
3751
100
AcDbEntity
  8
0
  6
BYBLOCK
 62
     1
100
AcDbLine
 10
672.413499
 20
-259.892145
 30
0.0
 11
672.413499
 21
-257.892145
 31
0.0
  0
LINE
  5
3752
100
AcDbEntity
  8
0
  6
BYBLOCK
 62
     1
100
AcDbLine
 10
672.413499
 20
-267.892145
 30
0.0
 11
672.413499
 21
-273.892145
 31
0.0
  0
LINE
  5
3753
100
AcDbEntity
  8
0
  6
BYBLOCK
 62
     1
100
AcDbLine
 10
672.413499
 20
-261.892145
 30
0.0
 11
672.413499
 21
-265.892145
 31
0.0
  0
INSERT
  5
3754
100
AcDbEntity
  8
0
  6
BYBLOCK
 62
     1
100
AcDbBlockReference
  2
_OPEN30
 10
672.413499
 20
-261.892145
 30
0.0
 41
2.0
 42
2.0
 43
2.0
 50
270.0
  0
INSERT
  5
3755
100
AcDbEntity
  8
0
  6
BYBLOCK
 62
     1
100
AcDbBlockReference
  2
_OPEN30
 10
672.413499
 20
-265.892145
 30
0.0
 41
2.0
 42
2.0
 43
2.0
 50
90.0
  0
MTEXT
  5
3756
100
AcDbEntity
  8
0
  6
BYBLOCK
 62
     3
100
AcDbMText
 10
669.913499
 20
-271.892145
 30
0.0
 40
3.0
 41
0.0
 71
     5
 72
     1
  1
\A1;4
 11
0.0
 21
1.0
 31
0.0
  0
POINT
  5
3757
100
AcDbEntity
  8
DEFPOINTS
  6
BYBLOCK
 62
     0
100
AcDbPoint
 10
627.783521
 20
-265.892145
 30
0.0
  0
POINT
  5
3758
100
AcDbEntity
  8
DEFPOINTS
  6
BYBLOCK
 62
     0
100
AcDbPoint
 10
668.783521
 20
-261.892145
 30
0.0
  0
POINT
  5
3759
100
AcDbEntity
  8
DEFPOINTS
  6
BYBLOCK
 62
     0
100
AcDbPoint
 10
672.413499
 20
-261.892145
 30
0.0
  0
ENDBLK
  5
375A
100
AcDbEntity
  8
0
100
AcDbBlockEnd
  0
ENDSEC
  0
SECTION
  2
ENTITIES
  0
LINE
  5
3058
100
AcDbEntity
  8
外形
  6
CONTINUOUS
100
AcDbLine
 10
629.28527
 20
-247.892145
 30
0.0
 11
627.786565
 21
-265.022421
 31
0.0
  0
LINE
  5
305A
100
AcDbEntity
  8
外形
  6
CONTINUOUS
100
AcDbLine
 10
628.653245
 20
-265.889101
 30
0.0
 11
646.826869
 21
-264.299115
 31
0.0
  0
LINE
  5
305B
100
AcDbEntity
  8
外形
  6
CONTINUOUS
100
AcDbLine
 10
629.230648
 20
-256.101533
 30
0.0
 11
637.275237
 21
-255.397722
 31
0.0
  0
LINE
  5
3069
100
AcDbEntity
  8
外形
  6
CONTINUOUS
100
AcDbLine
 10
638.225012
 20
-255.314628
 30
0.0
 11
637.425065
 21
-264.45806
 31
0.0
  0
ARC
  5
306A
100
AcDbEntity
  8
外形
  6
CONTINUOUS
100
AcDbCircle
 10
628.583521
 20
-265.092145
 30
0.0
 40
0.8
100
AcDbArc
 50
175.0
 51
275.0
  0
ARC
  5
306B
100
AcDbEntity
  8
外形
  6
CONTINUOUS
100
AcDbCircle
 10
629.300373
 20
-256.898488
 30
0.0
 40
0.8
100
AcDbArc
 50
95.0
 51
175.0
  0
ARC
  5
306C
100
AcDbEntity
  8
外形
  6
CONTINUOUS
100
AcDbCircle
 10
637.344961
 20
-256.194678
 30
0.0
 40
0.8
100
AcDbArc
 50
355.0
 51
95.0
  0
ARC
  5
306D
100
AcDbEntity
  8
外形
  6
CONTINUOUS
100
AcDbCircle
 10
636.628109
 20
-264.388335
 30
0.0
 40
0.8
100
AcDbArc
 50
275.0
 51
355.0
  0
CIRCLE
  5
3074
100
AcDbEntity
  8
外形
  6
CONTINUOUS
100
AcDbCircle
 10
632.964241
 20
-260.643412
 30
0.0
 40
1.905
  0
LINE
  5
308E
100
AcDbEntity
  8
外形
  6
CONTINUOUS
 62
     1
100
AcDbLine
 10
628.583521
 20
-265.892145
 30
0.0
 11
627.783521
 21
-265.892145
 31
0.0
  0
LINE
  5
308F
100
AcDbEntity
  8
外形
  6
CONTINUOUS
 62
     1
100
AcDbLine
 10
627.783521
 20
-265.092145
 30
0.0
 11
627.783521
 21
-265.892145
 31
0.0
  0
LINE
  5
3091
100
AcDbEntity
  8
外形
  6
CONTINUOUS
100
AcDbLine
 10
807.783521
 20
-244.892145
 30
0.0
 11
807.783521
 21
-259.892145
 31
0.0
  0
LINE
  5
3092
100
AcDbEntity
  8
外形
  6
CONTINUOUS
100
AcDbLine
 10
657.783521
 20
-249.036688
 30
0.0
 11
657.783521
 21
-257.642145
 31
0.0
  0
LINE
  5
3094
102
{ACAD_REACTORS
330
337C
102
}
100
AcDbEntity
  8
外形
  6
CENTER
 62
     1
100
AcDbLine
 10
812.648509
 20
-252.892145
 30
0.0
 11
625.853873
 21
-252.892145
 31
0.0
  0
LINE
  5
3095
102
{ACAD_REACTORS
330
337C
102
}
100
AcDbEntity
  8
外形
  6
CENTER
 62
     1
100
AcDbLine
 10
752.19005
 20
-240.461089
 30
0.0
 11
752.19005
 21
-263.656823
 31
0.0
  0
ARC
  5
3096
102
{ACAD_REACTORS
330
337C
102
}
100
AcDbEntity
  8
外形
  6
CONTINUOUS
100
AcDbCircle
 10
752.19005
 20
-252.892145
 30
0.0
 40
10.0
100
AcDbArc
 50
295.841933
 51
334.158067
  0
LINE
  5
3097
100
AcDbEntity
  8
外形
  6
CONTINUOUS
100
AcDbLine
 10
805.783521
 20
-261.892145
 30
0.0
 11
763.19005
 21
-261.892145
 31
0.0
  0
LINE
  5
3098
102
{ACAD_REACTORS
330
337C
102
}
100
AcDbEntity
  8
外形
  6
CONTINUOUS
100
AcDbLine
 10
743.19005
 20
-248.533247
 30
0.0
 11
743.19005
 21
-257.251044
 31
0.0
  0
LINE
  5
3099
102
{ACAD_REACTORS
330
337C
102
}
100
AcDbEntity
  8
外形
  6
CONTINUOUS
100
AcDbLine
 10
761.19005
 20
-248.533247
 30
0.0
 11
761.19005
 21
-257.251044
 31
0.0
  0
LINE
  5
309A
100
AcDbEntity
  8
外形
  6
CONTINUOUS
100
AcDbLine
 10
805.783521
 20
-242.892145
 30
0.0
 11
763.19005
 21
-242.892145
 31
0.0
  0
LINE
  5
309B
100
AcDbEntity
  8
外形
  6
CONTINUOUS
100
AcDbLine
 10
805.783521
 20
-257.251044
 30
0.0
 11
805.783521
 21
-261.892145
 31
0.0
  0
LINE
  5
309D
100
AcDbEntity
  8
外形
  6
CONTINUOUS
100
AcDbLine
 10
807.783521
 20
-259.892145
 30
0.0
 11
805.783521
 21
-261.892145
 31
0.0
  0
LINE
  5
309E
100
AcDbEntity
  8
外形
  6
CONTINUOUS
100
AcDbLine
 10
805.783521
 20
-242.892145
 30
0.0
 11
805.783521
 21
-248.533247
 31
0.0
  0
LINE
  5
309F
100
AcDbEntity
  8
外形
  6
CONTINUOUS
100
AcDbLine
 10
805.783521
 20
-242.892145
 30
0.0
 11
807.783521
 21
-244.892145
 31
0.0
  0
LINE
  5
30A1
100
AcDbEntity
  8
外形
  6
CONTINUOUS
100
AcDbLine
 10
668.533521
 20
-248.533247
 30
0.0
 11
741.19005
 21
-248.533247
 31
0.0
  0
LINE
  5
30A2
100
AcDbEntity
  8
外形
  6
CONTINUOUS
100
AcDbLine
 10
668.533521
 20
-257.251044
 30
0.0
 11
741.19005
 21
-257.251044
 31
0.0
  0
ARC
  5
30A3
100
AcDbEntity
  8
外形
  6
CONTINUOUS
100
AcDbCircle
 10
796.783521
 20
-252.892145
 30
0.0
 40
10.0
100
AcDbArc
 50
334.158067
 51
25.841933
  0
LINE
  5
30A6
100
AcDbEntity
  8
外形
  6
CONTINUOUS
100
AcDbLine
 10
668.533521
 20
-262.642145
 30
0.0
 11
668.533521
 21
-256.642145
 31
0.0
  0
LINE
  5
30A8
100
AcDbEntity
  8
外形
  6
CONTINUOUS
100
AcDbLine
 10
668.533521
 20
-243.142145
 30
0.0
 11
637.512511
 21
-243.142145
 31
0.0
  0
LINE
  5
30A9
100
AcDbEntity
  8
外形
  6
CONTINUOUS
100
AcDbLine
 10
668.533521
 20
-249.142145
 30
0.0
 11
657.783521
 21
-249.142145
 31
0.0
  0
LINE
  5
30AA
100
AcDbEntity
  8
外形
  6
CONTINUOUS
100
AcDbLine
 10
652.783521
 20
-262.642145
 30
0.0
 11
647.783521
 21
-262.642145
 31
0.0
  0
LINE
  5
30AB
100
AcDbEntity
  8
外形
  6
CONTINUOUS
100
AcDbLine
 10
668.533521
 20
-256.642145
 30
0.0
 11
657.783521
 21
-256.642145
 31
0.0
  0
LINE
  5
30AC
100
AcDbEntity
  8
外形
  6
CONTINUOUS
100
AcDbLine
 10
668.533521
 20
-243.142145
 30
0.0
 11
668.783521
 21
-242.892145
 31
0.0
  0
LINE
  5
30AD
100
AcDbEntity
  8
外形
  6
CONTINUOUS
100
AcDbLine
 10
668.783521
 20
-242.892145
 30
0.0
 11
668.783521
 21
-248.533247
 31
0.0
  0
LINE
  5
30AE
100
AcDbEntity
  8
外形
  6
CONTINUOUS
100
AcDbLine
 10
668.533521
 20
-262.642145
 30
0.0
 11
668.783521
 21
-262.392145
 31
0.0
  0
LINE
  5
30AF
100
AcDbEntity
  8
外形
  6
CONTINUOUS
100
AcDbLine
 10
637.512511
 20
-243.142145
 30
0.0
 11
629.28527
 21
-247.892145
 31
0.0
  0
DIMENSION
  5
30F9
100
AcDbEntity
  8
寸法
  6
CONTINUOUS
100
AcDbDimension
  2
*D3
 10
807.783521
 20
-284.893159
 30
0.0
 11
717.783521
 21
-282.393159
 31
0.0
 70
    32
  3
STANDARD
100
AcDbAlignedDimension
 13
627.783521
 23
-265.892145
 33
0.0
 14
807.783521
 24
-259.892145
 34
0.0
100
AcDbRotatedDimension
1001
ACAD
1000
DSTYLE
1002
{
1070
    40
1040
1.0
1002
}
  0
LINE
  5
30FA
100
AcDbEntity
  8
外形
  6
CONTINUOUS
100
AcDbLine
 10
647.783521
 20
-262.642145
 30
0.0
 11
646.826869
 21
-264.299115
 31
0.0
  0
DIMENSION
  5
3120
100
AcDbEntity
  8
寸法
  6
CONTINUOUS
100
AcDbDimension
  2
*D5
 10
615.983159
 20
-265.892145
 30
0.0
 11
613.483159
 21
-259.392145
 31
0.0
 70
    32
  3
STANDARD
100
AcDbAlignedDimension
 13
625.853873
 23
-252.892145
 33
0.0
 14
627.783521
 24
-265.892145
 34
0.0
 50
90.0
100
AcDbRotatedDimension
1001
ACAD
1000
DSTYLE
1002
{
1070
    40
1040
1.0
1002
}
  0
DIMENSION
  5
312F
100
AcDbEntity
  8
寸法
  6
CONTINUOUS
100
AcDbDimension
  2
*D6
 10
627.786565
 20
-265.022421
 30
0.0
 11
604.462234
 21
-240.521143
 31
0.0
 70
    34
  3
STANDARD
100
AcDb2LineAngularDimension
 13
628.583521
 23
-265.892145
 33
0.0
 14
627.783521
 24
-265.892145
 34
0.0
 15
629.28527
 25
-247.892145
 35
0.0
 16
613.388507
 26
-237.374765
 36
0.0
1001
ACAD
1000
DSTYLE
1002
{
1070
    40
1040
1.0
1002
}
  0
ARC
  5
3132
100
AcDbEntity
  8
外形
  6
CONTINUOUS
100
AcDbCircle
 10
636.707668
 20
-255.447378
 30
0.0
 40
1.52314
100
AcDbArc
 50
5.0
 51
185.0
  0
CIRCLE
  5
315A
100
AcDbEntity
  8
外形
  6
CONTINUOUS
100
AcDbCircle
 10
632.964241
 20
-260.643412
 30
0.0
 40
2.4
  0
LINE
  5
315D
100
AcDbEntity
  8
外形
  6
CENTER
 62
     1
100
AcDbLine
 10
627.093591
 20
-319.634426
 30
0.0
 11
814.888228
 21
-319.634426
 31
0.0
  0
LINE
  5
315E
100
AcDbEntity
  8
外形
  6
CONTINUOUS
100
AcDbLine
 10
671.023239
 20
-328.634426
 30
0.0
 11
808.023239
 21
-328.634426
 31
0.0
  0
LINE
  5
315F
100
AcDbEntity
  8
外形
  6
CONTINUOUS
100
AcDbLine
 10
671.023239
 20
-310.634426
 30
0.0
 11
808.023239
 21
-310.634426
 31
0.0
  0
ARC
  5
3161
100
AcDbEntity
  8
外形
  6
CONTINUOUS
100
AcDbCircle
 10
799.023239
 20
-319.634426
 30
0.0
 40
10.0
100
AcDbArc
 50
334.158067
 51
25.841933
  0
LINE
  5
3165
100
AcDbEntity
  8
外形
  6
CONTINUOUS
100
AcDbLine
 10
670.773239
 20
-315.275527
 30
0.0
 11
808.023239
 21
-315.275527
 31
0.0
  0
LINE
  5
3166
100
AcDbEntity
  8
外形
  6
CONTINUOUS
100
AcDbLine
 10
670.773239
 20
-323.993325
 30
0.0
 11
808.023239
 21
-323.993325
 31
0.0
  0
LINE
  5
3167
100
AcDbEntity
  8
外形
  6
CONTINUOUS
100
AcDbLine
 10
670.773239
 20
-329.384426
 30
0.0
 11
650.023239
 21
-329.384426
 31
0.0
  0
LINE
  5
3168
100
AcDbEntity
  8
外形
  6
CONTINUOUS
100
AcDbLine
 10
670.773239
 20
-309.884426
 30
0.0
 11
660.023239
 21
-309.884426
 31
0.0
  0
LINE
  5
3169
100
AcDbEntity
  8
外形
  6
CONTINUOUS
100
AcDbLine
 10
671.023239
 20
-310.134426
 30
0.0
 11
671.023239
 21
-315.275527
 31
0.0
  0
LINE
  5
316B
100
AcDbEntity
  8
外形
  6
CONTINUOUS
100
AcDbLine
 10
670.773239
 20
-315.884426
 30
0.0
 11
653.678687
 21
-315.884426
 31
0.0
  0
LINE
  5
316C
100
AcDbEntity
  8
外形
  6
CONTINUOUS
100
AcDbLine
 10
670.773239
 20
-323.384426
 30
0.0
 11
650.023239
 21
-323.384426
 31
0.0
  0
LINE
  5
316D
100
AcDbEntity
  8
外形
  6
CONTINUOUS
100
AcDbLine
 10
808.023239
 20
-323.993325
 30
0.0
 11
808.023239
 21
-328.634426
 31
0.0
  0
LINE
  5
316E
100
AcDbEntity
  8
外形
  6
CONTINUOUS
100
AcDbLine
 10
810.023239
 20
-312.634426
 30
0.0
 11
810.023239
 21
-326.634426
 31
0.0
  0
LINE
  5
316F
100
AcDbEntity
  8
外形
  6
CONTINUOUS
100
AcDbLine
 10
810.023239
 20
-326.634426
 30
0.0
 11
808.023239
 21
-328.634426
 31
0.0
  0
LINE
  5
3171
100
AcDbEntity
  8
外形
  6
CONTINUOUS
100
AcDbLine
 10
808.023239
 20
-310.634426
 30
0.0
 11
808.023239
 21
-315.275527
 31
0.0
  0
LINE
  5
3172
100
AcDbEntity
  8
外形
  6
CONTINUOUS
100
AcDbLine
 10
808.023239
 20
-310.634426
 30
0.0
 11
810.023239
 21
-312.634426
 31
0.0
  0
LINE
  5
3175
100
AcDbEntity
  8
外形
  6
CONTINUOUS
100
AcDbLine
 10
670.773239
 20
-329.384426
 30
0.0
 11
671.023239
 21
-329.134426
 31
0.0
  0
LINE
  5
3176
100
AcDbEntity
  8
外形
  6
CONTINUOUS
100
AcDbLine
 10
670.773239
 20
-309.884426
 30
0.0
 11
670.773239
 21
-315.884426
 31
0.0
  0
LINE
  5
3177
100
AcDbEntity
  8
外形
  6
CONTINUOUS
100
AcDbLine
 10
670.773239
 20
-309.884426
 30
0.0
 11
671.023239
 21
-310.134426
 31
0.0
  0
ARC
  5
317A
100
AcDbEntity
  8
外形
  6
CONTINUOUS
100
AcDbCircle
 10
545.448307
 20
-252.892145
 30
0.0
 40
10.0
100
AcDbArc
 50
25.841933
 51
180.0
  0
ARC
  5
317B
100
AcDbEntity
  8
外形
  6
CONTINUOUS
100
AcDbCircle
 10
544.19729
 20
-254.151997
 30
0.0
 40
11.233954
100
AcDbArc
 50
218.849322
 51
260.472302
  0
LINE
  5
317C
100
AcDbEntity
  8
外形
  6
CONTINUOUS
100
AcDbLine
 10
535.448307
 20
-252.892145
 30
0.0
 11
535.448307
 21
-261.198769
 31
0.0
  0
LINE
  5
317D
100
AcDbEntity
  8
外形
  6
CONTINUOUS
100
AcDbLine
 10
631.142568
 20
-329.634426
 30
0.0
 11
649.066588
 21
-329.634426
 31
0.0
  0
LINE
  5
317E
100
AcDbEntity
  8
外形
  6
CONTINUOUS
100
AcDbLine
 10
650.023239
 20
-317.38289
 30
0.0
 11
650.023239
 21
-329.384426
 31
0.0
  0
LINE
  5
317F
100
AcDbEntity
  8
外形
  6
CONTINUOUS
100
AcDbLine
 10
649.066588
 20
-317.63289
 30
0.0
 11
649.066588
 21
-329.634426
 31
0.0
  0
LINE
  5
3180
100
AcDbEntity
  8
外形
  6
CONTINUOUS
100
AcDbLine
 10
649.066588
 20
-329.634426
 30
0.0
 11
650.023239
 21
-329.384426
 31
0.0
  0
LINE
  5
3181
100
AcDbEntity
  8
外形
  6
CONTINUOUS
100
AcDbLine
 10
630.023239
 20
-319.634426
 30
0.0
 11
649.066588
 21
-317.63289
 31
0.0
  0
LINE
  5
3182
100
AcDbEntity
  8
外形
  6
CONTINUOUS
100
AcDbLine
 10
630.35564
 20
-322.797006
 30
0.0
 11
637.69896
 21
-322.025192
 31
0.0
  0
LINE
  5
3184
100
AcDbEntity
  8
外形
  6
CONTINUOUS
100
AcDbLine
 10
630.023239
 20
-319.634426
 30
0.0
 11
630.35564
 21
-322.797006
 31
0.0
  0
LINE
  5
3185
100
AcDbEntity
  8
外形
  6
CONTINUOUS
100
AcDbLine
 10
637.366559
 20
-318.862612
 30
0.0
 11
637.69896
 21
-322.025192
 31
0.0
  0
LINE
  5
3195
100
AcDbEntity
  8
外形
  6
CONTINUOUS
100
AcDbLine
 10
631.142568
 20
-329.634426
 30
0.0
 11
630.42318
 21
-322.789907
 31
0.0
  0
DIMENSION
  5
31D2
100
AcDbEntity
  8
寸法
  6
CONTINUOUS
100
AcDbDimension
  2
*D11
 10
813.875518
 20
-300.310773
 30
0.0
 11
627.134427
 21
-313.172126
 31
0.0
 12
2.239719
 22
16.780525
 32
0.0
 70
    34
  3
STANDARD
100
AcDb2LineAngularDimension
 13
627.093591
 23
-319.634426
 33
0.0
 14
814.888228
 24
-319.634426
 34
0.0
 15
630.023239
 25
-319.634426
 35
0.0
 16
621.920165
 26
-320.201049
 36
0.0
1001
ACAD
1000
DSTYLE
1002
{
1070
    40
1040
1.0
1002
}
  0
LINE
  5
3248
100
AcDbEntity
  8
外形
  6
CONTINUOUS
100
AcDbLine
 10
554.448307
 20
-248.533247
 30
0.0
 11
554.448307
 21
-257.251044
 31
0.0
  0
LINE
  5
324B
100
AcDbEntity
  8
外形
  6
CONTINUOUS
100
AcDbLine
 10
550.093827
 20
-244.036688
 30
0.0
 11
545.448307
 21
-265.892145
 31
0.0
  0
DIMENSION
  5
325C
100
AcDbEntity
  8
寸法
  6
CONTINUOUS
100
AcDbDimension
  2
*D12
 10
545.448307
 20
-265.892145
 30
0.0
 11
533.394931
 21
-286.126167
 31
0.0
 70
    34
  3
STANDARD
100
AcDb2LineAngularDimension
 13
554.405523
 23
-223.751753
 33
0.0
 14
545.448307
 24
-265.892145
 34
0.0
 15
545.448307
 25
-222.810312
 35
0.0
 16
543.681603
 26
-291.157178
 36
0.0
1001
ACAD
1000
DSTYLE
1002
{
1070
    40
1040
1.0
1002
}
  0
LINE
  5
325D
100
AcDbEntity
  8
外形
  6
CONTINUOUS
100
AcDbLine
 10
544.410615
 20
-255.479144
 30
0.0
 11
542.337797
 21
-265.230986
 31
0.0
  0
LINE
  5
3260
100
AcDbEntity
  8
外形
  6
CONTINUOUS
100
AcDbLine
 10
547.521125
 20
-256.140303
 30
0.0
 11
544.410615
 21
-255.479144
 31
0.0
  0
ARC
  5
3261
100
AcDbEntity
  8
外形
  6
CONTINUOUS
100
AcDbCircle
 10
545.448307
 20
-252.892145
 30
0.0
 40
10.0
100
AcDbArc
 50
273.681238
 51
334.158067
  0
LINE
  5
3262
100
AcDbEntity
  8
外形
  6
CONTINUOUS
100
AcDbLine
 10
545.448307
 20
-265.892145
 30
0.0
 11
542.337797
 21
-265.230986
 31
0.0
  0
CIRCLE
  5
3273
100
AcDbEntity
  8
外形
  6
CENTER
 62
     1
100
AcDbCircle
 10
545.448307
 20
-252.892145
 30
0.0
 40
13.0
  0
LEADER
  5
32B3
100
AcDbEntity
  8
寸法
  6
CONTINUOUS
 62
     1
100
AcDbLeader
  3
STANDARD
 73
     0
 74
     0
 75
     1
 40
3.0
 41
29.6
 76
     3
 10
552.47548
 20
-241.955106
 30
0.0
 10
562.68456
 20
-226.702808
 30
0.0
 10
564.68456
 20
-226.702808
 30
0.0
 77
   256
340
32B4
1001
ACAD
1000
DSTYLE
1002
{
1070
    40
1040
1.0
1002
}
  0
MTEXT
  5
32B4
102
{ACAD_REACTORS
330
32B3
102
}
100
AcDbEntity
  8
寸法
  6
CONTINUOUS
 62
     3
100
AcDbMText
 10
565.68456
 20
-224.202808
 30
0.0
 40
3.0
 41
0.0
 71
     4
 72
     1
  1
%%C26最小加工半径
  0
LINE
  5
32B5
100
AcDbEntity
  8
外形
  6
CENTER
 62
     1
100
AcDbLine
 10
561.042873
 20
-252.892145
 30
0.0
 11
529.419328
 21
-252.892145
 31
0.0
  0
LINE
  5
32B6
100
AcDbEntity
  8
外形
  6
CENTER
 62
     1
100
AcDbLine
 10
545.448307
 20
-237.468935
 30
0.0
 11
545.448307
 21
-265.892145
 31
0.0
  0
LINE
  5
32E8
100
AcDbEntity
  8
外形
  6
CONTINUOUS
100
AcDbLine
 10
635.963119
 20
-244.036688
 30
0.0
 11
652.783521
 21
-244.036688
 31
0.0
  0
ARC
  5
32E9
100
AcDbEntity
  8
外形
  6
CONTINUOUS
100
AcDbCircle
 10
652.783521
 20
-249.036688
 30
0.0
 40
5.0
100
AcDbArc
 50
0.0
 51
90.0
  0
ARC
  5
32EA
100
AcDbEntity
  8
外形
  6
CONTINUOUS
100
AcDbCircle
 10
652.783521
 20
-257.642145
 30
0.0
 40
5.0
100
AcDbArc
 50
270.0
 51
0.0
  0
LINE
  5
32EB
100
AcDbEntity
  8
外形
  6
CONTINUOUS
100
AcDbLine
 10
652.783521
 20
-262.642145
 30
0.0
 11
668.533521
 21
-262.642145
 31
0.0
  0
SPLINE
  5
32ED
100
AcDbEntity
  8
外形
  6
CONTINUOUS
100
AcDbSpline
210
0.0
220
0.0
230
1.0
 70
     8
 71
     3
 72
     9
 73
     5
 74
     0
 42
0.0000001
 43
0.0000001
 40
0.0
 40
0.0
 40
0.0
 40
0.0
 40
6.726658837375084
 40
11.53981535505948
 40
11.53981535505948
 40
11.53981535505948
 40
11.53981535505948
 10
660.0232394501857
 20
-309.8844263600661
 30
0.0
 10
658.6350566315015
 20
-311.7173212840238
 30
0.0
 10
656.2535811034621
 20
-314.8617157745212
 30
0.0
 10
652.7142036824082
 20
-316.3824452720496
 30
0.0
 10
650.0232394501857
 20
-317.3828898230715
 30
0.0
  0
LINE
  5
32EE
100
AcDbEntity
  8
外形
  6
CONTINUOUS
100
AcDbLine
 10
649.066588
 20
-317.63289
 30
0.0
 11
650.023239
 21
-317.38289
 31
0.0
  0
SPLINE
  5
32EF
100
AcDbEntity
  8
外形
  6
CONTINUOUS
100
AcDbSpline
210
0.0
220
0.0
230
1.0
 70
     8
 71
     3
 72
    10
 73
     6
 74
     0
 42
0.0000001
 43
0.0000001
 40
0.0
 40
0.0
 40
0.0
 40
0.0
 40
13.04109937927079
 40
22.64502138500383
 40
30.05426755914426
 40
30.05426755914426
 40
30.05426755914426
 40
30.05426755914426
 10
660.0232394501857
 20
-309.8844263600661
 30
0.0
 10
655.975255455595
 20
-311.4940653599741
 30
0.0
 10
648.9461943728031
 20
-314.2890988548489
 30
0.0
 10
639.1292813001041
 20
-316.3991417886516
 30
0.0
 10
633.5589170539712
 20
-317.4616090010803
 30
0.0
 10
631.1322788490485
 20
-317.9169010030022
 30
0.0
  0
ARC
  5
32F0
102
{ACAD_REACTORS
330
337C
102
}
100
AcDbEntity
  8
外形
  6
CONTINUOUS
100
AcDbCircle
 10
752.19005
 20
-252.892145
 30
0.0
 40
10.0
100
AcDbArc
 50
205.841933
 51
244.158067
  0
ARC
  5
32F1
102
{ACAD_REACTORS
330
337C
102
}
100
AcDbEntity
  8
外形
  6
CONTINUOUS
100
AcDbCircle
 10
752.19005
 20
-252.892145
 30
0.0
 40
10.0
100
AcDbArc
 50
25.841933
 51
154.158067
  0
DIMENSION
  5
32FF
100
AcDbEntity
  8
寸法
  6
CONTINUOUS
100
AcDbDimension
  2
*D16
 10
761.19005
 20
-271.346712
 30
0.0
 11
752.19005
 21
-268.846712
 31
0.0
 70
    32
  3
STANDARD
100
AcDbAlignedDimension
 13
743.19005
 23
-257.251044
 33
0.0
 14
761.19005
 24
-257.251044
 34
0.0
100
AcDbRotatedDimension
1001
ACAD
1000
DSTYLE
1002
{
1070
    40
1040
1.0
1002
}
  0
DIMENSION
  5
330A
100
AcDbEntity
  8
寸法
  6
CONTINUOUS
100
AcDbDimension
  2
*D17
 10
757.442104
 20
-261.401901
 30
0.0
 11
742.211149
 21
-236.72361
 31
0.0
 70
   163
  3
STANDARD
100
AcDbDiametricDimension
 15
746.937997
 25
-244.38239
 35
0.0
 40
0.0
1001
ACAD
1000
DSTYLE
1002
{
1070
    40
1040
1.0
1002
}
  0
TEXT
  5
3320
100
AcDbEntity
  8
外形
  6
CONTINUOUS
 62
     2
100
AcDbText
 10
698.073895
 20
-354.808393
 30
0.0
 40
6.0
  1
BCLN320R
100
AcDbText
  0
LINE
  5
3329
100
AcDbEntity
  8
外形
  6
CONTINUOUS
100
AcDbLine
 10
763.19005
 20
-248.533247
 30
0.0
 11
805.783521
 21
-248.533247
 31
0.0
  0
LINE
  5
332A
100
AcDbEntity
  8
外形
  6
CONTINUOUS
100
AcDbLine
 10
741.19005
 20
-242.892145
 30
0.0
 11
668.783521
 21
-242.892145
 31
0.0
  0
LINE
  5
332B
100
AcDbEntity
  8
外形
  6
CONTINUOUS
100
AcDbLine
 10
763.19005
 20
-257.251044
 30
0.0
 11
805.783521
 21
-257.251044
 31
0.0
  0
LINE
  5
332C
102
{ACAD_REACTORS
330
337C
102
}
100
AcDbEntity
  8
外形
  6
CONTINUOUS
100
AcDbLine
 10
756.548949
 20
-261.892145
 30
0.0
 11
747.831151
 21
-261.892145
 31
0.0
  0
LINE
  5
332D
100
AcDbEntity
  8
外形
  6
CONTINUOUS
100
AcDbLine
 10
741.19005
 20
-261.892145
 30
0.0
 11
668.783521
 21
-261.892145
 31
0.0
  0
HATCH
  5
337C
100
AcDbEntity
  8
外形
  6
CONTINUOUS
100
AcDbHatch
 10
0.0
 20
0.0
 30
0.0
210
0.0
220
0.0
230
1.0
  2
ANSI31
 70
     0
 71
     1
 91
        4
 92
        7
 72
     1
 73
     1
 93
        4
 10
752.1900502234885
 20
-242.8921454555611
 42
0.2874919409686601
 10
743.1900502234884
 20
-248.5332465120205
 42
0.0
 10
743.1900502234884
 20
-252.8921454555611
 42
0.0
 10
752.1900502234885
 20
-252.8921454555611
 42
0.0
 97
        4
330
32F1
330
3098
330
3094
330
3095
 92
        7
 72
     1
 73
     1
 93
        4
 10
761.1900502234885
 20
-248.5332465120205
 42
0.2874919409686601
 10
752.1900502234885
 20
-242.8921454555611
 42
0.0
 10
752.1900502234885
 20
-252.8921454555611
 42
0.0
 10
761.1900502234885
 20
-252.892145455561
 42
0.0
 97
        4
330
32F1
330
3095
330
3094
330
3099
 92
        7
 72
     1
 73
     1
 93
        5
 10
761.1900502234882
 20
-257.2510443991021
 42
0.0
 10
761.1900502234885
 20
-252.8921454555612
 42
0.0
 10
752.1900502234885
 20
-252.8921454555612
 42
0.0
 10
752.1900502234885
 20
-261.8921454555611
 42
0.0
 10
756.5489491670291
 20
-261.8921454555611
 42
0.168760962250574
 97
        5
330
3099
330
3094
330
3095
330
332C
330
3096
 92
        7
 72
     1
 73
     1
 93
        5
 10
752.1900502234885
 20
-252.8921454555611
 42
0.0
 10
743.1900502234884
 20
-252.892145455561
 42
0.0
 10
743.1900502234884
 20
-257.2510443991017
 42
0.1687609622505848
 10
747.8311512799478
 20
-261.8921454555611
 42
0.0
 10
752.1900502234885
 20
-261.8921454555612
 42
0.0
 97
        5
330
3094
330
3098
330
32F0
330
332C
330
3095
 75
     0
 76
     1
 52
0.0
 41
15.0
 77
     0
 78
     1
 53
45.0
 43
40.538005
 44
146.919615
 45
-1.325825214724776
 46
1.325825214724776
 79
     0
 47
0.247362
 98
        4
 10
751.520529
 20
-246.111808
 10
758.206219
 20
-249.822244
 10
757.710982
 20
-257.490475
 10
749.539583
 20
-257.9852
  0
DIMENSION
  5
339C
100
AcDbEntity
  8
寸法
  6
CONTINUOUS
100
AcDbDimension
  2
*D18
 10
650.023239
 20
-336.129308
 30
0.0
 11
640.023239
 21
-333.629308
 31
0.0
 70
    32
  3
STANDARD
100
AcDbAlignedDimension
 13
630.023239
 23
-319.634426
 33
0.0
 14
650.023239
 24
-329.384426
 34
0.0
100
AcDbRotatedDimension
1001
ACAD
1000
DSTYLE
1002
{
1070
    40
1040
1.0
1002
}
  0
LINE
  5
33AD
100
AcDbEntity
  8
外形
  6
CONTINUOUS
100
AcDbLine
 10
668.533521
 20
-249.142145
 30
0.0
 11
668.533521
 21
-243.142145
 31
0.0
  0
LINE
  5
33AE
100
AcDbEntity
  8
外形
  6
CONTINUOUS
100
AcDbLine
 10
668.783521
 20
-257.251044
 30
0.0
 11
668.783521
 21
-262.392145
 31
0.0
  0
LINE
  5
33AF
100
AcDbEntity
  8
外形
  6
CONTINUOUS
100
AcDbLine
 10
670.773239
 20
-323.384426
 30
0.0
 11
670.773239
 21
-329.384426
 31
0.0
  0
LINE
  5
33B0
100
AcDbEntity
  8
外形
  6
CONTINUOUS
100
AcDbLine
 10
671.023239
 20
-323.993325
 30
0.0
 11
671.023239
 21
-329.134426
 31
0.0
  0
LINE
  5
3638
100
AcDbEntity
  8
外形
  6
CONTINUOUS
100
AcDbLine
 10
630.881692
 20
-318.304975
 30
0.0
 11
638.225012
 21
-317.533161
 31
0.0
  0
LINE
  5
363A
100
AcDbEntity
  8
外形
  6
CONTINUOUS
100
AcDbLine
 10
637.366559
 20
-318.862612
 30
0.0
 11
638.225012
 21
-317.533161
 31
0.0
  0
LINE
  5
3704
100
AcDbEntity
  8
外形
  6
CONTINUOUS
100
AcDbLine
 10
630.023239
 20
-319.634426
 30
0.0
 11
631.132279
 21
-317.916901
 31
0.0
  0
LINE
  5
3710
100
AcDbEntity
  8
外形
  6
CONTINUOUS
100
AcDbLine
 10
549.274325
 20
-247.892145
 30
0.0
 11
536.788052
 21
-247.892145
 31
0.0
  0
DIMENSION
  5
3728
100
AcDbEntity
  8
寸法
  6
CONTINUOUS
100
AcDbDimension
  2
*D19
 10
672.413499
 20
-261.892145
 30
0.0
 11
672.413499
 21
-271.892145
 31
0.0
 70
   160
  3
STANDARD
100
AcDbAlignedDimension
 13
627.783521
 23
-265.892145
 33
0.0
 14
668.783521
 24
-261.892145
 34
0.0
 50
90.0
100
AcDbRotatedDimension
1001
ACAD
1000
DSTYLE
1002
{
1070
    40
1040
1.0
1002
}
  0
ENDSEC
  0
SECTION
  2
OBJECTS
  0
DICTIONARY
  5
1E
100
AcDbDictionary
  3
ACAD_GROUP
350
1C
  3
ACAD_MLINESTYLE
350
1D
  3
ACDBVARIABLEDICTIONARY
350
147A
  3
DRAWINGVARIABLESDICT
350
C58
  0
DICTIONARY
  5
38
100
AcDbDictionary
280
     1
  3
ACAD_XREC_ROUNDTRIP
360
39
  0
DICTIONARY
  5
22
100
AcDbDictionary
280
     1
  3
ACAD_XREC_ROUNDTRIP
360
23
  0
DICTIONARY
  5
3
100
AcDbDictionary
280
     1
  3
ACAD_LAYOUTSELFREF
360
4
  0
DICTIONARY
  5
A
100
AcDbDictionary
280
     1
  3
ACAD_LAYOUTSELFREF
360
B
  0
DICTIONARY
  5
1C
102
{ACAD_REACTORS
330
1E
102
}
100
AcDbDictionary
  0
DICTIONARY
  5
1D
102
{ACAD_REACTORS
330
1E
102
}
100
AcDbDictionary
  3
STANDARD
350
20
  0
DICTIONARY
  5
147A
102
{ACAD_REACTORS
330
1E
102
}
100
AcDbDictionary
  3
SORTENTS
350
147B
  0
DICTIONARY
  5
C58
102
{ACAD_REACTORS
330
1E
102
}
100
AcDbDictionary
1001
DRAWINGVARIABLESXDATA
1000
POLARMODE
1000
0
  0
XRECORD
  5
39
102
{ACAD_REACTORS
330
38
102
}
100
AcDbXrecord
102
PLOTBIT
280
     0
  0
XRECORD
  5
23
102
{ACAD_REACTORS
330
22
102
}
100
AcDbXrecord
102
ACADR14ROUNDTRIP
1000
DSTYLE
1002
{
1070
   341
340
0
1070
   343
340
0
1070
   344
340
0
1002
}
  0
XRECORD
  5
4
102
{ACAD_REACTORS
330
3
102
}
100
AcDbXrecord
340
2
  0
XRECORD
  5
B
102
{ACAD_REACTORS
330
A
102
}
100
AcDbXrecord
340
9
  0
MLINESTYLE
  5
20
102
{ACAD_REACTORS
330
1D
102
}
100
AcDbMlineStyle
  2
STANDARD
 70
     0
  3

 62
     0
 51
90.0
 52
90.0
 71
     2
 49
0.5
 62
   256
  6
BYLAYER
 49
-0.5
 62
   256
  6
BYLAYER
  0
DICTIONARYVAR
  5
147B
102
{ACAD_REACTORS
330
147A
102
}
100
DictionaryVariables
280
     0
  1
96
  0
ENDSEC
  0
EOF
