  0
SECTION
  2
HEADER
  9
$ACADVER
  1
AC1014
  9
$ACADMAINTVER
 70
     0
  9
$DWGCODEPAGE
  3
ANSI_932
  9
$INSBASE
 10
-587.250952
 20
747.890188
 30
0.0
  9
$EXTMIN
 10
140.384266
 20
-336.909166
 30
0.0
  9
$EXTMAX
 10
477.355159
 20
-175.068933
 30
0.0
  9
$LIMMIN
 10
93.521054
 20
-389.874765
  9
$LIMMAX
 10
503.341678
 20
-129.34933
  9
$ORTHOMODE
 70
     1
  9
$REGENMODE
 70
     1
  9
$FILLMODE
 70
     1
  9
$QTEXTMODE
 70
     0
  9
$MIRRTEXT
 70
     1
  9
$DRAGMODE
 70
     2
  9
$LTSCALE
 40
5.0
  9
$OSMODE
 70
    47
  9
$ATTMODE
 70
     1
  9
$TEXTSIZE
 40
5.0
  9
$TRACEWID
 40
0.05
  9
$TEXTSTYLE
  7
STANDARD
  9
$CLAYER
  8
外形
  9
$CELTYPE
  6
CONTINUOUS
  9
$CECOLOR
 62
   256
  9
$CELTSCALE
 40
1.0
  9
$DELOBJ
 70
     1
  9
$DISPSILH
 70
     0
  9
$DIMSCALE
 40
1.0
  9
$DIMASZ
 40
2.0
  9
$DIMEXO
 40
1.0
  9
$DIMDLI
 40
8.0
  9
$DIMRND
 40
0.0
  9
$DIMDLE
 40
0.0
  9
$DIMEXE
 40
2.0
  9
$DIMTP
 40
0.0
  9
$DIMTM
 40
0.0
  9
$DIMTXT
 40
2.0
  9
$DIMCEN
 40
-1.0
  9
$DIMTSZ
 40
0.0
  9
$DIMTOL
 70
     0
  9
$DIMLIM
 70
     0
  9
$DIMTIH
 70
     0
  9
$DIMTOH
 70
     0
  9
$DIMSE1
 70
     0
  9
$DIMSE2
 70
     0
  9
$DIMTAD
 70
     1
  9
$DIMZIN
 70
     8
  9
$DIMBLK
  1

  9
$DIMASO
 70
     1
  9
$DIMSHO
 70
     1
  9
$DIMPOST
  1

  9
$DIMAPOST
  1

  9
$DIMALT
 70
     0
  9
$DIMALTD
 70
     2
  9
$DIMALTF
 40
25.4
  9
$DIMLFAC
 40
1.0
  9
$DIMTOFL
 70
     1
  9
$DIMTVP
 40
0.0
  9
$DIMTIX
 70
     0
  9
$DIMSOXD
 70
     0
  9
$DIMSAH
 70
     1
  9
$DIMBLK1
  1
_DOTSMALL
  9
$DIMBLK2
  1
_DOTSMALL
  9
$DIMSTYLE
  2
参考寸法
  9
$DIMCLRD
 70
     2
  9
$DIMCLRE
 70
     2
  9
$DIMCLRT
 70
     2
  9
$DIMTFAC
 40
1.0
  9
$DIMGAP
 40
1.0
  9
$DIMJUST
 70
     0
  9
$DIMSD1
 70
     0
  9
$DIMSD2
 70
     0
  9
$DIMTOLJ
 70
     1
  9
$DIMTZIN
 70
     8
  9
$DIMALTZ
 70
     0
  9
$DIMALTTZ
 70
     0
  9
$DIMFIT
 70
     3
  9
$DIMUPT
 70
     0
  9
$DIMUNIT
 70
     2
  9
$DIMDEC
 70
     3
  9
$DIMTDEC
 70
     2
  9
$DIMALTU
 70
     2
  9
$DIMALTTD
 70
     2
  9
$DIMTXSTY
  7
STANDARD
  9
$DIMAUNIT
 70
     0
  9
$LUNITS
 70
     2
  9
$LUPREC
 70
     3
  9
$SKETCHINC
 40
0.1
  9
$FILLETRAD
 40
1.2
  9
$AUNITS
 70
     0
  9
$AUPREC
 70
     3
  9
$MENU
  1
acad
  9
$ELEVATION
 40
0.0
  9
$PELEVATION
 40
0.0
  9
$THICKNESS
 40
0.0
  9
$LIMCHECK
 70
     0
  9
$BLIPMODE
 70
     0
  9
$CHAMFERA
 40
0.0
  9
$CHAMFERB
 40
0.0
  9
$CHAMFERC
 40
0.0
  9
$CHAMFERD
 40
0.0
  9
$SKPOLY
 70
     0
  9
$TDCREATE
 40
2450751.535399305
  9
$TDUPDATE
 40
2452030.701516203
  9
$TDINDWG
 40
1.9772628472
  9
$TDUSRTIMER
 40
1.9772628472
  9
$USRTIMER
 70
     1
  9
$ANGBASE
 50
0.0
  9
$ANGDIR
 70
     0
  9
$PDMODE
 70
    32
  9
$PDSIZE
 40
0.0
  9
$PLINEWID
 40
0.0
  9
$COORDS
 70
     2
  9
$SPLFRAME
 70
     0
  9
$SPLINETYPE
 70
     5
  9
$SPLINESEGS
 70
     8
  9
$ATTDIA
 70
     0
  9
$ATTREQ
 70
     1
  9
$HANDLING
 70
     1
  9
$HANDSEED
  5
305D
  9
$SURFTAB1
 70
     6
  9
$SURFTAB2
 70
     6
  9
$SURFTYPE
 70
     6
  9
$SURFU
 70
     6
  9
$SURFV
 70
     6
  9
$UCSNAME
  2

  9
$UCSORG
 10
40.53800450572526
 20
146.9196145921314
 30
0.0
  9
$UCSXDIR
 10
1.0
 20
0.0
 30
0.0
  9
$UCSYDIR
 10
0.0
 20
1.0
 30
0.0
  9
$PUCSNAME
  2

  9
$PUCSORG
 10
0.0
 20
0.0
 30
0.0
  9
$PUCSXDIR
 10
1.0
 20
0.0
 30
0.0
  9
$PUCSYDIR
 10
0.0
 20
1.0
 30
0.0
  9
$USERI1
 70
     0
  9
$USERI2
 70
     0
  9
$USERI3
 70
     0
  9
$USERI4
 70
     0
  9
$USERI5
 70
     0
  9
$USERR1
 40
0.0
  9
$USERR2
 40
0.0
  9
$USERR3
 40
0.0
  9
$USERR4
 40
0.0
  9
$USERR5
 40
0.0
  9
$WORLDVIEW
 70
     1
  9
$SHADEDGE
 70
     3
  9
$SHADEDIF
 70
    70
  9
$TILEMODE
 70
     1
  9
$MAXACTVP
 70
    16
  9
$PINSBASE
 10
0.0
 20
0.0
 30
0.0
  9
$PLIMCHECK
 70
     0
  9
$PEXTMIN
 10
1.000000E+20
 20
1.000000E+20
 30
1.000000E+20
  9
$PEXTMAX
 10
-1.000000E+20
 20
-1.000000E+20
 30
-1.000000E+20
  9
$PLIMMIN
 10
0.0
 20
0.0
  9
$PLIMMAX
 10
12.0
 20
9.0
  9
$UNITMODE
 70
     0
  9
$VISRETAIN
 70
     0
  9
$PLINEGEN
 70
     0
  9
$PSLTSCALE
 70
     1
  9
$TREEDEPTH
 70
  3020
  9
$PICKSTYLE
 70
     1
  9
$CMLSTYLE
  2
STANDARD
  9
$CMLJUST
 70
     0
  9
$CMLSCALE
 40
1.0
  9
$PROXYGRAPHICS
 70
     1
  9
$MEASUREMENT
 70
     0
  0
ENDSEC
  0
SECTION
  2
CLASSES
  0
CLASS
  1
LWPOLYLINE
  2
AcDbPolyline
  3
"AutoCAD"
 90
        0
280
     0
281
     1
  0
CLASS
  1
ACDBDICTIONARYWDFLT
  2
AcDbDictionaryWithDefault
  3
AutoCAD 2000
 90
        0
280
     1
281
     0
  0
CLASS
  1
ACDBPLACEHOLDER
  2
AcDbPlaceHolder
  3
AutoCAD 2000
 90
        0
280
     1
281
     0
  0
CLASS
  1
LAYOUT
  2
AcDbLayout
  3
AutoCAD 2000
 90
        0
280
     1
281
     0
  0
CLASS
  1
LONG_TRANSACTION
  2
AcDbLongTransaction
  3
AutoCAD 2000
 90
        0
280
     1
281
     0
  0
CLASS
  1
LWPOLYLINE
  2
AcDbPolyline
  3
"AutoCAD"
 90
        0
280
     0
281
     1
  0
CLASS
  1
HATCH
  2
AcDbHatch
  3
"ACAD_SEDONA"
 90
        0
280
     0
281
     1
  0
CLASS
  1
XRECORD
  2
AcDbXrecord
  3
"<Built In>"
 90
        0
280
     0
281
     0
  0
CLASS
  1
DICTIONARYVAR
  2
AcDbDictionaryVar
  3
"AutoCAD"
 90
        0
280
     0
281
     0
  0
ENDSEC
  0
SECTION
  2
TABLES
  0
TABLE
  2
VPORT
  5
16
100
AcDbSymbolTable
 70
     1
  0
VPORT
  5
3058
100
AcDbSymbolTableRecord
100
AcDbViewportTableRecord
  2
*ACTIVE
 70
     0
 10
0.0
 20
0.0
 11
1.0
 21
1.0
 12
312.213288
 22
-263.922331
 13
0.0
 23
0.0
 14
1.0
 24
1.0
 15
10.0
 25
10.0
 16
0.0
 26
0.0
 36
1.0
 17
0.0
 27
0.0
 37
0.0
 40
238.270581
 41
1.710425
 42
50.0
 43
0.0
 44
0.0
 50
0.0
 51
0.0
 71
     0
 72
   100
 73
     1
 74
     1
 75
     0
 76
     0
 77
     0
 78
     2
  0
ENDTAB
  0
TABLE
  2
LTYPE
  5
11
100
AcDbSymbolTable
 70
     2
  0
LTYPE
  5
12
100
AcDbSymbolTableRecord
100
AcDbLinetypeTableRecord
  2
BYBLOCK
 70
     0
  3

 72
    65
 73
     0
 40
0.0
  0
LTYPE
  5
13
100
AcDbSymbolTableRecord
100
AcDbLinetypeTableRecord
  2
BYLAYER
 70
     0
  3

 72
    65
 73
     0
 40
0.0
  0
LTYPE
  5
7
100
AcDbSymbolTableRecord
100
AcDbLinetypeTableRecord
  2
CONTINUOUS
 70
     0
  3
Solid line
 72
    65
 73
     0
 40
0.0
  0
LTYPE
  5
AA
100
AcDbSymbolTableRecord
100
AcDbLinetypeTableRecord
  2
CENTER
 70
     0
  3
Center ____ _ ____ _ ____ _ ____ _ ____ _ ____
 72
    65
 73
     4
 40
2.0
 49
1.25
 74
     0
 49
-0.25
 74
     0
 49
0.25
 74
     0
 49
-0.25
 74
     0
  0
ENDTAB
  0
TABLE
  2
LAYER
  5
E
100
AcDbSymbolTable
 70
     5
  0
LAYER
  5
6
100
AcDbSymbolTableRecord
100
AcDbLayerTableRecord
  2
0
 70
     0
 62
     7
  6
CONTINUOUS
  0
LAYER
  5
2C
100
AcDbSymbolTableRecord
100
AcDbLayerTableRecord
  2
外形
 70
     0
 62
     4
  6
CONTINUOUS
  0
LAYER
  5
37
102
{ACAD_XDICTIONARY
360
38
102
}
100
AcDbSymbolTableRecord
100
AcDbLayerTableRecord
  2
DEFPOINTS
 70
     0
 62
     7
  6
CONTINUOUS
  0
LAYER
  5
1F
100
AcDbSymbolTableRecord
100
AcDbLayerTableRecord
  2
寸法
 70
     0
 62
     1
  6
CONTINUOUS
  0
LAYER
  5
673
100
AcDbSymbolTableRecord
100
AcDbLayerTableRecord
  2
参考
 70
     0
 62
     2
  6
CONTINUOUS
  0
ENDTAB
  0
TABLE
  2
STYLE
  5
F
100
AcDbSymbolTable
 70
     1
  0
STYLE
  5
10
100
AcDbSymbolTableRecord
100
AcDbTextStyleTableRecord
  2
STANDARD
 70
     0
 40
0.0
 41
1.0
 50
0.0
 71
     0
 42
5.0
  3
MONOTXT
  4
BIGFONT
  0
ENDTAB
  0
TABLE
  2
VIEW
  5
14
100
AcDbSymbolTable
 70
     0
  0
ENDTAB
  0
TABLE
  2
UCS
  5
15
100
AcDbSymbolTable
 70
     0
  0
ENDTAB
  0
TABLE
  2
APPID
  5
18
100
AcDbSymbolTable
 70
     2
  0
APPID
  5
19
100
AcDbSymbolTableRecord
100
AcDbRegAppTableRecord
  2
ACAD
 70
     0
  0
APPID
  5
C59
100
AcDbSymbolTableRecord
100
AcDbRegAppTableRecord
  2
DRAWINGVARIABLESXDATA
 70
     0
  0
ENDTAB
  0
TABLE
  2
DIMSTYLE
  5
1A
100
AcDbSymbolTable
 70
     2
  0
DIMSTYLE
105
21
102
{ACAD_XDICTIONARY
360
22
102
}
102
{ACAD_REACTORS
330
1E62
330
1EAE
330
202D
330
203A
330
2047
330
2054
330
2067
330
2074
102
}
100
AcDbSymbolTableRecord
100
AcDbDimStyleTableRecord
  2
STANDARD
 70
     0
  3

  4

  5

  6
_OPEN30
  7
_OPEN30
 40
0.0
 41
2.0
 42
1.0
 43
8.0
 44
2.0
 45
0.0
 46
0.0
 47
0.0
 48
0.0
140
3.0
141
-1.0
142
0.0
143
25.4
144
1.0
145
0.0
146
1.0
147
1.0
 71
     0
 72
     0
 73
     0
 74
     0
 75
     0
 76
     0
 77
     1
 78
     8
170
     0
171
     2
172
     1
173
     1
174
     0
175
     0
176
     1
177
     1
178
     3
270
     2
271
     2
272
     2
273
     2
274
     2
340
10
275
     0
280
     0
281
     0
282
     0
283
     1
284
     8
285
     0
286
     0
287
     3
288
     0
  0
DIMSTYLE
105
674
100
AcDbSymbolTableRecord
100
AcDbDimStyleTableRecord
  2
参考寸法
 70
     0
  3

  4

  5

  6
_DOTSMALL
  7
_DOTSMALL
 40
1.0
 41
2.0
 42
1.0
 43
8.0
 44
2.0
 45
0.0
 46
0.0
 47
0.0
 48
0.0
140
2.0
141
-1.0
142
0.0
143
25.4
144
1.0
145
0.0
146
1.0
147
1.0
 71
     0
 72
     0
 73
     0
 74
     0
 75
     0
 76
     0
 77
     1
 78
     8
170
     0
171
     2
172
     1
173
     1
174
     0
175
     0
176
     2
177
     2
178
     2
270
     2
271
     3
272
     2
273
     2
274
     2
340
10
275
     0
280
     0
281
     0
282
     0
283
     1
284
     8
285
     0
286
     0
287
     3
288
     0
  0
ENDTAB
  0
TABLE
  2
BLOCK_RECORD
  5
1
100
AcDbSymbolTable
 70
    10
  0
BLOCK_RECORD
  5
2
102
{ACAD_XDICTIONARY
360
3
102
}
100
AcDbSymbolTableRecord
100
AcDbBlockTableRecord
  2
*MODEL_SPACE
  0
BLOCK_RECORD
  5
9
102
{ACAD_XDICTIONARY
360
A
102
}
100
AcDbSymbolTableRecord
100
AcDbBlockTableRecord
  2
*PAPER_SPACE
  0
BLOCK_RECORD
  5
24
100
AcDbSymbolTableRecord
100
AcDbBlockTableRecord
  2
_DOTSMALL
  0
BLOCK_RECORD
  5
470
100
AcDbSymbolTableRecord
100
AcDbBlockTableRecord
  2
_OPEN30
  0
BLOCK_RECORD
  5
1E54
100
AcDbSymbolTableRecord
100
AcDbBlockTableRecord
  2
*D2
  0
BLOCK_RECORD
  5
1E9C
100
AcDbSymbolTableRecord
100
AcDbBlockTableRecord
  2
*D3
  0
BLOCK_RECORD
  5
2022
100
AcDbSymbolTableRecord
100
AcDbBlockTableRecord
  2
*D4
  0
BLOCK_RECORD
  5
202E
100
AcDbSymbolTableRecord
100
AcDbBlockTableRecord
  2
*D5
  0
BLOCK_RECORD
  5
203B
100
AcDbSymbolTableRecord
100
AcDbBlockTableRecord
  2
*D6
  0
BLOCK_RECORD
  5
2048
100
AcDbSymbolTableRecord
100
AcDbBlockTableRecord
  2
*D7
  0
BLOCK_RECORD
  5
2055
100
AcDbSymbolTableRecord
100
AcDbBlockTableRecord
  2
*D8
  0
BLOCK_RECORD
  5
2068
100
AcDbSymbolTableRecord
100
AcDbBlockTableRecord
  2
*D9
  0
ENDTAB
  0
ENDSEC
  0
SECTION
  2
BLOCKS
  0
BLOCK
  5
5
100
AcDbEntity
  8
0
100
AcDbBlockBegin
  2
*MODEL_SPACE
 70
     0
 10
0.0
 20
0.0
 30
0.0
  3
*MODEL_SPACE
  1

  0
ENDBLK
  5
8
100
AcDbEntity
  8
0
100
AcDbBlockEnd
  0
BLOCK
  5
C
100
AcDbEntity
 67
     1
  8
0
100
AcDbBlockBegin
  2
*PAPER_SPACE
 70
     0
 10
0.0
 20
0.0
 30
0.0
  3
*PAPER_SPACE
  1

  0
ENDBLK
  5
D
100
AcDbEntity
 67
     1
  8
0
100
AcDbBlockEnd
  0
BLOCK
  5
29
100
AcDbEntity
  8
0
100
AcDbBlockBegin
  2
_DOTSMALL
 70
     0
 10
0.0
 20
0.0
 30
0.0
  3
_DOTSMALL
  1

  0
POLYLINE
  5
25
100
AcDbEntity
  8
0
  6
BYBLOCK
 62
     0
100
AcDb2dPolyline
 66
     1
 10
0.0
 20
0.0
 30
0.0
 70
     1
 40
0.5
 41
0.5
  0
VERTEX
  5
26
100
AcDbEntity
  8
0
  6
BYBLOCK
 62
     0
100
AcDbVertex
100
AcDb2dVertex
 10
-0.0625
 20
0.0
 30
0.0
 42
1.0
  0
VERTEX
  5
27
100
AcDbEntity
  8
0
  6
BYBLOCK
 62
     0
100
AcDbVertex
100
AcDb2dVertex
 10
0.0625
 20
0.0
 30
0.0
 42
1.0
  0
SEQEND
  5
28
100
AcDbEntity
  8
0
  6
BYBLOCK
 62
     0
  0
ENDBLK
  5
2A
100
AcDbEntity
  8
0
100
AcDbBlockEnd
  0
BLOCK
  5
471
100
AcDbEntity
  8
0
100
AcDbBlockBegin
  2
_OPEN30
 70
     0
 10
0.0
 20
0.0
 30
0.0
  3
_OPEN30
  1

  0
LINE
  5
472
100
AcDbEntity
  8
0
  6
BYBLOCK
 62
     0
100
AcDbLine
 10
-1.0
 20
0.267949
 30
0.0
 11
0.0
 21
0.0
 31
0.0
  0
LINE
  5
473
100
AcDbEntity
  8
0
  6
BYBLOCK
 62
     0
100
AcDbLine
 10
0.0
 20
0.0
 30
0.0
 11
-1.0
 21
-0.267949
 31
0.0
  0
LINE
  5
474
100
AcDbEntity
  8
0
  6
BYBLOCK
 62
     0
100
AcDbLine
 10
0.0
 20
0.0
 30
0.0
 11
-1.0
 21
0.0
 31
0.0
  0
ENDBLK
  5
475
100
AcDbEntity
  8
0
100
AcDbBlockEnd
  0
BLOCK
  5
1E55
100
AcDbEntity
  8
0
100
AcDbBlockBegin
  2
*D2
 70
     1
 10
0.0
 20
0.0
 30
0.0
  3
*D2
  1

  0
LINE
  5
1E56
100
AcDbEntity
  8
0
  6
BYBLOCK
 62
     1
100
AcDbLine
 10
217.712149
 20
-220.094312
 30
0.0
 11
212.814664
 21
-201.816649
 31
0.0
  0
LINE
  5
1E57
100
AcDbEntity
  8
0
  6
BYBLOCK
 62
     1
100
AcDbLine
 10
220.002738
 20
-232.37496
 30
0.0
 11
189.366447
 21
-232.37496
 31
0.0
  0
ARC
  5
1E58
100
AcDbEntity
  8
0
  6
BYBLOCK
 62
     1
100
AcDbCircle
 10
221.002738
 20
-232.37496
 30
0.0
 40
29.636291
100
AcDbArc
 50
108.86733
 51
176.13267
  0
INSERT
  5
1E59
100
AcDbEntity
  8
0
  6
BYBLOCK
 62
     1
100
AcDbBlockReference
  2
_OPEN30
 10
213.332302
 20
-203.748501
 30
0.0
 41
2.0
 42
2.0
 43
2.0
 50
16.933665
  0
INSERT
  5
1E5A
100
AcDbEntity
  8
0
  6
BYBLOCK
 62
     1
100
AcDbBlockReference
  2
_OPEN30
 10
191.366447
 20
-232.37496
 30
0.0
 41
2.0
 42
2.0
 43
2.0
 50
268.066335
  0
MTEXT
  5
1E5B
100
AcDbEntity
  8
0
  6
BYBLOCK
 62
     3
100
AcDbMText
 10
195.507305
 20
-212.811625
 30
0.0
 40
3.0
 41
0.0
 71
     5
 72
     1
  1
\A1;75°
 11
0.608761
 21
0.793353
 31
0.0
  0
POINT
  5
1E5C
100
AcDbEntity
  8
DEFPOINTS
  6
BYBLOCK
 62
     0
100
AcDbPoint
 10
201.952898
 20
-209.672244
 30
0.0
  0
POINT
  5
1E5D
100
AcDbEntity
  8
DEFPOINTS
  6
BYBLOCK
 62
     0
100
AcDbPoint
 10
221.6166
 20
-232.37496
 30
0.0
  0
POINT
  5
1E5E
100
AcDbEntity
  8
DEFPOINTS
  6
BYBLOCK
 62
     0
100
AcDbPoint
 10
217.970968
 20
-221.060238
 30
0.0
  0
POINT
  5
1E5F
100
AcDbEntity
  8
DEFPOINTS
  6
BYBLOCK
 62
     0
100
AcDbPoint
 10
220.843859
 20
-231.782015
 30
0.0
  0
POINT
  5
1E60
100
AcDbEntity
  8
DEFPOINTS
  6
BYBLOCK
 62
     0
100
AcDbPoint
 10
221.002738
 20
-232.37496
 30
0.0
  0
ENDBLK
  5
1E61
100
AcDbEntity
  8
0
100
AcDbBlockEnd
  0
BLOCK
  5
1E9D
100
AcDbEntity
  8
0
100
AcDbBlockBegin
  2
*D3
 70
     1
 10
0.0
 20
0.0
 30
0.0
  3
*D3
  1

  0
LINE
  5
1E9E
100
AcDbEntity
  8
0
  6
BYBLOCK
 62
     1
100
AcDbLine
 10
212.663145
 20
-321.485264
 30
0.0
 11
201.874612
 21
-321.485264
 31
0.0
  0
LINE
  5
1E9F
100
AcDbEntity
  8
0
  6
BYBLOCK
 62
     1
100
AcDbLine
 10
220.008216
 20
-321.589793
 30
0.0
 11
201.979397
 21
-323.484698
 31
0.0
  0
ARC
  5
1EA0
100
AcDbEntity
  8
0
  6
BYBLOCK
 62
     1
100
AcDbCircle
 10
221.002738
 20
-321.485264
 30
0.0
 40
17.128127
100
AcDbArc
 50
166.588893
 51
180.0
  0
LINE
  5
1EA1
100
AcDbEntity
  8
0
  6
BYBLOCK
 62
     1
100
AcDbLine
 10
204.34168
 20
-317.512627
 30
0.0
 11
206.336333
 21
-309.147141
 31
0.0
  0
ARC
  5
1EA2
100
AcDbEntity
  8
0
  6
BYBLOCK
 62
     1
100
AcDbCircle
 10
221.002738
 20
-321.485264
 30
0.0
 40
17.128127
100
AcDbArc
 50
166.611874
 51
173.305937
  0
ARC
  5
1EA3
100
AcDbEntity
  8
0
  6
BYBLOCK
 62
     1
100
AcDbCircle
 10
221.002738
 20
-321.485264
 30
0.0
 40
17.128127
100
AcDbArc
 50
192.694063
 51
199.388126
  0
ARC
  5
1EA4
100
AcDbEntity
  8
0
  6
BYBLOCK
 62
     1
100
AcDbCircle
 10
221.002738
 20
-321.485264
 30
0.0
 40
17.128127
100
AcDbArc
 50
180.0
 51
186.0
  0
INSERT
  5
1EA5
100
AcDbEntity
  8
0
  6
BYBLOCK
 62
     1
100
AcDbBlockReference
  2
_OPEN30
 10
203.874612
 20
-321.485264
 30
0.0
 41
2.0
 42
2.0
 43
2.0
 50
266.652969
  0
INSERT
  5
1EA6
100
AcDbEntity
  8
0
  6
BYBLOCK
 62
     1
100
AcDbBlockReference
  2
_OPEN30
 10
203.968441
 20
-323.275641
 30
0.0
 41
2.0
 42
2.0
 43
2.0
 50
99.347031
  0
MTEXT
  5
1EA7
100
AcDbEntity
  8
0
  6
BYBLOCK
 62
     3
100
AcDbMText
 10
207.770834
 20
-313.909725
 30
0.0
 40
3.0
 41
0.0
 71
     5
 72
     1
  1
\A1;6°
 11
-0.231936
 21
-0.972731
 31
0.0
  0
POINT
  5
1EA8
100
AcDbEntity
  8
DEFPOINTS
  6
BYBLOCK
 62
     0
100
AcDbPoint
 10
203.916335
 20
-322.680062
 30
0.0
  0
POINT
  5
1EA9
100
AcDbEntity
  8
DEFPOINTS
  6
BYBLOCK
 62
     0
100
AcDbPoint
 10
477.355159
 20
-321.485264
 30
0.0
  0
POINT
  5
1EAA
100
AcDbEntity
  8
DEFPOINTS
  6
BYBLOCK
 62
     0
100
AcDbPoint
 10
221.002738
 20
-321.485264
 30
0.0
  0
POINT
  5
1EAB
100
AcDbEntity
  8
DEFPOINTS
  6
BYBLOCK
 62
     0
100
AcDbPoint
 10
241.002738
 20
-319.38318
 30
0.0
  0
POINT
  5
1EAC
100
AcDbEntity
  8
DEFPOINTS
  6
BYBLOCK
 62
     0
100
AcDbPoint
 10
213.663145
 20
-321.485264
 30
0.0
  0
ENDBLK
  5
1EAD
100
AcDbEntity
  8
0
100
AcDbBlockEnd
  0
BLOCK
  5
2023
100
AcDbEntity
  8
0
100
AcDbBlockBegin
  2
*D4
 70
     1
 10
0.0
 20
0.0
 30
0.0
  3
*D4
  1

  0
LINE
  5
2024
100
AcDbEntity
  8
0
  6
BYBLOCK
 62
     1
100
AcDbLine
 10
311.326484
 20
-188.168442
 30
0.0
 11
320.193845
 21
-199.109929
 31
0.0
  0
LINE
  5
2025
100
AcDbEntity
  8
0
  6
BYBLOCK
 62
     1
100
AcDbLine
 10
338.452988
 20
-221.639991
 30
0.0
 11
339.71224
 21
-223.193788
 31
0.0
  0
MTEXT
  5
2026
100
AcDbEntity
  8
0
  6
BYBLOCK
 62
     3
100
AcDbMText
 10
316.416859
 20
-190.478871
 30
0.0
 40
3.0
 41
0.0
 71
     5
 72
     1
  1
\A1;\U+220525
 11
0.629626
 21
-0.776899
 31
0.0
  0
LINE
  5
2027
100
AcDbEntity
  8
0
  6
BYBLOCK
 62
     1
100
AcDbLine
 10
337.193737
 20
-220.086193
 30
0.0
 11
321.453096
 21
-200.663726
 31
0.0
  0
INSERT
  5
2028
100
AcDbEntity
  8
0
  6
BYBLOCK
 62
     1
100
AcDbBlockReference
  2
_OPEN30
 10
337.193737
 20
-220.086193
 30
0.0
 41
2.0
 42
2.0
 43
2.0
 50
129.022508
  0
INSERT
  5
2029
100
AcDbEntity
  8
0
  6
BYBLOCK
 62
     1
100
AcDbBlockReference
  2
_OPEN30
 10
321.453096
 20
-200.663726
 30
0.0
 41
2.0
 42
2.0
 43
2.0
 50
309.022508
  0
POINT
  5
202A
100
AcDbEntity
  8
DEFPOINTS
  6
BYBLOCK
 62
     0
100
AcDbPoint
 10
321.453096
 20
-200.663726
 30
0.0
  0
POINT
  5
202B
100
AcDbEntity
  8
DEFPOINTS
  6
BYBLOCK
 62
     0
100
AcDbPoint
 10
337.193737
 20
-220.086193
 30
0.0
  0
ENDBLK
  5
202C
100
AcDbEntity
  8
0
100
AcDbBlockEnd
  0
BLOCK
  5
202F
100
AcDbEntity
  8
0
100
AcDbBlockBegin
  2
*D5
 70
     1
 10
0.0
 20
0.0
 30
0.0
  3
*D5
  1

  0
LINE
  5
2030
100
AcDbEntity
  8
0
  6
BYBLOCK
 62
     1
100
AcDbLine
 10
340.823417
 20
-216.273939
 30
0.0
 11
340.823417
 21
-238.421
 31
0.0
  0
LINE
  5
2031
100
AcDbEntity
  8
0
  6
BYBLOCK
 62
     1
100
AcDbLine
 10
317.823417
 20
-216.273939
 30
0.0
 11
317.823417
 21
-238.421
 31
0.0
  0
LINE
  5
2032
100
AcDbEntity
  8
0
  6
BYBLOCK
 62
     1
100
AcDbLine
 10
338.823417
 20
-236.421
 30
0.0
 11
319.823417
 21
-236.421
 31
0.0
  0
INSERT
  5
2033
100
AcDbEntity
  8
0
  6
BYBLOCK
 62
     1
100
AcDbBlockReference
  2
_OPEN30
 10
340.823417
 20
-236.421
 30
0.0
 41
2.0
 42
2.0
 43
2.0
  0
INSERT
  5
2034
100
AcDbEntity
  8
0
  6
BYBLOCK
 62
     1
100
AcDbBlockReference
  2
_OPEN30
 10
317.823417
 20
-236.421
 30
0.0
 41
2.0
 42
2.0
 43
2.0
 50
180.0
  0
MTEXT
  5
2035
100
AcDbEntity
  8
0
  6
BYBLOCK
 62
     3
100
AcDbMText
 10
329.323417
 20
-233.921
 30
0.0
 40
3.0
 41
0.0
 71
     5
 72
     1
  1
\A1;23
  0
POINT
  5
2036
100
AcDbEntity
  8
DEFPOINTS
  6
BYBLOCK
 62
     0
100
AcDbPoint
 10
340.823417
 20
-215.273939
 30
0.0
  0
POINT
  5
2037
100
AcDbEntity
  8
DEFPOINTS
  6
BYBLOCK
 62
     0
100
AcDbPoint
 10
317.823417
 20
-215.273939
 30
0.0
  0
POINT
  5
2038
100
AcDbEntity
  8
DEFPOINTS
  6
BYBLOCK
 62
     0
100
AcDbPoint
 10
317.823417
 20
-236.421
 30
0.0
  0
ENDBLK
  5
2039
100
AcDbEntity
  8
0
100
AcDbBlockEnd
  0
BLOCK
  5
203C
100
AcDbEntity
  8
0
100
AcDbBlockBegin
  2
*D6
 70
     1
 10
0.0
 20
0.0
 30
0.0
  3
*D6
  1

  0
LINE
  5
203D
100
AcDbEntity
  8
0
  6
BYBLOCK
 62
     1
100
AcDbLine
 10
221.002738
 20
-228.37496
 30
0.0
 11
221.002738
 21
-252.336585
 31
0.0
  0
LINE
  5
203E
100
AcDbEntity
  8
0
  6
BYBLOCK
 62
     1
100
AcDbLine
 10
421.002738
 20
-220.87496
 30
0.0
 11
421.002738
 21
-252.336585
 31
0.0
  0
LINE
  5
203F
100
AcDbEntity
  8
0
  6
BYBLOCK
 62
     1
100
AcDbLine
 10
223.002738
 20
-250.336585
 30
0.0
 11
419.002738
 21
-250.336585
 31
0.0
  0
INSERT
  5
2040
100
AcDbEntity
  8
0
  6
BYBLOCK
 62
     1
100
AcDbBlockReference
  2
_OPEN30
 10
221.002738
 20
-250.336585
 30
0.0
 41
2.0
 42
2.0
 43
2.0
 50
180.0
  0
INSERT
  5
2041
100
AcDbEntity
  8
0
  6
BYBLOCK
 62
     1
100
AcDbBlockReference
  2
_OPEN30
 10
421.002738
 20
-250.336585
 30
0.0
 41
2.0
 42
2.0
 43
2.0
  0
MTEXT
  5
2042
100
AcDbEntity
  8
0
  6
BYBLOCK
 62
     3
100
AcDbMText
 10
321.002738
 20
-247.836585
 30
0.0
 40
3.0
 41
0.0
 71
     5
 72
     1
  1
\A1;200
  0
POINT
  5
2043
100
AcDbEntity
  8
DEFPOINTS
  6
BYBLOCK
 62
     0
100
AcDbPoint
 10
221.002738
 20
-227.37496
 30
0.0
  0
POINT
  5
2044
100
AcDbEntity
  8
DEFPOINTS
  6
BYBLOCK
 62
     0
100
AcDbPoint
 10
421.002738
 20
-219.87496
 30
0.0
  0
POINT
  5
2045
100
AcDbEntity
  8
DEFPOINTS
  6
BYBLOCK
 62
     0
100
AcDbPoint
 10
421.002738
 20
-250.336585
 30
0.0
  0
ENDBLK
  5
2046
100
AcDbEntity
  8
0
100
AcDbBlockEnd
  0
BLOCK
  5
2049
100
AcDbEntity
  8
0
100
AcDbBlockBegin
  2
*D7
 70
     1
 10
0.0
 20
0.0
 30
0.0
  3
*D7
  1

  0
LINE
  5
204A
100
AcDbEntity
  8
0
  6
BYBLOCK
 62
     1
100
AcDbLine
 10
220.002738
 20
-227.37496
 30
0.0
 11
205.394124
 21
-227.37496
 31
0.0
  0
LINE
  5
204B
100
AcDbEntity
  8
0
  6
BYBLOCK
 62
     1
100
AcDbLine
 10
212.663145
 20
-210.37496
 30
0.0
 11
205.394124
 21
-210.37496
 31
0.0
  0
LINE
  5
204C
100
AcDbEntity
  8
0
  6
BYBLOCK
 62
     1
100
AcDbLine
 10
207.394124
 20
-225.37496
 30
0.0
 11
207.394124
 21
-212.37496
 31
0.0
  0
INSERT
  5
204D
100
AcDbEntity
  8
0
  6
BYBLOCK
 62
     1
100
AcDbBlockReference
  2
_OPEN30
 10
207.394124
 20
-227.37496
 30
0.0
 41
2.0
 42
2.0
 43
2.0
 50
270.0
  0
INSERT
  5
204E
100
AcDbEntity
  8
0
  6
BYBLOCK
 62
     1
100
AcDbBlockReference
  2
_OPEN30
 10
207.394124
 20
-210.37496
 30
0.0
 41
2.0
 42
2.0
 43
2.0
 50
90.0
  0
MTEXT
  5
204F
100
AcDbEntity
  8
0
  6
BYBLOCK
 62
     3
100
AcDbMText
 10
204.894124
 20
-218.87496
 30
0.0
 40
3.0
 41
0.0
 71
     5
 72
     1
  1
\A1;17
 11
0.0
 21
1.0
 31
0.0
  0
POINT
  5
2050
100
AcDbEntity
  8
DEFPOINTS
  6
BYBLOCK
 62
     0
100
AcDbPoint
 10
221.002738
 20
-227.37496
 30
0.0
  0
POINT
  5
2051
100
AcDbEntity
  8
DEFPOINTS
  6
BYBLOCK
 62
     0
100
AcDbPoint
 10
213.663145
 20
-210.37496
 30
0.0
  0
POINT
  5
2052
100
AcDbEntity
  8
DEFPOINTS
  6
BYBLOCK
 62
     0
100
AcDbPoint
 10
207.394124
 20
-210.37496
 30
0.0
  0
ENDBLK
  5
2053
100
AcDbEntity
  8
0
100
AcDbBlockEnd
  0
BLOCK
  5
2056
100
AcDbEntity
  8
0
100
AcDbBlockBegin
  2
*D8
 70
     1
 10
0.0
 20
0.0
 30
0.0
  3
*D8
  1

  0
LINE
  5
2057
100
AcDbEntity
  8
0
  6
BYBLOCK
 62
     1
100
AcDbLine
 10
161.952055
 20
-228.353107
 30
0.0
 11
159.171318
 21
-241.435446
 31
0.0
  0
LINE
  5
2058
100
AcDbEntity
  8
0
  6
BYBLOCK
 62
     1
100
AcDbLine
 10
162.159966
 20
-233.37496
 30
0.0
 11
162.159966
 21
-241.749565
 31
0.0
  0
ARC
  5
2059
100
AcDbEntity
  8
0
  6
BYBLOCK
 62
     1
100
AcDbCircle
 10
162.159966
 20
-227.37496
 30
0.0
 40
12.374606
100
AcDbArc
 50
239.397969
 51
258.0
  0
LINE
  5
205A
100
AcDbEntity
  8
0
  6
BYBLOCK
 62
     1
100
AcDbLine
 10
155.860402
 20
-238.026079
 30
0.0
 11
145.876004
 21
-232.120845
 31
0.0
  0
ARC
  5
205B
100
AcDbEntity
  8
0
  6
BYBLOCK
 62
     1
100
AcDbCircle
 10
162.159966
 20
-227.37496
 30
0.0
 40
12.374606
100
AcDbArc
 50
239.459345
 51
248.729672
  0
ARC
  5
205C
100
AcDbEntity
  8
0
  6
BYBLOCK
 62
     1
100
AcDbCircle
 10
162.159966
 20
-227.37496
 30
0.0
 40
12.374606
100
AcDbArc
 50
279.270328
 51
288.540655
  0
ARC
  5
205D
100
AcDbEntity
  8
0
  6
BYBLOCK
 62
     1
100
AcDbCircle
 10
162.159966
 20
-227.37496
 30
0.0
 40
12.374606
100
AcDbArc
 50
258.0
 51
270.0
  0
INSERT
  5
205E
100
AcDbEntity
  8
0
  6
BYBLOCK
 62
     1
100
AcDbBlockReference
  2
_OPEN30
 10
159.587141
 20
-239.47915
 30
0.0
 41
2.0
 42
2.0
 43
2.0
 50
343.364836
  0
INSERT
  5
205F
100
AcDbEntity
  8
0
  6
BYBLOCK
 62
     1
100
AcDbBlockReference
  2
_OPEN30
 10
162.159966
 20
-239.749565
 30
0.0
 41
2.0
 42
2.0
 43
2.0
 50
184.635164
  0
MTEXT
  5
2060
100
AcDbEntity
  8
0
  6
BYBLOCK
 62
     3
100
AcDbMText
 10
152.140883
 20
-232.921652
 30
0.0
 40
3.0
 41
0.0
 71
     5
 72
     1
  1
\A1;12°
 11
0.860724
 21
-0.509072
 31
0.0
  0
POINT
  5
2061
100
AcDbEntity
  8
DEFPOINTS
  6
BYBLOCK
 62
     0
100
AcDbPoint
 10
161.296757
 20
-239.719421
 30
0.0
  0
POINT
  5
2062
100
AcDbEntity
  8
DEFPOINTS
  6
BYBLOCK
 62
     0
100
AcDbPoint
 10
168.110065
 20
-199.381947
 30
0.0
  0
POINT
  5
2063
100
AcDbEntity
  8
DEFPOINTS
  6
BYBLOCK
 62
     0
100
AcDbPoint
 10
162.159966
 20
-188.37496
 30
0.0
  0
POINT
  5
2064
100
AcDbEntity
  8
DEFPOINTS
  6
BYBLOCK
 62
     0
100
AcDbPoint
 10
162.159966
 20
-232.37496
 30
0.0
  0
POINT
  5
2065
100
AcDbEntity
  8
DEFPOINTS
  6
BYBLOCK
 62
     0
100
AcDbPoint
 10
162.159966
 20
-227.37496
 30
0.0
  0
ENDBLK
  5
2066
100
AcDbEntity
  8
0
100
AcDbBlockEnd
  0
BLOCK
  5
2069
100
AcDbEntity
  8
0
100
AcDbBlockBegin
  2
*D9
 70
     1
 10
0.0
 20
0.0
 30
0.0
  3
*D9
  1

  0
LINE
  5
206A
100
AcDbEntity
  8
0
  6
BYBLOCK
 62
     1
100
AcDbLine
 10
221.002738
 20
-288.969136
 30
0.0
 11
221.002738
 21
-315.476694
 31
0.0
  0
LINE
  5
206B
100
AcDbEntity
  8
0
  6
BYBLOCK
 62
     1
100
AcDbLine
 10
239.002738
 20
-301.469136
 30
0.0
 11
239.002738
 21
-315.476694
 31
0.0
  0
LINE
  5
206C
100
AcDbEntity
  8
0
  6
BYBLOCK
 62
     1
100
AcDbLine
 10
223.002738
 20
-313.476694
 30
0.0
 11
237.002738
 21
-313.476694
 31
0.0
  0
INSERT
  5
206D
100
AcDbEntity
  8
0
  6
BYBLOCK
 62
     1
100
AcDbBlockReference
  2
_OPEN30
 10
221.002738
 20
-313.476694
 30
0.0
 41
2.0
 42
2.0
 43
2.0
 50
180.0
  0
INSERT
  5
206E
100
AcDbEntity
  8
0
  6
BYBLOCK
 62
     1
100
AcDbBlockReference
  2
_OPEN30
 10
239.002738
 20
-313.476694
 30
0.0
 41
2.0
 42
2.0
 43
2.0
  0
MTEXT
  5
206F
100
AcDbEntity
  8
0
  6
BYBLOCK
 62
     3
100
AcDbMText
 10
230.002738
 20
-310.976694
 30
0.0
 40
3.0
 41
0.0
 71
     5
 72
     1
  1
\A1;18
  0
POINT
  5
2070
100
AcDbEntity
  8
DEFPOINTS
  6
BYBLOCK
 62
     0
100
AcDbPoint
 10
221.002738
 20
-287.969136
 30
0.0
  0
POINT
  5
2071
100
AcDbEntity
  8
DEFPOINTS
  6
BYBLOCK
 62
     0
100
AcDbPoint
 10
239.002738
 20
-300.469136
 30
0.0
  0
POINT
  5
2072
100
AcDbEntity
  8
DEFPOINTS
  6
BYBLOCK
 62
     0
100
AcDbPoint
 10
239.002738
 20
-313.476694
 30
0.0
  0
ENDBLK
  5
2073
100
AcDbEntity
  8
0
100
AcDbBlockEnd
  0
ENDSEC
  0
SECTION
  2
ENTITIES
  0
LINE
  5
1B89
100
AcDbEntity
  8
参考
  6
CENTER
 62
     1
100
AcDbLine
 10
225.541043
 20
-194.983605
 30
0.0
 11
225.541043
 21
-237.633032
 31
0.0
  0
CIRCLE
  5
1B8C
100
AcDbEntity
  8
外形
  6
CONTINUOUS
100
AcDbCircle
 10
225.541043
 20
-219.777626
 30
0.0
 40
2.58
  0
LINE
  5
1B8D
100
AcDbEntity
  8
外形
  6
CONTINUOUS
100
AcDbLine
 10
217.602738
 20
-214.685987
 30
0.0
 11
220.843859
 21
-226.782015
 31
0.0
  0
LINE
  5
1B8E
100
AcDbEntity
  8
外形
  6
CONTINUOUS
100
AcDbLine
 10
221.823655
 20
-227.3477
 30
0.0
 11
232.545432
 21
-224.474809
 31
0.0
  0
LINE
  5
1B8F
100
AcDbEntity
  8
外形
  6
CONTINUOUS
100
AcDbLine
 10
233.111117
 20
-223.495013
 30
0.0
 11
230.238226
 21
-212.773236
 31
0.0
  0
LINE
  5
1B90
100
AcDbEntity
  8
外形
  6
CONTINUOUS
100
AcDbLine
 10
229.25843
 20
-212.207551
 30
0.0
 11
217.763913
 21
-215.287498
 31
0.0
  0
ARC
  5
1B91
100
AcDbEntity
  8
外形
  6
CONTINUOUS
100
AcDbCircle
 10
218.743709
 20
-215.853183
 30
0.0
 40
0.8
100
AcDbArc
 50
105.0
 51
195.0
  0
ARC
  5
1B92
100
AcDbEntity
  8
外形
  6
CONTINUOUS
100
AcDbCircle
 10
229.465485
 20
-212.980292
 30
0.0
 40
0.8
100
AcDbArc
 50
15.0
 51
105.0
  0
ARC
  5
1B93
100
AcDbEntity
  8
外形
  6
CONTINUOUS
100
AcDbCircle
 10
232.338377
 20
-223.702068
 30
0.0
 40
0.8
100
AcDbArc
 50
285.0
 51
15.0
  0
ARC
  5
1B94
100
AcDbEntity
  8
外形
  6
CONTINUOUS
100
AcDbCircle
 10
221.6166
 20
-226.57496
 30
0.0
 40
0.8
100
AcDbArc
 50
195.0
 51
285.0
  0
LINE
  5
1B95
100
AcDbEntity
  8
外形
  6
CONTINUOUS
 62
     1
100
AcDbLine
 10
221.6166
 20
-227.37496
 30
0.0
 11
221.002738
 21
-227.37496
 31
0.0
  0
LINE
  5
1B96
100
AcDbEntity
  8
外形
  6
CONTINUOUS
 62
     1
100
AcDbLine
 10
220.843859
 20
-226.782015
 30
0.0
 11
221.002738
 21
-227.37496
 31
0.0
  0
LINE
  5
1BA7
102
{ACAD_REACTORS
330
1FE0
102
}
100
AcDbEntity
  8
外形
  6
CENTER
 62
     1
100
AcDbLine
 10
427.666018
 20
-210.37496
 30
0.0
 11
213.663145
 21
-210.37496
 31
0.0
  0
CIRCLE
  5
1C0F
100
AcDbEntity
  8
外形
  6
CONTINUOUS
100
AcDbCircle
 10
225.541043
 20
-219.777626
 30
0.0
 40
2.35
  0
LINE
  5
1C19
100
AcDbEntity
  8
外形
  6
CENTER
 62
     1
100
AcDbLine
 10
162.159966
 20
-188.37496
 30
0.0
 11
162.159966
 21
-232.37496
 31
0.0
  0
LINE
  5
1C32
100
AcDbEntity
  8
外形
  6
CONTINUOUS
100
AcDbLine
 10
168.110065
 20
-199.381947
 30
0.0
 11
162.159966
 21
-227.37496
 31
0.0
  0
LINE
  5
1C33
100
AcDbEntity
  8
外形
  6
CONTINUOUS
100
AcDbLine
 10
160.05068
 20
-214.404038
 30
0.0
 11
157.503984
 21
-226.3853
 31
0.0
  0
LINE
  5
1C35
100
AcDbEntity
  8
外形
  6
CONTINUOUS
100
AcDbLine
 10
160.055877
 20
-214.379584
 30
0.0
 11
164.71186
 21
-215.369244
 31
0.0
  0
LINE
  5
1C36
100
AcDbEntity
  8
外形
  6
CONTINUOUS
100
AcDbLine
 10
157.503984
 20
-226.3853
 30
0.0
 11
162.159966
 21
-227.37496
 31
0.0
  0
LINE
  5
1C37
100
AcDbEntity
  8
外形
  6
CONTINUOUS
100
AcDbLine
 10
156.94017
 20
-213.742879
 30
0.0
 11
160.05068
 21
-214.404038
 31
0.0
  0
LINE
  5
1C38
100
AcDbEntity
  8
外形
  6
CONTINUOUS
100
AcDbLine
 10
154.398672
 20
-225.699687
 30
0.0
 11
157.509181
 21
-226.360846
 31
0.0
  0
LINE
  5
1C39
100
AcDbEntity
  8
外形
  6
CONTINUOUS
100
AcDbLine
 10
167.898993
 20
-200.37496
 30
0.0
 11
154.659966
 21
-200.37496
 31
0.0
  0
LINE
  5
1C3D
100
AcDbEntity
  8
外形
  6
CENTER
 62
     1
100
AcDbLine
 10
181.896933
 20
-210.37496
 30
0.0
 11
140.384266
 21
-210.37496
 31
0.0
  0
LEADER
  5
1C58
100
AcDbEntity
  8
寸法
  6
CONTINUOUS
 62
     1
100
AcDbLeader
  3
STANDARD
 73
     0
 74
     0
 75
     1
 40
3.0
 41
26.0
 76
     3
 10
167.752623
 20
-194.321232
 30
0.0
 10
177.961704
 20
-179.068933
 30
0.0
 10
179.961704
 20
-179.068933
 30
0.0
 77
   256
340
1C59
1001
ACAD
1000
DSTYLE
1002
{
1070
    40
1040
1.0
1002
}
  0
MTEXT
  5
1C59
102
{ACAD_REACTORS
330
1C58
102
}
100
AcDbEntity
  8
寸法
  6
CONTINUOUS
 62
     3
100
AcDbMText
 10
180.961704
 20
-176.568933
 30
0.0
 40
3.0
 41
0.0
 71
     4
 72
     1
  1
%%C34最小加工径
  0
LINE
  5
1C5C
100
AcDbEntity
  8
外形
  6
CENTER
 62
     1
100
AcDbLine
 10
427.666018
 20
-287.969136
 30
0.0
 11
213.663145
 21
-287.969136
 31
0.0
  0
LINE
  5
1C82
100
AcDbEntity
  8
外形
  6
CONTINUOUS
100
AcDbLine
 10
221.002738
 20
-287.969136
 30
0.0
 11
238.921037
 21
-286.085847
 31
0.0
  0
LINE
  5
1C93
100
AcDbEntity
  8
外形
  6
CONTINUOUS
100
AcDbLine
 10
156.94017
 20
-213.742879
 30
0.0
 11
154.398672
 21
-225.699687
 31
0.0
  0
LINE
  5
1C94
100
AcDbEntity
  8
外形
  6
CONTINUOUS
100
AcDbLine
 10
221.500294
 20
-292.70306
 30
0.0
 11
233.567059
 21
-291.434792
 31
0.0
  0
LINE
  5
1E1D
100
AcDbEntity
  8
外形
  6
CONTINUOUS
100
AcDbLine
 10
221.857557
 20
-295.863027
 30
0.0
 11
233.874596
 21
-294.599985
 31
0.0
  0
LINE
  5
1E22
100
AcDbEntity
  8
外形
  6
CONTINUOUS
100
AcDbLine
 10
217.943709
 20
-285.781622
 30
0.0
 11
221.002738
 21
-287.969136
 31
0.0
  0
LINE
  5
1E23
100
AcDbEntity
  8
外形
  6
CONTINUOUS
100
AcDbLine
 10
218.441264
 20
-290.515547
 30
0.0
 11
221.500294
 21
-292.70306
 31
0.0
  0
LINE
  5
1E24
100
AcDbEntity
  8
外形
  6
CONTINUOUS
100
AcDbLine
 10
218.771347
 20
-293.656076
 30
0.0
 11
221.857557
 21
-295.863027
 31
0.0
  0
LINE
  5
1E25
100
AcDbEntity
  8
外形
  6
CONTINUOUS
100
AcDbLine
 10
230.010473
 20
-284.513354
 30
0.0
 11
233.069503
 21
-286.700868
 31
0.0
  0
LINE
  5
1E26
100
AcDbEntity
  8
外形
  6
CONTINUOUS
100
AcDbLine
 10
217.943709
 20
-285.781622
 30
0.0
 11
230.010473
 21
-284.513354
 31
0.0
  0
DIMENSION
  5
1E62
100
AcDbEntity
  8
寸法
  6
CONTINUOUS
100
AcDbDimension
  2
*D2
 10
221.002738
 20
-227.37496
 30
0.0
 11
195.507305
 21
-207.811625
 31
0.0
 12
0.0
 22
5.0
 32
0.0
 70
    34
  3
STANDARD
100
AcDb2LineAngularDimension
 13
217.970968
 23
-216.060238
 33
0.0
 14
220.843859
 24
-226.782015
 34
0.0
 15
221.6166
 25
-227.37496
 35
0.0
 16
201.952898
 26
-204.672244
 36
0.0
1001
ACAD
1000
DSTYLE
1002
{
1070
    40
1040
1.0
1002
}
  0
DIMENSION
  5
1EAE
100
AcDbEntity
  8
寸法
  6
CONTINUOUS
100
AcDbDimension
  2
*D3
 10
213.663145
 20
-287.969136
 30
0.0
 11
207.770834
 21
-280.393597
 31
0.0
 12
0.0
 22
33.516128
 32
0.0
 70
    34
  3
STANDARD
100
AcDb2LineAngularDimension
 13
221.002738
 23
-287.969136
 33
0.0
 14
241.002738
 24
-285.867051
 34
0.0
 15
477.355159
 25
-287.969136
 35
0.0
 16
203.916335
 26
-289.163934
 36
0.0
1001
ACAD
1000
DSTYLE
1002
{
1070
    40
1040
1.0
1002
}
  0
TEXT
  5
1EC7
100
AcDbEntity
  8
外形
  6
CONTINUOUS
 62
     2
100
AcDbText
 10
313.962278
 20
-336.909166
 30
0.0
 40
6.0
  1
BSKN425R
100
AcDbText
  0
LINE
  5
1F04
100
AcDbEntity
  8
外形
  6
CONTINUOUS
100
AcDbLine
 10
421.002738
 20
-199.87496
 30
0.0
 11
421.002738
 21
-219.87496
 31
0.0
  0
LINE
  5
1F07
100
AcDbEntity
  8
外形
  6
CONTINUOUS
100
AcDbLine
 10
266.502738
 20
-198.12496
 30
0.0
 11
228.428056
 21
-198.12496
 31
0.0
  0
LINE
  5
1F08
100
AcDbEntity
  8
外形
  6
CONTINUOUS
100
AcDbLine
 10
266.502738
 20
-222.62496
 30
0.0
 11
239.002738
 21
-222.62496
 31
0.0
  0
LINE
  5
1F09
100
AcDbEntity
  8
外形
  6
CONTINUOUS
100
AcDbLine
 10
267.002738
 20
-197.87496
 30
0.0
 11
267.002738
 21
-206.154474
 31
0.0
  0
LINE
  5
1F0D
100
AcDbEntity
  8
外形
  6
CONTINUOUS
100
AcDbLine
 10
217.602738
 20
-204.37496
 30
0.0
 11
217.602738
 21
-214.685987
 31
0.0
  0
LINE
  5
1F11
100
AcDbEntity
  8
外形
  6
CONTINUOUS
100
AcDbLine
 10
238.921037
 20
-222.766471
 30
0.0
 11
232.545432
 21
-224.474809
 31
0.0
  0
LINE
  5
1F36
100
AcDbEntity
  8
外形
  6
CONTINUOUS
100
AcDbLine
 10
238.921037
 20
-222.766471
 30
0.0
 11
239.002738
 21
-222.62496
 31
0.0
  0
LINE
  5
1F45
100
AcDbEntity
  8
外形
  6
CONTINUOUS
100
AcDbLine
 10
228.428056
 20
-198.12496
 30
0.0
 11
217.602738
 21
-204.37496
 31
0.0
  0
ARC
  5
1F49
100
AcDbEntity
  8
外形
  6
CONTINUOUS
100
AcDbCircle
 10
162.159966
 20
-210.37496
 30
0.0
 40
16.3
100
AcDbArc
 50
219.926252
 51
242.180995
  0
LINE
  5
1F4A
100
AcDbEntity
  8
外形
  6
CONTINUOUS
100
AcDbLine
 10
149.659966
 20
-210.37496
 30
0.0
 11
149.659966
 21
-220.836317
 31
0.0
  0
LINE
  5
1F4B
102
{ACAD_REACTORS
330
1FE0
102
}
100
AcDbEntity
  8
外形
  6
CENTER
 62
     1
100
AcDbLine
 10
329.323417
 20
-194.114217
 30
0.0
 11
329.323417
 21
-226.962659
 31
0.0
  0
ARC
  5
1F4C
102
{ACAD_REACTORS
330
1FE0
102
}
100
AcDbEntity
  8
外形
  6
CONTINUOUS
100
AcDbCircle
 10
329.323417
 20
-210.37496
 30
0.0
 40
12.5
100
AcDbArc
 50
23.073918
 51
156.926082
  0
LINE
  5
1F4E
102
{ACAD_REACTORS
330
1FE0
102
}
100
AcDbEntity
  8
外形
  6
CONTINUOUS
100
AcDbLine
 10
340.823417
 20
-215.273939
 30
0.0
 11
340.823417
 21
-205.47598
 31
0.0
  0
LINE
  5
1F4F
102
{ACAD_REACTORS
330
1FE0
102
}
100
AcDbEntity
  8
外形
  6
CONTINUOUS
100
AcDbLine
 10
317.823417
 20
-215.273939
 30
0.0
 11
317.823417
 21
-205.47598
 31
0.0
  0
ARC
  5
1F50
102
{ACAD_REACTORS
330
1FE0
102
}
100
AcDbEntity
  8
外形
  6
CONTINUOUS
100
AcDbCircle
 10
329.323417
 20
-210.37496
 30
0.0
 40
12.5
100
AcDbArc
 50
203.073918
 51
246.926082
  0
ARC
  5
1F51
100
AcDbEntity
  8
外形
  6
CONTINUOUS
100
AcDbCircle
 10
162.159966
 20
-210.37496
 30
0.0
 40
12.5
100
AcDbArc
 50
23.073918
 51
180.0
  0
LINE
  5
1F52
100
AcDbEntity
  8
外形
  6
CONTINUOUS
100
AcDbLine
 10
173.659966
 20
-215.273939
 30
0.0
 11
173.659966
 21
-205.47598
 31
0.0
  0
ARC
  5
1F53
100
AcDbEntity
  8
外形
  6
CONTINUOUS
100
AcDbCircle
 10
162.159966
 20
-210.37496
 30
0.0
 40
12.5
100
AcDbArc
 50
293.073918
 51
336.926082
  0
CIRCLE
  5
1F57
100
AcDbEntity
  8
外形
  6
CENTER
 62
     1
100
AcDbCircle
 10
162.159966
 20
-210.37496
 30
0.0
 40
17.0
  0
LINE
  5
1F59
100
AcDbEntity
  8
外形
  6
CONTINUOUS
100
AcDbLine
 10
267.002738
 20
-197.87496
 30
0.0
 11
315.673684
 21
-197.87496
 31
0.0
  0
LINE
  5
1F5A
100
AcDbEntity
  8
外形
  6
CONTINUOUS
100
AcDbLine
 10
267.002738
 20
-221.87496
 30
0.0
 11
315.673684
 21
-221.87496
 31
0.0
  0
LINE
  5
1F5B
100
AcDbEntity
  8
外形
  6
CONTINUOUS
100
AcDbLine
 10
267.002738
 20
-215.273939
 30
0.0
 11
315.673684
 21
-215.273939
 31
0.0
  0
LINE
  5
1F5C
100
AcDbEntity
  8
外形
  6
CONTINUOUS
100
AcDbLine
 10
267.002738
 20
-205.47598
 30
0.0
 11
315.673684
 21
-205.47598
 31
0.0
  0
LINE
  5
1F5D
100
AcDbEntity
  8
外形
  6
CONTINUOUS
100
AcDbLine
 10
419.002738
 20
-197.87496
 30
0.0
 11
421.002738
 21
-199.87496
 31
0.0
  0
LINE
  5
1F5E
100
AcDbEntity
  8
外形
  6
CONTINUOUS
100
AcDbLine
 10
421.002738
 20
-219.87496
 30
0.0
 11
419.002738
 21
-221.87496
 31
0.0
  0
LINE
  5
1F5F
100
AcDbEntity
  8
外形
  6
CONTINUOUS
100
AcDbLine
 10
419.002738
 20
-197.87496
 30
0.0
 11
419.002738
 21
-205.47598
 31
0.0
  0
ARC
  5
1F63
100
AcDbEntity
  8
外形
  6
CONTINUOUS
100
AcDbCircle
 10
407.502738
 20
-210.37496
 30
0.0
 40
12.5
100
AcDbArc
 50
336.926082
 51
23.073918
  0
LINE
  5
1F64
100
AcDbEntity
  8
外形
  6
CONTINUOUS
100
AcDbLine
 10
419.002738
 20
-215.273939
 30
0.0
 11
419.002738
 21
-221.87496
 31
0.0
  0
LINE
  5
1F6C
100
AcDbEntity
  8
外形
  6
CONTINUOUS
100
AcDbLine
 10
266.502738
 20
-198.12496
 30
0.0
 11
266.502738
 21
-206.154474
 31
0.0
  0
LINE
  5
1F6D
100
AcDbEntity
  8
外形
  6
CONTINUOUS
100
AcDbLine
 10
267.002738
 20
-214.595445
 30
0.0
 11
267.002738
 21
-222.37496
 31
0.0
  0
LINE
  5
1F6E
100
AcDbEntity
  8
外形
  6
CONTINUOUS
100
AcDbLine
 10
266.502738
 20
-214.595445
 30
0.0
 11
266.502738
 21
-222.62496
 31
0.0
  0
LINE
  5
1F6F
100
AcDbEntity
  8
外形
  6
CONTINUOUS
100
AcDbLine
 10
266.502738
 20
-198.12496
 30
0.0
 11
267.002738
 21
-197.87496
 31
0.0
  0
LINE
  5
1F71
100
AcDbEntity
  8
外形
  6
CONTINUOUS
100
AcDbLine
 10
266.502738
 20
-222.62496
 30
0.0
 11
267.002738
 21
-222.37496
 31
0.0
  0
LINE
  5
1F74
100
AcDbEntity
  8
外形
  6
CONTINUOUS
100
AcDbLine
 10
343.069307
 20
-197.87496
 30
0.0
 11
419.002738
 21
-197.87496
 31
0.0
  0
LINE
  5
1F75
100
AcDbEntity
  8
外形
  6
CONTINUOUS
100
AcDbLine
 10
343.069307
 20
-205.47598
 30
0.0
 11
419.002738
 21
-205.47598
 31
0.0
  0
LINE
  5
1F76
100
AcDbEntity
  8
外形
  6
CONTINUOUS
100
AcDbLine
 10
343.069307
 20
-215.273939
 30
0.0
 11
419.002738
 21
-215.273939
 31
0.0
  0
LINE
  5
1F77
100
AcDbEntity
  8
外形
  6
CONTINUOUS
100
AcDbLine
 10
343.069307
 20
-221.87496
 30
0.0
 11
419.002738
 21
-221.87496
 31
0.0
  0
LINE
  5
1FA3
100
AcDbEntity
  8
外形
  6
CONTINUOUS
100
AcDbLine
 10
267.002738
 20
-206.154474
 30
0.0
 11
251.002738
 21
-206.154474
 31
0.0
  0
LINE
  5
1FA4
100
AcDbEntity
  8
外形
  6
CONTINUOUS
100
AcDbLine
 10
267.002738
 20
-214.595445
 30
0.0
 11
251.002738
 21
-214.595445
 31
0.0
  0
ARC
  5
1FA6
100
AcDbEntity
  8
外形
  6
CONTINUOUS
100
AcDbCircle
 10
230.678218
 20
-214.41531
 30
0.0
 40
2.5
100
AcDbArc
 50
285.0
 51
116.843305
  0
LINE
  5
1FA8
102
{ACAD_REACTORS
330
1FE0
102
}
100
AcDbEntity
  8
外形
  6
CONTINUOUS
100
AcDbLine
 10
334.222396
 20
-221.87496
 30
0.0
 11
324.424437
 21
-221.87496
 31
0.0
  0
ARC
  5
1FA9
102
{ACAD_REACTORS
330
1FE0
102
}
100
AcDbEntity
  8
外形
  6
CONTINUOUS
100
AcDbCircle
 10
329.323417
 20
-210.37496
 30
0.0
 40
12.5
100
AcDbArc
 50
293.073918
 51
336.926082
  0
HATCH
  5
1FE0
100
AcDbEntity
  8
外形
  6
CONTINUOUS
100
AcDbHatch
 10
0.0
 20
0.0
 30
0.0
210
0.0
220
0.0
230
1.0
  2
ANSI31
 70
     0
 71
     1
 91
        4
 92
        7
 72
     1
 73
     1
 93
        4
 10
329.3234167657983
 20
-197.8749597171722
 42
0.0
 10
329.3234167657983
 20
-210.3749597171722
 42
0.0
 10
340.8234167657983
 20
-210.3749597171722
 42
0.0
 10
340.8234167657983
 20
-205.4759802316058
 42
0.3006141300917523
 97
        4
330
1F4B
330
1BA7
330
1F4E
330
1F4C
 92
        7
 72
     1
 73
     1
 93
        4
 10
317.8234167657983
 20
-205.4759802316058
 42
0.0
 10
317.8234167657983
 20
-210.3749597171721
 42
0.0
 10
329.3234167657983
 20
-210.3749597171721
 42
0.0
 10
329.3234167657983
 20
-197.8749597171722
 42
0.3006141300917522
 97
        4
330
1F4C
330
1F4F
330
1BA7
330
1F4B
 92
        7
 72
     1
 73
     1
 93
        5
 10
324.4244372802319
 20
-221.8749597171722
 42
0.0
 10
329.3234167657983
 20
-221.8749597171722
 42
0.0
 10
329.3234167657983
 20
-210.3749597171722
 42
0.0
 10
317.8234167657984
 20
-210.3749597171723
 42
0.0
 10
317.8234167657983
 20
-215.2739392027385
 42
0.1937109635247126
 97
        5
330
1BA7
330
1F4F
330
1F50
330
1FA8
330
1F4B
 92
        7
 72
     1
 73
     1
 93
        5
 10
340.8234167657983
 20
-215.2739392027386
 42
0.0
 10
340.8234167657983
 20
-210.3749597171721
 42
0.0
 10
329.3234167657983
 20
-210.3749597171722
 42
0.0
 10
329.3234167657983
 20
-221.8749597171722
 42
0.0
 10
334.2223962513646
 20
-221.8749597171722
 42
0.1937109635247143
 97
        5
330
1F4E
330
1BA7
330
1F4B
330
1FA8
330
1FA9
 75
     0
 76
     1
 52
0.0
 41
15.0
 77
     0
 78
     1
 53
45.0
 43
40.538005
 44
146.919615
 45
-1.325825214724776
 46
1.325825214724776
 79
     0
 47
0.286687
 98
        4
 10
334.984886
 20
-205.353443
 10
321.212904
 20
-205.640129
 10
322.934399
 20
-217.96766
 10
333.837223
 20
-217.394285
  0
LINE
  5
1FE1
100
AcDbEntity
  8
外形
  6
CONTINUOUS
100
AcDbLine
 10
167.058946
 20
-221.87496
 30
0.0
 11
163.329027
 21
-221.87496
 31
0.0
  0
LINE
  5
1FF1
100
AcDbEntity
  8
外形
  6
CONTINUOUS
100
AcDbLine
 10
419.002738
 20
-276.469136
 30
0.0
 11
267.002738
 21
-276.469136
 31
0.0
  0
LINE
  5
1FF4
100
AcDbEntity
  8
外形
  6
CONTINUOUS
100
AcDbLine
 10
421.002738
 20
-278.469136
 30
0.0
 11
421.002738
 21
-297.469136
 31
0.0
  0
ARC
  5
1FF5
100
AcDbEntity
  8
外形
  6
CONTINUOUS
100
AcDbCircle
 10
407.502738
 20
-287.969136
 30
0.0
 40
12.5
100
AcDbArc
 50
336.926082
 51
23.073918
  0
LINE
  5
1FF6
100
AcDbEntity
  8
外形
  6
CONTINUOUS
100
AcDbLine
 10
419.002738
 20
-292.868116
 30
0.0
 11
419.002738
 21
-299.469136
 31
0.0
  0
LINE
  5
1FF8
100
AcDbEntity
  8
外形
  6
CONTINUOUS
100
AcDbLine
 10
419.002738
 20
-276.469136
 30
0.0
 11
419.002738
 21
-283.070157
 31
0.0
  0
LINE
  5
1FF9
100
AcDbEntity
  8
外形
  6
CONTINUOUS
100
AcDbLine
 10
419.002738
 20
-276.469136
 30
0.0
 11
421.002738
 21
-278.469136
 31
0.0
  0
LINE
  5
1FFA
100
AcDbEntity
  8
外形
  6
CONTINUOUS
100
AcDbLine
 10
419.002738
 20
-283.070157
 30
0.0
 11
267.002738
 21
-283.070157
 31
0.0
  0
LINE
  5
1FFB
100
AcDbEntity
  8
外形
  6
CONTINUOUS
100
AcDbLine
 10
419.002738
 20
-292.868116
 30
0.0
 11
267.002738
 21
-292.868116
 31
0.0
  0
LINE
  5
1FFE
100
AcDbEntity
  8
外形
  6
CONTINUOUS
100
AcDbLine
 10
419.002738
 20
-299.469136
 30
0.0
 11
267.002738
 21
-299.469136
 31
0.0
  0
LINE
  5
1FFF
100
AcDbEntity
  8
外形
  6
CONTINUOUS
100
AcDbLine
 10
419.002738
 20
-299.469136
 30
0.0
 11
421.002738
 21
-297.469136
 31
0.0
  0
LINE
  5
2000
100
AcDbEntity
  8
外形
  6
CONTINUOUS
100
AcDbLine
 10
419.002738
 20
-299.469136
 30
0.0
 11
419.002738
 21
-292.868116
 31
0.0
  0
LINE
  5
2001
100
AcDbEntity
  8
外形
  6
CONTINUOUS
100
AcDbLine
 10
239.002738
 20
-300.469136
 30
0.0
 11
239.002738
 21
-284.557682
 31
0.0
  0
LINE
  5
2002
100
AcDbEntity
  8
外形
  6
CONTINUOUS
100
AcDbLine
 10
238.921037
 20
-300.469136
 30
0.0
 11
238.921037
 21
-284.57387
 31
0.0
  0
LINE
  5
2003
100
AcDbEntity
  8
外形
  6
CONTINUOUS
100
AcDbLine
 10
222.276621
 20
-300.469136
 30
0.0
 11
239.002738
 21
-300.469136
 31
0.0
  0
LINE
  5
2005
100
AcDbEntity
  8
外形
  6
CONTINUOUS
100
AcDbLine
 10
267.002738
 20
-292.189622
 30
0.0
 11
239.002738
 21
-292.189622
 31
0.0
  0
LINE
  5
2006
100
AcDbEntity
  8
外形
  6
CONTINUOUS
100
AcDbLine
 10
267.002738
 20
-283.74865
 30
0.0
 11
243.75048
 21
-283.74865
 31
0.0
  0
LINE
  5
2007
100
AcDbEntity
  8
外形
  6
CONTINUOUS
100
AcDbLine
 10
266.502738
 20
-292.189622
 30
0.0
 11
266.502738
 21
-300.219136
 31
0.0
  0
LINE
  5
2008
100
AcDbEntity
  8
外形
  6
CONTINUOUS
100
AcDbLine
 10
266.502738
 20
-300.219136
 30
0.0
 11
267.002738
 21
-299.969136
 31
0.0
  0
LINE
  5
2009
100
AcDbEntity
  8
外形
  6
CONTINUOUS
100
AcDbLine
 10
267.002738
 20
-292.189622
 30
0.0
 11
267.002738
 21
-299.969136
 31
0.0
  0
LINE
  5
200A
100
AcDbEntity
  8
外形
  6
CONTINUOUS
100
AcDbLine
 10
266.502738
 20
-275.719136
 30
0.0
 11
266.502738
 21
-283.74865
 31
0.0
  0
LINE
  5
200B
100
AcDbEntity
  8
外形
  6
CONTINUOUS
100
AcDbLine
 10
266.502738
 20
-275.719136
 30
0.0
 11
267.002738
 21
-275.969136
 31
0.0
  0
LINE
  5
200C
100
AcDbEntity
  8
外形
  6
CONTINUOUS
100
AcDbLine
 10
267.002738
 20
-275.969136
 30
0.0
 11
267.002738
 21
-283.74865
 31
0.0
  0
LINE
  5
200D
100
AcDbEntity
  8
外形
  6
CONTINUOUS
100
AcDbLine
 10
266.502738
 20
-275.719136
 30
0.0
 11
251.002738
 21
-275.719136
 31
0.0
  0
LINE
  5
200E
100
AcDbEntity
  8
外形
  6
CONTINUOUS
100
AcDbLine
 10
266.502738
 20
-300.219136
 30
0.0
 11
239.002738
 21
-300.219136
 31
0.0
  0
LINE
  5
2010
100
AcDbEntity
  8
外形
  6
CONTINUOUS
100
AcDbLine
 10
251.002738
 20
-214.62496
 30
0.0
 11
251.002738
 21
-206.154474
 31
0.0
  0
ARC
  5
2015
100
AcDbEntity
  8
外形
  6
CONTINUOUS
100
AcDbCircle
 10
243.002738
 20
-214.62496
 30
0.0
 40
8.0
100
AcDbArc
 50
270.0
 51
0.0
  0
SPLINE
  5
201A
100
AcDbEntity
  8
外形
  6
CONTINUOUS
100
AcDbSpline
210
0.0
220
0.0
230
-1.0
 70
     8
 71
     3
 72
    12
 73
     8
 74
     6
 42
0.0000001
 43
0.0000001
 44
0.0000000001
 40
0.0
 40
0.0
 40
0.0
 40
0.0
 40
13.82172402920449
 40
17.77815925288821
 40
20.90907163313165
 40
23.03393087745778
 40
25.77486686444091
 40
25.77486686444091
 40
25.77486686444091
 40
25.77486686444091
 10
227.7084976011041
 20
-198.5403969071176
 30
0.0
 10
232.2239161353935
 20
-199.1615001902416
 30
0.0
 10
238.0318623529871
 20
-199.9603927926794
 30
0.0
 10
245.2226859462597
 20
-200.3458325454821
 30
0.0
 10
247.6968924911828
 20
-202.2726089480975
 30
0.0
 10
249.9677793219394
 20
-203.7637140578271
 30
0.0
 10
250.6298112350267
 20
-205.2930106522034
 30
0.0
 10
251.0027383741377
 20
-206.1544739631388
 30
0.0
 11
227.7084976011041
 21
-198.5403969071176
 31
0.0
 11
241.4397879585776
 21
-200.118915281494
 31
0.0
 11
245.3402139625613
 21
-200.7822829522865
 31
0.0
 11
247.9958174945049
 21
-202.4407105852842
 31
0.0
 11
249.655571148307
 21
-203.7674526916821
 31
0.0
 11
251.0027383741377
 21
-206.1544739631388
 31
0.0
  0
SPLINE
  5
201C
100
AcDbEntity
  8
外形
  6
CONTINUOUS
100
AcDbSpline
210
0.0
220
0.0
230
1.0
 70
     8
 71
     3
 72
    12
 73
     8
 74
     6
 42
0.0000001
 43
0.0000001
 44
0.0000000001
 40
0.0
 40
0.0
 40
0.0
 40
0.0
 40
4.11593072284839
 40
7.32251889014359
 40
11.19194348157142
 40
14.12158360867156
 40
16.09159756489247
 40
16.09159756489247
 40
16.09159756489247
 40
16.09159756489247
 10
251.0027383741377
 20
-275.7191360571541
 30
0.0
 10
250.3750717784673
 20
-276.9331602556044
 30
0.0
 10
249.2584104901723
 20
-279.0929913423851
 30
0.0
 10
247.2515628340649
 20
-282.3229483151457
 30
0.0
 10
244.0821537562425
 20
-283.8843647861923
 30
0.0
 10
241.1691111923948
 20
-284.1283844020724
 30
0.0
 10
239.5657169505543
 20
-284.4461180013419
 30
0.0
 10
238.9210369425303
 20
-284.5738698006071
 30
0.0
 11
251.0027383741377
 21
-275.7191360571541
 31
0.0
 11
249.0577013725705
 21
-279.3464927776631
 31
0.0
 11
247.1706875483587
 21
-281.9390564705877
 31
0.0
 11
243.7504804157415
 21
-283.7486503031206
 31
0.0
 11
240.8589965399269
 21
-284.2199381877721
 31
0.0
 11
238.9210369425303
 21
-284.5738698006071
 31
0.0
  0
SPLINE
  5
201D
100
AcDbEntity
  8
外形
  6
CONTINUOUS
100
AcDbSpline
210
0.0
220
0.0
230
1.0
 70
     8
 71
     3
 72
    12
 73
     8
 74
     6
 42
0.0000001
 43
0.0000001
 44
0.0000000001
 40
0.0
 40
0.0
 40
0.0
 40
0.0
 40
3.892258162230238
 40
8.094426216572703
 40
14.48950497740965
 40
22.46339491556209
 40
35.23608084324878
 40
35.23608084324878
 40
35.23608084324878
 40
35.23608084324878
 10
251.0027383741377
 20
-275.7191360571541
 30
0.0
 10
250.2459602209247
 20
-276.7846915310134
 30
0.0
 10
248.6721476246948
 20
-279.000644277035
 30
0.0
 10
244.3731830316049
 20
-281.5600537703446
 30
0.0
 10
238.0917818310734
 20
-282.0682608032947
 30
0.0
 10
229.0842962911597
 20
-282.1856926065472
 30
0.0
 10
222.188886425104
 20
-282.8594667682896
 30
0.0
 10
217.943708563883
 20
-283.2742776657493
 30
0.0
 11
251.0027383741377
 21
-275.7191360571541
 31
0.0
 11
248.5410058611541
 21
-278.734023556874
 31
0.0
 11
244.9545913705687
 21
-280.9239658982737
 31
0.0
 11
238.6439070132664
 21
-281.9594828222339
 31
0.0
 11
230.6753550266894
 21
-282.2512018359916
 31
0.0
 11
217.943708563883
 21
-283.2742776657493
 31
0.0
  0
LINE
  5
2021
100
AcDbEntity
  8
外形
  6
CONTINUOUS
100
AcDbLine
 10
222.276621
 20
-300.469136
 30
0.0
 11
221.857557
 21
-295.863027
 31
0.0
  0
DIMENSION
  5
202D
100
AcDbEntity
  8
寸法
  6
CONTINUOUS
100
AcDbDimension
  2
*D4
 10
337.193737
 20
-220.086193
 30
0.0
 11
314.474613
 21
-192.052935
 31
0.0
 70
   163
  3
STANDARD
100
AcDbDiametricDimension
 15
321.453096
 25
-200.663726
 35
0.0
 40
0.0
1001
ACAD
1000
DSTYLE
1002
{
1070
   288
1070
     1
1070
    40
1040
1.0
1002
}
  0
DIMENSION
  5
203A
100
AcDbEntity
  8
寸法
  6
CONTINUOUS
100
AcDbDimension
  2
*D5
 10
317.823417
 20
-236.421
 30
0.0
 11
329.323417
 21
-233.921
 31
0.0
 70
    32
  3
STANDARD
100
AcDbAlignedDimension
 13
340.823417
 23
-215.273939
 33
0.0
 14
317.823417
 24
-215.273939
 34
0.0
100
AcDbRotatedDimension
1001
ACAD
1000
DSTYLE
1002
{
1070
    40
1040
1.0
1002
}
  0
DIMENSION
  5
2047
100
AcDbEntity
  8
寸法
  6
CONTINUOUS
100
AcDbDimension
  2
*D6
 10
421.002738
 20
-250.336585
 30
0.0
 11
321.002738
 21
-247.836585
 31
0.0
 70
    32
  3
STANDARD
100
AcDbAlignedDimension
 13
221.002738
 23
-227.37496
 33
0.0
 14
421.002738
 24
-219.87496
 34
0.0
100
AcDbRotatedDimension
1001
ACAD
1000
DSTYLE
1002
{
1070
    40
1040
1.0
1002
}
  0
DIMENSION
  5
2054
100
AcDbEntity
  8
寸法
  6
CONTINUOUS
100
AcDbDimension
  2
*D7
 10
207.394124
 20
-210.37496
 30
0.0
 11
204.894124
 21
-218.87496
 31
0.0
 70
    32
  3
STANDARD
100
AcDbAlignedDimension
 13
221.002738
 23
-227.37496
 33
0.0
 14
213.663145
 24
-210.37496
 34
0.0
 50
90.0
100
AcDbRotatedDimension
1001
ACAD
1000
DSTYLE
1002
{
1070
    40
1040
1.0
1002
}
  0
DIMENSION
  5
2067
100
AcDbEntity
  8
寸法
  6
CONTINUOUS
100
AcDbDimension
  2
*D8
 10
162.159966
 20
-227.37496
 30
0.0
 11
152.140883
 21
-232.921652
 31
0.0
 70
    34
  3
STANDARD
100
AcDb2LineAngularDimension
 13
162.159966
 23
-188.37496
 33
0.0
 14
162.159966
 24
-232.37496
 34
0.0
 15
168.110065
 25
-199.381947
 35
0.0
 16
161.296757
 26
-239.719421
 36
0.0
1001
ACAD
1000
DSTYLE
1002
{
1070
    40
1040
1.0
1002
}
  0
DIMENSION
  5
2074
100
AcDbEntity
  8
寸法
  6
CONTINUOUS
100
AcDbDimension
  2
*D9
 10
239.002738
 20
-313.476694
 30
0.0
 11
230.002738
 21
-310.976694
 31
0.0
 70
    32
  3
STANDARD
100
AcDbAlignedDimension
 13
221.002738
 23
-287.969136
 33
0.0
 14
239.002738
 24
-300.469136
 34
0.0
100
AcDbRotatedDimension
1001
ACAD
1000
DSTYLE
1002
{
1070
    40
1040
1.0
1002
}
  0
LINE
  5
210A
100
AcDbEntity
  8
外形
  6
CONTINUOUS
100
AcDbLine
 10
233.567059
 20
-291.434792
 30
0.0
 11
233.069503
 21
-286.700868
 31
0.0
  0
LINE
  5
210B
100
AcDbEntity
  8
外形
  6
CONTINUOUS
100
AcDbLine
 10
221.500294
 20
-292.70306
 30
0.0
 11
221.002738
 21
-287.969136
 31
0.0
  0
LINE
  5
210C
100
AcDbEntity
  8
外形
  6
CONTINUOUS
100
AcDbLine
 10
218.771347
 20
-293.656076
 30
0.0
 11
217.943709
 21
-285.781622
 31
0.0
  0
LINE
  5
210D
100
AcDbEntity
  8
外形
  6
CONTINUOUS
100
AcDbLine
 10
233.874596
 20
-294.599985
 30
0.0
 11
233.542196
 21
-291.437405
 31
0.0
  0
LINE
  5
210E
100
AcDbEntity
  8
外形
  6
CONTINUOUS
100
AcDbLine
 10
221.857557
 20
-295.863027
 30
0.0
 11
221.525157
 21
-292.700447
 31
0.0
  0
LINE
  5
2146
100
AcDbEntity
  8
外形
  6
CONTINUOUS
100
AcDbLine
 10
219.098915
 20
-297.256518
 30
0.0
 11
218.771347
 21
-293.656076
 31
0.0
  0
LINE
  5
2147
100
AcDbEntity
  8
外形
  6
CONTINUOUS
100
AcDbLine
 10
219.098915
 20
-297.256518
 30
0.0
 11
222.276621
 21
-300.469136
 31
0.0
  0
LINE
  5
2149
100
AcDbEntity
  8
外形
  6
CONTINUOUS
100
AcDbLine
 10
217.943709
 20
-285.781622
 30
0.0
 11
217.943709
 21
-283.274278
 31
0.0
  0
ENDSEC
  0
SECTION
  2
OBJECTS
  0
DICTIONARY
  5
1E
100
AcDbDictionary
  3
ACAD_GROUP
350
1C
  3
ACAD_MLINESTYLE
350
1D
  3
ACDBVARIABLEDICTIONARY
350
147A
  3
DRAWINGVARIABLESDICT
350
C58
  0
DICTIONARY
  5
38
100
AcDbDictionary
280
     1
  3
ACAD_XREC_ROUNDTRIP
360
39
  0
DICTIONARY
  5
22
100
AcDbDictionary
280
     1
  3
ACAD_XREC_ROUNDTRIP
360
23
  0
DICTIONARY
  5
3
100
AcDbDictionary
280
     1
  3
ACAD_LAYOUTSELFREF
360
4
  0
DICTIONARY
  5
A
100
AcDbDictionary
280
     1
  3
ACAD_LAYOUTSELFREF
360
B
  0
DICTIONARY
  5
1C
102
{ACAD_REACTORS
330
1E
102
}
100
AcDbDictionary
  0
DICTIONARY
  5
1D
102
{ACAD_REACTORS
330
1E
102
}
100
AcDbDictionary
  3
STANDARD
350
20
  0
DICTIONARY
  5
147A
102
{ACAD_REACTORS
330
1E
102
}
100
AcDbDictionary
  3
SORTENTS
350
147B
  0
DICTIONARY
  5
C58
102
{ACAD_REACTORS
330
1E
102
}
100
AcDbDictionary
1001
DRAWINGVARIABLESXDATA
1000
POLARMODE
1000
0
  0
XRECORD
  5
39
102
{ACAD_REACTORS
330
38
102
}
100
AcDbXrecord
102
PLOTBIT
280
     0
  0
XRECORD
  5
23
102
{ACAD_REACTORS
330
22
102
}
100
AcDbXrecord
102
ACADR14ROUNDTRIP
1000
DSTYLE
1002
{
1070
   341
340
0
1070
   343
340
0
1070
   344
340
0
1002
}
  0
XRECORD
  5
4
102
{ACAD_REACTORS
330
3
102
}
100
AcDbXrecord
340
2
  0
XRECORD
  5
B
102
{ACAD_REACTORS
330
A
102
}
100
AcDbXrecord
340
9
  0
MLINESTYLE
  5
20
102
{ACAD_REACTORS
330
1D
102
}
100
AcDbMlineStyle
  2
STANDARD
 70
     0
  3

 62
     0
 51
90.0
 52
90.0
 71
     2
 49
0.5
 62
   256
  6
BYLAYER
 49
-0.5
 62
   256
  6
BYLAYER
  0
DICTIONARYVAR
  5
147B
102
{ACAD_REACTORS
330
147A
102
}
100
DictionaryVariables
280
     0
  1
96
  0
ENDSEC
  0
EOF
