  0
SECTION
  2
HEADER
  9
$ACADVER
  1
AC1014
  9
$ACADMAINTVER
 70
     0
  9
$DWGCODEPAGE
  3
ANSI_932
  9
$INSBASE
 10
-587.250952
 20
747.890188
 30
0.0
  9
$EXTMIN
 10
144.195578
 20
-330.072889
 30
0.0
  9
$EXTMAX
 10
582.520951
 20
-159.956715
 30
0.0
  9
$LIMMIN
 10
93.521054
 20
-389.874765
  9
$LIMMAX
 10
503.341678
 20
-129.34933
  9
$ORTHOMODE
 70
     1
  9
$REGENMODE
 70
     1
  9
$FILLMODE
 70
     1
  9
$QTEXTMODE
 70
     0
  9
$MIRRTEXT
 70
     1
  9
$DRAGMODE
 70
     2
  9
$LTSCALE
 40
5.0
  9
$OSMODE
 70
    47
  9
$ATTMODE
 70
     1
  9
$TEXTSIZE
 40
5.0
  9
$TRACEWID
 40
0.05
  9
$TEXTSTYLE
  7
STANDARD
  9
$CLAYER
  8
外形
  9
$CELTYPE
  6
CONTINUOUS
  9
$CECOLOR
 62
   256
  9
$CELTSCALE
 40
1.0
  9
$DELOBJ
 70
     1
  9
$DISPSILH
 70
     0
  9
$DIMSCALE
 40
1.0
  9
$DIMASZ
 40
2.0
  9
$DIMEXO
 40
1.0
  9
$DIMDLI
 40
8.0
  9
$DIMRND
 40
0.0
  9
$DIMDLE
 40
0.0
  9
$DIMEXE
 40
2.0
  9
$DIMTP
 40
0.0
  9
$DIMTM
 40
0.0
  9
$DIMTXT
 40
2.0
  9
$DIMCEN
 40
-1.0
  9
$DIMTSZ
 40
0.0
  9
$DIMTOL
 70
     0
  9
$DIMLIM
 70
     0
  9
$DIMTIH
 70
     0
  9
$DIMTOH
 70
     0
  9
$DIMSE1
 70
     0
  9
$DIMSE2
 70
     0
  9
$DIMTAD
 70
     1
  9
$DIMZIN
 70
     8
  9
$DIMBLK
  1

  9
$DIMASO
 70
     1
  9
$DIMSHO
 70
     1
  9
$DIMPOST
  1

  9
$DIMAPOST
  1

  9
$DIMALT
 70
     0
  9
$DIMALTD
 70
     2
  9
$DIMALTF
 40
25.4
  9
$DIMLFAC
 40
1.0
  9
$DIMTOFL
 70
     1
  9
$DIMTVP
 40
0.0
  9
$DIMTIX
 70
     0
  9
$DIMSOXD
 70
     0
  9
$DIMSAH
 70
     1
  9
$DIMBLK1
  1
_DOTSMALL
  9
$DIMBLK2
  1
_DOTSMALL
  9
$DIMSTYLE
  2
参考寸法
  9
$DIMCLRD
 70
     2
  9
$DIMCLRE
 70
     2
  9
$DIMCLRT
 70
     2
  9
$DIMTFAC
 40
1.0
  9
$DIMGAP
 40
1.0
  9
$DIMJUST
 70
     0
  9
$DIMSD1
 70
     0
  9
$DIMSD2
 70
     0
  9
$DIMTOLJ
 70
     1
  9
$DIMTZIN
 70
     8
  9
$DIMALTZ
 70
     0
  9
$DIMALTTZ
 70
     0
  9
$DIMFIT
 70
     3
  9
$DIMUPT
 70
     0
  9
$DIMUNIT
 70
     2
  9
$DIMDEC
 70
     3
  9
$DIMTDEC
 70
     2
  9
$DIMALTU
 70
     2
  9
$DIMALTTD
 70
     2
  9
$DIMTXSTY
  7
STANDARD
  9
$DIMAUNIT
 70
     0
  9
$LUNITS
 70
     2
  9
$LUPREC
 70
     3
  9
$SKETCHINC
 40
0.1
  9
$FILLETRAD
 40
1.0
  9
$AUNITS
 70
     0
  9
$AUPREC
 70
     3
  9
$MENU
  1
acad
  9
$ELEVATION
 40
0.0
  9
$PELEVATION
 40
0.0
  9
$THICKNESS
 40
0.0
  9
$LIMCHECK
 70
     0
  9
$BLIPMODE
 70
     0
  9
$CHAMFERA
 40
0.0
  9
$CHAMFERB
 40
0.0
  9
$CHAMFERC
 40
0.0
  9
$CHAMFERD
 40
0.0
  9
$SKPOLY
 70
     0
  9
$TDCREATE
 40
2450751.535399305
  9
$TDUPDATE
 40
2452030.703229166
  9
$TDINDWG
 40
1.9796597222
  9
$TDUSRTIMER
 40
1.9796597222
  9
$USRTIMER
 70
     1
  9
$ANGBASE
 50
0.0
  9
$ANGDIR
 70
     0
  9
$PDMODE
 70
    32
  9
$PDSIZE
 40
0.0
  9
$PLINEWID
 40
0.0
  9
$COORDS
 70
     2
  9
$SPLFRAME
 70
     0
  9
$SPLINETYPE
 70
     5
  9
$SPLINESEGS
 70
     8
  9
$ATTDIA
 70
     0
  9
$ATTREQ
 70
     1
  9
$HANDLING
 70
     1
  9
$HANDSEED
  5
308D
  9
$SURFTAB1
 70
     6
  9
$SURFTAB2
 70
     6
  9
$SURFTYPE
 70
     6
  9
$SURFU
 70
     6
  9
$SURFV
 70
     6
  9
$UCSNAME
  2

  9
$UCSORG
 10
40.53800450572526
 20
146.9196145921314
 30
0.0
  9
$UCSXDIR
 10
1.0
 20
0.0
 30
0.0
  9
$UCSYDIR
 10
0.0
 20
1.0
 30
0.0
  9
$PUCSNAME
  2

  9
$PUCSORG
 10
0.0
 20
0.0
 30
0.0
  9
$PUCSXDIR
 10
1.0
 20
0.0
 30
0.0
  9
$PUCSYDIR
 10
0.0
 20
1.0
 30
0.0
  9
$USERI1
 70
     0
  9
$USERI2
 70
     0
  9
$USERI3
 70
     0
  9
$USERI4
 70
     0
  9
$USERI5
 70
     0
  9
$USERR1
 40
0.0
  9
$USERR2
 40
0.0
  9
$USERR3
 40
0.0
  9
$USERR4
 40
0.0
  9
$USERR5
 40
0.0
  9
$WORLDVIEW
 70
     1
  9
$SHADEDGE
 70
     3
  9
$SHADEDIF
 70
    70
  9
$TILEMODE
 70
     1
  9
$MAXACTVP
 70
    16
  9
$PINSBASE
 10
0.0
 20
0.0
 30
0.0
  9
$PLIMCHECK
 70
     0
  9
$PEXTMIN
 10
1.000000E+20
 20
1.000000E+20
 30
1.000000E+20
  9
$PEXTMAX
 10
-1.000000E+20
 20
-1.000000E+20
 30
-1.000000E+20
  9
$PLIMMIN
 10
0.0
 20
0.0
  9
$PLIMMAX
 10
12.0
 20
9.0
  9
$UNITMODE
 70
     0
  9
$VISRETAIN
 70
     0
  9
$PLINEGEN
 70
     0
  9
$PSLTSCALE
 70
     1
  9
$TREEDEPTH
 70
  3020
  9
$PICKSTYLE
 70
     1
  9
$CMLSTYLE
  2
STANDARD
  9
$CMLJUST
 70
     0
  9
$CMLSCALE
 40
1.0
  9
$PROXYGRAPHICS
 70
     1
  9
$MEASUREMENT
 70
     0
  0
ENDSEC
  0
SECTION
  2
CLASSES
  0
CLASS
  1
LWPOLYLINE
  2
AcDbPolyline
  3
"AutoCAD"
 90
        0
280
     0
281
     1
  0
CLASS
  1
ACDBDICTIONARYWDFLT
  2
AcDbDictionaryWithDefault
  3
AutoCAD 2000
 90
        0
280
     1
281
     0
  0
CLASS
  1
ACDBPLACEHOLDER
  2
AcDbPlaceHolder
  3
AutoCAD 2000
 90
        0
280
     1
281
     0
  0
CLASS
  1
LAYOUT
  2
AcDbLayout
  3
AutoCAD 2000
 90
        0
280
     1
281
     0
  0
CLASS
  1
LONG_TRANSACTION
  2
AcDbLongTransaction
  3
AutoCAD 2000
 90
        0
280
     1
281
     0
  0
CLASS
  1
LWPOLYLINE
  2
AcDbPolyline
  3
"AutoCAD"
 90
        0
280
     0
281
     1
  0
CLASS
  1
HATCH
  2
AcDbHatch
  3
"ACAD_SEDONA"
 90
        0
280
     0
281
     1
  0
CLASS
  1
XRECORD
  2
AcDbXrecord
  3
"<Built In>"
 90
        0
280
     0
281
     0
  0
CLASS
  1
DICTIONARYVAR
  2
AcDbDictionaryVar
  3
"AutoCAD"
 90
        0
280
     0
281
     0
  0
ENDSEC
  0
SECTION
  2
TABLES
  0
TABLE
  2
VPORT
  5
16
100
AcDbSymbolTable
 70
     1
  0
VPORT
  5
3088
100
AcDbSymbolTableRecord
100
AcDbViewportTableRecord
  2
*ACTIVE
 70
     0
 10
0.0
 20
0.0
 11
1.0
 21
1.0
 12
366.78125
 22
-236.983425
 13
0.0
 23
0.0
 14
1.0
 24
1.0
 15
10.0
 25
10.0
 16
0.0
 26
0.0
 36
1.0
 17
0.0
 27
0.0
 37
0.0
 40
294.309674
 41
1.710425
 42
50.0
 43
0.0
 44
0.0
 50
0.0
 51
0.0
 71
     0
 72
   100
 73
     1
 74
     1
 75
     0
 76
     0
 77
     0
 78
     2
  0
ENDTAB
  0
TABLE
  2
LTYPE
  5
11
100
AcDbSymbolTable
 70
     2
  0
LTYPE
  5
12
100
AcDbSymbolTableRecord
100
AcDbLinetypeTableRecord
  2
BYBLOCK
 70
     0
  3

 72
    65
 73
     0
 40
0.0
  0
LTYPE
  5
13
100
AcDbSymbolTableRecord
100
AcDbLinetypeTableRecord
  2
BYLAYER
 70
     0
  3

 72
    65
 73
     0
 40
0.0
  0
LTYPE
  5
7
100
AcDbSymbolTableRecord
100
AcDbLinetypeTableRecord
  2
CONTINUOUS
 70
     0
  3
Solid line
 72
    65
 73
     0
 40
0.0
  0
LTYPE
  5
AA
100
AcDbSymbolTableRecord
100
AcDbLinetypeTableRecord
  2
CENTER
 70
     0
  3
Center ____ _ ____ _ ____ _ ____ _ ____ _ ____
 72
    65
 73
     4
 40
2.0
 49
1.25
 74
     0
 49
-0.25
 74
     0
 49
0.25
 74
     0
 49
-0.25
 74
     0
  0
ENDTAB
  0
TABLE
  2
LAYER
  5
E
100
AcDbSymbolTable
 70
     5
  0
LAYER
  5
6
100
AcDbSymbolTableRecord
100
AcDbLayerTableRecord
  2
0
 70
     0
 62
     7
  6
CONTINUOUS
  0
LAYER
  5
2C
100
AcDbSymbolTableRecord
100
AcDbLayerTableRecord
  2
外形
 70
     0
 62
     4
  6
CONTINUOUS
  0
LAYER
  5
37
102
{ACAD_XDICTIONARY
360
38
102
}
100
AcDbSymbolTableRecord
100
AcDbLayerTableRecord
  2
DEFPOINTS
 70
     0
 62
     7
  6
CONTINUOUS
  0
LAYER
  5
1F
100
AcDbSymbolTableRecord
100
AcDbLayerTableRecord
  2
寸法
 70
     0
 62
     1
  6
CONTINUOUS
  0
LAYER
  5
673
100
AcDbSymbolTableRecord
100
AcDbLayerTableRecord
  2
参考
 70
     0
 62
     2
  6
CONTINUOUS
  0
ENDTAB
  0
TABLE
  2
STYLE
  5
F
100
AcDbSymbolTable
 70
     1
  0
STYLE
  5
10
100
AcDbSymbolTableRecord
100
AcDbTextStyleTableRecord
  2
STANDARD
 70
     0
 40
0.0
 41
1.0
 50
0.0
 71
     0
 42
5.0
  3
MONOTXT
  4
BIGFONT
  0
ENDTAB
  0
TABLE
  2
VIEW
  5
14
100
AcDbSymbolTable
 70
     0
  0
ENDTAB
  0
TABLE
  2
UCS
  5
15
100
AcDbSymbolTable
 70
     0
  0
ENDTAB
  0
TABLE
  2
APPID
  5
18
100
AcDbSymbolTable
 70
     2
  0
APPID
  5
19
100
AcDbSymbolTableRecord
100
AcDbRegAppTableRecord
  2
ACAD
 70
     0
  0
APPID
  5
C59
100
AcDbSymbolTableRecord
100
AcDbRegAppTableRecord
  2
DRAWINGVARIABLESXDATA
 70
     0
  0
ENDTAB
  0
TABLE
  2
DIMSTYLE
  5
1A
100
AcDbSymbolTable
 70
     2
  0
DIMSTYLE
105
21
102
{ACAD_XDICTIONARY
360
22
102
}
102
{ACAD_REACTORS
330
2726
330
26F6
330
272D
330
276B
330
2728
330
272B
330
26ED
330
2997
102
}
100
AcDbSymbolTableRecord
100
AcDbDimStyleTableRecord
  2
STANDARD
 70
     0
  3

  4

  5

  6
_OPEN30
  7
_OPEN30
 40
0.0
 41
2.0
 42
1.0
 43
8.0
 44
2.0
 45
0.0
 46
0.0
 47
0.0
 48
0.0
140
3.0
141
-1.0
142
0.0
143
25.4
144
1.0
145
0.0
146
1.0
147
1.0
 71
     0
 72
     0
 73
     0
 74
     0
 75
     0
 76
     0
 77
     1
 78
     8
170
     0
171
     2
172
     1
173
     1
174
     0
175
     0
176
     1
177
     1
178
     3
270
     2
271
     2
272
     2
273
     2
274
     2
340
10
275
     0
280
     0
281
     0
282
     0
283
     1
284
     8
285
     0
286
     0
287
     3
288
     0
  0
DIMSTYLE
105
674
100
AcDbSymbolTableRecord
100
AcDbDimStyleTableRecord
  2
参考寸法
 70
     0
  3

  4

  5

  6
_DOTSMALL
  7
_DOTSMALL
 40
1.0
 41
2.0
 42
1.0
 43
8.0
 44
2.0
 45
0.0
 46
0.0
 47
0.0
 48
0.0
140
2.0
141
-1.0
142
0.0
143
25.4
144
1.0
145
0.0
146
1.0
147
1.0
 71
     0
 72
     0
 73
     0
 74
     0
 75
     0
 76
     0
 77
     1
 78
     8
170
     0
171
     2
172
     1
173
     1
174
     0
175
     0
176
     2
177
     2
178
     2
270
     2
271
     3
272
     2
273
     2
274
     2
340
10
275
     0
280
     0
281
     0
282
     0
283
     1
284
     8
285
     0
286
     0
287
     3
288
     0
  0
ENDTAB
  0
TABLE
  2
BLOCK_RECORD
  5
1
100
AcDbSymbolTable
 70
    22
  0
BLOCK_RECORD
  5
2
102
{ACAD_XDICTIONARY
360
3
102
}
100
AcDbSymbolTableRecord
100
AcDbBlockTableRecord
  2
*MODEL_SPACE
  0
BLOCK_RECORD
  5
9
102
{ACAD_XDICTIONARY
360
A
102
}
100
AcDbSymbolTableRecord
100
AcDbBlockTableRecord
  2
*PAPER_SPACE
  0
BLOCK_RECORD
  5
24
100
AcDbSymbolTableRecord
100
AcDbBlockTableRecord
  2
_DOTSMALL
  0
BLOCK_RECORD
  5
470
100
AcDbSymbolTableRecord
100
AcDbBlockTableRecord
  2
_OPEN30
  0
BLOCK_RECORD
  5
2778
100
AcDbSymbolTableRecord
100
AcDbBlockTableRecord
  2
*D2
  0
BLOCK_RECORD
  5
27AC
100
AcDbSymbolTableRecord
100
AcDbBlockTableRecord
  2
*D6
  0
BLOCK_RECORD
  5
27D0
100
AcDbSymbolTableRecord
100
AcDbBlockTableRecord
  2
*D8
  0
BLOCK_RECORD
  5
27E8
100
AcDbSymbolTableRecord
100
AcDbBlockTableRecord
  2
*D10
  0
BLOCK_RECORD
  5
27F4
100
AcDbSymbolTableRecord
100
AcDbBlockTableRecord
  2
*D11
  0
BLOCK_RECORD
  5
282E
100
AcDbSymbolTableRecord
100
AcDbBlockTableRecord
  2
*D14
  0
BLOCK_RECORD
  5
2862
100
AcDbSymbolTableRecord
100
AcDbBlockTableRecord
  2
*D17
  0
BLOCK_RECORD
  5
298D
100
AcDbSymbolTableRecord
100
AcDbBlockTableRecord
  2
*D19
  0
ENDTAB
  0
ENDSEC
  0
SECTION
  2
BLOCKS
  0
BLOCK
  5
5
100
AcDbEntity
  8
0
100
AcDbBlockBegin
  2
*MODEL_SPACE
 70
     0
 10
0.0
 20
0.0
 30
0.0
  3
*MODEL_SPACE
  1

  0
ENDBLK
  5
8
100
AcDbEntity
  8
0
100
AcDbBlockEnd
  0
BLOCK
  5
C
100
AcDbEntity
 67
     1
  8
0
100
AcDbBlockBegin
  2
*PAPER_SPACE
 70
     0
 10
0.0
 20
0.0
 30
0.0
  3
*PAPER_SPACE
  1

  0
ENDBLK
  5
D
100
AcDbEntity
 67
     1
  8
0
100
AcDbBlockEnd
  0
BLOCK
  5
29
100
AcDbEntity
  8
0
100
AcDbBlockBegin
  2
_DOTSMALL
 70
     0
 10
0.0
 20
0.0
 30
0.0
  3
_DOTSMALL
  1

  0
POLYLINE
  5
25
100
AcDbEntity
  8
0
  6
BYBLOCK
 62
     0
100
AcDb2dPolyline
 66
     1
 10
0.0
 20
0.0
 30
0.0
 70
     1
 40
0.5
 41
0.5
  0
VERTEX
  5
26
100
AcDbEntity
  8
0
  6
BYBLOCK
 62
     0
100
AcDbVertex
100
AcDb2dVertex
 10
-0.0625
 20
0.0
 30
0.0
 42
1.0
  0
VERTEX
  5
27
100
AcDbEntity
  8
0
  6
BYBLOCK
 62
     0
100
AcDbVertex
100
AcDb2dVertex
 10
0.0625
 20
0.0
 30
0.0
 42
1.0
  0
SEQEND
  5
28
100
AcDbEntity
  8
0
  6
BYBLOCK
 62
     0
  0
ENDBLK
  5
2A
100
AcDbEntity
  8
0
100
AcDbBlockEnd
  0
BLOCK
  5
471
100
AcDbEntity
  8
0
100
AcDbBlockBegin
  2
_OPEN30
 70
     0
 10
0.0
 20
0.0
 30
0.0
  3
_OPEN30
  1

  0
LINE
  5
472
100
AcDbEntity
  8
0
  6
BYBLOCK
 62
     0
100
AcDbLine
 10
-1.0
 20
0.267949
 30
0.0
 11
0.0
 21
0.0
 31
0.0
  0
LINE
  5
473
100
AcDbEntity
  8
0
  6
BYBLOCK
 62
     0
100
AcDbLine
 10
0.0
 20
0.0
 30
0.0
 11
-1.0
 21
-0.267949
 31
0.0
  0
LINE
  5
474
100
AcDbEntity
  8
0
  6
BYBLOCK
 62
     0
100
AcDbLine
 10
0.0
 20
0.0
 30
0.0
 11
-1.0
 21
0.0
 31
0.0
  0
ENDBLK
  5
475
100
AcDbEntity
  8
0
100
AcDbBlockEnd
  0
BLOCK
  5
2A4F
100
AcDbEntity
  8
0
100
AcDbBlockBegin
  2
*D2
 70
     1
 10
0.0
 20
0.0
 30
0.0
  3
*D2
  1

  0
LINE
  5
2A50
100
AcDbEntity
  8
0
  6
BYBLOCK
 62
     1
100
AcDbLine
 10
1078.141417
 20
-231.538682
 30
0.0
 11
1078.141417
 21
-245.500307
 31
0.0
  0
LINE
  5
2A51
100
AcDbEntity
  8
0
  6
BYBLOCK
 62
     1
100
AcDbLine
 10
1378.141417
 20
-221.038682
 30
0.0
 11
1378.141417
 21
-245.500307
 31
0.0
  0
LINE
  5
2A52
100
AcDbEntity
  8
0
  6
BYBLOCK
 62
     1
100
AcDbLine
 10
1080.141417
 20
-243.500307
 30
0.0
 11
1376.141417
 21
-243.500307
 31
0.0
  0
INSERT
  5
2A53
100
AcDbEntity
  8
0
  6
BYBLOCK
 62
     1
100
AcDbBlockReference
  2
_OPEN30
 10
1078.141417
 20
-243.500307
 30
0.0
 41
2.0
 42
2.0
 43
2.0
 50
180.0
  0
INSERT
  5
2A54
100
AcDbEntity
  8
0
  6
BYBLOCK
 62
     1
100
AcDbBlockReference
  2
_OPEN30
 10
1378.141417
 20
-243.500307
 30
0.0
 41
2.0
 42
2.0
 43
2.0
  0
MTEXT
  5
2A55
100
AcDbEntity
  8
0
  6
BYBLOCK
 62
     3
100
AcDbMText
 10
1228.141417
 20
-241.000307
 30
0.0
 40
3.0
 41
0.0
 71
     5
 72
     1
  1
\A1;300
  0
POINT
  5
2A56
100
AcDbEntity
  8
DEFPOINTS
  6
BYBLOCK
 62
     0
100
AcDbPoint
 10
1078.141417
 20
-230.538682
 30
0.0
  0
POINT
  5
2A57
100
AcDbEntity
  8
DEFPOINTS
  6
BYBLOCK
 62
     0
100
AcDbPoint
 10
1378.141417
 20
-220.038682
 30
0.0
  0
POINT
  5
2A58
100
AcDbEntity
  8
DEFPOINTS
  6
BYBLOCK
 62
     0
100
AcDbPoint
 10
1378.141417
 20
-243.500307
 30
0.0
  0
ENDBLK
  5
2A59
100
AcDbEntity
  8
0
100
AcDbBlockEnd
  0
BLOCK
  5
2B4C
100
AcDbEntity
  8
0
100
AcDbBlockBegin
  2
*D6
 70
     1
 10
0.0
 20
0.0
 30
0.0
  3
*D6
  1

  0
LINE
  5
2B4D
100
AcDbEntity
  8
0
  6
BYBLOCK
 62
     1
100
AcDbLine
 10
1078.141417
 20
-282.132858
 30
0.0
 11
1078.141417
 21
-314.406209
 31
0.0
  0
LINE
  5
2B4E
100
AcDbEntity
  8
0
  6
BYBLOCK
 62
     1
100
AcDbLine
 10
1098.141417
 20
-303.791452
 30
0.0
 11
1098.141417
 21
-314.406209
 31
0.0
  0
LINE
  5
2B4F
100
AcDbEntity
  8
0
  6
BYBLOCK
 62
     1
100
AcDbLine
 10
1080.141417
 20
-312.406209
 30
0.0
 11
1096.141417
 21
-312.406209
 31
0.0
  0
INSERT
  5
2B50
100
AcDbEntity
  8
0
  6
BYBLOCK
 62
     1
100
AcDbBlockReference
  2
_OPEN30
 10
1078.141417
 20
-312.406209
 30
0.0
 41
2.0
 42
2.0
 43
2.0
 50
180.0
  0
INSERT
  5
2B51
100
AcDbEntity
  8
0
  6
BYBLOCK
 62
     1
100
AcDbBlockReference
  2
_OPEN30
 10
1098.141417
 20
-312.406209
 30
0.0
 41
2.0
 42
2.0
 43
2.0
  0
MTEXT
  5
2B52
100
AcDbEntity
  8
0
  6
BYBLOCK
 62
     3
100
AcDbMText
 10
1088.141417
 20
-309.906209
 30
0.0
 40
3.0
 41
0.0
 71
     5
 72
     1
  1
\A1;20
  0
POINT
  5
2B53
100
AcDbEntity
  8
DEFPOINTS
  6
BYBLOCK
 62
     0
100
AcDbPoint
 10
1078.141417
 20
-281.132858
 30
0.0
  0
POINT
  5
2B54
100
AcDbEntity
  8
DEFPOINTS
  6
BYBLOCK
 62
     0
100
AcDbPoint
 10
1098.141417
 20
-302.791452
 30
0.0
  0
POINT
  5
2B55
100
AcDbEntity
  8
DEFPOINTS
  6
BYBLOCK
 62
     0
100
AcDbPoint
 10
1098.141417
 20
-312.406209
 30
0.0
  0
ENDBLK
  5
2B56
100
AcDbEntity
  8
0
100
AcDbBlockEnd
  0
BLOCK
  5
2A65
100
AcDbEntity
  8
0
100
AcDbBlockBegin
  2
*D8
 70
     1
 10
0.0
 20
0.0
 30
0.0
  3
*D8
  1

  0
LINE
  5
2A66
100
AcDbEntity
  8
0
  6
BYBLOCK
 62
     1
100
AcDbLine
 10
1077.141417
 20
-230.538682
 30
0.0
 11
1062.532802
 21
-230.538682
 31
0.0
  0
LINE
  5
2A67
100
AcDbEntity
  8
0
  6
BYBLOCK
 62
     1
100
AcDbLine
 10
1069.801824
 20
-203.538682
 30
0.0
 11
1062.532802
 21
-203.538682
 31
0.0
  0
LINE
  5
2A68
100
AcDbEntity
  8
0
  6
BYBLOCK
 62
     1
100
AcDbLine
 10
1064.532802
 20
-228.538682
 30
0.0
 11
1064.532802
 21
-205.538682
 31
0.0
  0
INSERT
  5
2A69
100
AcDbEntity
  8
0
  6
BYBLOCK
 62
     1
100
AcDbBlockReference
  2
_OPEN30
 10
1064.532802
 20
-230.538682
 30
0.0
 41
2.0
 42
2.0
 43
2.0
 50
270.0
  0
INSERT
  5
2A6A
100
AcDbEntity
  8
0
  6
BYBLOCK
 62
     1
100
AcDbBlockReference
  2
_OPEN30
 10
1064.532802
 20
-203.538682
 30
0.0
 41
2.0
 42
2.0
 43
2.0
 50
90.0
  0
MTEXT
  5
2A6B
100
AcDbEntity
  8
0
  6
BYBLOCK
 62
     3
100
AcDbMText
 10
1062.032802
 20
-217.038682
 30
0.0
 40
3.0
 41
0.0
 71
     5
 72
     1
  1
\A1;27
 11
0.0
 21
1.0
 31
0.0
  0
POINT
  5
2A6C
100
AcDbEntity
  8
DEFPOINTS
  6
BYBLOCK
 62
     0
100
AcDbPoint
 10
1078.141417
 20
-230.538682
 30
0.0
  0
POINT
  5
2A6D
100
AcDbEntity
  8
DEFPOINTS
  6
BYBLOCK
 62
     0
100
AcDbPoint
 10
1070.801824
 20
-203.538682
 30
0.0
  0
POINT
  5
2A6E
100
AcDbEntity
  8
DEFPOINTS
  6
BYBLOCK
 62
     0
100
AcDbPoint
 10
1064.532802
 20
-203.538682
 30
0.0
  0
ENDBLK
  5
2A6F
100
AcDbEntity
  8
0
100
AcDbBlockEnd
  0
BLOCK
  5
2980
100
AcDbEntity
  8
0
100
AcDbBlockBegin
  2
*D10
 70
     1
 10
0.0
 20
0.0
 30
0.0
  3
*D10
  1

  0
LINE
  5
2981
100
AcDbEntity
  8
0
  6
BYBLOCK
 62
     1
100
AcDbLine
 10
1313.030516
 20
-212.138024
 30
0.0
 11
1313.030516
 21
-236.369722
 31
0.0
  0
LINE
  5
2982
100
AcDbEntity
  8
0
  6
BYBLOCK
 62
     1
100
AcDbLine
 10
1276.030516
 20
-212.138024
 30
0.0
 11
1276.030516
 21
-236.369722
 31
0.0
  0
LINE
  5
2983
100
AcDbEntity
  8
0
  6
BYBLOCK
 62
     1
100
AcDbLine
 10
1311.030516
 20
-234.369722
 30
0.0
 11
1278.030516
 21
-234.369722
 31
0.0
  0
INSERT
  5
2984
100
AcDbEntity
  8
0
  6
BYBLOCK
 62
     1
100
AcDbBlockReference
  2
_OPEN30
 10
1313.030516
 20
-234.369722
 30
0.0
 41
2.0
 42
2.0
 43
2.0
  0
INSERT
  5
2985
100
AcDbEntity
  8
0
  6
BYBLOCK
 62
     1
100
AcDbBlockReference
  2
_OPEN30
 10
1276.030516
 20
-234.369722
 30
0.0
 41
2.0
 42
2.0
 43
2.0
 50
180.0
  0
MTEXT
  5
2986
100
AcDbEntity
  8
0
  6
BYBLOCK
 62
     3
100
AcDbMText
 10
1294.530516
 20
-231.869722
 30
0.0
 40
3.0
 41
0.0
 71
     5
 72
     1
  1
\A1;37
  0
POINT
  5
2987
100
AcDbEntity
  8
DEFPOINTS
  6
BYBLOCK
 62
     0
100
AcDbPoint
 10
1313.030516
 20
-211.138024
 30
0.0
  0
POINT
  5
2988
100
AcDbEntity
  8
DEFPOINTS
  6
BYBLOCK
 62
     0
100
AcDbPoint
 10
1276.030516
 20
-211.138024
 30
0.0
  0
POINT
  5
2989
100
AcDbEntity
  8
DEFPOINTS
  6
BYBLOCK
 62
     0
100
AcDbPoint
 10
1276.030516
 20
-234.369722
 30
0.0
  0
ENDBLK
  5
298A
100
AcDbEntity
  8
0
100
AcDbBlockEnd
  0
BLOCK
  5
27F5
100
AcDbEntity
  8
0
100
AcDbBlockBegin
  2
*D11
 70
     1
 10
0.0
 20
0.0
 30
0.0
  3
*D11
  1

  0
LINE
  5
27F6
100
AcDbEntity
  8
0
  6
BYBLOCK
 62
     1
100
AcDbLine
 10
545.24455
 20
-226.52349
 30
0.0
 11
543.262307
 21
-237.765351
 31
0.0
  0
LINE
  5
27F7
100
AcDbEntity
  8
0
  6
BYBLOCK
 62
     1
100
AcDbLine
 10
545.418198
 20
-226.538682
 30
0.0
 11
545.418198
 21
-237.953967
 31
0.0
  0
ARC
  5
27F8
100
AcDbEntity
  8
0
  6
BYBLOCK
 62
     1
100
AcDbCircle
 10
545.418198
 20
-225.538682
 30
0.0
 40
10.415285
100
AcDbArc
 50
237.857975
 51
260.0
  0
LINE
  5
27F9
100
AcDbEntity
  8
0
  6
BYBLOCK
 62
     1
100
AcDbLine
 10
539.877061
 20
-234.357636
 30
0.0
 11
530.054971
 21
-228.186207
 31
0.0
  0
ARC
  5
27FA
100
AcDbEntity
  8
0
  6
BYBLOCK
 62
     1
100
AcDbCircle
 10
545.418198
 20
-225.538682
 30
0.0
 40
10.415285
100
AcDbArc
 50
237.961553
 51
248.980776
  0
ARC
  5
27FB
100
AcDbEntity
  8
0
  6
BYBLOCK
 62
     1
100
AcDbCircle
 10
545.418198
 20
-225.538682
 30
0.0
 40
10.415285
100
AcDbArc
 50
281.019224
 51
292.038447
  0
ARC
  5
27FC
100
AcDbEntity
  8
0
  6
BYBLOCK
 62
     1
100
AcDbCircle
 10
545.418198
 20
-225.538682
 30
0.0
 40
10.415285
100
AcDbArc
 50
260.0
 51
270.0
  0
INSERT
  5
27FD
100
AcDbEntity
  8
0
  6
BYBLOCK
 62
     1
100
AcDbBlockReference
  2
_OPEN30
 10
543.609603
 20
-235.795735
 30
0.0
 41
2.0
 42
2.0
 43
2.0
 50
344.490388
  0
INSERT
  5
27FE
100
AcDbEntity
  8
0
  6
BYBLOCK
 62
     1
100
AcDbBlockReference
  2
_OPEN30
 10
545.418198
 20
-235.953967
 30
0.0
 41
2.0
 42
2.0
 43
2.0
 50
185.509612
  0
MTEXT
  5
27FF
100
AcDbEntity
  8
0
  6
BYBLOCK
 62
     3
100
AcDbMText
 10
536.296065
 20
-229.155092
 30
0.0
 40
3.0
 41
0.0
 71
     5
 72
     1
  1
\A1;10°
 11
0.846732
 21
-0.53202
 31
0.0
  0
POINT
  5
2800
100
AcDbEntity
  8
DEFPOINTS
  6
BYBLOCK
 62
     0
100
AcDbPoint
 10
544.812603
 20
-235.936346
 30
0.0
  0
POINT
  5
2801
100
AcDbEntity
  8
DEFPOINTS
  6
BYBLOCK
 62
     0
100
AcDbPoint
 10
545.418198
 20
-176.027047
 30
0.0
  0
POINT
  5
2802
100
AcDbEntity
  8
DEFPOINTS
  6
BYBLOCK
 62
     0
100
AcDbPoint
 10
550.38773
 20
-197.355066
 30
0.0
  0
POINT
  5
2803
100
AcDbEntity
  8
DEFPOINTS
  6
BYBLOCK
 62
     0
100
AcDbPoint
 10
545.418198
 20
-225.538682
 30
0.0
  0
POINT
  5
2804
100
AcDbEntity
  8
DEFPOINTS
  6
BYBLOCK
 62
     0
100
AcDbPoint
 10
545.418198
 20
-225.538682
 30
0.0
  0
ENDBLK
  5
2805
100
AcDbEntity
  8
0
100
AcDbBlockEnd
  0
BLOCK
  5
2A7C
100
AcDbEntity
  8
0
100
AcDbBlockBegin
  2
*D14
 70
     1
 10
0.0
 20
0.0
 30
0.0
  3
*D14
  1

  0
LINE
  5
2A7D
100
AcDbEntity
  8
0
  6
BYBLOCK
 62
     1
100
AcDbLine
 10
1074.643772
 20
-217.485294
 30
0.0
 11
1066.089051
 21
-185.558639
 31
0.0
  0
LINE
  5
2A7E
100
AcDbEntity
  8
0
  6
BYBLOCK
 62
     1
100
AcDbLine
 10
1077.141417
 20
-230.538682
 30
0.0
 11
1031.57465
 21
-230.538682
 31
0.0
  0
ARC
  5
2A7F
100
AcDbEntity
  8
0
  6
BYBLOCK
 62
     1
100
AcDbCircle
 10
1078.141417
 20
-230.538682
 30
0.0
 40
44.566767
100
AcDbArc
 50
107.571449
 51
177.428551
  0
INSERT
  5
2A80
100
AcDbEntity
  8
0
  6
BYBLOCK
 62
     1
100
AcDbBlockReference
  2
_OPEN30
 10
1066.606689
 20
-187.490491
 30
0.0
 41
2.0
 42
2.0
 43
2.0
 50
16.285725
  0
INSERT
  5
2A81
100
AcDbEntity
  8
0
  6
BYBLOCK
 62
     1
100
AcDbBlockReference
  2
_OPEN30
 10
1033.57465
 20
-230.538682
 30
0.0
 41
2.0
 42
2.0
 43
2.0
 50
268.714275
  0
MTEXT
  5
2A82
100
AcDbEntity
  8
0
  6
BYBLOCK
 62
     3
100
AcDbMText
 10
1040.800841
 20
-201.88625
 30
0.0
 40
3.0
 41
0.0
 71
     5
 72
     1
  1
\A1;75°
 11
0.608761
 21
0.793353
 31
0.0
  0
POINT
  5
2A83
100
AcDbEntity
  8
DEFPOINTS
  6
BYBLOCK
 62
     0
100
AcDbPoint
 10
1049.494452
 20
-196.398558
 30
0.0
  0
POINT
  5
2A84
100
AcDbEntity
  8
DEFPOINTS
  6
BYBLOCK
 62
     0
100
AcDbPoint
 10
1074.902591
 20
-218.45122
 30
0.0
  0
POINT
  5
2A85
100
AcDbEntity
  8
DEFPOINTS
  6
BYBLOCK
 62
     0
100
AcDbPoint
 10
1078.755279
 20
-230.538682
 30
0.0
  0
POINT
  5
2A86
100
AcDbEntity
  8
DEFPOINTS
  6
BYBLOCK
 62
     0
100
AcDbPoint
 10
1078.141417
 20
-230.538682
 30
0.0
  0
POINT
  5
2A87
100
AcDbEntity
  8
DEFPOINTS
  6
BYBLOCK
 62
     0
100
AcDbPoint
 10
1077.982538
 20
-229.945737
 30
0.0
  0
ENDBLK
  5
2A88
100
AcDbEntity
  8
0
100
AcDbBlockEnd
  0
BLOCK
  5
2874
100
AcDbEntity
  8
0
100
AcDbBlockBegin
  2
*D17
 70
     1
 10
0.0
 20
0.0
 30
0.0
  3
*D17
  1

  0
LINE
  5
2875
100
AcDbEntity
  8
0
  6
BYBLOCK
 62
     1
100
AcDbLine
 10
1069.801824
 20
-281.132858
 30
0.0
 11
1049.779526
 21
-281.132858
 31
0.0
  0
LINE
  5
2876
100
AcDbEntity
  8
0
  6
BYBLOCK
 62
     1
100
AcDbLine
 10
1077.146896
 20
-281.237391
 30
0.0
 11
1049.934907
 21
-284.097595
 31
0.0
  0
ARC
  5
2877
100
AcDbEntity
  8
0
  6
BYBLOCK
 62
     1
100
AcDbCircle
 10
1078.141417
 20
-281.132858
 30
0.0
 40
26.361891
100
AcDbArc
 50
171.29791
 51
180.0
  0
LINE
  5
2878
100
AcDbEntity
  8
0
  6
BYBLOCK
 62
     1
100
AcDbLine
 10
1052.082994
 20
-277.144387
 30
0.0
 11
1053.384147
 21
-268.643387
 31
0.0
  0
ARC
  5
2879
100
AcDbEntity
  8
0
  6
BYBLOCK
 62
     1
100
AcDbCircle
 10
1078.141417
 20
-281.132858
 30
0.0
 40
26.361891
100
AcDbArc
 50
171.304185
 51
175.652093
  0
ARC
  5
287A
100
AcDbEntity
  8
0
  6
BYBLOCK
 62
     1
100
AcDbCircle
 10
1078.141417
 20
-281.132858
 30
0.0
 40
26.361891
100
AcDbArc
 50
190.348134
 51
194.696041
  0
ARC
  5
287B
100
AcDbEntity
  8
0
  6
BYBLOCK
 62
     1
100
AcDbCircle
 10
1078.141417
 20
-281.132858
 30
0.0
 40
26.361891
100
AcDbArc
 50
180.0
 51
186.000226
  0
INSERT
  5
287C
100
AcDbEntity
  8
0
  6
BYBLOCK
 62
     1
100
AcDbBlockReference
  2
_OPEN30
 10
1051.779526
 20
-281.132858
 30
0.0
 41
2.0
 42
2.0
 43
2.0
 50
267.826046
  0
INSERT
  5
287D
100
AcDbEntity
  8
0
  6
BYBLOCK
 62
     1
100
AcDbBlockReference
  2
_OPEN30
 10
1051.92395
 20
-283.88853
 30
0.0
 41
2.0
 42
2.0
 43
2.0
 50
98.17418
  0
MTEXT
  5
287E
100
AcDbEntity
  8
0
  6
BYBLOCK
 62
     3
100
AcDbMText
 10
1055.204792
 20
-273.272129
 30
0.0
 40
3.0
 41
0.0
 71
     5
 72
     1
  1
\A1;6°
 11
-0.151297
 21
-0.988488
 31
0.0
  0
POINT
  5
287F
100
AcDbEntity
  8
DEFPOINTS
  6
BYBLOCK
 62
     0
100
AcDbPoint
 10
1051.843747
 20
-282.97184
 30
0.0
  0
POINT
  5
2880
100
AcDbEntity
  8
DEFPOINTS
  6
BYBLOCK
 62
     0
100
AcDbPoint
 10
1078.141417
 20
-281.132858
 30
0.0
  0
POINT
  5
2881
100
AcDbEntity
  8
DEFPOINTS
  6
BYBLOCK
 62
     0
100
AcDbPoint
 10
1384.804696
 20
-281.132858
 30
0.0
  0
POINT
  5
2882
100
AcDbEntity
  8
DEFPOINTS
  6
BYBLOCK
 62
     0
100
AcDbPoint
 10
1070.801824
 20
-281.132858
 30
0.0
  0
POINT
  5
2883
100
AcDbEntity
  8
DEFPOINTS
  6
BYBLOCK
 62
     0
100
AcDbPoint
 10
1097.164398
 20
-279.133386
 30
0.0
  0
ENDBLK
  5
2884
100
AcDbEntity
  8
0
100
AcDbBlockEnd
  0
BLOCK
  5
2998
100
AcDbEntity
  8
0
100
AcDbBlockBegin
  2
*D19
 70
     1
 10
0.0
 20
0.0
 30
0.0
  3
*D19
  1

  0
LINE
  5
2999
100
AcDbEntity
  8
0
  6
BYBLOCK
 62
     1
100
AcDbLine
 10
1276.794888
 20
-174.530968
 30
0.0
 11
1283.054521
 21
-184.768985
 31
0.0
  0
LINE
  5
299A
100
AcDbEntity
  8
0
  6
BYBLOCK
 62
     1
100
AcDbLine
 10
1306.006511
 20
-222.308379
 30
0.0
 11
1307.049784
 21
-224.014715
 31
0.0
  0
MTEXT
  5
299B
100
AcDbEntity
  8
0
  6
BYBLOCK
 62
     3
100
AcDbMText
 10
1281.535988
 20
-177.492718
 30
0.0
 40
3.0
 41
0.0
 71
     5
 72
     1
  1
\A1;\U+220540
 11
0.521636
 21
-0.853168
 31
0.0
  0
LINE
  5
299C
100
AcDbEntity
  8
0
  6
BYBLOCK
 62
     1
100
AcDbLine
 10
1304.963239
 20
-220.602043
 30
0.0
 11
1284.097793
 21
-186.475321
 31
0.0
  0
INSERT
  5
299D
100
AcDbEntity
  8
0
  6
BYBLOCK
 62
     1
100
AcDbBlockReference
  2
_OPEN30
 10
1304.963239
 20
-220.602043
 30
0.0
 41
2.0
 42
2.0
 43
2.0
 50
121.442065
  0
INSERT
  5
299E
100
AcDbEntity
  8
0
  6
BYBLOCK
 62
     1
100
AcDbBlockReference
  2
_OPEN30
 10
1284.097793
 20
-186.475321
 30
0.0
 41
2.0
 42
2.0
 43
2.0
 50
301.442065
  0
POINT
  5
299F
100
AcDbEntity
  8
DEFPOINTS
  6
BYBLOCK
 62
     0
100
AcDbPoint
 10
1284.097793
 20
-186.475321
 30
0.0
  0
POINT
  5
29A0
100
AcDbEntity
  8
DEFPOINTS
  6
BYBLOCK
 62
     0
100
AcDbPoint
 10
1304.963239
 20
-220.602043
 30
0.0
  0
ENDBLK
  5
29A1
100
AcDbEntity
  8
0
100
AcDbBlockEnd
  0
ENDSEC
  0
SECTION
  2
ENTITIES
  0
DIMENSION
  5
26ED
100
AcDbEntity
  8
寸法
  6
CONTINUOUS
100
AcDbDimension
  2
*D17
 10
294.880653
 20
-279.133386
 30
0.0
 11
252.921047
 21
-273.272129
 31
0.0
 12
-802.283745
 22
0.0
 32
0.0
 70
    34
  3
STANDARD
100
AcDb2LineAngularDimension
 13
582.520951
 23
-281.132858
 33
0.0
 14
268.518079
 24
-281.132858
 34
0.0
 15
275.857672
 25
-281.132858
 35
0.0
 16
249.560002
 26
-282.97184
 36
0.0
1001
ACAD
1000
DSTYLE
1002
{
1070
    40
1040
1.0
1002
}
  0
TEXT
  5
26EE
100
AcDbEntity
  8
外形
  6
CONTINUOUS
 62
     2
100
AcDbText
 10
423.593342
 20
-330.072889
 30
0.0
 40
6.0
  1
BSKN440R
100
AcDbText
  0
LINE
  5
26F3
100
AcDbEntity
  8
外形
  6
CENTER
 62
     1
100
AcDbLine
 10
582.520951
 20
-281.132858
 30
0.0
 11
268.518079
 21
-281.132858
 31
0.0
  0
DIMENSION
  5
26F6
100
AcDbEntity
  8
寸法
  6
CONTINUOUS
100
AcDbDimension
  2
*D6
 10
295.857672
 20
-312.406209
 30
0.0
 11
285.857672
 21
-309.906209
 31
0.0
 12
-802.283745
 22
0.0
 32
0.0
 70
    32
  3
STANDARD
100
AcDbAlignedDimension
 13
275.857672
 23
-281.132858
 33
0.0
 14
295.857672
 24
-302.791452
 34
0.0
100
AcDbRotatedDimension
1001
ACAD
1000
DSTYLE
1002
{
1070
    40
1040
1.0
1002
}
  0
LINE
  5
26FB
100
AcDbEntity
  8
外形
  6
CONTINUOUS
100
AcDbLine
 10
295.857672
 20
-278.342468
 30
0.0
 11
295.857672
 21
-302.791452
 31
0.0
  0
LINE
  5
26FD
100
AcDbEntity
  8
外形
  6
CONTINUOUS
100
AcDbLine
 10
275.857672
 20
-281.132858
 30
0.0
 11
294.400314
 21
-279.183874
 31
0.0
  0
LINE
  5
26FE
100
AcDbEntity
  8
外形
  6
CONTINUOUS
100
AcDbLine
 10
285.051505
 20
-277.761692
 30
0.0
 11
287.925152
 21
-279.864467
 31
0.0
  0
LINE
  5
26FF
100
AcDbEntity
  8
外形
  6
CONTINUOUS
100
AcDbLine
 10
273.564281
 20
-286.79508
 30
0.0
 11
272.822725
 21
-278.912054
 31
0.0
  0
LINE
  5
2700
100
AcDbEntity
  8
外形
  6
CONTINUOUS
100
AcDbLine
 10
272.822725
 20
-278.912054
 30
0.0
 11
275.857672
 21
-281.132858
 31
0.0
  0
LINE
  5
2701
100
AcDbEntity
  8
外形
  6
CONTINUOUS
100
AcDbLine
 10
295.857672
 20
-302.791452
 30
0.0
 11
294.400314
 21
-303.632858
 31
0.0
  0
LINE
  5
2702
100
AcDbEntity
  8
外形
  6
CONTINUOUS
100
AcDbLine
 10
274.651183
 20
-300.385714
 30
0.0
 11
273.564281
 21
-286.79508
 31
0.0
  0
LINE
  5
2703
100
AcDbEntity
  8
外形
  6
CONTINUOUS
100
AcDbLine
 10
277.7936
 20
-303.632858
 30
0.0
 11
276.626195
 21
-289.035617
 31
0.0
  0
LINE
  5
2704
100
AcDbEntity
  8
外形
  6
CONTINUOUS
100
AcDbLine
 10
294.400314
 20
-303.632858
 30
0.0
 11
277.7936
 21
-303.632858
 31
0.0
  0
LINE
  5
2705
100
AcDbEntity
  8
外形
  6
CONTINUOUS
100
AcDbLine
 10
274.651183
 20
-300.385714
 30
0.0
 11
277.7936
 21
-303.632858
 31
0.0
  0
LINE
  5
2706
100
AcDbEntity
  8
外形
  6
CONTINUOUS
100
AcDbLine
 10
276.626195
 20
-289.035617
 30
0.0
 11
288.656316
 21
-287.903944
 31
0.0
  0
LINE
  5
2707
100
AcDbEntity
  8
外形
  6
CONTINUOUS
100
AcDbLine
 10
276.303477
 20
-285.871936
 30
0.0
 11
288.383378
 21
-284.73558
 31
0.0
  0
LINE
  5
2708
100
AcDbEntity
  8
外形
  6
CONTINUOUS
100
AcDbLine
 10
273.26853
 20
-283.651131
 30
0.0
 11
276.303477
 21
-285.871936
 31
0.0
  0
LINE
  5
2709
100
AcDbEntity
  8
外形
  6
CONTINUOUS
100
AcDbLine
 10
276.303477
 20
-285.871936
 30
0.0
 11
275.857672
 21
-281.132858
 31
0.0
  0
LINE
  5
270A
100
AcDbEntity
  8
外形
  6
CONTINUOUS
100
AcDbLine
 10
273.564281
 20
-286.79508
 30
0.0
 11
276.626195
 21
-289.035617
 31
0.0
  0
LINE
  5
270B
100
AcDbEntity
  8
外形
  6
CONTINUOUS
100
AcDbLine
 10
276.626195
 20
-289.035617
 30
0.0
 11
276.328367
 21
-285.869595
 31
0.0
  0
LINE
  5
270C
100
AcDbEntity
  8
外形
  6
CONTINUOUS
100
AcDbLine
 10
288.656316
 20
-287.903944
 30
0.0
 11
288.358488
 21
-284.737921
 31
0.0
  0
LINE
  5
270D
100
AcDbEntity
  8
外形
  6
CONTINUOUS
100
AcDbLine
 10
288.383378
 20
-284.73558
 30
0.0
 11
287.925152
 21
-279.864467
 31
0.0
  0
LINE
  5
270E
100
AcDbEntity
  8
外形
  6
CONTINUOUS
100
AcDbLine
 10
295.857672
 20
-278.342468
 30
0.0
 11
294.400314
 21
-279.183874
 31
0.0
  0
SPLINE
  5
270F
100
AcDbEntity
  8
外形
  6
CONTINUOUS
100
AcDbSpline
210
0.0
220
0.0
230
1.0
 70
     8
 71
     3
 72
    11
 73
     7
 74
     0
 42
0.0000001
 43
0.0000001
 40
0.0
 40
0.0
 40
0.0
 40
0.0
 40
3.892258162230274
 40
8.09442621657274
 40
12.52362362738877
 40
17.20547155657414
 40
17.20547155657414
 40
17.20547155657414
 40
17.20547155657414
 10
325.8576719743018
 20
-261.432858335335
 30
0.0
 10
325.1011322284655
 20
-262.5008083753888
 30
0.0
 10
323.5278154294926
 20
-264.7217409142644
 30
0.0
 10
319.8080994294334
 20
-266.8935355411987
 30
0.0
 10
313.4243285607956
 20
-267.7935297369698
 30
0.0
 10
277.4202905436102
 20
-275.3508902509043
 30
0.0
 10
275.8576719743018
 20
-276.1164829550683
 30
0.0
  0
LINE
  5
2710
100
AcDbEntity
  8
外形
  6
CONTINUOUS
100
AcDbLine
 10
272.822725
 20
-278.912054
 30
0.0
 11
285.051505
 21
-277.761692
 31
0.0
  0
LINE
  5
2711
100
AcDbEntity
  8
外形
  6
CONTINUOUS
100
AcDbLine
 10
275.857672
 20
-278.623828
 30
0.0
 11
275.857672
 21
-276.116483
 31
0.0
  0
ARC
  5
2712
100
AcDbEntity
  8
外形
  6
CONTINUOUS
100
AcDbCircle
 10
310.857672
 20
-261.432858
 30
0.0
 40
15.0
100
AcDbArc
 50
313.1267
 51
0.0
  0
SPLINE
  5
2713
100
AcDbEntity
  8
外形
  6
CONTINUOUS
100
AcDbSpline
210
-0.2297617725195244
220
0.9732468997580657
230
0.0
 70
    24
 71
     3
 72
     8
 73
     4
 74
     2
 42
0.0000001
 43
0.0000001
 44
0.0000000001
 40
0.0
 40
0.0
 40
0.0
 40
0.0
 40
25.94840979321523
 40
25.94840979321523
 40
25.94840979321523
 40
25.94840979321523
 10
321.1118813592008
 20
-272.3805151572604
 30
0.0
 10
312.6938115642346
 20
-274.3678326999778
 30
0.0
 10
304.2757417692685
 20
-276.3551502426952
 30
0.0
 10
295.8576719743023
 20
-278.3424677854125
 30
0.0
 11
321.1118813592008
 21
-272.3805151572604
 31
0.0
 11
295.8576719743023
 21
-278.3424677854125
 31
0.0
  0
LINE
  5
2716
100
AcDbEntity
  8
外形
  6
CONTINUOUS
100
AcDbLine
 10
341.357672
 20
-300.832858
 30
0.0
 11
341.957672
 21
-300.532858
 31
0.0
  0
LINE
  5
2719
100
AcDbEntity
  8
外形
  6
CONTINUOUS
100
AcDbLine
 10
341.357672
 20
-261.432858
 30
0.0
 11
341.957672
 21
-261.732858
 31
0.0
  0
LINE
  5
271B
100
AcDbEntity
  8
外形
  6
CONTINUOUS
100
AcDbLine
 10
575.857672
 20
-264.632858
 30
0.0
 11
575.857672
 21
-297.632858
 31
0.0
  0
LINE
  5
271C
100
AcDbEntity
  8
外形
  6
CONTINUOUS
100
AcDbLine
 10
573.857672
 20
-288.7322
 30
0.0
 11
573.857672
 21
-299.632858
 31
0.0
  0
LINE
  5
271D
100
AcDbEntity
  8
外形
  6
CONTINUOUS
100
AcDbLine
 10
573.857672
 20
-299.632858
 30
0.0
 11
573.857672
 21
-288.7322
 31
0.0
  0
LINE
  5
271E
100
AcDbEntity
  8
外形
  6
CONTINUOUS
100
AcDbLine
 10
573.857672
 20
-299.632858
 30
0.0
 11
575.857672
 21
-297.632858
 31
0.0
  0
LINE
  5
271F
100
AcDbEntity
  8
外形
  6
CONTINUOUS
100
AcDbLine
 10
573.857672
 20
-262.632858
 30
0.0
 11
573.857672
 21
-273.533516
 31
0.0
  0
LINE
  5
2720
100
AcDbEntity
  8
外形
  6
CONTINUOUS
100
AcDbLine
 10
573.857672
 20
-262.632858
 30
0.0
 11
575.857672
 21
-264.632858
 31
0.0
  0
LINE
  5
2725
102
{ACAD_REACTORS
330
2BA3
102
}
100
AcDbEntity
  8
外形
  6
CENTER
 62
     1
100
AcDbLine
 10
582.520951
 20
-203.538682
 30
0.0
 11
268.518079
 21
-203.538682
 31
0.0
  0
DIMENSION
  5
2726
100
AcDbEntity
  8
寸法
  6
CONTINUOUS
100
AcDbDimension
  2
*D2
 10
575.857672
 20
-243.500307
 30
0.0
 11
425.857672
 21
-241.000307
 31
0.0
 12
-802.283745
 22
0.0
 32
0.0
 70
    32
  3
STANDARD
100
AcDbAlignedDimension
 13
275.857672
 23
-230.538682
 33
0.0
 14
575.857672
 24
-220.038682
 34
0.0
100
AcDbRotatedDimension
1001
ACAD
1000
DSTYLE
1002
{
1070
    40
1040
1.0
1002
}
  0
LEADER
  5
2727
100
AcDbEntity
  8
寸法
  6
CONTINUOUS
 62
     1
100
AcDbLeader
  3
STANDARD
 73
     0
 74
     0
 75
     1
 40
3.0
 41
26.0
 76
     3
 10
182.566843
 20
-178.976407
 30
0.0
 10
192.48525
 20
-163.956715
 30
0.0
 10
194.48525
 20
-163.956715
 30
0.0
 77
   256
340
2762
1001
ACAD
1000
DSTYLE
1002
{
1070
    40
1040
1.0
1002
}
  0
DIMENSION
  5
2728
100
AcDbEntity
  8
寸法
  6
CONTINUOUS
100
AcDbDimension
  2
*D11
 10
171.35548
 20
-230.538682
 30
0.0
 11
162.233347
 21
-234.155092
 31
0.0
 12
-374.062718
 22
-5.0
 32
0.0
 70
    34
  3
STANDARD
100
AcDb2LineAngularDimension
 13
176.325012
 23
-202.355066
 33
0.0
 14
171.35548
 24
-230.538682
 34
0.0
 15
171.35548
 25
-181.027047
 35
0.0
 16
170.749885
 26
-240.936346
 36
0.0
1001
ACAD
1000
DSTYLE
1002
{
1070
    40
1040
1.0
1002
}
  0
LINE
  5
2729
100
AcDbEntity
  8
外形
  6
CENTER
 62
     1
100
AcDbLine
 10
171.35548
 20
-172.742495
 30
0.0
 11
171.35548
 21
-230.942829
 31
0.0
  0
DIMENSION
  5
272B
100
AcDbEntity
  8
寸法
  6
CONTINUOUS
100
AcDbDimension
  2
*D14
 10
275.698793
 20
-229.945737
 30
0.0
 11
238.517095
 21
-201.88625
 31
0.0
 12
-802.283745
 22
0.0
 32
0.0
 70
    34
  3
STANDARD
100
AcDb2LineAngularDimension
 13
276.471534
 23
-230.538682
 33
0.0
 14
275.857672
 24
-230.538682
 34
0.0
 15
272.618846
 25
-218.45122
 35
0.0
 16
247.210707
 26
-196.398558
 36
0.0
1001
ACAD
1000
DSTYLE
1002
{
1070
    40
1040
1.0
1002
}
  0
DIMENSION
  5
272D
100
AcDbEntity
  8
寸法
  6
CONTINUOUS
100
AcDbDimension
  2
*D8
 10
262.249057
 20
-203.538682
 30
0.0
 11
259.749057
 21
-217.038682
 31
0.0
 12
-802.283745
 22
0.0
 32
0.0
 70
    32
  3
STANDARD
100
AcDbAlignedDimension
 13
275.857672
 23
-230.538682
 33
0.0
 14
268.518079
 24
-203.538682
 34
0.0
 50
90.0
100
AcDbRotatedDimension
1001
ACAD
1000
DSTYLE
1002
{
1070
    40
1040
1.0
1002
}
  0
LINE
  5
2733
100
AcDbEntity
  8
外形
  6
CONTINUOUS
100
AcDbLine
 10
165.663111
 20
-217.097074
 30
0.0
 11
163.540448
 21
-229.135295
 31
0.0
  0
LINE
  5
2734
100
AcDbEntity
  8
外形
  6
CONTINUOUS
100
AcDbLine
 10
168.7948
 20
-217.649275
 30
0.0
 11
166.667795
 21
-229.712117
 31
0.0
  0
LINE
  5
2735
100
AcDbEntity
  8
外形
  6
CONTINUOUS
100
AcDbLine
 10
179.348939
 20
-185.205526
 30
0.0
 11
171.35548
 21
-230.538682
 31
0.0
  0
LINE
  5
2736
100
AcDbEntity
  8
外形
  6
CONTINUOUS
100
AcDbLine
 10
166.667795
 20
-229.712117
 30
0.0
 11
171.35548
 21
-230.538682
 31
0.0
  0
LINE
  5
2738
100
AcDbEntity
  8
外形
  6
CONTINUOUS
100
AcDbLine
 10
163.540448
 20
-229.135295
 30
0.0
 11
166.672137
 21
-229.687496
 31
0.0
  0
LINE
  5
273B
100
AcDbEntity
  8
外形
  6
CONTINUOUS
100
AcDbLine
 10
168.799141
 20
-217.624655
 30
0.0
 11
173.486826
 21
-218.45122
 31
0.0
  0
LINE
  5
273C
100
AcDbEntity
  8
外形
  6
CENTER
 62
     1
100
AcDbLine
 10
196.467634
 20
-203.538682
 30
0.0
 11
144.911862
 21
-203.538682
 31
0.0
  0
LINE
  5
273E
100
AcDbEntity
  8
外形
  6
CONTINUOUS
100
AcDbLine
 10
165.663111
 20
-217.097074
 30
0.0
 11
168.7948
 21
-217.649275
 31
0.0
  0
LINE
  5
2745
100
AcDbEntity
  8
外形
  6
CONTINUOUS
100
AcDbLine
 10
287.966051
 20
-226.658735
 30
0.0
 11
285.093159
 21
-215.936959
 31
0.0
  0
LINE
  5
2746
100
AcDbEntity
  8
外形
  6
CONTINUOUS
100
AcDbLine
 10
272.457672
 20
-217.849709
 30
0.0
 11
275.698793
 21
-229.945737
 31
0.0
  0
CIRCLE
  5
2748
100
AcDbEntity
  8
外形
  6
CONTINUOUS
100
AcDbCircle
 10
280.395976
 20
-222.941348
 30
0.0
 40
2.58
  0
CIRCLE
  5
2749
100
AcDbEntity
  8
外形
  6
CONTINUOUS
100
AcDbCircle
 10
280.395976
 20
-222.941348
 30
0.0
 40
2.35
  0
LINE
  5
274B
100
AcDbEntity
  8
外形
  6
CONTINUOUS
100
AcDbLine
 10
294.400314
 20
-225.762901
 30
0.0
 11
295.568997
 21
-223.738682
 31
0.0
  0
LINE
  5
274D
100
AcDbEntity
  8
外形
  6
CONTINUOUS
100
AcDbLine
 10
276.678589
 20
-230.511423
 30
0.0
 11
294.400314
 21
-225.762901
 31
0.0
  0
LINE
  5
274E
100
AcDbEntity
  8
外形
  6
CONTINUOUS
 62
     1
100
AcDbLine
 10
276.471534
 20
-230.538682
 30
0.0
 11
275.857672
 21
-230.538682
 31
0.0
  0
LINE
  5
274F
100
AcDbEntity
  8
外形
  6
CONTINUOUS
 62
     1
100
AcDbLine
 10
275.698793
 20
-229.945737
 30
0.0
 11
275.857672
 21
-230.538682
 31
0.0
  0
LINE
  5
2750
100
AcDbEntity
  8
外形
  6
CONTINUOUS
100
AcDbLine
 10
276.471534
 20
-230.538682
 30
0.0
 11
276.471534
 21
-230.538682
 31
0.0
  0
ARC
  5
2751
100
AcDbEntity
  8
外形
  6
CONTINUOUS
100
AcDbCircle
 10
276.471534
 20
-229.738682
 30
0.0
 40
0.8
100
AcDbArc
 50
195.0
 51
285.0
  0
ARC
  5
2752
100
AcDbEntity
  8
外形
  6
CONTINUOUS
100
AcDbCircle
 10
287.19331
 20
-226.865791
 30
0.0
 40
0.8
100
AcDbArc
 50
285.0
 51
15.0
  0
LINE
  5
2759
100
AcDbEntity
  8
外形
  6
CONTINUOUS
100
AcDbLine
 10
284.113364
 20
-215.371273
 30
0.0
 11
272.618846
 21
-218.45122
 31
0.0
  0
ARC
  5
275A
100
AcDbEntity
  8
外形
  6
CONTINUOUS
100
AcDbCircle
 10
273.598642
 20
-219.016905
 30
0.0
 40
0.8
100
AcDbArc
 50
105.0
 51
195.0
  0
ARC
  5
275B
100
AcDbEntity
  8
外形
  6
CONTINUOUS
100
AcDbCircle
 10
285.533152
 20
-217.579033
 30
0.0
 40
2.5
100
AcDbArc
 50
285.0
 51
116.843305
  0
ARC
  5
275C
100
AcDbEntity
  8
外形
  6
CONTINUOUS
100
AcDbCircle
 10
284.320419
 20
-216.144014
 30
0.0
 40
0.8
100
AcDbArc
 50
15.0
 51
105.0
  0
LINE
  5
275E
100
AcDbEntity
  8
外形
  6
CONTINUOUS
100
AcDbLine
 10
289.258565
 20
-183.838682
 30
0.0
 11
272.457672
 21
-193.538682
 31
0.0
  0
LINE
  5
2761
100
AcDbEntity
  8
外形
  6
CONTINUOUS
100
AcDbLine
 10
341.357672
 20
-183.838682
 30
0.0
 11
341.957672
 21
-183.538682
 31
0.0
  0
MTEXT
  5
2762
102
{ACAD_REACTORS
330
2727
102
}
100
AcDbEntity
  8
寸法
  6
CONTINUOUS
 62
     3
100
AcDbMText
 10
195.48525
 20
-161.456715
 30
0.0
 40
3.0
 41
0.0
 71
     4
 72
     1
  1
%%C54最小加工径
  0
LINE
  5
276A
102
{ACAD_REACTORS
330
2BA3
102
}
100
AcDbEntity
  8
外形
  6
CENTER
 62
     1
100
AcDbLine
 10
492.246771
 20
-180.795037
 30
0.0
 11
492.246771
 21
-225.837509
 31
0.0
  0
DIMENSION
  5
276B
100
AcDbEntity
  8
寸法
  6
CONTINUOUS
100
AcDbDimension
  2
*D10
 10
473.746771
 20
-234.369722
 30
0.0
 11
492.246771
 21
-231.869722
 31
0.0
 12
-802.283745
 22
0.0
 32
0.0
 70
    32
  3
STANDARD
100
AcDbAlignedDimension
 13
510.746771
 23
-211.138024
 33
0.0
 14
473.746771
 24
-211.138024
 34
0.0
100
AcDbRotatedDimension
1001
ACAD
1000
DSTYLE
1002
{
1070
    40
1040
1.0
1002
}
  0
LINE
  5
2773
100
AcDbEntity
  8
外形
  6
CONTINUOUS
100
AcDbLine
 10
575.857672
 20
-185.538682
 30
0.0
 11
575.857672
 21
-220.038682
 31
0.0
  0
LINE
  5
2774
100
AcDbEntity
  8
外形
  6
CONTINUOUS
100
AcDbLine
 10
573.857672
 20
-211.138024
 30
0.0
 11
573.857672
 21
-222.038682
 31
0.0
  0
LINE
  5
2775
100
AcDbEntity
  8
外形
  6
CONTINUOUS
100
AcDbLine
 10
575.857672
 20
-220.038682
 30
0.0
 11
573.857672
 21
-222.038682
 31
0.0
  0
LINE
  5
2776
100
AcDbEntity
  8
外形
  6
CONTINUOUS
100
AcDbLine
 10
573.857672
 20
-183.538682
 30
0.0
 11
575.857672
 21
-185.538682
 31
0.0
  0
LINE
  5
2777
100
AcDbEntity
  8
外形
  6
CONTINUOUS
100
AcDbLine
 10
573.857672
 20
-183.538682
 30
0.0
 11
573.857672
 21
-195.93934
 31
0.0
  0
ARC
  5
2890
102
{ACAD_REACTORS
330
2BA3
102
}
100
AcDbEntity
  8
外形
  6
CONTINUOUS
100
AcDbCircle
 10
492.246771
 20
-203.538682
 30
0.0
 40
20.0
100
AcDbArc
 50
202.331645
 51
247.668355
  0
LINE
  5
28A1
100
AcDbEntity
  8
外形
  6
CONTINUOUS
100
AcDbLine
 10
341.957672
 20
-183.538682
 30
0.0
 11
471.596771
 21
-183.538682
 31
0.0
  0
LINE
  5
28A2
100
AcDbEntity
  8
外形
  6
CONTINUOUS
100
AcDbLine
 10
341.357672
 20
-195.93934
 30
0.0
 11
471.596771
 21
-195.93934
 31
0.0
  0
LINE
  5
28A3
100
AcDbEntity
  8
外形
  6
CONTINUOUS
100
AcDbLine
 10
341.357672
 20
-211.138024
 30
0.0
 11
471.596771
 21
-211.138024
 31
0.0
  0
ARC
  5
28A4
102
{ACAD_REACTORS
330
2BA3
102
}
100
AcDbEntity
  8
外形
  6
CONTINUOUS
100
AcDbCircle
 10
492.246771
 20
-203.538682
 30
0.0
 40
20.0
100
AcDbArc
 50
22.331645
 51
157.668355
  0
LINE
  5
28A6
100
AcDbEntity
  8
外形
  6
CONTINUOUS
100
AcDbLine
 10
341.357672
 20
-183.838682
 30
0.0
 11
289.258565
 21
-183.838682
 31
0.0
  0
LINE
  5
28A9
100
AcDbEntity
  8
外形
  6
CONTINUOUS
100
AcDbLine
 10
341.357672
 20
-223.238682
 30
0.0
 11
296.435022
 21
-223.238682
 31
0.0
  0
LINE
  5
2931
100
AcDbEntity
  8
外形
  6
CONTINUOUS
100
AcDbLine
 10
341.957672
 20
-183.538682
 30
0.0
 11
341.957672
 21
-195.93934
 31
0.0
  0
LINE
  5
2932
100
AcDbEntity
  8
外形
  6
CONTINUOUS
100
AcDbLine
 10
573.857672
 20
-222.038682
 30
0.0
 11
512.896771
 21
-222.038682
 31
0.0
  0
ARC
  5
293E
100
AcDbEntity
  8
外形
  6
CONTINUOUS
100
AcDbCircle
 10
555.357672
 20
-203.538682
 30
0.0
 40
20.0
100
AcDbArc
 50
337.668355
 51
22.331645
  0
ARC
  5
2955
102
{ACAD_REACTORS
330
2BA3
102
}
100
AcDbEntity
  8
外形
  6
CONTINUOUS
100
AcDbCircle
 10
492.246771
 20
-203.538682
 30
0.0
 40
20.0
100
AcDbArc
 50
292.331645
 51
337.668355
  0
LINE
  5
2956
100
AcDbEntity
  8
外形
  6
CONTINUOUS
100
AcDbLine
 10
341.357672
 20
-183.838682
 30
0.0
 11
341.357672
 21
-196.768158
 31
0.0
  0
LINE
  5
2958
100
AcDbEntity
  8
外形
  6
CONTINUOUS
100
AcDbLine
 10
341.357672
 20
-210.309206
 30
0.0
 11
341.357672
 21
-223.238682
 31
0.0
  0
LINE
  5
2959
100
AcDbEntity
  8
外形
  6
CONTINUOUS
100
AcDbLine
 10
341.957672
 20
-211.138024
 30
0.0
 11
341.957672
 21
-222.938682
 31
0.0
  0
LINE
  5
295B
100
AcDbEntity
  8
外形
  6
CONTINUOUS
100
AcDbLine
 10
573.857672
 20
-299.632858
 30
0.0
 11
341.957672
 21
-299.632858
 31
0.0
  0
LINE
  5
295C
100
AcDbEntity
  8
外形
  6
CONTINUOUS
100
AcDbLine
 10
573.857672
 20
-262.632858
 30
0.0
 11
341.957672
 21
-262.632858
 31
0.0
  0
LINE
  5
2973
102
{ACAD_REACTORS
330
2BA3
102
}
100
AcDbEntity
  8
外形
  6
CONTINUOUS
100
AcDbLine
 10
473.746771
 20
-195.93934
 30
0.0
 11
473.746771
 21
-211.138024
 31
0.0
  0
LINE
  5
2974
102
{ACAD_REACTORS
330
2BA3
102
}
100
AcDbEntity
  8
外形
  6
CONTINUOUS
100
AcDbLine
 10
510.746771
 20
-195.93934
 30
0.0
 11
510.746771
 21
-211.138024
 31
0.0
  0
LINE
  5
298B
100
AcDbEntity
  8
外形
  6
CONTINUOUS
100
AcDbLine
 10
341.357672
 20
-196.768158
 30
0.0
 11
325.857672
 21
-196.768158
 31
0.0
  0
LINE
  5
298C
100
AcDbEntity
  8
外形
  6
CONTINUOUS
100
AcDbLine
 10
341.357672
 20
-210.309206
 30
0.0
 11
325.857672
 21
-210.309206
 31
0.0
  0
DIMENSION
  5
2997
100
AcDbEntity
  8
寸法
  6
CONTINUOUS
100
AcDbDimension
  2
*D19
 10
502.679494
 20
-220.602043
 30
0.0
 11
477.119323
 21
-178.796808
 31
0.0
 12
-802.283745
 22
0.0
 32
0.0
 70
   163
  3
STANDARD
100
AcDbDiametricDimension
 15
481.814048
 25
-186.475321
 35
0.0
 40
0.0
1001
ACAD
1000
DSTYLE
1002
{
1070
    40
1040
1.0
1002
}
  0
LINE
  5
29EF
100
AcDbEntity
  8
外形
  6
CONTINUOUS
100
AcDbLine
 10
341.357672
 20
-261.432858
 30
0.0
 11
325.857672
 21
-261.432858
 31
0.0
  0
LINE
  5
29F0
100
AcDbEntity
  8
外形
  6
CONTINUOUS
100
AcDbLine
 10
341.357672
 20
-300.832858
 30
0.0
 11
295.857672
 21
-300.832858
 31
0.0
  0
LINE
  5
29F1
100
AcDbEntity
  8
外形
  6
CONTINUOUS
100
AcDbLine
 10
341.957672
 20
-261.732858
 30
0.0
 11
341.957672
 21
-273.533516
 31
0.0
  0
LINE
  5
29F2
100
AcDbEntity
  8
外形
  6
CONTINUOUS
100
AcDbLine
 10
341.357672
 20
-261.432858
 30
0.0
 11
341.357672
 21
-274.362334
 31
0.0
  0
LINE
  5
29F4
100
AcDbEntity
  8
外形
  6
CONTINUOUS
100
AcDbLine
 10
341.357672
 20
-273.533516
 30
0.0
 11
573.857672
 21
-273.533516
 31
0.0
  0
LINE
  5
29F5
100
AcDbEntity
  8
外形
  6
CONTINUOUS
100
AcDbLine
 10
341.357672
 20
-288.7322
 30
0.0
 11
573.857672
 21
-288.7322
 31
0.0
  0
ARC
  5
29F6
100
AcDbEntity
  8
外形
  6
CONTINUOUS
100
AcDbCircle
 10
555.357672
 20
-281.132858
 30
0.0
 40
20.0
100
AcDbArc
 50
337.668355
 51
22.331645
  0
LINE
  5
29F7
100
AcDbEntity
  8
外形
  6
CONTINUOUS
100
AcDbLine
 10
341.357672
 20
-274.362334
 30
0.0
 11
313.010589
 21
-274.362334
 31
0.0
  0
LINE
  5
29F8
100
AcDbEntity
  8
外形
  6
CONTINUOUS
100
AcDbLine
 10
341.357672
 20
-287.903383
 30
0.0
 11
295.857672
 21
-287.903383
 31
0.0
  0
LINE
  5
2A0F
100
AcDbEntity
  8
外形
  6
CONTINUOUS
100
AcDbLine
 10
325.857672
 20
-210.309206
 30
0.0
 11
325.857672
 21
-196.768158
 31
0.0
  0
LINE
  5
2A4E
100
AcDbEntity
  8
外形
  6
CONTINUOUS
100
AcDbLine
 10
272.457672
 20
-193.538682
 30
0.0
 11
272.457672
 21
-217.849709
 31
0.0
  0
ARC
  5
2AAC
100
AcDbEntity
  8
外形
  6
CONTINUOUS
100
AcDbCircle
 10
171.35548
 20
-203.538682
 30
0.0
 40
20.0
100
AcDbArc
 50
273.557733
 51
337.668355
  0
CIRCLE
  5
2AAD
100
AcDbEntity
  8
外形
  6
CENTER
 62
     1
100
AcDbCircle
 10
171.35548
 20
-203.538682
 30
0.0
 40
27.0
  0
ARC
  5
2AE5
100
AcDbEntity
  8
外形
  6
CONTINUOUS
100
AcDbCircle
 10
171.35548
 20
-203.538682
 30
0.0
 40
25.85
100
AcDbArc
 50
209.494124
 51
252.774005
  0
ARC
  5
2AE6
100
AcDbEntity
  8
外形
  6
CONTINUOUS
100
AcDbCircle
 10
171.35548
 20
-206.050317
 30
0.0
 40
22.5
100
AcDbArc
 50
90.0
 51
180.0
  0
LINE
  5
2AF2
100
AcDbEntity
  8
外形
  6
CONTINUOUS
100
AcDbLine
 10
148.85548
 20
-206.050317
 30
0.0
 11
148.85548
 21
-216.265524
 31
0.0
  0
LINE
  5
2B0B
100
AcDbEntity
  8
外形
  6
CONTINUOUS
100
AcDbLine
 10
189.85548
 20
-195.93934
 30
0.0
 11
189.85548
 21
-211.138024
 31
0.0
  0
ARC
  5
2B0C
100
AcDbEntity
  8
外形
  6
CONTINUOUS
100
AcDbCircle
 10
171.35548
 20
-203.538682
 30
0.0
 40
20.0
100
AcDbArc
 50
22.331645
 51
90.0
  0
SPLINE
  5
2B22
100
AcDbEntity
  8
外形
  6
CONTINUOUS
100
AcDbSpline
210
0.0
220
0.0
230
-1.0
 70
     8
 71
     3
 72
     9
 73
     5
 74
     3
 42
0.0000001
 43
0.0000001
 44
0.0000000001
 40
0.0
 40
0.0
 40
0.0
 40
0.0
 40
31.47050711702554
 40
41.83127223381539
 40
41.83127223381539
 40
41.83127223381539
 40
41.83127223381539
 10
286.8911220762852
 20
-185.205525693638
 30
0.0
 10
298.160454583408
 20
-184.8495409451869
 30
0.0
 10
313.1398927680507
 20
-184.3763583914973
 30
0.0
 10
323.3330354616857
 20
-194.3082321846618
 30
0.0
 10
325.8576719743018
 20
-196.7681576434288
 30
0.0
 11
286.8911220762852
 21
-185.205525693638
 31
0.0
 11
317.990145558102
 21
-190.0266828866944
 31
0.0
 11
325.8576719743018
 21
-196.7681576434288
 31
0.0
  0
LINE
  5
2B4B
100
AcDbEntity
  8
外形
  6
CONTINUOUS
100
AcDbLine
 10
294.400314
 20
-279.183874
 30
0.0
 11
294.400314
 21
-303.632858
 31
0.0
  0
LINE
  5
2B69
100
AcDbEntity
  8
外形
  6
CONTINUOUS
100
AcDbLine
 10
471.596771
 20
-222.038682
 30
0.0
 11
341.957672
 21
-222.038682
 31
0.0
  0
LINE
  5
2B6A
102
{ACAD_REACTORS
330
2BA3
102
}
100
AcDbEntity
  8
外形
  6
CONTINUOUS
100
AcDbLine
 10
499.846113
 20
-222.038682
 30
0.0
 11
484.647429
 21
-222.038682
 31
0.0
  0
LINE
  5
2B6B
100
AcDbEntity
  8
外形
  6
CONTINUOUS
100
AcDbLine
 10
512.896771
 20
-183.538682
 30
0.0
 11
573.857672
 21
-183.538682
 31
0.0
  0
LINE
  5
2B6C
100
AcDbEntity
  8
外形
  6
CONTINUOUS
100
AcDbLine
 10
512.896771
 20
-211.138024
 30
0.0
 11
573.857672
 21
-211.138024
 31
0.0
  0
LINE
  5
2B6D
100
AcDbEntity
  8
外形
  6
CONTINUOUS
100
AcDbLine
 10
512.896771
 20
-195.93934
 30
0.0
 11
573.857672
 21
-195.93934
 31
0.0
  0
HATCH
  5
2BA3
100
AcDbEntity
  8
外形
  6
CONTINUOUS
100
AcDbHatch
 10
0.0
 20
0.0
 30
0.0
210
0.0
220
0.0
230
1.0
  2
ANSI31
 70
     0
 71
     1
 91
        4
 92
        7
 72
     1
 73
     1
 93
        4
 10
492.2467711547735
 20
-183.538681995353
 42
0.0
 10
492.2467711547735
 20
-203.5386819953529
 42
0.0
 10
510.7467711547736
 20
-203.5386819953529
 42
0.0
 10
510.7467711547736
 20
-195.9393399185678
 42
0.3041490459075434
 97
        4
330
276A
330
2725
330
2974
330
28A4
 92
        7
 72
     1
 73
     1
 93
        4
 10
492.2467711547735
 20
-183.538681995353
 42
0.3041490459075424
 10
473.7467711547735
 20
-195.9393399185676
 42
0.0
 10
473.7467711547735
 20
-203.538681995353
 42
0.0
 10
492.2467711547735
 20
-203.538681995353
 42
0.0
 97
        4
330
28A4
330
2973
330
2725
330
276A
 92
        7
 72
     1
 73
     1
 93
        5
 10
492.2467711547736
 20
-203.5386819953531
 42
0.0
 10
473.7467711547735
 20
-203.5386819953531
 42
0.0
 10
473.7467711547735
 20
-211.1380240721383
 42
0.2004401189421239
 10
484.6474290779881
 20
-222.038681995353
 42
0.0
 10
492.2467711547736
 20
-222.038681995353
 42
0.0
 97
        5
330
2725
330
2973
330
2890
330
2B6A
330
276A
 92
        7
 72
     1
 73
     1
 93
        5
 10
492.2467711547735
 20
-222.0386819953529
 42
0.0
 10
499.846113231559
 20
-222.038681995353
 42
0.2004401189421249
 10
510.7467711547736
 20
-211.1380240721383
 42
0.0
 10
510.7467711547736
 20
-203.538681995353
 42
0.0
 10
492.2467711547736
 20
-203.538681995353
 42
0.0
 97
        5
330
2974
330
2725
330
276A
330
2B6A
330
2955
 75
     0
 76
     1
 52
0.0
 41
15.0
 77
     0
 78
     1
 53
45.0
 43
-761.745741
 44
146.919615
 45
-1.325825214724776
 46
1.325825214724776
 79
     0
 47
0.156667
 98
        4
 10
502.849021
 20
-194.014126
 10
491.400481
 20
-190.724115
 10
486.068287
 20
-209.837515
 10
496.575849
 20
-215.477535
  0
LINE
  5
2D85
100
AcDbEntity
  8
外形
  6
CONTINUOUS
100
AcDbLine
 10
341.357672
 20
-223.238682
 30
0.0
 11
341.957672
 21
-222.938682
 31
0.0
  0
LINE
  5
2D86
100
AcDbEntity
  8
外形
  6
CONTINUOUS
100
AcDbLine
 10
341.357672
 20
-287.903383
 30
0.0
 11
341.357672
 21
-300.832858
 31
0.0
  0
LINE
  5
2D87
100
AcDbEntity
  8
外形
  6
CONTINUOUS
100
AcDbLine
 10
341.957672
 20
-288.7322
 30
0.0
 11
341.957672
 21
-300.532858
 31
0.0
  0
ARC
  5
307B
100
AcDbEntity
  8
外形
  6
CONTINUOUS
100
AcDbCircle
 10
296.435022
 20
-224.238682
 30
0.0
 40
1.0
100
AcDbArc
 50
90.0
 51
150.0
  0
SPLINE
  5
307C
100
AcDbEntity
  8
外形
  6
CONTINUOUS
100
AcDbSpline
210
0.0
220
0.0
230
1.0
 70
     8
 71
     3
 72
     9
 73
     5
 74
     0
 42
0.0000001
 43
0.0000001
 40
12.6667791964028
 40
12.6667791964028
 40
12.6667791964028
 40
12.6667791964028
 40
31.47050711702554
 40
41.83127223381539
 40
41.83127223381539
 40
41.83127223381539
 40
41.83127223381539
 10
296.9384273992479
 20
-223.2386819953529
 30
0.0
 10
306.7933318900843
 20
-221.560330699239
 30
0.0
 10
316.2264421585646
 20
-219.6935701178929
 30
0.0
 10
323.3330354616857
 20
-212.7691318060441
 30
0.0
 10
325.8576719743018
 20
-210.3092063472772
 30
0.0
  0
LINE
  5
3082
100
AcDbEntity
  8
外形
  6
CONTINUOUS
100
AcDbLine
 10
177.879579
 20
-193.538682
 30
0.0
 11
152.654972
 21
-193.538682
 31
0.0
  0
ENDSEC
  0
SECTION
  2
OBJECTS
  0
DICTIONARY
  5
1E
100
AcDbDictionary
  3
ACAD_GROUP
350
1C
  3
ACAD_MLINESTYLE
350
1D
  3
ACDBVARIABLEDICTIONARY
350
147A
  3
DRAWINGVARIABLESDICT
350
C58
  0
DICTIONARY
  5
38
100
AcDbDictionary
280
     1
  3
ACAD_XREC_ROUNDTRIP
360
39
  0
DICTIONARY
  5
22
100
AcDbDictionary
280
     1
  3
ACAD_XREC_ROUNDTRIP
360
23
  0
DICTIONARY
  5
3
100
AcDbDictionary
280
     1
  3
ACAD_LAYOUTSELFREF
360
4
  0
DICTIONARY
  5
A
100
AcDbDictionary
280
     1
  3
ACAD_LAYOUTSELFREF
360
B
  0
DICTIONARY
  5
1C
102
{ACAD_REACTORS
330
1E
102
}
100
AcDbDictionary
  0
DICTIONARY
  5
1D
102
{ACAD_REACTORS
330
1E
102
}
100
AcDbDictionary
  3
STANDARD
350
20
  0
DICTIONARY
  5
147A
102
{ACAD_REACTORS
330
1E
102
}
100
AcDbDictionary
  3
SORTENTS
350
147B
  0
DICTIONARY
  5
C58
102
{ACAD_REACTORS
330
1E
102
}
100
AcDbDictionary
1001
DRAWINGVARIABLESXDATA
1000
POLARMODE
1000
0
  0
XRECORD
  5
39
102
{ACAD_REACTORS
330
38
102
}
100
AcDbXrecord
102
PLOTBIT
280
     0
  0
XRECORD
  5
23
102
{ACAD_REACTORS
330
22
102
}
100
AcDbXrecord
102
ACADR14ROUNDTRIP
1000
DSTYLE
1002
{
1070
   341
340
0
1070
   343
340
0
1070
   344
340
0
1002
}
  0
XRECORD
  5
4
102
{ACAD_REACTORS
330
3
102
}
100
AcDbXrecord
340
2
  0
XRECORD
  5
B
102
{ACAD_REACTORS
330
A
102
}
100
AcDbXrecord
340
9
  0
MLINESTYLE
  5
20
102
{ACAD_REACTORS
330
1D
102
}
100
AcDbMlineStyle
  2
STANDARD
 70
     0
  3

 62
     0
 51
90.0
 52
90.0
 71
     2
 49
0.5
 62
   256
  6
BYLAYER
 49
-0.5
 62
   256
  6
BYLAYER
  0
DICTIONARYVAR
  5
147B
102
{ACAD_REACTORS
330
147A
102
}
100
DictionaryVariables
280
     0
  1
96
  0
ENDSEC
  0
EOF
