  0
SECTION
  2
HEADER
  9
$ACADVER
  1
AC1014
  9
$ACADMAINTVER
 70
     0
  9
$DWGCODEPAGE
  3
ANSI_932
  9
$INSBASE
 10
-587.250952
 20
747.890188
 30
0.0
  9
$EXTMIN
 10
186.195501
 20
-336.909166
 30
0.0
  9
$EXTMAX
 10
538.678213
 20
-171.028107
 30
0.0
  9
$LIMMIN
 10
125.928622
 20
-365.986482
  9
$LIMMAX
 10
446.7961
 20
-130.265934
  9
$ORTHOMODE
 70
     1
  9
$REGENMODE
 70
     1
  9
$FILLMODE
 70
     1
  9
$QTEXTMODE
 70
     0
  9
$MIRRTEXT
 70
     1
  9
$DRAGMODE
 70
     2
  9
$LTSCALE
 40
5.0
  9
$OSMODE
 70
    45
  9
$ATTMODE
 70
     1
  9
$TEXTSIZE
 40
5.0
  9
$TRACEWID
 40
0.05
  9
$TEXTSTYLE
  7
STANDARD
  9
$CLAYER
  8
外形
  9
$CELTYPE
  6
CONTINUOUS
  9
$CECOLOR
 62
   256
  9
$CELTSCALE
 40
1.0
  9
$DELOBJ
 70
     1
  9
$DISPSILH
 70
     0
  9
$DIMSCALE
 40
0.0
  9
$DIMASZ
 40
2.0
  9
$DIMEXO
 40
1.0
  9
$DIMDLI
 40
8.0
  9
$DIMRND
 40
0.0
  9
$DIMDLE
 40
0.0
  9
$DIMEXE
 40
2.0
  9
$DIMTP
 40
0.0
  9
$DIMTM
 40
0.0
  9
$DIMTXT
 40
3.0
  9
$DIMCEN
 40
-1.0
  9
$DIMTSZ
 40
0.0
  9
$DIMTOL
 70
     0
  9
$DIMLIM
 70
     0
  9
$DIMTIH
 70
     0
  9
$DIMTOH
 70
     0
  9
$DIMSE1
 70
     0
  9
$DIMSE2
 70
     0
  9
$DIMTAD
 70
     1
  9
$DIMZIN
 70
     8
  9
$DIMBLK
  1

  9
$DIMASO
 70
     1
  9
$DIMSHO
 70
     1
  9
$DIMPOST
  1

  9
$DIMAPOST
  1

  9
$DIMALT
 70
     0
  9
$DIMALTD
 70
     2
  9
$DIMALTF
 40
25.4
  9
$DIMLFAC
 40
1.0
  9
$DIMTOFL
 70
     1
  9
$DIMTVP
 40
0.0
  9
$DIMTIX
 70
     0
  9
$DIMSOXD
 70
     0
  9
$DIMSAH
 70
     1
  9
$DIMBLK1
  1
_OPEN30
  9
$DIMBLK2
  1
_OPEN30
  9
$DIMSTYLE
  2
STANDARD
  9
$DIMCLRD
 70
     1
  9
$DIMCLRE
 70
     1
  9
$DIMCLRT
 70
     3
  9
$DIMTFAC
 40
1.0
  9
$DIMGAP
 40
1.0
  9
$DIMJUST
 70
     0
  9
$DIMSD1
 70
     0
  9
$DIMSD2
 70
     0
  9
$DIMTOLJ
 70
     1
  9
$DIMTZIN
 70
     8
  9
$DIMALTZ
 70
     0
  9
$DIMALTTZ
 70
     0
  9
$DIMFIT
 70
     3
  9
$DIMUPT
 70
     0
  9
$DIMUNIT
 70
     2
  9
$DIMDEC
 70
     2
  9
$DIMTDEC
 70
     2
  9
$DIMALTU
 70
     2
  9
$DIMALTTD
 70
     2
  9
$DIMTXSTY
  7
STANDARD
  9
$DIMAUNIT
 70
     0
  9
$LUNITS
 70
     2
  9
$LUPREC
 70
     3
  9
$SKETCHINC
 40
0.1
  9
$FILLETRAD
 40
1.0
  9
$AUNITS
 70
     0
  9
$AUPREC
 70
     3
  9
$MENU
  1
acad
  9
$ELEVATION
 40
0.0
  9
$PELEVATION
 40
0.0
  9
$THICKNESS
 40
0.0
  9
$LIMCHECK
 70
     0
  9
$BLIPMODE
 70
     0
  9
$CHAMFERA
 40
0.0
  9
$CHAMFERB
 40
0.0
  9
$CHAMFERC
 40
0.0
  9
$CHAMFERD
 40
0.0
  9
$SKPOLY
 70
     0
  9
$TDCREATE
 40
2450751.535399305
  9
$TDUPDATE
 40
2452030.714444444
  9
$TDINDWG
 40
1.9529368056
  9
$TDUSRTIMER
 40
1.9529368056
  9
$USRTIMER
 70
     1
  9
$ANGBASE
 50
0.0
  9
$ANGDIR
 70
     0
  9
$PDMODE
 70
    32
  9
$PDSIZE
 40
0.0
  9
$PLINEWID
 40
0.0
  9
$COORDS
 70
     2
  9
$SPLFRAME
 70
     0
  9
$SPLINETYPE
 70
     5
  9
$SPLINESEGS
 70
     8
  9
$ATTDIA
 70
     0
  9
$ATTREQ
 70
     1
  9
$HANDLING
 70
     1
  9
$HANDSEED
  5
2716
  9
$SURFTAB1
 70
     6
  9
$SURFTAB2
 70
     6
  9
$SURFTYPE
 70
     6
  9
$SURFU
 70
     6
  9
$SURFV
 70
     6
  9
$UCSNAME
  2

  9
$UCSORG
 10
40.53800450572526
 20
146.9196145921314
 30
0.0
  9
$UCSXDIR
 10
1.0
 20
0.0
 30
0.0
  9
$UCSYDIR
 10
0.0
 20
1.0
 30
0.0
  9
$PUCSNAME
  2

  9
$PUCSORG
 10
0.0
 20
0.0
 30
0.0
  9
$PUCSXDIR
 10
1.0
 20
0.0
 30
0.0
  9
$PUCSYDIR
 10
0.0
 20
1.0
 30
0.0
  9
$USERI1
 70
     0
  9
$USERI2
 70
     0
  9
$USERI3
 70
     0
  9
$USERI4
 70
     0
  9
$USERI5
 70
     0
  9
$USERR1
 40
0.0
  9
$USERR2
 40
0.0
  9
$USERR3
 40
0.0
  9
$USERR4
 40
0.0
  9
$USERR5
 40
0.0
  9
$WORLDVIEW
 70
     1
  9
$SHADEDGE
 70
     3
  9
$SHADEDIF
 70
    70
  9
$TILEMODE
 70
     1
  9
$MAXACTVP
 70
    16
  9
$PINSBASE
 10
0.0
 20
0.0
 30
0.0
  9
$PLIMCHECK
 70
     0
  9
$PEXTMIN
 10
1.000000E+20
 20
1.000000E+20
 30
1.000000E+20
  9
$PEXTMAX
 10
-1.000000E+20
 20
-1.000000E+20
 30
-1.000000E+20
  9
$PLIMMIN
 10
0.0
 20
0.0
  9
$PLIMMAX
 10
12.0
 20
9.0
  9
$UNITMODE
 70
     0
  9
$VISRETAIN
 70
     0
  9
$PLINEGEN
 70
     0
  9
$PSLTSCALE
 70
     1
  9
$TREEDEPTH
 70
  3020
  9
$PICKSTYLE
 70
     1
  9
$CMLSTYLE
  2
STANDARD
  9
$CMLJUST
 70
     0
  9
$CMLSCALE
 40
1.0
  9
$PROXYGRAPHICS
 70
     1
  9
$MEASUREMENT
 70
     0
  0
ENDSEC
  0
SECTION
  2
CLASSES
  0
CLASS
  1
LWPOLYLINE
  2
AcDbPolyline
  3
"AutoCAD"
 90
        0
280
     0
281
     1
  0
CLASS
  1
ACDBDICTIONARYWDFLT
  2
AcDbDictionaryWithDefault
  3
AutoCAD 2000
 90
        0
280
     1
281
     0
  0
CLASS
  1
ACDBPLACEHOLDER
  2
AcDbPlaceHolder
  3
AutoCAD 2000
 90
        0
280
     1
281
     0
  0
CLASS
  1
LAYOUT
  2
AcDbLayout
  3
AutoCAD 2000
 90
        0
280
     1
281
     0
  0
CLASS
  1
LONG_TRANSACTION
  2
AcDbLongTransaction
  3
AutoCAD 2000
 90
        0
280
     1
281
     0
  0
CLASS
  1
LWPOLYLINE
  2
AcDbPolyline
  3
"AutoCAD"
 90
        0
280
     0
281
     1
  0
CLASS
  1
HATCH
  2
AcDbHatch
  3
"ACAD_SEDONA"
 90
        0
280
     0
281
     1
  0
CLASS
  1
XRECORD
  2
AcDbXrecord
  3
"<Built In>"
 90
        0
280
     0
281
     0
  0
CLASS
  1
DICTIONARYVAR
  2
AcDbDictionaryVar
  3
"AutoCAD"
 90
        0
280
     0
281
     0
  0
ENDSEC
  0
SECTION
  2
TABLES
  0
TABLE
  2
VPORT
  5
16
100
AcDbSymbolTable
 70
     1
  0
VPORT
  5
2711
100
AcDbSymbolTableRecord
100
AcDbViewportTableRecord
  2
*ACTIVE
 70
     0
 10
0.0
 20
0.0
 11
1.0
 21
1.0
 12
343.002675
 22
-211.538212
 13
0.0
 23
0.0
 14
1.0
 24
1.0
 15
10.0
 25
10.0
 16
0.0
 26
0.0
 36
1.0
 17
0.0
 27
0.0
 37
0.0
 40
295.875729
 41
1.710425
 42
50.0
 43
0.0
 44
0.0
 50
0.0
 51
0.0
 71
     0
 72
   100
 73
     1
 74
     1
 75
     0
 76
     0
 77
     0
 78
     2
  0
ENDTAB
  0
TABLE
  2
LTYPE
  5
11
100
AcDbSymbolTable
 70
     2
  0
LTYPE
  5
12
100
AcDbSymbolTableRecord
100
AcDbLinetypeTableRecord
  2
BYBLOCK
 70
     0
  3

 72
    65
 73
     0
 40
0.0
  0
LTYPE
  5
13
100
AcDbSymbolTableRecord
100
AcDbLinetypeTableRecord
  2
BYLAYER
 70
     0
  3

 72
    65
 73
     0
 40
0.0
  0
LTYPE
  5
7
100
AcDbSymbolTableRecord
100
AcDbLinetypeTableRecord
  2
CONTINUOUS
 70
     0
  3
Solid line
 72
    65
 73
     0
 40
0.0
  0
LTYPE
  5
AA
100
AcDbSymbolTableRecord
100
AcDbLinetypeTableRecord
  2
CENTER
 70
     0
  3
Center ____ _ ____ _ ____ _ ____ _ ____ _ ____
 72
    65
 73
     4
 40
2.0
 49
1.25
 74
     0
 49
-0.25
 74
     0
 49
0.25
 74
     0
 49
-0.25
 74
     0
  0
ENDTAB
  0
TABLE
  2
LAYER
  5
E
100
AcDbSymbolTable
 70
     5
  0
LAYER
  5
6
100
AcDbSymbolTableRecord
100
AcDbLayerTableRecord
  2
0
 70
     0
 62
     7
  6
CONTINUOUS
  0
LAYER
  5
2C
100
AcDbSymbolTableRecord
100
AcDbLayerTableRecord
  2
外形
 70
     0
 62
     4
  6
CONTINUOUS
  0
LAYER
  5
37
102
{ACAD_XDICTIONARY
360
38
102
}
100
AcDbSymbolTableRecord
100
AcDbLayerTableRecord
  2
DEFPOINTS
 70
     0
 62
     7
  6
CONTINUOUS
  0
LAYER
  5
1F
100
AcDbSymbolTableRecord
100
AcDbLayerTableRecord
  2
寸法
 70
     0
 62
     1
  6
CONTINUOUS
  0
LAYER
  5
673
100
AcDbSymbolTableRecord
100
AcDbLayerTableRecord
  2
参考
 70
     0
 62
     2
  6
CONTINUOUS
  0
ENDTAB
  0
TABLE
  2
STYLE
  5
F
100
AcDbSymbolTable
 70
     1
  0
STYLE
  5
10
100
AcDbSymbolTableRecord
100
AcDbTextStyleTableRecord
  2
STANDARD
 70
     0
 40
0.0
 41
1.0
 50
0.0
 71
     0
 42
5.0
  3
MONOTXT
  4
BIGFONT
  0
ENDTAB
  0
TABLE
  2
VIEW
  5
14
100
AcDbSymbolTable
 70
     0
  0
ENDTAB
  0
TABLE
  2
UCS
  5
15
100
AcDbSymbolTable
 70
     0
  0
ENDTAB
  0
TABLE
  2
APPID
  5
18
100
AcDbSymbolTable
 70
     2
  0
APPID
  5
19
100
AcDbSymbolTableRecord
100
AcDbRegAppTableRecord
  2
ACAD
 70
     0
  0
APPID
  5
C59
100
AcDbSymbolTableRecord
100
AcDbRegAppTableRecord
  2
DRAWINGVARIABLESXDATA
 70
     0
  0
ENDTAB
  0
TABLE
  2
DIMSTYLE
  5
1A
100
AcDbSymbolTable
 70
     2
  0
DIMSTYLE
105
21
102
{ACAD_XDICTIONARY
360
22
102
}
102
{ACAD_REACTORS
330
223C
330
2483
330
2512
330
26AD
102
}
100
AcDbSymbolTableRecord
100
AcDbDimStyleTableRecord
  2
STANDARD
 70
     0
  3

  4

  5

  6
_OPEN30
  7
_OPEN30
 40
0.0
 41
2.0
 42
1.0
 43
8.0
 44
2.0
 45
0.0
 46
0.0
 47
0.0
 48
0.0
140
3.0
141
-1.0
142
0.0
143
25.4
144
1.0
145
0.0
146
1.0
147
1.0
 71
     0
 72
     0
 73
     0
 74
     0
 75
     0
 76
     0
 77
     1
 78
     8
170
     0
171
     2
172
     1
173
     1
174
     0
175
     0
176
     1
177
     1
178
     3
270
     2
271
     2
272
     2
273
     2
274
     2
340
10
275
     0
280
     0
281
     0
282
     0
283
     1
284
     8
285
     0
286
     0
287
     3
288
     0
  0
DIMSTYLE
105
674
100
AcDbSymbolTableRecord
100
AcDbDimStyleTableRecord
  2
参考寸法
 70
     0
  3

  4

  5

  6
_DOTSMALL
  7
_DOTSMALL
 40
1.0
 41
2.0
 42
1.0
 43
8.0
 44
2.0
 45
0.0
 46
0.0
 47
0.0
 48
0.0
140
2.0
141
-1.0
142
0.0
143
25.4
144
1.0
145
0.0
146
1.0
147
1.0
 71
     0
 72
     0
 73
     0
 74
     0
 75
     0
 76
     0
 77
     1
 78
     8
170
     0
171
     2
172
     1
173
     1
174
     0
175
     0
176
     2
177
     2
178
     2
270
     2
271
     3
272
     2
273
     2
274
     2
340
10
275
     0
280
     0
281
     0
282
     0
283
     1
284
     8
285
     0
286
     0
287
     3
288
     0
  0
ENDTAB
  0
TABLE
  2
BLOCK_RECORD
  5
1
100
AcDbSymbolTable
 70
    19
  0
BLOCK_RECORD
  5
2
102
{ACAD_XDICTIONARY
360
3
102
}
100
AcDbSymbolTableRecord
100
AcDbBlockTableRecord
  2
*MODEL_SPACE
  0
BLOCK_RECORD
  5
9
102
{ACAD_XDICTIONARY
360
A
102
}
100
AcDbSymbolTableRecord
100
AcDbBlockTableRecord
  2
*PAPER_SPACE
  0
BLOCK_RECORD
  5
24
100
AcDbSymbolTableRecord
100
AcDbBlockTableRecord
  2
_DOTSMALL
  0
BLOCK_RECORD
  5
470
100
AcDbSymbolTableRecord
100
AcDbBlockTableRecord
  2
_OPEN30
  0
BLOCK_RECORD
  5
22A6
100
AcDbSymbolTableRecord
100
AcDbBlockTableRecord
  2
*D2
  0
BLOCK_RECORD
  5
22B2
100
AcDbSymbolTableRecord
100
AcDbBlockTableRecord
  2
*D3
  0
BLOCK_RECORD
  5
22BE
100
AcDbSymbolTableRecord
100
AcDbBlockTableRecord
  2
*D4
  0
BLOCK_RECORD
  5
22DC
100
AcDbSymbolTableRecord
100
AcDbBlockTableRecord
  2
*D5
  0
BLOCK_RECORD
  5
2341
100
AcDbSymbolTableRecord
100
AcDbBlockTableRecord
  2
*D12
  0
BLOCK_RECORD
  5
2475
100
AcDbSymbolTableRecord
100
AcDbBlockTableRecord
  2
*D15
  0
BLOCK_RECORD
  5
2500
100
AcDbSymbolTableRecord
100
AcDbBlockTableRecord
  2
*D16
  0
BLOCK_RECORD
  5
26A2
100
AcDbSymbolTableRecord
100
AcDbBlockTableRecord
  2
*D17
  0
ENDTAB
  0
ENDSEC
  0
SECTION
  2
BLOCKS
  0
BLOCK
  5
5
100
AcDbEntity
  8
0
100
AcDbBlockBegin
  2
*MODEL_SPACE
 70
     0
 10
0.0
 20
0.0
 30
0.0
  3
*MODEL_SPACE
  1

  0
ENDBLK
  5
8
100
AcDbEntity
  8
0
100
AcDbBlockEnd
  0
BLOCK
  5
C
100
AcDbEntity
 67
     1
  8
0
100
AcDbBlockBegin
  2
*PAPER_SPACE
 70
     0
 10
0.0
 20
0.0
 30
0.0
  3
*PAPER_SPACE
  1

  0
ENDBLK
  5
D
100
AcDbEntity
 67
     1
  8
0
100
AcDbBlockEnd
  0
BLOCK
  5
29
100
AcDbEntity
  8
0
100
AcDbBlockBegin
  2
_DOTSMALL
 70
     0
 10
0.0
 20
0.0
 30
0.0
  3
_DOTSMALL
  1

  0
POLYLINE
  5
25
100
AcDbEntity
  8
0
  6
BYBLOCK
 62
     0
100
AcDb2dPolyline
 66
     1
 10
0.0
 20
0.0
 30
0.0
 70
     1
 40
0.5
 41
0.5
  0
VERTEX
  5
26
100
AcDbEntity
  8
0
  6
BYBLOCK
 62
     0
100
AcDbVertex
100
AcDb2dVertex
 10
-0.0625
 20
0.0
 30
0.0
 42
1.0
  0
VERTEX
  5
27
100
AcDbEntity
  8
0
  6
BYBLOCK
 62
     0
100
AcDbVertex
100
AcDb2dVertex
 10
0.0625
 20
0.0
 30
0.0
 42
1.0
  0
SEQEND
  5
28
100
AcDbEntity
  8
0
  6
BYBLOCK
 62
     0
  0
ENDBLK
  5
2A
100
AcDbEntity
  8
0
100
AcDbBlockEnd
  0
BLOCK
  5
471
100
AcDbEntity
  8
0
100
AcDbBlockBegin
  2
_OPEN30
 70
     0
 10
0.0
 20
0.0
 30
0.0
  3
_OPEN30
  1

  0
LINE
  5
472
100
AcDbEntity
  8
0
  6
BYBLOCK
 62
     0
100
AcDbLine
 10
-1.0
 20
0.267949
 30
0.0
 11
0.0
 21
0.0
 31
0.0
  0
LINE
  5
473
100
AcDbEntity
  8
0
  6
BYBLOCK
 62
     0
100
AcDbLine
 10
0.0
 20
0.0
 30
0.0
 11
-1.0
 21
-0.267949
 31
0.0
  0
LINE
  5
474
100
AcDbEntity
  8
0
  6
BYBLOCK
 62
     0
100
AcDbLine
 10
0.0
 20
0.0
 30
0.0
 11
-1.0
 21
0.0
 31
0.0
  0
ENDBLK
  5
475
100
AcDbEntity
  8
0
100
AcDbBlockEnd
  0
BLOCK
  5
23C5
100
AcDbEntity
  8
0
100
AcDbBlockBegin
  2
*D2
 70
     1
 10
0.0
 20
0.0
 30
0.0
  3
*D2
  1

  0
LINE
  5
23C6
100
AcDbEntity
  8
0
  6
BYBLOCK
 62
     1
100
AcDbLine
 10
681.453026
 20
-216.942724
 30
0.0
 11
681.453026
 21
-238.421
 31
0.0
  0
LINE
  5
23C7
100
AcDbEntity
  8
0
  6
BYBLOCK
 62
     1
100
AcDbLine
 10
651.453026
 20
-216.942724
 30
0.0
 11
651.453026
 21
-238.421
 31
0.0
  0
LINE
  5
23C8
100
AcDbEntity
  8
0
  6
BYBLOCK
 62
     1
100
AcDbLine
 10
679.453026
 20
-236.421
 30
0.0
 11
653.453026
 21
-236.421
 31
0.0
  0
INSERT
  5
23C9
100
AcDbEntity
  8
0
  6
BYBLOCK
 62
     1
100
AcDbBlockReference
  2
_OPEN30
 10
681.453026
 20
-236.421
 30
0.0
 41
2.0
 42
2.0
 43
2.0
  0
INSERT
  5
23CA
100
AcDbEntity
  8
0
  6
BYBLOCK
 62
     1
100
AcDbBlockReference
  2
_OPEN30
 10
651.453026
 20
-236.421
 30
0.0
 41
2.0
 42
2.0
 43
2.0
 50
180.0
  0
MTEXT
  5
23CB
100
AcDbEntity
  8
0
  6
BYBLOCK
 62
     3
100
AcDbMText
 10
666.453026
 20
-233.921
 30
0.0
 40
3.0
 41
0.0
 71
     5
 72
     1
  1
\A1;30
  0
POINT
  5
23CC
100
AcDbEntity
  8
DEFPOINTS
  6
BYBLOCK
 62
     0
100
AcDbPoint
 10
681.453026
 20
-215.942724
 30
0.0
  0
POINT
  5
23CD
100
AcDbEntity
  8
DEFPOINTS
  6
BYBLOCK
 62
     0
100
AcDbPoint
 10
651.453026
 20
-215.942724
 30
0.0
  0
POINT
  5
23CE
100
AcDbEntity
  8
DEFPOINTS
  6
BYBLOCK
 62
     0
100
AcDbPoint
 10
651.453026
 20
-236.421
 30
0.0
  0
ENDBLK
  5
23CF
100
AcDbEntity
  8
0
100
AcDbBlockEnd
  0
BLOCK
  5
2452
100
AcDbEntity
  8
0
100
AcDbBlockBegin
  2
*D3
 70
     1
 10
0.0
 20
0.0
 30
0.0
  3
*D3
  1

  0
LINE
  5
2453
100
AcDbEntity
  8
0
  6
BYBLOCK
 62
     1
100
AcDbLine
 10
558.132348
 20
-233.37496
 30
0.0
 11
558.132348
 21
-252.336585
 31
0.0
  0
LINE
  5
2454
100
AcDbEntity
  8
0
  6
BYBLOCK
 62
     1
100
AcDbLine
 10
808.132348
 20
-224.37496
 30
0.0
 11
808.132348
 21
-252.336585
 31
0.0
  0
LINE
  5
2455
100
AcDbEntity
  8
0
  6
BYBLOCK
 62
     1
100
AcDbLine
 10
560.132348
 20
-250.336585
 30
0.0
 11
806.132348
 21
-250.336585
 31
0.0
  0
INSERT
  5
2456
100
AcDbEntity
  8
0
  6
BYBLOCK
 62
     1
100
AcDbBlockReference
  2
_OPEN30
 10
558.132348
 20
-250.336585
 30
0.0
 41
2.0
 42
2.0
 43
2.0
 50
180.0
  0
INSERT
  5
2457
100
AcDbEntity
  8
0
  6
BYBLOCK
 62
     1
100
AcDbBlockReference
  2
_OPEN30
 10
808.132348
 20
-250.336585
 30
0.0
 41
2.0
 42
2.0
 43
2.0
  0
MTEXT
  5
2458
100
AcDbEntity
  8
0
  6
BYBLOCK
 62
     3
100
AcDbMText
 10
683.132348
 20
-247.836585
 30
0.0
 40
3.0
 41
0.0
 71
     5
 72
     1
  1
\A1;250
  0
POINT
  5
2459
100
AcDbEntity
  8
DEFPOINTS
  6
BYBLOCK
 62
     0
100
AcDbPoint
 10
558.132348
 20
-232.37496
 30
0.0
  0
POINT
  5
245A
100
AcDbEntity
  8
DEFPOINTS
  6
BYBLOCK
 62
     0
100
AcDbPoint
 10
808.132348
 20
-223.37496
 30
0.0
  0
POINT
  5
245B
100
AcDbEntity
  8
DEFPOINTS
  6
BYBLOCK
 62
     0
100
AcDbPoint
 10
808.132348
 20
-250.336585
 30
0.0
  0
ENDBLK
  5
245C
100
AcDbEntity
  8
0
100
AcDbBlockEnd
  0
BLOCK
  5
2524
100
AcDbEntity
  8
0
100
AcDbBlockBegin
  2
*D4
 70
     1
 10
0.0
 20
0.0
 30
0.0
  3
*D4
  1

  0
LINE
  5
2525
100
AcDbEntity
  8
0
  6
BYBLOCK
 62
     1
100
AcDbLine
 10
557.132348
 20
-232.37496
 30
0.0
 11
542.523733
 21
-232.37496
 31
0.0
  0
LINE
  5
2526
100
AcDbEntity
  8
0
  6
BYBLOCK
 62
     1
100
AcDbLine
 10
549.792755
 20
-210.37496
 30
0.0
 11
542.523733
 21
-210.37496
 31
0.0
  0
LINE
  5
2527
100
AcDbEntity
  8
0
  6
BYBLOCK
 62
     1
100
AcDbLine
 10
544.523733
 20
-230.37496
 30
0.0
 11
544.523733
 21
-212.37496
 31
0.0
  0
INSERT
  5
2528
100
AcDbEntity
  8
0
  6
BYBLOCK
 62
     1
100
AcDbBlockReference
  2
_OPEN30
 10
544.523733
 20
-232.37496
 30
0.0
 41
2.0
 42
2.0
 43
2.0
 50
270.0
  0
INSERT
  5
2529
100
AcDbEntity
  8
0
  6
BYBLOCK
 62
     1
100
AcDbBlockReference
  2
_OPEN30
 10
544.523733
 20
-210.37496
 30
0.0
 41
2.0
 42
2.0
 43
2.0
 50
90.0
  0
MTEXT
  5
252A
100
AcDbEntity
  8
0
  6
BYBLOCK
 62
     3
100
AcDbMText
 10
542.023733
 20
-221.37496
 30
0.0
 40
3.0
 41
0.0
 71
     5
 72
     1
  1
\A1;22
 11
0.0
 21
1.0
 31
0.0
  0
POINT
  5
252B
100
AcDbEntity
  8
DEFPOINTS
  6
BYBLOCK
 62
     0
100
AcDbPoint
 10
558.132348
 20
-232.37496
 30
0.0
  0
POINT
  5
252C
100
AcDbEntity
  8
DEFPOINTS
  6
BYBLOCK
 62
     0
100
AcDbPoint
 10
550.792755
 20
-210.37496
 30
0.0
  0
POINT
  5
252D
100
AcDbEntity
  8
DEFPOINTS
  6
BYBLOCK
 62
     0
100
AcDbPoint
 10
544.523733
 20
-210.37496
 30
0.0
  0
ENDBLK
  5
252E
100
AcDbEntity
  8
0
100
AcDbBlockEnd
  0
BLOCK
  5
26E9
100
AcDbEntity
  8
0
100
AcDbBlockBegin
  2
*D5
 70
     1
 10
0.0
 20
0.0
 30
0.0
  3
*D5
  1

  0
LINE
  5
26EA
100
AcDbEntity
  8
0
  6
BYBLOCK
 62
     1
100
AcDbLine
 10
282.014934
 20
-288.969136
 30
0.0
 11
282.014934
 21
-315.476694
 31
0.0
  0
LINE
  5
26EB
100
AcDbEntity
  8
0
  6
BYBLOCK
 62
     1
100
AcDbLine
 10
304.014934
 20
-305.891786
 30
0.0
 11
304.014934
 21
-315.476694
 31
0.0
  0
LINE
  5
26EC
100
AcDbEntity
  8
0
  6
BYBLOCK
 62
     1
100
AcDbLine
 10
284.014934
 20
-313.476694
 30
0.0
 11
302.014934
 21
-313.476694
 31
0.0
  0
INSERT
  5
26ED
100
AcDbEntity
  8
0
  6
BYBLOCK
 62
     1
100
AcDbBlockReference
  2
_OPEN30
 10
282.014934
 20
-313.476694
 30
0.0
 41
2.0
 42
2.0
 43
2.0
 50
180.0
  0
INSERT
  5
26EE
100
AcDbEntity
  8
0
  6
BYBLOCK
 62
     1
100
AcDbBlockReference
  2
_OPEN30
 10
304.014934
 20
-313.476694
 30
0.0
 41
2.0
 42
2.0
 43
2.0
  0
MTEXT
  5
26EF
100
AcDbEntity
  8
0
  6
BYBLOCK
 62
     3
100
AcDbMText
 10
293.014934
 20
-310.976694
 30
0.0
 40
3.0
 41
0.0
 71
     5
 72
     1
  1
\A1;22
  0
POINT
  5
26F0
100
AcDbEntity
  8
DEFPOINTS
  6
BYBLOCK
 62
     0
100
AcDbPoint
 10
282.014934
 20
-287.969136
 30
0.0
  0
POINT
  5
26F1
100
AcDbEntity
  8
DEFPOINTS
  6
BYBLOCK
 62
     0
100
AcDbPoint
 10
304.014934
 20
-304.891786
 30
0.0
  0
POINT
  5
26F2
100
AcDbEntity
  8
DEFPOINTS
  6
BYBLOCK
 62
     0
100
AcDbPoint
 10
304.014934
 20
-313.476694
 30
0.0
  0
ENDBLK
  5
26F3
100
AcDbEntity
  8
0
100
AcDbBlockEnd
  0
BLOCK
  5
2390
100
AcDbEntity
  8
0
100
AcDbBlockBegin
  2
*D12
 70
     1
 10
0.0
 20
0.0
 30
0.0
  3
*D12
  1

  0
LINE
  5
2391
100
AcDbEntity
  8
0
  6
BYBLOCK
 62
     1
100
AcDbLine
 10
549.792755
 20
-287.969136
 30
0.0
 11
545.055979
 21
-287.969136
 31
0.0
  0
LINE
  5
2392
100
AcDbEntity
  8
0
  6
BYBLOCK
 62
     1
100
AcDbLine
 10
557.137826
 20
-288.073665
 30
0.0
 11
545.127613
 21
-289.335989
 31
0.0
  0
ARC
  5
2393
100
AcDbEntity
  8
0
  6
BYBLOCK
 62
     1
100
AcDbCircle
 10
558.132348
 20
-287.969136
 30
0.0
 40
11.076368
100
AcDbArc
 50
159.194705
 51
180.0
  0
LINE
  5
2394
100
AcDbEntity
  8
0
  6
BYBLOCK
 62
     1
100
AcDbLine
 10
547.778238
 20
-284.034884
 30
0.0
 11
550.832901
 21
-275.995665
 31
0.0
  0
ARC
  5
2395
100
AcDbEntity
  8
0
  6
BYBLOCK
 62
     1
100
AcDbCircle
 10
558.132348
 20
-287.969136
 30
0.0
 40
11.076368
100
AcDbArc
 50
159.280609
 51
169.640305
  0
ARC
  5
2396
100
AcDbEntity
  8
0
  6
BYBLOCK
 62
     1
100
AcDbCircle
 10
558.132348
 20
-287.969136
 30
0.0
 40
11.076368
100
AcDbArc
 50
196.359695
 51
206.719391
  0
ARC
  5
2397
100
AcDbEntity
  8
0
  6
BYBLOCK
 62
     1
100
AcDbCircle
 10
558.132348
 20
-287.969136
 30
0.0
 40
11.076368
100
AcDbArc
 50
180.0
 51
186.0
  0
INSERT
  5
2398
100
AcDbEntity
  8
0
  6
BYBLOCK
 62
     1
100
AcDbBlockReference
  2
_OPEN30
 10
547.055979
 20
-287.969136
 30
0.0
 41
2.0
 42
2.0
 43
2.0
 50
264.820152
  0
INSERT
  5
2399
100
AcDbEntity
  8
0
  6
BYBLOCK
 62
     1
100
AcDbBlockReference
  2
_OPEN30
 10
547.116657
 20
-289.126932
 30
0.0
 41
2.0
 42
2.0
 43
2.0
 50
101.179848
  0
MTEXT
  5
239A
100
AcDbEntity
  8
0
  6
BYBLOCK
 62
     3
100
AcDbMText
 10
551.642551
 20
-280.903258
 30
0.0
 40
3.0
 41
0.0
 71
     5
 72
     1
  1
\A1;6°
 11
-0.355193
 21
-0.934793
 31
0.0
  0
POINT
  5
239B
100
AcDbEntity
  8
DEFPOINTS
  6
BYBLOCK
 62
     0
100
AcDbPoint
 10
547.082961
 20
-288.741784
 30
0.0
  0
POINT
  5
239C
100
AcDbEntity
  8
DEFPOINTS
  6
BYBLOCK
 62
     0
100
AcDbPoint
 10
558.132348
 20
-287.969136
 30
0.0
  0
POINT
  5
239D
100
AcDbEntity
  8
DEFPOINTS
  6
BYBLOCK
 62
     0
100
AcDbPoint
 10
814.795627
 20
-287.969136
 30
0.0
  0
POINT
  5
239E
100
AcDbEntity
  8
DEFPOINTS
  6
BYBLOCK
 62
     0
100
AcDbPoint
 10
550.792755
 20
-287.969136
 30
0.0
  0
POINT
  5
239F
100
AcDbEntity
  8
DEFPOINTS
  6
BYBLOCK
 62
     0
100
AcDbPoint
 10
578.132266
 20
-285.86706
 30
0.0
  0
ENDBLK
  5
23A0
100
AcDbEntity
  8
0
100
AcDbBlockEnd
  0
BLOCK
  5
252F
100
AcDbEntity
  8
0
100
AcDbBlockBegin
  2
*D15
 70
     1
 10
0.0
 20
0.0
 30
0.0
  3
*D15
  1

  0
LINE
  5
2530
100
AcDbEntity
  8
0
  6
BYBLOCK
 62
     1
100
AcDbLine
 10
556.944148
 20
-218.793773
 30
0.0
 11
554.673756
 21
-192.843071
 31
0.0
  0
LINE
  5
2531
100
AcDbEntity
  8
0
  6
BYBLOCK
 62
     1
100
AcDbLine
 10
549.792755
 20
-232.37496
 30
0.0
 11
518.449454
 21
-232.37496
 31
0.0
  0
ARC
  5
2532
100
AcDbEntity
  8
0
  6
BYBLOCK
 62
     1
100
AcDbCircle
 10
558.132348
 20
-232.37496
 30
0.0
 40
37.682894
100
AcDbArc
 50
98.041301
 51
176.958699
  0
INSERT
  5
2533
100
AcDbEntity
  8
0
  6
BYBLOCK
 62
     1
100
AcDbBlockReference
  2
_OPEN30
 10
554.848067
 20
-194.83546
 30
0.0
 41
2.0
 42
2.0
 43
2.0
 50
6.52065
  0
INSERT
  5
2534
100
AcDbEntity
  8
0
  6
BYBLOCK
 62
     1
100
AcDbBlockReference
  2
_OPEN30
 10
520.449454
 20
-232.37496
 30
0.0
 41
2.0
 42
2.0
 43
2.0
 50
268.47935
  0
MTEXT
  5
2535
100
AcDbEntity
  8
0
  6
BYBLOCK
 62
     3
100
AcDbMText
 10
528.506411
 20
-205.22779
 30
0.0
 40
3.0
 41
0.0
 71
     5
 72
     1
  1
\A1;85°
 11
0.67559
 21
0.737277
 31
0.0
  0
POINT
  5
2536
100
AcDbEntity
  8
DEFPOINTS
  6
BYBLOCK
 62
     0
100
AcDbPoint
 10
537.425259
 20
-200.891361
 30
0.0
  0
POINT
  5
2537
100
AcDbEntity
  8
DEFPOINTS
  6
BYBLOCK
 62
     0
100
AcDbPoint
 10
557.031304
 20
-219.789967
 30
0.0
  0
POINT
  5
2538
100
AcDbEntity
  8
DEFPOINTS
  6
BYBLOCK
 62
     0
100
AcDbPoint
 10
814.795627
 20
-232.37496
 30
0.0
  0
POINT
  5
2539
100
AcDbEntity
  8
DEFPOINTS
  6
BYBLOCK
 62
     0
100
AcDbPoint
 10
550.792755
 20
-232.37496
 30
0.0
  0
POINT
  5
253A
100
AcDbEntity
  8
DEFPOINTS
  6
BYBLOCK
 62
     0
100
AcDbPoint
 10
558.068457
 20
-231.644684
 30
0.0
  0
ENDBLK
  5
253B
100
AcDbEntity
  8
0
100
AcDbBlockEnd
  0
BLOCK
  5
267D
100
AcDbEntity
  8
0
100
AcDbBlockBegin
  2
*D16
 70
     1
 10
0.0
 20
0.0
 30
0.0
  3
*D16
  1

  0
LINE
  5
267E
100
AcDbEntity
  8
0
  6
BYBLOCK
 62
     1
100
AcDbLine
 10
499.115927
 20
-233.359767
 30
0.0
 11
497.133684
 21
-244.601628
 31
0.0
  0
LINE
  5
267F
100
AcDbEntity
  8
0
  6
BYBLOCK
 62
     1
100
AcDbLine
 10
499.289576
 20
-233.37496
 30
0.0
 11
499.289576
 21
-244.790244
 31
0.0
  0
ARC
  5
2680
100
AcDbEntity
  8
0
  6
BYBLOCK
 62
     1
100
AcDbCircle
 10
499.289576
 20
-232.37496
 30
0.0
 40
10.415285
100
AcDbArc
 50
237.857975
 51
260.0
  0
LINE
  5
2681
100
AcDbEntity
  8
0
  6
BYBLOCK
 62
     1
100
AcDbLine
 10
493.748438
 20
-241.193914
 30
0.0
 11
483.926348
 21
-235.022485
 31
0.0
  0
ARC
  5
2682
100
AcDbEntity
  8
0
  6
BYBLOCK
 62
     1
100
AcDbCircle
 10
499.289576
 20
-232.37496
 30
0.0
 40
10.415285
100
AcDbArc
 50
237.961553
 51
248.980776
  0
ARC
  5
2683
100
AcDbEntity
  8
0
  6
BYBLOCK
 62
     1
100
AcDbCircle
 10
499.289576
 20
-232.37496
 30
0.0
 40
10.415285
100
AcDbArc
 50
281.019224
 51
292.038447
  0
ARC
  5
2684
100
AcDbEntity
  8
0
  6
BYBLOCK
 62
     1
100
AcDbCircle
 10
499.289576
 20
-232.37496
 30
0.0
 40
10.415285
100
AcDbArc
 50
260.0
 51
270.0
  0
INSERT
  5
2685
100
AcDbEntity
  8
0
  6
BYBLOCK
 62
     1
100
AcDbBlockReference
  2
_OPEN30
 10
497.48098
 20
-242.632013
 30
0.0
 41
2.0
 42
2.0
 43
2.0
 50
344.490388
  0
INSERT
  5
2686
100
AcDbEntity
  8
0
  6
BYBLOCK
 62
     1
100
AcDbBlockReference
  2
_OPEN30
 10
499.289576
 20
-242.790244
 30
0.0
 41
2.0
 42
2.0
 43
2.0
 50
185.509612
  0
MTEXT
  5
2687
100
AcDbEntity
  8
0
  6
BYBLOCK
 62
     3
100
AcDbMText
 10
490.167442
 20
-235.991369
 30
0.0
 40
3.0
 41
0.0
 71
     5
 72
     1
  1
\A1;10°
 11
0.846732
 21
-0.53202
 31
0.0
  0
POINT
  5
2688
100
AcDbEntity
  8
DEFPOINTS
  6
BYBLOCK
 62
     0
100
AcDbPoint
 10
498.683981
 20
-242.772623
 30
0.0
  0
POINT
  5
2689
100
AcDbEntity
  8
DEFPOINTS
  6
BYBLOCK
 62
     0
100
AcDbPoint
 10
499.289576
 20
-182.863325
 30
0.0
  0
POINT
  5
268A
100
AcDbEntity
  8
DEFPOINTS
  6
BYBLOCK
 62
     0
100
AcDbPoint
 10
504.259107
 20
-204.191344
 30
0.0
  0
POINT
  5
268B
100
AcDbEntity
  8
DEFPOINTS
  6
BYBLOCK
 62
     0
100
AcDbPoint
 10
499.289576
 20
-232.37496
 30
0.0
  0
POINT
  5
268C
100
AcDbEntity
  8
DEFPOINTS
  6
BYBLOCK
 62
     0
100
AcDbPoint
 10
499.289576
 20
-232.37496
 30
0.0
  0
ENDBLK
  5
268D
100
AcDbEntity
  8
0
100
AcDbBlockEnd
  0
BLOCK
  5
26AE
100
AcDbEntity
  8
0
100
AcDbBlockBegin
  2
*D17
 70
     1
 10
0.0
 20
0.0
 30
0.0
  3
*D17
  1

  0
LINE
  5
26AF
100
AcDbEntity
  8
0
  6
BYBLOCK
 62
     1
100
AcDbLine
 10
696.330672
 20
-180.45006
 30
0.0
 11
706.202898
 21
-195.365098
 31
0.0
  0
LINE
  5
26B0
100
AcDbEntity
  8
0
  6
BYBLOCK
 62
     1
100
AcDbLine
 10
726.07288
 20
-225.384822
 30
0.0
 11
727.176768
 21
-227.052584
 31
0.0
  0
MTEXT
  5
26B1
100
AcDbEntity
  8
0
  6
BYBLOCK
 62
     3
100
AcDbMText
 10
701.175094
 20
-183.239607
 30
0.0
 40
3.0
 41
0.0
 71
     5
 72
     1
  1
\A1;\U+220532
 11
0.551944
 21
-0.833881
 31
0.0
  0
LINE
  5
26B2
100
AcDbEntity
  8
0
  6
BYBLOCK
 62
     1
100
AcDbLine
 10
724.968992
 20
-223.717059
 30
0.0
 11
707.306786
 21
-197.03286
 31
0.0
  0
INSERT
  5
26B3
100
AcDbEntity
  8
0
  6
BYBLOCK
 62
     1
100
AcDbBlockReference
  2
_OPEN30
 10
724.968992
 20
-223.717059
 30
0.0
 41
2.0
 42
2.0
 43
2.0
 50
123.500477
  0
INSERT
  5
26B4
100
AcDbEntity
  8
0
  6
BYBLOCK
 62
     1
100
AcDbBlockReference
  2
_OPEN30
 10
707.306786
 20
-197.03286
 30
0.0
 41
2.0
 42
2.0
 43
2.0
 50
303.500477
  0
POINT
  5
26B5
100
AcDbEntity
  8
DEFPOINTS
  6
BYBLOCK
 62
     0
100
AcDbPoint
 10
707.306786
 20
-197.03286
 30
0.0
  0
POINT
  5
26B6
100
AcDbEntity
  8
DEFPOINTS
  6
BYBLOCK
 62
     0
100
AcDbPoint
 10
724.968992
 20
-223.717059
 30
0.0
  0
ENDBLK
  5
26B7
100
AcDbEntity
  8
0
100
AcDbBlockEnd
  0
ENDSEC
  0
SECTION
  2
ENTITIES
  0
DIMENSION
  5
2212
100
AcDbEntity
  8
寸法
  6
CONTINUOUS
100
AcDbDimension
  2
*D12
 10
302.014852
 20
-285.86706
 30
0.0
 11
275.525137
 21
-280.903258
 31
0.0
 12
-276.117414
 22
0.0
 32
0.0
 70
    34
  3
STANDARD
100
AcDb2LineAngularDimension
 13
538.678213
 23
-287.969136
 33
0.0
 14
274.675341
 24
-287.969136
 34
0.0
 15
282.014934
 25
-287.969136
 35
0.0
 16
270.965547
 26
-288.741784
 36
0.0
1001
ACAD
1000
DSTYLE
1002
{
1070
    40
1040
1.0
1002
}
  0
DIMENSION
  5
2213
100
AcDbEntity
  8
寸法
  6
CONTINUOUS
100
AcDbDimension
  2
*D3
 10
532.014934
 20
-250.336585
 30
0.0
 11
407.014934
 21
-247.836585
 31
0.0
 12
-276.117414
 22
0.0
 32
0.0
 70
    32
  3
STANDARD
100
AcDbAlignedDimension
 13
282.014934
 23
-232.37496
 33
0.0
 14
532.014934
 24
-223.37496
 34
0.0
100
AcDbRotatedDimension
1001
ACAD
1000
DSTYLE
1002
{
1070
    40
1040
1.0
1002
}
  0
LINE
  5
221C
100
AcDbEntity
  8
外形
  6
CENTER
 62
     1
100
AcDbLine
 10
538.678213
 20
-287.969136
 30
0.0
 11
274.675341
 21
-287.969136
 31
0.0
  0
LINE
  5
221D
102
{ACAD_REACTORS
330
265C
102
}
100
AcDbEntity
  8
外形
  6
CENTER
 62
     1
100
AcDbLine
 10
538.678213
 20
-210.37496
 30
0.0
 11
274.675341
 21
-210.37496
 31
0.0
  0
LEADER
  5
221E
100
AcDbEntity
  8
寸法
  6
CONTINUOUS
 62
     1
100
AcDbLeader
  3
STANDARD
 73
     0
 74
     0
 75
     1
 40
3.0
 41
26.0
 76
     3
 10
221.053781
 20
-190.047799
 30
0.0
 10
230.972188
 20
-175.028107
 30
0.0
 10
232.972188
 20
-175.028107
 30
0.0
 77
   256
340
2221
1001
ACAD
1000
DSTYLE
1002
{
1070
    40
1040
1.0
1002
}
  0
MTEXT
  5
2221
102
{ACAD_REACTORS
330
221E
102
}
100
AcDbEntity
  8
寸法
  6
CONTINUOUS
 62
     3
100
AcDbMText
 10
233.972188
 20
-172.528107
 30
0.0
 40
3.0
 41
0.0
 71
     4
 72
     1
  1
%%C44最小加工径
  0
LINE
  5
2225
100
AcDbEntity
  8
外形
  6
CENTER
 62
     1
100
AcDbLine
 10
237.751273
 20
-210.37496
 30
0.0
 11
186.195501
 21
-210.37496
 31
0.0
  0
LINE
  5
222B
100
AcDbEntity
  8
外形
  6
CONTINUOUS
100
AcDbLine
 10
219.099352
 20
-195.737153
 30
0.0
 11
212.639119
 21
-232.37496
 31
0.0
  0
LINE
  5
222C
100
AcDbEntity
  8
外形
  6
CENTER
 62
     1
100
AcDbLine
 10
212.639119
 20
-182.863325
 30
0.0
 11
212.639119
 21
-237.779107
 31
0.0
  0
LINE
  5
222D
100
AcDbEntity
  8
外形
  6
CONTINUOUS
100
AcDbLine
 10
206.94675
 20
-218.933351
 30
0.0
 11
210.078438
 21
-219.485552
 31
0.0
  0
LINE
  5
222E
100
AcDbEntity
  8
外形
  6
CONTINUOUS
100
AcDbLine
 10
207.951434
 20
-231.548394
 30
0.0
 11
212.639119
 21
-232.37496
 31
0.0
  0
LINE
  5
222F
100
AcDbEntity
  8
外形
  6
CONTINUOUS
100
AcDbLine
 10
210.078438
 20
-219.485552
 30
0.0
 11
207.951434
 21
-231.548394
 31
0.0
  0
LINE
  5
2232
100
AcDbEntity
  8
外形
  6
CONTINUOUS
100
AcDbLine
 10
206.94675
 20
-218.933351
 30
0.0
 11
204.824086
 21
-230.971573
 31
0.0
  0
LINE
  5
2233
100
AcDbEntity
  8
外形
  6
CONTINUOUS
100
AcDbLine
 10
204.824086
 20
-230.971573
 30
0.0
 11
207.955775
 21
-231.523774
 31
0.0
  0
LINE
  5
2235
100
AcDbEntity
  8
外形
  6
CONTINUOUS
100
AcDbLine
 10
210.082779
 20
-219.460932
 30
0.0
 11
214.770464
 21
-220.287498
 31
0.0
  0
LINE
  5
2238
100
AcDbEntity
  8
外形
  6
CONTINUOUS
100
AcDbLine
 10
281.502989
 20
-290.300132
 30
0.0
 11
282.537352
 21
-292.700447
 31
0.0
  0
LINE
  5
2239
100
AcDbEntity
  8
外形
  6
CONTINUOUS
100
AcDbLine
 10
281.860252
 20
-293.460099
 30
0.0
 11
281.505306
 21
-290.322182
 31
0.0
  0
LINE
  5
223A
100
AcDbEntity
  8
外形
  6
CONTINUOUS
100
AcDbLine
 10
282.512489
 20
-292.70306
 30
0.0
 11
282.014934
 21
-287.969136
 31
0.0
  0
LINE
  5
223B
100
AcDbEntity
  8
外形
  6
CONTINUOUS
100
AcDbLine
 10
294.886792
 20
-294.599985
 30
0.0
 11
294.554391
 21
-291.437405
 31
0.0
  0
DIMENSION
  5
223C
100
AcDbEntity
  8
寸法
  6
CONTINUOUS
100
AcDbDimension
  2
*D5
 10
304.014934
 20
-313.476694
 30
0.0
 11
293.014934
 21
-310.976694
 31
0.0
 70
    32
  3
STANDARD
100
AcDbAlignedDimension
 13
282.014934
 23
-287.969136
 33
0.0
 14
304.014934
 24
-304.891786
 34
0.0
100
AcDbRotatedDimension
1001
ACAD
1000
DSTYLE
1002
{
1070
    40
1040
1.0
1002
}
  0
LINE
  5
223F
100
AcDbEntity
  8
外形
  6
CONTINUOUS
100
AcDbLine
 10
282.512489
 20
-292.70306
 30
0.0
 11
294.579254
 21
-291.434792
 31
0.0
  0
LINE
  5
2241
100
AcDbEntity
  8
外形
  6
CONTINUOUS
100
AcDbLine
 10
282.869753
 20
-295.863027
 30
0.0
 11
294.886792
 21
-294.599985
 31
0.0
  0
LINE
  5
2242
100
AcDbEntity
  8
外形
  6
CONTINUOUS
100
AcDbLine
 10
282.878279
 20
-303.145972
 30
0.0
 11
283.879396
 21
-305.469136
 31
0.0
  0
LINE
  5
2243
100
AcDbEntity
  8
外形
  6
CONTINUOUS
100
AcDbLine
 10
282.878279
 20
-303.145972
 30
0.0
 11
281.860252
 21
-293.460099
 31
0.0
  0
LINE
  5
2244
100
AcDbEntity
  8
外形
  6
CONTINUOUS
100
AcDbLine
 10
281.860252
 20
-293.460099
 30
0.0
 11
282.894616
 21
-295.860413
 31
0.0
  0
LINE
  5
2245
100
AcDbEntity
  8
外形
  6
CONTINUOUS
100
AcDbLine
 10
283.879396
 20
-305.469136
 30
0.0
 11
282.537352
 21
-292.700447
 31
0.0
  0
LINE
  5
2246
100
AcDbEntity
  8
外形
  6
CONTINUOUS
100
AcDbLine
 10
282.854917
 20
-295.864586
 30
0.0
 11
282.861369
 21
-295.783262
 31
0.0
  0
LINE
  5
2249
100
AcDbEntity
  8
外形
  6
CONTINUOUS
100
AcDbLine
 10
336.514934
 20
-293.5369
 30
0.0
 11
336.514934
 21
-303.469136
 31
0.0
  0
LINE
  5
224A
100
AcDbEntity
  8
外形
  6
CONTINUOUS
100
AcDbLine
 10
336.014934
 20
-303.719136
 30
0.0
 11
336.514934
 21
-303.469136
 31
0.0
  0
LINE
  5
224B
100
AcDbEntity
  8
外形
  6
CONTINUOUS
100
AcDbLine
 10
336.014934
 20
-292.771479
 30
0.0
 11
336.014934
 21
-303.719136
 31
0.0
  0
TEXT
  5
224C
100
AcDbEntity
  8
外形
  6
CONTINUOUS
 62
     2
100
AcDbText
 10
374.974474
 20
-336.909166
 30
0.0
 40
6.0
  1
BSYN432R
100
AcDbText
  0
LINE
  5
2251
100
AcDbEntity
  8
外形
  6
CONTINUOUS
100
AcDbLine
 10
282.014934
 20
-287.969136
 30
0.0
 11
303.014934
 21
-285.761947
 31
0.0
  0
SPLINE
  5
2254
100
AcDbEntity
  8
外形
  6
CONTINUOUS
100
AcDbSpline
210
0.0
220
0.0
230
1.0
 70
     8
 71
     3
 72
    11
 73
     7
 74
     0
 42
0.0000001
 43
0.0000001
 40
0.0
 40
0.0
 40
0.0
 40
0.0
 40
3.892258162230274
 40
8.09442621657274
 40
12.52362362738877
 40
17.20547155657414
 40
17.20547155657414
 40
17.20547155657414
 40
17.20547155657414
 10
322.014933888028
 20
-272.2191360571541
 30
0.0
 10
321.2583941421917
 20
-273.2870860972079
 30
0.0
 10
319.6850773432188
 20
-275.5080186360834
 30
0.0
 10
315.9653613431597
 20
-277.6798132630179
 30
0.0
 10
311.5815904745219
 20
-278.5798074587889
 30
0.0
 10
283.5775524573363
 20
-282.1871679727233
 30
0.0
 10
282.014933888028
 20
-282.9527606768874
 30
0.0
  0
LINE
  5
2258
100
AcDbEntity
  8
外形
  6
CONTINUOUS
100
AcDbLine
 10
280.98057
 20
-285.568821
 30
0.0
 11
293.047335
 21
-284.300553
 31
0.0
  0
LINE
  5
2259
100
AcDbEntity
  8
外形
  6
CONTINUOUS
100
AcDbLine
 10
281.478126
 20
-290.302746
 30
0.0
 11
280.98057
 21
-285.568821
 31
0.0
  0
LINE
  5
225A
100
AcDbEntity
  8
外形
  6
CONTINUOUS
100
AcDbLine
 10
282.014934
 20
-285.460105
 30
0.0
 11
282.014934
 21
-282.952761
 31
0.0
  0
LINE
  5
225B
100
AcDbEntity
  8
外形
  6
CONTINUOUS
100
AcDbLine
 10
280.98057
 20
-285.568821
 30
0.0
 11
282.014934
 21
-287.969136
 31
0.0
  0
LINE
  5
225C
100
AcDbEntity
  8
外形
  6
CONTINUOUS
100
AcDbLine
 10
293.047335
 20
-284.300553
 30
0.0
 11
294.081699
 21
-286.700868
 31
0.0
  0
LINE
  5
225D
100
AcDbEntity
  8
外形
  6
CONTINUOUS
100
AcDbLine
 10
294.579254
 20
-291.434792
 30
0.0
 11
294.081699
 21
-286.700868
 31
0.0
  0
DIMENSION
  5
225F
100
AcDbEntity
  8
寸法
  6
CONTINUOUS
100
AcDbDimension
  2
*D4
 10
268.406319
 20
-210.37496
 30
0.0
 11
265.906319
 21
-221.37496
 31
0.0
 12
-276.117414
 22
0.0
 32
0.0
 70
    32
  3
STANDARD
100
AcDbAlignedDimension
 13
282.014934
 23
-232.37496
 33
0.0
 14
274.675341
 24
-210.37496
 34
0.0
 50
90.0
100
AcDbRotatedDimension
1001
ACAD
1000
DSTYLE
1002
{
1070
    40
1040
1.0
1002
}
  0
LINE
  5
2260
100
AcDbEntity
  8
外形
  6
CONTINUOUS
100
AcDbLine
 10
280.91389
 20
-202.37496
 30
0.0
 11
280.91389
 21
-219.789967
 31
0.0
  0
CIRCLE
  5
2261
100
AcDbEntity
  8
外形
  6
CONTINUOUS
100
AcDbCircle
 10
287.793165
 20
-225.562365
 30
0.0
 40
2.35
  0
LINE
  5
2262
100
AcDbEntity
  8
外形
  6
CONTINUOUS
100
AcDbLine
 10
292.768607
 20
-218.752814
 30
0.0
 11
280.91389
 21
-219.789967
 31
0.0
  0
LINE
  5
2263
100
AcDbEntity
  8
外形
  6
CONTINUOUS
100
AcDbLine
 10
282.817723
 20
-232.371915
 30
0.0
 11
293.875485
 21
-231.404487
 31
0.0
  0
CIRCLE
  5
2264
100
AcDbEntity
  8
外形
  6
CONTINUOUS
100
AcDbCircle
 10
287.793165
 20
-225.562365
 30
0.0
 40
2.58
  0
LINE
  5
2266
100
AcDbEntity
  8
外形
  6
CONTINUOUS
 62
     1
100
AcDbLine
 10
281.951043
 20
-231.644684
 30
0.0
 11
282.014934
 21
-232.37496
 31
0.0
  0
LINE
  5
2267
100
AcDbEntity
  8
外形
  6
CONTINUOUS
 62
     1
100
AcDbLine
 10
282.014934
 20
-232.37496
 30
0.0
 11
282.782928
 21
-232.37496
 31
0.0
  0
ARC
  5
2268
100
AcDbEntity
  8
外形
  6
CONTINUOUS
100
AcDbCircle
 10
282.747999
 20
-231.57496
 30
0.0
 40
0.8
100
AcDbArc
 50
185.0
 51
275.0
  0
ARC
  5
2269
100
AcDbEntity
  8
外形
  6
CONTINUOUS
100
AcDbCircle
 10
281.78057
 20
-220.517199
 30
0.0
 40
0.8
100
AcDbArc
 50
95.0
 51
185.0
  0
LINE
  5
226A
100
AcDbEntity
  8
外形
  6
CONTINUOUS
100
AcDbLine
 10
280.91389
 20
-219.789967
 30
0.0
 11
281.951043
 21
-231.644684
 31
0.0
  0
ARC
  5
226B
100
AcDbEntity
  8
外形
  6
CONTINUOUS
100
AcDbCircle
 10
293.783452
 20
-221.173576
 30
0.0
 40
2.5
100
AcDbArc
 50
275.0
 51
106.843305
  0
ARC
  5
226C
100
AcDbEntity
  8
外形
  6
CONTINUOUS
100
AcDbCircle
 10
293.80576
 20
-230.607531
 30
0.0
 40
0.8
100
AcDbArc
 50
275.0
 51
5.0
  0
ARC
  5
226D
100
AcDbEntity
  8
外形
  6
CONTINUOUS
100
AcDbCircle
 10
292.838331
 20
-219.54977
 30
0.0
 40
0.8
100
AcDbArc
 50
5.0
 51
95.0
  0
LINE
  5
226E
100
AcDbEntity
  8
外形
  6
CONTINUOUS
100
AcDbLine
 10
294.602716
 20
-230.537806
 30
0.0
 11
293.635287
 21
-219.480045
 31
0.0
  0
LINE
  5
226F
100
AcDbEntity
  8
外形
  6
CONTINUOUS
100
AcDbLine
 10
294.337283
 20
-194.62496
 30
0.0
 11
280.91389
 21
-202.37496
 31
0.0
  0
LINE
  5
2273
100
AcDbEntity
  8
外形
  6
CONTINUOUS
100
AcDbLine
 10
336.514934
 20
-272.469136
 30
0.0
 11
336.514934
 21
-282.401372
 31
0.0
  0
LINE
  5
2274
100
AcDbEntity
  8
外形
  6
CONTINUOUS
100
AcDbLine
 10
336.014934
 20
-272.219136
 30
0.0
 11
336.514934
 21
-272.469136
 31
0.0
  0
LINE
  5
2275
100
AcDbEntity
  8
外形
  6
CONTINUOUS
100
AcDbLine
 10
336.014934
 20
-272.219136
 30
0.0
 11
336.014934
 21
-283.166793
 31
0.0
  0
LINE
  5
227A
100
AcDbEntity
  8
外形
  6
CONTINUOUS
100
AcDbLine
 10
322.014934
 20
-215.177303
 30
0.0
 11
322.014934
 21
-205.572617
 31
0.0
  0
LINE
  5
227E
100
AcDbEntity
  8
外形
  6
CONTINUOUS
100
AcDbLine
 10
336.014934
 20
-215.177303
 30
0.0
 11
336.014934
 21
-226.12496
 31
0.0
  0
LINE
  5
227F
100
AcDbEntity
  8
外形
  6
CONTINUOUS
100
AcDbLine
 10
336.514934
 20
-215.942724
 30
0.0
 11
336.514934
 21
-225.87496
 31
0.0
  0
LINE
  5
2280
100
AcDbEntity
  8
外形
  6
CONTINUOUS
100
AcDbLine
 10
336.014934
 20
-194.62496
 30
0.0
 11
336.514934
 21
-194.37496
 31
0.0
  0
LINE
  5
2281
100
AcDbEntity
  8
外形
  6
CONTINUOUS
100
AcDbLine
 10
336.014934
 20
-194.62496
 30
0.0
 11
336.014934
 21
-205.572617
 31
0.0
  0
LINE
  5
2282
100
AcDbEntity
  8
外形
  6
CONTINUOUS
100
AcDbLine
 10
336.514934
 20
-194.37496
 30
0.0
 11
336.514934
 21
-204.807195
 31
0.0
  0
DIMENSION
  5
2284
100
AcDbEntity
  8
寸法
  6
CONTINUOUS
100
AcDbDimension
  2
*D2
 10
425.020475
 20
-236.421
 30
0.0
 11
390.335612
 21
-233.921
 31
0.0
 12
-226.432551
 22
0.0
 32
0.0
 70
    32
  3
STANDARD
100
AcDbAlignedDimension
 13
455.020475
 23
-215.942724
 33
0.0
 14
425.020475
 24
-215.942724
 34
0.0
100
AcDbRotatedDimension
1001
ACAD
1000
DSTYLE
1002
{
1070
    40
1040
1.0
1002
}
  0
LINE
  5
228A
102
{ACAD_REACTORS
330
265C
102
}
100
AcDbEntity
  8
外形
  6
CENTER
 62
     1
100
AcDbLine
 10
440.020475
 20
-194.114217
 30
0.0
 11
440.020475
 21
-226.962659
 31
0.0
  0
LINE
  5
228F
100
AcDbEntity
  8
外形
  6
CONTINUOUS
100
AcDbLine
 10
532.014934
 20
-274.969136
 30
0.0
 11
532.014934
 21
-300.969136
 31
0.0
  0
LINE
  5
2290
100
AcDbEntity
  8
外形
  6
CONTINUOUS
100
AcDbLine
 10
530.014934
 20
-302.969136
 30
0.0
 11
530.014934
 21
-293.5369
 31
0.0
  0
LINE
  5
2291
100
AcDbEntity
  8
外形
  6
CONTINUOUS
100
AcDbLine
 10
530.014934
 20
-302.969136
 30
0.0
 11
532.014934
 21
-300.969136
 31
0.0
  0
LINE
  5
2292
100
AcDbEntity
  8
外形
  6
CONTINUOUS
100
AcDbLine
 10
530.014934
 20
-293.5369
 30
0.0
 11
530.014934
 21
-302.969136
 31
0.0
  0
LINE
  5
2293
100
AcDbEntity
  8
外形
  6
CONTINUOUS
100
AcDbLine
 10
530.014934
 20
-272.969136
 30
0.0
 11
532.014934
 21
-274.969136
 31
0.0
  0
LINE
  5
2294
100
AcDbEntity
  8
外形
  6
CONTINUOUS
100
AcDbLine
 10
530.014934
 20
-272.969136
 30
0.0
 11
530.014934
 21
-282.401372
 31
0.0
  0
LINE
  5
2296
100
AcDbEntity
  8
外形
  6
CONTINUOUS
100
AcDbLine
 10
532.014934
 20
-196.37496
 30
0.0
 11
532.014934
 21
-223.37496
 31
0.0
  0
LINE
  5
2297
100
AcDbEntity
  8
外形
  6
CONTINUOUS
100
AcDbLine
 10
530.014934
 20
-215.942724
 30
0.0
 11
530.014934
 21
-225.37496
 31
0.0
  0
LINE
  5
2298
100
AcDbEntity
  8
外形
  6
CONTINUOUS
100
AcDbLine
 10
532.014934
 20
-223.37496
 30
0.0
 11
530.014934
 21
-225.37496
 31
0.0
  0
LINE
  5
2299
100
AcDbEntity
  8
外形
  6
CONTINUOUS
100
AcDbLine
 10
530.014934
 20
-194.37496
 30
0.0
 11
530.014934
 21
-204.807195
 31
0.0
  0
LINE
  5
229A
100
AcDbEntity
  8
外形
  6
CONTINUOUS
100
AcDbLine
 10
530.014934
 20
-194.37496
 30
0.0
 11
532.014934
 21
-196.37496
 31
0.0
  0
ARC
  5
237E
102
{ACAD_REACTORS
330
265C
102
}
100
AcDbEntity
  8
外形
  6
CONTINUOUS
100
AcDbCircle
 10
440.020475
 20
-210.37496
 30
0.0
 40
16.0
100
AcDbArc
 50
290.364135
 51
339.635865
  0
LINE
  5
237F
102
{ACAD_REACTORS
330
265C
102
}
100
AcDbEntity
  8
外形
  6
CONTINUOUS
100
AcDbLine
 10
425.020475
 20
-204.807195
 30
0.0
 11
425.020475
 21
-215.942724
 31
0.0
  0
LINE
  5
2380
102
{ACAD_REACTORS
330
265C
102
}
100
AcDbEntity
  8
外形
  6
CONTINUOUS
100
AcDbLine
 10
455.020475
 20
-204.807195
 30
0.0
 11
455.020475
 21
-215.942724
 31
0.0
  0
LINE
  5
2381
100
AcDbEntity
  8
外形
  6
CONTINUOUS
100
AcDbLine
 10
336.514934
 20
-194.37496
 30
0.0
 11
422.870475
 21
-194.37496
 31
0.0
  0
LINE
  5
2382
100
AcDbEntity
  8
外形
  6
CONTINUOUS
100
AcDbLine
 10
336.014934
 20
-204.807195
 30
0.0
 11
422.870475
 21
-204.807195
 31
0.0
  0
LINE
  5
2383
100
AcDbEntity
  8
外形
  6
CONTINUOUS
100
AcDbLine
 10
336.014934
 20
-215.942724
 30
0.0
 11
422.870475
 21
-215.942724
 31
0.0
  0
LINE
  5
2384
100
AcDbEntity
  8
外形
  6
CONTINUOUS
100
AcDbLine
 10
530.014934
 20
-225.37496
 30
0.0
 11
457.170475
 21
-225.37496
 31
0.0
  0
LINE
  5
23AD
100
AcDbEntity
  8
外形
  6
CONTINUOUS
100
AcDbLine
 10
336.014934
 20
-194.62496
 30
0.0
 11
294.337283
 21
-194.62496
 31
0.0
  0
LINE
  5
23AE
100
AcDbEntity
  8
外形
  6
CONTINUOUS
100
AcDbLine
 10
336.014934
 20
-226.12496
 30
0.0
 11
306.836918
 21
-226.12496
 31
0.0
  0
LINE
  5
23AF
100
AcDbEntity
  8
外形
  6
CONTINUOUS
100
AcDbLine
 10
336.014934
 20
-205.572617
 30
0.0
 11
322.014934
 21
-205.572617
 31
0.0
  0
LINE
  5
23B0
100
AcDbEntity
  8
外形
  6
CONTINUOUS
100
AcDbLine
 10
336.014934
 20
-215.177303
 30
0.0
 11
322.014934
 21
-215.177303
 31
0.0
  0
LINE
  5
23B2
100
AcDbEntity
  8
外形
  6
CONTINUOUS
100
AcDbLine
 10
530.014934
 20
-272.969136
 30
0.0
 11
336.514934
 21
-272.969136
 31
0.0
  0
LINE
  5
23B3
100
AcDbEntity
  8
外形
  6
CONTINUOUS
100
AcDbLine
 10
530.014934
 20
-302.969136
 30
0.0
 11
336.514934
 21
-302.969136
 31
0.0
  0
ARC
  5
23B5
100
AcDbEntity
  8
外形
  6
CONTINUOUS
100
AcDbCircle
 10
515.014934
 20
-210.37496
 30
0.0
 40
16.0
100
AcDbArc
 50
339.635865
 51
20.364135
  0
ARC
  5
23B6
102
{ACAD_REACTORS
330
265C
102
}
100
AcDbEntity
  8
外形
  6
CONTINUOUS
100
AcDbCircle
 10
440.020475
 20
-210.37496
 30
0.0
 40
16.0
100
AcDbArc
 50
200.364135
 51
249.635865
  0
ARC
  5
23B9
102
{ACAD_REACTORS
330
265C
102
}
100
AcDbEntity
  8
外形
  6
CONTINUOUS
100
AcDbCircle
 10
440.020475
 20
-210.37496
 30
0.0
 40
16.0
100
AcDbArc
 50
20.364135
 51
159.635865
  0
LINE
  5
2438
100
AcDbEntity
  8
外形
  6
CONTINUOUS
100
AcDbLine
 10
336.014934
 20
-303.719136
 30
0.0
 11
304.014934
 21
-303.719136
 31
0.0
  0
LINE
  5
243A
100
AcDbEntity
  8
外形
  6
CONTINUOUS
100
AcDbLine
 10
530.014934
 20
-282.401372
 30
0.0
 11
336.014934
 21
-282.401372
 31
0.0
  0
LINE
  5
243B
100
AcDbEntity
  8
外形
  6
CONTINUOUS
100
AcDbLine
 10
530.014934
 20
-293.5369
 30
0.0
 11
336.014934
 21
-293.5369
 31
0.0
  0
LINE
  5
243D
100
AcDbEntity
  8
外形
  6
CONTINUOUS
100
AcDbLine
 10
336.014934
 20
-283.166793
 30
0.0
 11
317.269143
 21
-283.166793
 31
0.0
  0
LINE
  5
243E
100
AcDbEntity
  8
外形
  6
CONTINUOUS
100
AcDbLine
 10
336.014934
 20
-292.771479
 30
0.0
 11
304.014934
 21
-292.771479
 31
0.0
  0
LINE
  5
243F
100
AcDbEntity
  8
外形
  6
CONTINUOUS
100
AcDbLine
 10
336.014934
 20
-272.219136
 30
0.0
 11
322.014934
 21
-272.219136
 31
0.0
  0
ARC
  5
2440
100
AcDbEntity
  8
外形
  6
CONTINUOUS
100
AcDbCircle
 10
515.014934
 20
-287.969136
 30
0.0
 40
16.0
100
AcDbArc
 50
339.635865
 51
20.364135
  0
ARC
  5
2441
100
AcDbEntity
  8
外形
  6
CONTINUOUS
100
AcDbCircle
 10
307.014934
 20
-272.219136
 30
0.0
 40
15.0
100
AcDbArc
 50
313.1267
 51
0.0
  0
LINE
  5
2444
100
AcDbEntity
  8
外形
  6
CONTINUOUS
100
AcDbLine
 10
304.014934
 20
-285.184597
 30
0.0
 11
304.014934
 21
-304.891786
 31
0.0
  0
DIMENSION
  5
2483
100
AcDbEntity
  8
寸法
  6
CONTINUOUS
100
AcDbDimension
  2
*D15
 10
281.951043
 20
-231.644684
 30
0.0
 11
252.388997
 21
-205.22779
 31
0.0
 12
-276.117414
 22
0.0
 32
0.0
 70
    34
  3
STANDARD
100
AcDb2LineAngularDimension
 13
538.678213
 23
-232.37496
 33
0.0
 14
274.675341
 24
-232.37496
 34
0.0
 15
280.91389
 25
-219.789967
 35
0.0
 16
261.307845
 26
-200.891361
 36
0.0
1001
ACAD
1000
DSTYLE
1002
{
1070
    40
1040
1.0
1002
}
  0
LINE
  5
2484
100
AcDbEntity
  8
外形
  6
CONTINUOUS
100
AcDbLine
 10
294.580036
 20
-230.278578
 30
0.0
 11
302.088516
 21
-229.621672
 31
0.0
  0
LINE
  5
2496
100
AcDbEntity
  8
外形
  6
CONTINUOUS
100
AcDbLine
 10
303.014934
 20
-285.761947
 30
0.0
 11
303.014934
 21
-305.469136
 31
0.0
  0
LINE
  5
24A4
100
AcDbEntity
  8
外形
  6
CONTINUOUS
100
AcDbLine
 10
302.088516
 20
-229.621672
 30
0.0
 11
302.879724
 21
-228.251261
 31
0.0
  0
LINE
  5
24C1
100
AcDbEntity
  8
外形
  6
CONTINUOUS
100
AcDbLine
 10
304.014934
 20
-285.184597
 30
0.0
 11
303.014934
 21
-285.761947
 31
0.0
  0
SPLINE
  5
24C2
100
AcDbEntity
  8
外形
  6
CONTINUOUS
100
AcDbSpline
210
-0.1505046224565348
220
0.988609305347272
230
0.0
 70
    24
 71
     3
 72
     8
 73
     4
 74
     2
 42
0.0000001
 43
0.0000001
 44
0.0000000001
 40
0.0
 40
0.0
 40
0.0
 40
0.0
 40
13.40692355737306
 40
13.40692355737306
 40
13.40692355737306
 40
13.40692355737306
 10
317.269143272927
 20
-283.1667928790796
 30
0.0
 10
312.8510734779609
 20
-283.8393942018483
 30
0.0
 10
308.4330036829947
 20
-284.511995524617
 30
0.0
 10
304.0149338880285
 20
-285.1845968473856
 30
0.0
 11
317.269143272927
 21
-283.1667928790796
 31
0.0
 11
304.0149338880285
 21
-285.1845968473856
 31
0.0
  0
LINE
  5
24C6
100
AcDbEntity
  8
外形
  6
CONTINUOUS
100
AcDbLine
 10
457.170475
 20
-204.807195
 30
0.0
 11
530.014934
 21
-204.807195
 31
0.0
  0
LINE
  5
24C7
100
AcDbEntity
  8
外形
  6
CONTINUOUS
100
AcDbLine
 10
457.170475
 20
-194.37496
 30
0.0
 11
530.014934
 21
-194.37496
 31
0.0
  0
LINE
  5
24C8
100
AcDbEntity
  8
外形
  6
CONTINUOUS
100
AcDbLine
 10
457.170475
 20
-215.942724
 30
0.0
 11
530.014934
 21
-215.942724
 31
0.0
  0
LINE
  5
24C9
100
AcDbEntity
  8
外形
  6
CONTINUOUS
100
AcDbLine
 10
422.870475
 20
-225.37496
 30
0.0
 11
336.514934
 21
-225.37496
 31
0.0
  0
LINE
  5
24D5
102
{ACAD_REACTORS
330
265C
102
}
100
AcDbEntity
  8
外形
  6
CONTINUOUS
100
AcDbLine
 10
434.452711
 20
-225.37496
 30
0.0
 11
445.58824
 21
-225.37496
 31
0.0
  0
ARC
  5
24E2
100
AcDbEntity
  8
外形
  6
CONTINUOUS
100
AcDbCircle
 10
212.639119
 20
-210.37496
 30
0.0
 40
16.0
100
AcDbArc
 50
20.364135
 51
90.0
  0
CIRCLE
  5
24E5
100
AcDbEntity
  8
外形
  6
CENTER
 62
     1
100
AcDbCircle
 10
212.639119
 20
-210.37496
 30
0.0
 40
22.0
  0
DIMENSION
  5
2512
100
AcDbEntity
  8
寸法
  6
CONTINUOUS
100
AcDbDimension
  2
*D16
 10
212.639119
 20
-232.37496
 30
0.0
 11
203.516986
 21
-235.991369
 31
0.0
 12
-286.650457
 22
0.0
 32
0.0
 70
    34
  3
STANDARD
100
AcDb2LineAngularDimension
 13
217.608651
 23
-204.191344
 33
0.0
 14
212.639119
 24
-232.37496
 34
0.0
 15
212.639119
 25
-182.863325
 35
0.0
 16
212.033524
 26
-242.772623
 36
0.0
1001
ACAD
1000
DSTYLE
1002
{
1070
    40
1040
1.0
1002
}
  0
HATCH
  5
265C
100
AcDbEntity
  8
外形
  6
CONTINUOUS
100
AcDbHatch
 10
0.0
 20
0.0
 30
0.0
210
0.0
220
0.0
230
1.0
  2
ANSI31
 70
     0
 71
     1
 91
        4
 92
        7
 72
     1
 73
     1
 93
        4
 10
440.0204751804221
 20
-194.3749597171722
 42
0.3135528725660003
 10
425.0204751804223
 20
-204.8071953543419
 42
0.0
 10
425.0204751804223
 20
-210.3749597171723
 42
0.0
 10
440.0204751804221
 20
-210.3749597171723
 42
0.0
 97
        4
330
23B9
330
237F
330
221D
330
228A
 92
        7
 72
     1
 73
     1
 93
        4
 10
440.0204751804221
 20
-194.3749597171722
 42
0.0
 10
440.0204751804221
 20
-210.3749597171722
 42
0.0
 10
455.0204751804222
 20
-210.3749597171722
 42
0.0
 10
455.0204751804222
 20
-204.8071953543423
 42
0.3135528725660056
 97
        4
330
228A
330
221D
330
2380
330
23B9
 92
        7
 72
     1
 73
     1
 93
        5
 10
455.0204751804222
 20
-215.9427240800023
 42
0.0
 10
455.0204751804222
 20
-210.3749597171722
 42
0.0
 10
440.0204751804222
 20
-210.3749597171722
 42
0.0
 10
440.0204751804222
 20
-225.3749597171722
 42
0.0
 10
445.5882395432521
 20
-225.3749597171722
 42
0.2183631446846991
 97
        5
330
2380
330
221D
330
228A
330
24D5
330
237E
 92
        7
 72
     1
 73
     1
 93
        5
 10
434.4527108175922
 20
-225.3749597171722
 42
0.0
 10
440.0204751804221
 20
-225.3749597171723
 42
0.0
 10
440.0204751804221
 20
-210.3749597171721
 42
0.0
 10
425.0204751804222
 20
-210.3749597171721
 42
0.0
 10
425.0204751804223
 20
-215.9427240800026
 42
0.2183631446846923
 97
        5
330
221D
330
237F
330
23B6
330
24D5
330
228A
 75
     0
 76
     1
 52
0.0
 41
15.0
 77
     0
 78
     1
 53
45.0
 43
-235.579409
 44
146.919615
 45
-1.325825214724776
 46
1.325825214724776
 79
     0
 47
0.118346
 98
        4
 10
435.002246
 20
-202.600482
 10
449.427837
 20
-204.279344
 10
448.480091
 20
-217.297403
 10
433.434605
 20
-217.415747
  0
ARC
  5
265D
100
AcDbEntity
  8
外形
  6
CONTINUOUS
100
AcDbCircle
 10
212.639119
 20
-210.37496
 30
0.0
 40
21.55
100
AcDbArc
 50
215.701822
 51
248.978856
  0
LINE
  5
265E
100
AcDbEntity
  8
外形
  6
CONTINUOUS
100
AcDbLine
 10
195.139119
 20
-211.87496
 30
0.0
 11
195.139119
 21
-222.950829
 31
0.0
  0
LINE
  5
266C
100
AcDbEntity
  8
外形
  6
CONTINUOUS
100
AcDbLine
 10
227.639119
 20
-204.807195
 30
0.0
 11
227.639119
 21
-215.942724
 31
0.0
  0
ARC
  5
266D
100
AcDbEntity
  8
外形
  6
CONTINUOUS
100
AcDbCircle
 10
212.639119
 20
-210.37496
 30
0.0
 40
16.0
100
AcDbArc
 50
273.813735
 51
339.635865
  0
ARC
  5
266F
100
AcDbEntity
  8
外形
  6
CONTINUOUS
100
AcDbCircle
 10
212.639119
 20
-211.87496
 30
0.0
 40
17.5
100
AcDbArc
 50
90.0
 51
175.0829
  0
LINE
  5
269A
100
AcDbEntity
  8
外形
  6
CONTINUOUS
100
AcDbLine
 10
217.928928
 20
-202.37496
 30
0.0
 11
197.94218
 21
-202.37496
 31
0.0
  0
SPLINE
  5
269F
100
AcDbEntity
  8
外形
  6
CONTINUOUS
100
AcDbSpline
210
0.0
220
0.0
230
-1.0
 70
     8
 71
     3
 72
     9
 73
     5
 74
     3
 42
0.0000001
 43
0.0000001
 44
0.0000000001
 40
0.0
 40
0.0
 40
0.0
 40
0.0
 40
23.4103545627957
 40
32.50407079228332
 40
32.50407079228332
 40
32.50407079228332
 40
32.50407079228332
 10
292.4109078454069
 20
-195.7371532134053
 30
0.0
 10
300.919064247186
 20
-195.305066088122
 30
0.0
 10
312.7322009193982
 20
-194.7051353834856
 30
0.0
 10
319.9856302761159
 20
-203.1968702113731
 30
0.0
 10
322.014933888028
 20
-205.5726165390976
 30
0.0
 11
292.4109078454069
 21
-195.7371532134053
 31
0.0
 11
315.5701249392123
 21
-199.1570018003753
 31
0.0
 11
322.014933888028
 21
-205.5726165390976
 31
0.0
  0
SPLINE
  5
26A1
100
AcDbEntity
  8
外形
  6
CONTINUOUS
100
AcDbSpline
210
0.0
220
0.0
230
1.0
 70
     8
 71
     3
 72
     9
 73
     5
 74
     0
 42
0.0000001
 43
0.0000001
 40
11.95720989886003
 40
11.95720989886003
 40
11.95720989886003
 40
11.95720989886003
 40
23.4103545627957
 40
32.50407079228332
 40
32.50407079228332
 40
32.50407079228332
 40
32.50407079228332
 10
304.0149338880285
 20
-227.751260527389
 30
0.0
 10
308.9933647588066
 20
-224.6558969624162
 30
0.0
 10
315.4005060021394
 20
-222.9209459202018
 30
0.0
 10
319.985630276116
 20
-217.5530492229714
 30
0.0
 10
322.014933888028
 20
-215.1773028952468
 30
0.0
  0
DIMENSION
  5
26AD
100
AcDbEntity
  8
寸法
  6
CONTINUOUS
100
AcDbDimension
  2
*D17
 10
448.851578
 20
-223.717059
 30
0.0
 11
422.972978
 21
-184.619466
 31
0.0
 12
-276.117414
 22
0.0
 32
0.0
 70
   163
  3
STANDARD
100
AcDbDiametricDimension
 15
431.189372
 25
-197.03286
 35
0.0
 40
0.0
1001
ACAD
1000
DSTYLE
1002
{
1070
    40
1040
1.0
1002
}
  0
LINE
  5
26D7
100
AcDbEntity
  8
外形
  6
CONTINUOUS
100
AcDbLine
 10
303.014934
 20
-305.469136
 30
0.0
 11
283.879396
 21
-305.469136
 31
0.0
  0
LINE
  5
26E8
100
AcDbEntity
  8
外形
  6
CONTINUOUS
100
AcDbLine
 10
304.014934
 20
-304.891786
 30
0.0
 11
303.014934
 21
-305.469136
 31
0.0
  0
LINE
  5
26F9
100
AcDbEntity
  8
外形
  6
CONTINUOUS
100
AcDbLine
 10
336.014934
 20
-226.12496
 30
0.0
 11
336.514934
 21
-225.87496
 31
0.0
  0
LINE
  5
2709
100
AcDbEntity
  8
外形
  6
CONTINUOUS
100
AcDbLine
 10
304.014934
 20
-227.751261
 30
0.0
 11
303.745749
 21
-227.751261
 31
0.0
  0
ARC
  5
270A
100
AcDbEntity
  8
外形
  6
CONTINUOUS
100
AcDbCircle
 10
303.745749
 20
-228.751261
 30
0.0
 40
1.0
100
AcDbArc
 50
90.0
 51
150.0
  0
ENDSEC
  0
SECTION
  2
OBJECTS
  0
DICTIONARY
  5
1E
100
AcDbDictionary
  3
ACAD_GROUP
350
1C
  3
ACAD_MLINESTYLE
350
1D
  3
ACDBVARIABLEDICTIONARY
350
147A
  3
DRAWINGVARIABLESDICT
350
C58
  0
DICTIONARY
  5
38
100
AcDbDictionary
280
     1
  3
ACAD_XREC_ROUNDTRIP
360
39
  0
DICTIONARY
  5
22
100
AcDbDictionary
280
     1
  3
ACAD_XREC_ROUNDTRIP
360
23
  0
DICTIONARY
  5
3
100
AcDbDictionary
280
     1
  3
ACAD_LAYOUTSELFREF
360
4
  0
DICTIONARY
  5
A
100
AcDbDictionary
280
     1
  3
ACAD_LAYOUTSELFREF
360
B
  0
DICTIONARY
  5
1C
102
{ACAD_REACTORS
330
1E
102
}
100
AcDbDictionary
  0
DICTIONARY
  5
1D
102
{ACAD_REACTORS
330
1E
102
}
100
AcDbDictionary
  3
STANDARD
350
20
  0
DICTIONARY
  5
147A
102
{ACAD_REACTORS
330
1E
102
}
100
AcDbDictionary
  3
SORTENTS
350
147B
  0
DICTIONARY
  5
C58
102
{ACAD_REACTORS
330
1E
102
}
100
AcDbDictionary
1001
DRAWINGVARIABLESXDATA
1000
POLARMODE
1000
0
  0
XRECORD
  5
39
102
{ACAD_REACTORS
330
38
102
}
100
AcDbXrecord
102
PLOTBIT
280
     0
  0
XRECORD
  5
23
102
{ACAD_REACTORS
330
22
102
}
100
AcDbXrecord
102
ACADR14ROUNDTRIP
1000
DSTYLE
1002
{
1070
   341
340
0
1070
   343
340
0
1070
   344
340
0
1002
}
  0
XRECORD
  5
4
102
{ACAD_REACTORS
330
3
102
}
100
AcDbXrecord
340
2
  0
XRECORD
  5
B
102
{ACAD_REACTORS
330
A
102
}
100
AcDbXrecord
340
9
  0
MLINESTYLE
  5
20
102
{ACAD_REACTORS
330
1D
102
}
100
AcDbMlineStyle
  2
STANDARD
 70
     0
  3

 62
     0
 51
90.0
 52
90.0
 71
     2
 49
0.5
 62
   256
  6
BYLAYER
 49
-0.5
 62
   256
  6
BYLAYER
  0
DICTIONARYVAR
  5
147B
102
{ACAD_REACTORS
330
147A
102
}
100
DictionaryVariables
280
     0
  1
96
  0
ENDSEC
  0
EOF
