  0
SECTION
  2
HEADER
  9
$ACADVER
  1
AC1014
  9
$ACADMAINTVER
 70
     0
  9
$DWGCODEPAGE
  3
ANSI_932
  9
$INSBASE
 10
-587.250952
 20
747.890188
 30
0.0
  9
$EXTMIN
 10
973.412887
 20
-100.85417
 30
0.0
  9
$EXTMAX
 10
1411.738261
 20
69.262003
 30
0.0
  9
$LIMMIN
 10
943.093082
 20
-213.471519
  9
$LIMMAX
 10
1509.320841
 20
162.216486
  9
$ORTHOMODE
 70
     1
  9
$REGENMODE
 70
     1
  9
$FILLMODE
 70
     1
  9
$QTEXTMODE
 70
     0
  9
$MIRRTEXT
 70
     1
  9
$DRAGMODE
 70
     2
  9
$LTSCALE
 40
5.0
  9
$OSMODE
 70
    47
  9
$ATTMODE
 70
     1
  9
$TEXTSIZE
 40
5.0
  9
$TRACEWID
 40
0.05
  9
$TEXTSTYLE
  7
STANDARD
  9
$CLAYER
  8
外形
  9
$CELTYPE
  6
CONTINUOUS
  9
$CECOLOR
 62
   256
  9
$CELTSCALE
 40
1.0
  9
$DELOBJ
 70
     1
  9
$DISPSILH
 70
     0
  9
$DIMSCALE
 40
0.0
  9
$DIMASZ
 40
2.0
  9
$DIMEXO
 40
1.0
  9
$DIMDLI
 40
8.0
  9
$DIMRND
 40
0.0
  9
$DIMDLE
 40
0.0
  9
$DIMEXE
 40
2.0
  9
$DIMTP
 40
0.0
  9
$DIMTM
 40
0.0
  9
$DIMTXT
 40
3.0
  9
$DIMCEN
 40
-1.0
  9
$DIMTSZ
 40
0.0
  9
$DIMTOL
 70
     0
  9
$DIMLIM
 70
     0
  9
$DIMTIH
 70
     0
  9
$DIMTOH
 70
     0
  9
$DIMSE1
 70
     0
  9
$DIMSE2
 70
     0
  9
$DIMTAD
 70
     1
  9
$DIMZIN
 70
     8
  9
$DIMBLK
  1

  9
$DIMASO
 70
     1
  9
$DIMSHO
 70
     1
  9
$DIMPOST
  1

  9
$DIMAPOST
  1

  9
$DIMALT
 70
     0
  9
$DIMALTD
 70
     2
  9
$DIMALTF
 40
25.4
  9
$DIMLFAC
 40
1.0
  9
$DIMTOFL
 70
     1
  9
$DIMTVP
 40
0.0
  9
$DIMTIX
 70
     0
  9
$DIMSOXD
 70
     0
  9
$DIMSAH
 70
     1
  9
$DIMBLK1
  1
_OPEN30
  9
$DIMBLK2
  1
_OPEN30
  9
$DIMSTYLE
  2
STANDARD
  9
$DIMCLRD
 70
     1
  9
$DIMCLRE
 70
     1
  9
$DIMCLRT
 70
     3
  9
$DIMTFAC
 40
1.0
  9
$DIMGAP
 40
1.0
  9
$DIMJUST
 70
     0
  9
$DIMSD1
 70
     0
  9
$DIMSD2
 70
     0
  9
$DIMTOLJ
 70
     1
  9
$DIMTZIN
 70
     8
  9
$DIMALTZ
 70
     0
  9
$DIMALTTZ
 70
     0
  9
$DIMFIT
 70
     3
  9
$DIMUPT
 70
     0
  9
$DIMUNIT
 70
     2
  9
$DIMDEC
 70
     2
  9
$DIMTDEC
 70
     2
  9
$DIMALTU
 70
     2
  9
$DIMALTTD
 70
     2
  9
$DIMTXSTY
  7
STANDARD
  9
$DIMAUNIT
 70
     0
  9
$LUNITS
 70
     2
  9
$LUPREC
 70
     3
  9
$SKETCHINC
 40
0.1
  9
$FILLETRAD
 40
15.5
  9
$AUNITS
 70
     0
  9
$AUPREC
 70
     3
  9
$MENU
  1
acad
  9
$ELEVATION
 40
0.0
  9
$PELEVATION
 40
0.0
  9
$THICKNESS
 40
0.0
  9
$LIMCHECK
 70
     0
  9
$BLIPMODE
 70
     0
  9
$CHAMFERA
 40
0.0
  9
$CHAMFERB
 40
0.0
  9
$CHAMFERC
 40
0.0
  9
$CHAMFERD
 40
0.0
  9
$SKPOLY
 70
     0
  9
$TDCREATE
 40
2450751.535399305
  9
$TDUPDATE
 40
2452030.731724537
  9
$TDINDWG
 40
2.0340114583
  9
$TDUSRTIMER
 40
2.0340114583
  9
$USRTIMER
 70
     1
  9
$ANGBASE
 50
0.0
  9
$ANGDIR
 70
     0
  9
$PDMODE
 70
    32
  9
$PDSIZE
 40
0.0
  9
$PLINEWID
 40
0.0
  9
$COORDS
 70
     2
  9
$SPLFRAME
 70
     0
  9
$SPLINETYPE
 70
     5
  9
$SPLINESEGS
 70
     8
  9
$ATTDIA
 70
     0
  9
$ATTREQ
 70
     1
  9
$HANDLING
 70
     1
  9
$HANDSEED
  5
2F03
  9
$SURFTAB1
 70
     6
  9
$SURFTAB2
 70
     6
  9
$SURFTYPE
 70
     6
  9
$SURFU
 70
     6
  9
$SURFV
 70
     6
  9
$UCSNAME
  2

  9
$UCSORG
 10
40.53800450572526
 20
146.9196145921314
 30
0.0
  9
$UCSXDIR
 10
1.0
 20
0.0
 30
0.0
  9
$UCSYDIR
 10
0.0
 20
1.0
 30
0.0
  9
$PUCSNAME
  2

  9
$PUCSORG
 10
0.0
 20
0.0
 30
0.0
  9
$PUCSXDIR
 10
1.0
 20
0.0
 30
0.0
  9
$PUCSYDIR
 10
0.0
 20
1.0
 30
0.0
  9
$USERI1
 70
     0
  9
$USERI2
 70
     0
  9
$USERI3
 70
     0
  9
$USERI4
 70
     0
  9
$USERI5
 70
     0
  9
$USERR1
 40
0.0
  9
$USERR2
 40
0.0
  9
$USERR3
 40
0.0
  9
$USERR4
 40
0.0
  9
$USERR5
 40
0.0
  9
$WORLDVIEW
 70
     1
  9
$SHADEDGE
 70
     3
  9
$SHADEDIF
 70
    70
  9
$TILEMODE
 70
     1
  9
$MAXACTVP
 70
    16
  9
$PINSBASE
 10
0.0
 20
0.0
 30
0.0
  9
$PLIMCHECK
 70
     0
  9
$PEXTMIN
 10
1.000000E+20
 20
1.000000E+20
 30
1.000000E+20
  9
$PEXTMAX
 10
-1.000000E+20
 20
-1.000000E+20
 30
-1.000000E+20
  9
$PLIMMIN
 10
0.0
 20
0.0
  9
$PLIMMAX
 10
12.0
 20
9.0
  9
$UNITMODE
 70
     0
  9
$VISRETAIN
 70
     0
  9
$PLINEGEN
 70
     0
  9
$PSLTSCALE
 70
     1
  9
$TREEDEPTH
 70
  3020
  9
$PICKSTYLE
 70
     1
  9
$CMLSTYLE
  2
STANDARD
  9
$CMLJUST
 70
     0
  9
$CMLSCALE
 40
1.0
  9
$PROXYGRAPHICS
 70
     1
  9
$MEASUREMENT
 70
     0
  0
ENDSEC
  0
SECTION
  2
CLASSES
  0
CLASS
  1
LWPOLYLINE
  2
AcDbPolyline
  3
"AutoCAD"
 90
        0
280
     0
281
     1
  0
CLASS
  1
ACDBDICTIONARYWDFLT
  2
AcDbDictionaryWithDefault
  3
AutoCAD 2000
 90
        0
280
     1
281
     0
  0
CLASS
  1
ACDBPLACEHOLDER
  2
AcDbPlaceHolder
  3
AutoCAD 2000
 90
        0
280
     1
281
     0
  0
CLASS
  1
LAYOUT
  2
AcDbLayout
  3
AutoCAD 2000
 90
        0
280
     1
281
     0
  0
CLASS
  1
LONG_TRANSACTION
  2
AcDbLongTransaction
  3
AutoCAD 2000
 90
        0
280
     1
281
     0
  0
CLASS
  1
LWPOLYLINE
  2
AcDbPolyline
  3
"AutoCAD"
 90
        0
280
     0
281
     1
  0
CLASS
  1
HATCH
  2
AcDbHatch
  3
"ACAD_SEDONA"
 90
        0
280
     0
281
     1
  0
CLASS
  1
XRECORD
  2
AcDbXrecord
  3
"<Built In>"
 90
        0
280
     0
281
     0
  0
CLASS
  1
DICTIONARYVAR
  2
AcDbDictionaryVar
  3
"AutoCAD"
 90
        0
280
     0
281
     0
  0
ENDSEC
  0
SECTION
  2
TABLES
  0
TABLE
  2
VPORT
  5
16
100
AcDbSymbolTable
 70
     1
  0
VPORT
  5
2EFE
100
AcDbSymbolTableRecord
100
AcDbViewportTableRecord
  2
*ACTIVE
 70
     0
 10
0.0
 20
0.0
 11
1.0
 21
1.0
 12
1161.732169
 22
-18.987438
 13
0.0
 23
0.0
 14
1.0
 24
1.0
 15
10.0
 25
10.0
 16
0.0
 26
0.0
 36
1.0
 17
0.0
 27
0.0
 37
0.0
 40
314.477351
 41
1.710425
 42
50.0
 43
0.0
 44
0.0
 50
0.0
 51
0.0
 71
     0
 72
   100
 73
     1
 74
     1
 75
     0
 76
     0
 77
     0
 78
     2
  0
ENDTAB
  0
TABLE
  2
LTYPE
  5
11
100
AcDbSymbolTable
 70
     2
  0
LTYPE
  5
12
100
AcDbSymbolTableRecord
100
AcDbLinetypeTableRecord
  2
BYBLOCK
 70
     0
  3

 72
    65
 73
     0
 40
0.0
  0
LTYPE
  5
13
100
AcDbSymbolTableRecord
100
AcDbLinetypeTableRecord
  2
BYLAYER
 70
     0
  3

 72
    65
 73
     0
 40
0.0
  0
LTYPE
  5
7
100
AcDbSymbolTableRecord
100
AcDbLinetypeTableRecord
  2
CONTINUOUS
 70
     0
  3
Solid line
 72
    65
 73
     0
 40
0.0
  0
LTYPE
  5
AA
100
AcDbSymbolTableRecord
100
AcDbLinetypeTableRecord
  2
CENTER
 70
     0
  3
Center ____ _ ____ _ ____ _ ____ _ ____ _ ____
 72
    65
 73
     4
 40
2.0
 49
1.25
 74
     0
 49
-0.25
 74
     0
 49
0.25
 74
     0
 49
-0.25
 74
     0
  0
ENDTAB
  0
TABLE
  2
LAYER
  5
E
100
AcDbSymbolTable
 70
     4
  0
LAYER
  5
6
100
AcDbSymbolTableRecord
100
AcDbLayerTableRecord
  2
0
 70
     0
 62
     7
  6
CONTINUOUS
  0
LAYER
  5
2C
100
AcDbSymbolTableRecord
100
AcDbLayerTableRecord
  2
外形
 70
     0
 62
     4
  6
CONTINUOUS
  0
LAYER
  5
37
102
{ACAD_XDICTIONARY
360
38
102
}
100
AcDbSymbolTableRecord
100
AcDbLayerTableRecord
  2
DEFPOINTS
 70
     0
 62
     7
  6
CONTINUOUS
  0
LAYER
  5
1F
100
AcDbSymbolTableRecord
100
AcDbLayerTableRecord
  2
寸法
 70
     0
 62
     1
  6
CONTINUOUS
  0
ENDTAB
  0
TABLE
  2
STYLE
  5
F
100
AcDbSymbolTable
 70
     1
  0
STYLE
  5
10
100
AcDbSymbolTableRecord
100
AcDbTextStyleTableRecord
  2
STANDARD
 70
     0
 40
0.0
 41
1.0
 50
0.0
 71
     0
 42
5.0
  3
MONOTXT
  4
BIGFONT
  0
ENDTAB
  0
TABLE
  2
VIEW
  5
14
100
AcDbSymbolTable
 70
     0
  0
ENDTAB
  0
TABLE
  2
UCS
  5
15
100
AcDbSymbolTable
 70
     0
  0
ENDTAB
  0
TABLE
  2
APPID
  5
18
100
AcDbSymbolTable
 70
     2
  0
APPID
  5
19
100
AcDbSymbolTableRecord
100
AcDbRegAppTableRecord
  2
ACAD
 70
     0
  0
APPID
  5
C59
100
AcDbSymbolTableRecord
100
AcDbRegAppTableRecord
  2
DRAWINGVARIABLESXDATA
 70
     0
  0
ENDTAB
  0
TABLE
  2
DIMSTYLE
  5
1A
100
AcDbSymbolTable
 70
     1
  0
DIMSTYLE
105
21
102
{ACAD_XDICTIONARY
360
22
102
}
102
{ACAD_REACTORS
330
2356
330
2378
330
237A
330
237F
330
239F
330
23BB
330
2351
102
}
100
AcDbSymbolTableRecord
100
AcDbDimStyleTableRecord
  2
STANDARD
 70
     0
  3

  4

  5

  6
_OPEN30
  7
_OPEN30
 40
0.0
 41
2.0
 42
1.0
 43
8.0
 44
2.0
 45
0.0
 46
0.0
 47
0.0
 48
0.0
140
3.0
141
-1.0
142
0.0
143
25.4
144
1.0
145
0.0
146
1.0
147
1.0
 71
     0
 72
     0
 73
     0
 74
     0
 75
     0
 76
     0
 77
     1
 78
     8
170
     0
171
     2
172
     1
173
     1
174
     0
175
     0
176
     1
177
     1
178
     3
270
     2
271
     2
272
     2
273
     2
274
     2
340
10
275
     0
280
     0
281
     0
282
     0
283
     1
284
     8
285
     0
286
     0
287
     3
288
     0
  0
ENDTAB
  0
TABLE
  2
BLOCK_RECORD
  5
1
100
AcDbSymbolTable
 70
     8
  0
BLOCK_RECORD
  5
2
102
{ACAD_XDICTIONARY
360
3
102
}
100
AcDbSymbolTableRecord
100
AcDbBlockTableRecord
  2
*MODEL_SPACE
  0
BLOCK_RECORD
  5
9
102
{ACAD_XDICTIONARY
360
A
102
}
100
AcDbSymbolTableRecord
100
AcDbBlockTableRecord
  2
*PAPER_SPACE
  0
BLOCK_RECORD
  5
470
100
AcDbSymbolTableRecord
100
AcDbBlockTableRecord
  2
_OPEN30
  0
BLOCK_RECORD
  5
2254
100
AcDbSymbolTableRecord
100
AcDbBlockTableRecord
  2
*D1
  0
BLOCK_RECORD
  5
2288
100
AcDbSymbolTableRecord
100
AcDbBlockTableRecord
  2
*D2
  0
BLOCK_RECORD
  5
22A0
100
AcDbSymbolTableRecord
100
AcDbBlockTableRecord
  2
*D3
  0
BLOCK_RECORD
  5
22B8
100
AcDbSymbolTableRecord
100
AcDbBlockTableRecord
  2
*D4
  0
BLOCK_RECORD
  5
22C4
100
AcDbSymbolTableRecord
100
AcDbBlockTableRecord
  2
*D5
  0
BLOCK_RECORD
  5
2311
100
AcDbSymbolTableRecord
100
AcDbBlockTableRecord
  2
*D6
  0
BLOCK_RECORD
  5
232F
100
AcDbSymbolTableRecord
100
AcDbBlockTableRecord
  2
*D7
  0
ENDTAB
  0
ENDSEC
  0
SECTION
  2
BLOCKS
  0
BLOCK
  5
5
100
AcDbEntity
  8
0
100
AcDbBlockBegin
  2
*MODEL_SPACE
 70
     0
 10
0.0
 20
0.0
 30
0.0
  3
*MODEL_SPACE
  1

  0
ENDBLK
  5
8
100
AcDbEntity
  8
0
100
AcDbBlockEnd
  0
BLOCK
  5
C
100
AcDbEntity
 67
     1
  8
0
100
AcDbBlockBegin
  2
*PAPER_SPACE
 70
     0
 10
0.0
 20
0.0
 30
0.0
  3
*PAPER_SPACE
  1

  0
ENDBLK
  5
D
100
AcDbEntity
 67
     1
  8
0
100
AcDbBlockEnd
  0
BLOCK
  5
471
100
AcDbEntity
  8
0
100
AcDbBlockBegin
  2
_OPEN30
 70
     0
 10
0.0
 20
0.0
 30
0.0
  3
_OPEN30
  1

  0
LINE
  5
472
100
AcDbEntity
  8
0
  6
BYBLOCK
 62
     0
100
AcDbLine
 10
-1.0
 20
0.267949
 30
0.0
 11
0.0
 21
0.0
 31
0.0
  0
LINE
  5
473
100
AcDbEntity
  8
0
  6
BYBLOCK
 62
     0
100
AcDbLine
 10
0.0
 20
0.0
 30
0.0
 11
-1.0
 21
-0.267949
 31
0.0
  0
LINE
  5
474
100
AcDbEntity
  8
0
  6
BYBLOCK
 62
     0
100
AcDbLine
 10
0.0
 20
0.0
 30
0.0
 11
-1.0
 21
0.0
 31
0.0
  0
ENDBLK
  5
475
100
AcDbEntity
  8
0
100
AcDbBlockEnd
  0
BLOCK
  5
241E
100
AcDbEntity
  8
0
100
AcDbBlockBegin
  2
*D1
 70
     1
 10
0.0
 20
0.0
 30
0.0
  3
*D1
  1

  0
LINE
  5
241F
100
AcDbEntity
  8
0
  6
BYBLOCK
 62
     1
100
AcDbLine
 10
2240.231613
 20
-790.578236
 30
0.0
 11
2240.231613
 21
-804.539861
 31
0.0
  0
LINE
  5
2420
100
AcDbEntity
  8
0
  6
BYBLOCK
 62
     1
100
AcDbLine
 10
2540.231613
 20
-780.078236
 30
0.0
 11
2540.231613
 21
-804.539861
 31
0.0
  0
LINE
  5
2421
100
AcDbEntity
  8
0
  6
BYBLOCK
 62
     1
100
AcDbLine
 10
2242.231613
 20
-802.539861
 30
0.0
 11
2538.231613
 21
-802.539861
 31
0.0
  0
INSERT
  5
2422
100
AcDbEntity
  8
0
  6
BYBLOCK
 62
     1
100
AcDbBlockReference
  2
_OPEN30
 10
2240.231613
 20
-802.539861
 30
0.0
 41
2.0
 42
2.0
 43
2.0
 50
180.0
  0
INSERT
  5
2423
100
AcDbEntity
  8
0
  6
BYBLOCK
 62
     1
100
AcDbBlockReference
  2
_OPEN30
 10
2540.231613
 20
-802.539861
 30
0.0
 41
2.0
 42
2.0
 43
2.0
  0
MTEXT
  5
2424
100
AcDbEntity
  8
0
  6
BYBLOCK
 62
     3
100
AcDbMText
 10
2390.231613
 20
-800.039861
 30
0.0
 40
3.0
 41
0.0
 71
     5
 72
     1
  1
\A1;300
  0
POINT
  5
2425
100
AcDbEntity
  8
DEFPOINTS
  6
BYBLOCK
 62
     0
100
AcDbPoint
 10
2240.231613
 20
-789.578236
 30
0.0
  0
POINT
  5
2426
100
AcDbEntity
  8
DEFPOINTS
  6
BYBLOCK
 62
     0
100
AcDbPoint
 10
2540.231613
 20
-779.078236
 30
0.0
  0
POINT
  5
2427
100
AcDbEntity
  8
DEFPOINTS
  6
BYBLOCK
 62
     0
100
AcDbPoint
 10
2540.231613
 20
-802.539861
 30
0.0
  0
ENDBLK
  5
2428
100
AcDbEntity
  8
0
100
AcDbBlockEnd
  0
BLOCK
  5
2BB7
100
AcDbEntity
  8
0
100
AcDbBlockBegin
  2
*D2
 70
     1
 10
0.0
 20
0.0
 30
0.0
  3
*D2
  1

  0
LINE
  5
2BB8
100
AcDbEntity
  8
0
  6
BYBLOCK
 62
     1
100
AcDbLine
 10
1105.074982
 20
-52.91414
 30
0.0
 11
1105.074982
 21
-85.18749
 31
0.0
  0
LINE
  5
2BB9
100
AcDbEntity
  8
0
  6
BYBLOCK
 62
     1
100
AcDbLine
 10
1130.074982
 20
-72.61414
 30
0.0
 11
1130.074982
 21
-85.18749
 31
0.0
  0
LINE
  5
2BBA
100
AcDbEntity
  8
0
  6
BYBLOCK
 62
     1
100
AcDbLine
 10
1107.074982
 20
-83.18749
 30
0.0
 11
1128.074982
 21
-83.18749
 31
0.0
  0
INSERT
  5
2BBB
100
AcDbEntity
  8
0
  6
BYBLOCK
 62
     1
100
AcDbBlockReference
  2
_OPEN30
 10
1105.074982
 20
-83.18749
 30
0.0
 41
2.0
 42
2.0
 43
2.0
 50
180.0
  0
INSERT
  5
2BBC
100
AcDbEntity
  8
0
  6
BYBLOCK
 62
     1
100
AcDbBlockReference
  2
_OPEN30
 10
1130.074982
 20
-83.18749
 30
0.0
 41
2.0
 42
2.0
 43
2.0
  0
MTEXT
  5
2BBD
100
AcDbEntity
  8
0
  6
BYBLOCK
 62
     3
100
AcDbMText
 10
1117.574982
 20
-80.68749
 30
0.0
 40
3.0
 41
0.0
 71
     5
 72
     1
  1
\A1;25
  0
POINT
  5
2BBE
100
AcDbEntity
  8
DEFPOINTS
  6
BYBLOCK
 62
     0
100
AcDbPoint
 10
1105.074982
 20
-51.91414
 30
0.0
  0
POINT
  5
2BBF
100
AcDbEntity
  8
DEFPOINTS
  6
BYBLOCK
 62
     0
100
AcDbPoint
 10
1130.074982
 20
-71.61414
 30
0.0
  0
POINT
  5
2BC0
100
AcDbEntity
  8
DEFPOINTS
  6
BYBLOCK
 62
     0
100
AcDbPoint
 10
1130.074982
 20
-83.18749
 30
0.0
  0
ENDBLK
  5
2BC1
100
AcDbEntity
  8
0
100
AcDbBlockEnd
  0
BLOCK
  5
245B
100
AcDbEntity
  8
0
100
AcDbBlockBegin
  2
*D3
 70
     1
 10
0.0
 20
0.0
 30
0.0
  3
*D3
  1

  0
LINE
  5
245C
100
AcDbEntity
  8
0
  6
BYBLOCK
 62
     1
100
AcDbLine
 10
2239.231613
 20
-789.578236
 30
0.0
 11
2224.622998
 21
-789.578236
 31
0.0
  0
LINE
  5
245D
100
AcDbEntity
  8
0
  6
BYBLOCK
 62
     1
100
AcDbLine
 10
2231.89202
 20
-762.578236
 30
0.0
 11
2224.622998
 21
-762.578236
 31
0.0
  0
LINE
  5
245E
100
AcDbEntity
  8
0
  6
BYBLOCK
 62
     1
100
AcDbLine
 10
2226.622998
 20
-787.578236
 30
0.0
 11
2226.622998
 21
-764.578236
 31
0.0
  0
INSERT
  5
245F
100
AcDbEntity
  8
0
  6
BYBLOCK
 62
     1
100
AcDbBlockReference
  2
_OPEN30
 10
2226.622998
 20
-789.578236
 30
0.0
 41
2.0
 42
2.0
 43
2.0
 50
270.0
  0
INSERT
  5
2460
100
AcDbEntity
  8
0
  6
BYBLOCK
 62
     1
100
AcDbBlockReference
  2
_OPEN30
 10
2226.622998
 20
-762.578236
 30
0.0
 41
2.0
 42
2.0
 43
2.0
 50
90.0
  0
MTEXT
  5
2461
100
AcDbEntity
  8
0
  6
BYBLOCK
 62
     3
100
AcDbMText
 10
2224.122998
 20
-776.078236
 30
0.0
 40
3.0
 41
0.0
 71
     5
 72
     1
  1
\A1;27
 11
0.0
 21
1.0
 31
0.0
  0
POINT
  5
2462
100
AcDbEntity
  8
DEFPOINTS
  6
BYBLOCK
 62
     0
100
AcDbPoint
 10
2240.231613
 20
-789.578236
 30
0.0
  0
POINT
  5
2463
100
AcDbEntity
  8
DEFPOINTS
  6
BYBLOCK
 62
     0
100
AcDbPoint
 10
2232.89202
 20
-762.578236
 30
0.0
  0
POINT
  5
2464
100
AcDbEntity
  8
DEFPOINTS
  6
BYBLOCK
 62
     0
100
AcDbPoint
 10
2226.622998
 20
-762.578236
 30
0.0
  0
ENDBLK
  5
2465
100
AcDbEntity
  8
0
100
AcDbBlockEnd
  0
BLOCK
  5
2486
100
AcDbEntity
  8
0
100
AcDbBlockBegin
  2
*D4
 70
     1
 10
0.0
 20
0.0
 30
0.0
  3
*D4
  1

  0
LINE
  5
2487
100
AcDbEntity
  8
0
  6
BYBLOCK
 62
     1
100
AcDbLine
 10
2475.120712
 20
-771.177578
 30
0.0
 11
2475.120712
 21
-795.409275
 31
0.0
  0
LINE
  5
2488
100
AcDbEntity
  8
0
  6
BYBLOCK
 62
     1
100
AcDbLine
 10
2438.120712
 20
-771.177578
 30
0.0
 11
2438.120712
 21
-795.409275
 31
0.0
  0
LINE
  5
2489
100
AcDbEntity
  8
0
  6
BYBLOCK
 62
     1
100
AcDbLine
 10
2473.120712
 20
-793.409275
 30
0.0
 11
2440.120712
 21
-793.409275
 31
0.0
  0
INSERT
  5
248A
100
AcDbEntity
  8
0
  6
BYBLOCK
 62
     1
100
AcDbBlockReference
  2
_OPEN30
 10
2475.120712
 20
-793.409275
 30
0.0
 41
2.0
 42
2.0
 43
2.0
  0
INSERT
  5
248B
100
AcDbEntity
  8
0
  6
BYBLOCK
 62
     1
100
AcDbBlockReference
  2
_OPEN30
 10
2438.120712
 20
-793.409275
 30
0.0
 41
2.0
 42
2.0
 43
2.0
 50
180.0
  0
MTEXT
  5
248C
100
AcDbEntity
  8
0
  6
BYBLOCK
 62
     3
100
AcDbMText
 10
2456.620712
 20
-790.909275
 30
0.0
 40
3.0
 41
0.0
 71
     5
 72
     1
  1
\A1;37
  0
POINT
  5
248D
100
AcDbEntity
  8
DEFPOINTS
  6
BYBLOCK
 62
     0
100
AcDbPoint
 10
2475.120712
 20
-770.177578
 30
0.0
  0
POINT
  5
248E
100
AcDbEntity
  8
DEFPOINTS
  6
BYBLOCK
 62
     0
100
AcDbPoint
 10
2438.120712
 20
-770.177578
 30
0.0
  0
POINT
  5
248F
100
AcDbEntity
  8
DEFPOINTS
  6
BYBLOCK
 62
     0
100
AcDbPoint
 10
2438.120712
 20
-793.409275
 30
0.0
  0
ENDBLK
  5
2490
100
AcDbEntity
  8
0
100
AcDbBlockEnd
  0
BLOCK
  5
2429
100
AcDbEntity
  8
0
100
AcDbBlockBegin
  2
*D5
 70
     1
 10
0.0
 20
0.0
 30
0.0
  3
*D5
  1

  0
LINE
  5
242A
100
AcDbEntity
  8
0
  6
BYBLOCK
 62
     1
100
AcDbLine
 10
2135.555773
 20
-790.563043
 30
0.0
 11
2133.57353
 21
-801.804904
 31
0.0
  0
LINE
  5
242B
100
AcDbEntity
  8
0
  6
BYBLOCK
 62
     1
100
AcDbLine
 10
2135.729421
 20
-790.578236
 30
0.0
 11
2135.729421
 21
-801.99352
 31
0.0
  0
ARC
  5
242C
100
AcDbEntity
  8
0
  6
BYBLOCK
 62
     1
100
AcDbCircle
 10
2135.729421
 20
-789.578236
 30
0.0
 40
10.415285
100
AcDbArc
 50
237.857975
 51
260.0
  0
LINE
  5
242D
100
AcDbEntity
  8
0
  6
BYBLOCK
 62
     1
100
AcDbLine
 10
2130.188284
 20
-798.39719
 30
0.0
 11
2120.366193
 21
-792.22576
 31
0.0
  0
ARC
  5
242E
100
AcDbEntity
  8
0
  6
BYBLOCK
 62
     1
100
AcDbCircle
 10
2135.729421
 20
-789.578236
 30
0.0
 40
10.415285
100
AcDbArc
 50
237.961553
 51
248.980776
  0
ARC
  5
242F
100
AcDbEntity
  8
0
  6
BYBLOCK
 62
     1
100
AcDbCircle
 10
2135.729421
 20
-789.578236
 30
0.0
 40
10.415285
100
AcDbArc
 50
281.019224
 51
292.038447
  0
ARC
  5
2430
100
AcDbEntity
  8
0
  6
BYBLOCK
 62
     1
100
AcDbCircle
 10
2135.729421
 20
-789.578236
 30
0.0
 40
10.415285
100
AcDbArc
 50
260.0
 51
270.0
  0
INSERT
  5
2431
100
AcDbEntity
  8
0
  6
BYBLOCK
 62
     1
100
AcDbBlockReference
  2
_OPEN30
 10
2133.920826
 20
-799.835289
 30
0.0
 41
2.0
 42
2.0
 43
2.0
 50
344.490388
  0
INSERT
  5
2432
100
AcDbEntity
  8
0
  6
BYBLOCK
 62
     1
100
AcDbBlockReference
  2
_OPEN30
 10
2135.729421
 20
-799.99352
 30
0.0
 41
2.0
 42
2.0
 43
2.0
 50
185.509612
  0
MTEXT
  5
2433
100
AcDbEntity
  8
0
  6
BYBLOCK
 62
     3
100
AcDbMText
 10
2126.607288
 20
-793.194645
 30
0.0
 40
3.0
 41
0.0
 71
     5
 72
     1
  1
\A1;10°
 11
0.846732
 21
-0.53202
 31
0.0
  0
POINT
  5
2434
100
AcDbEntity
  8
DEFPOINTS
  6
BYBLOCK
 62
     0
100
AcDbPoint
 10
2135.123826
 20
-799.975899
 30
0.0
  0
POINT
  5
2435
100
AcDbEntity
  8
DEFPOINTS
  6
BYBLOCK
 62
     0
100
AcDbPoint
 10
2135.729421
 20
-740.066601
 30
0.0
  0
POINT
  5
2436
100
AcDbEntity
  8
DEFPOINTS
  6
BYBLOCK
 62
     0
100
AcDbPoint
 10
2140.698953
 20
-761.39462
 30
0.0
  0
POINT
  5
2437
100
AcDbEntity
  8
DEFPOINTS
  6
BYBLOCK
 62
     0
100
AcDbPoint
 10
2135.729421
 20
-789.578236
 30
0.0
  0
POINT
  5
2438
100
AcDbEntity
  8
DEFPOINTS
  6
BYBLOCK
 62
     0
100
AcDbPoint
 10
2135.729421
 20
-789.578236
 30
0.0
  0
ENDBLK
  5
2439
100
AcDbEntity
  8
0
100
AcDbBlockEnd
  0
BLOCK
  5
23EA
100
AcDbEntity
  8
0
100
AcDbBlockBegin
  2
*D6
 70
     1
 10
0.0
 20
0.0
 30
0.0
  3
*D6
  1

  0
LINE
  5
23EB
100
AcDbEntity
  8
0
  6
BYBLOCK
 62
     1
100
AcDbLine
 10
2231.89202
 20
-840.172412
 30
0.0
 11
2211.869722
 21
-840.172412
 31
0.0
  0
LINE
  5
23EC
100
AcDbEntity
  8
0
  6
BYBLOCK
 62
     1
100
AcDbLine
 10
2239.237092
 20
-840.276944
 30
0.0
 11
2212.025103
 21
-843.137148
 31
0.0
  0
ARC
  5
23ED
100
AcDbEntity
  8
0
  6
BYBLOCK
 62
     1
100
AcDbCircle
 10
2240.231613
 20
-840.172412
 30
0.0
 40
26.361891
100
AcDbArc
 50
171.29791
 51
180.0
  0
LINE
  5
23EE
100
AcDbEntity
  8
0
  6
BYBLOCK
 62
     1
100
AcDbLine
 10
2214.17319
 20
-836.18394
 30
0.0
 11
2215.474343
 21
-827.68294
 31
0.0
  0
ARC
  5
23EF
100
AcDbEntity
  8
0
  6
BYBLOCK
 62
     1
100
AcDbCircle
 10
2240.231613
 20
-840.172412
 30
0.0
 40
26.361891
100
AcDbArc
 50
171.304185
 51
175.652093
  0
ARC
  5
23F0
100
AcDbEntity
  8
0
  6
BYBLOCK
 62
     1
100
AcDbCircle
 10
2240.231613
 20
-840.172412
 30
0.0
 40
26.361891
100
AcDbArc
 50
190.348134
 51
194.696041
  0
ARC
  5
23F1
100
AcDbEntity
  8
0
  6
BYBLOCK
 62
     1
100
AcDbCircle
 10
2240.231613
 20
-840.172412
 30
0.0
 40
26.361891
100
AcDbArc
 50
180.0
 51
186.000226
  0
INSERT
  5
23F2
100
AcDbEntity
  8
0
  6
BYBLOCK
 62
     1
100
AcDbBlockReference
  2
_OPEN30
 10
2213.869722
 20
-840.172412
 30
0.0
 41
2.0
 42
2.0
 43
2.0
 50
267.826046
  0
INSERT
  5
23F3
100
AcDbEntity
  8
0
  6
BYBLOCK
 62
     1
100
AcDbBlockReference
  2
_OPEN30
 10
2214.014146
 20
-842.928084
 30
0.0
 41
2.0
 42
2.0
 43
2.0
 50
98.17418
  0
MTEXT
  5
23F4
100
AcDbEntity
  8
0
  6
BYBLOCK
 62
     3
100
AcDbMText
 10
2217.294988
 20
-832.311682
 30
0.0
 40
3.0
 41
0.0
 71
     5
 72
     1
  1
\A1;6°
 11
-0.151297
 21
-0.988488
 31
0.0
  0
POINT
  5
23F5
100
AcDbEntity
  8
DEFPOINTS
  6
BYBLOCK
 62
     0
100
AcDbPoint
 10
2213.933943
 20
-842.011394
 30
0.0
  0
POINT
  5
23F6
100
AcDbEntity
  8
DEFPOINTS
  6
BYBLOCK
 62
     0
100
AcDbPoint
 10
2240.231613
 20
-840.172412
 30
0.0
  0
POINT
  5
23F7
100
AcDbEntity
  8
DEFPOINTS
  6
BYBLOCK
 62
     0
100
AcDbPoint
 10
2546.894892
 20
-840.172412
 30
0.0
  0
POINT
  5
23F8
100
AcDbEntity
  8
DEFPOINTS
  6
BYBLOCK
 62
     0
100
AcDbPoint
 10
2232.89202
 20
-840.172412
 30
0.0
  0
POINT
  5
23F9
100
AcDbEntity
  8
DEFPOINTS
  6
BYBLOCK
 62
     0
100
AcDbPoint
 10
2259.254594
 20
-838.17294
 30
0.0
  0
ENDBLK
  5
23FA
100
AcDbEntity
  8
0
100
AcDbBlockEnd
  0
BLOCK
  5
24A7
100
AcDbEntity
  8
0
100
AcDbBlockBegin
  2
*D7
 70
     1
 10
0.0
 20
0.0
 30
0.0
  3
*D7
  1

  0
LINE
  5
24A8
100
AcDbEntity
  8
0
  6
BYBLOCK
 62
     1
100
AcDbLine
 10
2438.885083
 20
-733.570522
 30
0.0
 11
2445.144717
 21
-743.808538
 31
0.0
  0
LINE
  5
24A9
100
AcDbEntity
  8
0
  6
BYBLOCK
 62
     1
100
AcDbLine
 10
2468.096707
 20
-781.347933
 30
0.0
 11
2469.13998
 21
-783.054269
 31
0.0
  0
MTEXT
  5
24AA
100
AcDbEntity
  8
0
  6
BYBLOCK
 62
     3
100
AcDbMText
 10
2443.626184
 20
-736.532272
 30
0.0
 40
3.0
 41
0.0
 71
     5
 72
     1
  1
\A1;\U+220540
 11
0.521636
 21
-0.853168
 31
0.0
  0
LINE
  5
24AB
100
AcDbEntity
  8
0
  6
BYBLOCK
 62
     1
100
AcDbLine
 10
2467.053435
 20
-779.641597
 30
0.0
 11
2446.187989
 21
-745.514874
 31
0.0
  0
INSERT
  5
24AC
100
AcDbEntity
  8
0
  6
BYBLOCK
 62
     1
100
AcDbBlockReference
  2
_OPEN30
 10
2467.053435
 20
-779.641597
 30
0.0
 41
2.0
 42
2.0
 43
2.0
 50
121.442065
  0
INSERT
  5
24AD
100
AcDbEntity
  8
0
  6
BYBLOCK
 62
     1
100
AcDbBlockReference
  2
_OPEN30
 10
2446.187989
 20
-745.514874
 30
0.0
 41
2.0
 42
2.0
 43
2.0
 50
301.442065
  0
POINT
  5
24AE
100
AcDbEntity
  8
DEFPOINTS
  6
BYBLOCK
 62
     0
100
AcDbPoint
 10
2446.187989
 20
-745.514874
 30
0.0
  0
POINT
  5
24AF
100
AcDbEntity
  8
DEFPOINTS
  6
BYBLOCK
 62
     0
100
AcDbPoint
 10
2467.053435
 20
-779.641597
 30
0.0
  0
ENDBLK
  5
24B0
100
AcDbEntity
  8
0
100
AcDbBlockEnd
  0
ENDSEC
  0
SECTION
  2
ENTITIES
  0
DIMENSION
  5
2351
100
AcDbEntity
  8
寸法
  6
CONTINUOUS
100
AcDbDimension
  2
*D6
 10
1124.097962
 20
-49.914668
 30
0.0
 11
1082.138356
 21
-44.05341
 31
0.0
 12
-1135.156632
 22
788.258272
 32
0.0
 70
    34
  3
STANDARD
100
AcDb2LineAngularDimension
 13
1411.738261
 23
-51.91414
 33
0.0
 14
1097.735388
 24
-51.91414
 34
0.0
 15
1105.074982
 25
-51.91414
 35
0.0
 16
1078.777311
 26
-53.753122
 36
0.0
1001
ACAD
1000
DSTYLE
1002
{
1070
    40
1040
1.0
1002
}
  0
TEXT
  5
2352
100
AcDbEntity
  8
外形
  6
CONTINUOUS
 62
     2
100
AcDbText
 10
1252.810651
 20
-100.85417
 30
0.0
 40
6.0
  1
BTFN440R
100
AcDbText
  0
LINE
  5
2353
100
AcDbEntity
  8
外形
  6
CENTER
 62
     1
100
AcDbLine
 10
1411.738261
 20
-51.91414
 30
0.0
 11
1097.735388
 21
-51.91414
 31
0.0
  0
DIMENSION
  5
2356
100
AcDbEntity
  8
寸法
  6
CONTINUOUS
100
AcDbDimension
  2
*D2
 10
1130.074982
 20
-83.18749
 30
0.0
 11
1117.574982
 21
-80.68749
 31
0.0
 70
    32
  3
STANDARD
100
AcDbAlignedDimension
 13
1105.074982
 23
-51.91414
 33
0.0
 14
1130.074982
 24
-71.61414
 34
0.0
100
AcDbRotatedDimension
1001
ACAD
1000
DSTYLE
1002
{
1070
    40
1040
1.0
1002
}
  0
LINE
  5
2358
100
AcDbEntity
  8
外形
  6
CONTINUOUS
100
AcDbLine
 10
1105.074982
 20
-51.91414
 30
0.0
 11
1127.518708
 21
-49.555119
 31
0.0
  0
LINE
  5
235F
100
AcDbEntity
  8
外形
  6
CONTINUOUS
100
AcDbLine
 10
1129.074982
 20
-74.41414
 30
0.0
 11
1107.469189
 21
-74.41414
 31
0.0
  0
ARC
  5
236D
100
AcDbEntity
  8
外形
  6
CONTINUOUS
100
AcDbCircle
 10
1140.074982
 20
-32.21414
 30
0.0
 40
15.0
100
AcDbArc
 50
313.1267
 51
0.0
  0
SPLINE
  5
236E
100
AcDbEntity
  8
外形
  6
CONTINUOUS
100
AcDbSpline
210
-0.229761772519519
220
0.9732468997580671
230
0.0
 70
    24
 71
     3
 72
     8
 73
     4
 74
     0
 42
0.0000001
 43
0.0000001
 40
0.0
 40
0.0
 40
0.0
 40
0.0
 40
20.81096727863575
 40
20.81096727863575
 40
20.81096727863575
 40
20.81096727863575
 10
1150.32919090704
 20
-43.16179650214382
 30
0.0
 10
1143.57778777874
 20
-44.75565141207223
 30
0.0
 10
1136.826384650441
 20
-46.34950632200065
 30
0.0
 10
1130.074981522141
 20
-47.94336123192898
 30
0.0
  0
LINE
  5
236F
100
AcDbEntity
  8
外形
  6
CONTINUOUS
100
AcDbLine
 10
1169.474982
 20
-71.61414
 30
0.0
 11
1170.074982
 21
-71.31414
 31
0.0
  0
LINE
  5
2370
100
AcDbEntity
  8
外形
  6
CONTINUOUS
100
AcDbLine
 10
1169.474982
 20
-32.21414
 30
0.0
 11
1170.074982
 21
-32.51414
 31
0.0
  0
LINE
  5
2371
100
AcDbEntity
  8
外形
  6
CONTINUOUS
100
AcDbLine
 10
1405.074982
 20
-35.41414
 30
0.0
 11
1405.074982
 21
-68.41414
 31
0.0
  0
LINE
  5
2372
100
AcDbEntity
  8
外形
  6
CONTINUOUS
100
AcDbLine
 10
1403.074982
 20
-59.513482
 30
0.0
 11
1403.074982
 21
-70.41414
 31
0.0
  0
LINE
  5
2373
100
AcDbEntity
  8
外形
  6
CONTINUOUS
100
AcDbLine
 10
1403.074982
 20
-70.41414
 30
0.0
 11
1403.074982
 21
-59.513482
 31
0.0
  0
LINE
  5
2374
100
AcDbEntity
  8
外形
  6
CONTINUOUS
100
AcDbLine
 10
1403.074982
 20
-70.41414
 30
0.0
 11
1405.074982
 21
-68.41414
 31
0.0
  0
LINE
  5
2375
100
AcDbEntity
  8
外形
  6
CONTINUOUS
100
AcDbLine
 10
1403.074982
 20
-33.41414
 30
0.0
 11
1403.074982
 21
-44.314798
 31
0.0
  0
LINE
  5
2376
100
AcDbEntity
  8
外形
  6
CONTINUOUS
100
AcDbLine
 10
1403.074982
 20
-33.41414
 30
0.0
 11
1405.074982
 21
-35.41414
 31
0.0
  0
LINE
  5
2377
102
{ACAD_REACTORS
330
23D6
102
}
100
AcDbEntity
  8
外形
  6
CENTER
 62
     1
100
AcDbLine
 10
1411.738261
 20
25.680037
 30
0.0
 11
1097.735388
 21
25.680037
 31
0.0
  0
DIMENSION
  5
2378
100
AcDbEntity
  8
寸法
  6
CONTINUOUS
100
AcDbDimension
  2
*D1
 10
1405.074982
 20
-14.281589
 30
0.0
 11
1255.074982
 21
-11.781589
 31
0.0
 12
-1135.156632
 22
788.258272
 32
0.0
 70
    32
  3
STANDARD
100
AcDbAlignedDimension
 13
1105.074982
 23
-1.319963
 33
0.0
 14
1405.074982
 24
9.180037
 34
0.0
100
AcDbRotatedDimension
1001
ACAD
1000
DSTYLE
1002
{
1070
    40
1040
1.0
1002
}
  0
LEADER
  5
2379
100
AcDbEntity
  8
寸法
  6
CONTINUOUS
 62
     1
100
AcDbLeader
  3
STANDARD
 73
     0
 74
     0
 75
     1
 40
3.0
 41
26.0
 76
     3
 10
1011.784153
 20
50.242311
 30
0.0
 10
1021.70256
 20
65.262003
 30
0.0
 10
1023.70256
 20
65.262003
 30
0.0
 77
   256
340
239D
1001
ACAD
1000
DSTYLE
1002
{
1070
    40
1040
1.0
1002
}
  0
DIMENSION
  5
237A
100
AcDbEntity
  8
寸法
  6
CONTINUOUS
100
AcDbDimension
  2
*D5
 10
1000.57279
 20
-1.319963
 30
0.0
 11
991.450657
 21
-4.936373
 31
0.0
 12
-1135.156632
 22
788.258272
 32
0.0
 70
    34
  3
STANDARD
100
AcDb2LineAngularDimension
 13
1005.542322
 23
26.863652
 33
0.0
 14
1000.57279
 24
-1.319963
 34
0.0
 15
1000.57279
 25
48.191671
 35
0.0
 16
999.967195
 26
-11.717627
 36
0.0
1001
ACAD
1000
DSTYLE
1002
{
1070
    40
1040
1.0
1002
}
  0
LINE
  5
237B
100
AcDbEntity
  8
外形
  6
CENTER
 62
     1
100
AcDbLine
 10
1000.57279
 20
56.476223
 30
0.0
 11
1000.57279
 21
-1.72411
 31
0.0
  0
DIMENSION
  5
237F
100
AcDbEntity
  8
寸法
  6
CONTINUOUS
100
AcDbDimension
  2
*D3
 10
1091.466367
 20
25.680037
 30
0.0
 11
1088.966367
 21
12.180037
 31
0.0
 12
-1135.156632
 22
788.258272
 32
0.0
 70
    32
  3
STANDARD
100
AcDbAlignedDimension
 13
1105.074982
 23
-1.319963
 33
0.0
 14
1097.735388
 24
25.680037
 34
0.0
 50
90.0
100
AcDbRotatedDimension
1001
ACAD
1000
DSTYLE
1002
{
1070
    40
1040
1.0
1002
}
  0
LINE
  5
2382
100
AcDbEntity
  8
外形
  6
CONTINUOUS
100
AcDbLine
 10
999.656172
 20
20.893386
 30
0.0
 11
995.885105
 21
-0.493398
 31
0.0
  0
LINE
  5
2383
100
AcDbEntity
  8
外形
  6
CONTINUOUS
100
AcDbLine
 10
1008.566248
 20
44.013193
 30
0.0
 11
1000.57279
 21
-1.319963
 31
0.0
  0
LINE
  5
2384
100
AcDbEntity
  8
外形
  6
CONTINUOUS
100
AcDbLine
 10
995.885105
 20
-0.493398
 30
0.0
 11
1000.57279
 21
-1.319963
 31
0.0
  0
LINE
  5
2386
100
AcDbEntity
  8
外形
  6
CONTINUOUS
100
AcDbLine
 10
991.201761
 20
0.357788
 30
0.0
 11
995.889446
 21
-0.468778
 31
0.0
  0
LINE
  5
2387
100
AcDbEntity
  8
外形
  6
CONTINUOUS
100
AcDbLine
 10
999.660513
 20
20.918007
 30
0.0
 11
1004.348198
 21
20.091441
 31
0.0
  0
LINE
  5
2388
100
AcDbEntity
  8
外形
  6
CENTER
 62
     1
100
AcDbLine
 10
1025.684944
 20
25.680037
 30
0.0
 11
974.129172
 21
25.680037
 31
0.0
  0
LINE
  5
2389
100
AcDbEntity
  8
外形
  6
CONTINUOUS
100
AcDbLine
 10
994.968487
 20
21.719952
 30
0.0
 11
999.656172
 21
20.893386
 31
0.0
  0
LINE
  5
239B
100
AcDbEntity
  8
外形
  6
CONTINUOUS
100
AcDbLine
 10
1122.146887
 20
45.380037
 30
0.0
 11
1105.345995
 21
35.680037
 31
0.0
  0
LINE
  5
239C
100
AcDbEntity
  8
外形
  6
CONTINUOUS
100
AcDbLine
 10
1169.474982
 20
45.380037
 30
0.0
 11
1170.074982
 21
45.680037
 31
0.0
  0
MTEXT
  5
239D
102
{ACAD_REACTORS
330
2379
102
}
100
AcDbEntity
  8
寸法
  6
CONTINUOUS
 62
     3
100
AcDbMText
 10
1024.70256
 20
67.762003
 30
0.0
 40
3.0
 41
0.0
 71
     4
 72
     1
  1
%%C54最小加工径
  0
LINE
  5
239E
102
{ACAD_REACTORS
330
23D6
102
}
100
AcDbEntity
  8
外形
  6
CENTER
 62
     1
100
AcDbLine
 10
1321.464081
 20
48.423681
 30
0.0
 11
1321.464081
 21
3.38121
 31
0.0
  0
DIMENSION
  5
239F
100
AcDbEntity
  8
寸法
  6
CONTINUOUS
100
AcDbDimension
  2
*D4
 10
1302.964081
 20
-5.151003
 30
0.0
 11
1321.464081
 21
-2.651003
 31
0.0
 12
-1135.156632
 22
788.258272
 32
0.0
 70
    32
  3
STANDARD
100
AcDbAlignedDimension
 13
1339.964081
 23
18.080695
 33
0.0
 14
1302.964081
 24
18.080695
 34
0.0
100
AcDbRotatedDimension
1001
ACAD
1000
DSTYLE
1002
{
1070
    40
1040
1.0
1002
}
  0
LINE
  5
23A1
100
AcDbEntity
  8
外形
  6
CONTINUOUS
100
AcDbLine
 10
1405.074982
 20
43.680037
 30
0.0
 11
1405.074982
 21
9.180037
 31
0.0
  0
LINE
  5
23A2
100
AcDbEntity
  8
外形
  6
CONTINUOUS
100
AcDbLine
 10
1403.074982
 20
18.080695
 30
0.0
 11
1403.074982
 21
7.180037
 31
0.0
  0
LINE
  5
23A3
100
AcDbEntity
  8
外形
  6
CONTINUOUS
100
AcDbLine
 10
1405.074982
 20
9.180037
 30
0.0
 11
1403.074982
 21
7.180037
 31
0.0
  0
LINE
  5
23A4
100
AcDbEntity
  8
外形
  6
CONTINUOUS
100
AcDbLine
 10
1403.074982
 20
45.680037
 30
0.0
 11
1405.074982
 21
43.680037
 31
0.0
  0
LINE
  5
23A5
100
AcDbEntity
  8
外形
  6
CONTINUOUS
100
AcDbLine
 10
1403.074982
 20
45.680037
 30
0.0
 11
1403.074982
 21
33.279379
 31
0.0
  0
ARC
  5
23A6
102
{ACAD_REACTORS
330
23D6
102
}
100
AcDbEntity
  8
外形
  6
CONTINUOUS
100
AcDbCircle
 10
1321.464081
 20
25.680037
 30
0.0
 40
20.0
100
AcDbArc
 50
202.331645
 51
247.668355
  0
LINE
  5
23A7
100
AcDbEntity
  8
外形
  6
CONTINUOUS
100
AcDbLine
 10
1170.074982
 20
45.680037
 30
0.0
 11
1300.814081
 21
45.680037
 31
0.0
  0
LINE
  5
23A8
100
AcDbEntity
  8
外形
  6
CONTINUOUS
100
AcDbLine
 10
1169.474982
 20
33.279379
 30
0.0
 11
1300.814081
 21
33.279379
 31
0.0
  0
LINE
  5
23A9
100
AcDbEntity
  8
外形
  6
CONTINUOUS
100
AcDbLine
 10
1169.474982
 20
18.080695
 30
0.0
 11
1300.814081
 21
18.080695
 31
0.0
  0
ARC
  5
23AA
102
{ACAD_REACTORS
330
23D6
102
}
100
AcDbEntity
  8
外形
  6
CONTINUOUS
100
AcDbCircle
 10
1321.464081
 20
25.680037
 30
0.0
 40
20.0
100
AcDbArc
 50
22.331645
 51
157.668355
  0
LINE
  5
23AB
100
AcDbEntity
  8
外形
  6
CONTINUOUS
100
AcDbLine
 10
1169.474982
 20
45.380037
 30
0.0
 11
1122.146887
 21
45.380037
 31
0.0
  0
LINE
  5
23AC
100
AcDbEntity
  8
外形
  6
CONTINUOUS
100
AcDbLine
 10
1143.074982
 20
5.980037
 30
0.0
 11
1130.074982
 21
5.980037
 31
0.0
  0
LINE
  5
23AE
100
AcDbEntity
  8
外形
  6
CONTINUOUS
100
AcDbLine
 10
1170.074982
 20
45.680037
 30
0.0
 11
1170.074982
 21
33.279379
 31
0.0
  0
LINE
  5
23AF
100
AcDbEntity
  8
外形
  6
CONTINUOUS
100
AcDbLine
 10
1403.074982
 20
7.180037
 30
0.0
 11
1342.114081
 21
7.180037
 31
0.0
  0
ARC
  5
23B0
100
AcDbEntity
  8
外形
  6
CONTINUOUS
100
AcDbCircle
 10
1384.574982
 20
25.680037
 30
0.0
 40
20.0
100
AcDbArc
 50
337.668355
 51
22.331645
  0
ARC
  5
23B1
102
{ACAD_REACTORS
330
23D6
102
}
100
AcDbEntity
  8
外形
  6
CONTINUOUS
100
AcDbCircle
 10
1321.464081
 20
25.680037
 30
0.0
 40
20.0
100
AcDbArc
 50
292.331645
 51
337.668355
  0
LINE
  5
23B2
100
AcDbEntity
  8
外形
  6
CONTINUOUS
100
AcDbLine
 10
1169.474982
 20
45.380037
 30
0.0
 11
1169.474982
 21
32.450561
 31
0.0
  0
LINE
  5
23B3
100
AcDbEntity
  8
外形
  6
CONTINUOUS
100
AcDbLine
 10
1169.474982
 20
18.909512
 30
0.0
 11
1169.474982
 21
5.980037
 31
0.0
  0
LINE
  5
23B4
100
AcDbEntity
  8
外形
  6
CONTINUOUS
100
AcDbLine
 10
1170.074982
 20
18.080695
 30
0.0
 11
1170.074982
 21
6.280037
 31
0.0
  0
LINE
  5
23B5
100
AcDbEntity
  8
外形
  6
CONTINUOUS
100
AcDbLine
 10
1403.074982
 20
-70.41414
 30
0.0
 11
1170.074982
 21
-70.41414
 31
0.0
  0
LINE
  5
23B6
100
AcDbEntity
  8
外形
  6
CONTINUOUS
100
AcDbLine
 10
1403.074982
 20
-33.41414
 30
0.0
 11
1170.074982
 21
-33.41414
 31
0.0
  0
LINE
  5
23B7
102
{ACAD_REACTORS
330
23D6
102
}
100
AcDbEntity
  8
外形
  6
CONTINUOUS
100
AcDbLine
 10
1302.964081
 20
33.279379
 30
0.0
 11
1302.964081
 21
18.080695
 31
0.0
  0
LINE
  5
23B8
102
{ACAD_REACTORS
330
23D6
102
}
100
AcDbEntity
  8
外形
  6
CONTINUOUS
100
AcDbLine
 10
1339.964081
 20
33.279379
 30
0.0
 11
1339.964081
 21
18.080695
 31
0.0
  0
LINE
  5
23B9
100
AcDbEntity
  8
外形
  6
CONTINUOUS
100
AcDbLine
 10
1169.474982
 20
32.450561
 30
0.0
 11
1155.074982
 21
32.450561
 31
0.0
  0
LINE
  5
23BA
100
AcDbEntity
  8
外形
  6
CONTINUOUS
100
AcDbLine
 10
1169.474982
 20
18.909512
 30
0.0
 11
1155.074982
 21
18.909512
 31
0.0
  0
DIMENSION
  5
23BB
100
AcDbEntity
  8
寸法
  6
CONTINUOUS
100
AcDbDimension
  2
*D7
 10
1331.896803
 20
8.616675
 30
0.0
 11
1306.336633
 21
50.42191
 31
0.0
 12
-1135.156632
 22
788.258272
 32
0.0
 70
   163
  3
STANDARD
100
AcDbDiametricDimension
 15
1311.031358
 25
42.743398
 35
0.0
 40
0.0
1001
ACAD
1000
DSTYLE
1002
{
1070
    40
1040
1.0
1002
}
  0
LINE
  5
23BC
100
AcDbEntity
  8
外形
  6
CONTINUOUS
100
AcDbLine
 10
1169.474982
 20
-32.21414
 30
0.0
 11
1155.074982
 21
-32.21414
 31
0.0
  0
LINE
  5
23BD
100
AcDbEntity
  8
外形
  6
CONTINUOUS
100
AcDbLine
 10
1169.474982
 20
-71.61414
 30
0.0
 11
1130.074982
 21
-71.61414
 31
0.0
  0
LINE
  5
23BE
100
AcDbEntity
  8
外形
  6
CONTINUOUS
100
AcDbLine
 10
1170.074982
 20
-32.51414
 30
0.0
 11
1170.074982
 21
-44.314798
 31
0.0
  0
LINE
  5
23BF
100
AcDbEntity
  8
外形
  6
CONTINUOUS
100
AcDbLine
 10
1169.474982
 20
-32.21414
 30
0.0
 11
1169.474982
 21
-45.143615
 31
0.0
  0
LINE
  5
23C0
100
AcDbEntity
  8
外形
  6
CONTINUOUS
100
AcDbLine
 10
1169.474982
 20
-44.314798
 30
0.0
 11
1403.074982
 21
-44.314798
 31
0.0
  0
LINE
  5
23C1
100
AcDbEntity
  8
外形
  6
CONTINUOUS
100
AcDbLine
 10
1169.474982
 20
-59.513482
 30
0.0
 11
1403.074982
 21
-59.513482
 31
0.0
  0
ARC
  5
23C2
100
AcDbEntity
  8
外形
  6
CONTINUOUS
100
AcDbCircle
 10
1384.574982
 20
-51.91414
 30
0.0
 40
20.0
100
AcDbArc
 50
337.668355
 51
22.331645
  0
LINE
  5
23C3
100
AcDbEntity
  8
外形
  6
CONTINUOUS
100
AcDbLine
 10
1169.474982
 20
-45.143615
 30
0.0
 11
1142.227899
 21
-45.143615
 31
0.0
  0
LINE
  5
23C4
100
AcDbEntity
  8
外形
  6
CONTINUOUS
100
AcDbLine
 10
1169.474982
 20
-58.684664
 30
0.0
 11
1130.074982
 21
-58.684664
 31
0.0
  0
ARC
  5
23C7
100
AcDbEntity
  8
外形
  6
CONTINUOUS
100
AcDbCircle
 10
1000.57279
 20
25.680037
 30
0.0
 40
20.0
100
AcDbArc
 50
273.557733
 51
337.668355
  0
CIRCLE
  5
23C8
100
AcDbEntity
  8
外形
  6
CENTER
 62
     1
100
AcDbCircle
 10
1000.57279
 20
25.680037
 30
0.0
 40
27.0
  0
ARC
  5
23CA
100
AcDbEntity
  8
外形
  6
CONTINUOUS
100
AcDbCircle
 10
1000.57279
 20
23.168402
 30
0.0
 40
22.5
100
AcDbArc
 50
90.0
 51
180.0
  0
LINE
  5
23CB
100
AcDbEntity
  8
外形
  6
CONTINUOUS
100
AcDbLine
 10
978.07279
 20
23.168402
 30
0.0
 11
978.07279
 21
12.651222
 31
0.0
  0
LINE
  5
23CC
100
AcDbEntity
  8
外形
  6
CONTINUOUS
100
AcDbLine
 10
1019.07279
 20
33.279379
 30
0.0
 11
1019.07279
 21
18.080695
 31
0.0
  0
ARC
  5
23CD
100
AcDbEntity
  8
外形
  6
CONTINUOUS
100
AcDbCircle
 10
1000.57279
 20
25.680037
 30
0.0
 40
20.0
100
AcDbArc
 50
22.331645
 51
90.0
  0
LINE
  5
23D1
100
AcDbEntity
  8
外形
  6
CONTINUOUS
100
AcDbLine
 10
1300.814081
 20
7.180037
 30
0.0
 11
1170.074982
 21
7.180037
 31
0.0
  0
LINE
  5
23D2
102
{ACAD_REACTORS
330
23D6
102
}
100
AcDbEntity
  8
外形
  6
CONTINUOUS
100
AcDbLine
 10
1329.063423
 20
7.180037
 30
0.0
 11
1313.864739
 21
7.180037
 31
0.0
  0
LINE
  5
23D3
100
AcDbEntity
  8
外形
  6
CONTINUOUS
100
AcDbLine
 10
1342.114081
 20
45.680037
 30
0.0
 11
1403.074982
 21
45.680037
 31
0.0
  0
LINE
  5
23D4
100
AcDbEntity
  8
外形
  6
CONTINUOUS
100
AcDbLine
 10
1342.114081
 20
18.080695
 30
0.0
 11
1403.074982
 21
18.080695
 31
0.0
  0
LINE
  5
23D5
100
AcDbEntity
  8
外形
  6
CONTINUOUS
100
AcDbLine
 10
1342.114081
 20
33.279379
 30
0.0
 11
1403.074982
 21
33.279379
 31
0.0
  0
HATCH
  5
23D6
100
AcDbEntity
  8
外形
  6
CONTINUOUS
100
AcDbHatch
 10
0.0
 20
0.0
 30
0.0
210
0.0
220
0.0
230
1.0
  2
ANSI31
 70
     0
 71
     1
 91
        4
 92
        7
 72
     1
 73
     1
 93
        4
 10
1321.464080702612
 20
45.68003665976365
 42
0.0
 10
1321.464080702612
 20
25.68003665976357
 42
0.0
 10
1339.964080702612
 20
25.68003665976357
 42
0.0
 10
1339.964080702612
 20
33.2793787365494
 42
0.3041490459075396
 97
        4
330
239E
330
2377
330
23B8
330
23AA
 92
        7
 72
     1
 73
     1
 93
        4
 10
1321.464080702612
 20
45.68003665976354
 42
0.3041490459075489
 10
1302.964080702612
 20
33.27937873654828
 42
0.0
 10
1302.964080702612
 20
25.68003665976358
 42
0.0
 10
1321.464080702612
 20
25.68003665976358
 42
0.0
 97
        4
330
23AA
330
23B7
330
2377
330
239E
 92
        7
 72
     1
 73
     1
 93
        5
 10
1321.464080702613
 20
25.68003665976357
 42
0.0
 10
1302.964080702612
 20
25.68003665976357
 42
0.0
 10
1302.964080702612
 20
18.08069458297888
 42
0.2004401189421315
 10
1313.864738625827
 20
7.180036659763572
 42
0.0
 10
1321.464080702612
 20
7.180036659763572
 42
0.0
 97
        5
330
2377
330
23B7
330
23A6
330
23D2
330
239E
 92
        7
 72
     1
 73
     1
 93
        5
 10
1321.464080702612
 20
7.180036659763572
 42
0.0
 10
1329.063422779398
 20
7.180036659763572
 42
0.2004401189421233
 10
1339.964080702612
 20
18.08069458297817
 42
0.0
 10
1339.964080702612
 20
25.68003665976357
 42
0.0
 10
1321.464080702612
 20
25.68003665976358
 42
0.0
 97
        5
330
23B8
330
2377
330
239E
330
23D2
330
23B1
 75
     0
 76
     1
 52
0.0
 41
15.0
 77
     0
 78
     1
 53
45.0
 43
67.471569
 44
376.138333
 45
-1.325825214724776
 46
1.325825214724776
 79
     0
 47
0.156667
 98
        4
 10
1332.06633
 20
35.204592
 10
1320.617791
 20
38.494604
 10
1315.285596
 20
19.381204
 10
1325.793158
 20
13.741184
  0
LINE
  5
23D7
100
AcDbEntity
  8
外形
  6
CONTINUOUS
100
AcDbLine
 10
1169.474982
 20
5.980037
 30
0.0
 11
1170.074982
 21
6.280037
 31
0.0
  0
LINE
  5
23D8
100
AcDbEntity
  8
外形
  6
CONTINUOUS
100
AcDbLine
 10
1169.474982
 20
-58.684664
 30
0.0
 11
1169.474982
 21
-71.61414
 31
0.0
  0
LINE
  5
23D9
100
AcDbEntity
  8
外形
  6
CONTINUOUS
100
AcDbLine
 10
1170.074982
 20
-59.513482
 30
0.0
 11
1170.074982
 21
-71.31414
 31
0.0
  0
CIRCLE
  5
2AE8
100
AcDbEntity
  8
外形
  6
CONTINUOUS
100
AcDbCircle
 10
1111.424982
 20
9.092919
 30
0.0
 40
2.58
  0
LINE
  5
2AFF
100
AcDbEntity
  8
外形
  6
CONTINUOUS
100
AcDbLine
 10
1105.074982
 20
-0.519963
 30
0.0
 11
1105.074982
 21
18.705801
 31
0.0
  0
CIRCLE
  5
2B23
100
AcDbEntity
  8
外形
  6
CONTINUOUS
100
AcDbCircle
 10
1111.424982
 20
9.092919
 30
0.0
 40
3.1
  0
LINE
  5
2B24
100
AcDbEntity
  8
外形
  6
CONTINUOUS
100
AcDbLine
 10
1105.074982
 20
18.705801
 30
0.0
 11
1105.074982
 21
-0.519963
 31
0.0
  0
LINE
  5
2B25
100
AcDbEntity
  8
外形
  6
CONTINUOUS
100
AcDbLine
 10
1106.274982
 20
-1.212784
 30
0.0
 11
1124.124982
 21
9.092919
 31
0.0
  0
LINE
  5
2B26
100
AcDbEntity
  8
外形
  6
CONTINUOUS
100
AcDbLine
 10
1122.924982
 20
9.785739
 30
0.0
 11
1106.274982
 21
19.398621
 31
0.0
  0
ARC
  5
2B27
100
AcDbEntity
  8
外形
  6
CONTINUOUS
100
AcDbCircle
 10
1105.874982
 20
18.705801
 30
0.0
 40
0.8
100
AcDbArc
 50
60.0
 51
180.0
  0
ARC
  5
2B28
100
AcDbEntity
  8
外形
  6
CONTINUOUS
100
AcDbCircle
 10
1122.524982
 20
9.092919
 30
0.0
 40
0.8
100
AcDbArc
 50
300.0
 51
60.0
  0
ARC
  5
2B29
100
AcDbEntity
  8
外形
  6
CONTINUOUS
100
AcDbCircle
 10
1105.874982
 20
-0.519963
 30
0.0
 40
0.8
100
AcDbArc
 50
180.0
 51
300.0
  0
LINE
  5
2B2C
100
AcDbEntity
  8
外形
  6
CONTINUOUS
 62
     1
100
AcDbLine
 10
1105.874982
 20
-1.319963
 30
0.0
 11
1105.074982
 21
-1.319963
 31
0.0
  0
LINE
  5
2B2D
100
AcDbEntity
  8
外形
  6
CONTINUOUS
 62
     1
100
AcDbLine
 10
1105.074982
 20
-0.519963
 30
0.0
 11
1105.074982
 21
-1.319963
 31
0.0
  0
ARC
  5
2B40
100
AcDbEntity
  8
外形
  6
CONTINUOUS
100
AcDbCircle
 10
1123.124982
 20
10.824969
 30
0.0
 40
2.0
100
AcDbArc
 50
300.0
 51
120.0
  0
LINE
  5
2B53
100
AcDbEntity
  8
外形
  6
CONTINUOUS
100
AcDbLine
 10
1120.124982
 20
11.40232
 30
0.0
 11
1122.124982
 21
12.55702
 31
0.0
  0
LINE
  5
2B66
100
AcDbEntity
  8
外形
  6
CONTINUOUS
100
AcDbLine
 10
1105.345995
 20
19.305945
 30
0.0
 11
1105.345995
 21
35.680037
 31
0.0
  0
LINE
  5
2B67
100
AcDbEntity
  8
外形
  6
CONTINUOUS
100
AcDbLine
 10
1108.14655
 20
-0.142403
 30
0.0
 11
1127.518708
 21
1.552442
 31
0.0
  0
LINE
  5
2B68
100
AcDbEntity
  8
外形
  6
CONTINUOUS
100
AcDbLine
 10
1130.074982
 20
5.980037
 30
0.0
 11
1127.518708
 21
1.552442
 31
0.0
  0
ARC
  5
2B8A
100
AcDbEntity
  8
外形
  6
CONTINUOUS
100
AcDbCircle
 10
1000.57279
 20
25.680037
 30
0.0
 40
26.0
100
AcDbArc
 50
210.073348
 51
249.290654
  0
LINE
  5
2BA0
100
AcDbEntity
  8
外形
  6
CONTINUOUS
100
AcDbLine
 10
1119.779445
 20
44.013193
 30
0.0
 11
1143.074982
 21
44.013193
 31
0.0
  0
LINE
  5
2BA2
100
AcDbEntity
  8
外形
  6
CONTINUOUS
100
AcDbLine
 10
1155.074982
 20
17.980037
 30
0.0
 11
1155.074982
 21
32.013193
 31
0.0
  0
ARC
  5
2BB1
100
AcDbEntity
  8
外形
  6
CONTINUOUS
100
AcDbCircle
 10
1143.074982
 20
32.013193
 30
0.0
 40
12.0
100
AcDbArc
 50
0.0
 51
90.0
  0
ARC
  5
2BB2
100
AcDbEntity
  8
外形
  6
CONTINUOUS
100
AcDbCircle
 10
1143.074982
 20
17.980037
 30
0.0
 40
12.0
100
AcDbArc
 50
270.0
 51
0.0
  0
LINE
  5
2BB4
100
AcDbEntity
  8
外形
  6
CONTINUOUS
100
AcDbLine
 10
1143.074982
 20
5.980037
 30
0.0
 11
1169.474982
 21
5.980037
 31
0.0
  0
LINE
  5
2BB5
100
AcDbEntity
  8
外形
  6
CONTINUOUS
100
AcDbLine
 10
1130.074982
 20
-47.943361
 30
0.0
 11
1130.074982
 21
-73.41414
 31
0.0
  0
LINE
  5
2BB6
100
AcDbEntity
  8
外形
  6
CONTINUOUS
100
AcDbLine
 10
1127.518708
 20
-49.555119
 30
0.0
 11
1127.518708
 21
-74.41414
 31
0.0
  0
LINE
  5
2BD3
100
AcDbEntity
  8
外形
  6
CONTINUOUS
100
AcDbLine
 10
1130.074982
 20
-73.41414
 30
0.0
 11
1129.074982
 21
-74.41414
 31
0.0
  0
LINE
  5
2BD5
100
AcDbEntity
  8
外形
  6
CONTINUOUS
100
AcDbLine
 10
1127.518708
 20
-49.555119
 30
0.0
 11
1130.074982
 21
-47.943361
 31
0.0
  0
LINE
  5
2C15
100
AcDbEntity
  8
外形
  6
CONTINUOUS
100
AcDbLine
 10
1124.124982
 20
-47.192787
 30
0.0
 11
1105.074982
 21
-47.192787
 31
0.0
  0
LINE
  5
2C16
100
AcDbEntity
  8
外形
  6
CONTINUOUS
100
AcDbLine
 10
1124.124982
 20
-47.192787
 30
0.0
 11
1105.074982
 21
-51.914091
 31
0.0
  0
LINE
  5
2C18
100
AcDbEntity
  8
外形
  6
CONTINUOUS
100
AcDbLine
 10
1105.360551
 20
-47.192787
 30
0.0
 11
1105.360551
 21
-45.633534
 31
0.0
  0
LINE
  5
2C1A
100
AcDbEntity
  8
外形
  6
CONTINUOUS
100
AcDbLine
 10
1108.159799
 20
-51.589972
 30
0.0
 11
1109.154904
 21
-61.057761
 31
0.0
  0
LINE
  5
2C1B
100
AcDbEntity
  8
外形
  6
CONTINUOUS
100
AcDbLine
 10
1107.469189
 20
-74.41414
 30
0.0
 11
1106.099134
 21
-61.378936
 31
0.0
  0
LINE
  5
2C1C
100
AcDbEntity
  8
外形
  6
CONTINUOUS
100
AcDbLine
 10
1105.591905
 20
-56.646028
 30
0.0
 11
1106.089461
 21
-61.379952
 31
0.0
  0
LINE
  5
2C1D
100
AcDbEntity
  8
外形
  6
CONTINUOUS
100
AcDbLine
 10
1105.075454
 20
-51.91409
 30
0.0
 11
1105.573009
 21
-56.648014
 31
0.0
  0
LINE
  5
2C1E
100
AcDbEntity
  8
外形
  6
CONTINUOUS
100
AcDbLine
 10
1105.573009
 20
-56.648014
 30
0.0
 11
1108.657348
 21
-56.323837
 31
0.0
  0
LINE
  5
2C1F
100
AcDbEntity
  8
外形
  6
CONTINUOUS
100
AcDbLine
 10
1105.074982
 20
-47.192787
 30
0.0
 11
1105.074982
 21
-51.91414
 31
0.0
  0
SPLINE
  5
2C4C
100
AcDbEntity
  8
外形
  6
CONTINUOUS
100
AcDbSpline
210
0.0
220
0.0
230
1.0
 70
     8
 71
     3
 72
    13
 73
     9
 74
     7
 42
0.0000001
 43
0.0000001
 44
0.0000000001
 40
0.0
 40
0.0
 40
0.0
 40
0.0
 40
9.143601343789594
 40
12.19301924138885
 40
45.51875720054325
 40
47.89969119693546
 40
49.59145182105149
 40
51.9096929255247
 40
51.9096929255247
 40
51.9096929255247
 40
51.9096929255247
 10
1105.360550611732
 20
-45.63353408847461
 30
0.0
 10
1108.319909595017
 20
-44.87215640625109
 30
0.0
 10
1112.266223489145
 20
-43.85685703128206
 30
0.0
 10
1127.399756109833
 20
-42.44592053281036
 30
0.0
 10
1139.461908100573
 20
-37.3291591172348
 30
0.0
 10
1151.802243082055
 20
-34.91525087973636
 30
0.0
 10
1153.644702093465
 20
-33.77360533763299
 30
0.0
 10
1154.55102366371
 20
-32.7854226545608
 30
0.0
 10
1155.074981522141
 20
-32.2141396802184
 30
0.0
 11
1105.360550611732
 21
-45.63353408847461
 31
0.0
 11
1114.299067144113
 21
-43.70782182167746
 31
0.0
 11
1117.328418223041
 21
-43.35856324297535
 31
0.0
 11
1149.675718398643
 21
-35.34251796667319
 31
0.0
 11
1151.971638585204
 21
-34.71196488237353
 31
0.0
 11
1153.419643366551
 21
-33.83712994793938
 31
0.0
 11
1155.074981522141
 21
-32.2141396802184
 31
0.0
  0
LINE
  5
2C4D
100
AcDbEntity
  8
外形
  6
CONTINUOUS
100
AcDbLine
 10
1106.089461
 20
-61.379952
 30
0.0
 11
1109.154904
 21
-61.057761
 31
0.0
  0
LINE
  5
2E14
100
AcDbEntity
  8
外形
  6
CONTINUOUS
100
AcDbLine
 10
994.968487
 20
21.719952
 30
0.0
 11
991.201761
 21
0.357788
 31
0.0
  0
LINE
  5
2ED9
100
AcDbEntity
  8
外形
  6
CONTINUOUS
100
AcDbLine
 10
1007.096888
 20
35.680037
 30
0.0
 11
981.872282
 21
35.680037
 31
0.0
  0
ENDSEC
  0
SECTION
  2
OBJECTS
  0
DICTIONARY
  5
1E
100
AcDbDictionary
  3
ACAD_GROUP
350
1C
  3
ACAD_MLINESTYLE
350
1D
  3
ACDBVARIABLEDICTIONARY
350
147A
  3
DRAWINGVARIABLESDICT
350
C58
  0
DICTIONARY
  5
38
100
AcDbDictionary
280
     1
  3
ACAD_XREC_ROUNDTRIP
360
39
  0
DICTIONARY
  5
22
100
AcDbDictionary
280
     1
  3
ACAD_XREC_ROUNDTRIP
360
23
  0
DICTIONARY
  5
3
100
AcDbDictionary
280
     1
  3
ACAD_LAYOUTSELFREF
360
4
  0
DICTIONARY
  5
A
100
AcDbDictionary
280
     1
  3
ACAD_LAYOUTSELFREF
360
B
  0
DICTIONARY
  5
1C
102
{ACAD_REACTORS
330
1E
102
}
100
AcDbDictionary
  0
DICTIONARY
  5
1D
102
{ACAD_REACTORS
330
1E
102
}
100
AcDbDictionary
  3
STANDARD
350
20
  0
DICTIONARY
  5
147A
102
{ACAD_REACTORS
330
1E
102
}
100
AcDbDictionary
  3
SORTENTS
350
147B
  0
DICTIONARY
  5
C58
102
{ACAD_REACTORS
330
1E
102
}
100
AcDbDictionary
1001
DRAWINGVARIABLESXDATA
1000
POLARMODE
1000
0
  0
XRECORD
  5
39
102
{ACAD_REACTORS
330
38
102
}
100
AcDbXrecord
102
PLOTBIT
280
     0
  0
XRECORD
  5
23
102
{ACAD_REACTORS
330
22
102
}
100
AcDbXrecord
102
ACADR14ROUNDTRIP
1000
DSTYLE
1002
{
1070
   341
340
0
1070
   343
340
0
1070
   344
340
0
1002
}
  0
XRECORD
  5
4
102
{ACAD_REACTORS
330
3
102
}
100
AcDbXrecord
340
2
  0
XRECORD
  5
B
102
{ACAD_REACTORS
330
A
102
}
100
AcDbXrecord
340
9
  0
MLINESTYLE
  5
20
102
{ACAD_REACTORS
330
1D
102
}
100
AcDbMlineStyle
  2
STANDARD
 70
     0
  3

 62
     0
 51
90.0
 52
90.0
 71
     2
 49
0.5
 62
   256
  6
BYLAYER
 49
-0.5
 62
   256
  6
BYLAYER
  0
DICTIONARYVAR
  5
147B
102
{ACAD_REACTORS
330
147A
102
}
100
DictionaryVariables
280
     0
  1
96
  0
ENDSEC
  0
EOF
