  0
SECTION
  2
HEADER
  9
$ACADVER
  1
AC1014
  9
$ACADMAINTVER
 70
     0
  9
$DWGCODEPAGE
  3
ANSI_932
  9
$INSBASE
 10
405.70028
 20
611.576303
 30
0.0
  9
$EXTMIN
 10
406.878908
 20
621.836939
 30
0.0
  9
$EXTMAX
 10
584.840314
 20
732.890015
 30
0.0
  9
$LIMMIN
 10
-587.250952
 20
327.890188
  9
$LIMMAX
 10
600.749048
 20
957.890188
  9
$ORTHOMODE
 70
     0
  9
$REGENMODE
 70
     1
  9
$FILLMODE
 70
     1
  9
$QTEXTMODE
 70
     0
  9
$MIRRTEXT
 70
     1
  9
$DRAGMODE
 70
     2
  9
$LTSCALE
 40
5.0
  9
$OSMODE
 70
   303
  9
$ATTMODE
 70
     1
  9
$TEXTSIZE
 40
5.0
  9
$TRACEWID
 40
0.05
  9
$TEXTSTYLE
  7
STANDARD
  9
$CLAYER
  8
寸法
  9
$CELTYPE
  6
CONTINUOUS
  9
$CECOLOR
 62
   256
  9
$CELTSCALE
 40
1.0
  9
$DELOBJ
 70
     1
  9
$DISPSILH
 70
     0
  9
$DIMSCALE
 40
0.0
  9
$DIMASZ
 40
2.0
  9
$DIMEXO
 40
1.0
  9
$DIMDLI
 40
8.0
  9
$DIMRND
 40
0.0
  9
$DIMDLE
 40
0.0
  9
$DIMEXE
 40
2.0
  9
$DIMTP
 40
0.0
  9
$DIMTM
 40
0.0
  9
$DIMTXT
 40
3.0
  9
$DIMCEN
 40
-1.0
  9
$DIMTSZ
 40
0.0
  9
$DIMTOL
 70
     0
  9
$DIMLIM
 70
     0
  9
$DIMTIH
 70
     0
  9
$DIMTOH
 70
     0
  9
$DIMSE1
 70
     0
  9
$DIMSE2
 70
     0
  9
$DIMTAD
 70
     1
  9
$DIMZIN
 70
     8
  9
$DIMBLK
  1

  9
$DIMASO
 70
     1
  9
$DIMSHO
 70
     1
  9
$DIMPOST
  1

  9
$DIMAPOST
  1

  9
$DIMALT
 70
     0
  9
$DIMALTD
 70
     2
  9
$DIMALTF
 40
25.4
  9
$DIMLFAC
 40
1.0
  9
$DIMTOFL
 70
     1
  9
$DIMTVP
 40
0.0
  9
$DIMTIX
 70
     0
  9
$DIMSOXD
 70
     0
  9
$DIMSAH
 70
     1
  9
$DIMBLK1
  1
_OPEN30
  9
$DIMBLK2
  1
_OPEN30
  9
$DIMSTYLE
  2
STANDARD
  9
$DIMCLRD
 70
     1
  9
$DIMCLRE
 70
     1
  9
$DIMCLRT
 70
     3
  9
$DIMTFAC
 40
1.0
  9
$DIMGAP
 40
1.0
  9
$DIMJUST
 70
     0
  9
$DIMSD1
 70
     0
  9
$DIMSD2
 70
     0
  9
$DIMTOLJ
 70
     1
  9
$DIMTZIN
 70
     8
  9
$DIMALTZ
 70
     0
  9
$DIMALTTZ
 70
     0
  9
$DIMFIT
 70
     3
  9
$DIMUPT
 70
     0
  9
$DIMUNIT
 70
     2
  9
$DIMDEC
 70
     2
  9
$DIMTDEC
 70
     2
  9
$DIMALTU
 70
     2
  9
$DIMALTTD
 70
     2
  9
$DIMTXSTY
  7
STANDARD
  9
$DIMAUNIT
 70
     0
  9
$LUNITS
 70
     2
  9
$LUPREC
 70
     3
  9
$SKETCHINC
 40
0.1
  9
$FILLETRAD
 40
4.0
  9
$AUNITS
 70
     0
  9
$AUPREC
 70
     3
  9
$MENU
  1
acad
  9
$ELEVATION
 40
0.0
  9
$PELEVATION
 40
0.0
  9
$THICKNESS
 40
0.0
  9
$LIMCHECK
 70
     0
  9
$BLIPMODE
 70
     0
  9
$CHAMFERA
 40
0.0
  9
$CHAMFERB
 40
0.0
  9
$CHAMFERC
 40
0.0
  9
$CHAMFERD
 40
0.0
  9
$SKPOLY
 70
     0
  9
$TDCREATE
 40
2450751.535399305
  9
$TDUPDATE
 40
2451997.705219907
  9
$TDINDWG
 40
3.2475807870
  9
$TDUSRTIMER
 40
3.2475807870
  9
$USRTIMER
 70
     1
  9
$ANGBASE
 50
0.0
  9
$ANGDIR
 70
     0
  9
$PDMODE
 70
    32
  9
$PDSIZE
 40
0.0
  9
$PLINEWID
 40
0.0
  9
$COORDS
 70
     2
  9
$SPLFRAME
 70
     0
  9
$SPLINETYPE
 70
     5
  9
$SPLINESEGS
 70
     8
  9
$ATTDIA
 70
     0
  9
$ATTREQ
 70
     1
  9
$HANDLING
 70
     1
  9
$HANDSEED
  5
523
  9
$SURFTAB1
 70
     6
  9
$SURFTAB2
 70
     6
  9
$SURFTYPE
 70
     6
  9
$SURFU
 70
     6
  9
$SURFV
 70
     6
  9
$UCSNAME
  2

  9
$UCSORG
 10
0.0
 20
0.0
 30
0.0
  9
$UCSXDIR
 10
1.0
 20
0.0
 30
0.0
  9
$UCSYDIR
 10
0.0
 20
1.0
 30
0.0
  9
$PUCSNAME
  2

  9
$PUCSORG
 10
0.0
 20
0.0
 30
0.0
  9
$PUCSXDIR
 10
1.0
 20
0.0
 30
0.0
  9
$PUCSYDIR
 10
0.0
 20
1.0
 30
0.0
  9
$USERI1
 70
     0
  9
$USERI2
 70
     0
  9
$USERI3
 70
     0
  9
$USERI4
 70
     0
  9
$USERI5
 70
     0
  9
$USERR1
 40
0.0
  9
$USERR2
 40
0.0
  9
$USERR3
 40
0.0
  9
$USERR4
 40
0.0
  9
$USERR5
 40
0.0
  9
$WORLDVIEW
 70
     1
  9
$SHADEDGE
 70
     3
  9
$SHADEDIF
 70
    70
  9
$TILEMODE
 70
     1
  9
$MAXACTVP
 70
    16
  9
$PINSBASE
 10
0.0
 20
0.0
 30
0.0
  9
$PLIMCHECK
 70
     0
  9
$PEXTMIN
 10
1.000000E+20
 20
1.000000E+20
 30
1.000000E+20
  9
$PEXTMAX
 10
-1.000000E+20
 20
-1.000000E+20
 30
-1.000000E+20
  9
$PLIMMIN
 10
0.0
 20
0.0
  9
$PLIMMAX
 10
12.0
 20
9.0
  9
$UNITMODE
 70
     0
  9
$VISRETAIN
 70
     0
  9
$PLINEGEN
 70
     0
  9
$PSLTSCALE
 70
     1
  9
$TREEDEPTH
 70
  3020
  9
$PICKSTYLE
 70
     1
  9
$CMLSTYLE
  2
STANDARD
  9
$CMLJUST
 70
     0
  9
$CMLSCALE
 40
1.0
  9
$PROXYGRAPHICS
 70
     1
  9
$MEASUREMENT
 70
     0
  0
ENDSEC
  0
SECTION
  2
CLASSES
  0
CLASS
  1
LWPOLYLINE
  2
AcDbPolyline
  3
"AutoCAD"
 90
        0
280
     0
281
     1
  0
CLASS
  1
ACDBDICTIONARYWDFLT
  2
AcDbDictionaryWithDefault
  3
AutoCAD 2000
 90
        0
280
     1
281
     0
  0
CLASS
  1
ACDBPLACEHOLDER
  2
AcDbPlaceHolder
  3
AutoCAD 2000
 90
        0
280
     1
281
     0
  0
CLASS
  1
LAYOUT
  2
AcDbLayout
  3
AutoCAD 2000
 90
        0
280
     1
281
     0
  0
CLASS
  1
LONG_TRANSACTION
  2
AcDbLongTransaction
  3
AutoCAD 2000
 90
        0
280
     1
281
     0
  0
CLASS
  1
LWPOLYLINE
  2
AcDbPolyline
  3
"AutoCAD"
 90
        0
280
     0
281
     1
  0
CLASS
  1
HATCH
  2
AcDbHatch
  3
"ACAD_SEDONA"
 90
        0
280
     0
281
     1
  0
CLASS
  1
XRECORD
  2
AcDbXrecord
  3
"<Built In>"
 90
        0
280
     0
281
     0
  0
CLASS
  1
DICTIONARYVAR
  2
AcDbDictionaryVar
  3
"AutoCAD"
 90
        0
280
     0
281
     0
  0
ENDSEC
  0
SECTION
  2
TABLES
  0
TABLE
  2
VPORT
  5
16
100
AcDbSymbolTable
 70
     1
  0
VPORT
  5
51E
100
AcDbSymbolTableRecord
100
AcDbViewportTableRecord
  2
*ACTIVE
 70
     0
 10
0.0
 20
0.0
 11
1.0
 21
1.0
 12
501.765648
 22
669.56765
 13
0.0
 23
0.0
 14
1.0
 24
1.0
 15
10.0
 25
10.0
 16
0.0
 26
0.0
 36
1.0
 17
0.0
 27
0.0
 37
0.0
 40
152.39229
 41
1.710425
 42
50.0
 43
0.0
 44
0.0
 50
0.0
 51
0.0
 71
     0
 72
   100
 73
     1
 74
     1
 75
     0
 76
     0
 77
     0
 78
     2
  0
ENDTAB
  0
TABLE
  2
LTYPE
  5
11
100
AcDbSymbolTable
 70
     3
  0
LTYPE
  5
12
100
AcDbSymbolTableRecord
100
AcDbLinetypeTableRecord
  2
BYBLOCK
 70
     0
  3

 72
    65
 73
     0
 40
0.0
  0
LTYPE
  5
13
100
AcDbSymbolTableRecord
100
AcDbLinetypeTableRecord
  2
BYLAYER
 70
     0
  3

 72
    65
 73
     0
 40
0.0
  0
LTYPE
  5
7
100
AcDbSymbolTableRecord
100
AcDbLinetypeTableRecord
  2
CONTINUOUS
 70
     0
  3
Solid line
 72
    65
 73
     0
 40
0.0
  0
LTYPE
  5
4C
100
AcDbSymbolTableRecord
100
AcDbLinetypeTableRecord
  2
CENTER
 70
     0
  3
Center ____ _ ____ _ ____ _ ____ _ ____ _ ____
 72
    65
 73
     4
 40
2.0
 49
1.25
 74
     0
 49
-0.25
 74
     0
 49
0.25
 74
     0
 49
-0.25
 74
     0
  0
LTYPE
  5
6E
100
AcDbSymbolTableRecord
100
AcDbLinetypeTableRecord
  2
HIDDEN
 70
     0
  3
Hidden __ __ __ __ __ __ __ __ __ __ __ __ __ _
 72
    65
 73
     2
 40
0.375
 49
0.25
 74
     0
 49
-0.125
 74
     0
  0
ENDTAB
  0
TABLE
  2
LAYER
  5
E
100
AcDbSymbolTable
 70
     4
  0
LAYER
  5
6
100
AcDbSymbolTableRecord
100
AcDbLayerTableRecord
  2
0
 70
     0
 62
     7
  6
CONTINUOUS
  0
LAYER
  5
52
100
AcDbSymbolTableRecord
100
AcDbLayerTableRecord
  2
外形
 70
     0
 62
     4
  6
CONTINUOUS
  0
LAYER
  5
42
102
{ACAD_XDICTIONARY
360
43
102
}
100
AcDbSymbolTableRecord
100
AcDbLayerTableRecord
  2
DEFPOINTS
 70
     0
 62
     7
  6
CONTINUOUS
  0
LAYER
  5
2C
100
AcDbSymbolTableRecord
100
AcDbLayerTableRecord
  2
寸法
 70
     0
 62
     1
  6
CONTINUOUS
  0
ENDTAB
  0
TABLE
  2
STYLE
  5
F
100
AcDbSymbolTable
 70
     1
  0
STYLE
  5
10
100
AcDbSymbolTableRecord
100
AcDbTextStyleTableRecord
  2
STANDARD
 70
     0
 40
0.0
 41
1.0
 50
0.0
 71
     0
 42
5.0
  3
MONOTXT
  4
BIGFONT
  0
ENDTAB
  0
TABLE
  2
VIEW
  5
14
100
AcDbSymbolTable
 70
     0
  0
ENDTAB
  0
TABLE
  2
UCS
  5
15
100
AcDbSymbolTable
 70
     0
  0
ENDTAB
  0
TABLE
  2
APPID
  5
18
100
AcDbSymbolTable
 70
     1
  0
APPID
  5
19
100
AcDbSymbolTableRecord
100
AcDbRegAppTableRecord
  2
ACAD
 70
     0
  0
ENDTAB
  0
TABLE
  2
DIMSTYLE
  5
1A
100
AcDbSymbolTable
 70
     2
  0
DIMSTYLE
105
2D
102
{ACAD_XDICTIONARY
360
2E
102
}
102
{ACAD_REACTORS
330
512
102
}
100
AcDbSymbolTableRecord
100
AcDbDimStyleTableRecord
  2
STANDARD
 70
     0
  3

  4

  5

  6
_OPEN30
  7
_OPEN30
 40
0.0
 41
2.0
 42
1.0
 43
8.0
 44
2.0
 45
0.0
 46
0.0
 47
0.0
 48
0.0
140
3.0
141
-1.0
142
0.0
143
25.4
144
1.0
145
0.0
146
1.0
147
1.0
 71
     0
 72
     0
 73
     0
 74
     0
 75
     0
 76
     0
 77
     1
 78
     8
170
     0
171
     2
172
     1
173
     1
174
     0
175
     0
176
     1
177
     1
178
     3
270
     2
271
     2
272
     2
273
     2
274
     2
340
10
275
     0
280
     0
281
     0
282
     0
283
     1
284
     8
285
     0
286
     0
287
     3
288
     0
  0
DIMSTYLE
105
21
100
AcDbSymbolTableRecord
100
AcDbDimStyleTableRecord
  2
参考寸法
 70
     0
  3

  4

  5

  6
_DOTSMALL
  7
_DOTSMALL
 40
1.0
 41
2.0
 42
1.0
 43
8.0
 44
2.0
 45
0.0
 46
0.0
 47
0.0
 48
0.0
140
2.0
141
-1.0
142
0.0
143
25.4
144
1.0
145
0.0
146
1.0
147
1.0
 71
     0
 72
     0
 73
     0
 74
     0
 75
     0
 76
     0
 77
     1
 78
     8
170
     0
171
     2
172
     1
173
     1
174
     0
175
     0
176
     2
177
     2
178
     2
270
     2
271
     3
272
     2
273
     2
274
     2
340
10
275
     0
280
     0
281
     0
282
     0
283
     1
284
     8
285
     0
286
     0
287
     3
288
     0
  0
ENDTAB
  0
TABLE
  2
BLOCK_RECORD
  5
1
100
AcDbSymbolTable
 70
    10
  0
BLOCK_RECORD
  5
2
102
{ACAD_XDICTIONARY
360
3
102
}
100
AcDbSymbolTableRecord
100
AcDbBlockTableRecord
  2
*MODEL_SPACE
  0
BLOCK_RECORD
  5
9
102
{ACAD_XDICTIONARY
360
A
102
}
100
AcDbSymbolTableRecord
100
AcDbBlockTableRecord
  2
*PAPER_SPACE
  0
BLOCK_RECORD
  5
22
100
AcDbSymbolTableRecord
100
AcDbBlockTableRecord
  2
_DOTSMALL
  0
BLOCK_RECORD
  5
30
100
AcDbSymbolTableRecord
100
AcDbBlockTableRecord
  2
_OPEN30
  0
BLOCK_RECORD
  5
2BC
100
AcDbSymbolTableRecord
100
AcDbBlockTableRecord
  2
*D2
  0
BLOCK_RECORD
  5
301
100
AcDbSymbolTableRecord
100
AcDbBlockTableRecord
  2
*D3
  0
BLOCK_RECORD
  5
32B
100
AcDbSymbolTableRecord
100
AcDbBlockTableRecord
  2
*D4
  0
BLOCK_RECORD
  5
374
100
AcDbSymbolTableRecord
100
AcDbBlockTableRecord
  2
*D5
  0
BLOCK_RECORD
  5
3C0
100
AcDbSymbolTableRecord
100
AcDbBlockTableRecord
  2
*D6
  0
BLOCK_RECORD
  5
3CB
100
AcDbSymbolTableRecord
100
AcDbBlockTableRecord
  2
*D7
  0
BLOCK_RECORD
  5
500
100
AcDbSymbolTableRecord
100
AcDbBlockTableRecord
  2
A$C66135EFD
  0
BLOCK_RECORD
  5
506
100
AcDbSymbolTableRecord
100
AcDbBlockTableRecord
  2
*D9
  0
ENDTAB
  0
ENDSEC
  0
SECTION
  2
BLOCKS
  0
BLOCK
  5
5
100
AcDbEntity
  8
0
100
AcDbBlockBegin
  2
*MODEL_SPACE
 70
     0
 10
0.0
 20
0.0
 30
0.0
  3
*MODEL_SPACE
  1

  0
ENDBLK
  5
8
100
AcDbEntity
  8
0
100
AcDbBlockEnd
  0
BLOCK
  5
C
100
AcDbEntity
 67
     1
  8
0
100
AcDbBlockBegin
  2
*PAPER_SPACE
 70
     0
 10
0.0
 20
0.0
 30
0.0
  3
*PAPER_SPACE
  1

  0
ENDBLK
  5
D
100
AcDbEntity
 67
     1
  8
0
100
AcDbBlockEnd
  0
BLOCK
  5
27
100
AcDbEntity
  8
0
100
AcDbBlockBegin
  2
_DOTSMALL
 70
     0
 10
0.0
 20
0.0
 30
0.0
  3
_DOTSMALL
  1

  0
POLYLINE
  5
23
100
AcDbEntity
  8
0
  6
BYBLOCK
 62
     0
100
AcDb2dPolyline
 66
     1
 10
0.0
 20
0.0
 30
0.0
 70
     1
 40
0.5
 41
0.5
  0
VERTEX
  5
24
100
AcDbEntity
  8
0
  6
BYBLOCK
 62
     0
100
AcDbVertex
100
AcDb2dVertex
 10
-0.0625
 20
0.0
 30
0.0
 42
1.0
  0
VERTEX
  5
25
100
AcDbEntity
  8
0
  6
BYBLOCK
 62
     0
100
AcDbVertex
100
AcDb2dVertex
 10
0.0625
 20
0.0
 30
0.0
 42
1.0
  0
SEQEND
  5
26
100
AcDbEntity
  8
0
  6
BYBLOCK
 62
     0
  0
ENDBLK
  5
28
100
AcDbEntity
  8
0
100
AcDbBlockEnd
  0
BLOCK
  5
34
100
AcDbEntity
  8
0
100
AcDbBlockBegin
  2
_OPEN30
 70
     0
 10
0.0
 20
0.0
 30
0.0
  3
_OPEN30
  1

  0
LINE
  5
31
100
AcDbEntity
  8
0
  6
BYBLOCK
 62
     0
100
AcDbLine
 10
-1.0
 20
0.267949
 30
0.0
 11
0.0
 21
0.0
 31
0.0
  0
LINE
  5
32
100
AcDbEntity
  8
0
  6
BYBLOCK
 62
     0
100
AcDbLine
 10
0.0
 20
0.0
 30
0.0
 11
-1.0
 21
-0.267949
 31
0.0
  0
LINE
  5
33
100
AcDbEntity
  8
0
  6
BYBLOCK
 62
     0
100
AcDbLine
 10
0.0
 20
0.0
 30
0.0
 11
-1.0
 21
0.0
 31
0.0
  0
ENDBLK
  5
35
100
AcDbEntity
  8
0
100
AcDbBlockEnd
  0
BLOCK
  5
3E4
100
AcDbEntity
  8
0
100
AcDbBlockBegin
  2
*D2
 70
     1
 10
0.0
 20
0.0
 30
0.0
  3
*D2
  1

  0
LINE
  5
3E5
100
AcDbEntity
  8
0
  6
BYBLOCK
 62
     1
100
AcDbLine
 10
424.213611
 20
696.034899
 30
0.0
 11
420.648195
 21
679.260938
 31
0.0
  0
LINE
  5
3E6
100
AcDbEntity
  8
0
  6
BYBLOCK
 62
     1
100
AcDbLine
 10
424.421522
 20
691.757455
 30
0.0
 11
424.421522
 21
678.864345
 31
0.0
  0
ARC
  5
3E7
100
AcDbEntity
  8
0
  6
BYBLOCK
 62
     1
100
AcDbCircle
 10
424.421522
 20
697.013047
 30
0.0
 40
16.148702
100
AcDbArc
 50
243.77142
 51
258.0
  0
LINE
  5
3E8
100
AcDbEntity
  8
0
  6
BYBLOCK
 62
     1
100
AcDbLine
 10
417.28455
 20
682.527048
 30
0.0
 11
406.878908
 21
687.653706
 31
0.0
  0
ARC
  5
3E9
100
AcDbEntity
  8
0
  6
BYBLOCK
 62
     1
100
AcDbCircle
 10
424.421522
 20
697.013047
 30
0.0
 40
16.148702
100
AcDbArc
 50
243.798868
 51
250.899434
  0
ARC
  5
3EA
100
AcDbEntity
  8
0
  6
BYBLOCK
 62
     1
100
AcDbCircle
 10
424.421522
 20
697.013047
 30
0.0
 40
16.148702
100
AcDbArc
 50
277.100566
 51
284.201132
  0
ARC
  5
3EB
100
AcDbEntity
  8
0
  6
BYBLOCK
 62
     1
100
AcDbCircle
 10
424.421522
 20
697.013047
 30
0.0
 40
16.148702
100
AcDbArc
 50
258.0
 51
270.0
  0
INSERT
  5
3EC
100
AcDbEntity
  8
0
  6
BYBLOCK
 62
     1
100
AcDbBlockReference
  2
_OPEN30
 10
421.064019
 20
681.217233
 30
0.0
 41
2.0
 42
2.0
 43
2.0
 50
344.449717
  0
INSERT
  5
3ED
100
AcDbEntity
  8
0
  6
BYBLOCK
 62
     1
100
AcDbBlockReference
  2
_OPEN30
 10
424.421522
 20
680.864345
 30
0.0
 41
2.0
 42
2.0
 43
2.0
 50
183.550283
  0
MTEXT
  5
3EE
100
AcDbEntity
  8
0
  6
BYBLOCK
 62
     3
100
AcDbMText
 10
413.186612
 20
687.332972
 30
0.0
 40
3.0
 41
0.0
 71
     5
 72
     1
  1
\A1;12°
 11
0.897038
 21
-0.441953
 31
0.0
  0
POINT
  5
3EF
100
AcDbEntity
  8
DEFPOINTS
  6
BYBLOCK
 62
     0
100
AcDbPoint
 10
423.295046
 20
680.903683
 30
0.0
  0
POINT
  5
3F0
100
AcDbEntity
  8
DEFPOINTS
  6
BYBLOCK
 62
     0
100
AcDbPoint
 10
424.421522
 20
711.922482
 30
0.0
  0
POINT
  5
3F1
100
AcDbEntity
  8
DEFPOINTS
  6
BYBLOCK
 62
     0
100
AcDbPoint
 10
426.280948
 20
705.760955
 30
0.0
  0
POINT
  5
3F2
100
AcDbEntity
  8
DEFPOINTS
  6
BYBLOCK
 62
     0
100
AcDbPoint
 10
424.421522
 20
697.013047
 30
0.0
  0
POINT
  5
3F3
100
AcDbEntity
  8
DEFPOINTS
  6
BYBLOCK
 62
     0
100
AcDbPoint
 10
424.421522
 20
692.757455
 30
0.0
  0
ENDBLK
  5
3F4
100
AcDbEntity
  8
0
100
AcDbBlockEnd
  0
BLOCK
  5
424
100
AcDbEntity
  8
0
100
AcDbBlockBegin
  2
*D3
 70
     1
 10
0.0
 20
0.0
 30
0.0
  3
*D3
  1

  0
LINE
  5
425
100
AcDbEntity
  8
0
  6
BYBLOCK
 62
     1
100
AcDbLine
 10
455.598929
 20
696.01282
 30
0.0
 11
455.598929
 21
675.384092
 31
0.0
  0
LINE
  5
426
100
AcDbEntity
  8
0
  6
BYBLOCK
 62
     1
100
AcDbLine
 10
580.598929
 20
699.01282
 30
0.0
 11
580.598929
 21
675.384092
 31
0.0
  0
LINE
  5
427
100
AcDbEntity
  8
0
  6
BYBLOCK
 62
     1
100
AcDbLine
 10
457.598929
 20
677.384092
 30
0.0
 11
578.598929
 21
677.384092
 31
0.0
  0
INSERT
  5
428
100
AcDbEntity
  8
0
  6
BYBLOCK
 62
     1
100
AcDbBlockReference
  2
_OPEN30
 10
455.598929
 20
677.384092
 30
0.0
 41
2.0
 42
2.0
 43
2.0
 50
180.0
  0
INSERT
  5
429
100
AcDbEntity
  8
0
  6
BYBLOCK
 62
     1
100
AcDbBlockReference
  2
_OPEN30
 10
580.598929
 20
677.384092
 30
0.0
 41
2.0
 42
2.0
 43
2.0
  0
MTEXT
  5
42A
100
AcDbEntity
  8
0
  6
BYBLOCK
 62
     3
100
AcDbMText
 10
518.098929
 20
679.884092
 30
0.0
 40
3.0
 41
0.0
 71
     5
 72
     1
  1
\A1;125
  0
POINT
  5
42B
100
AcDbEntity
  8
DEFPOINTS
  6
BYBLOCK
 62
     0
100
AcDbPoint
 10
455.598929
 20
697.01282
 30
0.0
  0
POINT
  5
42C
100
AcDbEntity
  8
DEFPOINTS
  6
BYBLOCK
 62
     0
100
AcDbPoint
 10
580.598929
 20
700.01282
 30
0.0
  0
POINT
  5
42D
100
AcDbEntity
  8
DEFPOINTS
  6
BYBLOCK
 62
     0
100
AcDbPoint
 10
580.598929
 20
677.384092
 30
0.0
  0
ENDBLK
  5
42E
100
AcDbEntity
  8
0
100
AcDbBlockEnd
  0
BLOCK
  5
44B
100
AcDbEntity
  8
0
100
AcDbBlockBegin
  2
*D4
 70
     1
 10
0.0
 20
0.0
 30
0.0
  3
*D4
  1

  0
LINE
  5
44C
100
AcDbEntity
  8
0
  6
BYBLOCK
 62
     1
100
AcDbLine
 10
456.458516
 20
707.259242
 30
0.0
 11
457.420652
 21
718.256497
 31
0.0
  0
LINE
  5
44D
100
AcDbEntity
  8
0
  6
BYBLOCK
 62
     1
100
AcDbLine
 10
454.562091
 20
697.013047
 30
0.0
 11
434.237494
 21
697.013047
 31
0.0
  0
ARC
  5
44E
100
AcDbEntity
  8
0
  6
BYBLOCK
 62
     1
100
AcDbCircle
 10
455.562091
 20
697.013047
 30
0.0
 40
19.324596
100
AcDbArc
 50
90.932479
 51
174.067521
  0
INSERT
  5
44F
100
AcDbEntity
  8
0
  6
BYBLOCK
 62
     1
100
AcDbBlockReference
  2
_OPEN30
 10
457.24634
 20
716.264108
 30
0.0
 41
2.0
 42
2.0
 43
2.0
 50
357.96624
  0
INSERT
  5
450
100
AcDbEntity
  8
0
  6
BYBLOCK
 62
     1
100
AcDbBlockReference
  2
_OPEN30
 10
436.237494
 20
697.013047
 30
0.0
 41
2.0
 42
2.0
 43
2.0
 50
267.03376
  0
MTEXT
  5
451
100
AcDbEntity
  8
0
  6
BYBLOCK
 62
     3
100
AcDbMText
 10
440.817607
 20
713.103827
 30
0.0
 40
3.0
 41
0.0
 71
     5
 72
     1
  1
\A1;95°
 11
0.737277
 21
0.67559
 31
0.0
  0
POINT
  5
452
100
AcDbEntity
  8
DEFPOINTS
  6
BYBLOCK
 62
     0
100
AcDbPoint
 10
446.889228
 20
714.282137
 30
0.0
  0
POINT
  5
453
100
AcDbEntity
  8
DEFPOINTS
  6
BYBLOCK
 62
     0
100
AcDbPoint
 10
455.984192
 20
697.013047
 30
0.0
  0
POINT
  5
454
100
AcDbEntity
  8
DEFPOINTS
  6
BYBLOCK
 62
     0
100
AcDbPoint
 10
456.371361
 20
706.263047
 30
0.0
  0
POINT
  5
455
100
AcDbEntity
  8
DEFPOINTS
  6
BYBLOCK
 62
     0
100
AcDbPoint
 10
455.600113
 20
697.44765
 30
0.0
  0
POINT
  5
456
100
AcDbEntity
  8
DEFPOINTS
  6
BYBLOCK
 62
     0
100
AcDbPoint
 10
455.598958
 20
697.013047
 30
0.0
  0
ENDBLK
  5
457
100
AcDbEntity
  8
0
100
AcDbBlockEnd
  0
BLOCK
  5
48E
100
AcDbEntity
  8
0
100
AcDbBlockBegin
  2
*D5
 70
     1
 10
0.0
 20
0.0
 30
0.0
  3
*D5
  1

  0
LINE
  5
48F
100
AcDbEntity
  8
0
  6
BYBLOCK
 62
     1
100
AcDbLine
 10
454.598929
 20
704.01282
 30
0.0
 11
444.93878
 21
704.01282
 31
0.0
  0
LINE
  5
490
100
AcDbEntity
  8
0
  6
BYBLOCK
 62
     1
100
AcDbLine
 10
454.598929
 20
697.012712
 30
0.0
 11
444.93878
 21
697.012712
 31
0.0
  0
LINE
  5
491
100
AcDbEntity
  8
0
  6
BYBLOCK
 62
     1
100
AcDbLine
 10
446.93878
 20
702.01282
 30
0.0
 11
446.93878
 21
699.012712
 31
0.0
  0
INSERT
  5
492
100
AcDbEntity
  8
0
  6
BYBLOCK
 62
     1
100
AcDbBlockReference
  2
_OPEN30
 10
446.93878
 20
704.01282
 30
0.0
 41
2.0
 42
2.0
 43
2.0
 50
90.0
  0
INSERT
  5
493
100
AcDbEntity
  8
0
  6
BYBLOCK
 62
     1
100
AcDbBlockReference
  2
_OPEN30
 10
446.93878
 20
697.012712
 30
0.0
 41
2.0
 42
2.0
 43
2.0
 50
270.0
  0
MTEXT
  5
494
100
AcDbEntity
  8
0
  6
BYBLOCK
 62
     3
100
AcDbMText
 10
444.43878
 20
700.512766
 30
0.0
 40
3.0
 41
0.0
 71
     5
 72
     1
  1
\A1;7
 11
0.0
 21
1.0
 31
0.0
  0
POINT
  5
495
100
AcDbEntity
  8
DEFPOINTS
  6
BYBLOCK
 62
     0
100
AcDbPoint
 10
455.598929
 20
704.01282
 30
0.0
  0
POINT
  5
496
100
AcDbEntity
  8
DEFPOINTS
  6
BYBLOCK
 62
     0
100
AcDbPoint
 10
455.598929
 20
697.012712
 30
0.0
  0
POINT
  5
497
100
AcDbEntity
  8
DEFPOINTS
  6
BYBLOCK
 62
     0
100
AcDbPoint
 10
446.93878
 20
697.012712
 30
0.0
  0
ENDBLK
  5
498
100
AcDbEntity
  8
0
100
AcDbBlockEnd
  0
BLOCK
  5
4D4
100
AcDbEntity
  8
0
100
AcDbBlockBegin
  2
*D6
 70
     1
 10
0.0
 20
0.0
 30
0.0
  3
*D6
  1

  0
LINE
  5
4D5
100
AcDbEntity
  8
0
  6
BYBLOCK
 62
     1
100
AcDbLine
 10
546.427536
 20
698.391479
 30
0.0
 11
545.235709
 21
696.785381
 31
0.0
  0
LINE
  5
4D6
100
AcDbEntity
  8
0
  6
BYBLOCK
 62
     1
100
AcDbLine
 10
554.770322
 20
709.634161
 30
0.0
 11
561.921282
 21
719.270746
 31
0.0
  0
LINE
  5
4D7
100
AcDbEntity
  8
0
  6
BYBLOCK
 62
     1
100
AcDbLine
 10
547.619362
 20
699.997576
 30
0.0
 11
553.578496
 21
708.028064
 31
0.0
  0
INSERT
  5
4D8
100
AcDbEntity
  8
0
  6
BYBLOCK
 62
     1
100
AcDbBlockReference
  2
_OPEN30
 10
547.619362
 20
699.997576
 30
0.0
 41
2.0
 42
2.0
 43
2.0
 50
53.422231
  0
INSERT
  5
4D9
100
AcDbEntity
  8
0
  6
BYBLOCK
 62
     1
100
AcDbBlockReference
  2
_OPEN30
 10
553.578496
 20
708.028064
 30
0.0
 41
2.0
 42
2.0
 43
2.0
 50
233.422231
  0
MTEXT
  5
4DA
100
AcDbEntity
  8
0
  6
BYBLOCK
 62
     3
100
AcDbMText
 10
556.934094
 20
716.745286
 30
0.0
 40
3.0
 41
0.0
 71
     5
 72
     1
  1
\A1;\U+220510
 11
0.595913
 21
0.803049
 31
0.0
  0
POINT
  5
4DB
100
AcDbEntity
  8
DEFPOINTS
  6
BYBLOCK
 62
     0
100
AcDbPoint
 10
553.578496
 20
708.028064
 30
0.0
  0
POINT
  5
4DC
100
AcDbEntity
  8
DEFPOINTS
  6
BYBLOCK
 62
     0
100
AcDbPoint
 10
547.619362
 20
699.997576
 30
0.0
  0
ENDBLK
  5
4DD
100
AcDbEntity
  8
0
100
AcDbBlockEnd
  0
BLOCK
  5
4DE
100
AcDbEntity
  8
0
100
AcDbBlockBegin
  2
*D7
 70
     1
 10
0.0
 20
0.0
 30
0.0
  3
*D7
  1

  0
LINE
  5
4DF
100
AcDbEntity
  8
0
  6
BYBLOCK
 62
     1
100
AcDbLine
 10
546.098929
 20
701.076328
 30
0.0
 11
546.098929
 21
686.034363
 31
0.0
  0
LINE
  5
4E0
100
AcDbEntity
  8
0
  6
BYBLOCK
 62
     1
100
AcDbLine
 10
550.598929
 20
696.837995
 30
0.0
 11
550.598929
 21
686.034363
 31
0.0
  0
LINE
  5
4E1
100
AcDbEntity
  8
0
  6
BYBLOCK
 62
     1
100
AcDbLine
 10
544.098929
 20
688.034363
 30
0.0
 11
542.098929
 21
688.034363
 31
0.0
  0
LINE
  5
4E2
100
AcDbEntity
  8
0
  6
BYBLOCK
 62
     1
100
AcDbLine
 10
552.598929
 20
688.034363
 30
0.0
 11
564.598929
 21
688.034363
 31
0.0
  0
LINE
  5
4E3
100
AcDbEntity
  8
0
  6
BYBLOCK
 62
     1
100
AcDbLine
 10
546.098929
 20
688.034363
 30
0.0
 11
550.598929
 21
688.034363
 31
0.0
  0
INSERT
  5
4E4
100
AcDbEntity
  8
0
  6
BYBLOCK
 62
     1
100
AcDbBlockReference
  2
_OPEN30
 10
546.098929
 20
688.034363
 30
0.0
 41
2.0
 42
2.0
 43
2.0
  0
INSERT
  5
4E5
100
AcDbEntity
  8
0
  6
BYBLOCK
 62
     1
100
AcDbBlockReference
  2
_OPEN30
 10
550.598929
 20
688.034363
 30
0.0
 41
2.0
 42
2.0
 43
2.0
 50
180.0
  0
MTEXT
  5
4E6
100
AcDbEntity
  8
0
  6
BYBLOCK
 62
     3
100
AcDbMText
 10
559.598929
 20
690.534363
 30
0.0
 40
3.0
 41
0.0
 71
     5
 72
     1
  1
\A1;4.5
  0
POINT
  5
4E7
100
AcDbEntity
  8
DEFPOINTS
  6
BYBLOCK
 62
     0
100
AcDbPoint
 10
546.098929
 20
702.076328
 30
0.0
  0
POINT
  5
4E8
100
AcDbEntity
  8
DEFPOINTS
  6
BYBLOCK
 62
     0
100
AcDbPoint
 10
550.598929
 20
697.837995
 30
0.0
  0
POINT
  5
4E9
100
AcDbEntity
  8
DEFPOINTS
  6
BYBLOCK
 62
     0
100
AcDbPoint
 10
550.598929
 20
688.034363
 30
0.0
  0
ENDBLK
  5
4EA
100
AcDbEntity
  8
0
100
AcDbBlockEnd
  0
BLOCK
  5
503
100
AcDbEntity
  8
0
100
AcDbBlockBegin
  2
A$C66135EFD
 70
     0
 10
0.0
 20
0.0
 30
0.0
  3
A$C66135EFD
  1

  0
MTEXT
  5
501
102
{ACAD_REACTORS
330
502
102
}
100
AcDbEntity
  8
寸法
  6
CONTINUOUS
 62
     3
100
AcDbMText
 10
9.8
 20
15.099249
 30
0.0
 40
3.0
 41
0.0
 71
     6
 72
     1
  1
\A1;油穴付
  0
LEADER
  5
502
100
AcDbEntity
  8
寸法
  6
CONTINUOUS
 62
     1
100
AcDbLeader
  3
STANDARD
 73
     0
 75
     1
 40
3.0
 41
9.8
 76
     3
 10
20.560208
 20
0.0
 30
0.0
 10
12.8
 20
12.599249
 30
0.0
 10
10.8
 20
12.599249
 30
0.0
 77
   256
340
501
1001
ACAD
1000
DSTYLE
1002
{
1070
    40
1040
1.0
1002
}
  0
ENDBLK
  5
504
100
AcDbEntity
  8
0
100
AcDbBlockEnd
  0
BLOCK
  5
513
100
AcDbEntity
  8
0
100
AcDbBlockBegin
  2
*D9
 70
     1
 10
0.0
 20
0.0
 30
0.0
  3
*D9
  1

  0
LINE
  5
514
100
AcDbEntity
  8
0
  6
BYBLOCK
 62
     1
100
AcDbLine
 10
455.598929
 20
696.012712
 30
0.0
 11
455.598929
 21
685.713747
 31
0.0
  0
LINE
  5
515
100
AcDbEntity
  8
0
  6
BYBLOCK
 62
     1
100
AcDbLine
 10
474.598929
 20
700.833371
 30
0.0
 11
474.598929
 21
685.713747
 31
0.0
  0
LINE
  5
516
100
AcDbEntity
  8
0
  6
BYBLOCK
 62
     1
100
AcDbLine
 10
457.598929
 20
687.713747
 30
0.0
 11
472.598929
 21
687.713747
 31
0.0
  0
INSERT
  5
517
100
AcDbEntity
  8
0
  6
BYBLOCK
 62
     1
100
AcDbBlockReference
  2
_OPEN30
 10
455.598929
 20
687.713747
 30
0.0
 41
2.0
 42
2.0
 43
2.0
 50
180.0
  0
INSERT
  5
518
100
AcDbEntity
  8
0
  6
BYBLOCK
 62
     1
100
AcDbBlockReference
  2
_OPEN30
 10
474.598929
 20
687.713747
 30
0.0
 41
2.0
 42
2.0
 43
2.0
  0
MTEXT
  5
519
100
AcDbEntity
  8
0
  6
BYBLOCK
 62
     3
100
AcDbMText
 10
465.098929
 20
690.213747
 30
0.0
 40
3.0
 41
0.0
 71
     5
 72
     1
  1
\A1;19
  0
POINT
  5
51A
100
AcDbEntity
  8
DEFPOINTS
  6
BYBLOCK
 62
     0
100
AcDbPoint
 10
455.598929
 20
697.012712
 30
0.0
  0
POINT
  5
51B
100
AcDbEntity
  8
DEFPOINTS
  6
BYBLOCK
 62
     0
100
AcDbPoint
 10
474.598929
 20
701.833371
 30
0.0
  0
POINT
  5
51C
100
AcDbEntity
  8
DEFPOINTS
  6
BYBLOCK
 62
     0
100
AcDbPoint
 10
474.598929
 20
687.713747
 30
0.0
  0
ENDBLK
  5
51D
100
AcDbEntity
  8
0
100
AcDbBlockEnd
  0
ENDSEC
  0
SECTION
  2
ENTITIES
  0
DIMENSION
  5
215
100
AcDbEntity
  8
寸法
  6
CONTINUOUS
100
AcDbDimension
  2
*D2
 10
424.421522
 20
692.757455
 30
0.0
 11
413.186612
 21
687.332972
 31
0.0
 70
    34
  3
STANDARD
100
AcDb2LineAngularDimension
 13
426.280948
 23
705.760955
 33
0.0
 14
424.421522
 24
697.013047
 34
0.0
 15
424.421522
 25
711.922482
 35
0.0
 16
423.295046
 26
680.903683
 36
0.0
1001
ACAD
1000
DSTYLE
1002
{
1070
   284
1070
    13
1070
   146
1040
0.5
1070
   272
1070
     3
1070
    40
1040
1.0
1070
   287
1070
     0
1002
}
  0
ELLIPSE
  5
21B
100
AcDbEntity
  8
外形
  6
CONTINUOUS
100
AcDbEllipse
 10
464.628929
 20
654.950533
 30
0.0
 11
-1.299038105676657
 21
-0.7499999999999997
 31
0.0
210
0.0
220
0.0
230
0.9999999999999998
 40
0.666667
 41
0.0
 42
6.283185307179586
  0
LINE
  5
21E
100
AcDbEntity
  8
外形
  6
HIDDEN
100
AcDbLine
 10
471.598929
 20
658.470533
 30
0.0
 11
468.098929
 21
654.970533
 31
0.0
  0
LINE
  5
21F
100
AcDbEntity
  8
外形
  6
CONTINUOUS
100
AcDbLine
 10
471.598929
 20
658.470533
 30
0.0
 11
471.598929
 21
648.470533
 31
0.0
  0
LINE
  5
220
100
AcDbEntity
  8
外形
  6
CONTINUOUS
100
AcDbLine
 10
469.848929
 20
657.958492
 30
0.0
 11
469.848929
 21
648.970533
 31
0.0
  0
SPLINE
  5
221
100
AcDbEntity
  8
外形
  6
CONTINUOUS
100
AcDbSpline
210
0.0
220
0.0
230
-1.0
 70
     8
 71
     3
 72
    10
 73
     6
 74
     4
 42
0.0000001
 43
0.0000001
 44
0.0000000001
 40
0.0
 40
0.0
 40
0.0
 40
0.0
 40
5.039786751347365
 40
10.72395326214039
 40
15.54753035187202
 40
15.54753035187202
 40
15.54753035187202
 40
15.54753035187202
 10
455.8337291681068
 20
653.9705582693088
 30
0.0
 10
457.4919277219763
 20
654.3047064580256
 30
0.0
 10
461.0203396704165
 20
655.0157265339186
 30
0.0
 10
465.4224920375443
 20
658.080673860767
 30
0.0
 10
468.9703059244309
 20
658.3478746482049
 30
0.0
 10
470.598929007941
 20
658.4705331033067
 30
0.0
 11
455.8337291681068
 21
653.9705582693088
 31
0.0
 11
460.6996590761545
 21
655.2828755438361
 31
0.0
 11
465.8337291681068
 21
657.7223577047348
 31
0.0
 11
470.598929007941
 21
658.4705331033067
 31
0.0
  0
LINE
  5
222
100
AcDbEntity
  8
外形
  6
CONTINUOUS
100
AcDbLine
 10
469.848929
 20
657.557651
 30
0.0
 11
469.848929
 21
648.470533
 31
0.0
  0
LINE
  5
223
100
AcDbEntity
  8
外形
  6
CONTINUOUS
100
AcDbLine
 10
469.598929
 20
657.788429
 30
0.0
 11
469.598929
 21
648.720533
 31
0.0
  0
LINE
  5
224
100
AcDbEntity
  8
外形
  6
CONTINUOUS
100
AcDbLine
 10
579.598929
 20
648.470533
 30
0.0
 11
579.598929
 21
658.470533
 31
0.0
  0
LINE
  5
225
100
AcDbEntity
  8
外形
  6
CONTINUOUS
100
AcDbLine
 10
580.598929
 20
657.470533
 30
0.0
 11
580.598929
 21
649.470533
 31
0.0
  0
LINE
  5
226
100
AcDbEntity
  8
外形
  6
HIDDEN
100
AcDbLine
 10
467.098929
 20
651.970533
 30
0.0
 11
580.598929
 21
651.970533
 31
0.0
  0
LINE
  5
227
100
AcDbEntity
  8
外形
  6
HIDDEN
100
AcDbLine
 10
467.098929
 20
654.970533
 30
0.0
 11
580.598929
 21
654.970533
 31
0.0
  0
LINE
  5
228
100
AcDbEntity
  8
外形
  6
CONTINUOUS
100
AcDbLine
 10
579.598929
 20
648.470533
 30
0.0
 11
469.848929
 21
648.470533
 31
0.0
  0
LINE
  5
229
100
AcDbEntity
  8
外形
  6
CENTER
 62
     1
100
AcDbLine
 10
452.272785
 20
653.470533
 30
0.0
 11
584.840314
 21
653.470533
 31
0.0
  0
TEXT
  5
22A
100
AcDbEntity
  8
外形
  6
CONTINUOUS
 62
     2
100
AcDbText
 10
482.11231
 20
621.836939
 30
0.0
 40
6.0
  1
E10K-SCLCR06
100
AcDbText
  0
LINE
  5
22C
100
AcDbEntity
  8
外形
  6
CONTINUOUS
100
AcDbLine
 10
465.80962
 20
648.720533
 30
0.0
 11
469.598929
 21
648.720533
 31
0.0
  0
SPLINE
  5
22D
100
AcDbEntity
  8
外形
  6
CONTINUOUS
100
AcDbSpline
210
0.0
220
0.0
230
1.0
 70
     8
 71
     3
 72
     8
 73
     4
 74
     0
 42
0.0000001
 43
0.0000001
 40
5.13969223736956
 40
5.13969223736956
 40
5.13969223736956
 40
5.13969223736956
 40
5.483482723963377
 40
5.483482723963377
 40
5.483482723963377
 40
5.483482723963377
 10
463.5053400404063
 20
654.0005564393594
 30
0.0
 10
463.2202916852178
 20
653.8310461453284
 30
0.0
 10
462.9225122947186
 20
653.654527951187
 30
0.0
 10
462.6111502986935
 20
653.4705331033063
 30
0.0
  0
LINE
  5
22E
100
AcDbEntity
  8
外形
  6
CONTINUOUS
100
AcDbLine
 10
465.80962
 20
654.709636
 30
0.0
 11
465.80962
 21
648.720533
 31
0.0
  0
LINE
  5
22F
100
AcDbEntity
  8
外形
  6
CONTINUOUS
100
AcDbLine
 10
465.80962
 20
648.720533
 30
0.0
 11
462.61115
 21
646.873896
 31
0.0
  0
LINE
  5
230
100
AcDbEntity
  8
外形
  6
CONTINUOUS
100
AcDbLine
 10
462.61115
 20
653.470533
 30
0.0
 11
462.61115
 21
646.873896
 31
0.0
  0
ARC
  5
231
100
AcDbEntity
  8
外形
  6
CONTINUOUS
100
AcDbCircle
 10
462.799723
 20
656.486518
 30
0.0
 40
9.614472
100
AcDbArc
 50
225.59292
 51
268.87616
  0
LINE
  5
232
100
AcDbEntity
  8
外形
  6
CONTINUOUS
100
AcDbLine
 10
456.474841
 20
646.337038
 30
0.0
 11
462.61115
 21
646.873896
 31
0.0
  0
LINE
  5
233
100
AcDbEntity
  8
外形
  6
CONTINUOUS
100
AcDbLine
 10
462.61115
 20
653.470533
 30
0.0
 11
461.934951
 21
653.470533
 31
0.0
  0
LINE
  5
234
100
AcDbEntity
  8
外形
  6
CONTINUOUS
100
AcDbLine
 10
455.598929
 20
653.470533
 30
0.0
 11
456.474812
 21
646.337036
 31
0.0
  0
LINE
  5
235
100
AcDbEntity
  8
外形
  6
CONTINUOUS
100
AcDbLine
 10
455.833729
 20
653.970558
 30
0.0
 11
455.833729
 21
653.470533
 31
0.0
  0
LINE
  5
236
100
AcDbEntity
  8
外形
  6
CONTINUOUS
100
AcDbLine
 10
455.598929
 20
653.470533
 30
0.0
 11
461.934951
 21
653.470533
 31
0.0
  0
LINE
  5
237
100
AcDbEntity
  8
外形
  6
CONTINUOUS
100
AcDbLine
 10
461.934951
 20
653.470533
 30
0.0
 11
461.644902
 21
651.108273
 31
0.0
  0
LINE
  5
238
100
AcDbEntity
  8
外形
  6
CONTINUOUS
100
AcDbLine
 10
455.891156
 20
651.090533
 30
0.0
 11
461.642724
 21
651.090533
 31
0.0
  0
LINE
  5
239
100
AcDbEntity
  8
外形
  6
HIDDEN
100
AcDbLine
 10
467.098929
 20
654.970533
 30
0.0
 11
467.098929
 21
651.970533
 31
0.0
  0
LINE
  5
23A
100
AcDbEntity
  8
外形
  6
HIDDEN
100
AcDbLine
 10
471.598929
 20
648.470533
 30
0.0
 11
468.098929
 21
651.970533
 31
0.0
  0
LINE
  5
23B
100
AcDbEntity
  8
外形
  6
HIDDEN
100
AcDbLine
 10
468.098929
 20
654.970533
 30
0.0
 11
468.098929
 21
651.970533
 31
0.0
  0
LINE
  5
23C
100
AcDbEntity
  8
外形
  6
CONTINUOUS
100
AcDbLine
 10
469.598929
 20
648.720533
 30
0.0
 11
467.598929
 21
648.720533
 31
0.0
  0
LINE
  5
23D
100
AcDbEntity
  8
外形
  6
CONTINUOUS
100
AcDbLine
 10
469.598929
 20
648.720533
 30
0.0
 11
469.848929
 21
648.470533
 31
0.0
  0
LINE
  5
23E
100
AcDbEntity
  8
外形
  6
CONTINUOUS
100
AcDbLine
 10
579.598929
 20
648.470533
 30
0.0
 11
580.598929
 21
649.470533
 31
0.0
  0
LINE
  5
23F
100
AcDbEntity
  8
外形
  6
HIDDEN
100
AcDbLine
 10
544.098929
 20
702.51282
 30
0.0
 11
467.098929
 21
702.51282
 31
0.0
  0
LINE
  5
240
100
AcDbEntity
  8
外形
  6
HIDDEN
100
AcDbLine
 10
544.098929
 20
705.51282
 30
0.0
 11
467.098929
 21
705.51282
 31
0.0
  0
LINE
  5
242
100
AcDbEntity
  8
外形
  6
CONTINUOUS
100
AcDbLine
 10
474.598929
 20
657.970533
 30
0.0
 11
570.598929
 21
657.970533
 31
0.0
  0
LINE
  5
243
100
AcDbEntity
  8
外形
  6
CONTINUOUS
100
AcDbLine
 10
544.098929
 20
701.833371
 30
0.0
 11
474.598929
 21
701.833371
 31
0.0
  0
LINE
  5
244
100
AcDbEntity
  8
外形
  6
CONTINUOUS
100
AcDbLine
 10
544.098929
 20
699.01282
 30
0.0
 11
469.848929
 21
699.01282
 31
0.0
  0
LINE
  5
245
100
AcDbEntity
  8
外形
  6
CONTINUOUS
100
AcDbLine
 10
544.098929
 20
706.19227
 30
0.0
 11
474.598929
 21
706.19227
 31
0.0
  0
LINE
  5
246
100
AcDbEntity
  8
外形
  6
CONTINUOUS
100
AcDbLine
 10
544.098929
 20
709.01282
 30
0.0
 11
469.848929
 21
709.01282
 31
0.0
  0
LINE
  5
247
100
AcDbEntity
  8
外形
  6
CENTER
 62
     1
100
AcDbLine
 10
584.840314
 20
704.01282
 30
0.0
 11
455.598929
 21
704.01282
 31
0.0
  0
DIMENSION
  5
248
100
AcDbEntity
  8
寸法
  6
CONTINUOUS
100
AcDbDimension
  2
*D3
 10
580.598929
 20
677.384092
 30
0.0
 11
518.098929
 21
679.884092
 31
0.0
 70
    32
  3
STANDARD
100
AcDbAlignedDimension
 13
455.598929
 23
697.01282
 33
0.0
 14
580.598929
 24
700.01282
 34
0.0
100
AcDbRotatedDimension
1001
ACAD
1000
DSTYLE
1002
{
1070
    40
1040
1.0
1002
}
  0
SPLINE
  5
249
100
AcDbEntity
  8
外形
  6
CONTINUOUS
100
AcDbSpline
210
0.0
220
0.0
230
1.0
 70
     8
 71
     3
 72
    10
 73
     6
 74
     0
 42
0.0000001
 43
0.0000001
 40
0.0
 40
0.0
 40
0.0
 40
0.0
 40
5.691934359646984
 40
12.09380829925229
 40
17.78136599497529
 40
17.78136599497529
 40
17.78136599497529
 40
17.78136599497529
 10
459.6931754506483
 20
707.9433100627973
 30
0.0
 10
461.7876144623337
 20
707.5892939659818
 30
0.0
 10
465.4353862619181
 20
707.0442801407534
 30
0.0
 10
473.3055098101344
 20
702.3523726200224
 30
0.0
 10
467.876858412411
 20
700.332926992285
 30
0.0
 10
465.809590403021
 20
699.4360861898242
 30
0.0
  0
DIMENSION
  5
24C
100
AcDbEntity
  8
寸法
  6
CONTINUOUS
 62
     1
100
AcDbDimension
  2
*D4
 10
455.598958
 20
697.013047
 30
0.0
 11
440.817607
 21
713.103827
 31
0.0
 70
    34
  3
STANDARD
100
AcDb2LineAngularDimension
 13
456.371361
 23
706.263047
 33
0.0
 14
455.600113
 24
697.44765
 34
0.0
 15
455.984192
 25
697.013047
 35
0.0
 16
446.889228
 26
714.282137
 36
0.0
1001
ACAD
1000
DSTYLE
1002
{
1070
   284
1070
    13
1070
   146
1040
0.5
1070
   272
1070
     3
1070
    40
1040
1.0
1070
   287
1070
     0
1002
}
  0
LINE
  5
24D
100
AcDbEntity
  8
外形
  6
CONTINUOUS
100
AcDbLine
 10
428.921522
 20
701.833705
 30
0.0
 11
428.921522
 21
705.767892
 31
0.0
  0
CIRCLE
  5
24E
100
AcDbEntity
  8
外形
  6
CENTER
 62
     1
100
AcDbCircle
 10
424.421522
 20
703.513047
 30
0.0
 40
6.5
  0
ARC
  5
24F
100
AcDbEntity
  8
外形
  6
CONTINUOUS
100
AcDbCircle
 10
424.507522
 20
703.013155
 30
0.0
 40
5.75
100
AcDbArc
 50
90.0
 51
245.7846
  0
LINE
  5
250
100
AcDbEntity
  8
外形
  6
CONTINUOUS
100
AcDbLine
 10
426.457645
 20
706.592249
 30
0.0
 11
424.421522
 21
697.013047
 31
0.0
  0
LINE
  5
251
100
AcDbEntity
  8
外形
  6
CENTER
 62
     1
100
AcDbLine
 10
424.507522
 20
711.922482
 30
0.0
 11
424.507522
 21
692.757455
 31
0.0
  0
LINE
  5
252
100
AcDbEntity
  8
外形
  6
CENTER
 62
     1
100
AcDbLine
 10
424.421522
 20
711.922482
 30
0.0
 11
424.421522
 21
692.757455
 31
0.0
  0
LINE
  5
255
100
AcDbEntity
  8
外形
  6
HIDDEN
100
AcDbLine
 10
467.098929
 20
705.51282
 30
0.0
 11
467.098929
 21
702.51282
 31
0.0
  0
LINE
  5
256
100
AcDbEntity
  8
外形
  6
CONTINUOUS
100
AcDbLine
 10
474.598929
 20
706.19227
 30
0.0
 11
474.598929
 21
701.833371
 31
0.0
  0
LINE
  5
257
100
AcDbEntity
  8
外形
  6
HIDDEN
100
AcDbLine
 10
468.098929
 20
705.51282
 30
0.0
 11
468.098929
 21
702.51282
 31
0.0
  0
LINE
  5
258
100
AcDbEntity
  8
外形
  6
CONTINUOUS
100
AcDbLine
 10
469.598929
 20
708.76282
 30
0.0
 11
469.598929
 21
704.214599
 31
0.0
  0
LINE
  5
259
100
AcDbEntity
  8
外形
  6
CONTINUOUS
100
AcDbLine
 10
471.598929
 20
709.01282
 30
0.0
 11
471.598929
 21
699.01282
 31
0.0
  0
LINE
  5
25B
100
AcDbEntity
  8
外形
  6
CONTINUOUS
100
AcDbLine
 10
469.848929
 20
709.01282
 30
0.0
 11
469.848929
 21
703.984139
 31
0.0
  0
ARC
  5
25D
100
AcDbEntity
  8
外形
  6
CONTINUOUS
100
AcDbCircle
 10
461.772864
 20
703.217508
 30
0.0
 40
1.25
100
AcDbArc
 50
315.0
 51
135.0
  0
LINE
  5
25E
100
AcDbEntity
  8
外形
  6
CENTER
 62
     1
100
AcDbLine
 10
459.02996
 20
696.623146
 30
0.0
 11
459.02996
 21
704.732448
 31
0.0
  0
LINE
  5
25F
100
AcDbEntity
  8
外形
  6
CONTINUOUS
100
AcDbLine
 10
456.349498
 20
706.013155
 30
0.0
 11
455.600084
 21
697.447315
 31
0.0
  0
LINE
  5
261
100
AcDbEntity
  8
外形
  6
CENTER
 62
     1
100
AcDbLine
 10
454.859401
 20
700.488531
 30
0.0
 11
462.77858
 21
700.488531
 31
0.0
  0
DIMENSION
  5
262
100
AcDbEntity
  8
寸法
  6
CONTINUOUS
100
AcDbDimension
  2
*D5
 10
446.93878
 20
697.012712
 30
0.0
 11
444.43878
 21
700.512766
 31
0.0
 70
    32
  3
STANDARD
100
AcDbAlignedDimension
 13
455.598929
 23
704.01282
 33
0.0
 14
455.598929
 24
697.012712
 34
0.0
 50
90.0
100
AcDbRotatedDimension
1001
ACAD
1000
DSTYLE
1002
{
1070
   284
1070
    13
1070
   146
1040
0.5
1070
   272
1070
     3
1070
    40
1040
1.0
1070
   287
1070
     0
1002
}
  0
LINE
  5
265
100
AcDbEntity
  8
外形
  6
CENTER
 62
     1
100
AcDbLine
 10
431.999082
 20
703.013155
 30
0.0
 11
416.712507
 21
703.013155
 31
0.0
  0
LINE
  5
266
100
AcDbEntity
  8
外形
  6
CENTER
 62
     1
100
AcDbLine
 10
431.999082
 20
704.013155
 30
0.0
 11
416.712507
 21
704.013155
 31
0.0
  0
ARC
  5
267
100
AcDbEntity
  8
外形
  6
CONTINUOUS
100
AcDbCircle
 10
424.421522
 20
704.013155
 30
0.0
 40
5.0
100
AcDbArc
 50
274.922676
 51
334.158067
  0
LINE
  5
268
100
AcDbEntity
  8
外形
  6
CONTINUOUS
100
AcDbLine
 10
425.794426
 20
703.47205
 30
0.0
 11
423.405677
 21
703.681038
 31
0.0
  0
LINE
  5
269
100
AcDbEntity
  8
外形
  6
CONTINUOUS
100
AcDbLine
 10
424.421522
 20
697.013047
 30
0.0
 11
422.154289
 21
697.793718
 31
0.0
  0
LINE
  5
26A
100
AcDbEntity
  8
外形
  6
CONTINUOUS
100
AcDbLine
 10
423.405677
 20
703.681038
 30
0.0
 11
422.149055
 21
697.769098
 31
0.0
  0
SPLINE
  5
26B
100
AcDbEntity
  8
外形
  6
CONTINUOUS
100
AcDbSpline
210
0.0
220
0.0
230
1.0
 70
     8
 71
     3
 72
     8
 73
     4
 74
     0
 42
0.0000001
 43
0.0000001
 40
0.0
 40
0.0
 40
0.0
 40
0.0
 40
3.971505336843885
 40
3.971505336843885
 40
3.971505336843885
 40
3.971505336843885
 10
470.598929007941
 20
658.4705331033067
 30
0.0
 10
469.5047308571995
 20
657.7226300276696
 30
0.0
 10
468.4105327064581
 20
656.9747269520326
 30
0.0
 10
466.0035170765089
 20
655.504173005294
 30
0.0
  0
LINE
  5
26C
100
AcDbEntity
  8
外形
  6
CONTINUOUS
100
AcDbLine
 10
474.598929
 20
658.470533
 30
0.0
 11
474.598929
 21
657.970533
 31
0.0
  0
LINE
  5
26D
100
AcDbEntity
  8
外形
  6
CONTINUOUS
100
AcDbLine
 10
470.598929
 20
658.470533
 30
0.0
 11
474.598929
 21
658.470533
 31
0.0
  0
LINE
  5
271
100
AcDbEntity
  8
外形
  6
HIDDEN
100
AcDbLine
 10
467.945288
 20
702.51282
 30
0.0
 11
465.128929
 21
700.886795
 31
0.0
  0
LINE
  5
272
100
AcDbEntity
  8
外形
  6
HIDDEN
100
AcDbLine
 10
467.098929
 20
704.333576
 30
0.0
 11
464.128929
 21
702.618845
 31
0.0
  0
LINE
  5
273
100
AcDbEntity
  8
外形
  6
CONTINUOUS
100
AcDbLine
 10
469.598929
 20
699.26282
 30
0.0
 11
465.598929
 21
699.26282
 31
0.0
  0
LINE
  5
274
100
AcDbEntity
  8
外形
  6
CONTINUOUS
100
AcDbLine
 10
465.80959
 20
699.436086
 30
0.0
 11
462.611121
 21
697.589449
 31
0.0
  0
LINE
  5
275
100
AcDbEntity
  8
外形
  6
CONTINUOUS
100
AcDbLine
 10
465.80962
 20
699.436421
 30
0.0
 11
462.61115
 21
697.589784
 31
0.0
  0
ELLIPSE
  5
276
100
AcDbEntity
  8
外形
  6
CONTINUOUS
100
AcDbEllipse
 10
464.628929
 20
701.75282
 30
0.0
 11
-1.299038105676658
 21
-0.7499999999999999
 31
0.0
210
0.0
220
0.0
230
1.0
 40
0.666667
 41
0.0
 42
6.283185307179586
  0
CIRCLE
  5
277
100
AcDbEntity
  8
外形
  6
CONTINUOUS
100
AcDbCircle
 10
459.029989
 20
700.488866
 30
0.0
 40
3.175
  0
ARC
  5
278
100
AcDbEntity
  8
外形
  6
CONTINUOUS
100
AcDbCircle
 10
462.061358
 20
703.564609
 30
0.0
 40
0.4
100
AcDbArc
 50
355.0
 51
95.0
  0
CIRCLE
  5
279
100
AcDbEntity
  8
外形
  6
CONTINUOUS
100
AcDbCircle
 10
459.02996
 20
700.488531
 30
0.0
 40
1.725
  0
ARC
  5
27A
100
AcDbEntity
  8
外形
  6
CONTINUOUS
100
AcDbCircle
 10
459.02996
 20
701.427278
 30
0.0
 40
0.266666
100
AcDbArc
 50
240.283476
 51
299.716524
  0
ARC
  5
27B
100
AcDbEntity
  8
外形
  6
CONTINUOUS
100
AcDbCircle
 10
458.216981
 20
700.957905
 30
0.0
 40
0.266666
100
AcDbArc
 50
300.283476
 51
359.716524
  0
ARC
  5
27C
100
AcDbEntity
  8
外形
  6
CONTINUOUS
100
AcDbCircle
 10
458.216981
 20
700.019158
 30
0.0
 40
0.266666
100
AcDbArc
 50
0.283476
 51
59.716524
  0
ARC
  5
27D
100
AcDbEntity
  8
外形
  6
CONTINUOUS
100
AcDbCircle
 10
459.02996
 20
699.549784
 30
0.0
 40
0.266666
100
AcDbArc
 50
60.283476
 51
119.716524
  0
ARC
  5
27E
100
AcDbEntity
  8
外形
  6
CONTINUOUS
100
AcDbCircle
 10
459.842939
 20
700.019158
 30
0.0
 40
0.266666
100
AcDbArc
 50
120.283476
 51
179.716524
  0
ARC
  5
27F
100
AcDbEntity
  8
外形
  6
CONTINUOUS
100
AcDbCircle
 10
459.842939
 20
700.957905
 30
0.0
 40
0.266666
100
AcDbArc
 50
180.283476
 51
239.716524
  0
LINE
  5
280
100
AcDbEntity
  8
外形
  6
CONTINUOUS
100
AcDbLine
 10
459.57393
 20
699.546347
 30
0.0
 11
459.162149
 21
699.78138
 31
0.0
  0
LINE
  5
281
100
AcDbEntity
  8
外形
  6
CONTINUOUS
100
AcDbLine
 10
459.576276
 20
700.020477
 30
0.0
 11
459.57393
 21
699.546347
 31
0.0
  0
LINE
  5
282
100
AcDbEntity
  8
外形
  6
CONTINUOUS
100
AcDbLine
 10
458.48599
 20
699.546347
 30
0.0
 11
458.483644
 21
700.020477
 31
0.0
  0
LINE
  5
283
100
AcDbEntity
  8
外形
  6
CONTINUOUS
100
AcDbLine
 10
458.897771
 20
699.78138
 30
0.0
 11
458.48599
 21
699.546347
 31
0.0
  0
LINE
  5
284
100
AcDbEntity
  8
外形
  6
CONTINUOUS
100
AcDbLine
 10
457.942019
 20
700.488531
 30
0.0
 11
458.351455
 21
700.727628
 31
0.0
  0
LINE
  5
285
100
AcDbEntity
  8
外形
  6
CONTINUOUS
100
AcDbLine
 10
458.351455
 20
700.249435
 30
0.0
 11
457.942019
 21
700.488531
 31
0.0
  0
LINE
  5
286
100
AcDbEntity
  8
外形
  6
CONTINUOUS
100
AcDbLine
 10
458.48599
 20
701.430715
 30
0.0
 11
458.897771
 21
701.195682
 31
0.0
  0
LINE
  5
287
100
AcDbEntity
  8
外形
  6
CONTINUOUS
100
AcDbLine
 10
458.483644
 20
700.956585
 30
0.0
 11
458.48599
 21
701.430715
 31
0.0
  0
LINE
  5
288
100
AcDbEntity
  8
外形
  6
CONTINUOUS
100
AcDbLine
 10
459.57393
 20
701.430715
 30
0.0
 11
459.576276
 21
700.956585
 31
0.0
  0
LINE
  5
289
100
AcDbEntity
  8
外形
  6
CONTINUOUS
100
AcDbLine
 10
459.162149
 20
701.195682
 30
0.0
 11
459.57393
 21
701.430715
 31
0.0
  0
LINE
  5
28A
100
AcDbEntity
  8
外形
  6
CONTINUOUS
100
AcDbLine
 10
460.1179
 20
700.488531
 30
0.0
 11
459.708465
 21
700.249435
 31
0.0
  0
LINE
  5
28B
100
AcDbEntity
  8
外形
  6
CONTINUOUS
100
AcDbLine
 10
459.708465
 20
700.727628
 30
0.0
 11
460.1179
 21
700.488531
 31
0.0
  0
LINE
  5
28C
100
AcDbEntity
  8
外形
  6
CONTINUOUS
100
AcDbLine
 10
460.628356
 20
703.840766
 30
0.0
 11
460.888981
 21
704.101391
 31
0.0
  0
LINE
  5
28D
100
AcDbEntity
  8
外形
  6
CONTINUOUS
100
AcDbLine
 10
462.326276
 20
702.003152
 30
0.0
 11
462.656748
 21
702.333624
 31
0.0
  0
ARC
  5
28E
100
AcDbEntity
  8
外形
  6
CONTINUOUS
100
AcDbCircle
 10
455.998562
 20
697.412453
 30
0.0
 40
0.4
100
AcDbArc
 50
175.0
 51
275.0
  0
ARC
  5
28F
100
AcDbEntity
  8
外形
  6
CONTINUOUS
100
AcDbCircle
 10
456.494193
 20
703.077546
 30
0.0
 40
0.4
100
AcDbArc
 50
95.0
 51
175.0
  0
LINE
  5
290
100
AcDbEntity
  8
外形
  6
CONTINUOUS
100
AcDbLine
 10
462.026495
 20
703.963087
 30
0.0
 11
456.124968
 21
703.446771
 31
0.0
  0
ARC
  5
291
100
AcDbEntity
  8
外形
  6
CONTINUOUS
100
AcDbCircle
 10
461.565726
 20
697.899517
 30
0.0
 40
0.4
100
AcDbArc
 50
275.0
 51
355.0
  0
LINE
  5
292
100
AcDbEntity
  8
外形
  6
CONTINUOUS
100
AcDbLine
 10
462.61115
 20
697.589452
 30
0.0
 11
456.033424
 21
697.013975
 31
0.0
  0
LINE
  5
293
100
AcDbEntity
  8
外形
  6
CONTINUOUS
100
AcDbLine
 10
462.459836
 20
703.529747
 30
0.0
 11
461.934951
 21
697.530292
 31
0.0
  0
LINE
  5
294
100
AcDbEntity
  8
外形
  6
CENTER
 62
     1
100
AcDbLine
 10
456.012961
 20
697.01282
 30
0.0
 11
455.598929
 21
697.01282
 31
0.0
  0
LINE
  5
295
100
AcDbEntity
  8
外形
  6
CONTINUOUS
 62
     1
100
AcDbLine
 10
455.598929
 20
697.429692
 30
0.0
 11
455.598929
 21
697.01282
 31
0.0
  0
LINE
  5
296
100
AcDbEntity
  8
外形
  6
HIDDEN
100
AcDbLine
 10
471.598929
 20
699.01282
 30
0.0
 11
468.098929
 21
702.51282
 31
0.0
  0
LINE
  5
297
100
AcDbEntity
  8
外形
  6
CONTINUOUS
100
AcDbLine
 10
469.848929
 20
701.440187
 30
0.0
 11
469.848929
 21
699.01282
 31
0.0
  0
LINE
  5
298
100
AcDbEntity
  8
外形
  6
CONTINUOUS
100
AcDbLine
 10
469.598929
 20
699.26282
 30
0.0
 11
469.848929
 21
699.01282
 31
0.0
  0
LINE
  5
299
100
AcDbEntity
  8
外形
  6
CONTINUOUS
100
AcDbLine
 10
469.598929
 20
699.26282
 30
0.0
 11
469.598929
 21
701.256009
 31
0.0
  0
LEADER
  5
29A
100
AcDbEntity
  8
寸法
  6
CONTINUOUS
 62
     1
100
AcDbLeader
  3
STANDARD
 73
     0
 74
     0
 75
     1
 40
3.0
 41
26.0
 76
     3
 10
429.000229
 20
708.126663
 30
0.0
 10
433.854606
 20
729.441049
 30
0.0
 10
435.854606
 20
729.441049
 30
0.0
 77
   256
340
29B
213
-0.1129475379637483
223
0.5510341987360619
233
0.0
1001
ACAD
1000
DSTYLE
1002
{
1070
   284
1070
    13
1070
   146
1040
0.5
1070
   272
1070
     3
1070
    40
1040
1.0
1070
   287
1070
     0
1002
}
  0
MTEXT
  5
29B
102
{ACAD_REACTORS
330
29A
102
}
100
AcDbEntity
  8
寸法
  6
CONTINUOUS
 62
     3
100
AcDbMText
 10
436.967554
 20
731.390015
 30
0.0
 40
3.0
 41
0.0
 71
     4
 72
     1
  1
%%c13最小加工径
  0
LINE
  5
29C
100
AcDbEntity
  8
外形
  6
CONTINUOUS
100
AcDbLine
 10
426.372698
 20
706.192604
 30
0.0
 11
419.716531
 21
706.192604
 31
0.0
  0
ARC
  5
29D
100
AcDbEntity
  8
外形
  6
CONTINUOUS
100
AcDbCircle
 10
428.41394
 20
706.176425
 30
0.0
 40
2.0
100
AcDbArc
 50
123.399073
 51
168.0
  0
ARC
  5
29E
100
AcDbEntity
  8
外形
  6
CONTINUOUS
100
AcDbCircle
 10
424.507522
 20
704.013155
 30
0.0
 40
4.75
100
AcDbArc
 50
21.679755
 51
90.0
  0
LINE
  5
29F
100
AcDbEntity
  8
外形
  6
CONTINUOUS
100
AcDbLine
 10
469.598929
 20
708.76282
 30
0.0
 11
461.112058
 21
708.76282
 31
0.0
  0
LINE
  5
2A0
100
AcDbEntity
  8
外形
  6
CONTINUOUS
100
AcDbLine
 10
461.112058
 20
708.76282
 30
0.0
 11
456.349498
 21
706.013155
 31
0.0
  0
LINE
  5
2A1
100
AcDbEntity
  8
外形
  6
CONTINUOUS
100
AcDbLine
 10
465.80962
 20
708.763155
 30
0.0
 11
465.80962
 21
706.404253
 31
0.0
  0
LINE
  5
2A2
100
AcDbEntity
  8
外形
  6
HIDDEN
100
AcDbLine
 10
471.598929
 20
709.01282
 30
0.0
 11
468.098929
 21
705.51282
 31
0.0
  0
LINE
  5
2A3
100
AcDbEntity
  8
外形
  6
CONTINUOUS
100
AcDbLine
 10
469.598929
 20
708.76282
 30
0.0
 11
469.598929
 21
705.533511
 31
0.0
  0
LINE
  5
2A4
100
AcDbEntity
  8
外形
  6
CONTINUOUS
100
AcDbLine
 10
469.598929
 20
708.76282
 30
0.0
 11
469.848929
 21
709.01282
 31
0.0
  0
LINE
  5
2A5
100
AcDbEntity
  8
外形
  6
CONTINUOUS
100
AcDbLine
 10
469.598929
 20
705.533511
 30
0.0
 11
467.598929
 21
705.533511
 31
0.0
  0
CIRCLE
  5
2A6
100
AcDbEntity
  8
外形
  6
CONTINUOUS
100
AcDbCircle
 10
550.598929
 20
704.01282
 30
0.0
 40
1.5
  0
ARC
  5
2A7
100
AcDbEntity
  8
外形
  6
CONTINUOUS
100
AcDbCircle
 10
550.598929
 20
704.01282
 30
0.0
 40
5.0
100
AcDbArc
 50
205.841933
 51
154.158067
  0
LINE
  5
2A8
100
AcDbEntity
  8
外形
  6
CONTINUOUS
100
AcDbLine
 10
570.598929
 20
706.19227
 30
0.0
 11
570.598929
 21
701.833371
 31
0.0
  0
DIMENSION
  5
2A9
100
AcDbEntity
  8
寸法
  6
CONTINUOUS
100
AcDbDimension
  2
*D6
 10
547.619362
 20
699.997576
 30
0.0
 11
558.941716
 21
715.255503
 31
0.0
 70
   163
  3
STANDARD
100
AcDbDiametricDimension
 15
553.578496
 25
708.028064
 35
0.0
 40
0.0
1001
ACAD
1000
DSTYLE
1002
{
1070
   284
1070
    13
1070
   146
1040
0.5
1070
   272
1070
     3
1070
    40
1040
1.0
1070
   287
1070
     0
1002
}
  0
LINE
  5
2AA
100
AcDbEntity
  8
外形
  6
CONTINUOUS
100
AcDbLine
 10
546.098929
 20
706.19227
 30
0.0
 11
546.098929
 21
701.833371
 31
0.0
  0
LINE
  5
2AB
100
AcDbEntity
  8
外形
  6
CONTINUOUS
100
AcDbLine
 10
580.598929
 20
708.01282
 30
0.0
 11
580.598929
 21
700.01282
 31
0.0
  0
LINE
  5
2AC
100
AcDbEntity
  8
外形
  6
CONTINUOUS
100
AcDbLine
 10
579.598929
 20
699.01282
 30
0.0
 11
579.598929
 21
709.01282
 31
0.0
  0
LINE
  5
2AD
100
AcDbEntity
  8
外形
  6
CONTINUOUS
100
AcDbLine
 10
580.598929
 20
700.01282
 30
0.0
 11
580.598929
 21
708.01282
 31
0.0
  0
LINE
  5
2AE
100
AcDbEntity
  8
外形
  6
CENTER
 62
     1
100
AcDbLine
 10
550.598929
 20
710.471196
 30
0.0
 11
550.598929
 21
697.837995
 31
0.0
  0
DIMENSION
  5
2AF
100
AcDbEntity
  8
寸法
  6
CONTINUOUS
100
AcDbDimension
  2
*D7
 10
550.598929
 20
688.034363
 30
0.0
 11
559.598929
 21
690.534363
 31
0.0
 70
    32
  3
STANDARD
100
AcDbAlignedDimension
 13
546.098929
 23
702.076328
 33
0.0
 14
550.598929
 24
697.837995
 34
0.0
100
AcDbRotatedDimension
1001
ACAD
1000
DSTYLE
1002
{
1070
   284
1070
    13
1070
   146
1040
0.5
1070
   272
1070
     3
1070
    40
1040
1.0
1070
   287
1070
     0
1002
}
  0
LINE
  5
2B1
100
AcDbEntity
  8
外形
  6
CONTINUOUS
100
AcDbLine
 10
570.598929
 20
658.470533
 30
0.0
 11
579.598929
 21
658.470533
 31
0.0
  0
LINE
  5
2B2
100
AcDbEntity
  8
外形
  6
CONTINUOUS
100
AcDbLine
 10
570.598929
 20
658.470533
 30
0.0
 11
570.598929
 21
657.970533
 31
0.0
  0
LINE
  5
2B3
100
AcDbEntity
  8
外形
  6
CONTINUOUS
100
AcDbLine
 10
579.598929
 20
658.470533
 30
0.0
 11
580.598929
 21
657.470533
 31
0.0
  0
LINE
  5
2B4
100
AcDbEntity
  8
外形
  6
HIDDEN
100
AcDbLine
 10
580.598929
 20
702.51282
 30
0.0
 11
557.098929
 21
702.51282
 31
0.0
  0
LINE
  5
2B5
100
AcDbEntity
  8
外形
  6
CONTINUOUS
100
AcDbLine
 10
579.598929
 20
699.01282
 30
0.0
 11
557.098929
 21
699.01282
 31
0.0
  0
LINE
  5
2B6
100
AcDbEntity
  8
外形
  6
CONTINUOUS
100
AcDbLine
 10
570.598929
 20
701.833371
 30
0.0
 11
557.098929
 21
701.833371
 31
0.0
  0
LINE
  5
2B7
100
AcDbEntity
  8
外形
  6
CONTINUOUS
100
AcDbLine
 10
579.598929
 20
699.01282
 30
0.0
 11
580.598929
 21
700.01282
 31
0.0
  0
LINE
  5
2B8
100
AcDbEntity
  8
外形
  6
HIDDEN
100
AcDbLine
 10
580.598929
 20
705.51282
 30
0.0
 11
557.098929
 21
705.51282
 31
0.0
  0
LINE
  5
2B9
100
AcDbEntity
  8
外形
  6
CONTINUOUS
100
AcDbLine
 10
579.598929
 20
709.01282
 30
0.0
 11
557.098929
 21
709.01282
 31
0.0
  0
LINE
  5
2BA
100
AcDbEntity
  8
外形
  6
CONTINUOUS
100
AcDbLine
 10
570.598929
 20
706.19227
 30
0.0
 11
557.098929
 21
706.19227
 31
0.0
  0
LINE
  5
2BB
100
AcDbEntity
  8
外形
  6
CONTINUOUS
100
AcDbLine
 10
579.598929
 20
709.01282
 30
0.0
 11
580.598929
 21
708.01282
 31
0.0
  0
INSERT
  5
505
100
AcDbEntity
  8
寸法
  6
CONTINUOUS
100
AcDbBlockReference
  2
A$C66135EFD
 10
528.961933
 20
705.057103
 30
0.0
  0
DIMENSION
  5
512
100
AcDbEntity
  8
寸法
  6
CONTINUOUS
100
AcDbDimension
  2
*D9
 10
474.598929
 20
687.713747
 30
0.0
 11
465.098929
 21
690.213747
 31
0.0
 70
    32
  3
STANDARD
100
AcDbAlignedDimension
 13
455.598929
 23
697.012712
 33
0.0
 14
474.598929
 24
701.833371
 34
0.0
100
AcDbRotatedDimension
1001
ACAD
1000
DSTYLE
1002
{
1070
    40
1040
1.0
1002
}
  0
ENDSEC
  0
SECTION
  2
OBJECTS
  0
DICTIONARY
  5
1E
100
AcDbDictionary
  3
ACAD_GROUP
350
1C
  3
ACAD_MLINESTYLE
350
1D
  0
DICTIONARY
  5
43
100
AcDbDictionary
280
     1
  3
ACAD_XREC_ROUNDTRIP
360
44
  0
DICTIONARY
  5
2E
100
AcDbDictionary
280
     1
  3
ACAD_XREC_ROUNDTRIP
360
2F
  0
DICTIONARY
  5
3
100
AcDbDictionary
280
     1
  3
ACAD_LAYOUTSELFREF
360
4
  0
DICTIONARY
  5
A
100
AcDbDictionary
280
     1
  3
ACAD_LAYOUTSELFREF
360
B
  0
DICTIONARY
  5
1C
102
{ACAD_REACTORS
330
1E
102
}
100
AcDbDictionary
  0
DICTIONARY
  5
1D
102
{ACAD_REACTORS
330
1E
102
}
100
AcDbDictionary
  3
STANDARD
350
20
  0
XRECORD
  5
44
102
{ACAD_REACTORS
330
43
102
}
100
AcDbXrecord
102
PLOTBIT
280
     0
  0
XRECORD
  5
2F
102
{ACAD_REACTORS
330
2E
102
}
100
AcDbXrecord
102
ACADR14ROUNDTRIP
1000
DSTYLE
1002
{
1070
   341
340
0
1070
   343
340
0
1070
   344
340
0
1002
}
  0
XRECORD
  5
4
102
{ACAD_REACTORS
330
3
102
}
100
AcDbXrecord
340
2
  0
XRECORD
  5
B
102
{ACAD_REACTORS
330
A
102
}
100
AcDbXrecord
340
9
  0
MLINESTYLE
  5
20
102
{ACAD_REACTORS
330
1D
102
}
100
AcDbMlineStyle
  2
STANDARD
 70
     0
  3

 62
     0
 51
90.0
 52
90.0
 71
     2
 49
0.5
 62
   256
  6
BYLAYER
 49
-0.5
 62
   256
  6
BYLAYER
  0
ENDSEC
  0
EOF
