  0
SECTION
  2
HEADER
  9
$ACADVER
  1
AC1014
  9
$ACADMAINTVER
 70
     0
  9
$DWGCODEPAGE
  3
ANSI_932
  9
$INSBASE
 10
482.091059
 20
440.169806
 30
0.0
  9
$EXTMIN
 10
460.022411
 20
437.903979
 30
0.0
  9
$EXTMAX
 10
717.67415
 20
569.280431
 30
0.0
  9
$LIMMIN
 10
-587.250952
 20
327.890188
  9
$LIMMAX
 10
600.749048
 20
957.890188
  9
$ORTHOMODE
 70
     0
  9
$REGENMODE
 70
     1
  9
$FILLMODE
 70
     1
  9
$QTEXTMODE
 70
     0
  9
$MIRRTEXT
 70
     1
  9
$DRAGMODE
 70
     2
  9
$LTSCALE
 40
5.0
  9
$OSMODE
 70
   303
  9
$ATTMODE
 70
     1
  9
$TEXTSIZE
 40
5.0
  9
$TRACEWID
 40
0.05
  9
$TEXTSTYLE
  7
STANDARD
  9
$CLAYER
  8
寸法
  9
$CELTYPE
  6
CONTINUOUS
  9
$CECOLOR
 62
   256
  9
$CELTSCALE
 40
1.0
  9
$DELOBJ
 70
     1
  9
$DISPSILH
 70
     0
  9
$DIMSCALE
 40
0.0
  9
$DIMASZ
 40
2.0
  9
$DIMEXO
 40
1.0
  9
$DIMDLI
 40
8.0
  9
$DIMRND
 40
0.0
  9
$DIMDLE
 40
0.0
  9
$DIMEXE
 40
2.0
  9
$DIMTP
 40
0.0
  9
$DIMTM
 40
0.0
  9
$DIMTXT
 40
3.0
  9
$DIMCEN
 40
-1.0
  9
$DIMTSZ
 40
0.0
  9
$DIMTOL
 70
     0
  9
$DIMLIM
 70
     0
  9
$DIMTIH
 70
     0
  9
$DIMTOH
 70
     0
  9
$DIMSE1
 70
     0
  9
$DIMSE2
 70
     0
  9
$DIMTAD
 70
     1
  9
$DIMZIN
 70
     8
  9
$DIMBLK
  1

  9
$DIMASO
 70
     1
  9
$DIMSHO
 70
     1
  9
$DIMPOST
  1

  9
$DIMAPOST
  1

  9
$DIMALT
 70
     0
  9
$DIMALTD
 70
     2
  9
$DIMALTF
 40
25.4
  9
$DIMLFAC
 40
1.0
  9
$DIMTOFL
 70
     1
  9
$DIMTVP
 40
0.0
  9
$DIMTIX
 70
     0
  9
$DIMSOXD
 70
     0
  9
$DIMSAH
 70
     1
  9
$DIMBLK1
  1
_OPEN30
  9
$DIMBLK2
  1
_OPEN30
  9
$DIMSTYLE
  2
STANDARD
  9
$DIMCLRD
 70
     1
  9
$DIMCLRE
 70
     1
  9
$DIMCLRT
 70
     3
  9
$DIMTFAC
 40
1.0
  9
$DIMGAP
 40
1.0
  9
$DIMJUST
 70
     0
  9
$DIMSD1
 70
     0
  9
$DIMSD2
 70
     0
  9
$DIMTOLJ
 70
     1
  9
$DIMTZIN
 70
     8
  9
$DIMALTZ
 70
     0
  9
$DIMALTTZ
 70
     0
  9
$DIMFIT
 70
     3
  9
$DIMUPT
 70
     0
  9
$DIMUNIT
 70
     2
  9
$DIMDEC
 70
     2
  9
$DIMTDEC
 70
     2
  9
$DIMALTU
 70
     2
  9
$DIMALTTD
 70
     2
  9
$DIMTXSTY
  7
STANDARD
  9
$DIMAUNIT
 70
     0
  9
$LUNITS
 70
     2
  9
$LUPREC
 70
     3
  9
$SKETCHINC
 40
0.1
  9
$FILLETRAD
 40
4.0
  9
$AUNITS
 70
     0
  9
$AUPREC
 70
     3
  9
$MENU
  1
acad
  9
$ELEVATION
 40
0.0
  9
$PELEVATION
 40
0.0
  9
$THICKNESS
 40
0.0
  9
$LIMCHECK
 70
     0
  9
$BLIPMODE
 70
     0
  9
$CHAMFERA
 40
0.0
  9
$CHAMFERB
 40
0.0
  9
$CHAMFERC
 40
0.0
  9
$CHAMFERD
 40
0.0
  9
$SKPOLY
 70
     0
  9
$TDCREATE
 40
2450751.535399305
  9
$TDUPDATE
 40
2451997.722951388
  9
$TDINDWG
 40
3.2535993056
  9
$TDUSRTIMER
 40
3.2535993056
  9
$USRTIMER
 70
     1
  9
$ANGBASE
 50
0.0
  9
$ANGDIR
 70
     0
  9
$PDMODE
 70
    32
  9
$PDSIZE
 40
0.0
  9
$PLINEWID
 40
0.0
  9
$COORDS
 70
     2
  9
$SPLFRAME
 70
     0
  9
$SPLINETYPE
 70
     5
  9
$SPLINESEGS
 70
     8
  9
$ATTDIA
 70
     0
  9
$ATTREQ
 70
     1
  9
$HANDLING
 70
     1
  9
$HANDSEED
  5
538
  9
$SURFTAB1
 70
     6
  9
$SURFTAB2
 70
     6
  9
$SURFTYPE
 70
     6
  9
$SURFU
 70
     6
  9
$SURFV
 70
     6
  9
$UCSNAME
  2

  9
$UCSORG
 10
0.0
 20
0.0
 30
0.0
  9
$UCSXDIR
 10
1.0
 20
0.0
 30
0.0
  9
$UCSYDIR
 10
0.0
 20
1.0
 30
0.0
  9
$PUCSNAME
  2

  9
$PUCSORG
 10
0.0
 20
0.0
 30
0.0
  9
$PUCSXDIR
 10
1.0
 20
0.0
 30
0.0
  9
$PUCSYDIR
 10
0.0
 20
1.0
 30
0.0
  9
$USERI1
 70
     0
  9
$USERI2
 70
     0
  9
$USERI3
 70
     0
  9
$USERI4
 70
     0
  9
$USERI5
 70
     0
  9
$USERR1
 40
0.0
  9
$USERR2
 40
0.0
  9
$USERR3
 40
0.0
  9
$USERR4
 40
0.0
  9
$USERR5
 40
0.0
  9
$WORLDVIEW
 70
     1
  9
$SHADEDGE
 70
     3
  9
$SHADEDIF
 70
    70
  9
$TILEMODE
 70
     1
  9
$MAXACTVP
 70
    16
  9
$PINSBASE
 10
0.0
 20
0.0
 30
0.0
  9
$PLIMCHECK
 70
     0
  9
$PEXTMIN
 10
1.000000E+20
 20
1.000000E+20
 30
1.000000E+20
  9
$PEXTMAX
 10
-1.000000E+20
 20
-1.000000E+20
 30
-1.000000E+20
  9
$PLIMMIN
 10
0.0
 20
0.0
  9
$PLIMMAX
 10
12.0
 20
9.0
  9
$UNITMODE
 70
     0
  9
$VISRETAIN
 70
     0
  9
$PLINEGEN
 70
     0
  9
$PSLTSCALE
 70
     1
  9
$TREEDEPTH
 70
  3020
  9
$PICKSTYLE
 70
     1
  9
$CMLSTYLE
  2
STANDARD
  9
$CMLJUST
 70
     0
  9
$CMLSCALE
 40
1.0
  9
$PROXYGRAPHICS
 70
     1
  9
$MEASUREMENT
 70
     0
  0
ENDSEC
  0
SECTION
  2
CLASSES
  0
CLASS
  1
LWPOLYLINE
  2
AcDbPolyline
  3
"AutoCAD"
 90
        0
280
     0
281
     1
  0
CLASS
  1
ACDBDICTIONARYWDFLT
  2
AcDbDictionaryWithDefault
  3
AutoCAD 2000
 90
        0
280
     1
281
     0
  0
CLASS
  1
ACDBPLACEHOLDER
  2
AcDbPlaceHolder
  3
AutoCAD 2000
 90
        0
280
     1
281
     0
  0
CLASS
  1
LAYOUT
  2
AcDbLayout
  3
AutoCAD 2000
 90
        0
280
     1
281
     0
  0
CLASS
  1
LONG_TRANSACTION
  2
AcDbLongTransaction
  3
AutoCAD 2000
 90
        0
280
     1
281
     0
  0
CLASS
  1
LWPOLYLINE
  2
AcDbPolyline
  3
"AutoCAD"
 90
        0
280
     0
281
     1
  0
CLASS
  1
HATCH
  2
AcDbHatch
  3
"ACAD_SEDONA"
 90
        0
280
     0
281
     1
  0
CLASS
  1
XRECORD
  2
AcDbXrecord
  3
"<Built In>"
 90
        0
280
     0
281
     0
  0
CLASS
  1
DICTIONARYVAR
  2
AcDbDictionaryVar
  3
"AutoCAD"
 90
        0
280
     0
281
     0
  0
ENDSEC
  0
SECTION
  2
TABLES
  0
TABLE
  2
VPORT
  5
16
100
AcDbSymbolTable
 70
     1
  0
VPORT
  5
533
100
AcDbSymbolTableRecord
100
AcDbViewportTableRecord
  2
*ACTIVE
 70
     0
 10
0.0
 20
0.0
 11
1.0
 21
1.0
 12
598.677508
 22
502.48983
 13
0.0
 23
0.0
 14
1.0
 24
1.0
 15
10.0
 25
10.0
 16
0.0
 26
0.0
 36
1.0
 17
0.0
 27
0.0
 37
0.0
 40
198.073076
 41
1.710425
 42
50.0
 43
0.0
 44
0.0
 50
0.0
 51
0.0
 71
     0
 72
   100
 73
     1
 74
     1
 75
     0
 76
     0
 77
     0
 78
     2
  0
ENDTAB
  0
TABLE
  2
LTYPE
  5
11
100
AcDbSymbolTable
 70
     3
  0
LTYPE
  5
12
100
AcDbSymbolTableRecord
100
AcDbLinetypeTableRecord
  2
BYBLOCK
 70
     0
  3

 72
    65
 73
     0
 40
0.0
  0
LTYPE
  5
13
100
AcDbSymbolTableRecord
100
AcDbLinetypeTableRecord
  2
BYLAYER
 70
     0
  3

 72
    65
 73
     0
 40
0.0
  0
LTYPE
  5
7
100
AcDbSymbolTableRecord
100
AcDbLinetypeTableRecord
  2
CONTINUOUS
 70
     0
  3
Solid line
 72
    65
 73
     0
 40
0.0
  0
LTYPE
  5
48
100
AcDbSymbolTableRecord
100
AcDbLinetypeTableRecord
  2
CENTER
 70
     0
  3
Center ____ _ ____ _ ____ _ ____ _ ____ _ ____
 72
    65
 73
     4
 40
2.0
 49
1.25
 74
     0
 49
-0.25
 74
     0
 49
0.25
 74
     0
 49
-0.25
 74
     0
  0
LTYPE
  5
2D
100
AcDbSymbolTableRecord
100
AcDbLinetypeTableRecord
  2
HIDDEN
 70
     0
  3
Hidden __ __ __ __ __ __ __ __ __ __ __ __ __ _
 72
    65
 73
     2
 40
0.375
 49
0.25
 74
     0
 49
-0.125
 74
     0
  0
ENDTAB
  0
TABLE
  2
LAYER
  5
E
100
AcDbSymbolTable
 70
     4
  0
LAYER
  5
6
100
AcDbSymbolTableRecord
100
AcDbLayerTableRecord
  2
0
 70
     0
 62
     7
  6
CONTINUOUS
  0
LAYER
  5
2C
100
AcDbSymbolTableRecord
100
AcDbLayerTableRecord
  2
外形
 70
     0
 62
     4
  6
CONTINUOUS
  0
LAYER
  5
39
102
{ACAD_XDICTIONARY
360
3A
102
}
100
AcDbSymbolTableRecord
100
AcDbLayerTableRecord
  2
DEFPOINTS
 70
     0
 62
     7
  6
CONTINUOUS
  0
LAYER
  5
4B
100
AcDbSymbolTableRecord
100
AcDbLayerTableRecord
  2
寸法
 70
     0
 62
     1
  6
CONTINUOUS
  0
ENDTAB
  0
TABLE
  2
STYLE
  5
F
100
AcDbSymbolTable
 70
     1
  0
STYLE
  5
10
100
AcDbSymbolTableRecord
100
AcDbTextStyleTableRecord
  2
STANDARD
 70
     0
 40
0.0
 41
1.0
 50
0.0
 71
     0
 42
5.0
  3
MONOTXT
  4
BIGFONT
  0
ENDTAB
  0
TABLE
  2
VIEW
  5
14
100
AcDbSymbolTable
 70
     0
  0
ENDTAB
  0
TABLE
  2
UCS
  5
15
100
AcDbSymbolTable
 70
     0
  0
ENDTAB
  0
TABLE
  2
APPID
  5
18
100
AcDbSymbolTable
 70
     1
  0
APPID
  5
19
100
AcDbSymbolTableRecord
100
AcDbRegAppTableRecord
  2
ACAD
 70
     0
  0
ENDTAB
  0
TABLE
  2
DIMSTYLE
  5
1A
100
AcDbSymbolTable
 70
     2
  0
DIMSTYLE
105
4C
102
{ACAD_XDICTIONARY
360
4D
102
}
102
{ACAD_REACTORS
330
531
102
}
100
AcDbSymbolTableRecord
100
AcDbDimStyleTableRecord
  2
STANDARD
 70
     0
  3

  4

  5

  6
_OPEN30
  7
_OPEN30
 40
0.0
 41
2.0
 42
1.0
 43
8.0
 44
2.0
 45
0.0
 46
0.0
 47
0.0
 48
0.0
140
3.0
141
-1.0
142
0.0
143
25.4
144
1.0
145
0.0
146
1.0
147
1.0
 71
     0
 72
     0
 73
     0
 74
     0
 75
     0
 76
     0
 77
     1
 78
     8
170
     0
171
     2
172
     1
173
     1
174
     0
175
     0
176
     1
177
     1
178
     3
270
     2
271
     2
272
     2
273
     2
274
     2
340
10
275
     0
280
     0
281
     0
282
     0
283
     1
284
     8
285
     0
286
     0
287
     3
288
     0
  0
DIMSTYLE
105
21
100
AcDbSymbolTableRecord
100
AcDbDimStyleTableRecord
  2
参考寸法
 70
     0
  3

  4

  5

  6
_DOTSMALL
  7
_DOTSMALL
 40
1.0
 41
2.0
 42
1.0
 43
8.0
 44
2.0
 45
0.0
 46
0.0
 47
0.0
 48
0.0
140
2.0
141
-1.0
142
0.0
143
25.4
144
1.0
145
0.0
146
1.0
147
1.0
 71
     0
 72
     0
 73
     0
 74
     0
 75
     0
 76
     0
 77
     1
 78
     8
170
     0
171
     2
172
     1
173
     1
174
     0
175
     0
176
     2
177
     2
178
     2
270
     2
271
     3
272
     2
273
     2
274
     2
340
10
275
     0
280
     0
281
     0
282
     0
283
     1
284
     8
285
     0
286
     0
287
     3
288
     0
  0
ENDTAB
  0
TABLE
  2
BLOCK_RECORD
  5
1
100
AcDbSymbolTable
 70
     9
  0
BLOCK_RECORD
  5
2
102
{ACAD_XDICTIONARY
360
3
102
}
100
AcDbSymbolTableRecord
100
AcDbBlockTableRecord
  2
*MODEL_SPACE
  0
BLOCK_RECORD
  5
9
102
{ACAD_XDICTIONARY
360
A
102
}
100
AcDbSymbolTableRecord
100
AcDbBlockTableRecord
  2
*PAPER_SPACE
  0
BLOCK_RECORD
  5
22
100
AcDbSymbolTableRecord
100
AcDbBlockTableRecord
  2
_DOTSMALL
  0
BLOCK_RECORD
  5
4F
100
AcDbSymbolTableRecord
100
AcDbBlockTableRecord
  2
_OPEN30
  0
BLOCK_RECORD
  5
2DA
100
AcDbSymbolTableRecord
100
AcDbBlockTableRecord
  2
*D2
  0
BLOCK_RECORD
  5
31A
100
AcDbSymbolTableRecord
100
AcDbBlockTableRecord
  2
*D3
  0
BLOCK_RECORD
  5
328
100
AcDbSymbolTableRecord
100
AcDbBlockTableRecord
  2
*D4
  0
BLOCK_RECORD
  5
342
100
AcDbSymbolTableRecord
100
AcDbBlockTableRecord
  2
*D5
  0
BLOCK_RECORD
  5
3E9
100
AcDbSymbolTableRecord
100
AcDbBlockTableRecord
  2
*D6
  0
BLOCK_RECORD
  5
3F4
100
AcDbSymbolTableRecord
100
AcDbBlockTableRecord
  2
*D7
  0
BLOCK_RECORD
  5
525
100
AcDbSymbolTableRecord
100
AcDbBlockTableRecord
  2
*D8
  0
ENDTAB
  0
ENDSEC
  0
SECTION
  2
BLOCKS
  0
BLOCK
  5
5
100
AcDbEntity
  8
0
100
AcDbBlockBegin
  2
*MODEL_SPACE
 70
     0
 10
0.0
 20
0.0
 30
0.0
  3
*MODEL_SPACE
  1

  0
ENDBLK
  5
8
100
AcDbEntity
  8
0
100
AcDbBlockEnd
  0
BLOCK
  5
C
100
AcDbEntity
 67
     1
  8
0
100
AcDbBlockBegin
  2
*PAPER_SPACE
 70
     0
 10
0.0
 20
0.0
 30
0.0
  3
*PAPER_SPACE
  1

  0
ENDBLK
  5
D
100
AcDbEntity
 67
     1
  8
0
100
AcDbBlockEnd
  0
BLOCK
  5
27
100
AcDbEntity
  8
0
100
AcDbBlockBegin
  2
_DOTSMALL
 70
     0
 10
0.0
 20
0.0
 30
0.0
  3
_DOTSMALL
  1

  0
POLYLINE
  5
23
100
AcDbEntity
  8
0
  6
BYBLOCK
 62
     0
100
AcDb2dPolyline
 66
     1
 10
0.0
 20
0.0
 30
0.0
 70
     1
 40
0.5
 41
0.5
  0
VERTEX
  5
24
100
AcDbEntity
  8
0
  6
BYBLOCK
 62
     0
100
AcDbVertex
100
AcDb2dVertex
 10
-0.0625
 20
0.0
 30
0.0
 42
1.0
  0
VERTEX
  5
25
100
AcDbEntity
  8
0
  6
BYBLOCK
 62
     0
100
AcDbVertex
100
AcDb2dVertex
 10
0.0625
 20
0.0
 30
0.0
 42
1.0
  0
SEQEND
  5
26
100
AcDbEntity
  8
0
  6
BYBLOCK
 62
     0
  0
ENDBLK
  5
28
100
AcDbEntity
  8
0
100
AcDbBlockEnd
  0
BLOCK
  5
53
100
AcDbEntity
  8
0
100
AcDbBlockBegin
  2
_OPEN30
 70
     0
 10
0.0
 20
0.0
 30
0.0
  3
_OPEN30
  1

  0
LINE
  5
50
100
AcDbEntity
  8
0
  6
BYBLOCK
 62
     0
100
AcDbLine
 10
-1.0
 20
0.267949
 30
0.0
 11
0.0
 21
0.0
 31
0.0
  0
LINE
  5
51
100
AcDbEntity
  8
0
  6
BYBLOCK
 62
     0
100
AcDbLine
 10
0.0
 20
0.0
 30
0.0
 11
-1.0
 21
-0.267949
 31
0.0
  0
LINE
  5
52
100
AcDbEntity
  8
0
  6
BYBLOCK
 62
     0
100
AcDbLine
 10
0.0
 20
0.0
 30
0.0
 11
-1.0
 21
0.0
 31
0.0
  0
ENDBLK
  5
54
100
AcDbEntity
  8
0
100
AcDbBlockEnd
  0
BLOCK
  5
40C
100
AcDbEntity
  8
0
100
AcDbBlockBegin
  2
*D2
 70
     1
 10
0.0
 20
0.0
 30
0.0
  3
*D2
  1

  0
LINE
  5
40D
100
AcDbEntity
  8
0
  6
BYBLOCK
 62
     1
100
AcDbLine
 10
513.432765
 20
520.163335
 30
0.0
 11
513.432765
 21
501.073452
 31
0.0
  0
LINE
  5
40E
100
AcDbEntity
  8
0
  6
BYBLOCK
 62
     1
100
AcDbLine
 10
713.432765
 20
524.163335
 30
0.0
 11
713.432765
 21
501.073452
 31
0.0
  0
LINE
  5
40F
100
AcDbEntity
  8
0
  6
BYBLOCK
 62
     1
100
AcDbLine
 10
515.432765
 20
503.073452
 30
0.0
 11
711.432765
 21
503.073452
 31
0.0
  0
INSERT
  5
410
100
AcDbEntity
  8
0
  6
BYBLOCK
 62
     1
100
AcDbBlockReference
  2
_OPEN30
 10
513.432765
 20
503.073452
 30
0.0
 41
2.0
 42
2.0
 43
2.0
 50
180.0
  0
INSERT
  5
411
100
AcDbEntity
  8
0
  6
BYBLOCK
 62
     1
100
AcDbBlockReference
  2
_OPEN30
 10
713.432765
 20
503.073452
 30
0.0
 41
2.0
 42
2.0
 43
2.0
  0
MTEXT
  5
412
100
AcDbEntity
  8
0
  6
BYBLOCK
 62
     3
100
AcDbMText
 10
613.432765
 20
505.573452
 30
0.0
 40
3.0
 41
0.0
 71
     5
 72
     1
  1
\A1;200
  0
POINT
  5
413
100
AcDbEntity
  8
DEFPOINTS
  6
BYBLOCK
 62
     0
100
AcDbPoint
 10
513.432765
 20
521.163335
 30
0.0
  0
POINT
  5
414
100
AcDbEntity
  8
DEFPOINTS
  6
BYBLOCK
 62
     0
100
AcDbPoint
 10
713.432765
 20
525.163335
 30
0.0
  0
POINT
  5
415
100
AcDbEntity
  8
DEFPOINTS
  6
BYBLOCK
 62
     0
100
AcDbPoint
 10
713.432765
 20
503.073452
 30
0.0
  0
ENDBLK
  5
416
100
AcDbEntity
  8
0
100
AcDbBlockEnd
  0
BLOCK
  5
447
100
AcDbEntity
  8
0
100
AcDbBlockBegin
  2
*D3
 70
     1
 10
0.0
 20
0.0
 30
0.0
  3
*D3
  1

  0
LINE
  5
448
100
AcDbEntity
  8
0
  6
BYBLOCK
 62
     1
100
AcDbLine
 10
514.771338
 20
537.298218
 30
0.0
 11
515.873962
 21
549.901276
 31
0.0
  0
LINE
  5
449
100
AcDbEntity
  8
0
  6
BYBLOCK
 62
     1
100
AcDbLine
 10
512.359718
 20
521.163335
 30
0.0
 11
484.512003
 21
521.163335
 31
0.0
  0
ARC
  5
44A
100
AcDbEntity
  8
0
  6
BYBLOCK
 62
     1
100
AcDbCircle
 10
513.359718
 20
521.163335
 30
0.0
 40
26.847715
100
AcDbArc
 50
89.269193
 51
175.730807
  0
INSERT
  5
44B
100
AcDbEntity
  8
0
  6
BYBLOCK
 62
     1
100
AcDbBlockReference
  2
_OPEN30
 10
515.699651
 20
547.908886
 30
0.0
 41
2.0
 42
2.0
 43
2.0
 50
357.134596
  0
INSERT
  5
44C
100
AcDbEntity
  8
0
  6
BYBLOCK
 62
     1
100
AcDbBlockReference
  2
_OPEN30
 10
486.512003
 20
521.163335
 30
0.0
 41
2.0
 42
2.0
 43
2.0
 50
267.865404
  0
MTEXT
  5
44D
100
AcDbEntity
  8
0
  6
BYBLOCK
 62
     3
100
AcDbMText
 10
493.532689
 20
542.80074
 30
0.0
 40
3.0
 41
0.0
 71
     5
 72
     1
  1
\A1;95°
 11
0.737277
 21
0.67559
 31
0.0
  0
POINT
  5
44E
100
AcDbEntity
  8
DEFPOINTS
  6
BYBLOCK
 62
     0
100
AcDbPoint
 10
501.310486
 20
545.15533
 30
0.0
  0
POINT
  5
44F
100
AcDbEntity
  8
DEFPOINTS
  6
BYBLOCK
 62
     0
100
AcDbPoint
 10
514.684182
 20
536.302024
 30
0.0
  0
POINT
  5
450
100
AcDbEntity
  8
DEFPOINTS
  6
BYBLOCK
 62
     0
100
AcDbPoint
 10
514.267698
 20
521.163335
 30
0.0
  0
POINT
  5
451
100
AcDbEntity
  8
DEFPOINTS
  6
BYBLOCK
 62
     0
100
AcDbPoint
 10
513.432765
 20
521.163335
 30
0.0
  0
POINT
  5
452
100
AcDbEntity
  8
DEFPOINTS
  6
BYBLOCK
 62
     0
100
AcDbPoint
 10
513.435809
 20
522.033059
 30
0.0
  0
ENDBLK
  5
453
100
AcDbEntity
  8
0
100
AcDbBlockEnd
  0
BLOCK
  5
454
100
AcDbEntity
  8
0
100
AcDbBlockBegin
  2
*D4
 70
     1
 10
0.0
 20
0.0
 30
0.0
  3
*D4
  1

  0
LINE
  5
455
100
AcDbEntity
  8
0
  6
BYBLOCK
 62
     1
100
AcDbLine
 10
512.432765
 20
532.163335
 30
0.0
 11
501.469426
 21
532.163335
 31
0.0
  0
LINE
  5
456
100
AcDbEntity
  8
0
  6
BYBLOCK
 62
     1
100
AcDbLine
 10
512.432765
 20
521.163335
 30
0.0
 11
501.469426
 21
521.163335
 31
0.0
  0
LINE
  5
457
100
AcDbEntity
  8
0
  6
BYBLOCK
 62
     1
100
AcDbLine
 10
503.469426
 20
530.163335
 30
0.0
 11
503.469426
 21
523.163335
 31
0.0
  0
INSERT
  5
458
100
AcDbEntity
  8
0
  6
BYBLOCK
 62
     1
100
AcDbBlockReference
  2
_OPEN30
 10
503.469426
 20
532.163335
 30
0.0
 41
2.0
 42
2.0
 43
2.0
 50
90.0
  0
INSERT
  5
459
100
AcDbEntity
  8
0
  6
BYBLOCK
 62
     1
100
AcDbBlockReference
  2
_OPEN30
 10
503.469426
 20
521.163335
 30
0.0
 41
2.0
 42
2.0
 43
2.0
 50
270.0
  0
MTEXT
  5
45A
100
AcDbEntity
  8
0
  6
BYBLOCK
 62
     3
100
AcDbMText
 10
500.969426
 20
526.663335
 30
0.0
 40
3.0
 41
0.0
 71
     5
 72
     1
  1
\A1;11
 11
0.0
 21
1.0
 31
0.0
  0
POINT
  5
45B
100
AcDbEntity
  8
DEFPOINTS
  6
BYBLOCK
 62
     0
100
AcDbPoint
 10
513.432765
 20
532.163335
 30
0.0
  0
POINT
  5
45C
100
AcDbEntity
  8
DEFPOINTS
  6
BYBLOCK
 62
     0
100
AcDbPoint
 10
513.432765
 20
521.163335
 30
0.0
  0
POINT
  5
45D
100
AcDbEntity
  8
DEFPOINTS
  6
BYBLOCK
 62
     0
100
AcDbPoint
 10
503.469426
 20
521.163335
 30
0.0
  0
ENDBLK
  5
45E
100
AcDbEntity
  8
0
100
AcDbBlockEnd
  0
BLOCK
  5
46C
100
AcDbEntity
  8
0
100
AcDbBlockBegin
  2
*D5
 70
     1
 10
0.0
 20
0.0
 30
0.0
  3
*D5
  1

  0
LINE
  5
46D
100
AcDbEntity
  8
0
  6
BYBLOCK
 62
     1
100
AcDbLine
 10
474.774268
 20
520.173067
 30
0.0
 11
471.758886
 21
498.717511
 31
0.0
  0
LINE
  5
46E
100
AcDbEntity
  8
0
  6
BYBLOCK
 62
     1
100
AcDbLine
 10
474.913441
 20
520.163335
 30
0.0
 11
474.913441
 21
498.496923
 31
0.0
  0
ARC
  5
46F
100
AcDbEntity
  8
0
  6
BYBLOCK
 62
     1
100
AcDbCircle
 10
474.913441
 20
521.163335
 30
0.0
 40
20.666412
100
AcDbArc
 50
250.892974
 51
262.0
  0
LINE
  5
470
100
AcDbEntity
  8
0
  6
BYBLOCK
 62
     1
100
AcDbLine
 10
468.148626
 20
501.635461
 30
0.0
 11
460.022411
 21
504.450532
 31
0.0
  0
ARC
  5
471
100
AcDbEntity
  8
0
  6
BYBLOCK
 62
     1
100
AcDbCircle
 10
474.913441
 20
521.163335
 30
0.0
 40
20.666412
100
AcDbArc
 50
250.906025
 51
256.453013
  0
ARC
  5
472
100
AcDbEntity
  8
0
  6
BYBLOCK
 62
     1
100
AcDbCircle
 10
474.913441
 20
521.163335
 30
0.0
 40
20.666412
100
AcDbArc
 50
275.546987
 51
281.093975
  0
ARC
  5
473
100
AcDbEntity
  8
0
  6
BYBLOCK
 62
     1
100
AcDbCircle
 10
474.913441
 20
521.163335
 30
0.0
 40
20.666412
100
AcDbArc
 50
262.0
 51
270.0
  0
INSERT
  5
474
100
AcDbEntity
  8
0
  6
BYBLOCK
 62
     1
100
AcDbBlockReference
  2
_OPEN30
 10
472.037232
 20
500.698048
 30
0.0
 41
2.0
 42
2.0
 43
2.0
 50
349.226506
  0
INSERT
  5
475
100
AcDbEntity
  8
0
  6
BYBLOCK
 62
     1
100
AcDbBlockReference
  2
_OPEN30
 10
474.913441
 20
500.496923
 30
0.0
 41
2.0
 42
2.0
 43
2.0
 50
182.773494
  0
MTEXT
  5
476
100
AcDbEntity
  8
0
  6
BYBLOCK
 62
     3
100
AcDbMText
 10
464.903853
 20
505.405268
 30
0.0
 40
3.0
 41
0.0
 71
     5
 72
     1
  1
\A1;8°
 11
0.944909
 21
-0.327334
 31
0.0
  0
POINT
  5
477
100
AcDbEntity
  8
DEFPOINTS
  6
BYBLOCK
 62
     0
100
AcDbPoint
 10
473.951929
 20
500.519303
 30
0.0
  0
POINT
  5
478
100
AcDbEntity
  8
DEFPOINTS
  6
BYBLOCK
 62
     0
100
AcDbPoint
 10
476.575841
 20
532.991927
 30
0.0
  0
POINT
  5
479
100
AcDbEntity
  8
DEFPOINTS
  6
BYBLOCK
 62
     0
100
AcDbPoint
 10
474.913441
 20
535.434252
 30
0.0
  0
POINT
  5
47A
100
AcDbEntity
  8
DEFPOINTS
  6
BYBLOCK
 62
     0
100
AcDbPoint
 10
474.913441
 20
521.163335
 30
0.0
  0
POINT
  5
47B
100
AcDbEntity
  8
DEFPOINTS
  6
BYBLOCK
 62
     0
100
AcDbPoint
 10
474.913441
 20
521.163335
 30
0.0
  0
ENDBLK
  5
47C
100
AcDbEntity
  8
0
100
AcDbBlockEnd
  0
BLOCK
  5
506
100
AcDbEntity
  8
0
100
AcDbBlockBegin
  2
*D6
 70
     1
 10
0.0
 20
0.0
 30
0.0
  3
*D6
  1

  0
LINE
  5
507
100
AcDbEntity
  8
0
  6
BYBLOCK
 62
     1
100
AcDbLine
 10
648.467696
 20
523.483007
 30
0.0
 11
647.474682
 21
521.746942
 31
0.0
  0
LINE
  5
508
100
AcDbEntity
  8
0
  6
BYBLOCK
 62
     1
100
AcDbLine
 10
658.397834
 20
540.843663
 30
0.0
 11
666.201544
 21
554.486728
 31
0.0
  0
LINE
  5
509
100
AcDbEntity
  8
0
  6
BYBLOCK
 62
     1
100
AcDbLine
 10
649.46071
 20
525.219073
 30
0.0
 11
657.40482
 21
539.107597
 31
0.0
  0
INSERT
  5
50A
100
AcDbEntity
  8
0
  6
BYBLOCK
 62
     1
100
AcDbBlockReference
  2
_OPEN30
 10
649.46071
 20
525.219073
 30
0.0
 41
2.0
 42
2.0
 43
2.0
 50
60.230833
  0
INSERT
  5
50B
100
AcDbEntity
  8
0
  6
BYBLOCK
 62
     1
100
AcDbBlockReference
  2
_OPEN30
 10
657.40482
 20
539.107597
 30
0.0
 41
2.0
 42
2.0
 43
2.0
 50
240.230833
  0
MTEXT
  5
50C
100
AcDbEntity
  8
0
  6
BYBLOCK
 62
     3
100
AcDbMText
 10
661.548928
 20
551.387831
 30
0.0
 40
3.0
 41
0.0
 71
     5
 72
     1
  1
\A1;\U+220516
 11
0.496507
 21
0.868033
 31
0.0
  0
POINT
  5
50D
100
AcDbEntity
  8
DEFPOINTS
  6
BYBLOCK
 62
     0
100
AcDbPoint
 10
657.40482
 20
539.107597
 30
0.0
  0
POINT
  5
50E
100
AcDbEntity
  8
DEFPOINTS
  6
BYBLOCK
 62
     0
100
AcDbPoint
 10
649.46071
 20
525.219073
 30
0.0
  0
ENDBLK
  5
50F
100
AcDbEntity
  8
0
100
AcDbBlockEnd
  0
BLOCK
  5
510
100
AcDbEntity
  8
0
100
AcDbBlockBegin
  2
*D7
 70
     1
 10
0.0
 20
0.0
 30
0.0
  3
*D7
  1

  0
LINE
  5
511
100
AcDbEntity
  8
0
  6
BYBLOCK
 62
     1
100
AcDbLine
 10
645.932765
 20
528.765419
 30
0.0
 11
645.932765
 21
512.88288
 31
0.0
  0
LINE
  5
512
100
AcDbEntity
  8
0
  6
BYBLOCK
 62
     1
100
AcDbLine
 10
653.432765
 20
521.051066
 30
0.0
 11
653.432765
 21
512.88288
 31
0.0
  0
LINE
  5
513
100
AcDbEntity
  8
0
  6
BYBLOCK
 62
     1
100
AcDbLine
 10
643.932765
 20
514.88288
 30
0.0
 11
641.932765
 21
514.88288
 31
0.0
  0
LINE
  5
514
100
AcDbEntity
  8
0
  6
BYBLOCK
 62
     1
100
AcDbLine
 10
655.432765
 20
514.88288
 30
0.0
 11
667.432765
 21
514.88288
 31
0.0
  0
LINE
  5
515
100
AcDbEntity
  8
0
  6
BYBLOCK
 62
     1
100
AcDbLine
 10
645.932765
 20
514.88288
 30
0.0
 11
653.432765
 21
514.88288
 31
0.0
  0
INSERT
  5
516
100
AcDbEntity
  8
0
  6
BYBLOCK
 62
     1
100
AcDbBlockReference
  2
_OPEN30
 10
645.932765
 20
514.88288
 30
0.0
 41
2.0
 42
2.0
 43
2.0
  0
INSERT
  5
517
100
AcDbEntity
  8
0
  6
BYBLOCK
 62
     1
100
AcDbBlockReference
  2
_OPEN30
 10
653.432765
 20
514.88288
 30
0.0
 41
2.0
 42
2.0
 43
2.0
 50
180.0
  0
MTEXT
  5
518
100
AcDbEntity
  8
0
  6
BYBLOCK
 62
     3
100
AcDbMText
 10
662.432765
 20
517.38288
 30
0.0
 40
3.0
 41
0.0
 71
     5
 72
     1
  1
\A1;7.5
  0
POINT
  5
519
100
AcDbEntity
  8
DEFPOINTS
  6
BYBLOCK
 62
     0
100
AcDbPoint
 10
645.932765
 20
529.765419
 30
0.0
  0
POINT
  5
51A
100
AcDbEntity
  8
DEFPOINTS
  6
BYBLOCK
 62
     0
100
AcDbPoint
 10
653.432765
 20
522.051066
 30
0.0
  0
POINT
  5
51B
100
AcDbEntity
  8
DEFPOINTS
  6
BYBLOCK
 62
     0
100
AcDbPoint
 10
653.432765
 20
514.88288
 30
0.0
  0
ENDBLK
  5
51C
100
AcDbEntity
  8
0
100
AcDbBlockEnd
  0
BLOCK
  5
526
100
AcDbEntity
  8
0
100
AcDbBlockBegin
  2
*D8
 70
     1
 10
0.0
 20
0.0
 30
0.0
  3
*D8
  1

  0
LINE
  5
527
100
AcDbEntity
  8
0
  6
BYBLOCK
 62
     1
100
AcDbLine
 10
513.432765
 20
520.163335
 30
0.0
 11
513.432765
 21
509.927147
 31
0.0
  0
LINE
  5
528
100
AcDbEntity
  8
0
  6
BYBLOCK
 62
     1
100
AcDbLine
 10
543.432765
 20
528.379453
 30
0.0
 11
543.432765
 21
509.927147
 31
0.0
  0
LINE
  5
529
100
AcDbEntity
  8
0
  6
BYBLOCK
 62
     1
100
AcDbLine
 10
515.432765
 20
511.927147
 30
0.0
 11
541.432765
 21
511.927147
 31
0.0
  0
INSERT
  5
52A
100
AcDbEntity
  8
0
  6
BYBLOCK
 62
     1
100
AcDbBlockReference
  2
_OPEN30
 10
513.432765
 20
511.927147
 30
0.0
 41
2.0
 42
2.0
 43
2.0
 50
180.0
  0
INSERT
  5
52B
100
AcDbEntity
  8
0
  6
BYBLOCK
 62
     1
100
AcDbBlockReference
  2
_OPEN30
 10
543.432765
 20
511.927147
 30
0.0
 41
2.0
 42
2.0
 43
2.0
  0
MTEXT
  5
52C
100
AcDbEntity
  8
0
  6
BYBLOCK
 62
     3
100
AcDbMText
 10
528.432765
 20
514.427147
 30
0.0
 40
3.0
 41
0.0
 71
     5
 72
     1
  1
\A1;30
  0
POINT
  5
52D
100
AcDbEntity
  8
DEFPOINTS
  6
BYBLOCK
 62
     0
100
AcDbPoint
 10
513.432765
 20
521.163335
 30
0.0
  0
POINT
  5
52E
100
AcDbEntity
  8
DEFPOINTS
  6
BYBLOCK
 62
     0
100
AcDbPoint
 10
543.432765
 20
529.379453
 30
0.0
  0
POINT
  5
52F
100
AcDbEntity
  8
DEFPOINTS
  6
BYBLOCK
 62
     0
100
AcDbPoint
 10
543.432765
 20
511.927147
 30
0.0
  0
ENDBLK
  5
530
100
AcDbEntity
  8
0
100
AcDbBlockEnd
  0
ENDSEC
  0
SECTION
  2
ENTITIES
  0
LINE
  5
224
100
AcDbEntity
  8
外形
  6
HIDDEN
100
AcDbLine
 10
531.932765
 20
471.829167
 30
0.0
 11
713.432765
 21
471.829167
 31
0.0
  0
LINE
  5
225
100
AcDbEntity
  8
外形
  6
HIDDEN
100
AcDbLine
 10
531.932765
 20
476.629167
 30
0.0
 11
713.432765
 21
476.629167
 31
0.0
  0
LINE
  5
226
100
AcDbEntity
  8
外形
  6
HIDDEN
100
AcDbLine
 10
643.932765
 20
529.763335
 30
0.0
 11
531.832765
 21
529.763335
 31
0.0
  0
LINE
  5
227
100
AcDbEntity
  8
外形
  6
HIDDEN
100
AcDbLine
 10
643.932765
 20
534.563335
 30
0.0
 11
531.832765
 21
534.563335
 31
0.0
  0
LINE
  5
229
100
AcDbEntity
  8
外形
  6
CONTINUOUS
100
AcDbLine
 10
543.432765
 20
481.729167
 30
0.0
 11
693.432765
 21
481.729167
 31
0.0
  0
LINE
  5
22A
100
AcDbEntity
  8
外形
  6
CONTINUOUS
100
AcDbLine
 10
712.432765
 20
466.229167
 30
0.0
 11
535.682373
 21
466.229167
 31
0.0
  0
TEXT
  5
22B
100
AcDbEntity
  8
外形
  6
CONTINUOUS
 62
     2
100
AcDbText
 10
585.243957
 20
437.903979
 30
0.0
 40
6.0
  1
E16R-SCLCR09
100
AcDbText
  0
LINE
  5
22C
100
AcDbEntity
  8
外形
  6
CONTINUOUS
100
AcDbLine
 10
643.932765
 20
529.379453
 30
0.0
 11
543.432765
 21
529.379453
 31
0.0
  0
LINE
  5
22D
100
AcDbEntity
  8
外形
  6
CONTINUOUS
100
AcDbLine
 10
643.932765
 20
534.947217
 30
0.0
 11
543.432765
 21
534.947217
 31
0.0
  0
LINE
  5
22E
100
AcDbEntity
  8
外形
  6
CONTINUOUS
100
AcDbLine
 10
643.932765
 20
540.163335
 30
0.0
 11
535.682373
 21
540.163335
 31
0.0
  0
LINE
  5
22F
100
AcDbEntity
  8
外形
  6
CONTINUOUS
100
AcDbLine
 10
643.932765
 20
524.163335
 30
0.0
 11
535.682373
 21
524.163335
 31
0.0
  0
LINE
  5
230
100
AcDbEntity
  8
外形
  6
CENTER
 62
     1
100
AcDbLine
 10
509.824648
 20
474.229167
 30
0.0
 11
717.67415
 21
474.229167
 31
0.0
  0
LINE
  5
231
100
AcDbEntity
  8
外形
  6
CENTER
 62
     1
100
AcDbLine
 10
717.67415
 20
532.163335
 30
0.0
 11
513.432765
 21
532.163335
 31
0.0
  0
DIMENSION
  5
232
100
AcDbEntity
  8
寸法
  6
CONTINUOUS
100
AcDbDimension
  2
*D2
 10
713.432765
 20
503.073452
 30
0.0
 11
613.432765
 21
505.573452
 31
0.0
 70
    32
  3
STANDARD
100
AcDbAlignedDimension
 13
513.432765
 23
521.163335
 33
0.0
 14
713.432765
 24
525.163335
 34
0.0
100
AcDbRotatedDimension
1001
ACAD
1000
DSTYLE
1002
{
1070
    40
1040
1.0
1002
}
  0
LINE
  5
23A
100
AcDbEntity
  8
外形
  6
CONTINUOUS
100
AcDbLine
 10
531.706827
 20
466.479167
 30
0.0
 11
526.597277
 21
463.529167
 31
0.0
  0
ELLIPSE
  5
23B
100
AcDbEntity
  8
外形
  6
CONTINUOUS
100
AcDbEllipse
 10
526.052765
 20
476.639167
 30
0.0
 11
1.970026884016804
 21
1.539153688314145
 31
0.0
210
0.0
220
0.0
230
1.0
 40
0.6
 41
0.0
 42
6.283185307179586
  0
SPLINE
  5
23C
100
AcDbEntity
  8
外形
  6
CONTINUOUS
100
AcDbSpline
210
0.0
220
0.0
230
1.0
 70
     8
 71
     3
 72
     9
 73
     5
 74
     3
 42
0.0000001
 43
0.0000001
 44
0.0000000001
 40
0.0
 40
0.0
 40
0.0
 40
0.0
 40
7.587974247828443
 40
12.93930826889378
 40
12.93930826889378
 40
12.93930826889378
 40
12.93930826889378
 10
536.4327651397117
 20
482.2291666095813
 30
0.0
 10
534.9475515628467
 20
480.0864514178072
 30
0.0
 10
532.4149077123881
 20
476.4326102879773
 30
0.0
 10
528.2993545085092
 20
474.8738330424369
 30
0.0
 10
526.5972774408835
 20
474.2291666095815
 30
0.0
 11
536.4327651397117
 21
482.2291666095813
 31
0.0
 11
531.4327651397118
 21
476.5215091929428
 31
0.0
 11
526.5972774408835
 21
474.2291666095815
 31
0.0
  0
SPLINE
  5
23D
100
AcDbEntity
  8
外形
  6
CONTINUOUS
100
AcDbSpline
210
0.0
220
0.0
230
-1.0
 70
     8
 71
     3
 72
    10
 73
     6
 74
     4
 42
0.0000001
 43
0.0000001
 44
0.0000000001
 40
0.0
 40
0.0
 40
0.0
 40
0.0
 40
5.039786751347365
 40
10.72395326214045
 40
24.02805585381659
 40
24.02805585381659
 40
24.02805585381659
 40
24.02805585381659
 10
513.6675652998778
 20
474.7291917755834
 30
0.0
 10
515.3186042909813
 20
475.0881823264288
 30
0.0
 10
518.8317817026703
 20
475.8520634346496
 30
0.0
 10
525.8188889107571
 20
479.9511788293978
 30
0.0
 10
532.0599646658896
 20
481.2906606547636
 30
0.0
 10
536.4327651397309
 20
482.2291666095813
 30
0.0
 11
513.6675652998778
 21
474.7291917755834
 31
0.0
 11
518.5334952079256
 21
476.0415090501108
 31
0.0
 11
523.6675652998778
 21
478.4809912110095
 31
0.0
 11
536.4327651397309
 21
482.2291666095813
 31
0.0
  0
LINE
  5
23E
100
AcDbEntity
  8
外形
  6
CONTINUOUS
100
AcDbLine
 10
526.597277
 20
463.529167
 30
0.0
 11
526.597277
 21
474.229167
 31
0.0
  0
LINE
  5
23F
100
AcDbEntity
  8
外形
  6
CONTINUOUS
100
AcDbLine
 10
523.046001
 20
474.229167
 30
0.0
 11
522.558547
 21
470.259167
 31
0.0
  0
LINE
  5
240
100
AcDbEntity
  8
外形
  6
CONTINUOUS
100
AcDbLine
 10
513.432765
 20
474.229167
 30
0.0
 11
514.87251
 21
462.503382
 31
0.0
  0
LINE
  5
242
100
AcDbEntity
  8
外形
  6
CONTINUOUS
100
AcDbLine
 10
526.597277
 20
463.529167
 30
0.0
 11
514.87251
 21
462.503382
 31
0.0
  0
ARC
  5
243
100
AcDbEntity
  8
外形
  6
CONTINUOUS
100
AcDbCircle
 10
530.320714
 20
490.736541
 30
0.0
 40
27.460976
100
AcDbArc
 50
233.870142
 51
262.207257
  0
LINE
  5
245
100
AcDbEntity
  8
外形
  6
CONTINUOUS
100
AcDbLine
 10
513.92022
 20
470.259167
 30
0.0
 11
522.558547
 21
470.259167
 31
0.0
  0
LINE
  5
246
100
AcDbEntity
  8
外形
  6
CONTINUOUS
100
AcDbLine
 10
513.432765
 20
474.229167
 30
0.0
 11
523.046001
 21
474.229167
 31
0.0
  0
LINE
  5
247
100
AcDbEntity
  8
外形
  6
CONTINUOUS
100
AcDbLine
 10
513.667565
 20
474.729192
 30
0.0
 11
513.667565
 21
474.229167
 31
0.0
  0
LINE
  5
248
100
AcDbEntity
  8
外形
  6
CONTINUOUS
100
AcDbLine
 10
526.597277
 20
474.229167
 30
0.0
 11
523.046001
 21
474.229167
 31
0.0
  0
LINE
  5
249
100
AcDbEntity
  8
外形
  6
HIDDEN
100
AcDbLine
 10
531.932765
 20
476.729167
 30
0.0
 11
531.932765
 21
471.729167
 31
0.0
  0
LINE
  5
24A
100
AcDbEntity
  8
外形
  6
HIDDEN
100
AcDbLine
 10
528.432639
 20
476.729167
 30
0.0
 11
528.432512
 21
471.729167
 31
0.0
  0
LINE
  5
24B
100
AcDbEntity
  8
外形
  6
CONTINUOUS
100
AcDbLine
 10
531.706827
 20
476.521509
 30
0.0
 11
531.706827
 21
466.479167
 31
0.0
  0
LINE
  5
24C
100
AcDbEntity
  8
外形
  6
CONTINUOUS
100
AcDbLine
 10
537.432778
 20
482.229167
 30
0.0
 11
537.432373
 21
466.229167
 31
0.0
  0
LINE
  5
24D
100
AcDbEntity
  8
外形
  6
CONTINUOUS
100
AcDbLine
 10
535.432765
 20
480.627885
 30
0.0
 11
535.432373
 21
466.479167
 31
0.0
  0
LINE
  5
24E
100
AcDbEntity
  8
外形
  6
CONTINUOUS
100
AcDbLine
 10
535.432373
 20
479.346288
 30
0.0
 11
535.432373
 21
466.479167
 31
0.0
  0
LINE
  5
24F
100
AcDbEntity
  8
外形
  6
CONTINUOUS
100
AcDbLine
 10
535.432809
 20
480.794679
 30
0.0
 11
535.432373
 21
466.479167
 31
0.0
  0
LINE
  5
250
100
AcDbEntity
  8
外形
  6
CONTINUOUS
100
AcDbLine
 10
535.68277
 20
481.147636
 30
0.0
 11
535.682373
 21
466.229167
 31
0.0
  0
LINE
  5
251
100
AcDbEntity
  8
外形
  6
HIDDEN
100
AcDbLine
 10
531.932765
 20
471.729167
 30
0.0
 11
528.432512
 21
471.729167
 31
0.0
  0
LINE
  5
252
100
AcDbEntity
  8
外形
  6
HIDDEN
100
AcDbLine
 10
537.432765
 20
466.229167
 30
0.0
 11
531.932765
 21
471.729167
 31
0.0
  0
LINE
  5
253
100
AcDbEntity
  8
外形
  6
CONTINUOUS
100
AcDbLine
 10
535.432765
 20
466.479167
 30
0.0
 11
531.706827
 21
466.479167
 31
0.0
  0
LINE
  5
254
100
AcDbEntity
  8
外形
  6
CONTINUOUS
100
AcDbLine
 10
535.432373
 20
466.479167
 30
0.0
 11
535.682373
 21
466.229167
 31
0.0
  0
LINE
  5
255
100
AcDbEntity
  8
外形
  6
CONTINUOUS
100
AcDbLine
 10
535.682765
 20
466.729167
 30
0.0
 11
535.682373
 21
466.479167
 31
0.0
  0
LINE
  5
256
100
AcDbEntity
  8
外形
  6
CONTINUOUS
100
AcDbLine
 10
536.432765
 20
482.229167
 30
0.0
 11
543.432765
 21
482.229167
 31
0.0
  0
LINE
  5
257
100
AcDbEntity
  8
外形
  6
HIDDEN
100
AcDbLine
 10
531.932765
 20
476.729167
 30
0.0
 11
528.432639
 21
476.729167
 31
0.0
  0
LINE
  5
258
100
AcDbEntity
  8
外形
  6
HIDDEN
100
AcDbLine
 10
537.432765
 20
482.229167
 30
0.0
 11
531.932765
 21
476.729167
 31
0.0
  0
LINE
  5
259
100
AcDbEntity
  8
外形
  6
CONTINUOUS
100
AcDbLine
 10
543.432765
 20
482.229167
 30
0.0
 11
543.432765
 21
481.729167
 31
0.0
  0
LEADER
  5
25A
100
AcDbEntity
  8
寸法
  6
CONTINUOUS
 62
     1
100
AcDbLeader
  3
STANDARD
 73
     0
 74
     0
 75
     1
 40
3.0
 41
26.0
 76
     3
 10
479.27568
 20
540.161717
 30
0.0
 10
487.243005
 20
565.831465
 30
0.0
 10
489.243005
 20
565.831465
 30
0.0
 77
   256
340
25B
213
-0.1129475379637483
223
0.5510341987360619
233
0.0
1001
ACAD
1000
DSTYLE
1002
{
1070
   284
1070
    13
1070
   146
1040
0.5
1070
   272
1070
     3
1070
    40
1040
1.0
1070
   287
1070
     0
1002
}
  0
MTEXT
  5
25B
102
{ACAD_REACTORS
330
25A
102
}
100
AcDbEntity
  8
寸法
  6
CONTINUOUS
 62
     3
100
AcDbMText
 10
490.355952
 20
567.780431
 30
0.0
 40
3.0
 41
0.0
 71
     4
 72
     1
  1
%%c20最小加工径
  0
DIMENSION
  5
25C
100
AcDbEntity
  8
寸法
  6
CONTINUOUS
100
AcDbDimension
  2
*D3
 10
513.435809
 20
522.033059
 30
0.0
 11
493.532689
 21
542.80074
 31
0.0
 70
    34
  3
STANDARD
100
AcDb2LineAngularDimension
 13
514.267698
 23
521.163335
 33
0.0
 14
513.432765
 24
521.163335
 34
0.0
 15
514.684182
 25
536.302024
 35
0.0
 16
501.310486
 26
545.15533
 36
0.0
1001
ACAD
1000
DSTYLE
1002
{
1070
   284
1070
    13
1070
   146
1040
0.5
1070
   272
1070
     3
1070
    40
1040
1.0
1070
   287
1070
     0
1002
}
  0
DIMENSION
  5
25D
100
AcDbEntity
  8
寸法
  6
CONTINUOUS
100
AcDbDimension
  2
*D4
 10
503.469426
 20
521.163335
 30
0.0
 11
500.969426
 21
526.663335
 31
0.0
 70
    32
  3
STANDARD
100
AcDbAlignedDimension
 13
513.432765
 23
532.163335
 33
0.0
 14
513.432765
 24
521.163335
 34
0.0
 50
90.0
100
AcDbRotatedDimension
1001
ACAD
1000
DSTYLE
1002
{
1070
   284
1070
    13
1070
   146
1040
0.5
1070
   272
1070
     3
1070
    40
1040
1.0
1070
   287
1070
     0
1002
}
  0
LINE
  5
25F
100
AcDbEntity
  8
外形
  6
CONTINUOUS
100
AcDbLine
 10
482.411474
 20
529.37416
 30
0.0
 11
482.411474
 21
534.123437
 31
0.0
  0
ARC
  5
260
100
AcDbEntity
  8
外形
  6
CONTINUOUS
100
AcDbCircle
 10
474.913441
 20
530.663335
 30
0.0
 40
9.25
100
AcDbArc
 50
90.0
 51
245.36614
  0
DIMENSION
  5
261
100
AcDbEntity
  8
寸法
  6
CONTINUOUS
100
AcDbDimension
  2
*D5
 10
474.913441
 20
521.163335
 30
0.0
 11
464.903853
 21
505.405268
 31
0.0
 70
    34
  3
STANDARD
100
AcDb2LineAngularDimension
 13
474.913441
 23
535.434252
 33
0.0
 14
474.913441
 24
521.163335
 34
0.0
 15
476.575841
 25
532.991927
 35
0.0
 16
473.951929
 26
500.519303
 36
0.0
1001
ACAD
1000
DSTYLE
1002
{
1070
    40
1040
1.0
1002
}
  0
CIRCLE
  5
262
100
AcDbEntity
  8
外形
  6
CENTER
 62
     1
100
AcDbCircle
 10
474.913441
 20
531.163335
 30
0.0
 40
10.0
  0
LINE
  5
263
100
AcDbEntity
  8
外形
  6
CONTINUOUS
100
AcDbLine
 10
477.244822
 20
537.751975
 30
0.0
 11
474.913441
 21
521.163335
 31
0.0
  0
LINE
  5
264
100
AcDbEntity
  8
外形
  6
CENTER
 62
     1
100
AcDbLine
 10
474.913441
 20
542.163335
 30
0.0
 11
474.913441
 21
521.163335
 31
0.0
  0
ARC
  5
265
100
AcDbEntity
  8
外形
  6
CONTINUOUS
100
AcDbCircle
 10
474.913441
 20
532.163335
 30
0.0
 40
8.0
100
AcDbArc
 50
273.032339
 51
339.595422
  0
LINE
  5
266
100
AcDbEntity
  8
外形
  6
CENTER
 62
     1
100
AcDbLine
 10
486.506098
 20
530.663335
 30
0.0
 11
463.358353
 21
530.663335
 31
0.0
  0
LINE
  5
267
100
AcDbEntity
  8
外形
  6
CENTER
 62
     1
100
AcDbLine
 10
486.506098
 20
532.163335
 30
0.0
 11
463.358353
 21
532.163335
 31
0.0
  0
LINE
  5
269
100
AcDbEntity
  8
外形
  6
CONTINUOUS
100
AcDbLine
 10
471.049917
 20
522.198563
 30
0.0
 11
474.913441
 21
521.163335
 31
0.0
  0
LINE
  5
26B
100
AcDbEntity
  8
外形
  6
CONTINUOUS
100
AcDbLine
 10
472.261015
 20
530.815973
 30
0.0
 11
471.049917
 21
522.198563
 31
0.0
  0
LINE
  5
26C
100
AcDbEntity
  8
外形
  6
CONTINUOUS
100
AcDbLine
 10
476.26022
 20
530.746167
 30
0.0
 11
472.290824
 21
530.815453
 31
0.0
  0
ARC
  5
26D
100
AcDbEntity
  8
外形
  6
CONTINUOUS
100
AcDbCircle
 10
474.913441
 20
532.163335
 30
0.0
 40
7.75
100
AcDbArc
 50
14.592551
 51
90.0
  0
LINE
  5
26E
100
AcDbEntity
  8
外形
  6
CONTINUOUS
100
AcDbLine
 10
477.021553
 20
536.163335
 30
0.0
 11
467.476203
 21
536.163335
 31
0.0
  0
ARC
  5
26F
100
AcDbEntity
  8
外形
  6
CONTINUOUS
100
AcDbCircle
 10
479.225358
 20
537.473629
 30
0.0
 40
2.0
100
AcDbArc
 50
121.118876
 51
172.0
  0
SPLINE
  5
270
100
AcDbEntity
  8
外形
  6
CONTINUOUS
100
AcDbSpline
210
0.0
220
0.0
230
1.0
 70
     8
 71
     3
 72
    10
 73
     6
 74
     0
 42
0.0000001
 43
0.0000001
 40
0.0
 40
0.0
 40
0.0
 40
0.0
 40
12.11046871831023
 40
19.36556158408603
 40
24.77267669871939
 40
24.77267669871939
 40
24.77267669871939
 40
24.77267669871939
 10
519.9071509149661
 20
539.1858229620283
 30
0.0
 10
523.6643596505707
 20
538.4882369048933
 30
0.0
 10
529.6724224965284
 20
537.3727436846166
 30
0.0
 10
538.1888100695382
 20
530.6295532693883
 30
0.0
 10
535.2577535438625
 20
527.4394745653794
 30
0.0
 10
531.7068273232116
 20
525.2440525614775
 30
0.0
  0
LINE
  5
275
100
AcDbEntity
  8
外形
  6
HIDDEN
100
AcDbLine
 10
528.432765
 20
534.663335
 30
0.0
 11
528.432765
 21
529.663335
 31
0.0
  0
LINE
  5
276
100
AcDbEntity
  8
外形
  6
HIDDEN
100
AcDbLine
 10
531.832765
 20
534.663335
 30
0.0
 11
531.832765
 21
529.663335
 31
0.0
  0
LINE
  5
277
100
AcDbEntity
  8
外形
  6
CONTINUOUS
100
AcDbLine
 10
543.432765
 20
534.947217
 30
0.0
 11
543.432765
 21
529.379453
 31
0.0
  0
LINE
  5
278
100
AcDbEntity
  8
外形
  6
CONTINUOUS
100
AcDbLine
 10
537.432765
 20
540.163335
 30
0.0
 11
537.432765
 21
524.163335
 31
0.0
  0
LINE
  5
27B
100
AcDbEntity
  8
外形
  6
CONTINUOUS
100
AcDbLine
 10
514.672048
 20
536.163335
 30
0.0
 11
513.435809
 21
522.033059
 31
0.0
  0
LINE
  5
27D
100
AcDbEntity
  8
外形
  6
CONTINUOUS
100
AcDbLine
 10
531.706827
 20
525.244053
 30
0.0
 11
526.597277
 21
522.294053
 31
0.0
  0
LINE
  5
27E
100
AcDbEntity
  8
外形
  6
HIDDEN
100
AcDbLine
 10
528.432765
 20
532.356322
 30
0.0
 11
525.129273
 21
529.775351
 31
0.0
  0
LINE
  5
27F
100
AcDbEntity
  8
外形
  6
HIDDEN
100
AcDbLine
 10
529.858707
 20
529.663335
 30
0.0
 11
526.976257
 21
527.411319
 31
0.0
  0
ELLIPSE
  5
280
100
AcDbEntity
  8
外形
  6
CONTINUOUS
100
AcDbEllipse
 10
526.052765
 20
528.593335
 30
0.0
 11
1.970026884016804
 21
1.539153688314145
 31
0.0
210
0.0
220
0.0
230
1.0
 40
0.6
 41
0.0
 42
6.283185307179586
  0
LINE
  5
283
100
AcDbEntity
  8
外形
  6
CONTINUOUS
100
AcDbLine
 10
526.491086
 20
522.232743
 30
0.0
 11
514.30249
 21
521.166379
 31
0.0
  0
LINE
  5
284
100
AcDbEntity
  8
外形
  6
CONTINUOUS
100
AcDbLine
 10
522.346822
 20
521.870167
 30
0.0
 11
514.30249
 21
521.166379
 31
0.0
  0
ARC
  5
285
100
AcDbEntity
  8
外形
  6
CONTINUOUS
100
AcDbCircle
 10
514.232765
 20
521.963335
 30
0.0
 40
0.8
100
AcDbArc
 50
175.0
 51
275.0
  0
LINE
  5
286
100
AcDbEntity
  8
外形
  6
CENTER
 62
     1
100
AcDbLine
 10
518.606827
 20
519.767367
 30
0.0
 11
518.606827
 21
532.851036
 31
0.0
  0
LINE
  5
287
100
AcDbEntity
  8
外形
  6
CONTINUOUS
 62
     1
100
AcDbLine
 10
513.432765
 20
521.963335
 30
0.0
 11
513.432765
 21
521.163335
 31
0.0
  0
LINE
  5
288
100
AcDbEntity
  8
外形
  6
CENTER
 62
     1
100
AcDbLine
 10
514.267698
 20
521.163335
 30
0.0
 11
513.432765
 21
521.163335
 31
0.0
  0
LINE
  5
289
100
AcDbEntity
  8
外形
  6
CENTER
 62
     1
100
AcDbLine
 10
512.425727
 20
526.33742
 30
0.0
 11
525.156086
 21
526.33742
 31
0.0
  0
CIRCLE
  5
28A
100
AcDbEntity
  8
外形
  6
CONTINUOUS
100
AcDbCircle
 10
518.606827
 20
526.33742
 30
0.0
 40
2.800003
  0
CIRCLE
  5
28B
100
AcDbEntity
  8
外形
  6
CONTINUOUS
100
AcDbCircle
 10
518.606827
 20
526.33742
 30
0.0
 40
4.7625
  0
LINE
  5
28C
100
AcDbEntity
  8
外形
  6
CONTINUOUS
100
AcDbLine
 10
522.911165
 20
531.50846
 30
0.0
 11
514.198107
 21
530.746167
 31
0.0
  0
ARC
  5
28D
100
AcDbEntity
  8
外形
  6
CONTINUOUS
100
AcDbCircle
 10
514.936557
 20
530.007717
 30
0.0
 40
0.8
100
AcDbArc
 50
95.0
 51
175.0
  0
ARC
  5
28E
100
AcDbEntity
  8
外形
  6
CONTINUOUS
100
AcDbCircle
 10
522.277097
 20
522.667123
 30
0.0
 40
0.8
100
AcDbArc
 50
275.0
 51
355.0
  0
ARC
  5
28F
100
AcDbEntity
  8
外形
  6
CONTINUOUS
100
AcDbCircle
 10
522.98089
 20
530.711505
 30
0.0
 40
0.8
100
AcDbArc
 50
355.0
 51
95.0
  0
LINE
  5
290
100
AcDbEntity
  8
外形
  6
CONTINUOUS
100
AcDbLine
 10
524.076505
 20
529.338915
 30
0.0
 11
524.090816
 21
529.35597
 31
0.0
  0
LINE
  5
291
100
AcDbEntity
  8
外形
  6
CONTINUOUS
100
AcDbLine
 10
523.615827
 20
528.7899
 30
0.0
 11
524.090816
 21
529.35597
 31
0.0
  0
LINE
  5
292
100
AcDbEntity
  8
外形
  6
CONTINUOUS
100
AcDbLine
 10
523.777845
 20
530.64178
 30
0.0
 11
523.015547
 21
521.928673
 31
0.0
  0
ARC
  5
293
100
AcDbEntity
  8
外形
  6
CONTINUOUS
100
AcDbCircle
 10
518.606827
 20
527.861185
 30
0.0
 40
0.43285
100
AcDbArc
 50
240.283476
 51
299.716524
  0
ARC
  5
294
100
AcDbEntity
  8
外形
  6
CONTINUOUS
100
AcDbCircle
 10
517.287208
 20
527.099302
 30
0.0
 40
0.43285
100
AcDbArc
 50
300.283476
 51
359.716524
  0
ARC
  5
295
100
AcDbEntity
  8
外形
  6
CONTINUOUS
100
AcDbCircle
 10
517.287208
 20
525.575537
 30
0.0
 40
0.43285
100
AcDbArc
 50
0.283476
 51
59.716524
  0
ARC
  5
296
100
AcDbEntity
  8
外形
  6
CONTINUOUS
100
AcDbCircle
 10
518.606827
 20
524.813655
 30
0.0
 40
0.43285
100
AcDbArc
 50
60.283476
 51
119.716524
  0
ARC
  5
297
100
AcDbEntity
  8
外形
  6
CONTINUOUS
100
AcDbCircle
 10
519.926446
 20
525.575537
 30
0.0
 40
0.43285
100
AcDbArc
 50
120.283476
 51
179.716524
  0
ARC
  5
298
100
AcDbEntity
  8
外形
  6
CONTINUOUS
100
AcDbCircle
 10
519.926446
 20
527.099302
 30
0.0
 40
0.43285
100
AcDbArc
 50
180.283476
 51
239.716524
  0
LINE
  5
299
100
AcDbEntity
  8
外形
  6
CONTINUOUS
100
AcDbLine
 10
519.489794
 20
524.808076
 30
0.0
 11
518.821395
 21
525.18958
 31
0.0
  0
LINE
  5
29A
100
AcDbEntity
  8
外形
  6
CONTINUOUS
100
AcDbLine
 10
519.493602
 20
525.577679
 30
0.0
 11
519.489794
 21
524.808076
 31
0.0
  0
LINE
  5
29B
100
AcDbEntity
  8
外形
  6
CONTINUOUS
100
AcDbLine
 10
517.72386
 20
524.808076
 30
0.0
 11
517.720053
 21
525.577679
 31
0.0
  0
LINE
  5
29C
100
AcDbEntity
  8
外形
  6
CONTINUOUS
100
AcDbLine
 10
518.39226
 20
525.18958
 30
0.0
 11
517.72386
 21
524.808076
 31
0.0
  0
LINE
  5
29D
100
AcDbEntity
  8
外形
  6
CONTINUOUS
100
AcDbLine
 10
516.840893
 20
526.33742
 30
0.0
 11
517.505485
 21
526.725519
 31
0.0
  0
LINE
  5
29E
100
AcDbEntity
  8
外形
  6
CONTINUOUS
100
AcDbLine
 10
517.505485
 20
525.949321
 30
0.0
 11
516.840893
 21
526.33742
 31
0.0
  0
LINE
  5
29F
100
AcDbEntity
  8
外形
  6
CONTINUOUS
100
AcDbLine
 10
517.72386
 20
527.866764
 30
0.0
 11
518.39226
 21
527.48526
 31
0.0
  0
LINE
  5
2A0
100
AcDbEntity
  8
外形
  6
CONTINUOUS
100
AcDbLine
 10
517.720053
 20
527.097161
 30
0.0
 11
517.72386
 21
527.866764
 31
0.0
  0
LINE
  5
2A1
100
AcDbEntity
  8
外形
  6
CONTINUOUS
100
AcDbLine
 10
519.489794
 20
527.866764
 30
0.0
 11
519.493602
 21
527.097161
 31
0.0
  0
LINE
  5
2A2
100
AcDbEntity
  8
外形
  6
CONTINUOUS
100
AcDbLine
 10
518.821395
 20
527.48526
 30
0.0
 11
519.489794
 21
527.866764
 31
0.0
  0
LINE
  5
2A3
100
AcDbEntity
  8
外形
  6
CONTINUOUS
100
AcDbLine
 10
520.372762
 20
526.33742
 30
0.0
 11
519.70817
 21
525.949321
 31
0.0
  0
LINE
  5
2A4
100
AcDbEntity
  8
外形
  6
CONTINUOUS
100
AcDbLine
 10
519.70817
 20
526.725519
 30
0.0
 11
520.372762
 21
526.33742
 31
0.0
  0
LINE
  5
2A5
100
AcDbEntity
  8
外形
  6
CONTINUOUS
100
AcDbLine
 10
521.202617
 20
531.358982
 30
0.0
 11
521.40966
 21
531.605727
 31
0.0
  0
ARC
  5
2A6
100
AcDbEntity
  8
外形
  6
CONTINUOUS
100
AcDbCircle
 10
522.750238
 20
530.480848
 30
0.0
 40
1.75
100
AcDbArc
 50
320.0
 51
140.0
  0
LINE
  5
2A7
100
AcDbEntity
  8
外形
  6
HIDDEN
100
AcDbLine
 10
531.832765
 20
529.663335
 30
0.0
 11
528.432765
 21
529.663335
 31
0.0
  0
LINE
  5
2A8
100
AcDbEntity
  8
外形
  6
HIDDEN
100
AcDbLine
 10
537.432765
 20
524.163335
 30
0.0
 11
531.832765
 21
529.763335
 31
0.0
  0
LINE
  5
2A9
100
AcDbEntity
  8
外形
  6
CONTINUOUS
100
AcDbLine
 10
535.432373
 20
527.828506
 30
0.0
 11
535.432373
 21
524.413335
 31
0.0
  0
LINE
  5
2AA
100
AcDbEntity
  8
外形
  6
CONTINUOUS
100
AcDbLine
 10
535.432373
 20
524.413335
 30
0.0
 11
530.267982
 21
524.413335
 31
0.0
  0
LINE
  5
2AB
100
AcDbEntity
  8
外形
  6
CONTINUOUS
100
AcDbLine
 10
535.682373
 20
524.163335
 30
0.0
 11
535.682373
 21
528.146961
 31
0.0
  0
LINE
  5
2AC
100
AcDbEntity
  8
外形
  6
CONTINUOUS
100
AcDbLine
 10
535.432373
 20
524.413335
 30
0.0
 11
535.682373
 21
524.163335
 31
0.0
  0
LINE
  5
2AD
100
AcDbEntity
  8
外形
  6
CONTINUOUS
100
AcDbLine
 10
535.432373
 20
539.913335
 30
0.0
 11
521.167239
 21
539.913335
 31
0.0
  0
LINE
  5
2AE
100
AcDbEntity
  8
外形
  6
CONTINUOUS
100
AcDbLine
 10
521.167239
 20
539.913335
 30
0.0
 11
514.672048
 21
536.163335
 31
0.0
  0
LINE
  5
2AF
100
AcDbEntity
  8
外形
  6
HIDDEN
100
AcDbLine
 10
531.832765
 20
534.663335
 30
0.0
 11
528.432765
 21
534.663335
 31
0.0
  0
LINE
  5
2B0
100
AcDbEntity
  8
外形
  6
HIDDEN
100
AcDbLine
 10
537.432765
 20
540.163335
 30
0.0
 11
531.832765
 21
534.563335
 31
0.0
  0
LINE
  5
2B1
100
AcDbEntity
  8
外形
  6
CONTINUOUS
100
AcDbLine
 10
531.706827
 20
539.913335
 30
0.0
 11
531.706827
 21
535.467803
 31
0.0
  0
LINE
  5
2B2
100
AcDbEntity
  8
外形
  6
CONTINUOUS
100
AcDbLine
 10
535.432373
 20
539.913335
 30
0.0
 11
535.432373
 21
534.115897
 31
0.0
  0
LINE
  5
2B3
100
AcDbEntity
  8
外形
  6
CONTINUOUS
100
AcDbLine
 10
535.432373
 20
534.115897
 30
0.0
 11
533.46283
 21
534.115897
 31
0.0
  0
LINE
  5
2B4
100
AcDbEntity
  8
外形
  6
CONTINUOUS
100
AcDbLine
 10
535.432373
 20
539.913335
 30
0.0
 11
535.682373
 21
540.163335
 31
0.0
  0
LINE
  5
2B5
100
AcDbEntity
  8
外形
  6
CONTINUOUS
100
AcDbLine
 10
535.682373
 20
540.163335
 30
0.0
 11
535.682373
 21
534.947217
 31
0.0
  0
LINE
  5
2B7
100
AcDbEntity
  8
外形
  6
CONTINUOUS
100
AcDbLine
 10
713.432765
 20
481.229167
 30
0.0
 11
713.432765
 21
467.229167
 31
0.0
  0
LINE
  5
2B8
100
AcDbEntity
  8
外形
  6
CONTINUOUS
100
AcDbLine
 10
712.432765
 20
466.229167
 30
0.0
 11
712.432765
 21
482.229167
 31
0.0
  0
LINE
  5
2B9
100
AcDbEntity
  8
外形
  6
CONTINUOUS
100
AcDbLine
 10
712.432765
 20
466.229167
 30
0.0
 11
713.432765
 21
467.229167
 31
0.0
  0
LINE
  5
2BA
100
AcDbEntity
  8
外形
  6
CONTINUOUS
100
AcDbLine
 10
693.432765
 20
482.229167
 30
0.0
 11
712.432765
 21
482.229167
 31
0.0
  0
LINE
  5
2BB
100
AcDbEntity
  8
外形
  6
CONTINUOUS
100
AcDbLine
 10
693.432765
 20
482.229167
 30
0.0
 11
693.432765
 21
481.729167
 31
0.0
  0
LINE
  5
2BC
100
AcDbEntity
  8
外形
  6
CONTINUOUS
100
AcDbLine
 10
712.432765
 20
482.229167
 30
0.0
 11
713.432765
 21
481.229167
 31
0.0
  0
LINE
  5
2BD
100
AcDbEntity
  8
外形
  6
HIDDEN
100
AcDbLine
 10
662.932765
 20
529.763335
 30
0.0
 11
713.432765
 21
529.763335
 31
0.0
  0
LINE
  5
2BE
100
AcDbEntity
  8
外形
  6
HIDDEN
100
AcDbLine
 10
662.932765
 20
534.563335
 30
0.0
 11
713.432765
 21
534.563335
 31
0.0
  0
LINE
  5
2BF
100
AcDbEntity
  8
外形
  6
CONTINUOUS
100
AcDbLine
 10
712.432765
 20
524.163335
 30
0.0
 11
662.932765
 21
524.163335
 31
0.0
  0
LINE
  5
2C0
100
AcDbEntity
  8
外形
  6
CONTINUOUS
100
AcDbLine
 10
712.432765
 20
540.163335
 30
0.0
 11
662.932765
 21
540.163335
 31
0.0
  0
LINE
  5
2C1
100
AcDbEntity
  8
外形
  6
CONTINUOUS
100
AcDbLine
 10
693.432765
 20
529.379453
 30
0.0
 11
662.932765
 21
529.379453
 31
0.0
  0
LINE
  5
2C2
100
AcDbEntity
  8
外形
  6
CONTINUOUS
100
AcDbLine
 10
693.432765
 20
534.947217
 30
0.0
 11
662.932765
 21
534.947217
 31
0.0
  0
CIRCLE
  5
2C3
100
AcDbEntity
  8
外形
  6
CONTINUOUS
100
AcDbCircle
 10
653.432765
 20
532.163335
 30
0.0
 40
2.4
  0
ARC
  5
2C4
100
AcDbEntity
  8
外形
  6
CONTINUOUS
100
AcDbCircle
 10
653.432765
 20
532.163335
 30
0.0
 40
8.0
100
AcDbArc
 50
200.364135
 51
159.635865
  0
DIMENSION
  5
2C5
100
AcDbEntity
  8
寸法
  6
CONTINUOUS
100
AcDbDimension
  2
*D6
 10
649.46071
 20
525.219073
 30
0.0
 11
663.71901
 21
550.146564
 31
0.0
 70
   163
  3
STANDARD
100
AcDbDiametricDimension
 15
657.40482
 25
539.107597
 35
0.0
 40
0.0
1001
ACAD
1000
DSTYLE
1002
{
1070
   284
1070
    13
1070
   146
1040
0.5
1070
   272
1070
     3
1070
    40
1040
1.0
1070
   287
1070
     0
1002
}
  0
LINE
  5
2C6
100
AcDbEntity
  8
外形
  6
CONTINUOUS
100
AcDbLine
 10
645.932765
 20
534.947217
 30
0.0
 11
645.932765
 21
529.379453
 31
0.0
  0
LINE
  5
2C7
100
AcDbEntity
  8
外形
  6
CENTER
 62
     1
100
AcDbLine
 10
653.432765
 20
541.842453
 30
0.0
 11
653.432765
 21
522.051066
 31
0.0
  0
DIMENSION
  5
2C8
100
AcDbEntity
  8
寸法
  6
CONTINUOUS
100
AcDbDimension
  2
*D7
 10
653.432765
 20
514.88288
 30
0.0
 11
662.432765
 21
517.38288
 31
0.0
 70
    32
  3
STANDARD
100
AcDbAlignedDimension
 13
645.932765
 23
529.765419
 33
0.0
 14
653.432765
 24
522.051066
 34
0.0
100
AcDbRotatedDimension
1001
ACAD
1000
DSTYLE
1002
{
1070
   284
1070
    13
1070
   146
1040
0.5
1070
   272
1070
     3
1070
    40
1040
1.0
1070
   287
1070
     0
1002
}
  0
LINE
  5
2C9
100
AcDbEntity
  8
外形
  6
CONTINUOUS
100
AcDbLine
 10
693.432765
 20
534.947217
 30
0.0
 11
693.432765
 21
529.379453
 31
0.0
  0
LINE
  5
2CA
100
AcDbEntity
  8
外形
  6
CONTINUOUS
100
AcDbLine
 10
712.432765
 20
524.163335
 30
0.0
 11
712.432765
 21
540.163335
 31
0.0
  0
LINE
  5
2CB
100
AcDbEntity
  8
外形
  6
CONTINUOUS
100
AcDbLine
 10
713.432765
 20
539.163335
 30
0.0
 11
713.432765
 21
525.163335
 31
0.0
  0
LINE
  5
2CC
100
AcDbEntity
  8
外形
  6
CONTINUOUS
100
AcDbLine
 10
713.432765
 20
525.163335
 30
0.0
 11
713.432765
 21
539.163335
 31
0.0
  0
LINE
  5
2CD
100
AcDbEntity
  8
外形
  6
CONTINUOUS
100
AcDbLine
 10
712.432765
 20
524.163335
 30
0.0
 11
713.432765
 21
525.163335
 31
0.0
  0
LINE
  5
2CE
100
AcDbEntity
  8
外形
  6
CONTINUOUS
100
AcDbLine
 10
712.432765
 20
540.163335
 30
0.0
 11
713.432765
 21
539.163335
 31
0.0
  0
LEADER
  5
523
100
AcDbEntity
  8
寸法
  6
CONTINUOUS
 62
     1
100
AcDbLeader
  3
STANDARD
 73
     0
 75
     1
 40
3.0
 41
9.8
 76
     3
 10
651.718922
 20
533.843437
 30
0.0
 10
641.770182
 20
549.209664
 30
0.0
 10
639.770182
 20
549.209664
 30
0.0
 77
   256
340
524
1001
ACAD
1000
DSTYLE
1002
{
1070
    40
1040
1.0
1002
}
  0
MTEXT
  5
524
102
{ACAD_REACTORS
330
523
102
}
100
AcDbEntity
  8
寸法
  6
CONTINUOUS
 62
     3
100
AcDbMText
 10
638.770182
 20
551.709664
 30
0.0
 40
3.0
 41
0.0
 71
     6
 72
     1
  1
\A1;油穴付
  0
DIMENSION
  5
531
100
AcDbEntity
  8
寸法
  6
CONTINUOUS
100
AcDbDimension
  2
*D8
 10
543.432765
 20
511.927147
 30
0.0
 11
528.432765
 21
514.427147
 31
0.0
 70
    32
  3
STANDARD
100
AcDbAlignedDimension
 13
513.432765
 23
521.163335
 33
0.0
 14
543.432765
 24
529.379453
 34
0.0
100
AcDbRotatedDimension
1001
ACAD
1000
DSTYLE
1002
{
1070
    40
1040
1.0
1002
}
  0
ENDSEC
  0
SECTION
  2
OBJECTS
  0
DICTIONARY
  5
1E
100
AcDbDictionary
  3
ACAD_GROUP
350
1C
  3
ACAD_MLINESTYLE
350
1D
  0
DICTIONARY
  5
3A
100
AcDbDictionary
280
     1
  3
ACAD_XREC_ROUNDTRIP
360
3B
  0
DICTIONARY
  5
4D
100
AcDbDictionary
280
     1
  3
ACAD_XREC_ROUNDTRIP
360
4E
  0
DICTIONARY
  5
3
100
AcDbDictionary
280
     1
  3
ACAD_LAYOUTSELFREF
360
4
  0
DICTIONARY
  5
A
100
AcDbDictionary
280
     1
  3
ACAD_LAYOUTSELFREF
360
B
  0
DICTIONARY
  5
1C
102
{ACAD_REACTORS
330
1E
102
}
100
AcDbDictionary
  0
DICTIONARY
  5
1D
102
{ACAD_REACTORS
330
1E
102
}
100
AcDbDictionary
  3
STANDARD
350
20
  0
XRECORD
  5
3B
102
{ACAD_REACTORS
330
3A
102
}
100
AcDbXrecord
102
PLOTBIT
280
     0
  0
XRECORD
  5
4E
102
{ACAD_REACTORS
330
4D
102
}
100
AcDbXrecord
102
ACADR14ROUNDTRIP
1000
DSTYLE
1002
{
1070
   341
340
0
1070
   343
340
0
1070
   344
340
0
1002
}
  0
XRECORD
  5
4
102
{ACAD_REACTORS
330
3
102
}
100
AcDbXrecord
340
2
  0
XRECORD
  5
B
102
{ACAD_REACTORS
330
A
102
}
100
AcDbXrecord
340
9
  0
MLINESTYLE
  5
20
102
{ACAD_REACTORS
330
1D
102
}
100
AcDbMlineStyle
  2
STANDARD
 70
     0
  3

 62
     0
 51
90.0
 52
90.0
 71
     2
 49
0.5
 62
   256
  6
BYLAYER
 49
-0.5
 62
   256
  6
BYLAYER
  0
ENDSEC
  0
EOF
