  0
SECTION
  2
HEADER
  9
$ACADVER
  1
AC1014
  9
$ACADMAINTVER
 70
     0
  9
$DWGCODEPAGE
  3
ANSI_932
  9
$INSBASE
 10
-587.250952
 20
747.890188
 30
0.0
  9
$EXTMIN
 10
-24.987136
 20
150.213866
 30
0.0
  9
$EXTMAX
 10
232.656673
 20
267.786311
 30
0.0
  9
$LIMMIN
 10
-587.250952
 20
327.890188
  9
$LIMMAX
 10
600.749048
 20
957.890188
  9
$ORTHOMODE
 70
     1
  9
$REGENMODE
 70
     1
  9
$FILLMODE
 70
     1
  9
$QTEXTMODE
 70
     0
  9
$MIRRTEXT
 70
     1
  9
$DRAGMODE
 70
     2
  9
$LTSCALE
 40
5.0
  9
$OSMODE
 70
    37
  9
$ATTMODE
 70
     1
  9
$TEXTSIZE
 40
5.0
  9
$TRACEWID
 40
0.05
  9
$TEXTSTYLE
  7
STANDARD
  9
$CLAYER
  8
外形
  9
$CELTYPE
  6
CONTINUOUS
  9
$CECOLOR
 62
   256
  9
$CELTSCALE
 40
1.0
  9
$DELOBJ
 70
     1
  9
$DISPSILH
 70
     0
  9
$DIMSCALE
 40
1.0
  9
$DIMASZ
 40
1.0
  9
$DIMEXO
 40
1.0
  9
$DIMDLI
 40
8.0
  9
$DIMRND
 40
0.0
  9
$DIMDLE
 40
0.0
  9
$DIMEXE
 40
2.0
  9
$DIMTP
 40
0.0
  9
$DIMTM
 40
0.0
  9
$DIMTXT
 40
1.5
  9
$DIMCEN
 40
-1.0
  9
$DIMTSZ
 40
0.0
  9
$DIMTOL
 70
     0
  9
$DIMLIM
 70
     0
  9
$DIMTIH
 70
     0
  9
$DIMTOH
 70
     0
  9
$DIMSE1
 70
     0
  9
$DIMSE2
 70
     0
  9
$DIMTAD
 70
     1
  9
$DIMZIN
 70
     8
  9
$DIMBLK
  1

  9
$DIMASO
 70
     1
  9
$DIMSHO
 70
     1
  9
$DIMPOST
  1

  9
$DIMAPOST
  1

  9
$DIMALT
 70
     0
  9
$DIMALTD
 70
     2
  9
$DIMALTF
 40
25.4
  9
$DIMLFAC
 40
1.0
  9
$DIMTOFL
 70
     1
  9
$DIMTVP
 40
0.0
  9
$DIMTIX
 70
     0
  9
$DIMSOXD
 70
     0
  9
$DIMSAH
 70
     1
  9
$DIMBLK1
  1
_DOTSMALL
  9
$DIMBLK2
  1
_DOTSMALL
  9
$DIMSTYLE
  2
STANDARD
  9
$DIMCLRD
 70
     2
  9
$DIMCLRE
 70
     2
  9
$DIMCLRT
 70
     2
  9
$DIMTFAC
 40
1.0
  9
$DIMGAP
 40
1.0
  9
$DIMJUST
 70
     0
  9
$DIMSD1
 70
     0
  9
$DIMSD2
 70
     0
  9
$DIMTOLJ
 70
     1
  9
$DIMTZIN
 70
     8
  9
$DIMALTZ
 70
     0
  9
$DIMALTTZ
 70
     0
  9
$DIMFIT
 70
     3
  9
$DIMUPT
 70
     0
  9
$DIMUNIT
 70
     2
  9
$DIMDEC
 70
     3
  9
$DIMTDEC
 70
     2
  9
$DIMALTU
 70
     2
  9
$DIMALTTD
 70
     2
  9
$DIMTXSTY
  7
STANDARD
  9
$DIMAUNIT
 70
     0
  9
$LUNITS
 70
     2
  9
$LUPREC
 70
     0
  9
$SKETCHINC
 40
0.1
  9
$FILLETRAD
 40
0.0
  9
$AUNITS
 70
     0
  9
$AUPREC
 70
     0
  9
$MENU
  1
acad
  9
$ELEVATION
 40
0.0
  9
$PELEVATION
 40
0.0
  9
$THICKNESS
 40
0.0
  9
$LIMCHECK
 70
     0
  9
$BLIPMODE
 70
     0
  9
$CHAMFERA
 40
0.0
  9
$CHAMFERB
 40
0.0
  9
$CHAMFERC
 40
0.0
  9
$CHAMFERD
 40
0.0
  9
$SKPOLY
 70
     0
  9
$TDCREATE
 40
2450751.535399305
  9
$TDUPDATE
 40
2452004.727118055
  9
$TDINDWG
 40
1.8597807870
  9
$TDUSRTIMER
 40
1.8597807870
  9
$USRTIMER
 70
     1
  9
$ANGBASE
 50
0.0
  9
$ANGDIR
 70
     0
  9
$PDMODE
 70
    32
  9
$PDSIZE
 40
0.0
  9
$PLINEWID
 40
0.0
  9
$COORDS
 70
     2
  9
$SPLFRAME
 70
     0
  9
$SPLINETYPE
 70
     5
  9
$SPLINESEGS
 70
     8
  9
$ATTDIA
 70
     0
  9
$ATTREQ
 70
     1
  9
$HANDLING
 70
     1
  9
$HANDSEED
  5
28E3
  9
$SURFTAB1
 70
     6
  9
$SURFTAB2
 70
     6
  9
$SURFTYPE
 70
     6
  9
$SURFU
 70
     6
  9
$SURFV
 70
     6
  9
$UCSNAME
  2

  9
$UCSORG
 10
40.53800450572526
 20
146.9196145921314
 30
0.0
  9
$UCSXDIR
 10
1.0
 20
0.0
 30
0.0
  9
$UCSYDIR
 10
0.0
 20
1.0
 30
0.0
  9
$PUCSNAME
  2

  9
$PUCSORG
 10
0.0
 20
0.0
 30
0.0
  9
$PUCSXDIR
 10
1.0
 20
0.0
 30
0.0
  9
$PUCSYDIR
 10
0.0
 20
1.0
 30
0.0
  9
$USERI1
 70
     0
  9
$USERI2
 70
     0
  9
$USERI3
 70
     0
  9
$USERI4
 70
     0
  9
$USERI5
 70
     0
  9
$USERR1
 40
0.0
  9
$USERR2
 40
0.0
  9
$USERR3
 40
0.0
  9
$USERR4
 40
0.0
  9
$USERR5
 40
0.0
  9
$WORLDVIEW
 70
     1
  9
$SHADEDGE
 70
     3
  9
$SHADEDIF
 70
    70
  9
$TILEMODE
 70
     1
  9
$MAXACTVP
 70
    16
  9
$PINSBASE
 10
0.0
 20
0.0
 30
0.0
  9
$PLIMCHECK
 70
     0
  9
$PEXTMIN
 10
1.000000E+20
 20
1.000000E+20
 30
1.000000E+20
  9
$PEXTMAX
 10
-1.000000E+20
 20
-1.000000E+20
 30
-1.000000E+20
  9
$PLIMMIN
 10
0.0
 20
0.0
  9
$PLIMMAX
 10
12.0
 20
9.0
  9
$UNITMODE
 70
     0
  9
$VISRETAIN
 70
     0
  9
$PLINEGEN
 70
     0
  9
$PSLTSCALE
 70
     1
  9
$TREEDEPTH
 70
  3020
  9
$PICKSTYLE
 70
     0
  9
$CMLSTYLE
  2
STANDARD
  9
$CMLJUST
 70
     0
  9
$CMLSCALE
 40
1.0
  9
$PROXYGRAPHICS
 70
     1
  9
$MEASUREMENT
 70
     0
  0
ENDSEC
  0
SECTION
  2
CLASSES
  0
CLASS
  1
LWPOLYLINE
  2
AcDbPolyline
  3
"AutoCAD"
 90
        0
280
     0
281
     1
  0
CLASS
  1
ACDBDICTIONARYWDFLT
  2
AcDbDictionaryWithDefault
  3
AutoCAD 2000
 90
        0
280
     1
281
     0
  0
CLASS
  1
ACDBPLACEHOLDER
  2
AcDbPlaceHolder
  3
AutoCAD 2000
 90
        0
280
     1
281
     0
  0
CLASS
  1
LAYOUT
  2
AcDbLayout
  3
AutoCAD 2000
 90
        0
280
     1
281
     0
  0
CLASS
  1
LONG_TRANSACTION
  2
AcDbLongTransaction
  3
AutoCAD 2000
 90
        0
280
     1
281
     0
  0
CLASS
  1
LWPOLYLINE
  2
AcDbPolyline
  3
"AutoCAD"
 90
        0
280
     0
281
     1
  0
CLASS
  1
HATCH
  2
AcDbHatch
  3
"ACAD_SEDONA"
 90
        0
280
     0
281
     1
  0
CLASS
  1
XRECORD
  2
AcDbXrecord
  3
"<Built In>"
 90
        0
280
     0
281
     0
  0
CLASS
  1
DICTIONARYVAR
  2
AcDbDictionaryVar
  3
"AutoCAD"
 90
        0
280
     0
281
     0
  0
ENDSEC
  0
SECTION
  2
TABLES
  0
TABLE
  2
VPORT
  5
16
100
AcDbSymbolTable
 70
     1
  0
VPORT
  5
28DE
100
AcDbSymbolTableRecord
100
AcDbViewportTableRecord
  2
*ACTIVE
 70
     0
 10
0.0
 20
0.0
 11
1.0
 21
1.0
 12
119.456809
 22
209.522266
 13
0.0
 23
0.0
 14
1.0
 24
1.0
 15
10.0
 25
10.0
 16
0.0
 26
0.0
 36
1.0
 17
0.0
 27
0.0
 37
0.0
 40
187.504698
 41
1.710425
 42
50.0
 43
0.0
 44
0.0
 50
0.0
 51
0.0
 71
     0
 72
   100
 73
     1
 74
     1
 75
     0
 76
     0
 77
     0
 78
     2
  0
ENDTAB
  0
TABLE
  2
LTYPE
  5
11
100
AcDbSymbolTable
 70
     2
  0
LTYPE
  5
12
100
AcDbSymbolTableRecord
100
AcDbLinetypeTableRecord
  2
BYBLOCK
 70
     0
  3

 72
    65
 73
     0
 40
0.0
  0
LTYPE
  5
13
100
AcDbSymbolTableRecord
100
AcDbLinetypeTableRecord
  2
BYLAYER
 70
     0
  3

 72
    65
 73
     0
 40
0.0
  0
LTYPE
  5
7
100
AcDbSymbolTableRecord
100
AcDbLinetypeTableRecord
  2
CONTINUOUS
 70
     0
  3
Solid line
 72
    65
 73
     0
 40
0.0
  0
LTYPE
  5
AA
100
AcDbSymbolTableRecord
100
AcDbLinetypeTableRecord
  2
CENTER
 70
     0
  3
Center ____ _ ____ _ ____ _ ____ _ ____ _ ____
 72
    65
 73
     4
 40
2.0
 49
1.25
 74
     0
 49
-0.25
 74
     0
 49
0.25
 74
     0
 49
-0.25
 74
     0
  0
ENDTAB
  0
TABLE
  2
LAYER
  5
E
100
AcDbSymbolTable
 70
     5
  0
LAYER
  5
6
100
AcDbSymbolTableRecord
100
AcDbLayerTableRecord
  2
0
 70
     0
 62
     7
  6
CONTINUOUS
  0
LAYER
  5
2C
100
AcDbSymbolTableRecord
100
AcDbLayerTableRecord
  2
外形
 70
     0
 62
     3
  6
CONTINUOUS
  0
LAYER
  5
37
102
{ACAD_XDICTIONARY
360
38
102
}
100
AcDbSymbolTableRecord
100
AcDbLayerTableRecord
  2
DEFPOINTS
 70
     0
 62
     7
  6
CONTINUOUS
  0
LAYER
  5
1F
100
AcDbSymbolTableRecord
100
AcDbLayerTableRecord
  2
寸法
 70
     0
 62
     1
  6
CONTINUOUS
  0
LAYER
  5
673
100
AcDbSymbolTableRecord
100
AcDbLayerTableRecord
  2
参考
 70
     0
 62
     2
  6
CONTINUOUS
  0
ENDTAB
  0
TABLE
  2
STYLE
  5
F
100
AcDbSymbolTable
 70
     1
  0
STYLE
  5
10
100
AcDbSymbolTableRecord
100
AcDbTextStyleTableRecord
  2
STANDARD
 70
     0
 40
0.0
 41
1.0
 50
0.0
 71
     0
 42
5.0
  3
MONOTXT
  4
BIGFONT
  0
ENDTAB
  0
TABLE
  2
VIEW
  5
14
100
AcDbSymbolTable
 70
     0
  0
ENDTAB
  0
TABLE
  2
UCS
  5
15
100
AcDbSymbolTable
 70
     0
  0
ENDTAB
  0
TABLE
  2
APPID
  5
18
100
AcDbSymbolTable
 70
     2
  0
APPID
  5
19
100
AcDbSymbolTableRecord
100
AcDbRegAppTableRecord
  2
ACAD
 70
     0
  0
APPID
  5
C59
100
AcDbSymbolTableRecord
100
AcDbRegAppTableRecord
  2
DRAWINGVARIABLESXDATA
 70
     0
  0
ENDTAB
  0
TABLE
  2
DIMSTYLE
  5
1A
100
AcDbSymbolTable
 70
     2
  0
DIMSTYLE
105
21
102
{ACAD_XDICTIONARY
360
22
102
}
102
{ACAD_REACTORS
330
2403
330
240D
330
2424
330
262A
330
283A
330
2868
330
2875
330
28C8
102
}
100
AcDbSymbolTableRecord
100
AcDbDimStyleTableRecord
  2
STANDARD
 70
     0
  3

  4

  5

  6
_OPEN30
  7
_OPEN30
 40
0.0
 41
2.0
 42
1.0
 43
8.0
 44
2.0
 45
0.0
 46
0.0
 47
0.0
 48
0.0
140
3.0
141
-1.0
142
0.0
143
25.4
144
1.0
145
0.0
146
1.0
147
1.0
 71
     0
 72
     0
 73
     0
 74
     0
 75
     0
 76
     0
 77
     1
 78
     8
170
     0
171
     2
172
     1
173
     1
174
     0
175
     0
176
     1
177
     1
178
     3
270
     2
271
     2
272
     2
273
     2
274
     2
340
10
275
     0
280
     0
281
     0
282
     0
283
     1
284
     8
285
     0
286
     0
287
     3
288
     0
  0
DIMSTYLE
105
674
100
AcDbSymbolTableRecord
100
AcDbDimStyleTableRecord
  2
参考寸法
 70
     0
  3

  4

  5

  6
_DOTSMALL
  7
_DOTSMALL
 40
1.0
 41
2.0
 42
1.0
 43
8.0
 44
2.0
 45
0.0
 46
0.0
 47
0.0
 48
0.0
140
3.0
141
-1.0
142
0.0
143
25.4
144
1.0
145
0.0
146
1.0
147
1.0
 71
     0
 72
     0
 73
     0
 74
     0
 75
     0
 76
     0
 77
     1
 78
     8
170
     0
171
     2
172
     1
173
     1
174
     0
175
     0
176
     2
177
     2
178
     2
270
     2
271
     3
272
     2
273
     2
274
     2
340
10
275
     0
280
     0
281
     0
282
     0
283
     1
284
     8
285
     0
286
     0
287
     3
288
     0
  0
ENDTAB
  0
TABLE
  2
BLOCK_RECORD
  5
1
100
AcDbSymbolTable
 70
    10
  0
BLOCK_RECORD
  5
2
102
{ACAD_XDICTIONARY
360
3
102
}
100
AcDbSymbolTableRecord
100
AcDbBlockTableRecord
  2
*MODEL_SPACE
  0
BLOCK_RECORD
  5
9
102
{ACAD_XDICTIONARY
360
A
102
}
100
AcDbSymbolTableRecord
100
AcDbBlockTableRecord
  2
*PAPER_SPACE
  0
BLOCK_RECORD
  5
24
100
AcDbSymbolTableRecord
100
AcDbBlockTableRecord
  2
_DOTSMALL
  0
BLOCK_RECORD
  5
470
100
AcDbSymbolTableRecord
100
AcDbBlockTableRecord
  2
_OPEN30
  0
BLOCK_RECORD
  5
23F7
100
AcDbSymbolTableRecord
100
AcDbBlockTableRecord
  2
*D2
  0
BLOCK_RECORD
  5
2404
100
AcDbSymbolTableRecord
100
AcDbBlockTableRecord
  2
*D3
  0
BLOCK_RECORD
  5
2418
100
AcDbSymbolTableRecord
100
AcDbBlockTableRecord
  2
*D4
  0
BLOCK_RECORD
  5
261E
100
AcDbSymbolTableRecord
100
AcDbBlockTableRecord
  2
*D5
  0
BLOCK_RECORD
  5
282A
100
AcDbSymbolTableRecord
100
AcDbBlockTableRecord
  2
*D6
  0
BLOCK_RECORD
  5
2858
100
AcDbSymbolTableRecord
100
AcDbBlockTableRecord
  2
*D7
  0
BLOCK_RECORD
  5
2869
100
AcDbSymbolTableRecord
100
AcDbBlockTableRecord
  2
*D8
  0
BLOCK_RECORD
  5
28BA
100
AcDbSymbolTableRecord
100
AcDbBlockTableRecord
  2
*D9
  0
ENDTAB
  0
ENDSEC
  0
SECTION
  2
BLOCKS
  0
BLOCK
  5
5
100
AcDbEntity
  8
0
100
AcDbBlockBegin
  2
*MODEL_SPACE
 70
     0
 10
0.0
 20
0.0
 30
0.0
  3
*MODEL_SPACE
  1

  0
ENDBLK
  5
8
100
AcDbEntity
  8
0
100
AcDbBlockEnd
  0
BLOCK
  5
C
100
AcDbEntity
 67
     1
  8
0
100
AcDbBlockBegin
  2
*PAPER_SPACE
 70
     0
 10
0.0
 20
0.0
 30
0.0
  3
*PAPER_SPACE
  1

  0
ENDBLK
  5
D
100
AcDbEntity
 67
     1
  8
0
100
AcDbBlockEnd
  0
BLOCK
  5
29
100
AcDbEntity
  8
0
100
AcDbBlockBegin
  2
_DOTSMALL
 70
     0
 10
0.0
 20
0.0
 30
0.0
  3
_DOTSMALL
  1

  0
POLYLINE
  5
25
100
AcDbEntity
  8
0
  6
BYBLOCK
 62
     0
100
AcDb2dPolyline
 66
     1
 10
0.0
 20
0.0
 30
0.0
 70
     1
 40
0.5
 41
0.5
  0
VERTEX
  5
26
100
AcDbEntity
  8
0
  6
BYBLOCK
 62
     0
100
AcDbVertex
100
AcDb2dVertex
 10
-0.0625
 20
0.0
 30
0.0
 42
1.0
  0
VERTEX
  5
27
100
AcDbEntity
  8
0
  6
BYBLOCK
 62
     0
100
AcDbVertex
100
AcDb2dVertex
 10
0.0625
 20
0.0
 30
0.0
 42
1.0
  0
SEQEND
  5
28
100
AcDbEntity
  8
0
  6
BYBLOCK
 62
     0
  0
ENDBLK
  5
2A
100
AcDbEntity
  8
0
100
AcDbBlockEnd
  0
BLOCK
  5
471
100
AcDbEntity
  8
0
100
AcDbBlockBegin
  2
_OPEN30
 70
     0
 10
0.0
 20
0.0
 30
0.0
  3
_OPEN30
  1

  0
LINE
  5
472
100
AcDbEntity
  8
0
  6
BYBLOCK
 62
     0
100
AcDbLine
 10
-1.0
 20
0.267949
 30
0.0
 11
0.0
 21
0.0
 31
0.0
  0
LINE
  5
473
100
AcDbEntity
  8
0
  6
BYBLOCK
 62
     0
100
AcDbLine
 10
0.0
 20
0.0
 30
0.0
 11
-1.0
 21
-0.267949
 31
0.0
  0
LINE
  5
474
100
AcDbEntity
  8
0
  6
BYBLOCK
 62
     0
100
AcDbLine
 10
0.0
 20
0.0
 30
0.0
 11
-1.0
 21
0.0
 31
0.0
  0
ENDBLK
  5
475
100
AcDbEntity
  8
0
100
AcDbBlockEnd
  0
BLOCK
  5
249A
100
AcDbEntity
  8
0
100
AcDbBlockBegin
  2
*D2
 70
     1
 10
0.0
 20
0.0
 30
0.0
  3
*D2
  1

  0
LINE
  5
249B
100
AcDbEntity
  8
0
  6
BYBLOCK
 62
     1
100
AcDbLine
 10
144.219751
 20
321.107825
 30
0.0
 11
144.219751
 21
301.717942
 31
0.0
  0
LINE
  5
249C
100
AcDbEntity
  8
0
  6
BYBLOCK
 62
     1
100
AcDbLine
 10
159.219751
 20
321.107825
 30
0.0
 11
159.219751
 21
301.717942
 31
0.0
  0
LINE
  5
249D
100
AcDbEntity
  8
0
  6
BYBLOCK
 62
     1
100
AcDbLine
 10
146.219751
 20
303.717942
 30
0.0
 11
157.219751
 21
303.717942
 31
0.0
  0
INSERT
  5
249E
100
AcDbEntity
  8
0
  6
BYBLOCK
 62
     1
100
AcDbBlockReference
  2
_OPEN30
 10
144.219751
 20
303.717942
 30
0.0
 41
2.0
 42
2.0
 43
2.0
 50
180.0
  0
INSERT
  5
249F
100
AcDbEntity
  8
0
  6
BYBLOCK
 62
     1
100
AcDbBlockReference
  2
_OPEN30
 10
159.219751
 20
303.717942
 30
0.0
 41
2.0
 42
2.0
 43
2.0
  0
MTEXT
  5
24A0
100
AcDbEntity
  8
0
  6
BYBLOCK
 62
     3
100
AcDbMText
 10
151.719751
 20
306.217942
 30
0.0
 40
3.0
 41
0.0
 71
     5
 72
     1
  1
\A1;15
  0
POINT
  5
24A1
100
AcDbEntity
  8
DEFPOINTS
  6
BYBLOCK
 62
     0
100
AcDbPoint
 10
144.219751
 20
322.107825
 30
0.0
  0
POINT
  5
24A2
100
AcDbEntity
  8
DEFPOINTS
  6
BYBLOCK
 62
     0
100
AcDbPoint
 10
159.219751
 20
322.107825
 30
0.0
  0
POINT
  5
24A3
100
AcDbEntity
  8
DEFPOINTS
  6
BYBLOCK
 62
     0
100
AcDbPoint
 10
159.219751
 20
303.717942
 30
0.0
  0
ENDBLK
  5
24A4
100
AcDbEntity
  8
0
100
AcDbBlockEnd
  0
BLOCK
  5
24A5
100
AcDbEntity
  8
0
100
AcDbBlockBegin
  2
*D3
 70
     1
 10
0.0
 20
0.0
 30
0.0
  3
*D3
  1

  0
LINE
  5
24A6
100
AcDbEntity
  8
0
  6
BYBLOCK
 62
     1
100
AcDbLine
 10
164.02144
 20
343.130908
 30
0.0
 11
157.311428
 21
333.182253
 31
0.0
  0
LINE
  5
24A7
100
AcDbEntity
  8
0
  6
BYBLOCK
 62
     1
100
AcDbLine
 10
146.128074
 20
316.601162
 30
0.0
 11
145.009738
 21
314.943052
 31
0.0
  0
MTEXT
  5
24A8
100
AcDbEntity
  8
0
  6
BYBLOCK
 62
     3
100
AcDbMText
 10
159.152965
 20
340.383554
 30
0.0
 40
3.0
 41
0.0
 71
     5
 72
     1
  1
\A1;\U+220516
 11
0.559168
 21
0.829055
 31
0.0
  0
LINE
  5
24A9
100
AcDbEntity
  8
0
  6
BYBLOCK
 62
     1
100
AcDbLine
 10
147.246409
 20
318.259271
 30
0.0
 11
156.193092
 21
331.524144
 31
0.0
  0
INSERT
  5
24AA
100
AcDbEntity
  8
0
  6
BYBLOCK
 62
     1
100
AcDbBlockReference
  2
_OPEN30
 10
147.246409
 20
318.259271
 30
0.0
 41
2.0
 42
2.0
 43
2.0
 50
56.001742
  0
INSERT
  5
24AB
100
AcDbEntity
  8
0
  6
BYBLOCK
 62
     1
100
AcDbBlockReference
  2
_OPEN30
 10
156.193092
 20
331.524144
 30
0.0
 41
2.0
 42
2.0
 43
2.0
 50
236.001742
  0
POINT
  5
24AC
100
AcDbEntity
  8
DEFPOINTS
  6
BYBLOCK
 62
     0
100
AcDbPoint
 10
156.193092
 20
331.524144
 30
0.0
  0
POINT
  5
24AD
100
AcDbEntity
  8
DEFPOINTS
  6
BYBLOCK
 62
     0
100
AcDbPoint
 10
147.246409
 20
318.259271
 30
0.0
  0
ENDBLK
  5
24AE
100
AcDbEntity
  8
0
100
AcDbBlockEnd
  0
BLOCK
  5
248F
100
AcDbEntity
  8
0
100
AcDbBlockBegin
  2
*D4
 70
     1
 10
0.0
 20
0.0
 30
0.0
  3
*D4
  1

  0
LINE
  5
2490
100
AcDbEntity
  8
0
  6
BYBLOCK
 62
     1
100
AcDbLine
 10
39.13778
 20
314.891707
 30
0.0
 11
39.13778
 21
290.988512
 31
0.0
  0
LINE
  5
2491
100
AcDbEntity
  8
0
  6
BYBLOCK
 62
     1
100
AcDbLine
 10
239.13778
 20
316.891707
 30
0.0
 11
239.13778
 21
290.988512
 31
0.0
  0
LINE
  5
2492
100
AcDbEntity
  8
0
  6
BYBLOCK
 62
     1
100
AcDbLine
 10
41.13778
 20
292.988512
 30
0.0
 11
237.13778
 21
292.988512
 31
0.0
  0
INSERT
  5
2493
100
AcDbEntity
  8
0
  6
BYBLOCK
 62
     1
100
AcDbBlockReference
  2
_OPEN30
 10
39.13778
 20
292.988512
 30
0.0
 41
2.0
 42
2.0
 43
2.0
 50
180.0
  0
INSERT
  5
2494
100
AcDbEntity
  8
0
  6
BYBLOCK
 62
     1
100
AcDbBlockReference
  2
_OPEN30
 10
239.13778
 20
292.988512
 30
0.0
 41
2.0
 42
2.0
 43
2.0
  0
MTEXT
  5
2495
100
AcDbEntity
  8
0
  6
BYBLOCK
 62
     3
100
AcDbMText
 10
139.13778
 20
295.488512
 30
0.0
 40
3.0
 41
0.0
 71
     5
 72
     1
  1
\A1;200
  0
POINT
  5
2496
100
AcDbEntity
  8
DEFPOINTS
  6
BYBLOCK
 62
     0
100
AcDbPoint
 10
39.13778
 20
315.891707
 30
0.0
  0
POINT
  5
2497
100
AcDbEntity
  8
DEFPOINTS
  6
BYBLOCK
 62
     0
100
AcDbPoint
 10
239.13778
 20
317.891707
 30
0.0
  0
POINT
  5
2498
100
AcDbEntity
  8
DEFPOINTS
  6
BYBLOCK
 62
     0
100
AcDbPoint
 10
239.13778
 20
292.988512
 30
0.0
  0
ENDBLK
  5
2499
100
AcDbEntity
  8
0
100
AcDbBlockEnd
  0
BLOCK
  5
261F
100
AcDbEntity
  8
0
100
AcDbBlockBegin
  2
*D5
 70
     1
 10
0.0
 20
0.0
 30
0.0
  3
*D5
  1

  0
LINE
  5
2620
100
AcDbEntity
  8
0
  6
BYBLOCK
 62
     1
100
AcDbLine
 10
11.148315
 20
234.320408
 30
0.0
 11
7.77738
 21
234.320408
 31
0.0
  0
LINE
  5
2621
100
AcDbEntity
  8
0
  6
BYBLOCK
 62
     1
100
AcDbLine
 10
16.343625
 20
224.320408
 30
0.0
 11
7.77738
 21
224.320408
 31
0.0
  0
LINE
  5
2622
100
AcDbEntity
  8
0
  6
BYBLOCK
 62
     1
100
AcDbLine
 10
9.77738
 20
232.320408
 30
0.0
 11
9.77738
 21
226.320408
 31
0.0
  0
INSERT
  5
2623
100
AcDbEntity
  8
0
  6
BYBLOCK
 62
     1
100
AcDbBlockReference
  2
_OPEN30
 10
9.77738
 20
234.320408
 30
0.0
 41
2.0
 42
2.0
 43
2.0
 50
90.0
  0
INSERT
  5
2624
100
AcDbEntity
  8
0
  6
BYBLOCK
 62
     1
100
AcDbBlockReference
  2
_OPEN30
 10
9.77738
 20
224.320408
 30
0.0
 41
2.0
 42
2.0
 43
2.0
 50
270.0
  0
MTEXT
  5
2625
100
AcDbEntity
  8
0
  6
BYBLOCK
 62
     3
100
AcDbMText
 10
7.27738
 20
229.320408
 30
0.0
 40
3.0
 41
0.0
 71
     5
 72
     1
  1
\A1;10
 11
0.0
 21
1.0
 31
0.0
  0
POINT
  5
2626
100
AcDbEntity
  8
DEFPOINTS
  6
BYBLOCK
 62
     0
100
AcDbPoint
 10
12.148315
 20
234.320408
 30
0.0
  0
POINT
  5
2627
100
AcDbEntity
  8
DEFPOINTS
  6
BYBLOCK
 62
     0
100
AcDbPoint
 10
17.343625
 20
224.320408
 30
0.0
  0
POINT
  5
2628
100
AcDbEntity
  8
DEFPOINTS
  6
BYBLOCK
 62
     0
100
AcDbPoint
 10
9.77738
 20
224.320408
 30
0.0
  0
ENDBLK
  5
2629
100
AcDbEntity
  8
0
100
AcDbBlockEnd
  0
BLOCK
  5
283B
100
AcDbEntity
  8
0
100
AcDbBlockBegin
  2
*D6
 70
     1
 10
0.0
 20
0.0
 30
0.0
  3
*D6
  1

  0
LINE
  5
283C
100
AcDbEntity
  8
0
  6
BYBLOCK
 62
     1
100
AcDbLine
 10
-20.67595
 20
223.301408
 30
0.0
 11
-21.664655
 21
204.435793
 31
0.0
  0
LINE
  5
283D
100
AcDbEntity
  8
0
  6
BYBLOCK
 62
     1
100
AcDbLine
 10
-20.623614
 20
220.345523
 30
0.0
 11
-20.623614
 21
204.408532
 31
0.0
  0
ARC
  5
283E
100
AcDbEntity
  8
0
  6
BYBLOCK
 62
     1
100
AcDbCircle
 10
-20.623614
 20
224.300037
 30
0.0
 40
17.891505
100
AcDbArc
 50
254.163565
 51
267.0
  0
LINE
  5
283F
100
AcDbEntity
  8
0
  6
BYBLOCK
 62
     1
100
AcDbLine
 10
-25.506064
 20
207.087611
 30
0.0
 11
-33.779648
 21
209.434482
 31
0.0
  0
ARC
  5
2840
100
AcDbEntity
  8
0
  6
BYBLOCK
 62
     1
100
AcDbCircle
 10
-20.623614
 20
224.300037
 30
0.0
 40
17.891505
100
AcDbArc
 50
254.183716
 51
260.591858
  0
ARC
  5
2841
100
AcDbEntity
  8
0
  6
BYBLOCK
 62
     1
100
AcDbCircle
 10
-20.623614
 20
224.300037
 30
0.0
 40
17.891505
100
AcDbArc
 50
276.408142
 51
282.816284
  0
ARC
  5
2842
100
AcDbEntity
  8
0
  6
BYBLOCK
 62
     1
100
AcDbCircle
 10
-20.623614
 20
224.300037
 30
0.0
 40
17.891505
100
AcDbArc
 50
267.0
 51
270.0
  0
INSERT
  5
2843
100
AcDbEntity
  8
0
  6
BYBLOCK
 62
     1
100
AcDbBlockReference
  2
_OPEN30
 10
-21.559983
 20
206.433052
 30
0.0
 41
2.0
 42
2.0
 43
2.0
 50
353.795929
  0
INSERT
  5
2844
100
AcDbEntity
  8
0
  6
BYBLOCK
 62
     1
100
AcDbBlockReference
  2
_OPEN30
 10
-20.623614
 20
206.408532
 30
0.0
 41
2.0
 42
2.0
 43
2.0
 50
183.204071
  0
MTEXT
  5
2845
100
AcDbEntity
  8
0
  6
BYBLOCK
 62
     3
100
AcDbMText
 10
-28.960626
 20
210.666158
 30
0.0
 40
3.0
 41
0.0
 71
     5
 72
     1
  1
\A1;3°
 11
0.962045
 21
-0.272892
 31
0.0
  0
POINT
  5
2846
100
AcDbEntity
  8
DEFPOINTS
  6
BYBLOCK
 62
     0
100
AcDbPoint
 10
-20.935864
 20
206.411257
 30
0.0
  0
POINT
  5
2847
100
AcDbEntity
  8
DEFPOINTS
  6
BYBLOCK
 62
     0
100
AcDbPoint
 10
-20.623614
 20
224.300037
 30
0.0
  0
POINT
  5
2848
100
AcDbEntity
  8
DEFPOINTS
  6
BYBLOCK
 62
     0
100
AcDbPoint
 10
-20.623614
 20
244.044062
 30
0.0
  0
POINT
  5
2849
100
AcDbEntity
  8
DEFPOINTS
  6
BYBLOCK
 62
     0
100
AcDbPoint
 10
-20.623614
 20
221.345523
 30
0.0
  0
POINT
  5
284A
100
AcDbEntity
  8
DEFPOINTS
  6
BYBLOCK
 62
     0
100
AcDbPoint
 10
-19.696425
 20
241.991865
 30
0.0
  0
ENDBLK
  5
284B
100
AcDbEntity
  8
0
100
AcDbBlockEnd
  0
BLOCK
  5
2876
100
AcDbEntity
  8
0
100
AcDbBlockBegin
  2
*D7
 70
     1
 10
0.0
 20
0.0
 30
0.0
  3
*D7
  1

  0
LINE
  5
2877
100
AcDbEntity
  8
0
  6
BYBLOCK
 62
     1
100
AcDbLine
 10
25.166559
 20
185.023915
 30
0.0
 11
9.264752
 21
186.415142
 31
0.0
  0
LINE
  5
2878
100
AcDbEntity
  8
0
  6
BYBLOCK
 62
     1
100
AcDbLine
 10
19.940827
 20
184.936759
 30
0.0
 11
9.200204
 21
184.936759
 31
0.0
  0
ARC
  5
2879
100
AcDbEntity
  8
0
  6
BYBLOCK
 62
     1
100
AcDbCircle
 10
26.162754
 20
184.936759
 30
0.0
 40
14.96255
100
AcDbArc
 50
159.636901
 51
175.0
  0
LINE
  5
287A
100
AcDbEntity
  8
0
  6
BYBLOCK
 62
     1
100
AcDbLine
 10
12.135269
 20
190.143252
 30
0.0
 11
15.127797
 21
198.205806
 31
0.0
  0
ARC
  5
287B
100
AcDbEntity
  8
0
  6
BYBLOCK
 62
     1
100
AcDbCircle
 10
26.162754
 20
184.936759
 30
0.0
 40
14.96255
100
AcDbArc
 50
159.671458
 51
167.335729
  0
ARC
  5
287C
100
AcDbEntity
  8
0
  6
BYBLOCK
 62
     1
100
AcDbCircle
 10
26.162754
 20
184.936759
 30
0.0
 40
14.96255
100
AcDbArc
 50
187.664271
 51
195.328542
  0
ARC
  5
287D
100
AcDbEntity
  8
0
  6
BYBLOCK
 62
     1
100
AcDbCircle
 10
26.162754
 20
184.936759
 30
0.0
 40
14.96255
100
AcDbArc
 50
175.0
 51
180.0
  0
INSERT
  5
287E
100
AcDbEntity
  8
0
  6
BYBLOCK
 62
     1
100
AcDbBlockReference
  2
_OPEN30
 10
11.257141
 20
186.240831
 30
0.0
 41
2.0
 42
2.0
 43
2.0
 50
261.167864
  0
INSERT
  5
287F
100
AcDbEntity
  8
0
  6
BYBLOCK
 62
     1
100
AcDbBlockReference
  2
_OPEN30
 10
11.200204
 20
184.936759
 30
0.0
 41
2.0
 42
2.0
 43
2.0
 50
93.832136
  0
MTEXT
  5
2880
100
AcDbEntity
  8
0
  6
BYBLOCK
 62
     3
100
AcDbMText
 10
11.287767
 20
195.04445
 30
0.0
 40
3.0
 41
0.0
 71
     5
 72
     1
  1
\A1;5°
 11
0.347968
 21
0.937506
 31
0.0
  0
POINT
  5
2881
100
AcDbEntity
  8
DEFPOINTS
  6
BYBLOCK
 62
     0
100
AcDbPoint
 10
11.206534
 20
185.37194
 30
0.0
  0
POINT
  5
2882
100
AcDbEntity
  8
DEFPOINTS
  6
BYBLOCK
 62
     0
100
AcDbPoint
 10
20.940827
 20
184.936759
 30
0.0
  0
POINT
  5
2883
100
AcDbEntity
  8
DEFPOINTS
  6
BYBLOCK
 62
     0
100
AcDbPoint
 10
35.8121
 20
184.09255
 30
0.0
  0
POINT
  5
2884
100
AcDbEntity
  8
DEFPOINTS
  6
BYBLOCK
 62
     0
100
AcDbPoint
 10
26.162754
 20
184.936759
 30
0.0
  0
POINT
  5
2885
100
AcDbEntity
  8
DEFPOINTS
  6
BYBLOCK
 62
     0
100
AcDbPoint
 10
232.656673
 20
184.936759
 30
0.0
  0
ENDBLK
  5
2886
100
AcDbEntity
  8
0
100
AcDbBlockEnd
  0
BLOCK
  5
2887
100
AcDbEntity
  8
0
100
AcDbBlockBegin
  2
*D8
 70
     1
 10
0.0
 20
0.0
 30
0.0
  3
*D8
  1

  0
LINE
  5
2888
100
AcDbEntity
  8
0
  6
BYBLOCK
 62
     1
100
AcDbLine
 10
26.162754
 20
183.936759
 30
0.0
 11
26.162754
 21
160.378846
 31
0.0
  0
LINE
  5
2889
100
AcDbEntity
  8
0
  6
BYBLOCK
 62
     1
100
AcDbLine
 10
56.162754
 20
175.936759
 30
0.0
 11
56.162754
 21
160.378846
 31
0.0
  0
LINE
  5
288A
100
AcDbEntity
  8
0
  6
BYBLOCK
 62
     1
100
AcDbLine
 10
28.162754
 20
162.378846
 30
0.0
 11
54.162754
 21
162.378846
 31
0.0
  0
INSERT
  5
288B
100
AcDbEntity
  8
0
  6
BYBLOCK
 62
     1
100
AcDbBlockReference
  2
_OPEN30
 10
26.162754
 20
162.378846
 30
0.0
 41
2.0
 42
2.0
 43
2.0
 50
180.0
  0
INSERT
  5
288C
100
AcDbEntity
  8
0
  6
BYBLOCK
 62
     1
100
AcDbBlockReference
  2
_OPEN30
 10
56.162754
 20
162.378846
 30
0.0
 41
2.0
 42
2.0
 43
2.0
  0
MTEXT
  5
288D
100
AcDbEntity
  8
0
  6
BYBLOCK
 62
     3
100
AcDbMText
 10
41.162754
 20
164.878846
 30
0.0
 40
3.0
 41
0.0
 71
     5
 72
     1
  1
\A1;30
  0
POINT
  5
288E
100
AcDbEntity
  8
DEFPOINTS
  6
BYBLOCK
 62
     0
100
AcDbPoint
 10
26.162754
 20
184.936759
 30
0.0
  0
POINT
  5
288F
100
AcDbEntity
  8
DEFPOINTS
  6
BYBLOCK
 62
     0
100
AcDbPoint
 10
56.162754
 20
176.936759
 30
0.0
  0
POINT
  5
2890
100
AcDbEntity
  8
DEFPOINTS
  6
BYBLOCK
 62
     0
100
AcDbPoint
 10
56.162754
 20
162.378846
 30
0.0
  0
ENDBLK
  5
2891
100
AcDbEntity
  8
0
100
AcDbBlockEnd
  0
BLOCK
  5
28C9
100
AcDbEntity
  8
0
100
AcDbBlockBegin
  2
*D9
 70
     1
 10
0.0
 20
0.0
 30
0.0
  3
*D9
  1

  0
LINE
  5
28CA
100
AcDbEntity
  8
0
  6
BYBLOCK
 62
     1
100
AcDbLine
 10
27.438227
 20
245.809638
 30
0.0
 11
27.855952
 21
250.584249
 31
0.0
  0
LINE
  5
28CB
100
AcDbEntity
  8
0
  6
BYBLOCK
 62
     1
100
AcDbLine
 10
25.126364
 20
230.814965
 30
0.0
 11
6.281565
 21
230.814965
 31
0.0
  0
ARC
  5
28CC
100
AcDbEntity
  8
0
  6
BYBLOCK
 62
     1
100
AcDbCircle
 10
26.126364
 20
230.814965
 30
0.0
 40
17.844799
100
AcDbArc
 50
91.424932
 51
173.575068
  0
INSERT
  5
28CD
100
AcDbEntity
  8
0
  6
BYBLOCK
 62
     1
100
AcDbBlockReference
  2
_OPEN30
 10
27.68164
 20
248.591859
 30
0.0
 41
2.0
 42
2.0
 43
2.0
 50
358.212466
  0
INSERT
  5
28CE
100
AcDbEntity
  8
0
  6
BYBLOCK
 62
     1
100
AcDbBlockReference
  2
_OPEN30
 10
8.281565
 20
230.814965
 30
0.0
 41
2.0
 42
2.0
 43
2.0
 50
266.787534
  0
MTEXT
  5
28CF
100
AcDbEntity
  8
0
  6
BYBLOCK
 62
     3
100
AcDbMText
 10
12.381617
 20
245.814724
 30
0.0
 40
3.0
 41
0.0
 71
     5
 72
     1
  1
\A1;95°
 11
0.737277
 21
0.67559
 31
0.0
  0
POINT
  5
28D0
100
AcDbEntity
  8
DEFPOINTS
  6
BYBLOCK
 62
     0
100
AcDbPoint
 10
18.117632
 20
246.76166
 30
0.0
  0
POINT
  5
28D1
100
AcDbEntity
  8
DEFPOINTS
  6
BYBLOCK
 62
     0
100
AcDbPoint
 10
26.597616
 20
230.814965
 30
0.0
  0
POINT
  5
28D2
100
AcDbEntity
  8
DEFPOINTS
  6
BYBLOCK
 62
     0
100
AcDbPoint
 10
26.164276
 20
231.248305
 30
0.0
  0
POINT
  5
28D3
100
AcDbEntity
  8
DEFPOINTS
  6
BYBLOCK
 62
     0
100
AcDbPoint
 10
27.351072
 20
244.813443
 30
0.0
  0
POINT
  5
28D4
100
AcDbEntity
  8
DEFPOINTS
  6
BYBLOCK
 62
     0
100
AcDbPoint
 10
26.295615
 20
230.814965
 30
0.0
  0
ENDBLK
  5
28D5
100
AcDbEntity
  8
0
100
AcDbBlockEnd
  0
ENDSEC
  0
SECTION
  2
ENTITIES
  0
TEXT
  5
1453
100
AcDbEntity
  8
外形
  6
CONTINUOUS
 62
     2
100
AcDbText
 10
81.945496
 20
150.213866
 30
0.0
 40
6.0
  1
WBPC316RS
100
AcDbText
  0
LINE
  5
1A59
100
AcDbEntity
  8
外形
  6
CENTER
 62
     1
100
AcDbLine
 10
37.562692
 20
236.012467
 30
0.0
 11
24.799471
 21
236.012467
 31
0.0
  0
LINE
  5
21C5
100
AcDbEntity
  8
外形
  6
CENTER
 62
     1
100
AcDbLine
 10
31.361778
 20
229.912507
 30
0.0
 11
31.361778
 21
241.790288
 31
0.0
  0
ARC
  5
21CA
100
AcDbEntity
  8
外形
  6
CONTINUOUS
100
AcDbCircle
 10
26.562754
 20
231.213443
 30
0.0
 40
0.4
100
AcDbArc
 50
175.0
 51
275.0
  0
LINE
  5
21CC
100
AcDbEntity
  8
外形
  6
CONTINUOUS
100
AcDbLine
 10
35.787115
 20
231.950746
 30
0.0
 11
36.55928
 21
240.776629
 31
0.0
  0
LINE
  5
21CD
100
AcDbEntity
  8
外形
  6
CONTINUOUS
100
AcDbLine
 10
26.965694
 20
240.408552
 30
0.0
 11
36.12594
 21
241.209969
 31
0.0
  0
ARC
  5
21CE
100
AcDbEntity
  8
外形
  6
CONTINUOUS
100
AcDbCircle
 10
27.334919
 20
240.039327
 30
0.0
 40
0.4
100
AcDbArc
 50
95.0
 51
175.0
  0
ARC
  5
21CF
100
AcDbEntity
  8
外形
  6
CONTINUOUS
100
AcDbCircle
 10
36.160802
 20
240.811492
 30
0.0
 40
0.4
100
AcDbArc
 50
355.0
 51
95.0
  0
ARC
  5
21D0
100
AcDbEntity
  8
外形
  6
CONTINUOUS
100
AcDbCircle
 10
35.388638
 20
231.985608
 30
0.0
 40
0.4
100
AcDbArc
 50
275.0
 51
355.0
  0
ARC
  5
21D5
100
AcDbEntity
  8
外形
  6
CONTINUOUS
100
AcDbCircle
 10
35.461778
 20
240.112467
 30
0.0
 40
1.75
100
AcDbArc
 50
315.0
 51
135.0
  0
LINE
  5
21D7
100
AcDbEntity
  8
外形
  6
CONTINUOUS
100
AcDbLine
 10
34.224341
 20
241.349904
 30
0.0
 11
33.888671
 21
241.014234
 31
0.0
  0
LINE
  5
21D8
100
AcDbEntity
  8
外形
  6
CONTINUOUS
100
AcDbLine
 10
36.699215
 20
238.87503
 30
0.0
 11
36.363544
 21
238.53936
 31
0.0
  0
LINE
  5
21DA
100
AcDbEntity
  8
外形
  6
CONTINUOUS
100
AcDbLine
 10
26.164276
 20
231.248305
 30
0.0
 11
27.351072
 21
244.813443
 31
0.0
  0
LINE
  5
21DB
100
AcDbEntity
  8
外形
  6
CONTINUOUS
100
AcDbLine
 10
26.597616
 20
230.814965
 30
0.0
 11
35.4235
 21
231.58713
 31
0.0
  0
LINE
  5
21DE
100
AcDbEntity
  8
寸法
  6
CONTINUOUS
100
AcDbLine
 10
26.162754
 20
231.563443
 30
0.0
 11
26.162754
 21
250.582557
 31
0.0
  0
LINE
  5
21E0
100
AcDbEntity
  8
外形
  6
CENTER
 62
     1
100
AcDbLine
 10
20.940827
 20
240.813443
 30
0.0
 11
232.656673
 21
240.813443
 31
0.0
  0
LINE
  5
21EA
100
AcDbEntity
  8
外形
  6
CENTER
 62
     1
100
AcDbLine
 10
20.940827
 20
184.936759
 30
0.0
 11
232.656673
 21
184.936759
 31
0.0
  0
LINE
  5
21FE
100
AcDbEntity
  8
外形
  6
CONTINUOUS
100
AcDbLine
 10
50.395993
 20
248.813443
 30
0.0
 11
126.06372
 21
248.813443
 31
0.0
  0
LINE
  5
2203
100
AcDbEntity
  8
外形
  6
CONTINUOUS
100
AcDbLine
 10
50.395993
 20
232.813443
 30
0.0
 11
126.06372
 21
232.813443
 31
0.0
  0
LINE
  5
220A
100
AcDbEntity
  8
外形
  6
CONTINUOUS
100
AcDbLine
 10
226.162754
 20
232.813443
 30
0.0
 11
226.162754
 21
246.813443
 31
0.0
  0
LINE
  5
220B
100
AcDbEntity
  8
外形
  6
CONTINUOUS
100
AcDbLine
 10
225.162754
 20
231.813443
 30
0.0
 11
225.162754
 21
237.029561
 31
0.0
  0
LINE
  5
220C
100
AcDbEntity
  8
外形
  6
CONTINUOUS
100
AcDbLine
 10
225.162754
 20
247.813443
 30
0.0
 11
226.162754
 21
246.813443
 31
0.0
  0
LINE
  5
220D
100
AcDbEntity
  8
外形
  6
CONTINUOUS
100
AcDbLine
 10
225.162754
 20
231.813443
 30
0.0
 11
226.162754
 21
232.813443
 31
0.0
  0
LINE
  5
220E
100
AcDbEntity
  8
外形
  6
CENTER
 62
     1
100
AcDbLine
 10
138.744724
 20
227.2656
 30
0.0
 11
138.744724
 21
252.739977
 31
0.0
  0
ARC
  5
220F
100
AcDbEntity
  8
外形
  6
CONTINUOUS
100
AcDbCircle
 10
138.744724
 20
239.813443
 30
0.0
 40
8.0
100
AcDbArc
 50
20.364135
 51
159.635865
  0
LINE
  5
2210
100
AcDbEntity
  8
外形
  6
CONTINUOUS
100
AcDbLine
 10
131.244724
 20
237.029561
 30
0.0
 11
131.244724
 21
242.597325
 31
0.0
  0
LINE
  5
2211
100
AcDbEntity
  8
外形
  6
CONTINUOUS
100
AcDbLine
 10
146.244724
 20
242.597325
 30
0.0
 11
146.244724
 21
237.029561
 31
0.0
  0
ARC
  5
2214
100
AcDbEntity
  8
外形
  6
CONTINUOUS
100
AcDbCircle
 10
138.744724
 20
239.813443
 30
0.0
 40
8.0
100
AcDbArc
 50
200.364135
 51
339.635865
  0
LINE
  5
2215
100
AcDbEntity
  8
外形
  6
CONTINUOUS
100
AcDbLine
 10
126.06372
 20
243.597325
 30
0.0
 11
46.788718
 21
243.597325
 31
0.0
  0
LINE
  5
2216
100
AcDbEntity
  8
外形
  6
CONTINUOUS
100
AcDbLine
 10
126.06372
 20
238.029561
 30
0.0
 11
50.003268
 21
238.029561
 31
0.0
  0
LINE
  5
2217
100
AcDbEntity
  8
外形
  6
CONTINUOUS
100
AcDbLine
 10
151.003028
 20
242.597325
 30
0.0
 11
225.162754
 21
242.597325
 31
0.0
  0
LINE
  5
2218
100
AcDbEntity
  8
外形
  6
CONTINUOUS
100
AcDbLine
 10
151.003028
 20
237.029561
 30
0.0
 11
225.162754
 21
237.029561
 31
0.0
  0
LINE
  5
2219
100
AcDbEntity
  8
外形
  6
CONTINUOUS
100
AcDbLine
 10
151.003028
 20
247.813443
 30
0.0
 11
225.162754
 21
247.813443
 31
0.0
  0
LINE
  5
221A
100
AcDbEntity
  8
外形
  6
CONTINUOUS
100
AcDbLine
 10
151.003028
 20
231.813443
 30
0.0
 11
225.162754
 21
231.813443
 31
0.0
  0
ELLIPSE
  5
221F
100
AcDbEntity
  8
外形
  6
CONTINUOUS
100
AcDbEllipse
 10
225.162754
 20
239.813443
 30
0.0
 11
0.0
 21
2.783882181416629
 31
0.0
210
0.0
220
0.0
230
1.0
 40
0.179605
 41
3.141592653589793
 42
6.283185307179586
  0
LINE
  5
2220
100
AcDbEntity
  8
外形
  6
CONTINUOUS
100
AcDbLine
 10
225.162754
 20
242.597325
 30
0.0
 11
225.162754
 21
247.813443
 31
0.0
  0
ARC
  5
2224
100
AcDbEntity
  8
外形
  6
CONTINUOUS
100
AcDbCircle
 10
31.361778
 20
237.343145
 30
0.0
 40
0.378
100
AcDbArc
 50
240.283476
 51
299.716524
  0
ARC
  5
2225
100
AcDbEntity
  8
外形
  6
CONTINUOUS
100
AcDbCircle
 10
30.209378
 20
236.677806
 30
0.0
 40
0.378
100
AcDbArc
 50
300.283476
 51
359.716524
  0
ARC
  5
2226
100
AcDbEntity
  8
外形
  6
CONTINUOUS
100
AcDbCircle
 10
30.209378
 20
235.347129
 30
0.0
 40
0.378
100
AcDbArc
 50
0.283476
 51
59.716524
  0
ARC
  5
2227
100
AcDbEntity
  8
外形
  6
CONTINUOUS
100
AcDbCircle
 10
31.361778
 20
234.68179
 30
0.0
 40
0.378
100
AcDbArc
 50
60.283476
 51
119.716524
  0
ARC
  5
2228
100
AcDbEntity
  8
外形
  6
CONTINUOUS
100
AcDbCircle
 10
32.514178
 20
235.347129
 30
0.0
 40
0.378
100
AcDbArc
 50
120.283476
 51
179.716524
  0
ARC
  5
2229
100
AcDbEntity
  8
外形
  6
CONTINUOUS
100
AcDbCircle
 10
32.514178
 20
236.677806
 30
0.0
 40
0.378
100
AcDbArc
 50
180.283476
 51
239.716524
  0
LINE
  5
222A
100
AcDbEntity
  8
外形
  6
CONTINUOUS
100
AcDbLine
 10
32.132858
 20
234.676918
 30
0.0
 11
31.549156
 21
235.010079
 31
0.0
  0
LINE
  5
222B
100
AcDbEntity
  8
外形
  6
CONTINUOUS
100
AcDbLine
 10
32.136183
 20
235.348999
 30
0.0
 11
32.132858
 21
234.676918
 31
0.0
  0
LINE
  5
222C
100
AcDbEntity
  8
外形
  6
CONTINUOUS
100
AcDbLine
 10
30.590698
 20
234.676918
 30
0.0
 11
30.587373
 21
235.348999
 31
0.0
  0
LINE
  5
222D
100
AcDbEntity
  8
外形
  6
CONTINUOUS
100
AcDbLine
 10
31.1744
 20
235.010079
 30
0.0
 11
30.590698
 21
234.676918
 31
0.0
  0
LINE
  5
222E
100
AcDbEntity
  8
外形
  6
CONTINUOUS
100
AcDbLine
 10
29.819618
 20
236.012467
 30
0.0
 11
30.399995
 21
236.351387
 31
0.0
  0
LINE
  5
222F
100
AcDbEntity
  8
外形
  6
CONTINUOUS
100
AcDbLine
 10
30.399995
 20
235.673547
 30
0.0
 11
29.819618
 21
236.012467
 31
0.0
  0
LINE
  5
2230
100
AcDbEntity
  8
外形
  6
CONTINUOUS
100
AcDbLine
 10
30.590698
 20
237.348017
 30
0.0
 11
31.1744
 21
237.014856
 31
0.0
  0
LINE
  5
2231
100
AcDbEntity
  8
外形
  6
CONTINUOUS
100
AcDbLine
 10
30.587373
 20
236.675936
 30
0.0
 11
30.590698
 21
237.348017
 31
0.0
  0
LINE
  5
2232
100
AcDbEntity
  8
外形
  6
CONTINUOUS
100
AcDbLine
 10
32.132858
 20
237.348017
 30
0.0
 11
32.136183
 21
236.675936
 31
0.0
  0
LINE
  5
2233
100
AcDbEntity
  8
外形
  6
CONTINUOUS
100
AcDbLine
 10
31.549156
 20
237.014856
 30
0.0
 11
32.132858
 21
237.348017
 31
0.0
  0
LINE
  5
2234
100
AcDbEntity
  8
外形
  6
CONTINUOUS
100
AcDbLine
 10
32.903938
 20
236.012467
 30
0.0
 11
32.323561
 21
235.673547
 31
0.0
  0
LINE
  5
2235
100
AcDbEntity
  8
外形
  6
CONTINUOUS
100
AcDbLine
 10
32.323561
 20
236.351387
 30
0.0
 11
32.903938
 21
236.012467
 31
0.0
  0
CIRCLE
  5
2236
100
AcDbEntity
  8
外形
  6
CONTINUOUS
100
AcDbCircle
 10
31.361778
 20
236.012467
 30
0.0
 40
2.5515
  0
LINE
  5
223C
100
AcDbEntity
  8
外形
  6
CENTER
 62
     1
100
AcDbLine
 10
-11.831102
 20
250.537097
 30
0.0
 11
-11.831102
 21
227.838558
 31
0.0
  0
LINE
  5
223D
100
AcDbEntity
  8
外形
  6
CENTER
 62
     1
100
AcDbLine
 10
0.12463
 20
240.813443
 30
0.0
 11
-23.936581
 21
240.813443
 31
0.0
  0
LINE
  5
2249
100
AcDbEntity
  8
外形
  6
CONTINUOUS
100
AcDbLine
 10
-11.831102
 20
230.793073
 30
0.0
 11
-10.903912
 21
248.4849
 31
0.0
  0
LINE
  5
224B
100
AcDbEntity
  8
外形
  6
CONTINUOUS
100
AcDbLine
 10
-11.831102
 20
230.793073
 30
0.0
 11
-14.974393
 21
231.576783
 31
0.0
  0
LINE
  5
224C
100
AcDbEntity
  8
外形
  6
CONTINUOUS
100
AcDbLine
 10
-14.974393
 20
231.576783
 30
0.0
 11
-14.536925
 21
239.924178
 31
0.0
  0
LINE
  5
224E
100
AcDbEntity
  8
外形
  6
CONTINUOUS
100
AcDbLine
 10
-14.536925
 20
239.924178
 30
0.0
 11
-11.328933
 21
240.375032
 31
0.0
  0
LINE
  5
2341
100
AcDbEntity
  8
外形
  6
CONTINUOUS
100
AcDbLine
 10
46.555479
 20
192.436759
 30
0.0
 11
225.662754
 21
192.436759
 31
0.0
  0
SPLINE
  5
2390
100
AcDbEntity
  8
外形
  6
CONTINUOUS
100
AcDbSpline
210
0.0
220
0.0
230
1.0
 70
     8
 71
     3
 72
    13
 73
     9
 74
     0
 42
0.0000001
 43
0.0000001
 40
0.0
 40
0.0
 40
0.0
 40
0.0
 40
2.52611807233319
 40
5.428352679235223
 40
8.109750532114251
 40
10.65955559236314
 40
13.09575929210658
 40
19.49701486558548
 40
19.49701486558548
 40
19.49701486558548
 40
19.49701486558548
 10
46.55547865240904
 20
192.4367588401745
 30
0.0
 10
45.73451675464772
 20
192.2472388530501
 30
0.0
 10
43.97035902739369
 20
191.8399810367419
 30
0.0
 10
41.41108889093198
 20
190.9585078862281
 30
0.0
 10
38.87177893941162
 20
190.0099412436451
 30
0.0
 10
36.49422114520298
 20
189.0730306007868
 30
0.0
 10
33.04871906365976
 20
187.4571900096029
 30
0.0
 10
30.16612135869566
 20
186.8206737066568
 30
0.0
 10
28.05306919148803
 20
186.4339083446032
 30
0.0
  0
LINE
  5
239A
100
AcDbEntity
  8
外形
  6
CONTINUOUS
100
AcDbLine
 10
28.053069
 20
186.433908
 30
0.0
 11
26.162754
 21
184.936759
 31
0.0
  0
LINE
  5
239B
100
AcDbEntity
  8
外形
  6
CONTINUOUS
100
AcDbLine
 10
35.8121
 20
184.09255
 30
0.0
 11
26.162754
 21
184.936759
 31
0.0
  0
LINE
  5
239D
100
AcDbEntity
  8
外形
  6
CONTINUOUS
100
AcDbLine
 10
35.086102
 20
180.357611
 30
0.0
 11
35.976198
 21
184.936759
 31
0.0
  0
LINE
  5
239F
100
AcDbEntity
  8
外形
  6
CONTINUOUS
100
AcDbLine
 10
35.086102
 20
180.357611
 30
0.0
 11
26.913872
 21
181.072588
 31
0.0
  0
LINE
  5
23A0
100
AcDbEntity
  8
外形
  6
CONTINUOUS
100
AcDbLine
 10
26.162754
 20
184.936759
 30
0.0
 11
27.960772
 21
175.686759
 31
0.0
  0
LINE
  5
23A1
100
AcDbEntity
  8
外形
  6
CONTINUOUS
100
AcDbLine
 10
35.976198
 20
184.936759
 30
0.0
 11
26.965694
 21
185.572696
 31
0.0
  0
SPLINE
  5
23A9
100
AcDbEntity
  8
外形
  6
CONTINUOUS
100
AcDbSpline
210
0.0
220
0.0
230
1.0
 70
     8
 71
     3
 72
    14
 73
    10
 74
     0
 42
0.0000001
 43
0.0000001
 40
0.0
 40
0.0
 40
0.0
 40
0.0
 40
1.556476490552232
 40
3.208944592910507
 40
5.034907224877228
 40
6.973678550595448
 40
8.982263948636404
 40
11.47604649576997
 40
11.53110289747012
 40
11.53110289747012
 40
11.53110289747012
 40
11.53110289747012
 10
49.77002890607423
 20
192.4367588401745
 30
0.0
 10
49.43773303948301
 20
192.0372503252119
 30
0.0
 10
48.75264782886986
 20
191.2135946537692
 30
0.0
 10
47.46906517156144
 20
190.1212751241707
 30
0.0
 10
45.98952438268101
 20
189.0858476963365
 30
0.0
 10
44.35773039749226
 20
188.0621288402362
 30
0.0
 10
42.53214460310121
 20
186.9436459177702
 30
0.0
 10
41.14752421772929
 20
186.2625296845603
 30
0.0
 10
40.33976161951737
 20
186.0215738231924
 30
0.0
 10
40.3222980960701
 20
186.0164335324054
 30
0.0
  0
LINE
  5
23AA
100
AcDbEntity
  8
外形
  6
CONTINUOUS
100
AcDbLine
 10
56.162754
 20
177.436759
 30
0.0
 11
225.662754
 21
177.436759
 31
0.0
  0
LINE
  5
23AD
100
AcDbEntity
  8
外形
  6
CONTINUOUS
100
AcDbLine
 10
56.162754
 20
177.436759
 30
0.0
 11
56.162754
 21
176.936759
 31
0.0
  0
LINE
  5
23AE
100
AcDbEntity
  8
外形
  6
CONTINUOUS
100
AcDbLine
 10
225.662754
 20
192.436759
 30
0.0
 11
226.162754
 21
191.936759
 31
0.0
  0
LINE
  5
23AF
100
AcDbEntity
  8
外形
  6
CONTINUOUS
100
AcDbLine
 10
225.162754
 20
177.436759
 30
0.0
 11
225.162754
 21
192.436759
 31
0.0
  0
LINE
  5
23B0
100
AcDbEntity
  8
外形
  6
CONTINUOUS
100
AcDbLine
 10
226.162754
 20
177.936759
 30
0.0
 11
226.162754
 21
191.936759
 31
0.0
  0
LINE
  5
23B1
100
AcDbEntity
  8
外形
  6
CONTINUOUS
100
AcDbLine
 10
225.662754
 20
177.436759
 30
0.0
 11
226.162754
 21
177.936759
 31
0.0
  0
ELLIPSE
  5
23B5
100
AcDbEntity
  8
外形
  6
CONTINUOUS
100
AcDbEllipse
 10
50.395993
 20
240.813443
 30
0.0
 11
0.0
 21
2.783882181416629
 31
0.0
210
0.0
220
0.0
230
1.0
 40
0.179605
 41
0.0
 42
3.141592653589793
  0
LINE
  5
23E7
100
AcDbEntity
  8
寸法
  6
CONTINUOUS
100
AcDbLine
 10
26.162754
 20
230.813443
 30
0.0
 11
-0.166607
 21
230.813443
 31
0.0
  0
DIMENSION
  5
2403
100
AcDbEntity
  8
寸法
  6
CONTINUOUS
100
AcDbDimension
  2
*D2
 10
146.244724
 20
218.639677
 30
0.0
 11
138.744724
 21
221.139677
 31
0.0
 12
-12.975026
 22
-85.078264
 32
0.0
 70
    32
  3
STANDARD
100
AcDbAlignedDimension
 13
131.244724
 23
237.029561
 33
0.0
 14
146.244724
 24
237.029561
 34
0.0
100
AcDbRotatedDimension
1001
ACAD
1000
DSTYLE
1002
{
1070
    40
1040
1.0
1002
}
  0
DIMENSION
  5
240D
100
AcDbEntity
  8
寸法
  6
CONTINUOUS
100
AcDbDimension
  2
*D3
 10
134.271383
 20
233.181006
 30
0.0
 11
148.250575
 21
253.907371
 31
0.0
 12
-12.975026
 22
-85.078264
 32
0.0
 70
   163
  3
STANDARD
100
AcDbDiametricDimension
 15
143.218066
 25
246.44588
 35
0.0
 40
0.0
1001
ACAD
1000
DSTYLE
1002
{
1070
    40
1040
1.0
1002
}
  0
DIMENSION
  5
2424
100
AcDbEntity
  8
寸法
  6
CONTINUOUS
100
AcDbDimension
  2
*D4
 10
226.162754
 20
207.910248
 30
0.0
 11
126.162754
 21
210.410248
 31
0.0
 12
-12.975026
 22
-85.078264
 32
0.0
 70
    32
  3
STANDARD
100
AcDbAlignedDimension
 13
26.162754
 23
230.813443
 33
0.0
 14
226.162754
 24
232.813443
 34
0.0
100
AcDbRotatedDimension
1001
ACAD
1000
DSTYLE
1002
{
1070
    40
1040
1.0
1002
}
  0
DIMENSION
  5
262A
100
AcDbEntity
  8
外形
  6
CONTINUOUS
100
AcDbDimension
  2
*D5
 10
18.569893
 20
230.813443
 30
0.0
 11
16.069893
 21
235.813443
 31
0.0
 12
8.792513
 22
6.493035
 32
0.0
 70
    32
  3
STANDARD
100
AcDbAlignedDimension
 13
20.940827
 23
240.813443
 33
0.0
 14
26.136138
 24
230.813443
 34
0.0
 50
90.0
100
AcDbRotatedDimension
1001
ACAD
1000
DSTYLE
1002
{
1070
   284
1070
    13
1070
   146
1040
0.5
1070
   272
1070
     3
1070
    40
1040
1.0
1070
   287
1070
     0
1002
}
  0
LINE
  5
264B
100
AcDbEntity
  8
外形
  6
CONTINUOUS
100
AcDbLine
 10
44.012885
 20
232.842255
 30
0.0
 11
35.802266
 21
232.123919
 31
0.0
  0
LINE
  5
264D
100
AcDbEntity
  8
外形
  6
CONTINUOUS
100
AcDbLine
 10
50.395993
 20
248.813443
 30
0.0
 11
50.395993
 21
243.597325
 31
0.0
  0
LINE
  5
264E
100
AcDbEntity
  8
外形
  6
CONTINUOUS
100
AcDbLine
 10
48.395993
 20
248.563443
 30
0.0
 11
48.395993
 21
243.597325
 31
0.0
  0
LINE
  5
264F
100
AcDbEntity
  8
外形
  6
CONTINUOUS
100
AcDbLine
 10
44.012885
 20
248.563443
 30
0.0
 11
44.012885
 21
245.004152
 31
0.0
  0
LINE
  5
2650
100
AcDbEntity
  8
外形
  6
CONTINUOUS
100
AcDbLine
 10
44.395993
 20
248.563443
 30
0.0
 11
44.395993
 21
244.813088
 31
0.0
  0
LINE
  5
2651
100
AcDbEntity
  8
外形
  6
CONTINUOUS
100
AcDbLine
 10
48.645993
 20
232.813443
 30
0.0
 11
50.395993
 21
232.813443
 31
0.0
  0
LINE
  5
2652
100
AcDbEntity
  8
外形
  6
CONTINUOUS
100
AcDbLine
 10
48.395993
 20
233.063443
 30
0.0
 11
48.645993
 21
232.813443
 31
0.0
  0
LINE
  5
2653
100
AcDbEntity
  8
外形
  6
CONTINUOUS
100
AcDbLine
 10
44.395993
 20
233.063443
 30
0.0
 11
48.395993
 21
233.063443
 31
0.0
  0
LINE
  5
2654
100
AcDbEntity
  8
外形
  6
CONTINUOUS
100
AcDbLine
 10
44.395993
 20
233.063443
 30
0.0
 11
44.012885
 21
232.842255
 31
0.0
  0
LINE
  5
2655
100
AcDbEntity
  8
外形
  6
CONTINUOUS
100
AcDbLine
 10
48.645993
 20
248.813443
 30
0.0
 11
50.395993
 21
248.813443
 31
0.0
  0
LINE
  5
2656
100
AcDbEntity
  8
外形
  6
CONTINUOUS
100
AcDbLine
 10
44.395993
 20
248.563443
 30
0.0
 11
48.395993
 21
248.563443
 31
0.0
  0
LINE
  5
2657
100
AcDbEntity
  8
外形
  6
CONTINUOUS
100
AcDbLine
 10
48.645993
 20
248.813443
 30
0.0
 11
48.395993
 21
248.563443
 31
0.0
  0
LINE
  5
265C
100
AcDbEntity
  8
外形
  6
CONTINUOUS
100
AcDbLine
 10
50.395993
 20
238.029561
 30
0.0
 11
50.395993
 21
232.813443
 31
0.0
  0
ARC
  5
2690
100
AcDbEntity
  8
外形
  6
CONTINUOUS
100
AcDbCircle
 10
-11.831102
 20
240.813443
 30
0.0
 40
9.25
100
AcDbArc
 50
184.650709
 51
251.432623
  0
ARC
  5
2691
100
AcDbEntity
  8
外形
  6
CONTINUOUS
100
AcDbCircle
 10
-11.831102
 20
240.813443
 30
0.0
 40
7.75
100
AcDbArc
 50
272.164088
 51
338.948276
  0
ARC
  5
2692
100
AcDbEntity
  8
外形
  6
CONTINUOUS
100
AcDbCircle
 10
-11.831102
 20
239.313443
 30
0.0
 40
9.25
100
AcDbArc
 50
90.0
 51
175.349291
  0
LINE
  5
2693
100
AcDbEntity
  8
外形
  6
CONTINUOUS
100
AcDbLine
 10
33.846262
 20
248.563443
 30
0.0
 11
44.395993
 21
248.563443
 31
0.0
  0
LINE
  5
2695
100
AcDbEntity
  8
外形
  6
CONTINUOUS
100
AcDbLine
 10
27.351072
 20
244.813443
 30
0.0
 11
33.846262
 21
248.563443
 31
0.0
  0
LINE
  5
26AD
100
AcDbEntity
  8
外形
  6
CONTINUOUS
100
AcDbLine
 10
44.012885
 20
176.965571
 30
0.0
 11
29.395993
 21
175.686759
 31
0.0
  0
LINE
  5
26AE
100
AcDbEntity
  8
外形
  6
CONTINUOUS
100
AcDbLine
 10
27.960772
 20
175.686759
 30
0.0
 11
29.395993
 21
175.686759
 31
0.0
  0
LINE
  5
26AF
100
AcDbEntity
  8
外形
  6
CONTINUOUS
100
AcDbLine
 10
50.395993
 20
192.436759
 30
0.0
 11
50.395993
 21
176.936759
 31
0.0
  0
LINE
  5
26B0
100
AcDbEntity
  8
外形
  6
CONTINUOUS
100
AcDbLine
 10
48.395993
 20
190.933595
 30
0.0
 11
48.395993
 21
177.186759
 31
0.0
  0
LINE
  5
26B1
100
AcDbEntity
  8
外形
  6
CONTINUOUS
100
AcDbLine
 10
44.012885
 20
187.853237
 30
0.0
 11
44.012885
 21
176.965571
 31
0.0
  0
LINE
  5
26B2
100
AcDbEntity
  8
外形
  6
CONTINUOUS
100
AcDbLine
 10
44.395993
 20
188.089959
 30
0.0
 11
44.395993
 21
177.186759
 31
0.0
  0
LINE
  5
26B3
100
AcDbEntity
  8
外形
  6
CONTINUOUS
100
AcDbLine
 10
48.645993
 20
176.936759
 30
0.0
 11
56.162754
 21
176.936759
 31
0.0
  0
LINE
  5
26B4
100
AcDbEntity
  8
外形
  6
CONTINUOUS
100
AcDbLine
 10
48.395993
 20
177.186759
 30
0.0
 11
48.645993
 21
176.936759
 31
0.0
  0
LINE
  5
26B5
100
AcDbEntity
  8
外形
  6
CONTINUOUS
100
AcDbLine
 10
44.395993
 20
177.186759
 30
0.0
 11
48.395993
 21
177.186759
 31
0.0
  0
LINE
  5
26B6
100
AcDbEntity
  8
外形
  6
CONTINUOUS
100
AcDbLine
 10
44.395993
 20
177.186759
 30
0.0
 11
44.012885
 21
176.965571
 31
0.0
  0
LINE
  5
2767
100
AcDbEntity
  8
外形
  6
CONTINUOUS
100
AcDbLine
 10
-4.598364
 20
243.597325
 30
0.0
 11
-4.598364
 21
238.029561
 31
0.0
  0
ARC
  5
2768
100
AcDbEntity
  8
外形
  6
CONTINUOUS
100
AcDbCircle
 10
-11.831102
 20
240.813443
 30
0.0
 40
7.75
100
AcDbArc
 50
21.051724
 51
90.0
  0
LINE
  5
27B0
100
AcDbEntity
  8
外形
  6
CONTINUOUS
100
AcDbLine
 10
46.788718
 20
243.597325
 30
0.0
 11
50.003268
 21
238.029561
 31
0.0
  0
SPLINE
  5
27B1
100
AcDbEntity
  8
外形
  6
CONTINUOUS
100
AcDbSpline
210
0.0
220
0.0
230
1.0
 70
     8
 71
     3
 72
    14
 73
    10
 74
     0
 42
0.0000001
 43
0.0000001
 40
0.0
 40
0.0
 40
0.0
 40
0.0
 40
1.807267862636366
 40
3.595953991307
 40
5.328037163315003
 40
7.085133305454604
 40
8.871776331277713
 40
11.17320630319295
 40
15.69806236488709
 40
15.69806236488709
 40
15.69806236488709
 40
15.69806236488709
 10
50.00326796572692
 20
238.0295608813334
 30
0.0
 10
49.62873162808669
 20
237.5589726183887
 30
0.0
 10
48.88350981228887
 20
236.6226345262977
 30
0.0
 10
47.65717375213008
 20
235.3116586468131
 30
0.0
 10
46.0820456316525
 20
234.4796672256858
 30
0.0
 10
44.42959600455284
 20
233.8787658898121
 30
0.0
 10
42.53275390528245
 20
233.408061940985
 30
0.0
 10
39.66997720247301
 20
233.1181371473947
 30
0.0
 10
37.39468663461863
 20
233.0807450899706
 30
0.0
 10
35.88575681113033
 20
233.0782219692949
 30
0.0
  0
SPLINE
  5
27B4
100
AcDbEntity
  8
外形
  6
CONTINUOUS
100
AcDbSpline
210
0.0
220
0.0
230
-1.0
 70
     8
 71
     3
 72
    13
 73
     9
 74
     0
 42
0.0000001
 43
0.0000001
 40
0.0
 40
0.0
 40
0.0
 40
0.0
 40
3.093814904815378
 40
6.091407020786226
 40
8.729163342548091
 40
11.1591707826195
 40
13.42558092952855
 40
14.34347763771701
 40
14.34347763771701
 40
14.34347763771701
 40
14.34347763771701
 10
46.78871771206163
 20
243.5973252441651
 30
0.0
 10
45.87095390719056
 20
244.0671094479949
 30
0.0
 10
44.06397027810734
 20
244.9920667856201
 30
0.0
 10
41.43965475275686
 20
246.2586295769703
 30
0.0
 10
38.8854510048079
 20
247.1151169959778
 30
0.0
 10
36.51748700512529
 20
247.7256210866617
 30
0.0
 10
34.67942693260132
 20
248.0877803271764
 30
0.0
 10
33.62676576937598
 20
248.2260828359068
 30
0.0
 10
33.32273826189605
 20
248.2611863781426
 30
0.0
  0
LEADER
  5
2805
100
AcDbEntity
  8
外形
  6
CONTINUOUS
 62
     1
100
AcDbLeader
  3
STANDARD
 76
     3
 10
2.508984
 20
230.813443
 30
0.0
 10
2.508984
 20
263.678417
 30
0.0
 10
36.738194
 20
263.678417
 30
0.0
 77
   256
1001
ACAD
1000
DSTYLE
1002
{
1070
   284
1070
    13
1070
   146
1040
0.5
1070
   272
1070
     3
1070
    40
1040
1.0
1070
   287
1070
     0
1002
}
  0
MTEXT
  5
2806
100
AcDbEntity
  8
寸法
  6
CONTINUOUS
 62
     3
100
AcDbMText
 10
3.707819
 20
266.286311
 30
0.0
 40
3.0
 41
0.0
 71
     4
 72
     1
  1
%%c20.0最小加工径
  0
LINE
  5
2807
100
AcDbEntity
  8
寸法
  6
CONTINUOUS
100
AcDbLine
 10
26.162754
 20
230.813443
 30
0.0
 11
10.797871
 21
230.813443
 31
0.0
  0
DIMENSION
  5
283A
100
AcDbEntity
  8
外形
  6
CONTINUOUS
100
AcDbDimension
  2
*D6
 10
-10.903912
 20
248.4849
 30
0.0
 11
-20.168113
 21
217.159194
 31
0.0
 12
8.792513
 22
6.493035
 32
0.0
 70
    34
  3
STANDARD
100
AcDb2LineAngularDimension
 13
-11.831102
 23
250.537097
 33
0.0
 14
-11.831102
 24
227.838558
 34
0.0
 15
-11.831102
 25
230.793073
 35
0.0
 16
-12.143352
 26
212.904293
 36
0.0
1001
ACAD
1000
DSTYLE
1002
{
1070
   284
1070
    13
1070
   146
1040
0.5
1070
   272
1070
     3
1070
    40
1040
1.0
1070
   287
1070
     0
1002
}
  0
LINE
  5
284C
100
AcDbEntity
  8
外形
  6
CONTINUOUS
100
AcDbLine
 10
44.395993
 20
233.90116
 30
0.0
 11
44.395993
 21
233.063443
 31
0.0
  0
LINE
  5
284D
100
AcDbEntity
  8
外形
  6
CONTINUOUS
100
AcDbLine
 10
44.012885
 20
233.790065
 30
0.0
 11
44.012885
 21
232.842255
 31
0.0
  0
LINE
  5
284E
100
AcDbEntity
  8
外形
  6
CONTINUOUS
100
AcDbLine
 10
48.395993
 20
236.117867
 30
0.0
 11
48.395993
 21
233.063443
 31
0.0
  0
SPLINE
  5
2856
100
AcDbEntity
  8
外形
  6
CONTINUOUS
100
AcDbSpline
210
0.0
220
0.0
230
1.0
 70
     8
 71
     3
 72
     9
 73
     5
 74
     3
 42
0.0000001
 43
0.0000001
 44
0.0000000001
 40
0.0
 40
0.0
 40
0.0
 40
0.0
 40
2.850499375308759
 40
4.505937220015443
 40
4.505937220015443
 40
4.505937220015443
 40
4.505937220015443
 10
35.97619773758684
 20
184.9367588401745
 30
0.0
 10
36.93307583258307
 20
185.0207235674749
 30
0.0
 10
38.44566434974209
 20
185.1534511145105
 30
0.0
 10
39.81808426527903
 20
185.7845674734668
 30
0.0
 10
40.32229809607033
 20
186.0164335324054
 30
0.0
 11
35.97619773758684
 21
184.9367588401745
 31
0.0
 11
38.79073725305591
 21
185.3881057184165
 31
0.0
 11
40.32229809607033
 21
186.0164335324054
 31
0.0
  0
LINE
  5
2857
100
AcDbEntity
  8
外形
  6
CONTINUOUS
100
AcDbLine
 10
29.395993
 20
175.686759
 30
0.0
 11
29.395993
 21
180.855431
 31
0.0
  0
DIMENSION
  5
2868
100
AcDbEntity
  8
寸法
  6
CONTINUOUS
100
AcDbDimension
  2
*D7
 10
232.656673
 20
184.936759
 30
0.0
 11
11.287767
 21
195.04445
 31
0.0
 70
    34
  3
STANDARD
100
AcDb2LineAngularDimension
 13
35.8121
 23
184.09255
 33
0.0
 14
26.162754
 24
184.936759
 34
0.0
 15
20.940827
 25
184.936759
 35
0.0
 16
11.206534
 26
185.37194
 36
0.0
1001
ACAD
1000
DSTYLE
1002
{
1070
    40
1040
1.0
1002
}
  0
DIMENSION
  5
2875
100
AcDbEntity
  8
寸法
  6
CONTINUOUS
100
AcDbDimension
  2
*D8
 10
56.162754
 20
162.378846
 30
0.0
 11
41.162754
 21
164.878846
 31
0.0
 70
    32
  3
STANDARD
100
AcDbAlignedDimension
 13
26.162754
 23
184.936759
 33
0.0
 14
56.162754
 24
176.936759
 34
0.0
100
AcDbRotatedDimension
1001
ACAD
1000
DSTYLE
1002
{
1070
    40
1040
1.0
1002
}
  0
LINE
  5
28B9
100
AcDbEntity
  8
寸法
  6
CONTINUOUS
100
AcDbLine
 10
26.597616
 20
230.814965
 30
0.0
 11
26.295615
 21
230.814965
 31
0.0
  0
DIMENSION
  5
28C8
100
AcDbEntity
  8
外形
  6
CONTINUOUS
100
AcDbDimension
  2
*D9
 10
26.295615
 20
230.814965
 30
0.0
 11
12.381617
 21
245.814724
 31
0.0
 70
    34
  3
STANDARD
100
AcDb2LineAngularDimension
 13
26.164276
 23
231.248305
 33
0.0
 14
27.351072
 24
244.813443
 34
0.0
 15
26.597616
 25
230.814965
 35
0.0
 16
18.117632
 26
246.76166
 36
0.0
1001
ACAD
1000
DSTYLE
1002
{
1070
   284
1070
    13
1070
   146
1040
0.5
1070
   272
1070
     3
1070
    40
1040
1.0
1070
   287
1070
     0
1002
}
  0
LINE
  5
28DC
100
AcDbEntity
  8
外形
  6
CONTINUOUS
100
AcDbLine
 10
-11.096325
 20
244.813443
 30
0.0
 11
-19.268339
 21
244.813443
 31
0.0
  0
ENDSEC
  0
SECTION
  2
OBJECTS
  0
DICTIONARY
  5
1E
100
AcDbDictionary
  3
ACAD_GROUP
350
1C
  3
ACAD_MLINESTYLE
350
1D
  3
ACDBVARIABLEDICTIONARY
350
147A
  3
DRAWINGVARIABLESDICT
350
C58
  0
DICTIONARY
  5
38
100
AcDbDictionary
280
     1
  3
ACAD_XREC_ROUNDTRIP
360
39
  0
DICTIONARY
  5
22
100
AcDbDictionary
280
     1
  3
ACAD_XREC_ROUNDTRIP
360
23
  0
DICTIONARY
  5
3
100
AcDbDictionary
280
     1
  3
ACAD_LAYOUTSELFREF
360
4
  0
DICTIONARY
  5
A
100
AcDbDictionary
280
     1
  3
ACAD_LAYOUTSELFREF
360
B
  0
DICTIONARY
  5
1C
102
{ACAD_REACTORS
330
1E
102
}
100
AcDbDictionary
  3
*A1
350
1666
  3
*A2
350
1679
  3
*A3
350
16C2
  3
*A4
350
1A57
  3
*A5
350
1A58
  0
DICTIONARY
  5
1D
102
{ACAD_REACTORS
330
1E
102
}
100
AcDbDictionary
  3
STANDARD
350
20
  0
DICTIONARY
  5
147A
102
{ACAD_REACTORS
330
1E
102
}
100
AcDbDictionary
  3
SORTENTS
350
147B
  0
DICTIONARY
  5
C58
102
{ACAD_REACTORS
330
1E
102
}
100
AcDbDictionary
1001
DRAWINGVARIABLESXDATA
1000
POLARMODE
1000
0
  0
XRECORD
  5
39
102
{ACAD_REACTORS
330
38
102
}
100
AcDbXrecord
102
PLOTBIT
280
     0
  0
XRECORD
  5
23
102
{ACAD_REACTORS
330
22
102
}
100
AcDbXrecord
102
ACADR14ROUNDTRIP
1000
DSTYLE
1002
{
1070
   341
340
0
1070
   343
340
0
1070
   344
340
0
1002
}
  0
XRECORD
  5
4
102
{ACAD_REACTORS
330
3
102
}
100
AcDbXrecord
340
2
  0
XRECORD
  5
B
102
{ACAD_REACTORS
330
A
102
}
100
AcDbXrecord
340
9
  0
GROUP
  5
1666
102
{ACAD_REACTORS
330
1C
102
}
100
AcDbGroup
300

 70
     1
 71
     1
  0
GROUP
  5
1679
102
{ACAD_REACTORS
330
1C
102
}
100
AcDbGroup
300

 70
     1
 71
     1
  0
GROUP
  5
16C2
102
{ACAD_REACTORS
330
1C
102
}
100
AcDbGroup
300

 70
     1
 71
     1
  0
GROUP
  5
1A57
102
{ACAD_REACTORS
330
1C
102
}
100
AcDbGroup
300

 70
     1
 71
     1
  0
GROUP
  5
1A58
102
{ACAD_REACTORS
330
1C
102
}
100
AcDbGroup
300

 70
     1
 71
     1
  0
MLINESTYLE
  5
20
102
{ACAD_REACTORS
330
1D
102
}
100
AcDbMlineStyle
  2
STANDARD
 70
     0
  3

 62
     0
 51
90.0
 52
90.0
 71
     2
 49
0.5
 62
   256
  6
BYLAYER
 49
-0.5
 62
   256
  6
BYLAYER
  0
DICTIONARYVAR
  5
147B
102
{ACAD_REACTORS
330
147A
102
}
100
DictionaryVariables
280
     0
  1
96
  0
ENDSEC
  0
EOF
