  0
SECTION
  2
HEADER
  9
$ACADVER
  1
AC1014
  9
$ACADMAINTVER
 70
     0
  9
$DWGCODEPAGE
  3
ANSI_932
  9
$INSBASE
 10
-587.250952
 20
747.890188
 30
0.0
  9
$EXTMIN
 10
9.602042
 20
150.213866
 30
0.0
  9
$EXTMAX
 10
262.004375
 20
247.208709
 30
0.0
  9
$LIMMIN
 10
-587.250952
 20
327.890188
  9
$LIMMAX
 10
600.749048
 20
957.890188
  9
$ORTHOMODE
 70
     1
  9
$REGENMODE
 70
     1
  9
$FILLMODE
 70
     1
  9
$QTEXTMODE
 70
     0
  9
$MIRRTEXT
 70
     1
  9
$DRAGMODE
 70
     2
  9
$LTSCALE
 40
5.0
  9
$OSMODE
 70
    37
  9
$ATTMODE
 70
     1
  9
$TEXTSIZE
 40
5.0
  9
$TRACEWID
 40
0.05
  9
$TEXTSTYLE
  7
STANDARD
  9
$CLAYER
  8
外形
  9
$CELTYPE
  6
CONTINUOUS
  9
$CECOLOR
 62
   256
  9
$CELTSCALE
 40
1.0
  9
$DELOBJ
 70
     1
  9
$DISPSILH
 70
     0
  9
$DIMSCALE
 40
1.0
  9
$DIMASZ
 40
1.0
  9
$DIMEXO
 40
1.0
  9
$DIMDLI
 40
8.0
  9
$DIMRND
 40
0.0
  9
$DIMDLE
 40
0.0
  9
$DIMEXE
 40
2.0
  9
$DIMTP
 40
0.0
  9
$DIMTM
 40
0.0
  9
$DIMTXT
 40
1.5
  9
$DIMCEN
 40
-1.0
  9
$DIMTSZ
 40
0.0
  9
$DIMTOL
 70
     0
  9
$DIMLIM
 70
     0
  9
$DIMTIH
 70
     0
  9
$DIMTOH
 70
     0
  9
$DIMSE1
 70
     0
  9
$DIMSE2
 70
     0
  9
$DIMTAD
 70
     1
  9
$DIMZIN
 70
     8
  9
$DIMBLK
  1

  9
$DIMASO
 70
     1
  9
$DIMSHO
 70
     1
  9
$DIMPOST
  1

  9
$DIMAPOST
  1

  9
$DIMALT
 70
     0
  9
$DIMALTD
 70
     2
  9
$DIMALTF
 40
25.4
  9
$DIMLFAC
 40
1.0
  9
$DIMTOFL
 70
     1
  9
$DIMTVP
 40
0.0
  9
$DIMTIX
 70
     0
  9
$DIMSOXD
 70
     0
  9
$DIMSAH
 70
     1
  9
$DIMBLK1
  1
_DOTSMALL
  9
$DIMBLK2
  1
_DOTSMALL
  9
$DIMSTYLE
  2
STANDARD
  9
$DIMCLRD
 70
     2
  9
$DIMCLRE
 70
     2
  9
$DIMCLRT
 70
     2
  9
$DIMTFAC
 40
1.0
  9
$DIMGAP
 40
1.0
  9
$DIMJUST
 70
     0
  9
$DIMSD1
 70
     0
  9
$DIMSD2
 70
     0
  9
$DIMTOLJ
 70
     1
  9
$DIMTZIN
 70
     8
  9
$DIMALTZ
 70
     0
  9
$DIMALTTZ
 70
     0
  9
$DIMFIT
 70
     3
  9
$DIMUPT
 70
     0
  9
$DIMUNIT
 70
     2
  9
$DIMDEC
 70
     3
  9
$DIMTDEC
 70
     2
  9
$DIMALTU
 70
     2
  9
$DIMALTTD
 70
     2
  9
$DIMTXSTY
  7
STANDARD
  9
$DIMAUNIT
 70
     0
  9
$LUNITS
 70
     2
  9
$LUPREC
 70
     0
  9
$SKETCHINC
 40
0.1
  9
$FILLETRAD
 40
0.0
  9
$AUNITS
 70
     0
  9
$AUPREC
 70
     0
  9
$MENU
  1
acad
  9
$ELEVATION
 40
0.0
  9
$PELEVATION
 40
0.0
  9
$THICKNESS
 40
0.0
  9
$LIMCHECK
 70
     0
  9
$BLIPMODE
 70
     0
  9
$CHAMFERA
 40
1.5
  9
$CHAMFERB
 40
1.5
  9
$CHAMFERC
 40
0.0
  9
$CHAMFERD
 40
0.0
  9
$SKPOLY
 70
     0
  9
$TDCREATE
 40
2450751.535399305
  9
$TDUPDATE
 40
2452010.448495370
  9
$TDINDWG
 40
2.1023743056
  9
$TDUSRTIMER
 40
2.1023743056
  9
$USRTIMER
 70
     1
  9
$ANGBASE
 50
0.0
  9
$ANGDIR
 70
     0
  9
$PDMODE
 70
    32
  9
$PDSIZE
 40
0.0
  9
$PLINEWID
 40
0.0
  9
$COORDS
 70
     2
  9
$SPLFRAME
 70
     0
  9
$SPLINETYPE
 70
     5
  9
$SPLINESEGS
 70
     8
  9
$ATTDIA
 70
     0
  9
$ATTREQ
 70
     1
  9
$HANDLING
 70
     1
  9
$HANDSEED
  5
2C3C
  9
$SURFTAB1
 70
     6
  9
$SURFTAB2
 70
     6
  9
$SURFTYPE
 70
     6
  9
$SURFU
 70
     6
  9
$SURFV
 70
     6
  9
$UCSNAME
  2

  9
$UCSORG
 10
40.53800450572526
 20
146.9196145921314
 30
0.0
  9
$UCSXDIR
 10
1.0
 20
0.0
 30
0.0
  9
$UCSYDIR
 10
0.0
 20
1.0
 30
0.0
  9
$PUCSNAME
  2

  9
$PUCSORG
 10
0.0
 20
0.0
 30
0.0
  9
$PUCSXDIR
 10
1.0
 20
0.0
 30
0.0
  9
$PUCSYDIR
 10
0.0
 20
1.0
 30
0.0
  9
$USERI1
 70
     0
  9
$USERI2
 70
     0
  9
$USERI3
 70
     0
  9
$USERI4
 70
     0
  9
$USERI5
 70
     0
  9
$USERR1
 40
0.0
  9
$USERR2
 40
0.0
  9
$USERR3
 40
0.0
  9
$USERR4
 40
0.0
  9
$USERR5
 40
0.0
  9
$WORLDVIEW
 70
     1
  9
$SHADEDGE
 70
     3
  9
$SHADEDIF
 70
    70
  9
$TILEMODE
 70
     1
  9
$MAXACTVP
 70
    16
  9
$PINSBASE
 10
0.0
 20
0.0
 30
0.0
  9
$PLIMCHECK
 70
     0
  9
$PEXTMIN
 10
1.000000E+20
 20
1.000000E+20
 30
1.000000E+20
  9
$PEXTMAX
 10
-1.000000E+20
 20
-1.000000E+20
 30
-1.000000E+20
  9
$PLIMMIN
 10
0.0
 20
0.0
  9
$PLIMMAX
 10
12.0
 20
9.0
  9
$UNITMODE
 70
     0
  9
$VISRETAIN
 70
     0
  9
$PLINEGEN
 70
     0
  9
$PSLTSCALE
 70
     1
  9
$TREEDEPTH
 70
  3020
  9
$PICKSTYLE
 70
     1
  9
$CMLSTYLE
  2
STANDARD
  9
$CMLJUST
 70
     0
  9
$CMLSCALE
 40
1.0
  9
$PROXYGRAPHICS
 70
     1
  9
$MEASUREMENT
 70
     0
  0
ENDSEC
  0
SECTION
  2
CLASSES
  0
CLASS
  1
LWPOLYLINE
  2
AcDbPolyline
  3
"AutoCAD"
 90
        0
280
     0
281
     1
  0
CLASS
  1
ACDBDICTIONARYWDFLT
  2
AcDbDictionaryWithDefault
  3
AutoCAD 2000
 90
        0
280
     1
281
     0
  0
CLASS
  1
ACDBPLACEHOLDER
  2
AcDbPlaceHolder
  3
AutoCAD 2000
 90
        0
280
     1
281
     0
  0
CLASS
  1
LAYOUT
  2
AcDbLayout
  3
AutoCAD 2000
 90
        0
280
     1
281
     0
  0
CLASS
  1
LONG_TRANSACTION
  2
AcDbLongTransaction
  3
AutoCAD 2000
 90
        0
280
     1
281
     0
  0
CLASS
  1
LWPOLYLINE
  2
AcDbPolyline
  3
"AutoCAD"
 90
        0
280
     0
281
     1
  0
CLASS
  1
HATCH
  2
AcDbHatch
  3
"ACAD_SEDONA"
 90
        0
280
     0
281
     1
  0
CLASS
  1
XRECORD
  2
AcDbXrecord
  3
"<Built In>"
 90
        0
280
     0
281
     0
  0
CLASS
  1
DICTIONARYVAR
  2
AcDbDictionaryVar
  3
"AutoCAD"
 90
        0
280
     0
281
     0
  0
ENDSEC
  0
SECTION
  2
TABLES
  0
TABLE
  2
VPORT
  5
16
100
AcDbSymbolTable
 70
     1
  0
VPORT
  5
2C37
100
AcDbSymbolTableRecord
100
AcDbViewportTableRecord
  2
*ACTIVE
 70
     0
 10
0.0
 20
0.0
 11
1.0
 21
1.0
 12
140.979633
 22
202.598068
 13
0.0
 23
0.0
 14
1.0
 24
1.0
 15
10.0
 25
10.0
 16
0.0
 26
0.0
 36
1.0
 17
0.0
 27
0.0
 37
0.0
 40
158.737234
 41
1.710425
 42
50.0
 43
0.0
 44
0.0
 50
0.0
 51
0.0
 71
     0
 72
   100
 73
     1
 74
     1
 75
     0
 76
     0
 77
     0
 78
     2
  0
ENDTAB
  0
TABLE
  2
LTYPE
  5
11
100
AcDbSymbolTable
 70
     3
  0
LTYPE
  5
12
100
AcDbSymbolTableRecord
100
AcDbLinetypeTableRecord
  2
BYBLOCK
 70
     0
  3

 72
    65
 73
     0
 40
0.0
  0
LTYPE
  5
13
100
AcDbSymbolTableRecord
100
AcDbLinetypeTableRecord
  2
BYLAYER
 70
     0
  3

 72
    65
 73
     0
 40
0.0
  0
LTYPE
  5
7
100
AcDbSymbolTableRecord
100
AcDbLinetypeTableRecord
  2
CONTINUOUS
 70
     0
  3
Solid line
 72
    65
 73
     0
 40
0.0
  0
LTYPE
  5
AA
100
AcDbSymbolTableRecord
100
AcDbLinetypeTableRecord
  2
CENTER
 70
     0
  3
Center ____ _ ____ _ ____ _ ____ _ ____ _ ____
 72
    65
 73
     4
 40
2.0
 49
1.25
 74
     0
 49
-0.25
 74
     0
 49
0.25
 74
     0
 49
-0.25
 74
     0
  0
LTYPE
  5
1FC7
100
AcDbSymbolTableRecord
100
AcDbLinetypeTableRecord
  2
PHANTOM
 70
     0
  3
Phantom ______  __  __  ______  __  __  ______
 72
    65
 73
     6
 40
2.5
 49
1.25
 74
     0
 49
-0.25
 74
     0
 49
0.25
 74
     0
 49
-0.25
 74
     0
 49
0.25
 74
     0
 49
-0.25
 74
     0
  0
ENDTAB
  0
TABLE
  2
LAYER
  5
E
100
AcDbSymbolTable
 70
     5
  0
LAYER
  5
6
100
AcDbSymbolTableRecord
100
AcDbLayerTableRecord
  2
0
 70
     0
 62
     7
  6
CONTINUOUS
  0
LAYER
  5
2C
100
AcDbSymbolTableRecord
100
AcDbLayerTableRecord
  2
外形
 70
     0
 62
     3
  6
CONTINUOUS
  0
LAYER
  5
37
102
{ACAD_XDICTIONARY
360
38
102
}
100
AcDbSymbolTableRecord
100
AcDbLayerTableRecord
  2
DEFPOINTS
 70
     0
 62
     7
  6
CONTINUOUS
  0
LAYER
  5
1F
100
AcDbSymbolTableRecord
100
AcDbLayerTableRecord
  2
寸法
 70
     0
 62
     1
  6
CONTINUOUS
  0
LAYER
  5
673
100
AcDbSymbolTableRecord
100
AcDbLayerTableRecord
  2
参考
 70
     0
 62
     2
  6
CONTINUOUS
  0
ENDTAB
  0
TABLE
  2
STYLE
  5
F
100
AcDbSymbolTable
 70
     1
  0
STYLE
  5
10
100
AcDbSymbolTableRecord
100
AcDbTextStyleTableRecord
  2
STANDARD
 70
     0
 40
0.0
 41
1.0
 50
0.0
 71
     0
 42
5.0
  3
MONOTXT
  4
BIGFONT
  0
ENDTAB
  0
TABLE
  2
VIEW
  5
14
100
AcDbSymbolTable
 70
     0
  0
ENDTAB
  0
TABLE
  2
UCS
  5
15
100
AcDbSymbolTable
 70
     0
  0
ENDTAB
  0
TABLE
  2
APPID
  5
18
100
AcDbSymbolTable
 70
     2
  0
APPID
  5
19
100
AcDbSymbolTableRecord
100
AcDbRegAppTableRecord
  2
ACAD
 70
     0
  0
APPID
  5
C59
100
AcDbSymbolTableRecord
100
AcDbRegAppTableRecord
  2
DRAWINGVARIABLESXDATA
 70
     0
  0
ENDTAB
  0
TABLE
  2
DIMSTYLE
  5
1A
100
AcDbSymbolTable
 70
     1
  0
DIMSTYLE
105
21
102
{ACAD_XDICTIONARY
360
22
102
}
102
{ACAD_REACTORS
330
238C
330
27F0
330
2808
330
29F2
330
2AAC
330
2B98
330
2BB4
330
2BD1
330
2C1C
102
}
100
AcDbSymbolTableRecord
100
AcDbDimStyleTableRecord
  2
STANDARD
 70
     0
  3

  4

  5

  6
_OPEN30
  7
_OPEN30
 40
0.0
 41
2.0
 42
1.0
 43
8.0
 44
2.0
 45
0.0
 46
0.0
 47
0.0
 48
0.0
140
3.0
141
-1.0
142
0.0
143
25.4
144
1.0
145
0.0
146
1.0
147
1.0
 71
     0
 72
     0
 73
     0
 74
     0
 75
     0
 76
     0
 77
     1
 78
     8
170
     0
171
     2
172
     1
173
     1
174
     0
175
     0
176
     1
177
     1
178
     3
270
     2
271
     2
272
     2
273
     2
274
     2
340
10
275
     0
280
     0
281
     0
282
     0
283
     1
284
     8
285
     0
286
     0
287
     3
288
     0
  0
ENDTAB
  0
TABLE
  2
BLOCK_RECORD
  5
1
100
AcDbSymbolTable
 70
    15
  0
BLOCK_RECORD
  5
2
102
{ACAD_XDICTIONARY
360
3
102
}
100
AcDbSymbolTableRecord
100
AcDbBlockTableRecord
  2
*MODEL_SPACE
  0
BLOCK_RECORD
  5
9
102
{ACAD_XDICTIONARY
360
A
102
}
100
AcDbSymbolTableRecord
100
AcDbBlockTableRecord
  2
*PAPER_SPACE
  0
BLOCK_RECORD
  5
24
100
AcDbSymbolTableRecord
100
AcDbBlockTableRecord
  2
_DOTSMALL
  0
BLOCK_RECORD
  5
470
100
AcDbSymbolTableRecord
100
AcDbBlockTableRecord
  2
_OPEN30
  0
BLOCK_RECORD
  5
237E
100
AcDbSymbolTableRecord
100
AcDbBlockTableRecord
  2
*D4
  0
BLOCK_RECORD
  5
27E4
100
AcDbSymbolTableRecord
100
AcDbBlockTableRecord
  2
*D7
  0
BLOCK_RECORD
  5
27FC
100
AcDbSymbolTableRecord
100
AcDbBlockTableRecord
  2
*D8
  0
BLOCK_RECORD
  5
29E6
100
AcDbSymbolTableRecord
100
AcDbBlockTableRecord
  2
*D9
  0
BLOCK_RECORD
  5
2A9C
100
AcDbSymbolTableRecord
100
AcDbBlockTableRecord
  2
*D10
  0
BLOCK_RECORD
  5
2B8C
100
AcDbSymbolTableRecord
100
AcDbBlockTableRecord
  2
*D11
  0
BLOCK_RECORD
  5
2BA4
100
AcDbSymbolTableRecord
100
AcDbBlockTableRecord
  2
*D12
  0
BLOCK_RECORD
  5
2BC7
100
AcDbSymbolTableRecord
100
AcDbBlockTableRecord
  2
*D13
  0
BLOCK_RECORD
  5
2C12
100
AcDbSymbolTableRecord
100
AcDbBlockTableRecord
  2
*D14
  0
ENDTAB
  0
ENDSEC
  0
SECTION
  2
BLOCKS
  0
BLOCK
  5
5
100
AcDbEntity
  8
0
100
AcDbBlockBegin
  2
*MODEL_SPACE
 70
     0
 10
0.0
 20
0.0
 30
0.0
  3
*MODEL_SPACE
  1

  0
ENDBLK
  5
8
100
AcDbEntity
  8
0
100
AcDbBlockEnd
  0
BLOCK
  5
C
100
AcDbEntity
 67
     1
  8
0
100
AcDbBlockBegin
  2
*PAPER_SPACE
 70
     0
 10
0.0
 20
0.0
 30
0.0
  3
*PAPER_SPACE
  1

  0
ENDBLK
  5
D
100
AcDbEntity
 67
     1
  8
0
100
AcDbBlockEnd
  0
BLOCK
  5
29
100
AcDbEntity
  8
0
100
AcDbBlockBegin
  2
_DOTSMALL
 70
     0
 10
0.0
 20
0.0
 30
0.0
  3
_DOTSMALL
  1

  0
POLYLINE
  5
25
100
AcDbEntity
  8
0
  6
BYBLOCK
 62
     0
100
AcDb2dPolyline
 66
     1
 10
0.0
 20
0.0
 30
0.0
 70
     1
 40
0.5
 41
0.5
  0
VERTEX
  5
26
100
AcDbEntity
  8
0
  6
BYBLOCK
 62
     0
100
AcDbVertex
100
AcDb2dVertex
 10
-0.0625
 20
0.0
 30
0.0
 42
1.0
  0
VERTEX
  5
27
100
AcDbEntity
  8
0
  6
BYBLOCK
 62
     0
100
AcDbVertex
100
AcDb2dVertex
 10
0.0625
 20
0.0
 30
0.0
 42
1.0
  0
SEQEND
  5
28
100
AcDbEntity
  8
0
  6
BYBLOCK
 62
     0
  0
ENDBLK
  5
2A
100
AcDbEntity
  8
0
100
AcDbBlockEnd
  0
BLOCK
  5
471
100
AcDbEntity
  8
0
100
AcDbBlockBegin
  2
_OPEN30
 70
     0
 10
0.0
 20
0.0
 30
0.0
  3
_OPEN30
  1

  0
LINE
  5
472
100
AcDbEntity
  8
0
  6
BYBLOCK
 62
     0
100
AcDbLine
 10
-1.0
 20
0.267949
 30
0.0
 11
0.0
 21
0.0
 31
0.0
  0
LINE
  5
473
100
AcDbEntity
  8
0
  6
BYBLOCK
 62
     0
100
AcDbLine
 10
0.0
 20
0.0
 30
0.0
 11
-1.0
 21
-0.267949
 31
0.0
  0
LINE
  5
474
100
AcDbEntity
  8
0
  6
BYBLOCK
 62
     0
100
AcDbLine
 10
0.0
 20
0.0
 30
0.0
 11
-1.0
 21
0.0
 31
0.0
  0
ENDBLK
  5
475
100
AcDbEntity
  8
0
100
AcDbBlockEnd
  0
BLOCK
  5
238D
100
AcDbEntity
  8
0
100
AcDbBlockBegin
  2
*D4
 70
     1
 10
0.0
 20
0.0
 30
0.0
  3
*D4
  1

  0
LINE
  5
238E
100
AcDbEntity
  8
0
  6
BYBLOCK
 62
     1
100
AcDbLine
 10
51.274296
 20
226.743475
 30
0.0
 11
51.548366
 21
231.97304
 31
0.0
  0
LINE
  5
238F
100
AcDbEntity
  8
0
  6
BYBLOCK
 62
     1
100
AcDbLine
 10
49.660541
 20
215.032332
 30
0.0
 11
33.696584
 21
215.032332
 31
0.0
  0
ARC
  5
2390
100
AcDbEntity
  8
0
  6
BYBLOCK
 62
     1
100
AcDbCircle
 10
50.660541
 20
215.032332
 30
0.0
 40
14.963956
100
AcDbArc
 50
94.66355
 51
172.33645
  0
INSERT
  5
2391
100
AcDbEntity
  8
0
  6
BYBLOCK
 62
     1
100
AcDbBlockReference
  2
_OPEN30
 10
51.443694
 20
229.975781
 30
0.0
 41
2.0
 42
2.0
 43
2.0
 50
0.831775
  0
INSERT
  5
2392
100
AcDbEntity
  8
0
  6
BYBLOCK
 62
     1
100
AcDbBlockReference
  2
_OPEN30
 10
35.696584
 20
215.032332
 30
0.0
 41
2.0
 42
2.0
 43
2.0
 50
266.168225
  0
MTEXT
  5
2393
100
AcDbEntity
  8
0
  6
BYBLOCK
 62
     3
100
AcDbMText
 10
38.639147
 20
227.700239
 30
0.0
 40
3.0
 41
0.0
 71
     5
 72
     1
  1
\A1;93°
 11
0.725374
 21
0.688355
 31
0.0
  0
POINT
  5
2394
100
AcDbEntity
  8
DEFPOINTS
  6
BYBLOCK
 62
     0
100
AcDbPoint
 10
43.635389
 20
228.244722
 30
0.0
  0
POINT
  5
2395
100
AcDbEntity
  8
DEFPOINTS
  6
BYBLOCK
 62
     0
100
AcDbPoint
 10
51.082053
 20
215.032332
 30
0.0
  0
POINT
  5
2396
100
AcDbEntity
  8
DEFPOINTS
  6
BYBLOCK
 62
     0
100
AcDbPoint
 10
50.682601
 20
215.453267
 30
0.0
  0
POINT
  5
2397
100
AcDbEntity
  8
DEFPOINTS
  6
BYBLOCK
 62
     0
100
AcDbPoint
 10
51.22196
 20
225.744846
 30
0.0
  0
POINT
  5
2398
100
AcDbEntity
  8
DEFPOINTS
  6
BYBLOCK
 62
     0
100
AcDbPoint
 10
50.682053
 20
215.032332
 30
0.0
  0
ENDBLK
  5
2399
100
AcDbEntity
  8
0
100
AcDbBlockEnd
  0
BLOCK
  5
27F1
100
AcDbEntity
  8
0
100
AcDbBlockBegin
  2
*D7
 70
     1
 10
0.0
 20
0.0
 30
0.0
  3
*D7
  1

  0
LINE
  5
27F2
100
AcDbEntity
  8
0
  6
BYBLOCK
 62
     1
100
AcDbLine
 10
124.748606
 20
217.634417
 30
0.0
 11
124.748606
 21
204.176159
 31
0.0
  0
LINE
  5
27F3
100
AcDbEntity
  8
0
  6
BYBLOCK
 62
     1
100
AcDbLine
 10
135.748606
 20
217.634417
 30
0.0
 11
135.748606
 21
204.176159
 31
0.0
  0
LINE
  5
27F4
100
AcDbEntity
  8
0
  6
BYBLOCK
 62
     1
100
AcDbLine
 10
126.748606
 20
206.176159
 30
0.0
 11
133.748606
 21
206.176159
 31
0.0
  0
INSERT
  5
27F5
100
AcDbEntity
  8
0
  6
BYBLOCK
 62
     1
100
AcDbBlockReference
  2
_OPEN30
 10
124.748606
 20
206.176159
 30
0.0
 41
2.0
 42
2.0
 43
2.0
 50
180.0
  0
INSERT
  5
27F6
100
AcDbEntity
  8
0
  6
BYBLOCK
 62
     1
100
AcDbBlockReference
  2
_OPEN30
 10
135.748606
 20
206.176159
 30
0.0
 41
2.0
 42
2.0
 43
2.0
  0
MTEXT
  5
27F7
100
AcDbEntity
  8
0
  6
BYBLOCK
 62
     3
100
AcDbMText
 10
130.248606
 20
208.676159
 30
0.0
 40
3.0
 41
0.0
 71
     5
 72
     1
  1
\A1;11
  0
POINT
  5
27F8
100
AcDbEntity
  8
DEFPOINTS
  6
BYBLOCK
 62
     0
100
AcDbPoint
 10
124.748606
 20
218.634417
 30
0.0
  0
POINT
  5
27F9
100
AcDbEntity
  8
DEFPOINTS
  6
BYBLOCK
 62
     0
100
AcDbPoint
 10
135.748606
 20
218.634417
 30
0.0
  0
POINT
  5
27FA
100
AcDbEntity
  8
DEFPOINTS
  6
BYBLOCK
 62
     0
100
AcDbPoint
 10
135.748606
 20
206.176159
 30
0.0
  0
ENDBLK
  5
27FB
100
AcDbEntity
  8
0
100
AcDbBlockEnd
  0
BLOCK
  5
2C02
100
AcDbEntity
  8
0
100
AcDbBlockBegin
  2
*D8
 70
     1
 10
0.0
 20
0.0
 30
0.0
  3
*D8
  1

  0
LINE
  5
2C03
100
AcDbEntity
  8
0
  6
BYBLOCK
 62
     1
100
AcDbLine
 10
50.682053
 20
213.032332
 30
0.0
 11
50.682053
 21
195.088249
 31
0.0
  0
LINE
  5
2C04
100
AcDbEntity
  8
0
  6
BYBLOCK
 62
     1
100
AcDbLine
 10
250.682053
 20
215.032332
 30
0.0
 11
250.682053
 21
195.088249
 31
0.0
  0
LINE
  5
2C05
100
AcDbEntity
  8
0
  6
BYBLOCK
 62
     1
100
AcDbLine
 10
52.682053
 20
197.088249
 30
0.0
 11
248.682053
 21
197.088249
 31
0.0
  0
INSERT
  5
2C06
100
AcDbEntity
  8
0
  6
BYBLOCK
 62
     1
100
AcDbBlockReference
  2
_OPEN30
 10
50.682053
 20
197.088249
 30
0.0
 41
2.0
 42
2.0
 43
2.0
 50
180.0
  0
INSERT
  5
2C07
100
AcDbEntity
  8
0
  6
BYBLOCK
 62
     1
100
AcDbBlockReference
  2
_OPEN30
 10
250.682053
 20
197.088249
 30
0.0
 41
2.0
 42
2.0
 43
2.0
  0
MTEXT
  5
2C08
100
AcDbEntity
  8
0
  6
BYBLOCK
 62
     3
100
AcDbMText
 10
150.682053
 20
199.588249
 30
0.0
 40
3.0
 41
0.0
 71
     5
 72
     1
  1
\A1;200
  0
POINT
  5
2C09
100
AcDbEntity
  8
DEFPOINTS
  6
BYBLOCK
 62
     0
100
AcDbPoint
 10
50.682053
 20
214.032332
 30
0.0
  0
POINT
  5
2C0A
100
AcDbEntity
  8
DEFPOINTS
  6
BYBLOCK
 62
     0
100
AcDbPoint
 10
250.682053
 20
216.032332
 30
0.0
  0
POINT
  5
2C0B
100
AcDbEntity
  8
DEFPOINTS
  6
BYBLOCK
 62
     0
100
AcDbPoint
 10
250.682053
 20
197.088249
 30
0.0
  0
ENDBLK
  5
2C0C
100
AcDbEntity
  8
0
100
AcDbBlockEnd
  0
BLOCK
  5
29F3
100
AcDbEntity
  8
0
100
AcDbBlockBegin
  2
*D9
 70
     1
 10
0.0
 20
0.0
 30
0.0
  3
*D9
  1

  0
LINE
  5
29F4
100
AcDbEntity
  8
0
  6
BYBLOCK
 62
     1
100
AcDbLine
 10
45.059876
 20
221.032332
 30
0.0
 11
42.549669
 21
221.032332
 31
0.0
  0
LINE
  5
29F5
100
AcDbEntity
  8
0
  6
BYBLOCK
 62
     1
100
AcDbLine
 10
49.682053
 20
213.032332
 30
0.0
 11
42.549669
 21
213.032332
 31
0.0
  0
LINE
  5
29F6
100
AcDbEntity
  8
0
  6
BYBLOCK
 62
     1
100
AcDbLine
 10
44.549669
 20
219.032332
 30
0.0
 11
44.549669
 21
215.032332
 31
0.0
  0
INSERT
  5
29F7
100
AcDbEntity
  8
0
  6
BYBLOCK
 62
     1
100
AcDbBlockReference
  2
_OPEN30
 10
44.549669
 20
221.032332
 30
0.0
 41
2.0
 42
2.0
 43
2.0
 50
90.0
  0
INSERT
  5
29F8
100
AcDbEntity
  8
0
  6
BYBLOCK
 62
     1
100
AcDbBlockReference
  2
_OPEN30
 10
44.549669
 20
213.032332
 30
0.0
 41
2.0
 42
2.0
 43
2.0
 50
270.0
  0
MTEXT
  5
29F9
100
AcDbEntity
  8
0
  6
BYBLOCK
 62
     3
100
AcDbMText
 10
42.049669
 20
217.032332
 30
0.0
 40
3.0
 41
0.0
 71
     5
 72
     1
  1
\A1;8
 11
0.0
 21
1.0
 31
0.0
  0
POINT
  5
29FA
100
AcDbEntity
  8
DEFPOINTS
  6
BYBLOCK
 62
     0
100
AcDbPoint
 10
46.059876
 20
221.032332
 30
0.0
  0
POINT
  5
29FB
100
AcDbEntity
  8
DEFPOINTS
  6
BYBLOCK
 62
     0
100
AcDbPoint
 10
50.682053
 20
213.032332
 30
0.0
  0
POINT
  5
29FC
100
AcDbEntity
  8
DEFPOINTS
  6
BYBLOCK
 62
     0
100
AcDbPoint
 10
44.549669
 20
213.032332
 30
0.0
  0
ENDBLK
  5
29FD
100
AcDbEntity
  8
0
100
AcDbBlockEnd
  0
BLOCK
  5
2AAD
100
AcDbEntity
  8
0
100
AcDbBlockBegin
  2
*D10
 70
     1
 10
0.0
 20
0.0
 30
0.0
  3
*D10
  1

  0
LINE
  5
2AAE
100
AcDbEntity
  8
0
  6
BYBLOCK
 62
     1
100
AcDbLine
 10
22.702818
 20
212.003571
 30
0.0
 11
21.182817
 21
197.541732
 31
0.0
  0
LINE
  5
2AAF
100
AcDbEntity
  8
0
  6
BYBLOCK
 62
     1
100
AcDbLine
 10
22.807346
 20
210.26112
 30
0.0
 11
22.807346
 21
197.456594
 31
0.0
  0
ARC
  5
2AB0
100
AcDbEntity
  8
0
  6
BYBLOCK
 62
     1
100
AcDbCircle
 10
22.807346
 20
212.998093
 30
0.0
 40
13.541498
100
AcDbArc
 50
247.013355
 51
264.0
  0
LINE
  5
2AB1
100
AcDbEntity
  8
0
  6
BYBLOCK
 62
     1
100
AcDbLine
 10
17.519167
 20
200.531845
 30
0.0
 11
9.602042
 21
203.890287
 31
0.0
  0
ARC
  5
2AB2
100
AcDbEntity
  8
0
  6
BYBLOCK
 62
     1
100
AcDbCircle
 10
22.807346
 20
212.998093
 30
0.0
 40
13.541498
100
AcDbArc
 50
247.060077
 51
255.530039
  0
ARC
  5
2AB3
100
AcDbEntity
  8
0
  6
BYBLOCK
 62
     1
100
AcDbCircle
 10
22.807346
 20
212.998093
 30
0.0
 40
13.541498
100
AcDbArc
 50
278.469961
 51
286.939923
  0
ARC
  5
2AB4
100
AcDbEntity
  8
0
  6
BYBLOCK
 62
     1
100
AcDbCircle
 10
22.807346
 20
212.998093
 30
0.0
 40
13.541498
100
AcDbArc
 50
264.0
 51
270.0
  0
INSERT
  5
2AB5
100
AcDbEntity
  8
0
  6
BYBLOCK
 62
     1
100
AcDbBlockReference
  2
_OPEN30
 10
21.391874
 20
199.530776
 30
0.0
 41
2.0
 42
2.0
 43
2.0
 50
349.765019
  0
INSERT
  5
2AB6
100
AcDbEntity
  8
0
  6
BYBLOCK
 62
     1
100
AcDbBlockReference
  2
_OPEN30
 10
22.807346
 20
199.456594
 30
0.0
 41
2.0
 42
2.0
 43
2.0
 50
184.234981
  0
MTEXT
  5
2AB7
100
AcDbEntity
  8
0
  6
BYBLOCK
 62
     3
100
AcDbMText
 10
14.536896
 20
204.512555
 30
0.0
 40
3.0
 41
0.0
 71
     5
 72
     1
  1
\A1;6°
 11
0.920596
 21
-0.390517
 31
0.0
  0
POINT
  5
2AB8
100
AcDbEntity
  8
DEFPOINTS
  6
BYBLOCK
 62
     0
100
AcDbPoint
 10
22.334755
 20
199.464843
 30
0.0
  0
POINT
  5
2AB9
100
AcDbEntity
  8
DEFPOINTS
  6
BYBLOCK
 62
     0
100
AcDbPoint
 10
22.807346
 20
230.803545
 30
0.0
  0
POINT
  5
2ABA
100
AcDbEntity
  8
DEFPOINTS
  6
BYBLOCK
 62
     0
100
AcDbPoint
 10
22.807346
 20
212.998093
 30
0.0
  0
POINT
  5
2ABB
100
AcDbEntity
  8
DEFPOINTS
  6
BYBLOCK
 62
     0
100
AcDbPoint
 10
24.237927
 20
226.60916
 30
0.0
  0
POINT
  5
2ABC
100
AcDbEntity
  8
DEFPOINTS
  6
BYBLOCK
 62
     0
100
AcDbPoint
 10
22.807346
 20
211.26112
 30
0.0
  0
ENDBLK
  5
2ABD
100
AcDbEntity
  8
0
100
AcDbBlockEnd
  0
BLOCK
  5
2B99
100
AcDbEntity
  8
0
100
AcDbBlockBegin
  2
*D11
 70
     1
 10
0.0
 20
0.0
 30
0.0
  3
*D11
  1

  0
LINE
  5
2B9A
100
AcDbEntity
  8
0
  6
BYBLOCK
 62
     1
100
AcDbLine
 10
50.682053
 20
180.621258
 30
0.0
 11
50.682053
 21
162.261646
 31
0.0
  0
LINE
  5
2B9B
100
AcDbEntity
  8
0
  6
BYBLOCK
 62
     1
100
AcDbLine
 10
75.682053
 20
174.38077
 30
0.0
 11
75.682053
 21
162.261646
 31
0.0
  0
LINE
  5
2B9C
100
AcDbEntity
  8
0
  6
BYBLOCK
 62
     1
100
AcDbLine
 10
52.682053
 20
164.261646
 30
0.0
 11
73.682053
 21
164.261646
 31
0.0
  0
INSERT
  5
2B9D
100
AcDbEntity
  8
0
  6
BYBLOCK
 62
     1
100
AcDbBlockReference
  2
_OPEN30
 10
50.682053
 20
164.261646
 30
0.0
 41
2.0
 42
2.0
 43
2.0
 50
180.0
  0
INSERT
  5
2B9E
100
AcDbEntity
  8
0
  6
BYBLOCK
 62
     1
100
AcDbBlockReference
  2
_OPEN30
 10
75.682053
 20
164.261646
 30
0.0
 41
2.0
 42
2.0
 43
2.0
  0
MTEXT
  5
2B9F
100
AcDbEntity
  8
0
  6
BYBLOCK
 62
     3
100
AcDbMText
 10
63.182053
 20
166.761646
 30
0.0
 40
3.0
 41
0.0
 71
     5
 72
     1
  1
\A1;25
  0
POINT
  5
2BA0
100
AcDbEntity
  8
DEFPOINTS
  6
BYBLOCK
 62
     0
100
AcDbPoint
 10
50.682053
 20
181.621258
 30
0.0
  0
POINT
  5
2BA1
100
AcDbEntity
  8
DEFPOINTS
  6
BYBLOCK
 62
     0
100
AcDbPoint
 10
75.682053
 20
175.38077
 30
0.0
  0
POINT
  5
2BA2
100
AcDbEntity
  8
DEFPOINTS
  6
BYBLOCK
 62
     0
100
AcDbPoint
 10
75.682053
 20
164.261646
 30
0.0
  0
ENDBLK
  5
2BA3
100
AcDbEntity
  8
0
100
AcDbBlockEnd
  0
BLOCK
  5
2BF1
100
AcDbEntity
  8
0
100
AcDbBlockBegin
  2
*D12
 70
     1
 10
0.0
 20
0.0
 30
0.0
  3
*D12
  1

  0
LINE
  5
2BF2
100
AcDbEntity
  8
0
  6
BYBLOCK
 62
     1
100
AcDbLine
 10
49.685858
 20
181.467926
 30
0.0
 11
38.81327
 21
182.419154
 31
0.0
  0
LINE
  5
2BF3
100
AcDbEntity
  8
0
  6
BYBLOCK
 62
     1
100
AcDbLine
 10
46.955788
 20
181.38077
 30
0.0
 11
38.767933
 21
181.38077
 31
0.0
  0
ARC
  5
2BF4
100
AcDbEntity
  8
0
  6
BYBLOCK
 62
     1
100
AcDbCircle
 10
50.682053
 20
181.38077
 30
0.0
 40
9.91412
100
AcDbArc
 50
151.723424
 51
175.0
  0
LINE
  5
2BF5
100
AcDbEntity
  8
0
  6
BYBLOCK
 62
     1
100
AcDbLine
 10
41.950974
 20
186.077368
 30
0.0
 11
46.025036
 21
193.65114
 31
0.0
  0
ARC
  5
2BF6
100
AcDbEntity
  8
0
  6
BYBLOCK
 62
     1
100
AcDbCircle
 10
50.682053
 20
181.38077
 30
0.0
 40
9.91412
100
AcDbArc
 50
151.843782
 51
163.421891
  0
ARC
  5
2BF7
100
AcDbEntity
  8
0
  6
BYBLOCK
 62
     1
100
AcDbCircle
 10
50.682053
 20
181.38077
 30
0.0
 40
9.91412
100
AcDbArc
 50
191.578109
 51
203.156218
  0
ARC
  5
2BF8
100
AcDbEntity
  8
0
  6
BYBLOCK
 62
     1
100
AcDbCircle
 10
50.682053
 20
181.38077
 30
0.0
 40
9.91412
100
AcDbArc
 50
175.0
 51
180.0
  0
INSERT
  5
2BF9
100
AcDbEntity
  8
0
  6
BYBLOCK
 62
     1
100
AcDbBlockReference
  2
_OPEN30
 10
40.805659
 20
182.244843
 30
0.0
 41
2.0
 42
2.0
 43
2.0
 50
259.210945
  0
INSERT
  5
2BFA
100
AcDbEntity
  8
0
  6
BYBLOCK
 62
     1
100
AcDbBlockReference
  2
_OPEN30
 10
40.767933
 20
181.38077
 30
0.0
 41
2.0
 42
2.0
 43
2.0
 50
95.789055
  0
MTEXT
  5
2BFB
100
AcDbEntity
  8
0
  6
BYBLOCK
 62
     3
100
AcDbMText
 10
41.786327
 20
191.048575
 30
0.0
 40
3.0
 41
0.0
 71
     5
 72
     1
  1
\A1;5°
 11
0.473728
 21
0.880671
 31
0.0
  0
POINT
  5
2BFC
100
AcDbEntity
  8
DEFPOINTS
  6
BYBLOCK
 62
     0
100
AcDbPoint
 10
40.772127
 20
181.66912
 30
0.0
  0
POINT
  5
2BFD
100
AcDbEntity
  8
DEFPOINTS
  6
BYBLOCK
 62
     0
100
AcDbPoint
 10
50.682053
 20
181.38077
 30
0.0
  0
POINT
  5
2BFE
100
AcDbEntity
  8
DEFPOINTS
  6
BYBLOCK
 62
     0
100
AcDbPoint
 10
47.955788
 20
181.38077
 30
0.0
  0
POINT
  5
2BFF
100
AcDbEntity
  8
DEFPOINTS
  6
BYBLOCK
 62
     0
100
AcDbPoint
 10
260.540092
 20
181.38077
 30
0.0
  0
POINT
  5
2C00
100
AcDbEntity
  8
DEFPOINTS
  6
BYBLOCK
 62
     0
100
AcDbPoint
 10
53.9048
 20
181.098816
 30
0.0
  0
ENDBLK
  5
2C01
100
AcDbEntity
  8
0
100
AcDbBlockEnd
  0
BLOCK
  5
2BD2
100
AcDbEntity
  8
0
100
AcDbBlockBegin
  2
*D13
 70
     1
 10
0.0
 20
0.0
 30
0.0
  3
*D13
  1

  0
LINE
  5
2BD3
100
AcDbEntity
  8
0
  6
BYBLOCK
 62
     1
100
AcDbLine
 10
16.493876
 20
213.243088
 30
0.0
 11
15.231182
 21
211.692087
 31
0.0
  0
LINE
  5
2BD4
100
AcDbEntity
  8
0
  6
BYBLOCK
 62
     1
100
AcDbLine
 10
29.120816
 20
228.753097
 30
0.0
 11
36.69698
 21
238.059103
 31
0.0
  0
LINE
  5
2BD5
100
AcDbEntity
  8
0
  6
BYBLOCK
 62
     1
100
AcDbLine
 10
17.75657
 20
214.794089
 30
0.0
 11
27.858122
 21
227.202096
 31
0.0
  0
INSERT
  5
2BD6
100
AcDbEntity
  8
0
  6
BYBLOCK
 62
     1
100
AcDbBlockReference
  2
_OPEN30
 10
17.75657
 20
214.794089
 30
0.0
 41
2.0
 42
2.0
 43
2.0
 50
50.850429
  0
INSERT
  5
2BD7
100
AcDbEntity
  8
0
  6
BYBLOCK
 62
     1
100
AcDbBlockReference
  2
_OPEN30
 10
27.858122
 20
227.202096
 30
0.0
 41
2.0
 42
2.0
 43
2.0
 50
230.850429
  0
MTEXT
  5
2BD8
100
AcDbEntity
  8
0
  6
BYBLOCK
 62
     3
100
AcDbMText
 10
31.601494
 20
235.759968
 30
0.0
 40
3.0
 41
0.0
 71
     5
 72
     1
  1
\A1;\U+220516
 11
0.631347
 21
0.7755
 31
0.0
  0
POINT
  5
2BD9
100
AcDbEntity
  8
DEFPOINTS
  6
BYBLOCK
 62
     0
100
AcDbPoint
 10
27.858122
 20
227.202096
 30
0.0
  0
POINT
  5
2BDA
100
AcDbEntity
  8
DEFPOINTS
  6
BYBLOCK
 62
     0
100
AcDbPoint
 10
17.75657
 20
214.794089
 30
0.0
  0
ENDBLK
  5
2BDB
100
AcDbEntity
  8
0
100
AcDbBlockEnd
  0
BLOCK
  5
2C1D
100
AcDbEntity
  8
0
100
AcDbBlockBegin
  2
*D14
 70
     1
 10
0.0
 20
0.0
 30
0.0
  3
*D14
  1

  0
LINE
  5
2C1E
100
AcDbEntity
  8
0
  6
BYBLOCK
 62
     1
100
AcDbLine
 10
155.265283
 20
214.336161
 30
0.0
 11
154.170943
 21
212.662118
 31
0.0
  0
LINE
  5
2C1F
100
AcDbEntity
  8
0
  6
BYBLOCK
 62
     1
100
AcDbLine
 10
164.020004
 20
227.728504
 30
0.0
 11
170.586045
 21
237.772762
 31
0.0
  0
LINE
  5
2C20
100
AcDbEntity
  8
0
  6
BYBLOCK
 62
     1
100
AcDbLine
 10
156.359623
 20
216.010204
 30
0.0
 11
162.925664
 21
226.054461
 31
0.0
  0
INSERT
  5
2C21
100
AcDbEntity
  8
0
  6
BYBLOCK
 62
     1
100
AcDbBlockReference
  2
_OPEN30
 10
156.359623
 20
216.010204
 30
0.0
 41
2.0
 42
2.0
 43
2.0
 50
56.826917
  0
INSERT
  5
2C22
100
AcDbEntity
  8
0
  6
BYBLOCK
 62
     1
100
AcDbBlockReference
  2
_OPEN30
 10
162.925664
 20
226.054461
 30
0.0
 41
2.0
 42
2.0
 43
2.0
 50
236.826917
  0
MTEXT
  5
2C23
100
AcDbEntity
  8
0
  6
BYBLOCK
 62
     3
100
AcDbMText
 10
165.757641
 20
234.95558
 30
0.0
 40
3.0
 41
0.0
 71
     5
 72
     1
  1
\A1;\U+220512
 11
0.54717
 21
0.837021
 31
0.0
  0
POINT
  5
2C24
100
AcDbEntity
  8
DEFPOINTS
  6
BYBLOCK
 62
     0
100
AcDbPoint
 10
162.925664
 20
226.054461
 30
0.0
  0
POINT
  5
2C25
100
AcDbEntity
  8
DEFPOINTS
  6
BYBLOCK
 62
     0
100
AcDbPoint
 10
156.359623
 20
216.010204
 30
0.0
  0
ENDBLK
  5
2C26
100
AcDbEntity
  8
0
100
AcDbBlockEnd
  0
ENDSEC
  0
SECTION
  2
ENTITIES
  0
TEXT
  5
1453
100
AcDbEntity
  8
外形
  6
CONTINUOUS
 62
     2
100
AcDbText
 10
81.945496
 20
150.213866
 30
0.0
 40
6.0
  1
WBPT212R
100
AcDbText
  0
LINE
  5
2185
100
AcDbEntity
  8
外形
  6
CENTER
 62
     1
100
AcDbLine
 10
49.755294
 20
218.086954
 30
0.0
 11
58.046538
 21
218.086954
 31
0.0
  0
LINE
  5
2189
100
AcDbEntity
  8
外形
  6
CONTINUOUS
100
AcDbLine
 10
51.263649
 20
213.07593
 30
0.0
 11
59.82879
 21
217.440087
 31
0.0
  0
LINE
  5
218A
100
AcDbEntity
  8
外形
  6
CONTINUOUS
100
AcDbLine
 10
50.682601
 20
213.453267
 30
0.0
 11
51.237026
 21
224.032332
 31
0.0
  0
LINE
  5
218C
100
AcDbEntity
  8
外形
  6
CONTINUOUS
100
AcDbLine
 10
51.22196
 20
223.744846
 30
0.0
 11
59.865049
 21
218.131958
 31
0.0
  0
ARC
  5
218D
100
AcDbEntity
  8
外形
  6
CONTINUOUS
100
AcDbCircle
 10
51.082053
 20
213.432332
 30
0.0
 40
0.4
100
AcDbArc
 50
177.0
 51
297.0
  0
ARC
  5
218E
100
AcDbEntity
  8
外形
  6
CONTINUOUS
100
AcDbCircle
 10
51.585152
 20
223.03204
 30
0.0
 40
0.4
100
AcDbArc
 50
57.0
 51
177.0
  0
ARC
  5
218F
100
AcDbEntity
  8
外形
  6
CONTINUOUS
100
AcDbCircle
 10
59.647193
 20
217.79649
 30
0.0
 40
0.4
100
AcDbArc
 50
297.0
 51
57.0
  0
LINE
  5
21A1
100
AcDbEntity
  8
外形
  6
CENTER
 62
     1
100
AcDbLine
 10
54.1048
 20
211.821749
 30
0.0
 11
54.1048
 21
224.352159
 31
0.0
  0
LINE
  5
21A5
100
AcDbEntity
  8
外形
  6
CENTER
 62
     1
100
AcDbLine
 10
46.059876
 20
221.032332
 30
0.0
 11
262.004375
 21
221.032332
 31
0.0
  0
ARC
  5
21AB
100
AcDbEntity
  8
外形
  6
CONTINUOUS
100
AcDbCircle
 10
59.318608
 20
218.214259
 30
0.0
 40
1.5
100
AcDbArc
 50
267.0
 51
87.0
  0
LINE
  5
21AC
100
AcDbEntity
  8
外形
  6
CONTINUOUS
100
AcDbLine
 10
59.397111
 20
219.712203
 30
0.0
 11
57.259149
 21
219.824249
 31
0.0
  0
LINE
  5
21AD
100
AcDbEntity
  8
外形
  6
CONTINUOUS
100
AcDbLine
 10
59.240104
 20
216.716315
 30
0.0
 11
58.485883
 21
216.755842
 31
0.0
  0
LINE
  5
21B1
100
AcDbEntity
  8
外形
  6
CENTER
 62
     1
100
AcDbLine
 10
47.955788
 20
181.38077
 30
0.0
 11
260.540092
 21
181.38077
 31
0.0
  0
LINE
  5
2203
100
AcDbEntity
  8
外形
  6
CENTER
 62
     1
100
AcDbLine
 10
32.578559
 20
221.032332
 30
0.0
 11
13.036133
 21
221.032332
 31
0.0
  0
LINE
  5
2204
100
AcDbEntity
  8
外形
  6
CENTER
 62
     1
100
AcDbLine
 10
22.807346
 20
230.803545
 30
0.0
 11
22.807346
 21
211.26112
 31
0.0
  0
LINE
  5
2208
100
AcDbEntity
  8
外形
  6
CONTINUOUS
100
AcDbLine
 10
22.807346
 20
212.998093
 30
0.0
 11
24.237927
 21
226.60916
 31
0.0
  0
LINE
  5
220B
100
AcDbEntity
  8
外形
  6
CONTINUOUS
100
AcDbLine
 10
22.807346
 20
212.998093
 30
0.0
 11
19.709379
 21
213.945236
 31
0.0
  0
LINE
  5
220C
100
AcDbEntity
  8
外形
  6
CONTINUOUS
100
AcDbLine
 10
19.709379
 20
213.945236
 30
0.0
 11
20.661116
 21
223.000415
 31
0.0
  0
LINE
  5
220E
100
AcDbEntity
  8
外形
  6
CONTINUOUS
100
AcDbLine
 10
20.661116
 20
223.000415
 30
0.0
 11
23.888308
 21
223.282758
 31
0.0
  0
LINE
  5
2316
100
AcDbEntity
  8
外形
  6
CONTINUOUS
100
AcDbLine
 10
249.682053
 20
227.032332
 30
0.0
 11
249.682053
 21
223.430248
 31
0.0
  0
LINE
  5
2319
100
AcDbEntity
  8
外形
  6
CONTINUOUS
100
AcDbLine
 10
249.682053
 20
218.634417
 30
0.0
 11
249.682053
 21
215.032332
 31
0.0
  0
LINE
  5
231A
100
AcDbEntity
  8
外形
  6
CONTINUOUS
100
AcDbLine
 10
249.682053
 20
215.032332
 30
0.0
 11
250.682053
 21
216.032332
 31
0.0
  0
LINE
  5
231B
100
AcDbEntity
  8
外形
  6
CONTINUOUS
100
AcDbLine
 10
249.682053
 20
227.032332
 30
0.0
 11
250.682053
 21
226.032332
 31
0.0
  0
DIMENSION
  5
238C
100
AcDbEntity
  8
寸法
  6
CONTINUOUS
100
AcDbDimension
  2
*D4
 10
50.682053
 20
213.032332
 30
0.0
 11
38.639147
 21
225.700239
 31
0.0
 12
0.0
 22
-2.0
 32
0.0
 70
    34
  3
STANDARD
100
AcDb2LineAngularDimension
 13
50.682601
 23
213.453267
 33
0.0
 14
51.22196
 24
223.744846
 34
0.0
 15
51.082053
 25
213.032332
 35
0.0
 16
43.635389
 26
226.244722
 36
0.0
1001
ACAD
1000
DSTYLE
1002
{
1070
   284
1070
    13
1070
   146
1040
0.5
1070
   272
1070
     3
1070
    40
1040
1.0
1070
   287
1070
     0
1002
}
  0
MTEXT
  5
23B0
100
AcDbEntity
  8
寸法
  6
BYBLOCK
 62
     3
100
AcDbMText
 10
29.631506
 20
239.930391
 30
0.0
 40
3.0
 41
0.0
 71
     5
 72
     1
  1
最小加工径
 11
0.654345
 21
0.756197
 31
0.0
  0
CIRCLE
  5
25FF
100
AcDbEntity
  8
外形
  6
CONTINUOUS
100
AcDbCircle
 10
54.1048
 20
218.086954
 30
0.0
 40
1.944
  0
ARC
  5
2600
100
AcDbEntity
  8
外形
  6
CONTINUOUS
100
AcDbCircle
 10
54.1048
 20
219.100803
 30
0.0
 40
0.288
100
AcDbArc
 50
240.283476
 51
299.716524
  0
ARC
  5
2601
100
AcDbEntity
  8
外形
  6
CONTINUOUS
100
AcDbCircle
 10
53.22678
 20
218.593879
 30
0.0
 40
0.288
100
AcDbArc
 50
300.283476
 51
359.716524
  0
ARC
  5
2602
100
AcDbEntity
  8
外形
  6
CONTINUOUS
100
AcDbCircle
 10
53.22678
 20
217.580029
 30
0.0
 40
0.288
100
AcDbArc
 50
0.283476
 51
59.716524
  0
ARC
  5
2603
100
AcDbEntity
  8
外形
  6
CONTINUOUS
100
AcDbCircle
 10
54.1048
 20
217.073105
 30
0.0
 40
0.288
100
AcDbArc
 50
60.283476
 51
119.716524
  0
ARC
  5
2604
100
AcDbEntity
  8
外形
  6
CONTINUOUS
100
AcDbCircle
 10
54.982819
 20
217.580029
 30
0.0
 40
0.288
100
AcDbArc
 50
120.283476
 51
179.716524
  0
ARC
  5
2605
100
AcDbEntity
  8
外形
  6
CONTINUOUS
100
AcDbCircle
 10
54.982819
 20
218.593879
 30
0.0
 40
0.288
100
AcDbArc
 50
180.283476
 51
239.716524
  0
LINE
  5
2606
100
AcDbEntity
  8
外形
  6
CONTINUOUS
100
AcDbLine
 10
54.692289
 20
217.069393
 30
0.0
 11
54.247564
 21
217.323229
 31
0.0
  0
LINE
  5
2607
100
AcDbEntity
  8
外形
  6
CONTINUOUS
100
AcDbLine
 10
54.694822
 20
217.581454
 30
0.0
 11
54.692289
 21
217.069393
 31
0.0
  0
LINE
  5
2608
100
AcDbEntity
  8
外形
  6
CONTINUOUS
100
AcDbLine
 10
53.51731
 20
217.069393
 30
0.0
 11
53.514777
 21
217.581454
 31
0.0
  0
LINE
  5
2609
100
AcDbEntity
  8
外形
  6
CONTINUOUS
100
AcDbLine
 10
53.962035
 20
217.323229
 30
0.0
 11
53.51731
 21
217.069393
 31
0.0
  0
LINE
  5
260A
100
AcDbEntity
  8
外形
  6
CONTINUOUS
100
AcDbLine
 10
53.51731
 20
219.104516
 30
0.0
 11
53.962035
 21
218.850679
 31
0.0
  0
LINE
  5
260B
100
AcDbEntity
  8
外形
  6
CONTINUOUS
100
AcDbLine
 10
53.514777
 20
218.592454
 30
0.0
 11
53.51731
 21
219.104516
 31
0.0
  0
LINE
  5
260C
100
AcDbEntity
  8
外形
  6
CONTINUOUS
100
AcDbLine
 10
54.692289
 20
219.104516
 30
0.0
 11
54.694822
 21
218.592454
 31
0.0
  0
LINE
  5
260D
100
AcDbEntity
  8
外形
  6
CONTINUOUS
100
AcDbLine
 10
54.247564
 20
218.850679
 30
0.0
 11
54.692289
 21
219.104516
 31
0.0
  0
LINE
  5
260E
100
AcDbEntity
  8
外形
  6
CONTINUOUS
100
AcDbLine
 10
55.279778
 20
218.086954
 30
0.0
 11
54.837587
 21
217.828729
 31
0.0
  0
LINE
  5
260F
100
AcDbEntity
  8
外形
  6
CONTINUOUS
100
AcDbLine
 10
54.837587
 20
218.345179
 30
0.0
 11
55.279778
 21
218.086954
 31
0.0
  0
LINE
  5
2610
100
AcDbEntity
  8
外形
  6
CONTINUOUS
100
AcDbLine
 10
52.929821
 20
218.086954
 30
0.0
 11
53.372012
 21
218.345179
 31
0.0
  0
LINE
  5
2611
100
AcDbEntity
  8
外形
  6
CONTINUOUS
100
AcDbLine
 10
53.372012
 20
217.828729
 30
0.0
 11
52.929821
 21
218.086954
 31
0.0
  0
LINE
  5
268F
100
AcDbEntity
  8
外形
  6
CONTINUOUS
100
AcDbLine
 10
56.000166
 20
226.782332
 30
0.0
 11
68.682053
 21
226.782332
 31
0.0
  0
LINE
  5
2696
100
AcDbEntity
  8
外形
  6
CONTINUOUS
100
AcDbLine
 10
70.682053
 20
227.032332
 30
0.0
 11
70.682053
 21
223.430248
 31
0.0
  0
LINE
  5
2697
100
AcDbEntity
  8
外形
  6
CONTINUOUS
100
AcDbLine
 10
68.682053
 20
226.782332
 30
0.0
 11
68.682053
 21
222.804935
 31
0.0
  0
LINE
  5
2698
100
AcDbEntity
  8
外形
  6
CONTINUOUS
100
AcDbLine
 10
68.932053
 20
227.032332
 30
0.0
 11
68.682053
 21
226.782332
 31
0.0
  0
LINE
  5
269A
100
AcDbEntity
  8
外形
  6
CONTINUOUS
100
AcDbLine
 10
68.932053
 20
227.032332
 30
0.0
 11
151.613703
 21
227.032332
 31
0.0
  0
LINE
  5
269B
100
AcDbEntity
  8
外形
  6
CONTINUOUS
100
AcDbLine
 10
69.481724
 20
215.032332
 30
0.0
 11
151.613703
 21
215.032332
 31
0.0
  0
LINE
  5
269D
100
AcDbEntity
  8
外形
  6
CONTINUOUS
100
AcDbLine
 10
68.932053
 20
215.239473
 30
0.0
 11
68.932053
 21
217.813397
 31
0.0
  0
LINE
  5
26A9
100
AcDbEntity
  8
外形
  6
CONTINUOUS
100
AcDbLine
 10
68.932053
 20
175.38077
 30
0.0
 11
75.682053
 21
175.38077
 31
0.0
  0
LINE
  5
26CF
100
AcDbEntity
  8
外形
  6
CONTINUOUS
100
AcDbLine
 10
75.682053
 20
175.38077
 30
0.0
 11
75.682053
 21
175.88077
 31
0.0
  0
LINE
  5
26D0
100
AcDbEntity
  8
外形
  6
CONTINUOUS
100
AcDbLine
 10
67.778867
 20
186.88077
 30
0.0
 11
250.182053
 21
186.88077
 31
0.0
  0
LINE
  5
26D1
100
AcDbEntity
  8
外形
  6
CONTINUOUS
100
AcDbLine
 10
75.682053
 20
175.88077
 30
0.0
 11
250.182053
 21
175.88077
 31
0.0
  0
LINE
  5
26D3
100
AcDbEntity
  8
外形
  6
CENTER
 62
     1
100
AcDbLine
 10
159.642644
 20
211.888701
 30
0.0
 11
159.642644
 21
230.842777
 31
0.0
  0
ARC
  5
26D4
100
AcDbEntity
  8
外形
  6
CONTINUOUS
100
AcDbCircle
 10
159.642644
 20
221.032332
 30
0.0
 40
6.0
100
AcDbArc
 50
23.556464
 51
156.443536
  0
LINE
  5
26D5
100
AcDbEntity
  8
外形
  6
CONTINUOUS
100
AcDbLine
 10
154.142644
 20
218.634417
 30
0.0
 11
154.142644
 21
223.430248
 31
0.0
  0
LINE
  5
26D6
100
AcDbEntity
  8
外形
  6
CONTINUOUS
100
AcDbLine
 10
165.142644
 20
223.430248
 30
0.0
 11
165.142644
 21
218.634417
 31
0.0
  0
LINE
  5
26D9
100
AcDbEntity
  8
外形
  6
CONTINUOUS
100
AcDbLine
 10
151.613703
 20
223.430248
 30
0.0
 11
68.932053
 21
223.430248
 31
0.0
  0
LINE
  5
26DA
100
AcDbEntity
  8
外形
  6
CONTINUOUS
100
AcDbLine
 10
151.613703
 20
218.634417
 30
0.0
 11
69.903852
 21
218.634417
 31
0.0
  0
LINE
  5
26DB
100
AcDbEntity
  8
外形
  6
CONTINUOUS
100
AcDbLine
 10
167.9977
 20
227.032332
 30
0.0
 11
249.682053
 21
227.032332
 31
0.0
  0
LINE
  5
26DC
100
AcDbEntity
  8
外形
  6
CONTINUOUS
100
AcDbLine
 10
167.9977
 20
223.430248
 30
0.0
 11
249.682053
 21
223.430248
 31
0.0
  0
LINE
  5
26DD
100
AcDbEntity
  8
外形
  6
CONTINUOUS
100
AcDbLine
 10
167.9977
 20
218.634417
 30
0.0
 11
249.682053
 21
218.634417
 31
0.0
  0
LINE
  5
26DE
100
AcDbEntity
  8
外形
  6
CONTINUOUS
100
AcDbLine
 10
167.9977
 20
215.032332
 30
0.0
 11
249.682053
 21
215.032332
 31
0.0
  0
ARC
  5
26DF
100
AcDbEntity
  8
外形
  6
CONTINUOUS
100
AcDbCircle
 10
159.642644
 20
221.032332
 30
0.0
 40
6.0
100
AcDbArc
 50
203.556464
 51
336.443536
  0
LINE
  5
26E3
100
AcDbEntity
  8
外形
  6
CONTINUOUS
100
AcDbLine
 10
250.682053
 20
226.032332
 30
0.0
 11
250.682053
 21
216.032332
 31
0.0
  0
ELLIPSE
  5
26E6
100
AcDbEntity
  8
外形
  6
CONTINUOUS
100
AcDbEllipse
 10
249.682053
 20
221.032332
 30
0.0
 11
0.0
 21
2.397915761657486
 31
0.0
210
0.0
220
0.0
230
1.0
 40
0.208514
 41
3.141592653589793
 42
6.283185307179586
  0
LINE
  5
26E9
100
AcDbEntity
  8
外形
  6
CONTINUOUS
100
AcDbLine
 10
250.682053
 20
186.38077
 30
0.0
 11
250.682053
 21
176.38077
 31
0.0
  0
LINE
  5
26EB
100
AcDbEntity
  8
外形
  6
CONTINUOUS
100
AcDbLine
 10
250.182053
 20
175.88077
 30
0.0
 11
250.682053
 21
176.38077
 31
0.0
  0
LINE
  5
26EC
100
AcDbEntity
  8
外形
  6
CONTINUOUS
100
AcDbLine
 10
249.682053
 20
186.88077
 30
0.0
 11
249.682053
 21
175.88077
 31
0.0
  0
LINE
  5
26ED
100
AcDbEntity
  8
外形
  6
CONTINUOUS
100
AcDbLine
 10
250.182053
 20
186.88077
 30
0.0
 11
250.682053
 21
186.38077
 31
0.0
  0
LINE
  5
27DA
100
AcDbEntity
  8
外形
  6
CONTINUOUS
100
AcDbLine
 10
68.682053
 20
217.571099
 30
0.0
 11
68.682053
 21
215.321724
 31
0.0
  0
LINE
  5
27DB
100
AcDbEntity
  8
外形
  6
CONTINUOUS
100
AcDbLine
 10
68.932053
 20
223.430248
 30
0.0
 11
68.932053
 21
227.032332
 31
0.0
  0
ELLIPSE
  5
27E0
100
AcDbEntity
  8
外形
  6
CONTINUOUS
100
AcDbEllipse
 10
70.682053
 20
221.032332
 30
0.0
 11
0.0
 21
2.397915761657515
 31
0.0
210
0.0
220
0.0
230
1.0
 40
0.208514
 41
0.0
 42
3.141592653589793
  0
LINE
  5
27E1
100
AcDbEntity
  8
外形
  6
CONTINUOUS
100
AcDbLine
 10
70.682053
 20
218.634417
 30
0.0
 11
70.682053
 21
215.032332
 31
0.0
  0
DIMENSION
  5
27F0
100
AcDbEntity
  8
寸法
  6
CONTINUOUS
100
AcDbDimension
  2
*D7
 10
165.142644
 20
206.176159
 30
0.0
 11
130.248606
 21
208.676159
 31
0.0
 12
29.394038
 22
0.0
 32
0.0
 70
    32
  3
STANDARD
100
AcDbAlignedDimension
 13
154.142644
 23
218.634417
 33
0.0
 14
165.142644
 24
218.634417
 34
0.0
100
AcDbRotatedDimension
1001
ACAD
1000
DSTYLE
1002
{
1070
   284
1070
    13
1070
   146
1040
0.5
1070
   272
1070
     3
1070
    40
1040
1.0
1070
   287
1070
     0
1002
}
  0
DIMENSION
  5
2808
100
AcDbEntity
  8
寸法
  6
CONTINUOUS
100
AcDbDimension
  2
*D8
 10
250.682053
 20
197.088249
 30
0.0
 11
150.682053
 21
199.588249
 31
0.0
 70
    32
  3
STANDARD
100
AcDbAlignedDimension
 13
50.682053
 23
214.032332
 33
0.0
 14
250.682053
 24
216.032332
 34
0.0
100
AcDbRotatedDimension
1001
ACAD
1000
DSTYLE
1002
{
1070
   284
1070
    13
1070
   146
1040
0.5
1070
   272
1070
     3
1070
    40
1040
1.0
1070
   287
1070
     0
1002
}
  0
DIMENSION
  5
29F2
100
AcDbEntity
  8
寸法
  6
CONTINUOUS
100
AcDbDimension
  2
*D9
 10
44.549669
 20
213.032332
 30
0.0
 11
42.049669
 21
217.032332
 31
0.0
 70
    32
  3
STANDARD
100
AcDbAlignedDimension
 13
46.059876
 23
221.032332
 33
0.0
 14
50.682053
 24
213.032332
 34
0.0
 50
90.0
100
AcDbRotatedDimension
1001
ACAD
1000
DSTYLE
1002
{
1070
   284
1070
    13
1070
   146
1040
0.5
1070
   272
1070
     3
1070
    40
1040
1.0
1070
   287
1070
     0
1002
}
  0
LINE
  5
2A2A
100
AcDbEntity
  8
外形
  6
CONTINUOUS
100
AcDbLine
 10
59.682053
 20
213.782332
 30
0.0
 11
52.650042
 21
213.782332
 31
0.0
  0
LINE
  5
2A2B
100
AcDbEntity
  8
外形
  6
CONTINUOUS
100
AcDbLine
 10
59.682053
 20
213.782332
 30
0.0
 11
52.650042
 21
213.782332
 31
0.0
  0
LINE
  5
2A32
100
AcDbEntity
  8
外形
  6
CONTINUOUS
100
AcDbLine
 10
17.711929
 20
224.689776
 30
0.0
 11
23.967091
 21
224.032332
 31
0.0
  0
LINE
  5
2A33
100
AcDbEntity
  8
外形
  6
CONTINUOUS
100
AcDbLine
 10
51.237026
 20
224.032332
 30
0.0
 11
56.000166
 21
226.782332
 31
0.0
  0
ARC
  5
2A6C
100
AcDbEntity
  8
外形
  6
CONTINUOUS
100
AcDbCircle
 10
22.837393
 20
221.032332
 30
0.0
 40
7.25
100
AcDbArc
 50
184.791392
 51
269.762538
  0
ARC
  5
2A6D
100
AcDbEntity
  8
外形
  6
CONTINUOUS
100
AcDbCircle
 10
22.837393
 20
221.032332
 30
0.0
 40
5.75
100
AcDbArc
 50
269.700591
 51
342.044473
  0
LINE
  5
2A6E
100
AcDbEntity
  8
外形
  6
CENTER
 62
     1
100
AcDbLine
 10
25.067727
 20
219.532332
 30
0.0
 11
20.988714
 21
219.532332
 31
0.0
  0
ARC
  5
2A70
100
AcDbEntity
  8
外形
  6
CONTINUOUS
100
AcDbCircle
 10
22.807346
 20
219.532332
 30
0.0
 40
7.25
100
AcDbArc
 50
90.0
 51
172.913456
  0
LINE
  5
2A8C
100
AcDbEntity
  8
外形
  6
CONTINUOUS
100
AcDbLine
 10
28.307346
 20
222.804935
 30
0.0
 11
28.307346
 21
219.25973
 31
0.0
  0
ARC
  5
2A8D
100
AcDbEntity
  8
外形
  6
CONTINUOUS
100
AcDbCircle
 10
22.837393
 20
221.032332
 30
0.0
 40
5.75
100
AcDbArc
 50
17.955527
 51
90.299409
  0
DIMENSION
  5
2AAC
100
AcDbEntity
  8
寸法
  6
CONTINUOUS
100
AcDbDimension
  2
*D10
 10
22.807346
 20
211.26112
 30
0.0
 11
14.536896
 21
204.512555
 31
0.0
 70
    34
  3
STANDARD
100
AcDb2LineAngularDimension
 13
22.807346
 23
212.998093
 33
0.0
 14
24.237927
 24
226.60916
 34
0.0
 15
22.807346
 25
230.803545
 35
0.0
 16
22.334755
 26
199.464843
 36
0.0
1001
ACAD
1000
DSTYLE
1002
{
1070
   284
1070
    13
1070
   146
1040
0.5
1070
   272
1070
     3
1070
    40
1040
1.0
1070
   287
1070
     0
1002
}
  0
LINE
  5
2B04
100
AcDbEntity
  8
外形
  6
CONTINUOUS
100
AcDbLine
 10
68.932053
 20
223.430248
 30
0.0
 11
68.682053
 21
222.804935
 31
0.0
  0
SPLINE
  5
2B05
100
AcDbEntity
  8
外形
  6
CONTINUOUS
100
AcDbSpline
210
0.0
220
0.0
230
-1.0
 70
     8
 71
     3
 72
    13
 73
     9
 74
     0
 42
0.0000001
 43
0.0000001
 40
0.0
 40
0.0
 40
0.0
 40
0.0
 40
2.416900914169723
 40
4.684441642420222
 40
6.679246615842532
 40
8.519501402646238
 40
10.41478379708814
 40
12.75994802140276
 40
12.75994802140276
 40
12.75994802140276
 40
12.75994802140276
 10
67.778866884531
 20
222.8049348806795
 30
0.0
 10
67.13319684999143
 20
223.2908127249341
 30
0.0
 10
65.88175804282832
 20
224.2325420252178
 30
0.0
 10
63.83868511031796
 20
225.1508070050307
 30
0.0
 10
61.91535155539305
 20
225.8139210356046
 30
0.0
 10
60.06143077455664
 20
226.2839171682207
 30
0.0
 10
58.0561500924243
 20
226.605671839781
 30
0.0
 10
56.645573227071
 20
226.6825590750021
 30
0.0
 10
55.86368032360926
 20
226.7035323011844
 30
0.0
  0
SPLINE
  5
2B06
100
AcDbEntity
  8
外形
  6
CONTINUOUS
100
AcDbSpline
210
0.0
220
0.0
230
1.0
 70
     8
 71
     3
 72
    12
 73
     8
 74
     0
 42
0.0000001
 43
0.0000001
 40
0.0
 40
0.0
 40
0.0
 40
0.0
 40
1.172955466186925
 40
2.61052251938034
 40
3.996353529188811
 40
5.396501252653769
 40
5.552925469861677
 40
5.552925469861677
 40
5.552925469861677
 40
5.552925469861677
 10
69.9038520427845
 20
218.6344166850487
 30
0.0
 10
69.59797893789863
 20
218.3910261095526
 30
0.0
 10
68.9172296243948
 20
217.8493375317219
 30
0.0
 10
68.01413923933674
 20
216.8464484495059
 30
0.0
 10
66.72117871545228
 20
216.2346741049801
 30
0.0
 10
65.79493937958433
 20
215.9145232444035
 30
0.0
 10
65.29293763648482
 20
215.7852620182481
 30
0.0
 10
65.24237887621251
 20
215.7726621069669
 30
0.0
  0
LINE
  5
2B08
100
AcDbEntity
  8
外形
  6
CONTINUOUS
100
AcDbLine
 10
64.182053
 20
174.13077
 30
0.0
 11
52.09131
 21
174.13077
 31
0.0
  0
LINE
  5
2B09
100
AcDbEntity
  8
外形
  6
CONTINUOUS
100
AcDbLine
 10
64.182053
 20
174.13077
 30
0.0
 11
52.09131
 21
174.13077
 31
0.0
  0
LINE
  5
2B0B
100
AcDbEntity
  8
外形
  6
CONTINUOUS
100
AcDbLine
 10
50.682053
 20
181.621258
 30
0.0
 11
50.682053
 21
181.38077
 31
0.0
  0
LINE
  5
2B0C
100
AcDbEntity
  8
外形
  6
CONTINUOUS
100
AcDbLine
 10
64.182053
 20
176.50277
 30
0.0
 11
64.182053
 21
174.13077
 31
0.0
  0
LINE
  5
2B0E
100
AcDbEntity
  8
外形
  6
CONTINUOUS
100
AcDbLine
 10
64.182053
 20
174.13077
 30
0.0
 11
65.682053
 21
175.63077
 31
0.0
  0
LINE
  5
2B0F
100
AcDbEntity
  8
外形
  6
CONTINUOUS
100
AcDbLine
 10
68.932053
 20
175.38077
 30
0.0
 11
70.682053
 21
175.38077
 31
0.0
  0
LINE
  5
2B11
100
AcDbEntity
  8
外形
  6
CONTINUOUS
100
AcDbLine
 10
70.682053
 20
186.88077
 30
0.0
 11
70.682053
 21
175.38077
 31
0.0
  0
LINE
  5
2B12
100
AcDbEntity
  8
外形
  6
CONTINUOUS
100
AcDbLine
 10
68.932053
 20
175.38077
 30
0.0
 11
68.932053
 21
179.81777
 31
0.0
  0
LINE
  5
2B13
100
AcDbEntity
  8
外形
  6
CONTINUOUS
100
AcDbLine
 10
68.682053
 20
185.564202
 30
0.0
 11
68.682053
 21
183.117781
 31
0.0
  0
LINE
  5
2B14
100
AcDbEntity
  8
外形
  6
CONTINUOUS
100
AcDbLine
 10
65.682053
 20
179.03577
 30
0.0
 11
65.682053
 21
175.63077
 31
0.0
  0
LINE
  5
2B15
100
AcDbEntity
  8
外形
  6
CONTINUOUS
100
AcDbLine
 10
65.682053
 20
175.63077
 30
0.0
 11
68.682053
 21
175.63077
 31
0.0
  0
LINE
  5
2B16
100
AcDbEntity
  8
外形
  6
CONTINUOUS
100
AcDbLine
 10
68.932053
 20
175.38077
 30
0.0
 11
68.682053
 21
175.63077
 31
0.0
  0
LINE
  5
2B19
100
AcDbEntity
  8
外形
  6
CONTINUOUS
100
AcDbLine
 10
50.682053
 20
181.38077
 30
0.0
 11
53.9048
 21
181.098816
 31
0.0
  0
LINE
  5
2B1B
100
AcDbEntity
  8
外形
  6
CONTINUOUS
100
AcDbLine
 10
52.09131
 20
174.13077
 30
0.0
 11
50.682053
 21
181.38077
 31
0.0
  0
LINE
  5
2B1C
100
AcDbEntity
  8
外形
  6
CONTINUOUS
100
AcDbLine
 10
51.284237
 20
178.282803
 30
0.0
 11
53.9048
 21
178.053533
 31
0.0
  0
LINE
  5
2B1E
100
AcDbEntity
  8
外形
  6
CONTINUOUS
100
AcDbLine
 10
53.9048
 20
178.053533
 30
0.0
 11
53.9048
 21
181.621258
 31
0.0
  0
LINE
  5
2B1F
100
AcDbEntity
  8
外形
  6
CONTINUOUS
100
AcDbLine
 10
51.237026
 20
182.811351
 30
0.0
 11
53.71552
 21
182.811351
 31
0.0
  0
LINE
  5
2B20
100
AcDbEntity
  8
外形
  6
CONTINUOUS
100
AcDbLine
 10
53.9048
 20
181.621258
 30
0.0
 11
59.516667
 21
181.621258
 31
0.0
  0
LINE
  5
2B22
100
AcDbEntity
  8
外形
  6
CONTINUOUS
100
AcDbLine
 10
51.237026
 20
182.811351
 30
0.0
 11
50.682053
 21
181.621258
 31
0.0
  0
SPLINE
  5
2B3B
100
AcDbEntity
  8
外形
  6
CONTINUOUS
100
AcDbSpline
210
0.0
220
0.0
230
1.0
 70
     8
 71
     3
 72
    13
 73
     9
 74
     7
 42
0.0000001
 43
0.0000001
 44
0.0000000001
 40
0.0
 40
0.0
 40
0.0
 40
0.0
 40
1.356611579760296
 40
2.745841683878203
 40
4.243939208041306
 40
5.814934395085213
 40
7.586203551337653
 40
11.97296912017099
 40
11.97296912017099
 40
11.97296912017099
 40
11.97296912017099
 10
69.90385204278448
 20
186.8807701466059
 30
0.0
 10
69.61463650999163
 20
186.5317594951743
 30
0.0
 10
69.02925151297721
 20
185.8253465401943
 30
0.0
 10
67.92417238420532
 20
184.931790996409
 30
0.0
 10
66.70497058177544
 20
184.0817759528606
 30
0.0
 10
65.34612614161331
 20
183.2172795316834
 30
0.0
 10
63.08592749966473
 20
181.9288511256472
 30
0.0
 10
61.00152289104547
 20
181.7492206789332
 30
0.0
 10
59.51666696268251
 20
181.6212583185475
 30
0.0
 11
69.90385204278448
 21
186.8807701466059
 31
0.0
 11
69.00456952720865
 21
185.8650507288928
 31
0.0
 11
67.94377970296887
 21
184.968008237716
 31
0.0
 11
66.71959268124568
 21
184.1044908217086
 31
0.0
 11
65.39371145287609
 21
183.2618373662643
 31
0.0
 11
63.82731220152042
 21
182.4349227338846
 31
0.0
 11
59.51666696268251
 21
181.6212583185475
 31
0.0
  0
SPLINE
  5
2B43
100
AcDbEntity
  8
外形
  6
CONTINUOUS
100
AcDbSpline
210
0.0
220
0.0
230
1.0
 70
     8
 71
     3
 72
    12
 73
     8
 74
     6
 42
0.0000001
 43
0.0000001
 44
0.0000000001
 40
0.0
 40
0.0
 40
0.0
 40
0.0
 40
2.230056822183446
 40
4.467265396275656
 40
6.541636502398159
 40
10.29338003628159
 40
14.80249943430923
 40
14.80249943430923
 40
14.80249943430923
 40
14.80249943430923
 10
67.778866884531
 20
186.8807701466059
 30
0.0
 10
67.12324205771976
 20
186.5288167808071
 30
0.0
 10
65.80988982713157
 20
185.8237813411287
 30
0.0
 10
63.7783354939917
 20
185.027237778391
 30
0.0
 10
61.38740933602115
 20
183.7717204588037
 30
0.0
 10
57.94759365082235
 20
183.1642652041426
 30
0.0
 10
55.20987787654954
 20
182.9359660683459
 30
0.0
 10
53.71551979243544
 20
182.8113509923836
 30
0.0
 11
67.778866884531
 21
186.8807701466059
 31
0.0
 11
65.79355393825588
 21
185.8650507288928
 31
0.0
 11
63.74406205658986
 21
184.968008237716
 31
0.0
 11
61.85796737228375
 21
184.1044908217086
 31
0.0
 11
58.20207969648408
 21
183.2618373662643
 31
0.0
 11
53.71551979243544
 21
182.8113509923836
 31
0.0
  0
LINE
  5
2B45
100
AcDbEntity
  8
外形
  6
CONTINUOUS
100
AcDbLine
 10
67.778867
 20
222.804935
 30
0.0
 11
69.903852
 21
218.634417
 31
0.0
  0
LINE
  5
2B47
100
AcDbEntity
  8
外形
  6
CONTINUOUS
100
AcDbLine
 10
65.682053
 20
215.89314
 30
0.0
 11
65.682053
 21
215.282332
 31
0.0
  0
ARC
  5
2B4C
100
AcDbEntity
  8
外形
  6
CONTINUOUS
100
AcDbCircle
 10
65.682053
 20
205.782332
 30
0.0
 40
10.0
100
AcDbArc
 50
67.668355
 51
126.869898
  0
LINE
  5
2B4E
100
AcDbEntity
  8
外形
  6
CONTINUOUS
100
AcDbLine
 10
67.778867
 20
222.804935
 30
0.0
 11
68.682053
 21
222.804935
 31
0.0
  0
SPLINE
  5
2B88
100
AcDbEntity
  8
外形
  6
CONTINUOUS
100
AcDbSpline
210
0.0
220
0.0
230
1.0
 70
     8
 71
     3
 72
    16
 73
    12
 74
     0
 42
0.0000001
 43
0.0000001
 40
14.39628834145067
 40
14.39628834145067
 40
14.39628834145067
 40
14.39628834145067
 40
14.58004761739776
 40
21.21667959453794
 40
24.16050176987385
 40
27.50325871586923
 40
29.16009523479548
 40
29.16009523479548
 40
29.16009523479548
 40
30.81693175372171
 40
33.87372242480184
 40
33.87372242480184
 40
33.87372242480184
 40
33.87372242480184
 10
59.68940479354196
 20
181.6361703586921
 30
0.0
 10
59.68454059365672
 20
181.5510985059384
 30
0.0
 10
59.59220895391034
 20
178.3901531709166
 30
0.0
 10
64.36614929799649
 20
173.8648783382213
 30
0.0
 10
65.09184510547228
 20
180.1015604759614
 30
0.0
 10
69.06796630304938
 20
178.902963310631
 30
0.0
 10
69.37873651427598
 20
180.7640250050435
 30
0.0
 10
69.48172397486999
 20
181.3807701466059
 30
0.0
 10
69.37873651427598
 20
181.9975152881682
 30
0.0
 10
69.08574170824633
 20
183.7521281515163
 30
0.0
 10
66.84450512049153
 20
183.1819220264378
 30
0.0
 10
65.92499115484272
 20
183.5895268989037
 30
0.0
  0
LINE
  5
2B8A
100
AcDbEntity
  8
外形
  6
CONTINUOUS
100
AcDbLine
 10
68.682053
 20
179.643759
 30
0.0
 11
68.682053
 21
175.63077
 31
0.0
  0
LINE
  5
2B8B
100
AcDbEntity
  8
外形
  6
CONTINUOUS
100
AcDbLine
 10
68.932053
 20
182.94377
 30
0.0
 11
68.932053
 21
185.794281
 31
0.0
  0
DIMENSION
  5
2B98
100
AcDbEntity
  8
寸法
  6
CONTINUOUS
100
AcDbDimension
  2
*D11
 10
75.682053
 20
164.261646
 30
0.0
 11
63.182053
 21
166.761646
 31
0.0
 70
    32
  3
STANDARD
100
AcDbAlignedDimension
 13
50.682053
 23
181.621258
 33
0.0
 14
75.682053
 24
175.38077
 34
0.0
100
AcDbRotatedDimension
1001
ACAD
1000
DSTYLE
1002
{
1070
   284
1070
    13
1070
   146
1040
0.5
1070
   272
1070
     3
1070
    40
1040
1.0
1070
   287
1070
     0
1002
}
  0
DIMENSION
  5
2BB4
100
AcDbEntity
  8
寸法
  6
CONTINUOUS
100
AcDbDimension
  2
*D12
 10
53.9048
 20
181.098816
 30
0.0
 11
41.786327
 21
191.048575
 31
0.0
 70
    34
  3
STANDARD
100
AcDb2LineAngularDimension
 13
47.955788
 23
181.38077
 33
0.0
 14
260.540092
 24
181.38077
 34
0.0
 15
50.682053
 25
181.38077
 35
0.0
 16
40.772127
 26
181.66912
 36
0.0
1001
ACAD
1000
DSTYLE
1002
{
1070
   284
1070
    13
1070
   146
1040
0.5
1070
   272
1070
     3
1070
    40
1040
1.0
1070
   287
1070
     0
1002
}
  0
CIRCLE
  5
2BC6
100
AcDbEntity
  8
外形
  6
PHANTOM
 62
     1
100
AcDbCircle
 10
22.807346
 20
220.998093
 30
0.0
 40
8.0
  0
DIMENSION
  5
2BD1
100
AcDbEntity
  8
寸法
  6
CONTINUOUS
100
AcDbDimension
  2
*D13
 10
17.75657
 20
214.794089
 30
0.0
 11
33.540245
 21
234.1816
 31
0.0
 70
   163
  3
STANDARD
100
AcDbDiametricDimension
 15
27.858122
 25
227.202096
 35
0.0
 40
0.0
1001
ACAD
1000
DSTYLE
1002
{
1070
   284
1070
    13
1070
   146
1040
0.5
1070
   272
1070
     3
1070
    40
1040
1.0
1070
   287
1070
     0
1002
}
  0
DIMENSION
  5
2C1C
100
AcDbEntity
  8
寸法
  6
CONTINUOUS
100
AcDbDimension
  2
*D14
 10
156.359623
 20
216.010204
 30
0.0
 11
167.850195
 21
233.587654
 31
0.0
 70
   163
  3
STANDARD
100
AcDbDiametricDimension
 15
162.925664
 25
226.054461
 35
0.0
 40
0.0
1001
ACAD
1000
DSTYLE
1002
{
1070
   284
1070
    13
1070
   146
1040
0.5
1070
   272
1070
     3
1070
    40
1040
1.0
1070
   287
1070
     0
1002
}
  0
ENDSEC
  0
SECTION
  2
OBJECTS
  0
DICTIONARY
  5
1E
100
AcDbDictionary
  3
ACAD_GROUP
350
1C
  3
ACAD_MLINESTYLE
350
1D
  3
ACDBVARIABLEDICTIONARY
350
147A
  3
DRAWINGVARIABLESDICT
350
C58
  0
DICTIONARY
  5
38
100
AcDbDictionary
280
     1
  3
ACAD_XREC_ROUNDTRIP
360
39
  0
DICTIONARY
  5
22
100
AcDbDictionary
280
     1
  3
ACAD_XREC_ROUNDTRIP
360
23
  0
DICTIONARY
  5
3
100
AcDbDictionary
280
     1
  3
ACAD_LAYOUTSELFREF
360
4
  0
DICTIONARY
  5
A
100
AcDbDictionary
280
     1
  3
ACAD_LAYOUTSELFREF
360
B
  0
DICTIONARY
  5
1C
102
{ACAD_REACTORS
330
1E
102
}
100
AcDbDictionary
  0
DICTIONARY
  5
1D
102
{ACAD_REACTORS
330
1E
102
}
100
AcDbDictionary
  3
STANDARD
350
20
  0
DICTIONARY
  5
147A
102
{ACAD_REACTORS
330
1E
102
}
100
AcDbDictionary
  3
SORTENTS
350
147B
  0
DICTIONARY
  5
C58
102
{ACAD_REACTORS
330
1E
102
}
100
AcDbDictionary
1001
DRAWINGVARIABLESXDATA
1000
POLARMODE
1000
0
  0
XRECORD
  5
39
102
{ACAD_REACTORS
330
38
102
}
100
AcDbXrecord
102
PLOTBIT
280
     0
  0
XRECORD
  5
23
102
{ACAD_REACTORS
330
22
102
}
100
AcDbXrecord
102
ACADR14ROUNDTRIP
1000
DSTYLE
1002
{
1070
   341
340
0
1070
   343
340
0
1070
   344
340
0
1002
}
  0
XRECORD
  5
4
102
{ACAD_REACTORS
330
3
102
}
100
AcDbXrecord
340
2
  0
XRECORD
  5
B
102
{ACAD_REACTORS
330
A
102
}
100
AcDbXrecord
340
9
  0
MLINESTYLE
  5
20
102
{ACAD_REACTORS
330
1D
102
}
100
AcDbMlineStyle
  2
STANDARD
 70
     0
  3

 62
     0
 51
90.0
 52
90.0
 71
     2
 49
0.5
 62
   256
  6
BYLAYER
 49
-0.5
 62
   256
  6
BYLAYER
  0
DICTIONARYVAR
  5
147B
102
{ACAD_REACTORS
330
147A
102
}
100
DictionaryVariables
280
     0
  1
96
  0
ENDSEC
  0
EOF
