  0
SECTION
  2
HEADER
  9
$ACADVER
  1
AC1014
  9
$ACADMAINTVER
 70
     0
  9
$DWGCODEPAGE
  3
ANSI_932
  9
$INSBASE
 10
-587.250952
 20
747.890188
 30
0.0
  9
$EXTMIN
 10
9.21363
 20
150.213866
 30
0.0
  9
$EXTMAX
 10
212.004375
 20
247.208709
 30
0.0
  9
$LIMMIN
 10
-587.250952
 20
327.890188
  9
$LIMMAX
 10
600.749048
 20
957.890188
  9
$ORTHOMODE
 70
     0
  9
$REGENMODE
 70
     1
  9
$FILLMODE
 70
     1
  9
$QTEXTMODE
 70
     0
  9
$MIRRTEXT
 70
     1
  9
$DRAGMODE
 70
     2
  9
$LTSCALE
 40
5.0
  9
$OSMODE
 70
    37
  9
$ATTMODE
 70
     1
  9
$TEXTSIZE
 40
5.0
  9
$TRACEWID
 40
0.05
  9
$TEXTSTYLE
  7
STANDARD
  9
$CLAYER
  8
外形
  9
$CELTYPE
  6
CONTINUOUS
  9
$CECOLOR
 62
   256
  9
$CELTSCALE
 40
1.0
  9
$DELOBJ
 70
     1
  9
$DISPSILH
 70
     0
  9
$DIMSCALE
 40
1.0
  9
$DIMASZ
 40
2.0
  9
$DIMEXO
 40
1.0
  9
$DIMDLI
 40
8.0
  9
$DIMRND
 40
0.0
  9
$DIMDLE
 40
0.0
  9
$DIMEXE
 40
2.0
  9
$DIMTP
 40
0.0
  9
$DIMTM
 40
0.0
  9
$DIMTXT
 40
3.0
  9
$DIMCEN
 40
-1.0
  9
$DIMTSZ
 40
0.0
  9
$DIMTOL
 70
     0
  9
$DIMLIM
 70
     0
  9
$DIMTIH
 70
     0
  9
$DIMTOH
 70
     0
  9
$DIMSE1
 70
     0
  9
$DIMSE2
 70
     0
  9
$DIMTAD
 70
     1
  9
$DIMZIN
 70
     8
  9
$DIMBLK
  1

  9
$DIMASO
 70
     1
  9
$DIMSHO
 70
     1
  9
$DIMPOST
  1

  9
$DIMAPOST
  1

  9
$DIMALT
 70
     0
  9
$DIMALTD
 70
     2
  9
$DIMALTF
 40
25.4
  9
$DIMLFAC
 40
1.0
  9
$DIMTOFL
 70
     1
  9
$DIMTVP
 40
0.0
  9
$DIMTIX
 70
     0
  9
$DIMSOXD
 70
     0
  9
$DIMSAH
 70
     1
  9
$DIMBLK1
  1
_OPEN30
  9
$DIMBLK2
  1
_OPEN30
  9
$DIMSTYLE
  2
STANDARD
  9
$DIMCLRD
 70
     1
  9
$DIMCLRE
 70
     1
  9
$DIMCLRT
 70
     3
  9
$DIMTFAC
 40
1.0
  9
$DIMGAP
 40
1.0
  9
$DIMJUST
 70
     0
  9
$DIMSD1
 70
     0
  9
$DIMSD2
 70
     0
  9
$DIMTOLJ
 70
     1
  9
$DIMTZIN
 70
     8
  9
$DIMALTZ
 70
     0
  9
$DIMALTTZ
 70
     0
  9
$DIMFIT
 70
     3
  9
$DIMUPT
 70
     0
  9
$DIMUNIT
 70
     2
  9
$DIMDEC
 70
     2
  9
$DIMTDEC
 70
     2
  9
$DIMALTU
 70
     2
  9
$DIMALTTD
 70
     2
  9
$DIMTXSTY
  7
STANDARD
  9
$DIMAUNIT
 70
     0
  9
$LUNITS
 70
     2
  9
$LUPREC
 70
     0
  9
$SKETCHINC
 40
0.1
  9
$FILLETRAD
 40
0.0
  9
$AUNITS
 70
     0
  9
$AUPREC
 70
     0
  9
$MENU
  1
acad
  9
$ELEVATION
 40
0.0
  9
$PELEVATION
 40
0.0
  9
$THICKNESS
 40
0.0
  9
$LIMCHECK
 70
     0
  9
$BLIPMODE
 70
     0
  9
$CHAMFERA
 40
1.5
  9
$CHAMFERB
 40
1.5
  9
$CHAMFERC
 40
0.0
  9
$CHAMFERD
 40
0.0
  9
$SKPOLY
 70
     0
  9
$TDCREATE
 40
2450751.535399305
  9
$TDUPDATE
 40
2452031.698784721
  9
$TDINDWG
 40
2.1098583333
  9
$TDUSRTIMER
 40
2.1098583333
  9
$USRTIMER
 70
     1
  9
$ANGBASE
 50
0.0
  9
$ANGDIR
 70
     0
  9
$PDMODE
 70
    32
  9
$PDSIZE
 40
0.0
  9
$PLINEWID
 40
0.0
  9
$COORDS
 70
     2
  9
$SPLFRAME
 70
     0
  9
$SPLINETYPE
 70
     5
  9
$SPLINESEGS
 70
     8
  9
$ATTDIA
 70
     0
  9
$ATTREQ
 70
     1
  9
$HANDLING
 70
     1
  9
$HANDSEED
  5
296A
  9
$SURFTAB1
 70
     6
  9
$SURFTAB2
 70
     6
  9
$SURFTYPE
 70
     6
  9
$SURFU
 70
     6
  9
$SURFV
 70
     6
  9
$UCSNAME
  2

  9
$UCSORG
 10
40.53800450572526
 20
146.9196145921314
 30
0.0
  9
$UCSXDIR
 10
1.0
 20
0.0
 30
0.0
  9
$UCSYDIR
 10
0.0
 20
1.0
 30
0.0
  9
$PUCSNAME
  2

  9
$PUCSORG
 10
0.0
 20
0.0
 30
0.0
  9
$PUCSXDIR
 10
1.0
 20
0.0
 30
0.0
  9
$PUCSYDIR
 10
0.0
 20
1.0
 30
0.0
  9
$USERI1
 70
     0
  9
$USERI2
 70
     0
  9
$USERI3
 70
     0
  9
$USERI4
 70
     0
  9
$USERI5
 70
     0
  9
$USERR1
 40
0.0
  9
$USERR2
 40
0.0
  9
$USERR3
 40
0.0
  9
$USERR4
 40
0.0
  9
$USERR5
 40
0.0
  9
$WORLDVIEW
 70
     1
  9
$SHADEDGE
 70
     3
  9
$SHADEDIF
 70
    70
  9
$TILEMODE
 70
     1
  9
$MAXACTVP
 70
    16
  9
$PINSBASE
 10
0.0
 20
0.0
 30
0.0
  9
$PLIMCHECK
 70
     0
  9
$PEXTMIN
 10
1.000000E+20
 20
1.000000E+20
 30
1.000000E+20
  9
$PEXTMAX
 10
-1.000000E+20
 20
-1.000000E+20
 30
-1.000000E+20
  9
$PLIMMIN
 10
0.0
 20
0.0
  9
$PLIMMAX
 10
12.0
 20
9.0
  9
$UNITMODE
 70
     0
  9
$VISRETAIN
 70
     0
  9
$PLINEGEN
 70
     0
  9
$PSLTSCALE
 70
     1
  9
$TREEDEPTH
 70
  3020
  9
$PICKSTYLE
 70
     1
  9
$CMLSTYLE
  2
STANDARD
  9
$CMLJUST
 70
     0
  9
$CMLSCALE
 40
1.0
  9
$PROXYGRAPHICS
 70
     1
  9
$MEASUREMENT
 70
     0
  0
ENDSEC
  0
SECTION
  2
CLASSES
  0
CLASS
  1
LWPOLYLINE
  2
AcDbPolyline
  3
"AutoCAD"
 90
        0
280
     0
281
     1
  0
CLASS
  1
ACDBDICTIONARYWDFLT
  2
AcDbDictionaryWithDefault
  3
AutoCAD 2000
 90
        0
280
     1
281
     0
  0
CLASS
  1
ACDBPLACEHOLDER
  2
AcDbPlaceHolder
  3
AutoCAD 2000
 90
        0
280
     1
281
     0
  0
CLASS
  1
LAYOUT
  2
AcDbLayout
  3
AutoCAD 2000
 90
        0
280
     1
281
     0
  0
CLASS
  1
LONG_TRANSACTION
  2
AcDbLongTransaction
  3
AutoCAD 2000
 90
        0
280
     1
281
     0
  0
CLASS
  1
LWPOLYLINE
  2
AcDbPolyline
  3
"AutoCAD"
 90
        0
280
     0
281
     1
  0
CLASS
  1
HATCH
  2
AcDbHatch
  3
"ACAD_SEDONA"
 90
        0
280
     0
281
     1
  0
CLASS
  1
XRECORD
  2
AcDbXrecord
  3
"<Built In>"
 90
        0
280
     0
281
     0
  0
CLASS
  1
DICTIONARYVAR
  2
AcDbDictionaryVar
  3
"AutoCAD"
 90
        0
280
     0
281
     0
  0
ENDSEC
  0
SECTION
  2
TABLES
  0
TABLE
  2
VPORT
  5
16
100
AcDbSymbolTable
 70
     2
  0
VPORT
  5
2969
100
AcDbSymbolTableRecord
100
AcDbViewportTableRecord
  2
*ACTIVE
 70
     0
 10
0.0
 20
0.0
 11
1.0
 21
1.0
 12
120.18881
 22
199.848911
 13
0.0
 23
0.0
 14
1.0
 24
1.0
 15
10.0
 25
10.0
 16
0.0
 26
0.0
 36
1.0
 17
0.0
 27
0.0
 37
0.0
 40
132.66963
 41
1.710425
 42
50.0
 43
0.0
 44
0.0
 50
0.0
 51
0.0
 71
     0
 72
   100
 73
     1
 74
     1
 75
     0
 76
     0
 77
     0
 78
     2
  0
ENDTAB
  0
TABLE
  2
LTYPE
  5
11
100
AcDbSymbolTable
 70
     3
  0
LTYPE
  5
12
100
AcDbSymbolTableRecord
100
AcDbLinetypeTableRecord
  2
BYBLOCK
 70
     0
  3

 72
    65
 73
     0
 40
0.0
  0
LTYPE
  5
13
100
AcDbSymbolTableRecord
100
AcDbLinetypeTableRecord
  2
BYLAYER
 70
     0
  3

 72
    65
 73
     0
 40
0.0
  0
LTYPE
  5
7
100
AcDbSymbolTableRecord
100
AcDbLinetypeTableRecord
  2
CONTINUOUS
 70
     0
  3
Solid line
 72
    65
 73
     0
 40
0.0
  0
LTYPE
  5
AA
100
AcDbSymbolTableRecord
100
AcDbLinetypeTableRecord
  2
CENTER
 70
     0
  3
Center ____ _ ____ _ ____ _ ____ _ ____ _ ____
 72
    65
 73
     4
 40
2.0
 49
1.25
 74
     0
 49
-0.25
 74
     0
 49
0.25
 74
     0
 49
-0.25
 74
     0
  0
LTYPE
  5
1FC7
100
AcDbSymbolTableRecord
100
AcDbLinetypeTableRecord
  2
PHANTOM
 70
     0
  3
Phantom ______  __  __  ______  __  __  ______
 72
    65
 73
     6
 40
2.5
 49
1.25
 74
     0
 49
-0.25
 74
     0
 49
0.25
 74
     0
 49
-0.25
 74
     0
 49
0.25
 74
     0
 49
-0.25
 74
     0
  0
ENDTAB
  0
TABLE
  2
LAYER
  5
E
100
AcDbSymbolTable
 70
     5
  0
LAYER
  5
6
100
AcDbSymbolTableRecord
100
AcDbLayerTableRecord
  2
0
 70
     0
 62
     7
  6
CONTINUOUS
  0
LAYER
  5
2C
100
AcDbSymbolTableRecord
100
AcDbLayerTableRecord
  2
外形
 70
     0
 62
     3
  6
CONTINUOUS
  0
LAYER
  5
37
102
{ACAD_XDICTIONARY
360
38
102
}
100
AcDbSymbolTableRecord
100
AcDbLayerTableRecord
  2
DEFPOINTS
 70
     0
 62
     7
  6
CONTINUOUS
  0
LAYER
  5
1F
100
AcDbSymbolTableRecord
100
AcDbLayerTableRecord
  2
寸法
 70
     0
 62
     1
  6
CONTINUOUS
  0
LAYER
  5
673
100
AcDbSymbolTableRecord
100
AcDbLayerTableRecord
  2
参考
 70
     0
 62
     2
  6
CONTINUOUS
  0
ENDTAB
  0
TABLE
  2
STYLE
  5
F
100
AcDbSymbolTable
 70
     1
  0
STYLE
  5
10
100
AcDbSymbolTableRecord
100
AcDbTextStyleTableRecord
  2
STANDARD
 70
     0
 40
0.0
 41
1.0
 50
0.0
 71
     0
 42
5.0
  3
MONOTXT
  4
BIGFONT
  0
ENDTAB
  0
TABLE
  2
VIEW
  5
14
100
AcDbSymbolTable
 70
     0
  0
ENDTAB
  0
TABLE
  2
UCS
  5
15
100
AcDbSymbolTable
 70
     0
  0
ENDTAB
  0
TABLE
  2
APPID
  5
18
100
AcDbSymbolTable
 70
     2
  0
APPID
  5
19
100
AcDbSymbolTableRecord
100
AcDbRegAppTableRecord
  2
ACAD
 70
     0
  0
APPID
  5
C59
100
AcDbSymbolTableRecord
100
AcDbRegAppTableRecord
  2
DRAWINGVARIABLESXDATA
 70
     0
  0
ENDTAB
  0
TABLE
  2
DIMSTYLE
  5
1A
100
AcDbSymbolTable
 70
     1
  0
DIMSTYLE
105
21
102
{ACAD_XDICTIONARY
360
22
102
}
102
{ACAD_REACTORS
330
238C
330
2808
330
2820
330
286D
330
2888
330
28BD
330
290B
330
2927
330
293F
102
}
100
AcDbSymbolTableRecord
100
AcDbDimStyleTableRecord
  2
STANDARD
 70
     0
  3

  4

  5

  6
_OPEN30
  7
_OPEN30
 40
0.0
 41
2.0
 42
1.0
 43
8.0
 44
2.0
 45
0.0
 46
0.0
 47
0.0
 48
0.0
140
3.0
141
-1.0
142
0.0
143
25.4
144
1.0
145
0.0
146
1.0
147
1.0
 71
     0
 72
     0
 73
     0
 74
     0
 75
     0
 76
     0
 77
     1
 78
     8
170
     0
171
     2
172
     1
173
     1
174
     0
175
     0
176
     1
177
     1
178
     3
270
     2
271
     2
272
     2
273
     2
274
     2
340
10
275
     0
280
     0
281
     0
282
     0
283
     1
284
     8
285
     0
286
     0
287
     3
288
     0
  0
ENDTAB
  0
TABLE
  2
BLOCK_RECORD
  5
1
100
AcDbSymbolTable
 70
    15
  0
BLOCK_RECORD
  5
2
102
{ACAD_XDICTIONARY
360
3
102
}
100
AcDbSymbolTableRecord
100
AcDbBlockTableRecord
  2
*MODEL_SPACE
  0
BLOCK_RECORD
  5
9
102
{ACAD_XDICTIONARY
360
A
102
}
100
AcDbSymbolTableRecord
100
AcDbBlockTableRecord
  2
*PAPER_SPACE
  0
BLOCK_RECORD
  5
24
100
AcDbSymbolTableRecord
100
AcDbBlockTableRecord
  2
_DOTSMALL
  0
BLOCK_RECORD
  5
470
100
AcDbSymbolTableRecord
100
AcDbBlockTableRecord
  2
_OPEN30
  0
BLOCK_RECORD
  5
237E
100
AcDbSymbolTableRecord
100
AcDbBlockTableRecord
  2
*D4
  0
BLOCK_RECORD
  5
27FC
100
AcDbSymbolTableRecord
100
AcDbBlockTableRecord
  2
*D7
  0
BLOCK_RECORD
  5
2814
100
AcDbSymbolTableRecord
100
AcDbBlockTableRecord
  2
*D8
  0
BLOCK_RECORD
  5
2863
100
AcDbSymbolTableRecord
100
AcDbBlockTableRecord
  2
*D9
  0
BLOCK_RECORD
  5
2878
100
AcDbSymbolTableRecord
100
AcDbBlockTableRecord
  2
*D10
  0
BLOCK_RECORD
  5
28AD
100
AcDbSymbolTableRecord
100
AcDbBlockTableRecord
  2
*D11
  0
BLOCK_RECORD
  5
28FF
100
AcDbSymbolTableRecord
100
AcDbBlockTableRecord
  2
*D12
  0
BLOCK_RECORD
  5
291A
100
AcDbSymbolTableRecord
100
AcDbBlockTableRecord
  2
*D13
  0
BLOCK_RECORD
  5
2935
100
AcDbSymbolTableRecord
100
AcDbBlockTableRecord
  2
*D14
  0
ENDTAB
  0
ENDSEC
  0
SECTION
  2
BLOCKS
  0
BLOCK
  5
5
100
AcDbEntity
  8
0
100
AcDbBlockBegin
  2
*MODEL_SPACE
 70
     0
 10
0.0
 20
0.0
 30
0.0
  3
*MODEL_SPACE
  1

  0
ENDBLK
  5
8
100
AcDbEntity
  8
0
100
AcDbBlockEnd
  0
BLOCK
  5
C
100
AcDbEntity
 67
     1
  8
0
100
AcDbBlockBegin
  2
*PAPER_SPACE
 70
     0
 10
0.0
 20
0.0
 30
0.0
  3
*PAPER_SPACE
  1

  0
ENDBLK
  5
D
100
AcDbEntity
 67
     1
  8
0
100
AcDbBlockEnd
  0
BLOCK
  5
29
100
AcDbEntity
  8
0
100
AcDbBlockBegin
  2
_DOTSMALL
 70
     0
 10
0.0
 20
0.0
 30
0.0
  3
_DOTSMALL
  1

  0
POLYLINE
  5
25
100
AcDbEntity
  8
0
  6
BYBLOCK
 62
     0
100
AcDb2dPolyline
 66
     1
 10
0.0
 20
0.0
 30
0.0
 70
     1
 40
0.5
 41
0.5
  0
VERTEX
  5
26
100
AcDbEntity
  8
0
  6
BYBLOCK
 62
     0
100
AcDbVertex
100
AcDb2dVertex
 10
-0.0625
 20
0.0
 30
0.0
 42
1.0
  0
VERTEX
  5
27
100
AcDbEntity
  8
0
  6
BYBLOCK
 62
     0
100
AcDbVertex
100
AcDb2dVertex
 10
0.0625
 20
0.0
 30
0.0
 42
1.0
  0
SEQEND
  5
28
100
AcDbEntity
  8
0
  6
BYBLOCK
 62
     0
  0
ENDBLK
  5
2A
100
AcDbEntity
  8
0
100
AcDbBlockEnd
  0
BLOCK
  5
471
100
AcDbEntity
  8
0
100
AcDbBlockBegin
  2
_OPEN30
 70
     0
 10
0.0
 20
0.0
 30
0.0
  3
_OPEN30
  1

  0
LINE
  5
472
100
AcDbEntity
  8
0
  6
BYBLOCK
 62
     0
100
AcDbLine
 10
-1.0
 20
0.267949
 30
0.0
 11
0.0
 21
0.0
 31
0.0
  0
LINE
  5
473
100
AcDbEntity
  8
0
  6
BYBLOCK
 62
     0
100
AcDbLine
 10
0.0
 20
0.0
 30
0.0
 11
-1.0
 21
-0.267949
 31
0.0
  0
LINE
  5
474
100
AcDbEntity
  8
0
  6
BYBLOCK
 62
     0
100
AcDbLine
 10
0.0
 20
0.0
 30
0.0
 11
-1.0
 21
0.0
 31
0.0
  0
ENDBLK
  5
475
100
AcDbEntity
  8
0
100
AcDbBlockEnd
  0
BLOCK
  5
238D
100
AcDbEntity
  8
0
100
AcDbBlockBegin
  2
*D4
 70
     1
 10
0.0
 20
0.0
 30
0.0
  3
*D4
  1

  0
LINE
  5
238E
100
AcDbEntity
  8
0
  6
BYBLOCK
 62
     1
100
AcDbLine
 10
51.274296
 20
226.743475
 30
0.0
 11
51.548366
 21
231.97304
 31
0.0
  0
LINE
  5
238F
100
AcDbEntity
  8
0
  6
BYBLOCK
 62
     1
100
AcDbLine
 10
49.660541
 20
215.032332
 30
0.0
 11
33.696584
 21
215.032332
 31
0.0
  0
ARC
  5
2390
100
AcDbEntity
  8
0
  6
BYBLOCK
 62
     1
100
AcDbCircle
 10
50.660541
 20
215.032332
 30
0.0
 40
14.963956
100
AcDbArc
 50
94.66355
 51
172.33645
  0
INSERT
  5
2391
100
AcDbEntity
  8
0
  6
BYBLOCK
 62
     1
100
AcDbBlockReference
  2
_OPEN30
 10
51.443694
 20
229.975781
 30
0.0
 41
2.0
 42
2.0
 43
2.0
 50
0.831775
  0
INSERT
  5
2392
100
AcDbEntity
  8
0
  6
BYBLOCK
 62
     1
100
AcDbBlockReference
  2
_OPEN30
 10
35.696584
 20
215.032332
 30
0.0
 41
2.0
 42
2.0
 43
2.0
 50
266.168225
  0
MTEXT
  5
2393
100
AcDbEntity
  8
0
  6
BYBLOCK
 62
     3
100
AcDbMText
 10
38.639147
 20
227.700239
 30
0.0
 40
3.0
 41
0.0
 71
     5
 72
     1
  1
\A1;93°
 11
0.725374
 21
0.688355
 31
0.0
  0
POINT
  5
2394
100
AcDbEntity
  8
DEFPOINTS
  6
BYBLOCK
 62
     0
100
AcDbPoint
 10
43.635389
 20
228.244722
 30
0.0
  0
POINT
  5
2395
100
AcDbEntity
  8
DEFPOINTS
  6
BYBLOCK
 62
     0
100
AcDbPoint
 10
51.082053
 20
215.032332
 30
0.0
  0
POINT
  5
2396
100
AcDbEntity
  8
DEFPOINTS
  6
BYBLOCK
 62
     0
100
AcDbPoint
 10
50.682601
 20
215.453267
 30
0.0
  0
POINT
  5
2397
100
AcDbEntity
  8
DEFPOINTS
  6
BYBLOCK
 62
     0
100
AcDbPoint
 10
51.22196
 20
225.744846
 30
0.0
  0
POINT
  5
2398
100
AcDbEntity
  8
DEFPOINTS
  6
BYBLOCK
 62
     0
100
AcDbPoint
 10
50.682053
 20
215.032332
 30
0.0
  0
ENDBLK
  5
2399
100
AcDbEntity
  8
0
100
AcDbBlockEnd
  0
BLOCK
  5
2809
100
AcDbEntity
  8
0
100
AcDbBlockBegin
  2
*D7
 70
     1
 10
0.0
 20
0.0
 30
0.0
  3
*D7
  1

  0
LINE
  5
280A
100
AcDbEntity
  8
0
  6
BYBLOCK
 62
     1
100
AcDbLine
 10
50.682053
 20
213.032332
 30
0.0
 11
50.682053
 21
195.088249
 31
0.0
  0
LINE
  5
280B
100
AcDbEntity
  8
0
  6
BYBLOCK
 62
     1
100
AcDbLine
 10
200.682053
 20
215.032332
 30
0.0
 11
200.682053
 21
195.088249
 31
0.0
  0
LINE
  5
280C
100
AcDbEntity
  8
0
  6
BYBLOCK
 62
     1
100
AcDbLine
 10
52.682053
 20
197.088249
 30
0.0
 11
198.682053
 21
197.088249
 31
0.0
  0
INSERT
  5
280D
100
AcDbEntity
  8
0
  6
BYBLOCK
 62
     1
100
AcDbBlockReference
  2
_OPEN30
 10
50.682053
 20
197.088249
 30
0.0
 41
2.0
 42
2.0
 43
2.0
 50
180.0
  0
INSERT
  5
280E
100
AcDbEntity
  8
0
  6
BYBLOCK
 62
     1
100
AcDbBlockReference
  2
_OPEN30
 10
200.682053
 20
197.088249
 30
0.0
 41
2.0
 42
2.0
 43
2.0
  0
MTEXT
  5
280F
100
AcDbEntity
  8
0
  6
BYBLOCK
 62
     3
100
AcDbMText
 10
125.682053
 20
199.588249
 30
0.0
 40
3.0
 41
0.0
 71
     5
 72
     1
  1
\A1;150
  0
POINT
  5
2810
100
AcDbEntity
  8
DEFPOINTS
  6
BYBLOCK
 62
     0
100
AcDbPoint
 10
50.682053
 20
214.032332
 30
0.0
  0
POINT
  5
2811
100
AcDbEntity
  8
DEFPOINTS
  6
BYBLOCK
 62
     0
100
AcDbPoint
 10
200.682053
 20
216.032332
 30
0.0
  0
POINT
  5
2812
100
AcDbEntity
  8
DEFPOINTS
  6
BYBLOCK
 62
     0
100
AcDbPoint
 10
200.682053
 20
197.088249
 30
0.0
  0
ENDBLK
  5
2813
100
AcDbEntity
  8
0
100
AcDbBlockEnd
  0
BLOCK
  5
2821
100
AcDbEntity
  8
0
100
AcDbBlockBegin
  2
*D8
 70
     1
 10
0.0
 20
0.0
 30
0.0
  3
*D8
  1

  0
LINE
  5
2822
100
AcDbEntity
  8
0
  6
BYBLOCK
 62
     1
100
AcDbLine
 10
45.059876
 20
221.032332
 30
0.0
 11
41.305485
 21
221.032332
 31
0.0
  0
LINE
  5
2823
100
AcDbEntity
  8
0
  6
BYBLOCK
 62
     1
100
AcDbLine
 10
49.682053
 20
214.032332
 30
0.0
 11
41.305485
 21
214.032332
 31
0.0
  0
LINE
  5
2824
100
AcDbEntity
  8
0
  6
BYBLOCK
 62
     1
100
AcDbLine
 10
43.305485
 20
219.032332
 30
0.0
 11
43.305485
 21
216.032332
 31
0.0
  0
INSERT
  5
2825
100
AcDbEntity
  8
0
  6
BYBLOCK
 62
     1
100
AcDbBlockReference
  2
_OPEN30
 10
43.305485
 20
221.032332
 30
0.0
 41
2.0
 42
2.0
 43
2.0
 50
90.0
  0
INSERT
  5
2826
100
AcDbEntity
  8
0
  6
BYBLOCK
 62
     1
100
AcDbBlockReference
  2
_OPEN30
 10
43.305485
 20
214.032332
 30
0.0
 41
2.0
 42
2.0
 43
2.0
 50
270.0
  0
MTEXT
  5
2827
100
AcDbEntity
  8
0
  6
BYBLOCK
 62
     3
100
AcDbMText
 10
40.805485
 20
217.532332
 30
0.0
 40
3.0
 41
0.0
 71
     5
 72
     1
  1
\A1;7
 11
0.0
 21
1.0
 31
0.0
  0
POINT
  5
2828
100
AcDbEntity
  8
DEFPOINTS
  6
BYBLOCK
 62
     0
100
AcDbPoint
 10
46.059876
 20
221.032332
 30
0.0
  0
POINT
  5
2829
100
AcDbEntity
  8
DEFPOINTS
  6
BYBLOCK
 62
     0
100
AcDbPoint
 10
50.682053
 20
214.032332
 30
0.0
  0
POINT
  5
282A
100
AcDbEntity
  8
DEFPOINTS
  6
BYBLOCK
 62
     0
100
AcDbPoint
 10
43.305485
 20
214.032332
 30
0.0
  0
ENDBLK
  5
282B
100
AcDbEntity
  8
0
100
AcDbBlockEnd
  0
BLOCK
  5
286E
100
AcDbEntity
  8
0
100
AcDbBlockBegin
  2
*D9
 70
     1
 10
0.0
 20
0.0
 30
0.0
  3
*D9
  1

  0
LINE
  5
286F
100
AcDbEntity
  8
0
  6
BYBLOCK
 62
     1
100
AcDbLine
 10
17.126537
 20
214.014837
 30
0.0
 11
15.864134
 21
212.463598
 31
0.0
  0
LINE
  5
2870
100
AcDbEntity
  8
0
  6
BYBLOCK
 62
     1
100
AcDbLine
 10
28.488156
 20
227.975983
 30
0.0
 11
36.062568
 21
237.283414
 31
0.0
  0
LINE
  5
2871
100
AcDbEntity
  8
0
  6
BYBLOCK
 62
     1
100
AcDbLine
 10
18.388939
 20
215.566075
 30
0.0
 11
27.225753
 21
226.424745
 31
0.0
  0
INSERT
  5
2872
100
AcDbEntity
  8
0
  6
BYBLOCK
 62
     1
100
AcDbBlockReference
  2
_OPEN30
 10
18.388939
 20
215.566075
 30
0.0
 41
2.0
 42
2.0
 43
2.0
 50
50.86121
  0
INSERT
  5
2873
100
AcDbEntity
  8
0
  6
BYBLOCK
 62
     1
100
AcDbBlockReference
  2
_OPEN30
 10
27.225753
 20
226.424745
 30
0.0
 41
2.0
 42
2.0
 43
2.0
 50
230.86121
  0
MTEXT
  5
2874
100
AcDbEntity
  8
0
  6
BYBLOCK
 62
     3
100
AcDbMText
 10
30.967515
 20
234.983321
 30
0.0
 40
3.0
 41
0.0
 71
     5
 72
     1
  1
\A1;\U+220514
 11
0.631201
 21
0.775619
 31
0.0
  0
POINT
  5
2875
100
AcDbEntity
  8
DEFPOINTS
  6
BYBLOCK
 62
     0
100
AcDbPoint
 10
27.225753
 20
226.424745
 30
0.0
  0
POINT
  5
2876
100
AcDbEntity
  8
DEFPOINTS
  6
BYBLOCK
 62
     0
100
AcDbPoint
 10
18.388939
 20
215.566075
 30
0.0
  0
ENDBLK
  5
2877
100
AcDbEntity
  8
0
100
AcDbBlockEnd
  0
BLOCK
  5
2889
100
AcDbEntity
  8
0
100
AcDbBlockBegin
  2
*D10
 70
     1
 10
0.0
 20
0.0
 30
0.0
  3
*D10
  1

  0
LINE
  5
288A
100
AcDbEntity
  8
0
  6
BYBLOCK
 62
     1
100
AcDbLine
 10
22.685477
 20
213.002864
 30
0.0
 11
20.773421
 21
197.430423
 31
0.0
  0
LINE
  5
288B
100
AcDbEntity
  8
0
  6
BYBLOCK
 62
     1
100
AcDbLine
 10
22.807346
 20
210.26112
 30
0.0
 11
22.807346
 21
197.306023
 31
0.0
  0
ARC
  5
288C
100
AcDbEntity
  8
0
  6
BYBLOCK
 62
     1
100
AcDbCircle
 10
22.807346
 20
213.99541
 30
0.0
 40
14.689387
100
AcDbArc
 50
247.349437
 51
263.0
  0
LINE
  5
288D
100
AcDbEntity
  8
0
  6
BYBLOCK
 62
     1
100
AcDbLine
 10
17.150318
 20
200.439005
 30
0.0
 11
9.21363
 21
203.75095
 31
0.0
  0
ARC
  5
288E
100
AcDbEntity
  8
0
  6
BYBLOCK
 62
     1
100
AcDbCircle
 10
22.807346
 20
213.99541
 30
0.0
 40
14.689387
100
AcDbArc
 50
247.385972
 51
255.192986
  0
ARC
  5
288F
100
AcDbEntity
  8
0
  6
BYBLOCK
 62
     1
100
AcDbCircle
 10
22.807346
 20
213.99541
 30
0.0
 40
14.689387
100
AcDbArc
 50
277.807014
 51
285.614028
  0
ARC
  5
2890
100
AcDbEntity
  8
0
  6
BYBLOCK
 62
     1
100
AcDbCircle
 10
22.807346
 20
213.99541
 30
0.0
 40
14.689387
100
AcDbArc
 50
263.0
 51
270.0
  0
INSERT
  5
2891
100
AcDbEntity
  8
0
  6
BYBLOCK
 62
     1
100
AcDbBlockReference
  2
_OPEN30
 10
21.01716
 20
199.415515
 30
0.0
 41
2.0
 42
2.0
 43
2.0
 50
349.096493
  0
INSERT
  5
2892
100
AcDbEntity
  8
0
  6
BYBLOCK
 62
     1
100
AcDbBlockReference
  2
_OPEN30
 10
22.807346
 20
199.306023
 30
0.0
 41
2.0
 42
2.0
 43
2.0
 50
183.903507
  0
MTEXT
  5
2893
100
AcDbEntity
  8
0
  6
BYBLOCK
 62
     3
100
AcDbMText
 10
14.144748
 20
204.402154
 30
0.0
 40
3.0
 41
0.0
 71
     5
 72
     1
  1
\A1;7°
 11
0.922871
 21
-0.38511
 31
0.0
  0
POINT
  5
2894
100
AcDbEntity
  8
DEFPOINTS
  6
BYBLOCK
 62
     0
100
AcDbPoint
 10
22.209296
 20
199.318202
 30
0.0
  0
POINT
  5
2895
100
AcDbEntity
  8
DEFPOINTS
  6
BYBLOCK
 62
     0
100
AcDbPoint
 10
22.807346
 20
230.803545
 30
0.0
  0
POINT
  5
2896
100
AcDbEntity
  8
DEFPOINTS
  6
BYBLOCK
 62
     0
100
AcDbPoint
 10
22.807346
 20
213.99541
 30
0.0
  0
POINT
  5
2897
100
AcDbEntity
  8
DEFPOINTS
  6
BYBLOCK
 62
     0
100
AcDbPoint
 10
24.355493
 20
226.604053
 30
0.0
  0
POINT
  5
2898
100
AcDbEntity
  8
DEFPOINTS
  6
BYBLOCK
 62
     0
100
AcDbPoint
 10
22.807346
 20
211.26112
 30
0.0
  0
ENDBLK
  5
2899
100
AcDbEntity
  8
0
100
AcDbBlockEnd
  0
BLOCK
  5
28BE
100
AcDbEntity
  8
0
100
AcDbBlockBegin
  2
*D11
 70
     1
 10
0.0
 20
0.0
 30
0.0
  3
*D11
  1

  0
LINE
  5
28BF
100
AcDbEntity
  8
0
  6
BYBLOCK
 62
     1
100
AcDbLine
 10
49.685858
 20
181.467926
 30
0.0
 11
37.511375
 21
182.533055
 31
0.0
  0
LINE
  5
28C0
100
AcDbEntity
  8
0
  6
BYBLOCK
 62
     1
100
AcDbLine
 10
46.955788
 20
181.38077
 30
0.0
 11
37.461065
 21
181.38077
 31
0.0
  0
ARC
  5
28C1
100
AcDbEntity
  8
0
  6
BYBLOCK
 62
     1
100
AcDbCircle
 10
50.682053
 20
181.38077
 30
0.0
 40
11.220988
100
AcDbArc
 50
154.465776
 51
175.0
  0
LINE
  5
28C2
100
AcDbEntity
  8
0
  6
BYBLOCK
 62
     1
100
AcDbLine
 10
40.557042
 20
186.217579
 30
0.0
 11
44.264073
 21
193.977599
 31
0.0
  0
ARC
  5
28C3
100
AcDbEntity
  8
0
  6
BYBLOCK
 62
     1
100
AcDbCircle
 10
50.682053
 20
181.38077
 30
0.0
 40
11.220988
100
AcDbArc
 50
154.548362
 51
164.774181
  0
ARC
  5
28C4
100
AcDbEntity
  8
0
  6
BYBLOCK
 62
     1
100
AcDbCircle
 10
50.682053
 20
181.38077
 30
0.0
 40
11.220988
100
AcDbArc
 50
190.225819
 51
200.451638
  0
ARC
  5
28C5
100
AcDbEntity
  8
0
  6
BYBLOCK
 62
     1
100
AcDbCircle
 10
50.682053
 20
181.38077
 30
0.0
 40
11.220988
100
AcDbArc
 50
175.0
 51
180.0
  0
INSERT
  5
28C6
100
AcDbEntity
  8
0
  6
BYBLOCK
 62
     1
100
AcDbBlockReference
  2
_OPEN30
 10
39.503764
 20
182.358744
 30
0.0
 41
2.0
 42
2.0
 43
2.0
 50
259.887091
  0
INSERT
  5
28C7
100
AcDbEntity
  8
0
  6
BYBLOCK
 62
     1
100
AcDbBlockReference
  2
_OPEN30
 10
39.461065
 20
181.38077
 30
0.0
 41
2.0
 42
2.0
 43
2.0
 50
95.112909
  0
MTEXT
  5
28C8
100
AcDbEntity
  8
0
  6
BYBLOCK
 62
     3
100
AcDbMText
 10
40.154737
 20
191.175214
 30
0.0
 40
3.0
 41
0.0
 71
     5
 72
     1
  1
\A1;5°
 11
0.43105
 21
0.902328
 31
0.0
  0
POINT
  5
28C9
100
AcDbEntity
  8
DEFPOINTS
  6
BYBLOCK
 62
     0
100
AcDbPoint
 10
39.465812
 20
181.707129
 30
0.0
  0
POINT
  5
28CA
100
AcDbEntity
  8
DEFPOINTS
  6
BYBLOCK
 62
     0
100
AcDbPoint
 10
50.682053
 20
181.38077
 30
0.0
  0
POINT
  5
28CB
100
AcDbEntity
  8
DEFPOINTS
  6
BYBLOCK
 62
     0
100
AcDbPoint
 10
47.955788
 20
181.38077
 30
0.0
  0
POINT
  5
28CC
100
AcDbEntity
  8
DEFPOINTS
  6
BYBLOCK
 62
     0
100
AcDbPoint
 10
210.540092
 20
181.38077
 30
0.0
  0
POINT
  5
28CD
100
AcDbEntity
  8
DEFPOINTS
  6
BYBLOCK
 62
     0
100
AcDbPoint
 10
54.4048
 20
181.055072
 30
0.0
  0
ENDBLK
  5
28CE
100
AcDbEntity
  8
0
100
AcDbBlockEnd
  0
BLOCK
  5
290C
100
AcDbEntity
  8
0
100
AcDbBlockBegin
  2
*D12
 70
     1
 10
0.0
 20
0.0
 30
0.0
  3
*D12
  1

  0
LINE
  5
290D
100
AcDbEntity
  8
0
  6
BYBLOCK
 62
     1
100
AcDbLine
 10
50.682053
 20
171.803604
 30
0.0
 11
50.682053
 21
187.483341
 31
0.0
  0
LINE
  5
290E
100
AcDbEntity
  8
0
  6
BYBLOCK
 62
     1
100
AcDbLine
 10
75.682053
 20
177.803604
 30
0.0
 11
75.682053
 21
187.483341
 31
0.0
  0
LINE
  5
290F
100
AcDbEntity
  8
0
  6
BYBLOCK
 62
     1
100
AcDbLine
 10
52.682053
 20
185.483341
 30
0.0
 11
73.682053
 21
185.483341
 31
0.0
  0
INSERT
  5
2910
100
AcDbEntity
  8
0
  6
BYBLOCK
 62
     1
100
AcDbBlockReference
  2
_OPEN30
 10
50.682053
 20
185.483341
 30
0.0
 41
2.0
 42
2.0
 43
2.0
 50
180.0
  0
INSERT
  5
2911
100
AcDbEntity
  8
0
  6
BYBLOCK
 62
     1
100
AcDbBlockReference
  2
_OPEN30
 10
75.682053
 20
185.483341
 30
0.0
 41
2.0
 42
2.0
 43
2.0
  0
MTEXT
  5
2912
100
AcDbEntity
  8
0
  6
BYBLOCK
 62
     3
100
AcDbMText
 10
63.182053
 20
187.983341
 30
0.0
 40
3.0
 41
0.0
 71
     5
 72
     1
  1
\A1;25
  0
POINT
  5
2913
100
AcDbEntity
  8
DEFPOINTS
  6
BYBLOCK
 62
     0
100
AcDbPoint
 10
50.682053
 20
170.803604
 30
0.0
  0
POINT
  5
2914
100
AcDbEntity
  8
DEFPOINTS
  6
BYBLOCK
 62
     0
100
AcDbPoint
 10
75.682053
 20
176.803604
 30
0.0
  0
POINT
  5
2915
100
AcDbEntity
  8
DEFPOINTS
  6
BYBLOCK
 62
     0
100
AcDbPoint
 10
75.682053
 20
185.483341
 30
0.0
  0
ENDBLK
  5
2916
100
AcDbEntity
  8
0
100
AcDbBlockEnd
  0
BLOCK
  5
2928
100
AcDbEntity
  8
0
100
AcDbBlockBegin
  2
*D13
 70
     1
 10
0.0
 20
0.0
 30
0.0
  3
*D13
  1

  0
LINE
  5
2929
100
AcDbEntity
  8
0
  6
BYBLOCK
 62
     1
100
AcDbLine
 10
124.748606
 20
217.634417
 30
0.0
 11
124.748606
 21
203.527549
 31
0.0
  0
LINE
  5
292A
100
AcDbEntity
  8
0
  6
BYBLOCK
 62
     1
100
AcDbLine
 10
130.248606
 20
210.888701
 30
0.0
 11
130.248606
 21
203.527549
 31
0.0
  0
LINE
  5
292B
100
AcDbEntity
  8
0
  6
BYBLOCK
 62
     1
100
AcDbLine
 10
122.748606
 20
205.527549
 30
0.0
 11
120.748606
 21
205.527549
 31
0.0
  0
LINE
  5
292C
100
AcDbEntity
  8
0
  6
BYBLOCK
 62
     1
100
AcDbLine
 10
132.248606
 20
205.527549
 30
0.0
 11
144.248606
 21
205.527549
 31
0.0
  0
LINE
  5
292D
100
AcDbEntity
  8
0
  6
BYBLOCK
 62
     1
100
AcDbLine
 10
124.748606
 20
205.527549
 30
0.0
 11
130.248606
 21
205.527549
 31
0.0
  0
INSERT
  5
292E
100
AcDbEntity
  8
0
  6
BYBLOCK
 62
     1
100
AcDbBlockReference
  2
_OPEN30
 10
124.748606
 20
205.527549
 30
0.0
 41
2.0
 42
2.0
 43
2.0
  0
INSERT
  5
292F
100
AcDbEntity
  8
0
  6
BYBLOCK
 62
     1
100
AcDbBlockReference
  2
_OPEN30
 10
130.248606
 20
205.527549
 30
0.0
 41
2.0
 42
2.0
 43
2.0
 50
180.0
  0
MTEXT
  5
2930
100
AcDbEntity
  8
0
  6
BYBLOCK
 62
     3
100
AcDbMText
 10
139.248606
 20
208.027549
 30
0.0
 40
3.0
 41
0.0
 71
     5
 72
     1
  1
\A1;5.5
  0
POINT
  5
2931
100
AcDbEntity
  8
DEFPOINTS
  6
BYBLOCK
 62
     0
100
AcDbPoint
 10
124.748606
 20
218.634417
 30
0.0
  0
POINT
  5
2932
100
AcDbEntity
  8
DEFPOINTS
  6
BYBLOCK
 62
     0
100
AcDbPoint
 10
130.248606
 20
211.888701
 30
0.0
  0
POINT
  5
2933
100
AcDbEntity
  8
DEFPOINTS
  6
BYBLOCK
 62
     0
100
AcDbPoint
 10
130.248606
 20
205.527549
 30
0.0
  0
ENDBLK
  5
2934
100
AcDbEntity
  8
0
100
AcDbBlockEnd
  0
BLOCK
  5
2940
100
AcDbEntity
  8
0
100
AcDbBlockBegin
  2
*D14
 70
     1
 10
0.0
 20
0.0
 30
0.0
  3
*D14
  1

  0
LINE
  5
2941
100
AcDbEntity
  8
0
  6
BYBLOCK
 62
     1
100
AcDbLine
 10
126.026907
 20
214.236948
 30
0.0
 11
124.971482
 21
212.538101
 31
0.0
  0
LINE
  5
2942
100
AcDbEntity
  8
0
  6
BYBLOCK
 62
     1
100
AcDbLine
 10
134.470305
 20
227.827717
 30
0.0
 11
140.802854
 21
238.020795
 31
0.0
  0
LINE
  5
2943
100
AcDbEntity
  8
0
  6
BYBLOCK
 62
     1
100
AcDbLine
 10
127.082331
 20
215.935794
 30
0.0
 11
133.41488
 21
226.128871
 31
0.0
  0
INSERT
  5
2944
100
AcDbEntity
  8
0
  6
BYBLOCK
 62
     1
100
AcDbBlockReference
  2
_OPEN30
 10
127.082331
 20
215.935794
 30
0.0
 41
2.0
 42
2.0
 43
2.0
 50
58.148979
  0
INSERT
  5
2945
100
AcDbEntity
  8
0
  6
BYBLOCK
 62
     1
100
AcDbBlockReference
  2
_OPEN30
 10
133.41488
 20
226.128871
 30
0.0
 41
2.0
 42
2.0
 43
2.0
 50
238.148979
  0
MTEXT
  5
2946
100
AcDbEntity
  8
0
  6
BYBLOCK
 62
     3
100
AcDbMText
 10
136.040734
 20
235.09296
 30
0.0
 40
3.0
 41
0.0
 71
     5
 72
     1
  1
\A1;\U+220512
 11
0.527712
 21
0.849423
 31
0.0
  0
POINT
  5
2947
100
AcDbEntity
  8
DEFPOINTS
  6
BYBLOCK
 62
     0
100
AcDbPoint
 10
133.41488
 20
226.128871
 30
0.0
  0
POINT
  5
2948
100
AcDbEntity
  8
DEFPOINTS
  6
BYBLOCK
 62
     0
100
AcDbPoint
 10
127.082331
 20
215.935794
 30
0.0
  0
ENDBLK
  5
2949
100
AcDbEntity
  8
0
100
AcDbBlockEnd
  0
ENDSEC
  0
SECTION
  2
ENTITIES
  0
TEXT
  5
1453
100
AcDbEntity
  8
外形
  6
CONTINUOUS
 62
     2
100
AcDbText
 10
81.945496
 20
150.213866
 30
0.0
 40
6.0
  1
WBPT212RH14
100
AcDbText
  0
LINE
  5
2185
100
AcDbEntity
  8
外形
  6
CENTER
 62
     1
100
AcDbLine
 10
49.755294
 20
219.086954
 30
0.0
 11
58.046538
 21
219.086954
 31
0.0
  0
LINE
  5
2189
100
AcDbEntity
  8
外形
  6
CONTINUOUS
100
AcDbLine
 10
51.263649
 20
214.07593
 30
0.0
 11
59.82879
 21
218.440087
 31
0.0
  0
LINE
  5
218A
100
AcDbEntity
  8
外形
  6
CONTINUOUS
100
AcDbLine
 10
50.682601
 20
214.453267
 30
0.0
 11
51.237026
 21
225.032332
 31
0.0
  0
LINE
  5
218C
100
AcDbEntity
  8
外形
  6
CONTINUOUS
100
AcDbLine
 10
51.22196
 20
224.744846
 30
0.0
 11
59.865049
 21
219.131958
 31
0.0
  0
ARC
  5
218D
100
AcDbEntity
  8
外形
  6
CONTINUOUS
100
AcDbCircle
 10
51.082053
 20
214.432332
 30
0.0
 40
0.4
100
AcDbArc
 50
177.0
 51
297.0
  0
ARC
  5
218E
100
AcDbEntity
  8
外形
  6
CONTINUOUS
100
AcDbCircle
 10
51.585152
 20
224.03204
 30
0.0
 40
0.4
100
AcDbArc
 50
57.0
 51
177.0
  0
ARC
  5
218F
100
AcDbEntity
  8
外形
  6
CONTINUOUS
100
AcDbCircle
 10
59.647193
 20
218.79649
 30
0.0
 40
0.4
100
AcDbArc
 50
297.0
 51
57.0
  0
LINE
  5
21A1
100
AcDbEntity
  8
外形
  6
CENTER
 62
     1
100
AcDbLine
 10
54.1048
 20
212.821749
 30
0.0
 11
54.1048
 21
225.352159
 31
0.0
  0
LINE
  5
21A5
100
AcDbEntity
  8
外形
  6
CENTER
 62
     1
100
AcDbLine
 10
46.059876
 20
221.032332
 30
0.0
 11
212.004375
 21
221.032332
 31
0.0
  0
ARC
  5
21AB
100
AcDbEntity
  8
外形
  6
CONTINUOUS
100
AcDbCircle
 10
59.318608
 20
219.214259
 30
0.0
 40
1.5
100
AcDbArc
 50
267.0
 51
87.0
  0
LINE
  5
21AC
100
AcDbEntity
  8
外形
  6
CONTINUOUS
100
AcDbLine
 10
59.397111
 20
220.712203
 30
0.0
 11
57.259149
 21
220.824249
 31
0.0
  0
LINE
  5
21AD
100
AcDbEntity
  8
外形
  6
CONTINUOUS
100
AcDbLine
 10
59.240104
 20
217.716315
 30
0.0
 11
58.485883
 21
217.755842
 31
0.0
  0
LINE
  5
21B1
100
AcDbEntity
  8
外形
  6
CENTER
 62
     1
100
AcDbLine
 10
47.955788
 20
170.803604
 30
0.0
 11
210.540092
 21
170.803604
 31
0.0
  0
LINE
  5
2203
100
AcDbEntity
  8
外形
  6
CENTER
 62
     1
100
AcDbLine
 10
32.578559
 20
221.032332
 30
0.0
 11
13.036133
 21
221.032332
 31
0.0
  0
LINE
  5
2204
100
AcDbEntity
  8
外形
  6
CENTER
 62
     1
100
AcDbLine
 10
22.807346
 20
230.803545
 30
0.0
 11
22.807346
 21
211.26112
 31
0.0
  0
LINE
  5
2208
100
AcDbEntity
  8
外形
  6
CONTINUOUS
100
AcDbLine
 10
22.807346
 20
213.99541
 30
0.0
 11
24.355493
 21
226.604053
 31
0.0
  0
LINE
  5
220B
100
AcDbEntity
  8
外形
  6
CONTINUOUS
100
AcDbLine
 10
22.807346
 20
213.99541
 30
0.0
 11
19.72638
 21
214.996477
 31
0.0
  0
LINE
  5
220C
100
AcDbEntity
  8
外形
  6
CONTINUOUS
100
AcDbLine
 10
19.72638
 20
214.996477
 30
0.0
 11
20.836008
 21
224.033666
 31
0.0
  0
LINE
  5
220E
100
AcDbEntity
  8
外形
  6
CONTINUOUS
100
AcDbLine
 10
20.836008
 20
224.033666
 30
0.0
 11
24.067635
 21
224.259644
 31
0.0
  0
LINE
  5
2316
100
AcDbEntity
  8
外形
  6
CONTINUOUS
100
AcDbLine
 10
199.682053
 20
227.032332
 30
0.0
 11
199.682053
 21
215.032332
 31
0.0
  0
LINE
  5
231A
100
AcDbEntity
  8
外形
  6
CONTINUOUS
100
AcDbLine
 10
199.682053
 20
215.032332
 30
0.0
 11
200.682053
 21
216.032332
 31
0.0
  0
LINE
  5
231B
100
AcDbEntity
  8
外形
  6
CONTINUOUS
100
AcDbLine
 10
199.682053
 20
227.032332
 30
0.0
 11
200.682053
 21
226.032332
 31
0.0
  0
DIMENSION
  5
238C
100
AcDbEntity
  8
寸法
  6
CONTINUOUS
100
AcDbDimension
  2
*D4
 10
50.682053
 20
214.032332
 30
0.0
 11
38.639147
 21
226.700239
 31
0.0
 12
0.0
 22
-1.0
 32
0.0
 70
    34
  3
STANDARD
100
AcDb2LineAngularDimension
 13
50.682601
 23
214.453267
 33
0.0
 14
51.22196
 24
224.744846
 34
0.0
 15
51.082053
 25
214.032332
 35
0.0
 16
43.635389
 26
227.244722
 36
0.0
1001
ACAD
1000
DSTYLE
1002
{
1070
   284
1070
    13
1070
   146
1040
0.5
1070
   272
1070
     3
1070
    40
1040
1.0
1070
   287
1070
     0
1002
}
  0
MTEXT
  5
23B0
100
AcDbEntity
  8
寸法
  6
BYBLOCK
 62
     3
100
AcDbMText
 10
29.631506
 20
239.930391
 30
0.0
 40
3.0
 41
0.0
 71
     5
 72
     1
  1
最小加工径
 11
0.654345
 21
0.756197
 31
0.0
  0
CIRCLE
  5
25FF
100
AcDbEntity
  8
外形
  6
CONTINUOUS
100
AcDbCircle
 10
54.1048
 20
219.086954
 30
0.0
 40
1.944
  0
ARC
  5
2600
100
AcDbEntity
  8
外形
  6
CONTINUOUS
100
AcDbCircle
 10
54.1048
 20
220.100803
 30
0.0
 40
0.288
100
AcDbArc
 50
240.283476
 51
299.716524
  0
ARC
  5
2601
100
AcDbEntity
  8
外形
  6
CONTINUOUS
100
AcDbCircle
 10
53.22678
 20
219.593879
 30
0.0
 40
0.288
100
AcDbArc
 50
300.283476
 51
359.716524
  0
ARC
  5
2602
100
AcDbEntity
  8
外形
  6
CONTINUOUS
100
AcDbCircle
 10
53.22678
 20
218.580029
 30
0.0
 40
0.288
100
AcDbArc
 50
0.283476
 51
59.716524
  0
ARC
  5
2603
100
AcDbEntity
  8
外形
  6
CONTINUOUS
100
AcDbCircle
 10
54.1048
 20
218.073105
 30
0.0
 40
0.288
100
AcDbArc
 50
60.283476
 51
119.716524
  0
ARC
  5
2604
100
AcDbEntity
  8
外形
  6
CONTINUOUS
100
AcDbCircle
 10
54.982819
 20
218.580029
 30
0.0
 40
0.288
100
AcDbArc
 50
120.283476
 51
179.716524
  0
ARC
  5
2605
100
AcDbEntity
  8
外形
  6
CONTINUOUS
100
AcDbCircle
 10
54.982819
 20
219.593879
 30
0.0
 40
0.288
100
AcDbArc
 50
180.283476
 51
239.716524
  0
LINE
  5
2606
100
AcDbEntity
  8
外形
  6
CONTINUOUS
100
AcDbLine
 10
54.692289
 20
218.069393
 30
0.0
 11
54.247564
 21
218.323229
 31
0.0
  0
LINE
  5
2607
100
AcDbEntity
  8
外形
  6
CONTINUOUS
100
AcDbLine
 10
54.694822
 20
218.581454
 30
0.0
 11
54.692289
 21
218.069393
 31
0.0
  0
LINE
  5
2608
100
AcDbEntity
  8
外形
  6
CONTINUOUS
100
AcDbLine
 10
53.51731
 20
218.069393
 30
0.0
 11
53.514777
 21
218.581454
 31
0.0
  0
LINE
  5
2609
100
AcDbEntity
  8
外形
  6
CONTINUOUS
100
AcDbLine
 10
53.962035
 20
218.323229
 30
0.0
 11
53.51731
 21
218.069393
 31
0.0
  0
LINE
  5
260A
100
AcDbEntity
  8
外形
  6
CONTINUOUS
100
AcDbLine
 10
53.51731
 20
220.104516
 30
0.0
 11
53.962035
 21
219.850679
 31
0.0
  0
LINE
  5
260B
100
AcDbEntity
  8
外形
  6
CONTINUOUS
100
AcDbLine
 10
53.514777
 20
219.592454
 30
0.0
 11
53.51731
 21
220.104516
 31
0.0
  0
LINE
  5
260C
100
AcDbEntity
  8
外形
  6
CONTINUOUS
100
AcDbLine
 10
54.692289
 20
220.104516
 30
0.0
 11
54.694822
 21
219.592454
 31
0.0
  0
LINE
  5
260D
100
AcDbEntity
  8
外形
  6
CONTINUOUS
100
AcDbLine
 10
54.247564
 20
219.850679
 30
0.0
 11
54.692289
 21
220.104516
 31
0.0
  0
LINE
  5
260E
100
AcDbEntity
  8
外形
  6
CONTINUOUS
100
AcDbLine
 10
55.279778
 20
219.086954
 30
0.0
 11
54.837587
 21
218.828729
 31
0.0
  0
LINE
  5
260F
100
AcDbEntity
  8
外形
  6
CONTINUOUS
100
AcDbLine
 10
54.837587
 20
219.345179
 30
0.0
 11
55.279778
 21
219.086954
 31
0.0
  0
LINE
  5
2610
100
AcDbEntity
  8
外形
  6
CONTINUOUS
100
AcDbLine
 10
52.929821
 20
219.086954
 30
0.0
 11
53.372012
 21
219.345179
 31
0.0
  0
LINE
  5
2611
100
AcDbEntity
  8
外形
  6
CONTINUOUS
100
AcDbLine
 10
53.372012
 20
218.828729
 30
0.0
 11
52.929821
 21
219.086954
 31
0.0
  0
ARC
  5
2685
100
AcDbEntity
  8
外形
  6
CONTINUOUS
100
AcDbCircle
 10
22.807346
 20
221.032332
 30
0.0
 40
6.5
100
AcDbArc
 50
183.307362
 51
270.0
  0
LINE
  5
2686
100
AcDbEntity
  8
外形
  6
CENTER
 62
     1
100
AcDbLine
 10
25.400434
 20
220.282332
 30
0.0
 11
20.214259
 21
220.282332
 31
0.0
  0
ARC
  5
2688
100
AcDbEntity
  8
外形
  6
CONTINUOUS
100
AcDbCircle
 10
22.807346
 20
221.032332
 30
0.0
 40
5.75
100
AcDbArc
 50
270.0
 51
343.042574
  0
ARC
  5
2689
100
AcDbEntity
  8
外形
  6
CONTINUOUS
100
AcDbCircle
 10
22.807346
 20
220.282332
 30
0.0
 40
6.5
100
AcDbArc
 50
90.0
 51
176.692638
  0
LINE
  5
268B
100
AcDbEntity
  8
外形
  6
CONTINUOUS
100
AcDbLine
 10
55.567153
 20
227.532332
 30
0.0
 11
64.932053
 21
227.532332
 31
0.0
  0
LINE
  5
268C
100
AcDbEntity
  8
外形
  6
CONTINUOUS
100
AcDbLine
 10
52.15939
 20
214.532332
 30
0.0
 11
59.682053
 21
214.532332
 31
0.0
  0
LINE
  5
268E
100
AcDbEntity
  8
外形
  6
CONTINUOUS
100
AcDbLine
 10
65.682053
 20
226.782332
 30
0.0
 11
65.682053
 21
224.219144
 31
0.0
  0
LINE
  5
268F
100
AcDbEntity
  8
外形
  6
CONTINUOUS
100
AcDbLine
 10
65.682053
 20
226.782332
 30
0.0
 11
68.682053
 21
226.782332
 31
0.0
  0
LINE
  5
2691
100
AcDbEntity
  8
外形
  6
CONTINUOUS
100
AcDbLine
 10
64.932053
 20
227.532332
 30
0.0
 11
65.682053
 21
226.782332
 31
0.0
  0
LINE
  5
2695
100
AcDbEntity
  8
外形
  6
CONTINUOUS
100
AcDbLine
 10
64.932053
 20
227.532332
 30
0.0
 11
64.932053
 21
224.609219
 31
0.0
  0
LINE
  5
2697
100
AcDbEntity
  8
外形
  6
CONTINUOUS
100
AcDbLine
 10
68.682053
 20
226.782332
 30
0.0
 11
68.682053
 21
221.788884
 31
0.0
  0
LINE
  5
2698
100
AcDbEntity
  8
外形
  6
CONTINUOUS
100
AcDbLine
 10
68.932053
 20
227.032332
 30
0.0
 11
68.682053
 21
226.782332
 31
0.0
  0
LINE
  5
269A
100
AcDbEntity
  8
外形
  6
CONTINUOUS
100
AcDbLine
 10
68.932053
 20
227.032332
 30
0.0
 11
122.219665
 21
227.032332
 31
0.0
  0
LINE
  5
269B
100
AcDbEntity
  8
外形
  6
CONTINUOUS
100
AcDbLine
 10
69.834832
 20
215.032332
 30
0.0
 11
122.219665
 21
215.032332
 31
0.0
  0
LINE
  5
269D
100
AcDbEntity
  8
外形
  6
CONTINUOUS
100
AcDbLine
 10
68.932053
 20
215.450934
 30
0.0
 11
68.932053
 21
217.929426
 31
0.0
  0
LINE
  5
269F
100
AcDbEntity
  8
外形
  6
CONTINUOUS
100
AcDbLine
 10
68.682053
 20
174.943552
 30
0.0
 11
68.682053
 21
173.204292
 31
0.0
  0
LINE
  5
26A0
100
AcDbEntity
  8
外形
  6
CONTINUOUS
100
AcDbLine
 10
68.932053
 20
164.803604
 30
0.0
 11
68.932053
 21
168.601604
 31
0.0
  0
LINE
  5
26A1
100
AcDbEntity
  8
外形
  6
CONTINUOUS
100
AcDbLine
 10
70.682053
 20
176.803604
 30
0.0
 11
70.682053
 21
164.803604
 31
0.0
  0
LINE
  5
26A2
100
AcDbEntity
  8
外形
  6
CONTINUOUS
100
AcDbLine
 10
65.682053
 20
167.737604
 30
0.0
 11
65.682053
 21
165.053604
 31
0.0
  0
LINE
  5
26A3
100
AcDbEntity
  8
外形
  6
CONTINUOUS
100
AcDbLine
 10
64.932053
 20
166.481604
 30
0.0
 11
64.932053
 21
164.303604
 31
0.0
  0
LINE
  5
26A8
100
AcDbEntity
  8
外形
  6
CONTINUOUS
100
AcDbLine
 10
51.945525
 20
164.303604
 30
0.0
 11
64.932053
 21
164.303604
 31
0.0
  0
LINE
  5
26A9
100
AcDbEntity
  8
外形
  6
CONTINUOUS
100
AcDbLine
 10
68.932053
 20
164.803604
 30
0.0
 11
199.682053
 21
164.803604
 31
0.0
  0
LINE
  5
26AA
100
AcDbEntity
  8
外形
  6
CONTINUOUS
100
AcDbLine
 10
68.682053
 20
165.053604
 30
0.0
 11
68.932053
 21
164.803604
 31
0.0
  0
LINE
  5
26AB
100
AcDbEntity
  8
外形
  6
CONTINUOUS
100
AcDbLine
 10
65.682053
 20
165.053604
 30
0.0
 11
68.682053
 21
165.053604
 31
0.0
  0
LINE
  5
26AC
100
AcDbEntity
  8
外形
  6
CONTINUOUS
100
AcDbLine
 10
65.682053
 20
165.053604
 30
0.0
 11
64.932053
 21
164.303604
 31
0.0
  0
ARC
  5
26CA
100
AcDbEntity
  8
外形
  6
CONTINUOUS
100
AcDbCircle
 10
65.182053
 20
206.180686
 30
0.0
 40
10.0
100
AcDbArc
 50
62.271791
 51
123.367013
  0
LINE
  5
26D0
100
AcDbEntity
  8
外形
  6
CONTINUOUS
100
AcDbLine
 10
75.682053
 20
176.303604
 30
0.0
 11
185.682053
 21
176.303604
 31
0.0
  0
LINE
  5
26D3
100
AcDbEntity
  8
外形
  6
CENTER
 62
     1
100
AcDbLine
 10
130.248606
 20
211.888701
 30
0.0
 11
130.248606
 21
230.842777
 31
0.0
  0
ARC
  5
26D4
100
AcDbEntity
  8
外形
  6
CONTINUOUS
100
AcDbCircle
 10
130.248606
 20
221.032332
 30
0.0
 40
6.0
100
AcDbArc
 50
0.0
 51
156.443536
  0
LINE
  5
26D5
100
AcDbEntity
  8
外形
  6
CONTINUOUS
100
AcDbLine
 10
124.748606
 20
218.634417
 30
0.0
 11
124.748606
 21
223.430248
 31
0.0
  0
LINE
  5
26D9
100
AcDbEntity
  8
外形
  6
CONTINUOUS
100
AcDbLine
 10
122.219665
 20
223.430248
 30
0.0
 11
75.682053
 21
223.430248
 31
0.0
  0
LINE
  5
26DA
100
AcDbEntity
  8
外形
  6
CONTINUOUS
100
AcDbLine
 10
122.219665
 20
218.634417
 30
0.0
 11
75.682053
 21
218.634417
 31
0.0
  0
LINE
  5
26DB
100
AcDbEntity
  8
外形
  6
CONTINUOUS
100
AcDbLine
 10
138.603662
 20
227.032332
 30
0.0
 11
199.682053
 21
227.032332
 31
0.0
  0
LINE
  5
26DC
100
AcDbEntity
  8
外形
  6
CONTINUOUS
100
AcDbLine
 10
138.603662
 20
223.430248
 30
0.0
 11
185.682053
 21
223.430248
 31
0.0
  0
LINE
  5
26DD
100
AcDbEntity
  8
外形
  6
CONTINUOUS
100
AcDbLine
 10
138.603662
 20
218.634417
 30
0.0
 11
185.682053
 21
218.634417
 31
0.0
  0
LINE
  5
26DE
100
AcDbEntity
  8
外形
  6
CONTINUOUS
100
AcDbLine
 10
138.603662
 20
215.032332
 30
0.0
 11
199.682053
 21
215.032332
 31
0.0
  0
ARC
  5
26DF
100
AcDbEntity
  8
外形
  6
CONTINUOUS
100
AcDbCircle
 10
130.248606
 20
221.032332
 30
0.0
 40
6.0
100
AcDbArc
 50
203.556464
 51
0.0
  0
LINE
  5
26E3
100
AcDbEntity
  8
外形
  6
CONTINUOUS
100
AcDbLine
 10
200.682053
 20
226.032332
 30
0.0
 11
200.682053
 21
216.032332
 31
0.0
  0
LINE
  5
26E9
100
AcDbEntity
  8
外形
  6
CONTINUOUS
100
AcDbLine
 10
200.682053
 20
175.803604
 30
0.0
 11
200.682053
 21
165.803604
 31
0.0
  0
LINE
  5
26EB
100
AcDbEntity
  8
外形
  6
CONTINUOUS
100
AcDbLine
 10
199.682053
 20
164.803604
 30
0.0
 11
200.682053
 21
165.803604
 31
0.0
  0
LINE
  5
26EC
100
AcDbEntity
  8
外形
  6
CONTINUOUS
100
AcDbLine
 10
199.682053
 20
176.803604
 30
0.0
 11
199.682053
 21
164.803604
 31
0.0
  0
LINE
  5
26ED
100
AcDbEntity
  8
外形
  6
CONTINUOUS
100
AcDbLine
 10
199.682053
 20
176.803604
 30
0.0
 11
200.682053
 21
175.803604
 31
0.0
  0
SPLINE
  5
2761
100
AcDbEntity
  8
外形
  6
CONTINUOUS
100
AcDbSpline
210
0.0
220
0.0
230
1.0
 70
     8
 71
     3
 72
     9
 73
     5
 74
     0
 42
0.0000001
 43
0.0000001
 40
8.263046774666841
 40
8.263046774666841
 40
8.263046774666841
 40
8.263046774666841
 40
15.06320736100595
 40
16.52609354933368
 40
16.52609354933368
 40
16.52609354933368
 40
16.52609354933368
 10
59.68205293647733
 20
170.8036042373142
 30
0.0
 10
59.68205293647732
 20
167.9693282115598
 30
0.0
 10
64.25312405918117
 20
164.525327871307
 30
0.0
 10
65.46712647886626
 20
167.2544429049461
 30
0.0
 10
65.68205293647733
 20
167.7376042373142
 30
0.0
  0
SPLINE
  5
2764
100
AcDbEntity
  8
外形
  6
CONTINUOUS
100
AcDbSpline
210
0.0
220
0.0
230
1.0
 70
     8
 71
     3
 72
    11
 73
     7
 74
     0
 42
0.0000001
 43
0.0000001
 40
1.364481176831697
 40
1.364481176831697
 40
1.364481176831697
 40
1.364481176831697
 40
3.362885070887822
 40
5.742761984355686
 40
8.12263889782355
 40
11.48552396871136
 40
11.48552396871136
 40
11.48552396871136
 40
11.48552396871136
 10
67.14869710313152
 20
173.7420884839114
 30
0.0
 10
67.83623530069764
 20
173.6369158462715
 30
0.0
 10
69.20551559784563
 20
173.1999152536737
 30
0.0
 10
70.17690597000148
 20
170.8036042373142
 30
0.0
 10
69.00939056897199
 20
167.9234747883807
 30
0.0
 10
66.91090070338875
 20
167.8062496940848
 30
0.0
 10
65.68205293647733
 20
167.7376042373142
 30
0.0
  0
LINE
  5
2772
100
AcDbEntity
  8
外形
  6
CONTINUOUS
100
AcDbLine
 10
28.307346
 20
222.709383
 30
0.0
 11
28.307346
 21
219.355281
 31
0.0
  0
ARC
  5
2773
100
AcDbEntity
  8
外形
  6
CONTINUOUS
100
AcDbCircle
 10
22.807346
 20
221.032332
 30
0.0
 40
5.75
100
AcDbArc
 50
16.957426
 51
90.0
  0
SPLINE
  5
2793
100
AcDbEntity
  8
外形
  6
CONTINUOUS
100
AcDbSpline
210
0.0
220
0.0
230
1.0
 70
     8
 71
     3
 72
    10
 73
     6
 74
     0
 42
0.0000001
 43
0.0000001
 40
1.203880928041249
 40
1.203880928041249
 40
1.203880928041249
 40
1.203880928041249
 40
2.280936093855334
 40
3.497951757264512
 40
4.405025210842113
 40
4.405025210842113
 40
4.405025210842113
 40
4.405025210842113
 10
68.93205293647731
 20
217.9294260314677
 30
0.0
 10
68.68221438287545
 20
217.6723140596622
 30
0.0
 10
68.22121960703507
 20
217.0412568265062
 30
0.0
 10
67.25992361987387
 20
216.5339125895396
 30
0.0
 10
66.62163903837063
 20
216.226216535818
 30
0.0
 10
66.34224206498024
 20
216.1131559470867
 30
0.0
  0
SPLINE
  5
2794
100
AcDbEntity
  8
外形
  6
CONTINUOUS
100
AcDbSpline
210
0.0
220
0.0
230
-1.0
 70
     8
 71
     3
 72
    14
 73
    10
 74
     0
 42
0.0000001
 43
0.0000001
 40
0.0
 40
0.0
 40
0.0
 40
0.0
 40
2.175282124059934
 40
4.237709429470201
 40
6.045562096130584
 40
7.638580536711467
 40
9.280522428585296
 40
11.0156461248264
 40
14.5251475138549
 40
14.5251475138549
 40
14.5251475138549
 40
14.5251475138549
 10
67.8275527804757
 20
222.7093834298285
 30
0.0
 10
67.25571210833104
 20
223.1582905878603
 30
0.0
 10
66.14169816885214
 20
224.0328153566281
 30
0.0
 10
64.31970488048944
 20
224.9215162438785
 30
0.0
 10
62.61519074691136
 20
225.5606349678181
 30
0.0
 10
61.01065546910781
 20
226.0697785421618
 30
0.0
 10
59.38409122348883
 20
226.3956115468093
 30
0.0
 10
57.10668756764525
 20
226.7032457170008
 30
0.0
 10
55.35734665556777
 20
226.7311618284213
 30
0.0
 10
54.18566143238365
 20
226.73472764263
 30
0.0
  0
SPLINE
  5
27B8
100
AcDbEntity
  8
外形
  6
CONTINUOUS
100
AcDbSpline
210
0.0
220
0.0
230
1.0
 70
     8
 71
     3
 72
    13
 73
     9
 74
     0
 42
0.0000001
 43
0.0000001
 40
2.163549110095621
 40
2.163549110095621
 40
2.163549110095621
 40
2.163549110095621
 40
2.465842009800355
 40
3.755751800416663
 40
5.04506493453928
 40
6.508518807840282
 40
8.161885997502864
 40
11.92074448575142
 40
11.92074448575142
 40
11.92074448575142
 40
11.92074448575142
 10
68.43195934938609
 20
174.7218269191908
 30
0.0
 10
68.35530021594755
 20
174.6562504626841
 30
0.0
 10
67.94621544609741
 20
174.3171804402075
 30
0.0
 10
67.16287803889066
 20
173.7617038562763
 30
0.0
 10
66.08890385973165
 20
172.9432326544023
 30
0.0
 10
64.80165758152356
 20
172.2350033665378
 30
0.0
 10
62.76235705449579
 20
171.15435997671
 30
0.0
 10
60.94454568767503
 20
170.947364905567
 30
0.0
 10
59.68205293647733
 20
170.8036042373142
 30
0.0
  0
SPLINE
  5
27C8
100
AcDbEntity
  8
外形
  6
CONTINUOUS
100
AcDbSpline
210
0.0
220
0.0
230
1.0
 70
     8
 71
     3
 72
    13
 73
     9
 74
     0
 42
0.0000001
 43
0.0000001
 40
0.0
 40
0.0
 40
0.0
 40
0.0
 40
4.248151747505747
 40
6.092929243400458
 40
7.828087213052125
 40
9.479398869321476
 40
11.27740098959462
 40
12.67924411020834
 40
12.67924411020834
 40
12.67924411020834
 40
12.67924411020834
 10
53.49821308126518
 20
172.2243206059838
 30
0.0
 10
54.92376862724625
 20
172.3478569837674
 30
0.0
 10
56.96837757496087
 20
172.5250395453988
 30
0.0
 10
59.37579945447772
 20
173.5661928406926
 30
0.0
 10
60.99745417435729
 20
174.2008463112237
 30
0.0
 10
62.57922194326879
 20
174.9027831385682
 30
0.0
 10
64.10684770178203
 20
175.4277435668466
 30
0.0
 10
65.11357695654051
 20
175.7964025829337
 30
0.0
 10
65.56172753969351
 20
175.9267719328349
 30
0.0
  0
LINE
  5
27C9
100
AcDbEntity
  8
外形
  6
CONTINUOUS
100
AcDbLine
 10
50.682053
 20
170.803604
 30
0.0
 11
54.4048
 21
170.477906
 31
0.0
  0
LINE
  5
27CC
100
AcDbEntity
  8
外形
  6
CONTINUOUS
100
AcDbLine
 10
51.945525
 20
164.303604
 30
0.0
 11
50.682053
 21
170.803604
 31
0.0
  0
LINE
  5
27CE
100
AcDbEntity
  8
外形
  6
CONTINUOUS
100
AcDbLine
 10
54.4048
 20
167.324072
 30
0.0
 11
54.4048
 21
170.803604
 31
0.0
  0
LINE
  5
27CF
100
AcDbEntity
  8
外形
  6
CONTINUOUS
100
AcDbLine
 10
54.4048
 20
167.324072
 30
0.0
 11
51.305702
 21
167.595208
 31
0.0
  0
LINE
  5
27D0
100
AcDbEntity
  8
外形
  6
CONTINUOUS
100
AcDbLine
 10
51.22196
 20
172.224321
 30
0.0
 11
53.498213
 21
172.224321
 31
0.0
  0
LINE
  5
27D2
100
AcDbEntity
  8
外形
  6
CONTINUOUS
100
AcDbLine
 10
51.22196
 20
172.224321
 30
0.0
 11
50.682053
 21
170.803604
 31
0.0
  0
LINE
  5
27D3
100
AcDbEntity
  8
外形
  6
CONTINUOUS
100
AcDbLine
 10
54.4048
 20
170.803604
 30
0.0
 11
59.682053
 21
170.803604
 31
0.0
  0
LINE
  5
27D5
100
AcDbEntity
  8
外形
  6
CONTINUOUS
100
AcDbLine
 10
68.932053
 20
173.005604
 30
0.0
 11
68.932053
 21
175.182908
 31
0.0
  0
LINE
  5
27D6
100
AcDbEntity
  8
外形
  6
CONTINUOUS
100
AcDbLine
 10
68.682053
 20
168.402917
 30
0.0
 11
68.682053
 21
165.053604
 31
0.0
  0
LINE
  5
27DA
100
AcDbEntity
  8
外形
  6
CONTINUOUS
100
AcDbLine
 10
68.682053
 20
217.653463
 30
0.0
 11
68.682053
 21
215.548183
 31
0.0
  0
LINE
  5
27DB
100
AcDbEntity
  8
外形
  6
CONTINUOUS
100
AcDbLine
 10
68.932053
 20
221.505025
 30
0.0
 11
68.932053
 21
227.032332
 31
0.0
  0
LINE
  5
27E1
100
AcDbEntity
  8
外形
  6
CONTINUOUS
100
AcDbLine
 10
70.682053
 20
227.032332
 30
0.0
 11
70.682053
 21
215.032332
 31
0.0
  0
DIMENSION
  5
2808
100
AcDbEntity
  8
寸法
  6
CONTINUOUS
100
AcDbDimension
  2
*D7
 10
200.682053
 20
197.088249
 30
0.0
 11
125.682053
 21
199.588249
 31
0.0
 70
    32
  3
STANDARD
100
AcDbAlignedDimension
 13
50.682053
 23
214.032332
 33
0.0
 14
200.682053
 24
216.032332
 34
0.0
100
AcDbRotatedDimension
1001
ACAD
1000
DSTYLE
1002
{
1070
   284
1070
    13
1070
   146
1040
0.5
1070
   272
1070
     3
1070
    40
1040
1.0
1070
   287
1070
     0
1002
}
  0
DIMENSION
  5
2820
100
AcDbEntity
  8
寸法
  6
CONTINUOUS
100
AcDbDimension
  2
*D8
 10
43.305485
 20
214.032332
 30
0.0
 11
40.805485
 21
217.532332
 31
0.0
 70
    32
  3
STANDARD
100
AcDbAlignedDimension
 13
46.059876
 23
221.032332
 33
0.0
 14
50.682053
 24
214.032332
 34
0.0
 50
90.0
100
AcDbRotatedDimension
1001
ACAD
1000
DSTYLE
1002
{
1070
   284
1070
    13
1070
   146
1040
0.5
1070
   272
1070
     3
1070
    40
1040
1.0
1070
   287
1070
     0
1002
}
  0
CIRCLE
  5
2862
100
AcDbEntity
  8
外形
  6
PHANTOM
 62
     1
100
AcDbCircle
 10
22.807346
 20
220.99541
 30
0.0
 40
7.0
  0
DIMENSION
  5
286D
100
AcDbEntity
  8
寸法
  6
CONTINUOUS
100
AcDbDimension
  2
*D9
 10
18.388939
 20
215.566075
 30
0.0
 11
32.906563
 21
233.405318
 31
0.0
 70
   163
  3
STANDARD
100
AcDbDiametricDimension
 15
27.225753
 25
226.424745
 35
0.0
 40
0.0
1001
ACAD
1000
DSTYLE
1002
{
1070
   284
1070
    13
1070
   146
1040
0.5
1070
   272
1070
     3
1070
    40
1040
1.0
1070
   287
1070
     0
1002
}
  0
DIMENSION
  5
2888
100
AcDbEntity
  8
寸法
  6
CONTINUOUS
100
AcDbDimension
  2
*D10
 10
22.807346
 20
211.26112
 30
0.0
 11
14.144748
 21
204.402154
 31
0.0
 70
    34
  3
STANDARD
100
AcDb2LineAngularDimension
 13
22.807346
 23
213.99541
 33
0.0
 14
24.355493
 24
226.604053
 34
0.0
 15
22.807346
 25
230.803545
 35
0.0
 16
22.209296
 26
199.318202
 36
0.0
1001
ACAD
1000
DSTYLE
1002
{
1070
   284
1070
    13
1070
   146
1040
0.5
1070
   272
1070
     3
1070
    40
1040
1.0
1070
   287
1070
     0
1002
}
  0
LINE
  5
28A6
100
AcDbEntity
  8
外形
  6
CONTINUOUS
100
AcDbLine
 10
51.237026
 20
225.032332
 30
0.0
 11
55.567153
 21
227.532332
 31
0.0
  0
LINE
  5
28A7
100
AcDbEntity
  8
外形
  6
CONTINUOUS
100
AcDbLine
 10
24.16251
 20
225.032332
 30
0.0
 11
19.140087
 21
225.649008
 31
0.0
  0
DIMENSION
  5
28BD
100
AcDbEntity
  8
寸法
  6
CONTINUOUS
100
AcDbDimension
  2
*D11
 10
54.4048
 20
170.477906
 30
0.0
 11
40.154737
 21
180.598048
 31
0.0
 12
0.0
 22
-10.577166
 32
0.0
 70
    34
  3
STANDARD
100
AcDb2LineAngularDimension
 13
47.955788
 23
170.803604
 33
0.0
 14
210.540092
 24
170.803604
 34
0.0
 15
50.682053
 25
170.803604
 35
0.0
 16
39.465812
 26
171.129964
 36
0.0
1001
ACAD
1000
DSTYLE
1002
{
1070
   284
1070
    13
1070
   146
1040
0.5
1070
   272
1070
     3
1070
    40
1040
1.0
1070
   287
1070
     0
1002
}
  0
LINE
  5
28F6
100
AcDbEntity
  8
外形
  6
CONTINUOUS
100
AcDbLine
 10
69.945302
 20
176.803604
 30
0.0
 11
75.682053
 21
176.803604
 31
0.0
  0
SPLINE
  5
28F8
100
AcDbEntity
  8
外形
  6
CONTINUOUS
100
AcDbSpline
210
0.0
220
0.0
230
-1.0
 70
     8
 71
     3
 72
    10
 73
     6
 74
     4
 42
0.0000001
 43
0.0000001
 44
0.0000000001
 40
0.0
 40
0.0
 40
0.0
 40
0.0
 40
1.077597341609357
 40
2.60766013258215
 40
4.481133850820394
 40
4.481133850820394
 40
4.481133850820394
 40
4.481133850820394
 10
69.94530186087991
 20
176.8036042373142
 30
0.0
 10
69.58711662487826
 20
176.7749117803501
 30
0.0
 10
68.72035004710802
 20
176.7054793743466
 30
0.0
 10
67.24889365836038
 20
176.4263628501586
 30
0.0
 10
66.16071470200418
 20
176.1041394976365
 30
0.0
 10
65.56172753969349
 20
175.9267719328349
 30
0.0
 11
69.94530186087991
 21
176.8036042373142
 31
0.0
 11
68.87253873970928
 21
176.701646812377
 31
0.0
 11
67.36760616182607
 21
176.4254764295601
 31
0.0
 11
65.56172753969349
 21
175.9267719328349
 31
0.0
  0
SPLINE
  5
28F9
100
AcDbEntity
  8
外形
  6
CONTINUOUS
100
AcDbSpline
210
0.0
220
0.0
230
1.0
 70
     8
 71
     3
 72
    10
 73
     6
 74
     4
 42
0.0000001
 43
0.0000001
 44
0.0000000001
 40
0.0
 40
0.0
 40
0.0
 40
0.0
 40
1.15286964461102
 40
1.870769097794103
 40
2.632785293388397
 40
2.632785293388397
 40
2.632785293388397
 40
2.632785293388397
 10
68.4319593493861
 20
174.7218269191908
 30
0.0
 10
68.70528384260158
 20
174.9877756315427
 30
0.0
 10
69.14880928189806
 20
175.4193323430857
 30
0.0
 10
69.79216436591451
 20
176.0536836024908
 30
0.0
 10
69.89325154917692
 20
176.5487117121107
 30
0.0
 10
69.94530186087991
 20
176.8036042373142
 30
0.0
 11
68.4319593493861
 21
174.7218269191908
 31
0.0
 11
69.25710572474236
 21
175.5269616139481
 31
0.0
 11
69.72007218443851
 21
176.0756342687041
 31
0.0
 11
69.94530186087991
 21
176.8036042373142
 31
0.0
  0
LINE
  5
28FC
100
AcDbEntity
  8
外形
  6
CONTINUOUS
100
AcDbLine
 10
75.682053
 20
176.803604
 30
0.0
 11
75.682053
 21
176.303604
 31
0.0
  0
LINE
  5
28FD
100
AcDbEntity
  8
外形
  6
CONTINUOUS
100
AcDbLine
 10
185.682053
 20
176.803604
 30
0.0
 11
185.682053
 21
176.303604
 31
0.0
  0
LINE
  5
28FE
100
AcDbEntity
  8
外形
  6
CONTINUOUS
100
AcDbLine
 10
185.682053
 20
176.803604
 30
0.0
 11
199.682053
 21
176.803604
 31
0.0
  0
DIMENSION
  5
290B
100
AcDbEntity
  8
寸法
  6
CONTINUOUS
100
AcDbDimension
  2
*D12
 10
75.682053
 20
185.483341
 30
0.0
 11
63.182053
 21
187.983341
 31
0.0
 70
    32
  3
STANDARD
100
AcDbAlignedDimension
 13
50.682053
 23
170.803604
 33
0.0
 14
75.682053
 24
176.803604
 34
0.0
100
AcDbRotatedDimension
1001
ACAD
1000
DSTYLE
1002
{
1070
   284
1070
    13
1070
   146
1040
0.5
1070
   272
1070
     3
1070
    40
1040
1.0
1070
   287
1070
     0
1002
}
  0
LINE
  5
2917
100
AcDbEntity
  8
外形
  6
CONTINUOUS
100
AcDbLine
 10
75.682053
 20
218.634417
 30
0.0
 11
75.682053
 21
223.430248
 31
0.0
  0
SPLINE
  5
2918
100
AcDbEntity
  8
外形
  6
CONTINUOUS
100
AcDbSpline
210
0.0
220
0.0
230
1.0
 70
     8
 71
     3
 72
     9
 73
     5
 74
     3
 42
0.0000001
 43
0.0000001
 44
0.0000000001
 40
0.0
 40
0.0
 40
0.0
 40
0.0
 40
1.200585409146663
 40
5.774027504300471
 40
5.774027504300471
 40
5.774027504300471
 40
5.774027504300471
 10
68.93205293647735
 20
217.9294260314678
 30
0.0
 10
69.30855217317568
 20
218.1517829792069
 30
0.0
 10
71.1192662893746
 20
219.2211738965349
 30
0.0
 10
69.28244578422791
 20
221.1676418317548
 30
0.0
 10
67.8275527804757
 20
222.7093834298285
 30
0.0
 11
68.93205293647735
 21
217.9294260314678
 31
0.0
 11
69.9038520427845
 21
218.6344166850487
 31
0.0
 11
67.8275527804757
 21
222.7093834298285
 31
0.0
  0
LINE
  5
2919
100
AcDbEntity
  8
外形
  6
CONTINUOUS
100
AcDbLine
 10
185.682053
 20
218.634417
 30
0.0
 11
185.682053
 21
223.430248
 31
0.0
  0
DIMENSION
  5
2927
100
AcDbEntity
  8
寸法
  6
CONTINUOUS
100
AcDbDimension
  2
*D13
 10
130.248606
 20
205.527549
 30
0.0
 11
139.248606
 21
208.027549
 31
0.0
 70
    32
  3
STANDARD
100
AcDbAlignedDimension
 13
124.748606
 23
218.634417
 33
0.0
 14
130.248606
 24
211.888701
 34
0.0
100
AcDbRotatedDimension
1001
ACAD
1000
DSTYLE
1002
{
1070
   284
1070
    13
1070
   146
1040
0.5
1070
   272
1070
     3
1070
    40
1040
1.0
1070
   287
1070
     0
1002
}
  0
DIMENSION
  5
293F
100
AcDbEntity
  8
寸法
  6
CONTINUOUS
100
AcDbDimension
  2
*D14
 10
127.082331
 20
215.935794
 30
0.0
 11
138.164292
 21
233.773679
 31
0.0
 70
   163
  3
STANDARD
100
AcDbDiametricDimension
 15
133.41488
 25
226.128871
 35
0.0
 40
0.0
1001
ACAD
1000
DSTYLE
1002
{
1070
   284
1070
    13
1070
   146
1040
0.5
1070
   272
1070
     3
1070
    40
1040
1.0
1070
   287
1070
     0
1002
}
  0
CIRCLE
  5
2954
100
AcDbEntity
  8
外形
  6
CONTINUOUS
100
AcDbCircle
 10
130.248606
 20
221.032332
 30
0.0
 40
1.75
  0
LEADER
  5
295F
100
AcDbEntity
  8
外形
  6
CONTINUOUS
 62
     1
100
AcDbLeader
  3
STANDARD
 73
     0
 75
     1
 40
3.0
 41
9.8
 76
     3
 10
129.293851
 20
222.498942
 30
0.0
 10
120.026157
 20
237.428686
 30
0.0
 10
118.026157
 20
237.428686
 30
0.0
 77
   256
340
2960
1001
ACAD
1000
DSTYLE
1002
{
1070
    40
1040
1.0
1002
}
  0
MTEXT
  5
2960
102
{ACAD_REACTORS
330
295F
102
}
100
AcDbEntity
  8
外形
  6
CONTINUOUS
 62
     3
100
AcDbMText
 10
117.026157
 20
239.928686
 30
0.0
 40
3.0
 41
0.0
 71
     6
 72
     1
  1
\A1;油穴付
  0
ENDSEC
  0
SECTION
  2
OBJECTS
  0
DICTIONARY
  5
1E
100
AcDbDictionary
  3
ACAD_GROUP
350
1C
  3
ACAD_MLINESTYLE
350
1D
  3
ACDBVARIABLEDICTIONARY
350
147A
  3
DRAWINGVARIABLESDICT
350
C58
  0
DICTIONARY
  5
38
100
AcDbDictionary
280
     1
  3
ACAD_XREC_ROUNDTRIP
360
39
  0
DICTIONARY
  5
22
100
AcDbDictionary
280
     1
  3
ACAD_XREC_ROUNDTRIP
360
23
  0
DICTIONARY
  5
3
100
AcDbDictionary
280
     1
  3
ACAD_LAYOUTSELFREF
360
4
  0
DICTIONARY
  5
A
100
AcDbDictionary
280
     1
  3
ACAD_LAYOUTSELFREF
360
B
  0
DICTIONARY
  5
1C
102
{ACAD_REACTORS
330
1E
102
}
100
AcDbDictionary
  0
DICTIONARY
  5
1D
102
{ACAD_REACTORS
330
1E
102
}
100
AcDbDictionary
  3
STANDARD
350
20
  0
DICTIONARY
  5
147A
102
{ACAD_REACTORS
330
1E
102
}
100
AcDbDictionary
  3
SORTENTS
350
147B
  0
DICTIONARY
  5
C58
102
{ACAD_REACTORS
330
1E
102
}
100
AcDbDictionary
1001
DRAWINGVARIABLESXDATA
1000
POLARMODE
1000
0
  0
XRECORD
  5
39
102
{ACAD_REACTORS
330
38
102
}
100
AcDbXrecord
102
PLOTBIT
280
     0
  0
XRECORD
  5
23
102
{ACAD_REACTORS
330
22
102
}
100
AcDbXrecord
102
ACADR14ROUNDTRIP
1000
DSTYLE
1002
{
1070
   341
340
0
1070
   343
340
0
1070
   344
340
0
1002
}
  0
XRECORD
  5
4
102
{ACAD_REACTORS
330
3
102
}
100
AcDbXrecord
340
2
  0
XRECORD
  5
B
102
{ACAD_REACTORS
330
A
102
}
100
AcDbXrecord
340
9
  0
MLINESTYLE
  5
20
102
{ACAD_REACTORS
330
1D
102
}
100
AcDbMlineStyle
  2
STANDARD
 70
     0
  3

 62
     0
 51
90.0
 52
90.0
 71
     2
 49
0.5
 62
   256
  6
BYLAYER
 49
-0.5
 62
   256
  6
BYLAYER
  0
DICTIONARYVAR
  5
147B
102
{ACAD_REACTORS
330
147A
102
}
100
DictionaryVariables
280
     0
  1
96
  0
ENDSEC
  0
EOF
