  0
SECTION
  2
HEADER
  9
$ACADVER
  1
AC1015
  9
$ACADMAINTVER
 70
     6
  9
$DWGCODEPAGE
  3
ANSI_932
  9
$INSBASE
 10
0.0
 20
0.0
 30
0.0
  9
$EXTMIN
 10
-88.2032356421804
 20
-114.9860025614764
 30
-0.0000000000000003
  9
$EXTMAX
 10
208.6992076711691
 20
34.08176661925108
 30
0.0000000000000002
  9
$LIMMIN
 10
0.0
 20
0.0
  9
$LIMMAX
 10
420.0
 20
297.0
  9
$ORTHOMODE
 70
     0
  9
$REGENMODE
 70
     1
  9
$FILLMODE
 70
     1
  9
$QTEXTMODE
 70
     0
  9
$MIRRTEXT
 70
     1
  9
$LTSCALE
 40
1.0
  9
$ATTMODE
 70
     1
  9
$TEXTSIZE
 40
4.0
  9
$TRACEWID
 40
1.0
  9
$TEXTSTYLE
  7
STANDARD
  9
$CLAYER
  8
AM_0
  9
$CELTYPE
  6
ByLayer
  9
$CECOLOR
 62
   256
  9
$CELTSCALE
 40
1.0
  9
$DISPSILH
 70
     0
  9
$DIMSCALE
 40
1.0
  9
$DIMASZ
 40
2.5
  9
$DIMEXO
 40
0.0
  9
$DIMDLI
 40
10.0
  9
$DIMRND
 40
0.0
  9
$DIMDLE
 40
0.0
  9
$DIMEXE
 40
1.0
  9
$DIMTP
 40
0.1
  9
$DIMTM
 40
0.1000000001
  9
$DIMTXT
 40
3.8
  9
$DIMCEN
 40
0.0
  9
$DIMTSZ
 40
0.0
  9
$DIMTOL
 70
     0
  9
$DIMLIM
 70
     0
  9
$DIMTIH
 70
     0
  9
$DIMTOH
 70
     0
  9
$DIMSE1
 70
     0
  9
$DIMSE2
 70
     0
  9
$DIMTAD
 70
     3
  9
$DIMZIN
 70
     1
  9
$DIMBLK
  1
Open30
  9
$DIMASO
 70
     1
  9
$DIMSHO
 70
     1
  9
$DIMPOST
  1

  9
$DIMAPOST
  1
"
  9
$DIMALT
 70
     0
  9
$DIMALTD
 70
     2
  9
$DIMALTF
 40
0.0393701
  9
$DIMLFAC
 40
1.0
  9
$DIMTOFL
 70
     1
  9
$DIMTVP
 40
0.0
  9
$DIMTIX
 70
     0
  9
$DIMSOXD
 70
     0
  9
$DIMSAH
 70
     0
  9
$DIMBLK1
  1

  9
$DIMBLK2
  1

  9
$DIMSTYLE
  2
AM_JIS
  9
$DIMCLRD
 70
   256
  9
$DIMCLRE
 70
   256
  9
$DIMCLRT
 70
     2
  9
$DIMTFAC
 40
0.71
  9
$DIMGAP
 40
1.5
  9
$DIMJUST
 70
     0
  9
$DIMSD1
 70
     0
  9
$DIMSD2
 70
     0
  9
$DIMTOLJ
 70
     0
  9
$DIMTZIN
 70
     8
  9
$DIMALTZ
 70
     0
  9
$DIMALTTZ
 70
     0
  9
$DIMUPT
 70
     0
  9
$DIMDEC
 70
     0
  9
$DIMTDEC
 70
     3
  9
$DIMALTU
 70
     2
  9
$DIMALTTD
 70
     2
  9
$DIMTXSTY
  7
STANDARD
  9
$DIMAUNIT
 70
     1
  9
$DIMADEC
 70
     0
  9
$DIMALTRND
 40
0.0
  9
$DIMAZIN
 70
     2
  9
$DIMDSEP
 70
    46
  9
$DIMATFIT
 70
     3
  9
$DIMFRAC
 70
     0
  9
$DIMLDRBLK
  1
Open30
  9
$DIMLUNIT
 70
     2
  9
$DIMLWD
 70
    -1
  9
$DIMLWE
 70
    -1
  9
$DIMTMOVE
 70
     0
  9
$LUNITS
 70
     2
  9
$LUPREC
 70
     4
  9
$SKETCHINC
 40
1.0
  9
$FILLETRAD
 40
0.2
  9
$AUNITS
 70
     0
  9
$AUPREC
 70
     4
  9
$MENU
  1
.
  9
$ELEVATION
 40
0.0
  9
$PELEVATION
 40
0.0
  9
$THICKNESS
 40
0.0
  9
$LIMCHECK
 70
     0
  9
$CHAMFERA
 40
2.0
  9
$CHAMFERB
 40
2.0
  9
$CHAMFERC
 40
20.0
  9
$CHAMFERD
 40
0.0
  9
$SKPOLY
 70
     0
  9
$TDCREATE
 40
2451943.610431667
  9
$TDUCREATE
 40
2451943.235431667
  9
$TDUPDATE
 40
2455482.597746667
  9
$TDUUPDATE
 40
2455482.222746667
  9
$TDINDWG
 40
1.7269037153
  9
$TDUSRTIMER
 40
1.7269035417
  9
$USRTIMER
 70
     1
  9
$ANGBASE
 50
0.0
  9
$ANGDIR
 70
     0
  9
$PDMODE
 70
     0
  9
$PDSIZE
 40
0.0
  9
$PLINEWID
 40
0.0
  9
$SPLFRAME
 70
     0
  9
$SPLINETYPE
 70
     6
  9
$SPLINESEGS
 70
     8
  9
$HANDSEED
  5
19DAA
  9
$SURFTAB1
 70
     6
  9
$SURFTAB2
 70
     6
  9
$SURFTYPE
 70
     6
  9
$SURFU
 70
     6
  9
$SURFV
 70
     6
  9
$UCSBASE
  2

  9
$UCSNAME
  2

  9
$UCSORG
 10
0.0
 20
0.0
 30
0.0
  9
$UCSXDIR
 10
1.0
 20
0.0
 30
0.0
  9
$UCSYDIR
 10
0.0
 20
1.0
 30
0.0
  9
$UCSORTHOREF
  2

  9
$UCSORTHOVIEW
 70
     0
  9
$UCSORGTOP
 10
0.0
 20
0.0
 30
0.0
  9
$UCSORGBOTTOM
 10
0.0
 20
0.0
 30
0.0
  9
$UCSORGLEFT
 10
0.0
 20
0.0
 30
0.0
  9
$UCSORGRIGHT
 10
0.0
 20
0.0
 30
0.0
  9
$UCSORGFRONT
 10
0.0
 20
0.0
 30
0.0
  9
$UCSORGBACK
 10
0.0
 20
0.0
 30
0.0
  9
$PUCSBASE
  2

  9
$PUCSNAME
  2

  9
$PUCSORG
 10
0.0
 20
0.0
 30
0.0
  9
$PUCSXDIR
 10
1.0
 20
0.0
 30
0.0
  9
$PUCSYDIR
 10
0.0
 20
1.0
 30
0.0
  9
$PUCSORTHOREF
  2

  9
$PUCSORTHOVIEW
 70
     0
  9
$PUCSORGTOP
 10
0.0
 20
0.0
 30
0.0
  9
$PUCSORGBOTTOM
 10
0.0
 20
0.0
 30
0.0
  9
$PUCSORGLEFT
 10
0.0
 20
0.0
 30
0.0
  9
$PUCSORGRIGHT
 10
0.0
 20
0.0
 30
0.0
  9
$PUCSORGFRONT
 10
0.0
 20
0.0
 30
0.0
  9
$PUCSORGBACK
 10
0.0
 20
0.0
 30
0.0
  9
$USERI1
 70
     0
  9
$USERI2
 70
     0
  9
$USERI3
 70
     0
  9
$USERI4
 70
     0
  9
$USERI5
 70
     0
  9
$USERR1
 40
0.0
  9
$USERR2
 40
0.0
  9
$USERR3
 40
0.0
  9
$USERR4
 40
0.0
  9
$USERR5
 40
0.0
  9
$WORLDVIEW
 70
     1
  9
$SHADEDGE
 70
     3
  9
$SHADEDIF
 70
    70
  9
$TILEMODE
 70
     1
  9
$MAXACTVP
 70
    64
  9
$PINSBASE
 10
0.0
 20
0.0
 30
0.0
  9
$PLIMCHECK
 70
     0
  9
$PEXTMIN
 10
1.000000000000000E+20
 20
1.000000000000000E+20
 30
1.000000000000000E+20
  9
$PEXTMAX
 10
-1.000000000000000E+20
 20
-1.000000000000000E+20
 30
-1.000000000000000E+20
  9
$PLIMMIN
 10
0.0
 20
0.0
  9
$PLIMMAX
 10
420.0
 20
297.0
  9
$UNITMODE
 70
     0
  9
$VISRETAIN
 70
     1
  9
$PLINEGEN
 70
     0
  9
$PSLTSCALE
 70
     1
  9
$TREEDEPTH
 70
  3020
  9
$CMLSTYLE
  2
Standard
  9
$CMLJUST
 70
     0
  9
$CMLSCALE
 40
20.0
  9
$PROXYGRAPHICS
 70
     1
  9
$MEASUREMENT
 70
     1
  9
$CELWEIGHT
370
    -1
  9
$ENDCAPS
280
     0
  9
$JOINSTYLE
280
     0
  9
$LWDISPLAY
290
     0
  9
$INSUNITS
 70
     4
  9
$HYPERLINKBASE
  1

  9
$STYLESHEET
  1
sei_cad.ctb
  9
$XEDIT
290
     1
  9
$CEPSNTYPE
380
     0
  9
$PSTYLEMODE
290
     1
  9
$FINGERPRINTGUID
  2
{C77AB3BE-9CA2-11D3-BAF3-006094EB760E}
  9
$VERSIONGUID
  2
{FF9AB07D-6741-4467-841D-365491DE4F86}
  9
$EXTNAMES
290
     1
  9
$PSVPSCALE
 40
0.0
  9
$OLESTARTUP
290
     0
  0
ENDSEC
  0
SECTION
  2
CLASSES
  0
CLASS
  1
ACDBDICTIONARYWDFLT
  2
AcDbDictionaryWithDefault
  3
ObjectDBX Classes
 90
        0
280
     0
281
     0
  0
CLASS
  1
ACDBPLACEHOLDER
  2
AcDbPlaceHolder
  3
ObjectDBX Classes
 90
        0
280
     0
281
     0
  0
CLASS
  1
LAYOUT
  2
AcDbLayout
  3
ObjectDBX Classes
 90
        0
280
     0
281
     0
  0
CLASS
  1
ACME_DOCUMENT
  2
AcMeDbDoc
  3
AcMeServices
 90
        0
280
     1
281
     0
  0
CLASS
  1
ACMESCOPE
  2
AcMeScope
  3
AcMeServices
 90
        0
280
     1
281
     0
  0
CLASS
  1
ACMECOMMANDHISTORY
  2
AcMeCommandHistory
  3
AcMeServices
 90
        0
280
     1
281
     0
  0
CLASS
  1
DICTIONARYVAR
  2
AcDbDictionaryVar
  3
ObjectDBX Classes
 90
        0
280
     0
281
     0
  0
CLASS
  1
ACIMSYSVARMAN
  2
AcImSysVarManager
  3
AcMeServices
 90
        0
280
     1
281
     0
  0
CLASS
  1
ACIMREALSYSVAR
  2
AcImRealSysVar
  3
AcMeServices
 90
        0
280
     1
281
     0
  0
CLASS
  1
ACIMINTSYSVAR
  2
AcImIntSysVar
  3
AcMeServices
 90
        0
280
     1
281
     0
  0
CLASS
  1
ACMEDRAWINGMAN
  2
AcMeDrawingMan
  3
AcMeServices
 90
        0
280
     1
281
     0
  0
CLASS
  1
ACMEVIEW
  2
AcMeView
  3
AcMeServices
 90
        0
280
     1
281
     0
  0
CLASS
  1
ACDBENTITYCACHE
  2
AcMeEntityCache
  3
AcMeServices
 90
        0
280
     1
281
     0
  0
CLASS
  1
GSMANAGER
  2
AcMeGSManager
  3
AcMeServices
 90
        0
280
     1
281
     0
  0
CLASS
  1
AMDTINTERNALREACTOR
  2
AmdtInternalReactor
  3
AcMeServices
 90
        0
280
     1
281
     0
  0
CLASS
  1
ACMESTATEMGR
  2
AcMeStateMgr
  3
AcMeServices
 90
        0
280
     1
281
     0
  0
CLASS
  1
ACME_DATABASE
  2
AcMeDbDatabase
  3
AcMeServices
 90
        0
280
     1
281
     0
  0
CLASS
  1
ACRFINSADJUSTERMGR
  2
AcRfInsAdjusterMgr
  3
AcMeServices
 90
        0
280
     1
281
     0
  0
CLASS
  1
AMGSETTINGSOBJ
  2
AmgSettingsObj
  3
"AcadM|Product Description: AutoCAD Mechanical 2000|Company: Autodesk"
 90
        0
280
     1
281
     0
  0
CLASS
  1
AMGOBJPROPCFG
  2
AmgObjPropCfg
  3
"AmgLay|Product Description: AutoCAD Mechanical 2000|Company: Autodesk"
 90
        1
280
     1
281
     0
  0
CLASS
  1
ACMDATADICTIONARY
  2
AcmDataDictionary
  3
"AcmSymBB|Product Description: AutoCAD Mechanical 2004 DX|Company: Autodesk"
 90
        0
280
     1
281
     0
  0
CLASS
  1
ACMDATAENTRYBLOCK
  2
AcmDataEntryBlock
  3
"AcmSymBB|Product Description: AutoCAD Mechanical 2004 DX|Company: Autodesk"
 90
        0
280
     1
281
     0
  0
CLASS
  1
ACIMSTRSYSVAR
  2
AcImStrSysVar
  3
AcMeServices
 90
        0
280
     1
281
     0
  0
CLASS
  1
ACAMGFILTERDAT
  2
AcAmgFilterDat
  3
"AcadM|Product Description: AutoCAD Mechanical 2000|Company: Autodesk"
 90
        0
280
     1
281
     0
  0
CLASS
  1
LAYER_INDEX
  2
AcDbLayerIndex
  3
ObjectDBX Classes
 90
        0
280
     0
281
     0
  0
CLASS
  1
IDBUFFER
  2
AcDbIdBuffer
  3
ObjectDBX Classes
 90
        0
280
     0
281
     0
  0
CLASS
  1
ACMSTANDARDJIS
  2
AcmStandardJIS
  3
"Amdt_StdImp|Product Description: AutoCAD Mechanical 2004 DX|Company: Autodesk"
 90
        0
280
     1
281
     0
  0
CLASS
  1
ACMSURFSTANDARDJIS
  2
AcmSurfTextStdJIS
  3
"Amdt_StdImp|Product Description: AutoCAD Mechanical 2004 DX|Company: Autodesk"
 90
        0
280
     1
281
     0
  0
CLASS
  1
ACMFCFSTANDARDJIS
  2
AcmFCFStdJIS
  3
"Amdt_StdImp|Product Description: AutoCAD Mechanical 2004 DX|Company: Autodesk"
 90
        0
280
     1
281
     0
  0
CLASS
  1
ACMWELDSTANDARDJIS
  2
AcmWeldingStdJIS
  3
"Amdt_StdImp|Product Description: AutoCAD Mechanical 2004 DX|Company: Autodesk"
 90
        0
280
     1
281
     0
  0
CLASS
  1
ACMIDSTANDARDJIS
  2
AcmIdStdJIS
  3
"Amdt_StdImp|Product Description: AutoCAD Mechanical 2004 DX|Company: Autodesk"
 90
        0
280
     1
281
     0
  0
CLASS
  1
ACMDATUMSTANDARDJIS
  2
AcmDatumStdJIS
  3
"Amdt_StdImp|Product Description: AutoCAD Mechanical 2004 DX|Company: Autodesk"
 90
        0
280
     1
281
     0
  0
CLASS
  1
ACMBOMSTANDARDJIS
  2
AcmBOMStdJIS
  3
"Amdt_StdImp|Product Description: AutoCAD Mechanical 2004 DX|Company: Autodesk"
 90
        0
280
     1
281
     0
  0
CLASS
  1
AMDTNOTE
  2
AmdtNote
  3
"AcmSymBB|Product Description: AutoCAD Mechanical 2004 DX|Company: Autodesk"
 90
     1023
280
     1
281
     1
  0
CLASS
  1
TABLESTYLE
  2
AcDbTableStyle
  3
ObjectDBX Classes
 90
     2047
280
     0
281
     0
  0
CLASS
  1
ACGREFMASTER
  2
AcGrefMaster
  3
AcAttribServices
 90
        0
280
     1
281
     0
  0
CLASS
  1
AM_DRAWING_MGR
  2
AcDmDwgMgr
  3
AcMechDwgViewMgmt
 90
        0
280
     1
281
     0
  0
CLASS
  1
AM_DWG_DOCUMENT
  2
AcDmDwgDocument
  3
AcMechDwgViewMgmt
 90
        0
280
     1
281
     0
  0
CLASS
  1
AM_DWG_SHEET
  2
AcDmSheet
  3
AcMechDwgViewMgmt
 90
        0
280
     1
281
     0
  0
CLASS
  1
AM_VIEWDIMPARMAP
  2
AcDmViewDimParMap
  3
AcMechDwgViewMgmt
 90
        0
280
     1
281
     0
  0
CLASS
  1
AM_DWGMGR_NAME
  2
AcDmDwgMgrName
  3
AcMechDwgViewMgmt
 90
        0
280
     1
281
     0
  0
CLASS
  1
ACGREFACADMASTER
  2
AcGrefacadMaster
  3
AcGrefServices
 90
        0
280
     1
281
     0
  0
CLASS
  1
AMDTMENUSTATEMGR
  2
AmdtMenuStateMgr
  3
McadcomServices
 90
        0
280
     1
281
     0
  0
CLASS
  1
AMDTMCOMMENUSTATE
  2
AmdtMcomMenuState
  3
McadcomServices
 90
        0
280
     1
281
     0
  0
CLASS
  1
AMIMASTER
  2
AmiMaster
  3
AmiServices
 90
        0
280
     1
281
     0
  0
CLASS
  1
MAPIAMMOUDLE
  2
MApiAmModule
  3
MApiAmServices
 90
        0
280
     1
281
     0
  0
CLASS
  1
AMDTADMENUSTATE
  2
AmdtAdMenuState
  3
DesignerServices
 90
        0
280
     1
281
     0
  0
CLASS
  1
ADAPPL
  2
AcAdAppl
  3
DesignerServices
 90
        0
280
     1
281
     0
  0
CLASS
  1
DEPMGR
  2
AcAdDepMgr
  3
DesignerServices
 90
        0
280
     1
281
     0
  0
CLASS
  1
PARAMMGR
  2
AcAdParamMgr
  3
DesignerServices
 90
        0
280
     1
281
     0
  0
CLASS
  1
PARAMSCOPE
  2
AcAdParamScope
  3
DesignerServices
 90
        0
280
     1
281
     0
  0
CLASS
  1
NAMEDAPPL
  2
AcAdNamedAppl
  3
DesignerServices
 90
        0
280
     1
281
     0
  0
CLASS
  1
AMDTDMMENUSTATE
  2
AmdtDmMenuState
  3
AcMechDwgViewMgmt
 90
        0
280
     1
281
     0
  0
CLASS
  1
AMDTAMMENUSTATE
  2
AmdtAmMenuState
  3
DesignerAssemblies
 90
        0
280
     1
281
     0
  0
CLASS
  1
ACAMPROJECT
  2
AcAmProject
  3
DesignerAssemblies
 90
        0
280
     1
281
     0
  0
CLASS
  1
ACAMGRCOMPDEF
  2
AcAmGrCompDef
  3
DesignerAssemblies
 90
        0
280
     1
281
     0
  0
CLASS
  1
ACCMCONTEXT
  2
AcCmContext
  3
DesignerAssemblies
 90
        0
280
     1
281
     0
  0
CLASS
  1
ACAMCOMPDEF
  2
AcAmCompDef
  3
DesignerAssemblies
 90
        0
280
     1
281
     0
  0
CLASS
  1
ACAMCOMPDEFMGR
  2
AcAmCompDefMgr
  3
DesignerAssemblies
 90
        0
280
     1
281
     0
  0
CLASS
  1
AMCONTEXTMGR
  2
AcAmContextMgr
  3
DesignerAssemblies
 90
        0
280
     1
281
     0
  0
CLASS
  1
ACAMCONTEXTMODELER
  2
AcAmContextModeler
  3
DesignerAssemblies
 90
        0
280
     1
281
     0
  0
CLASS
  1
ACAMGTITLESTD
  2
AcAmgTitleStd
  3
"TITLEAPP"
 90
        0
280
     1
281
     0
  0
CLASS
  1
ACMDETAILSTANDARDJIS
  2
AmdtDetailSymStdJIS
  3
"Amdt_StdImp|Product Description: AutoCAD Mechanical 2004 DX|Company: Autodesk"
 90
        0
280
     1
281
     0
  0
CLASS
  1
ACMSECTIONSTANDARDJIS
  2
AmdtSectionSymStdJIS
  3
"Amdt_StdImp|Product Description: AutoCAD Mechanical 2004 DX|Company: Autodesk"
 90
        0
280
     1
281
     0
  0
CLASS
  1
ACMCENTERLINESTANDARDJIS
  2
AmdtCenterLineStdJIS
  3
"Amdt_StdImp|Product Description: AutoCAD Mechanical 2004 DX|Company: Autodesk"
 90
        0
280
     1
281
     0
  0
CLASS
  1
ACMTHREADLINESTANDARDJIS
  2
AmdtThreadLineStdJIS
  3
"Amdt_StdImp|Product Description: AutoCAD Mechanical 2004 DX|Company: Autodesk"
 90
        0
280
     1
281
     0
  0
CLASS
  1
ACMNOTESTANDARDJIS
  2
AmdtNoteStdJIS
  3
"Amdt_StdImp|Product Description: AutoCAD Mechanical 2004 DX|Company: Autodesk"
 90
        0
280
     1
281
     0
  0
CLASS
  1
AMDTNOTETEMPLATEDB
  2
AmdtNoteTemplateDB
  3
AMDT_STDIMP_MODULE_NAME
 90
        0
280
     1
281
     0
  0
CLASS
  1
ACAMGLAYSTD
  2
AcAmgLayStd
  3
"AcAmgLayStd|Product Description: AutoCAD Mechanical 2000|Company: Autodesk"
 90
        0
280
     1
281
     0
  0
CLASS
  1
ACAMGDIMSTD
  2
AcAmgDimStd
  3
"AcAmgDimStd|Product Description: AutoCAD Mechanical 2000|Company: Autodesk"
 90
        0
280
     1
281
     0
  0
CLASS
  1
ACAMGHOLECHARTSTDJIS
  2
AcAmgHoleChartStdJIS
  3
ACMSYMBB_MODULE_NAME
 90
        0
280
     1
281
     0
  0
CLASS
  1
CATALOGSTATE
  2
AcAmCatalogState
  3
DesignerAssemblies
 90
        0
280
     1
281
     0
  0
CLASS
  1
ACAMGRCOMPDEFSET
  2
AcAmGrCompDefSet
  3
DesignerAssemblies
 90
        0
280
     1
281
     0
  0
CLASS
  1
AMDTBROWSERDBTAB
  2
AmdtBrowserDbTab
  3
McadcomServices
 90
        0
280
     1
281
     0
  0
CLASS
  1
CBROWSERAPPOBJECT
  2
CBrowserAppObject
  3
McadcomServices
 90
        0
280
     1
281
     0
  0
CLASS
  1
DM_PLACEHOLDER
  2
AcDmSelsetPlaceholder
  3
AcMechDwgViewMgmt
 90
        0
280
     1
281
     0
  0
CLASS
  1
SORTENTSTABLE
  2
AcDbSortentsTable
  3
ObjectDBX Classes
 90
        0
280
     0
281
     0
  0
ENDSEC
  0
SECTION
  2
TABLES
  0
TABLE
  2
VPORT
  5
8
330
0
100
AcDbSymbolTable
 70
     3
  0
VPORT
  5
19DA2
330
8
100
AcDbSymbolTableRecord
100
AcDbViewportTableRecord
  2
*Active
 70
     0
 10
0.0
 20
0.0
 11
1.0
 21
1.0
 12
86.07451772356941
 22
-40.45838037938586
 13
0.0
 23
0.0
 14
2.5
 24
2.5
 15
10.0
 25
10.0
 16
0.0
 26
0.0
 36
1.0
 17
0.0
 27
0.0
 37
0.0
 40
217.5606034922066
 41
1.610603290676417
 42
50.0
 43
0.0
 44
0.0
 50
0.0
 51
0.0
 71
    16
 72
  2000
 73
     1
 74
     3
 75
     0
 76
     0
 77
     0
 78
     0
281
     0
 65
     1
110
0.0
120
0.0
130
0.0
111
1.0
121
0.0
131
0.0
112
0.0
122
1.0
132
0.0
 79
     0
146
0.0
  0
ENDTAB
  0
TABLE
  2
LTYPE
  5
5
330
0
100
AcDbSymbolTable
 70
    13
  0
LTYPE
  5
14
330
5
100
AcDbSymbolTableRecord
100
AcDbLinetypeTableRecord
  2
ByBlock
 70
     0
  3

 72
    65
 73
     0
 40
0.0
  0
LTYPE
  5
15
330
5
100
AcDbSymbolTableRecord
100
AcDbLinetypeTableRecord
  2
ByLayer
 70
     0
  3

 72
    65
 73
     0
 40
0.0
  0
LTYPE
  5
16
330
5
100
AcDbSymbolTableRecord
100
AcDbLinetypeTableRecord
  2
Continuous
 70
     0
  3
Solid line
 72
    65
 73
     0
 40
0.0
  0
LTYPE
  5
43
330
5
100
AcDbSymbolTableRecord
100
AcDbLinetypeTableRecord
  2
AM_ISO02W050
 70
     0
  3
__ __ __ __ __ __ __ __ __ __ __ __ __ __ __
 72
    65
 73
     2
 40
7.5
 49
6.0
 74
     0
 49
-1.5
 74
     0
  0
LTYPE
  5
44
330
5
100
AcDbSymbolTableRecord
100
AcDbLinetypeTableRecord
  2
AM_ISO08W050
 70
     0
  3
____ . ____ . ____ . ____ . ____ . ____ . ____
 72
    65
 73
     4
 40
18.0
 49
12.0
 74
     0
 49
-1.5
 74
     0
 49
3.0
 74
     0
 49
-1.5
 74
     0
  0
LTYPE
  5
45
330
5
100
AcDbSymbolTableRecord
100
AcDbLinetypeTableRecord
  2
AM_ISO09W050
 70
     0
  3
_____ . . _____ . . _____ . . ____ .. ____
 72
    65
 73
     6
 40
22.5
 49
12.0
 74
     0
 49
-1.5
 74
     0
 49
3.0
 74
     0
 49
-1.5
 74
     0
 49
3.0
 74
     0
 49
-1.5
 74
     0
  0
LTYPE
  5
46
330
5
100
AcDbSymbolTableRecord
100
AcDbLinetypeTableRecord
  2
Amconstr
 70
     0
  3
_______________________
 72
    65
 73
     2
 40
9999.0
 49
9999.0
 74
     0
 49
0.0
 74
     0
  0
LTYPE
  5
47
330
5
100
AcDbSymbolTableRecord
100
AcDbLinetypeTableRecord
  2
AM_ISO02W050x2
 70
     0
  3
 _ _ _ _ _ _ _ _ _ _ _ _
 72
    65
 73
     2
 40
3.75
 49
3.0
 74
     0
 49
-0.75
 74
     0
  0
LTYPE
  5
48
330
5
100
AcDbSymbolTableRecord
100
AcDbLinetypeTableRecord
  2
AM_ISO08W050x2
 70
     0
  3
__ . __ . __ . __ . __ . __
 72
    65
 73
     4
 40
9.0
 49
6.0
 74
     0
 49
-0.75
 74
     0
 49
1.5
 74
     0
 49
-0.75
 74
     0
  0
LTYPE
  5
4B
330
5
100
AcDbSymbolTableRecord
100
AcDbLinetypeTableRecord
  2
Amzigzag
 70
     0
  3
/\/-/\/-/\/-/\/-/\/-/\/
 72
    65
 73
     2
 40
11.0001
 49
0.0001
 74
     4
 75
   135
340
4A
 46
0.04
 50
0.0
 44
0.0
 45
0.0
 49
-11.0
 74
     0
  0
LTYPE
  5
188
330
5
100
AcDbSymbolTableRecord
100
AcDbLinetypeTableRecord
  2
ACJISTGB
 70
     0
  3
__ . . __ . .
 72
    65
 73
     6
 40
9.0
 49
4.0
 74
     0
 49
-1.0
 74
     0
 49
1.0
 74
     0
 49
-1.0
 74
     0
 49
1.0
 74
     0
 49
-1.0
 74
     0
  0
LTYPE
  5
189
330
5
100
AcDbSymbolTableRecord
100
AcDbLinetypeTableRecord
  2
ACJISTGL
 70
     0
  3
_ _ _ _ _
 72
    65
 73
     2
 40
3.0
 49
2.0
 74
     0
 49
-1.0
 74
     0
  0
LTYPE
  5
652
330
5
100
AcDbSymbolTableRecord
100
AcDbLinetypeTableRecord
  2
CENTER
 70
     0
  3
____ _ ____ _ ____ _ ____ _ ____ _ ____ _ ____
 72
    65
 73
     4
 40
17.5
 49
13.0
 74
     0
 49
-1.5
 74
     0
 49
1.5
 74
     0
 49
-1.5
 74
     0
  0
LTYPE
  5
12AB
330
5
100
AcDbSymbolTableRecord
100
AcDbLinetypeTableRecord
  2
HIDDEN
 70
     0
  3
Hidden __ __ __ __ __ __ __ __ __ __ __ __ __ _
 72
    65
 73
     2
 40
0.375
 49
0.25
 74
     0
 49
-0.125
 74
     0
  0
LTYPE
  5
12AC
330
5
100
AcDbSymbolTableRecord
100
AcDbLinetypeTableRecord
  2
PHANTOM2
 70
     0
  3
Phantom (.5x) ___ _ _ ___ _ _ ___ _ _ ___ _ _
 72
    65
 73
     6
 40
1.25
 49
0.625
 74
     0
 49
-0.125
 74
     0
 49
0.125
 74
     0
 49
-0.125
 74
     0
 49
0.125
 74
     0
 49
-0.125
 74
     0
  0
ENDTAB
  0
TABLE
  2
LAYER
  5
2
102
{ACAD_XDICTIONARY
360
19852
102
}
330
0
100
AcDbSymbolTable
 70
     7
  0
LAYER
  5
10
330
2
100
AcDbSymbolTableRecord
100
AcDbLayerTableRecord
  2
0
 70
     0
 62
     7
  6
Continuous
370
    -3
390
F
  0
LAYER
  5
7D
330
2
100
AcDbSymbolTableRecord
100
AcDbLayerTableRecord
  2
AM_5
 70
     0
 62
     3
  6
Continuous
370
    13
390
F
  0
LAYER
  5
7F
330
2
100
AcDbSymbolTableRecord
100
AcDbLayerTableRecord
  2
Defpoints
 70
     0
 62
     7
  6
Continuous
290
     0
370
    -3
390
F
  0
LAYER
  5
12B1
330
2
100
AcDbSymbolTableRecord
100
AcDbLayerTableRecord
  2
AM_0
 70
     0
 62
     7
  6
Continuous
370
    30
390
F
  0
LAYER
  5
1AFF
330
2
100
AcDbSymbolTableRecord
100
AcDbLayerTableRecord
  2
AM_7
 70
     0
 62
     4
  6
AM_ISO08W050
370
    13
390
F
  0
LAYER
  5
361D
330
2
100
AcDbSymbolTableRecord
100
AcDbLayerTableRecord
  2
AM_11
 70
     0
 62
     3
  6
AM_ISO09W050
370
    13
390
F
  0
ENDTAB
  0
TABLE
  2
STYLE
  5
3
330
0
100
AcDbSymbolTable
 70
     4
  0
STYLE
  5
11
330
3
100
AcDbSymbolTableRecord
100
AcDbTextStyleTableRecord
  2
STANDARD
 70
     0
 40
0.0
 41
1.0
 50
0.0
 71
     0
 42
4.0
  3
ISOCP.SHX
  4
EXTFONT.SHX
  0
STYLE
  5
4A
330
3
100
AcDbSymbolTableRecord
100
AcDbTextStyleTableRecord
  2

 70
     1
 40
0.0
 41
1.0
 50
0.0
 71
     0
 42
2.5
  3
ltypeshp.shx
  4

  0
STYLE
  5
180
330
3
100
AcDbSymbolTableRecord
100
AcDbTextStyleTableRecord
  2
ACJISTS
 70
     0
 40
1.0
 41
1.0
 50
0.0
 71
     0
 42
2.5
  3
isocp.shx
  4
bigfont.shx
  0
STYLE
  5
187
330
3
100
AcDbSymbolTableRecord
100
AcDbTextStyleTableRecord
  2
ACJISGDT
 70
     0
 40
0.0
 41
1.0
 50
0.0
 71
     0
 42
2.5
  3
amgdt.shx
  4

  0
ENDTAB
  0
TABLE
  2
VIEW
  5
6
330
0
100
AcDbSymbolTable
 70
     6
  0
VIEW
  5
A30
330
6
100
AcDbSymbolTableRecord
100
AcDbViewTableRecord
  2
AM_VIEW1
 70
     0
 40
148.5
 10
108.6929657794677
 20
222.75
 41
217.3859315589354
 11
0.0
 21
0.0
 31
1.0
 12
0.0
 22
0.0
 32
0.0
 42
50.0
 43
0.0
 44
0.0
 50
0.0
 71
    16
281
     0
 72
     0
  0
VIEW
  5
A31
330
6
100
AcDbSymbolTableRecord
100
AcDbViewTableRecord
  2
AM_VIEW2
 70
     0
 40
148.5
 10
311.3070342205323
 20
222.75
 41
217.3859315589354
 11
0.0
 21
0.0
 31
1.0
 12
0.0
 22
0.0
 32
0.0
 42
50.0
 43
0.0
 44
0.0
 50
0.0
 71
    16
281
     0
 72
     0
  0
VIEW
  5
A32
330
6
100
AcDbSymbolTableRecord
100
AcDbViewTableRecord
  2
AM_VIEW3
 70
     0
 40
148.5
 10
108.6929657794677
 20
74.25
 41
217.3859315589354
 11
0.0
 21
0.0
 31
1.0
 12
0.0
 22
0.0
 32
0.0
 42
50.0
 43
0.0
 44
0.0
 50
0.0
 71
    16
281
     0
 72
     0
  0
VIEW
  5
A33
330
6
100
AcDbSymbolTableRecord
100
AcDbViewTableRecord
  2
AM_VIEW4
 70
     0
 40
148.5
 10
311.3070342205323
 20
74.25
 41
217.3859315589354
 11
0.0
 21
0.0
 31
1.0
 12
0.0
 22
0.0
 32
0.0
 42
50.0
 43
0.0
 44
0.0
 50
0.0
 71
    16
281
     0
 72
     0
  0
VIEW
  5
A34
330
6
100
AcDbSymbolTableRecord
100
AcDbViewTableRecord
  2
AM_VIEW5
 70
     0
 40
148.5
 10
210.0
 20
148.5
 41
217.3859315589353
 11
0.0
 21
0.0
 31
1.0
 12
0.0
 22
0.0
 32
0.0
 42
50.0
 43
0.0
 44
0.0
 50
0.0
 71
    16
281
     0
 72
     0
  0
VIEW
  5
A35
330
6
100
AcDbSymbolTableRecord
100
AcDbViewTableRecord
  2
AM_VIEW6
 70
     0
 40
296.99703
 10
210.0
 20
148.5
 41
434.7675153992395
 11
0.0
 21
0.0
 31
1.0
 12
0.0
 22
0.0
 32
0.0
 42
50.0
 43
0.0
 44
0.0
 50
0.0
 71
    16
281
     0
 72
     0
  0
ENDTAB
  0
TABLE
  2
UCS
  5
7
330
0
100
AcDbSymbolTable
 70
     0
  0
ENDTAB
  0
TABLE
  2
APPID
  5
9
330
0
100
AcDbSymbolTable
 70
    42
  0
APPID
  5
12
330
9
100
AcDbSymbolTableRecord
100
AcDbRegAppTableRecord
  2
ACAD
 70
     0
  0
APPID
  5
2C
330
9
100
AcDbSymbolTableRecord
100
AcDbRegAppTableRecord
  2
MCAD_NO_VIS
 70
     0
  0
APPID
  5
2D
330
9
100
AcDbSymbolTableRecord
100
AcDbRegAppTableRecord
  2
ACAD_TEMP_GRAPHIC
 70
     0
  0
APPID
  5
B9
330
9
100
AcDbSymbolTableRecord
100
AcDbRegAppTableRecord
  2
GENIUS_GENDTOL_13
 70
     0
  0
APPID
  5
359
330
9
100
AcDbSymbolTableRecord
100
AcDbRegAppTableRecord
  2
GENIUS_GENREC_14
 70
     0
  0
APPID
  5
35A
330
9
100
AcDbSymbolTableRecord
100
AcDbRegAppTableRecord
  2
GENIUS_GENODEF_13
 70
     0
  0
APPID
  5
35B
330
9
100
AcDbSymbolTableRecord
100
AcDbRegAppTableRecord
  2
GENIUS_GENOBJ-N-REC_13
 70
     0
  0
APPID
  5
667
330
9
100
AcDbSymbolTableRecord
100
AcDbRegAppTableRecord
  2
GENIUS_GENCFG_13
 70
     0
  0
APPID
  5
668
330
9
100
AcDbSymbolTableRecord
100
AcDbRegAppTableRecord
  2
GENIUS_GENCFG0_13
 70
     0
  0
APPID
  5
669
330
9
100
AcDbSymbolTableRecord
100
AcDbRegAppTableRecord
  2
GENIUS_GENCFG1_13
 70
     0
  0
APPID
  5
66A
330
9
100
AcDbSymbolTableRecord
100
AcDbRegAppTableRecord
  2
GENIUS_GENCFG2_13
 70
     0
  0
APPID
  5
66B
330
9
100
AcDbSymbolTableRecord
100
AcDbRegAppTableRecord
  2
GENIUS_GENCFG3_13
 70
     0
  0
APPID
  5
66C
330
9
100
AcDbSymbolTableRecord
100
AcDbRegAppTableRecord
  2
GENIUS_GENCFG4_13
 70
     0
  0
APPID
  5
A76
330
9
100
AcDbSymbolTableRecord
100
AcDbRegAppTableRecord
  2
GENIUS_GENBLLY_14
 70
     0
  0
APPID
  5
A77
330
9
100
AcDbSymbolTableRecord
100
AcDbRegAppTableRecord
  2
GENIUS_GENOBJ-N-CEN_13
 70
     0
  0
APPID
  5
A83
330
9
100
AcDbSymbolTableRecord
100
AcDbRegAppTableRecord
  2
GENIUS_GENTRA_14
 70
     0
  0
APPID
  5
A8D
330
9
100
AcDbSymbolTableRecord
100
AcDbRegAppTableRecord
  2
GENIUS_GENOBJ-N-TIT_13
 70
     0
  0
APPID
  5
A8E
330
9
100
AcDbSymbolTableRecord
100
AcDbRegAppTableRecord
  2
GENIUS_GENTITLE_13
 70
     0
  0
APPID
  5
A8F
330
9
100
AcDbSymbolTableRecord
100
AcDbRegAppTableRecord
  2
GENIUS_GENOENT_13
 70
     0
  0
APPID
  5
A90
330
9
100
AcDbSymbolTableRecord
100
AcDbRegAppTableRecord
  2
GENIUS_GENOREF_13
 70
     0
  0
APPID
  5
A91
330
9
100
AcDbSymbolTableRecord
100
AcDbRegAppTableRecord
  2
GENIUS_GENOLIS_13
 70
     0
  0
APPID
  5
A92
330
9
100
AcDbSymbolTableRecord
100
AcDbRegAppTableRecord
  2
GENIUS_GENZVEED_13
 70
     0
  0
APPID
  5
A93
330
9
100
AcDbSymbolTableRecord
100
AcDbRegAppTableRecord
  2
GENIUS_GENSCREG_15
 70
     0
  0
APPID
  5
A94
330
9
100
AcDbSymbolTableRecord
100
AcDbRegAppTableRecord
  2
GENIUS_GENOBJ-N-SDF_13
 70
     0
  0
APPID
  5
12B5
330
9
100
AcDbSymbolTableRecord
100
AcDbRegAppTableRecord
  2
GENIUS_GENOBJ-N-RSBK_13
 70
     0
  0
APPID
  5
12B6
330
9
100
AcDbSymbolTableRecord
100
AcDbRegAppTableRecord
  2
GENIUS_GENOBJ-N-LIB_13
 70
     0
  0
APPID
  5
12B7
330
9
100
AcDbSymbolTableRecord
100
AcDbRegAppTableRecord
  2
GENIUS_GENSCALE_13
 70
     0
  0
APPID
  5
12B8
330
9
100
AcDbSymbolTableRecord
100
AcDbRegAppTableRecord
  2
GENIUS_GENOBJ-N-HTC_13
 70
     0
  0
APPID
  5
12B9
330
9
100
AcDbSymbolTableRecord
100
AcDbRegAppTableRecord
  2
GENIUS_GENHATCH_13
 70
     0
  0
APPID
  5
1687
330
9
100
AcDbSymbolTableRecord
100
AcDbRegAppTableRecord
  2
BASE_TYPE
 70
     0
  0
APPID
  5
1ABF
330
9
100
AcDbSymbolTableRecord
100
AcDbRegAppTableRecord
  2
GENIUS_GENFIL_13
 70
     0
  0
APPID
  5
1AC0
330
9
100
AcDbSymbolTableRecord
100
AcDbRegAppTableRecord
  2
GENIUS_GENOBJ-N-CHA_13
 70
     0
  0
APPID
  5
1AE7
330
9
100
AcDbSymbolTableRecord
100
AcDbRegAppTableRecord
  2
GENIUS_GENOBJ-N-FIL_13
 70
     0
  0
APPID
  5
20E9
330
9
100
AcDbSymbolTableRecord
100
AcDbRegAppTableRecord
  2
GENIUS_GENDIMSH_14
 70
     0
  0
APPID
  5
193D7
330
9
100
AcDbSymbolTableRecord
100
AcDbRegAppTableRecord
  2
AD_DRAW
 70
     0
  0
APPID
  5
193DA
330
9
100
AcDbSymbolTableRecord
100
AcDbRegAppTableRecord
  2
ACATTRIBSERVICES
 70
     0
  0
APPID
  5
193F8
330
9
100
AcDbSymbolTableRecord
100
AcDbRegAppTableRecord
  2
DESIGNERASSEMBLIES
 70
     0
  0
APPID
  5
1940B
330
9
100
AcDbSymbolTableRecord
100
AcDbRegAppTableRecord
  2
ACADM_DIM_EDIT
 70
     0
  0
APPID
  5
1940C
330
9
100
AcDbSymbolTableRecord
100
AcDbRegAppTableRecord
  2
AMDT_DM_ADJ
 70
     0
  0
APPID
  5
194E2
330
9
100
AcDbSymbolTableRecord
100
AcDbRegAppTableRecord
  2
DCO15
 70
     0
  0
APPID
  5
19699
330
9
100
AcDbSymbolTableRecord
100
AcDbRegAppTableRecord
  2
ACAD_DSTYLE_DIMTEXT_FILL
 70
     0
  0
APPID
  5
1969A
330
9
100
AcDbSymbolTableRecord
100
AcDbRegAppTableRecord
  2
ACAD_PSEXT
 70
     0
  0
ENDTAB
  0
TABLE
  2
DIMSTYLE
  5
A
330
0
100
AcDbSymbolTable
 70
    10
100
AcDbDimStyleTable
  0
DIMSTYLE
105
58
330
A
100
AcDbSymbolTableRecord
100
AcDbDimStyleTableRecord
  2
AM_JIS
 70
     0
  4
"
 41
2.5
 42
0.0
 43
10.0
 44
1.0
 47
0.1
 48
0.1000000001
 73
     0
 74
     0
 77
     3
 78
     1
 79
     2
140
3.8
141
0.0
143
0.0393701
146
0.71
147
1.5
172
     1
176
   256
177
   256
178
     2
179
     2
271
     3
272
     3
275
     1
283
     0
284
     8
340
11
341
59
342
59
371
    -1
372
    -1
  0
DIMSTYLE
105
5F
102
{ACAD_REACTORS
330
F6A3
330
188EF
102
}
330
A
100
AcDbSymbolTableRecord
100
AcDbDimStyleTableRecord
  2
AM_JIS$3
 70
     0
  4
"
 41
2.5
 42
0.0
 43
10.0
 44
1.0
 47
0.1
 48
0.1000000001
 73
     0
 77
     3
 78
     1
 79
     2
140
3.8
141
0.0
143
0.0393701
146
0.71
147
1.5
172
     1
176
   256
177
   256
178
     2
179
     2
271
     3
272
     3
275
     1
283
     0
284
     8
288
     1
289
     0
340
11
341
59
342
59
371
    -1
372
    -1
  0
DIMSTYLE
105
60
330
A
100
AcDbSymbolTableRecord
100
AcDbDimStyleTableRecord
  2
AM_JIS$4
 70
     0
  4
"
 41
2.5
 42
0.0
 43
10.0
 44
1.0
 47
0.1
 48
0.1000000001
 73
     0
 77
     3
 78
     1
 79
     2
140
3.8
141
0.0
143
0.0393701
146
0.71
147
1.5
172
     1
176
   256
177
   256
178
     2
179
     2
271
     3
272
     3
275
     1
283
     0
284
     8
288
     1
289
     0
340
11
341
59
342
59
371
    -1
372
    -1
  0
DIMSTYLE
105
61
330
A
100
AcDbSymbolTableRecord
100
AcDbDimStyleTableRecord
  2
AM_JIS$6
 70
     0
  4
"
 41
2.5
 42
0.0
 43
10.0
 44
1.0
 47
0.1
 48
0.1000000001
 73
     0
 74
     0
 78
     1
 79
     2
140
3.8
141
0.0
143
0.0393701
146
0.71
147
1.5
172
     1
176
   256
177
   256
178
     2
179
     2
271
     3
272
     3
275
     1
283
     0
284
     8
340
11
341
59
342
59
371
    -1
372
    -1
  0
DIMSTYLE
105
62
330
A
100
AcDbSymbolTableRecord
100
AcDbDimStyleTableRecord
  2
AM_JIS$7
 70
     0
  4
"
 41
2.5
 42
0.0
 43
10.0
 44
1.0
 47
0.1
 48
0.1000000001
 73
     0
 74
     0
 77
     3
 78
     1
 79
     2
140
5.0
141
0.0
143
0.0393701
146
0.71
147
1.5
172
     1
176
   256
177
   256
178
     2
179
     2
271
     3
272
     3
275
     1
283
     0
284
     8
340
11
341
59
342
59
371
    -1
372
    -1
  0
DIMSTYLE
105
63
330
A
100
AcDbSymbolTableRecord
100
AcDbDimStyleTableRecord
  2
AM_JIS$SF
 70
     0
  4
"
 41
2.5
 42
1.0
 43
10.0
 44
1.0
 47
0.1
 48
0.1
 73
     0
 74
     0
 75
     1
 76
     1
 77
     3
 78
     8
 79
     2
140
3.5
141
0.0
143
0.0393701
146
0.71
147
1.5
176
   256
177
   256
178
     2
271
     2
272
     3
274
     4
340
11
341
59
342
59
343
59
344
59
371
    -1
372
    -1
  0
DIMSTYLE
105
68
330
A
100
AcDbSymbolTableRecord
100
AcDbDimStyleTableRecord
  2
AM_JIS$SH
 70
     0
  4
"
 41
2.5
 42
1.0
 43
10.0
 44
1.0
 47
0.1
 48
0.1
 73
     0
 74
     0
 75
     1
 76
     1
 77
     3
 78
     8
 79
     2
140
3.5
141
0.0
143
0.0393701
144
2.0
146
0.71
147
1.5
173
     1
176
   256
177
   256
178
     2
271
     2
272
     3
274
     4
340
11
341
59
342
59
343
64
344
59
371
    -1
372
    -1
  0
DIMSTYLE
105
65F
330
A
100
AcDbSymbolTableRecord
100
AcDbDimStyleTableRecord
  2
STANDARD
 70
     0
340
11
  0
DIMSTYLE
105
1B97
102
{ACAD_REACTORS
330
F478
330
10C41
330
19A41
330
19AE0
102
}
330
A
100
AcDbSymbolTableRecord
100
AcDbDimStyleTableRecord
  2
AM_JIS$0
 70
     0
  4
"
 41
2.5
 42
0.0
 43
10.0
 44
1.0
 47
0.1
 48
0.1000000001
 73
     0
 74
     0
 77
     3
 78
     1
 79
     2
140
3.8
141
0.0
143
0.0393701
146
0.71
147
1.5
172
     1
176
     3
177
     3
178
     2
271
     3
272
     3
275
     1
283
     0
284
     8
289
     0
340
11
341
59
342
59
371
    13
372
    13
  0
DIMSTYLE
105
1B98
102
{ACAD_REACTORS
330
198E9
330
199F9
330
19AFB
102
}
330
A
100
AcDbSymbolTableRecord
100
AcDbDimStyleTableRecord
  2
AM_JIS$2
 70
     0
  4
"
 41
2.5
 42
0.0
 43
10.0
 44
1.0
 47
0.1
 48
0.1000000001
 73
     0
 74
     0
 77
     3
 78
     1
 79
     2
140
3.8
141
0.0
143
0.0393701
146
0.71
147
1.5
172
     1
176
     3
177
     3
178
     2
271
     3
272
     3
275
     1
283
     0
284
     8
289
     0
340
11
341
59
342
59
371
    13
372
    13
  0
ENDTAB
  0
TABLE
  2
BLOCK_RECORD
  5
1
330
0
100
AcDbSymbolTable
 70
    13
  0
BLOCK_RECORD
  5
1F
102
{ACAD_XDICTIONARY
360
165
102
}
330
1
100
AcDbSymbolTableRecord
100
AcDbBlockTableRecord
  2
*Model_Space
340
22
  0
BLOCK_RECORD
  5
1B
330
1
100
AcDbSymbolTableRecord
100
AcDbBlockTableRecord
  2
*Paper_Space
340
1E
  0
BLOCK_RECORD
  5
23
330
1
100
AcDbSymbolTableRecord
100
AcDbBlockTableRecord
  2
*Paper_Space0
340
26
  0
BLOCK_RECORD
  5
59
330
1
100
AcDbSymbolTableRecord
100
AcDbBlockTableRecord
  2
_Open30
340
0
102
{BLKREFS
331
19D2D
331
19D2E
331
19D38
331
19D39
331
19D3F
331
19D40
331
19D4A
331
19D4B
331
19D53
331
19D54
331
19D5E
331
19D5F
331
19D69
331
19D6A
331
19D72
331
19D73
331
19D7D
331
19D7E
102
}
  0
BLOCK_RECORD
  5
64
330
1
100
AcDbSymbolTableRecord
100
AcDbBlockTableRecord
  2
GENAXEH
340
0
  0
BLOCK_RECORD
  5
F479
330
1
100
AcDbSymbolTableRecord
100
AcDbBlockTableRecord
  2
*D3
340
0
  0
BLOCK_RECORD
  5
F6A4
330
1
100
AcDbSymbolTableRecord
100
AcDbBlockTableRecord
  2
*D4
340
0
  0
BLOCK_RECORD
  5
10C42
330
1
100
AcDbSymbolTableRecord
100
AcDbBlockTableRecord
  2
*D5
340
0
  0
BLOCK_RECORD
  5
188F0
330
1
100
AcDbSymbolTableRecord
100
AcDbBlockTableRecord
  2
*D6
340
0
  0
BLOCK_RECORD
  5
193EF
330
1
100
AcDbSymbolTableRecord
100
AcDbBlockTableRecord
  2
*U7
340
0
  0
BLOCK_RECORD
  5
198EA
330
1
100
AcDbSymbolTableRecord
100
AcDbBlockTableRecord
  2
*D8
340
0
  0
BLOCK_RECORD
  5
199FA
330
1
100
AcDbSymbolTableRecord
100
AcDbBlockTableRecord
  2
*D9
340
0
  0
BLOCK_RECORD
  5
19A42
330
1
100
AcDbSymbolTableRecord
100
AcDbBlockTableRecord
  2
*D10
340
0
  0
BLOCK_RECORD
  5
19AE1
330
1
100
AcDbSymbolTableRecord
100
AcDbBlockTableRecord
  2
*D11
340
0
  0
BLOCK_RECORD
  5
19AFC
330
1
100
AcDbSymbolTableRecord
100
AcDbBlockTableRecord
  2
*D12
340
0
  0
ENDTAB
  0
ENDSEC
  0
SECTION
  2
BLOCKS
  0
BLOCK
  5
20
330
1F
100
AcDbEntity
  8
0
100
AcDbBlockBegin
  2
*Model_Space
 70
     0
 71
     0
 10
0.0
 20
0.0
 30
0.0
  3
*Model_Space
  1

  0
ENDBLK
  5
21
330
1F
100
AcDbEntity
  8
0
100
AcDbBlockEnd
  0
BLOCK
  5
1C
330
1B
100
AcDbEntity
 67
     1
  8
0
100
AcDbBlockBegin
  2
*Paper_Space
 70
     0
 71
     0
 10
0.0
 20
0.0
 30
0.0
  3
*Paper_Space
  1

  0
ENDBLK
  5
1D
330
1B
100
AcDbEntity
 67
     1
  8
0
100
AcDbBlockEnd
  0
BLOCK
  5
24
330
23
100
AcDbEntity
  8
0
100
AcDbBlockBegin
  2
*Paper_Space0
 70
     0
 71
     0
 10
0.0
 20
0.0
 30
0.0
  3
*Paper_Space0
  1

  0
ENDBLK
  5
25
330
23
100
AcDbEntity
  8
0
100
AcDbBlockEnd
  0
BLOCK
  5
5D
330
59
100
AcDbEntity
  8
0
100
AcDbBlockBegin
  2
_Open30
 70
     0
 71
     0
 10
0.0
 20
0.0
 30
0.0
  3
_Open30
  1

  0
LINE
  5
5A
330
59
100
AcDbEntity
  8
0
 62
     0
370
    -2
100
AcDbLine
 10
-1.0
 20
0.26794919
 30
0.0
 11
0.0
 21
0.0
 31
0.0
  0
LINE
  5
5B
330
59
100
AcDbEntity
  8
0
 62
     0
370
    -2
100
AcDbLine
 10
0.0
 20
0.0
 30
0.0
 11
-1.0
 21
-0.26794919
 31
0.0
  0
LINE
  5
5C
330
59
100
AcDbEntity
  8
0
 62
     0
370
    -2
100
AcDbLine
 10
0.0
 20
0.0
 30
0.0
 11
-1.0
 21
0.0
 31
0.0
  0
ENDBLK
  5
5E
330
59
100
AcDbEntity
  8
0
100
AcDbBlockEnd
  0
BLOCK
  5
66
330
64
100
AcDbEntity
  8
0
100
AcDbBlockBegin
  2
GENAXEH
 70
     0
 71
     0
 10
0.0
 20
0.0
 30
0.0
  3
GENAXEH
  1

  0
LINE
  5
65
330
64
100
AcDbEntity
  8
0
100
AcDbLine
 10
-1.0
 20
0.0
 30
0.0
 11
1.0
 21
0.0
 31
0.0
  0
ENDBLK
  5
67
330
64
100
AcDbEntity
  8
0
100
AcDbBlockEnd
  0
BLOCK
  5
F484
330
F479
100
AcDbEntity
  8
0
100
AcDbBlockBegin
  2
*D3
 70
     1
 71
     0
 10
0.0
 20
0.0
 30
0.0
  3
*D3
  1

  0
LINE
  5
19D2A
330
F479
100
AcDbEntity
  8
AM_5
 62
     3
370
    13
100
AcDbLine
 10
93.74999999999977
 20
6.216117818584976
 30
0.0
 11
93.74999999999977
 21
-9.684448857539863
 31
0.0
  0
LINE
  5
19D2B
330
F479
100
AcDbEntity
  8
AM_5
 62
     3
370
    13
100
AcDbLine
 10
108.7499999999997
 20
6.216117818584976
 30
0.0
 11
108.7499999999997
 21
-9.684448857539863
 31
0.0
  0
LINE
  5
19D2C
330
F479
100
AcDbEntity
  8
AM_5
 62
     3
370
    13
100
AcDbLine
 10
96.24999999999977
 20
-8.684448857539863
 30
0.0
 11
106.2499999999997
 21
-8.684448857539863
 31
0.0
  0
INSERT
  5
19D2D
330
F479
100
AcDbEntity
  8
AM_5
 62
     3
370
    13
100
AcDbBlockReference
  2
_Open30
 10
93.74999999999977
 20
-8.684448857539863
 30
0.0
 41
2.5
 42
2.5
 43
2.5
 50
180.0
  0
INSERT
  5
19D2E
330
F479
100
AcDbEntity
  8
AM_5
 62
     3
370
    13
100
AcDbBlockReference
  2
_Open30
 10
108.7499999999997
 20
-8.684448857539863
 30
0.0
 41
2.5
 42
2.5
 43
2.5
  0
MTEXT
  5
19D2F
330
F479
100
AcDbEntity
  8
AM_5
 62
     2
100
AcDbMText
 10
101.2499999999998
 20
-5.284448857539863
 30
0.0
 40
3.8
 41
0.0
 71
     5
 72
     1
  1
15
 73
     1
 44
1.0
  0
POINT
  5
19D30
330
F479
100
AcDbEntity
  8
Defpoints
 62
     0
100
AcDbPoint
 10
93.74999999999977
 20
6.216117818584976
 30
0.0
  0
POINT
  5
19D31
330
F479
100
AcDbEntity
  8
Defpoints
 62
     0
100
AcDbPoint
 10
108.7499999999997
 20
6.216117818584976
 30
0.0
  0
POINT
  5
19D32
330
F479
100
AcDbEntity
  8
Defpoints
 62
     0
100
AcDbPoint
 10
108.7499999999997
 20
-8.684448857539863
 30
0.0
  0
ENDBLK
  5
F485
330
F479
100
AcDbEntity
  8
0
100
AcDbBlockEnd
  0
BLOCK
  5
F6AA
330
F6A4
100
AcDbEntity
  8
0
100
AcDbBlockBegin
  2
*D4
 70
     1
 71
     0
 10
0.0
 20
0.0
 30
0.0
  3
*D4
  1

  0
LINE
  5
19D33
330
F6A4
100
AcDbEntity
  8
AM_5
100
AcDbLine
 10
124.7433982125414
 20
28.80121543814872
 30
0.0
 11
112.6004060865571
 21
28.80121543814871
 31
0.0
  0
LINE
  5
19D34
330
F6A4
100
AcDbEntity
  8
AM_5
100
AcDbLine
 10
112.6004060865571
 20
28.80121543814871
 30
0.0
 11
106.4717400137462
 21
18.10952420430595
 31
0.0
  0
LINE
  5
19D35
330
F6A4
100
AcDbEntity
  8
AM_5
100
AcDbLine
 10
96.02825998625312
 20
-0.1095242043060622
 30
0.0
 11
94.7849885544087
 21
-2.278458538664651
 31
0.0
  0
MTEXT
  5
19D36
330
F6A4
100
AcDbEntity
  8
AM_5
 62
     2
100
AcDbMText
 10
119.4219021495493
 20
32.20121543814872
 30
0.0
 40
3.8
 41
0.0
 71
     5
 72
     1
  1
\U+220516.0
 73
     1
 44
1.0
  0
LINE
  5
19D37
330
F6A4
100
AcDbEntity
  8
AM_5
100
AcDbLine
 10
97.27153141809754
 20
2.05941013005252
 30
0.0
 11
105.2284685819018
 21
15.94058986994737
 31
0.0
  0
INSERT
  5
19D38
330
F6A4
100
AcDbEntity
  8
AM_5
100
AcDbBlockReference
  2
_Open30
 10
97.27153141809754
 20
2.05941013005252
 30
0.0
 41
2.5
 42
2.5
 43
2.5
 50
60.17790421760117
  0
INSERT
  5
19D39
330
F6A4
100
AcDbEntity
  8
AM_5
100
AcDbBlockReference
  2
_Open30
 10
105.2284685819018
 20
15.94058986994737
 30
0.0
 41
2.5
 42
2.5
 43
2.5
 50
240.1779042176012
  0
POINT
  5
19D3A
330
F6A4
100
AcDbEntity
  8
Defpoints
 62
     0
100
AcDbPoint
 10
105.2284685819018
 20
15.94058986994737
 30
0.0
  0
POINT
  5
19D3B
330
F6A4
100
AcDbEntity
  8
Defpoints
 62
     0
100
AcDbPoint
 10
97.27153141809754
 20
2.05941013005252
 30
0.0
  0
ENDBLK
  5
F6AB
330
F6A4
100
AcDbEntity
  8
0
100
AcDbBlockEnd
  0
BLOCK
  5
10C4C
330
10C42
100
AcDbEntity
  8
0
100
AcDbBlockBegin
  2
*D5
 70
     1
 71
     0
 10
0.0
 20
0.0
 30
0.0
  3
*D5
  1

  0
LINE
  5
19D3C
330
10C42
100
AcDbEntity
  8
AM_5
 62
     3
370
    13
100
AcDbLine
 10
17.99999999999977
 20
-71.93482132315074
 30
0.0
 11
17.99999999999977
 21
-89.24940993380599
 31
0.0
  0
LINE
  5
19D3D
330
10C42
100
AcDbEntity
  8
AM_5
 62
     3
370
    13
100
AcDbLine
 10
-0.0000000000001137
 20
-64.18482132315072
 30
0.0
 11
-0.0000000000001152
 21
-89.24940993380599
 31
0.0
  0
LINE
  5
19D3E
330
10C42
100
AcDbEntity
  8
AM_5
 62
     3
370
    13
100
AcDbLine
 10
15.49999999999977
 20
-88.24940993380599
 30
0.0
 11
2.499999999999885
 21
-88.24940993380599
 31
0.0
  0
INSERT
  5
19D3F
330
10C42
100
AcDbEntity
  8
AM_5
 62
     3
370
    13
100
AcDbBlockReference
  2
_Open30
 10
17.99999999999977
 20
-88.24940993380599
 30
0.0
 41
2.5
 42
2.5
 43
2.5
  0
INSERT
  5
19D40
330
10C42
100
AcDbEntity
  8
AM_5
 62
     3
370
    13
100
AcDbBlockReference
  2
_Open30
 10
-0.0000000000001152
 20
-88.24940993380599
 30
0.0
 41
2.5
 42
2.5
 43
2.5
 50
180.0
  0
MTEXT
  5
19D41
330
10C42
100
AcDbEntity
  8
AM_5
 62
     2
100
AcDbMText
 10
8.99999999999983
 20
-84.84940993380599
 30
0.0
 40
3.8
 41
0.0
 71
     5
 72
     1
  1
18
 73
     1
 44
1.0
  0
POINT
  5
19D42
330
10C42
100
AcDbEntity
  8
Defpoints
 62
     0
100
AcDbPoint
 10
17.99999999999977
 20
-71.93482132315074
 30
0.0
  0
POINT
  5
19D43
330
10C42
100
AcDbEntity
  8
Defpoints
 62
     0
100
AcDbPoint
 10
-0.0000000000001137
 20
-64.18482132315072
 30
0.0
  0
POINT
  5
19D44
330
10C42
100
AcDbEntity
  8
Defpoints
 62
     0
100
AcDbPoint
 10
-0.0000000000001152
 20
-88.24940993380599
 30
0.0
  0
ENDBLK
  5
10C4D
330
10C42
100
AcDbEntity
  8
0
100
AcDbBlockEnd
  0
BLOCK
  5
188F9
330
188F0
100
AcDbEntity
  8
0
100
AcDbBlockBegin
  2
*D6
 70
     1
 71
     0
 10
0.0
 20
0.0
 30
0.0
  3
*D6
  1

  0
LINE
  5
19D45
330
188F0
100
AcDbEntity
  8
AM_5
100
AcDbLine
 10
-88.2032356421804
 20
20.27720937049971
 30
0.0
 11
-64.33550963269133
 21
20.27720937049971
 31
0.0
  0
LINE
  5
19D46
330
188F0
100
AcDbEntity
  8
AM_5
100
AcDbLine
 10
-64.33550963269133
 20
20.27720937049971
 30
0.0
 11
-61.07411321207341
 21
17.12155126638709
 31
0.0
  0
LINE
  5
19D47
330
188F0
100
AcDbEntity
  8
AM_5
100
AcDbLine
 10
-44.54491666039696
 20
1.128250751607677
 30
0.0
 11
-42.74826486130169
 21
-0.610151478259656
 31
0.0
  0
MTEXT
  5
19D48
330
188F0
100
AcDbEntity
  8
AM_5
 62
     2
100
AcDbMText
 10
-77.01937263743588
 20
26.84387603716638
 30
0.0
 40
3.8
 41
0.0
 71
     5
 72
     1
  1
最小加工径\P\U+220518
 73
     1
 44
1.0
  0
LINE
  5
19D49
330
188F0
100
AcDbEntity
  8
AM_5
100
AcDbLine
 10
-46.34156845949224
 20
2.86665298147501
 30
0.0
 11
-59.27746141297814
 21
15.38314903651975
 31
0.0
  0
INSERT
  5
19D4A
330
188F0
100
AcDbEntity
  8
AM_5
100
AcDbBlockReference
  2
_Open30
 10
-46.34156845949224
 20
2.86665298147501
 30
0.0
 41
2.5
 42
2.5
 43
2.5
 50
135.9440173873173
  0
INSERT
  5
19D4B
330
188F0
100
AcDbEntity
  8
AM_5
100
AcDbBlockReference
  2
_Open30
 10
-59.27746141297814
 20
15.38314903651975
 30
0.0
 41
2.5
 42
2.5
 43
2.5
 50
315.9440173873173
  0
POINT
  5
19D4C
330
188F0
100
AcDbEntity
  8
Defpoints
 62
     0
100
AcDbPoint
 10
-59.27746141297814
 20
15.38314903651975
 30
0.0
  0
POINT
  5
19D4D
330
188F0
100
AcDbEntity
  8
Defpoints
 62
     0
100
AcDbPoint
 10
-46.34156845949224
 20
2.86665298147501
 30
0.0
  0
ENDBLK
  5
188FA
330
188F0
100
AcDbEntity
  8
0
100
AcDbBlockEnd
  0
BLOCK
  5
193F0
330
193EF
100
AcDbEntity
  8
0
100
AcDbBlockBegin
  2
*U7
 70
     1
 71
     0
 10
0.0
 20
0.0
 30
0.0
  3
*U7
  1

  0
ENDBLK
  5
193F1
330
193EF
100
AcDbEntity
  8
0
100
AcDbBlockEnd
  0
BLOCK
  5
19939
330
198EA
100
AcDbEntity
  8
0
100
AcDbBlockBegin
  2
*D8
 70
     1
 71
     0
 10
0.0
 20
0.0
 30
0.0
  3
*D8
  1

  0
LINE
  5
19D4E
330
198EA
100
AcDbEntity
  8
AM_5
 62
     3
370
    13
100
AcDbLine
 10
-8.038635261219724
 20
-63.45355183176985
 30
0.0
 11
-15.66506608203459
 21
-62.78632559178384
 31
0.0
  0
LINE
  5
19D4F
330
198EA
100
AcDbEntity
  8
AM_5
 62
     3
370
    13
100
AcDbLine
 10
-1.773854710452724
 20
-64.1848213231507
 30
0.0
 11
-15.7261257243196
 21
-64.18482132315072
 31
0.0
  0
ARC
  5
19D50
330
198EA
100
AcDbEntity
  8
AM_5
 62
     3
370
    13
100
AcDbCircle
 10
0.3198132726772798
 20
-64.1848213231507
 30
0.0
 40
15.04593899699688
100
AcDbArc
 50
155.9377482816825
 51
165.4688741408413
  0
ARC
  5
19D51
330
198EA
100
AcDbEntity
  8
AM_5
 62
     3
370
    13
100
AcDbCircle
 10
0.3198132726772798
 20
-64.1848213231507
 30
0.0
 40
15.04593899699688
100
AcDbArc
 50
189.5311258591588
 51
199.0622517183175
  0
ARC
  5
19D52
330
198EA
100
AcDbEntity
  8
AM_5
 62
     3
370
    13
100
AcDbCircle
 10
0.3198132726772798
 20
-64.1848213231507
 30
0.0
 40
15.04593899699688
100
AcDbArc
 50
175.0000000000001
 51
180.0
  0
INSERT
  5
19D53
330
198EA
100
AcDbEntity
  8
AM_5
 62
     3
370
    13
100
AcDbBlockReference
  2
_Open30
 10
-14.66887138394285
 20
-62.8734813345315
 30
0.0
 41
2.5
 42
2.5
 43
2.5
 50
260.2344370704207
  0
INSERT
  5
19D54
330
198EA
100
AcDbEntity
  8
AM_5
 62
     3
370
    13
100
AcDbBlockReference
  2
_Open30
 10
-14.7261257243196
 20
-64.1848213231507
 30
0.0
 41
2.5
 42
2.5
 43
2.5
 50
94.7655629295794
  0
MTEXT
  5
19D55
330
198EA
100
AcDbEntity
  8
AM_5
 62
     2
100
AcDbMText
 10
-17.50363273526802
 20
-59.43324917460987
 30
0.0
 40
3.8
 41
0.0
 71
     5
 72
     1
  1
5°
 11
0.257594484580831
 21
0.9662531146203546
 31
0.0
 73
     1
 44
1.0
  0
POINT
  5
19D56
330
198EA
100
AcDbEntity
  8
Defpoints
 62
     0
100
AcDbPoint
 10
-14.71976054106371
 20
-63.74721441919705
 30
0.0
  0
POINT
  5
19D57
330
198EA
100
AcDbEntity
  8
Defpoints
 62
     0
100
AcDbPoint
 10
0.0000073976090125
 20
-64.15684193455324
 30
0.0
  0
POINT
  5
19D58
330
198EA
100
AcDbEntity
  8
Defpoints
 62
     0
100
AcDbPoint
 10
-1.773854710452724
 20
-64.1848213231507
 30
0.0
  0
POINT
  5
19D59
330
198EA
100
AcDbEntity
  8
Defpoints
 62
     0
100
AcDbPoint
 10
153.6686900870427
 20
-64.18482132315074
 30
0.0
  0
POINT
  5
19D5A
330
198EA
100
AcDbEntity
  8
Defpoints
 62
     0
100
AcDbPoint
 10
-8.038635261219724
 20
-63.45355183176985
 30
0.0
  0
ENDBLK
  5
1993A
330
198EA
100
AcDbEntity
  8
0
100
AcDbBlockEnd
  0
BLOCK
  5
19A30
330
199FA
100
AcDbEntity
  8
0
100
AcDbBlockBegin
  2
*D9
 70
     1
 71
     0
 10
0.0
 20
0.0
 30
0.0
  3
*D9
  1

  0
LINE
  5
19D5B
330
199FA
100
AcDbEntity
  8
AM_5
 62
     3
370
    13
100
AcDbLine
 10
0.8014021413591772
 20
9.574124424439841
 30
0.0
 11
1.993574577794387
 21
23.20071772680332
 31
0.0
  0
LINE
  5
19D5C
330
199FA
100
AcDbEntity
  8
AM_5
 62
     3
370
    13
100
AcDbLine
 10
-2.570757848202675
 20
0.0
 30
0.0
 11
-23.32556590837482
 21
-0.0000000000000266
 31
0.0
  0
ARC
  5
19D5D
330
199FA
100
AcDbEntity
  8
AM_5
 62
     3
370
    13
100
AcDbCircle
 10
-0.0362252089660416
 20
0.0000000000000004
 30
0.0
 40
22.28934069940878
100
AcDbArc
 50
91.42973874252051
 51
173.5702612574791
  0
INSERT
  5
19D5E
330
199FA
100
AcDbEntity
  8
AM_5
 62
     3
370
    13
100
AcDbBlockReference
  2
_Open30
 10
1.906418835046718
 20
22.20452302871157
 30
0.0
 41
2.5
 42
2.5
 43
2.5
 50
358.21486937126
  0
INSERT
  5
19D5F
330
199FA
100
AcDbEntity
  8
AM_5
 62
     3
370
    13
100
AcDbBlockReference
  2
_Open30
 10
-22.32556590837482
 20
-0.0000000000000249
 30
0.0
 41
2.5
 42
2.5
 43
2.5
 50
266.7851306287396
  0
MTEXT
  5
19D60
330
199FA
100
AcDbEntity
  8
AM_5
 62
     2
100
AcDbMText
 10
-17.39169222558898
 20
18.9401686952681
 30
0.0
 40
3.8
 41
0.0
 71
     5
 72
     1
  1
95°
 11
0.7372773368101268
 21
0.6755902076156573
 31
0.0
 73
     1
 44
1.0
  0
POINT
  5
19D61
330
199FA
100
AcDbEntity
  8
Defpoints
 62
     0
100
AcDbPoint
 10
-10.0396630420694
 20
19.91848238028081
 30
0.0
  0
POINT
  5
19D62
330
199FA
100
AcDbEntity
  8
Defpoints
 62
     0
100
AcDbPoint
 10
0.0015220838046162
 20
0.4314535306562278
 30
0.0
  0
POINT
  5
19D63
330
199FA
100
AcDbEntity
  8
Defpoints
 62
     0
100
AcDbPoint
 10
-2.570757848202675
 20
0.0
 30
0.0
  0
POINT
  5
19D64
330
199FA
100
AcDbEntity
  8
Defpoints
 62
     0
100
AcDbPoint
 10
0.3960510210162057
 20
0.0
 30
0.0
  0
POINT
  5
19D65
330
199FA
100
AcDbEntity
  8
Defpoints
 62
     0
100
AcDbPoint
 10
0.8014021413591772
 20
9.574124424439841
 30
0.0
  0
ENDBLK
  5
19A31
330
199FA
100
AcDbEntity
  8
0
100
AcDbBlockEnd
  0
BLOCK
  5
19A64
330
19A42
100
AcDbEntity
  8
0
100
AcDbBlockBegin
  2
*D10
 70
     1
 71
     0
 10
0.0
 20
0.0
 30
0.0
  3
*D10
  1

  0
LINE
  5
19D66
330
19A42
100
AcDbEntity
  8
AM_5
 62
     3
370
    13
100
AcDbLine
 10
-2.16554845196606
 20
8.999999999999972
 30
0.0
 11
-10.33714919394561
 21
8.999999999999973
 31
0.0
  0
LINE
  5
19D67
330
19A42
100
AcDbEntity
  8
AM_5
 62
     3
370
    13
100
AcDbLine
 10
0.0
 20
0.0
 30
0.0
 11
-10.33714919394561
 21
0.0000000000000029
 31
0.0
  0
LINE
  5
19D68
330
19A42
100
AcDbEntity
  8
AM_5
 62
     3
370
    13
100
AcDbLine
 10
-9.337149193945605
 20
6.499999999999973
 30
0.0
 11
-9.337149193945606
 21
2.500000000000003
 31
0.0
  0
INSERT
  5
19D69
330
19A42
100
AcDbEntity
  8
AM_5
 62
     3
370
    13
100
AcDbBlockReference
  2
_Open30
 10
-9.337149193945605
 20
8.999999999999973
 30
0.0
 41
2.5
 42
2.5
 43
2.5
 50
90.0
  0
INSERT
  5
19D6A
330
19A42
100
AcDbEntity
  8
AM_5
 62
     3
370
    13
100
AcDbBlockReference
  2
_Open30
 10
-9.337149193945606
 20
0.0000000000000026
 30
0.0
 41
2.5
 42
2.5
 43
2.5
 50
270.0
  0
MTEXT
  5
19D6B
330
19A42
100
AcDbEntity
  8
AM_5
 62
     2
100
AcDbMText
 10
-12.73714919394561
 20
4.499999999999987
 30
0.0
 40
3.8
 41
0.0
 71
     5
 72
     1
  1
9
 11
6.123031769111886E-17
 21
1.0
 31
0.0
 73
     1
 44
1.0
  0
POINT
  5
19D6C
330
19A42
100
AcDbEntity
  8
Defpoints
 62
     0
100
AcDbPoint
 10
-2.16554845196606
 20
8.999999999999972
 30
0.0
  0
POINT
  5
19D6D
330
19A42
100
AcDbEntity
  8
Defpoints
 62
     0
100
AcDbPoint
 10
0.0
 20
0.0
 30
0.0
  0
POINT
  5
19D6E
330
19A42
100
AcDbEntity
  8
Defpoints
 62
     0
100
AcDbPoint
 10
-9.337149193945606
 20
0.0000000000000026
 30
0.0
  0
ENDBLK
  5
19A65
330
19A42
100
AcDbEntity
  8
0
100
AcDbBlockEnd
  0
BLOCK
  5
19AF7
330
19AE1
100
AcDbEntity
  8
0
100
AcDbBlockBegin
  2
*D11
 70
     1
 71
     0
 10
0.0
 20
0.0
 30
0.0
  3
*D11
  1

  0
LINE
  5
19D6F
330
19AE1
100
AcDbEntity
  8
AM_5
 62
     3
370
    13
100
AcDbLine
 10
0.0
 20
-3.141916874376904
 30
0.0
 11
-0.0000000000000017
 21
-30.46738205201491
 31
0.0
  0
LINE
  5
19D70
330
19AE1
100
AcDbEntity
  8
AM_5
 62
     3
370
    13
100
AcDbLine
 10
200.0000000000001
 20
2.0
 30
0.0
 11
200.0000000000001
 21
-30.46738205201491
 31
0.0
  0
LINE
  5
19D71
330
19AE1
100
AcDbEntity
  8
AM_5
 62
     3
370
    13
100
AcDbLine
 10
2.499999999999998
 20
-29.46738205201491
 30
0.0
 11
197.5000000000001
 21
-29.46738205201491
 31
0.0
  0
INSERT
  5
19D72
330
19AE1
100
AcDbEntity
  8
AM_5
 62
     3
370
    13
100
AcDbBlockReference
  2
_Open30
 10
-0.0000000000000016
 20
-29.46738205201491
 30
0.0
 41
2.5
 42
2.5
 43
2.5
 50
180.0
  0
INSERT
  5
19D73
330
19AE1
100
AcDbEntity
  8
AM_5
 62
     3
370
    13
100
AcDbBlockReference
  2
_Open30
 10
200.0000000000001
 20
-29.46738205201491
 30
0.0
 41
2.5
 42
2.5
 43
2.5
  0
MTEXT
  5
19D74
330
19AE1
100
AcDbEntity
  8
AM_5
 62
     2
100
AcDbMText
 10
100.1184252911646
 20
-26.06700803626688
 30
0.0
 40
3.8
 41
0.0
 71
     5
 72
     1
  1
200
 73
     1
 44
1.0
  0
POINT
  5
19D75
330
19AE1
100
AcDbEntity
  8
Defpoints
 62
     0
100
AcDbPoint
 10
0.0
 20
-3.141916874376904
 30
0.0
  0
POINT
  5
19D76
330
19AE1
100
AcDbEntity
  8
Defpoints
 62
     0
100
AcDbPoint
 10
200.0000000000001
 20
2.0
 30
0.0
  0
POINT
  5
19D77
330
19AE1
100
AcDbEntity
  8
Defpoints
 62
     0
100
AcDbPoint
 10
200.0000000000001
 20
-29.46738205201491
 30
0.0
  0
ENDBLK
  5
19AF8
330
19AE1
100
AcDbEntity
  8
0
100
AcDbBlockEnd
  0
BLOCK
  5
19B2E
330
19AFC
100
AcDbEntity
  8
0
100
AcDbBlockBegin
  2
*D12
 70
     1
 71
     0
 10
0.0
 20
0.0
 30
0.0
  3
*D12
  1

  0
LINE
  5
19D78
330
19AFC
100
AcDbEntity
  8
AM_5
 62
     3
370
    13
100
AcDbLine
 10
-52.80951493623513
 20
-0.0522399636394096
 30
0.0
 11
-53.71322635658911
 21
-14.56443647291827
 31
0.0
  0
LINE
  5
19D79
330
19AFC
100
AcDbEntity
  8
AM_5
 62
     3
370
    13
100
AcDbLine
 10
-52.80951493623513
 20
-5.105140796584742
 30
0.0
 11
-52.80951493623513
 21
-14.59254745197003
 31
0.0
  0
ARC
  5
19D7A
330
19AFC
100
AcDbEntity
  8
AM_5
 62
     3
370
    13
100
AcDbCircle
 10
-52.80951493623513
 20
-0.0522399636394096
 30
0.0
 40
13.54030748833062
100
AcDbArc
 50
245.2489909382833
 51
255.8428191046934
  0
ARC
  5
19D7B
330
19AFC
100
AcDbEntity
  8
AM_5
 62
     3
370
    13
100
AcDbCircle
 10
-52.80951493623513
 20
-0.0522399636394096
 30
0.0
 40
13.54030748833062
100
AcDbArc
 50
280.5938281664101
 51
291.1876563328201
  0
ARC
  5
19D7C
330
19AFC
100
AcDbEntity
  8
AM_5
 62
     3
370
    13
100
AcDbCircle
 10
-52.80951493623513
 20
-0.0522399636394096
 30
0.0
 40
13.54030748833062
100
AcDbArc
 50
266.4366472711034
 51
270.0
  0
INSERT
  5
19D7D
330
19AFC
100
AcDbEntity
  8
AM_5
 62
     3
370
    13
100
AcDbBlockReference
  2
_Open30
 10
-53.65107420326778
 20
-13.56636978685089
 30
0.0
 41
2.5
 42
2.5
 43
2.5
 50
351.1397331878984
  0
INSERT
  5
19D7E
330
19AFC
100
AcDbEntity
  8
AM_5
 62
     3
370
    13
100
AcDbBlockReference
  2
_Open30
 10
-52.80951493623513
 20
-13.59254745197003
 30
0.0
 41
2.5
 42
2.5
 43
2.5
 50
185.296914083205
  0
MTEXT
  5
19D7F
330
19AFC
100
AcDbEntity
  8
AM_5
 62
     2
100
AcDbMText
 10
-52.80951493623522
 20
-10.19254745197003
 30
0.0
 40
3.8
 41
0.0
 71
     5
 72
     1
  1
4°
 73
     1
 44
1.0
  0
POINT
  5
19D80
330
19AFC
100
AcDbEntity
  8
Defpoints
 62
     0
100
AcDbPoint
 10
-53.37075544975531
 20
-13.58091085048288
 30
0.0
  0
POINT
  5
19D81
330
19AFC
100
AcDbEntity
  8
Defpoints
 62
     0
100
AcDbPoint
 10
-52.77940073673562
 20
0.4313471317690869
 30
0.0
  0
POINT
  5
19D82
330
19AFC
100
AcDbEntity
  8
Defpoints
 62
     0
100
AcDbPoint
 10
-52.80951493623513
 20
21.59834088949032
 30
0.0
  0
POINT
  5
19D83
330
19AFC
100
AcDbEntity
  8
Defpoints
 62
     0
100
AcDbPoint
 10
-52.80951493623513
 20
-5.105140796584742
 30
0.0
  0
POINT
  5
19D84
330
19AFC
100
AcDbEntity
  8
Defpoints
 62
     0
100
AcDbPoint
 10
-52.21006334566823
 20
9.574018025552707
 30
0.0
  0
ENDBLK
  5
19B2F
330
19AFC
100
AcDbEntity
  8
0
100
AcDbBlockEnd
  0
ENDSEC
  0
SECTION
  2
ENTITIES
  0
LINE
  5
EA92
330
1F
100
AcDbEntity
  8
AM_0
100
AcDbLine
 10
199.0000000000001
 20
6.216117818585019
 30
0.0
 11
113.7499999999997
 21
6.216117818585033
 31
0.0
  0
LINE
  5
EACB
330
1F
100
AcDbEntity
  8
AM_0
100
AcDbLine
 10
200.0000000000001
 20
2.0
 30
0.0
 11
200.0000000000001
 21
15.99999999999992
 31
0.0
  0
SPLINE
  5
EACC
330
1F
100
AcDbEntity
  8
AM_0
100
AcDbSpline
210
0.0
220
0.0
230
1.0
 70
    12
 71
     2
 72
     6
 73
     3
 74
     0
 42
0.0000000001
 43
0.0000000001
 40
0.0
 40
0.0
 40
0.0
 40
5.656854249492205
 40
5.656854249492205
 40
5.656854249492205
 10
199.0000000000001
 20
11.78388218141484
 30
0.0
 41
1.0
 10
199.96875
 20
8.999999999999925
 30
0.0
 41
1.066666666666671
 10
199.0000000000001
 20
6.216117818585019
 30
0.0
 41
1.0
  0
LINE
  5
EACD
330
1F
100
AcDbEntity
  8
AM_0
100
AcDbLine
 10
199.0000000000001
 20
1.0
 30
0.0
 11
199.0000000000001
 21
6.216117818585019
 31
0.0
  0
LINE
  5
EACE
330
1F
100
AcDbEntity
  8
AM_0
100
AcDbLine
 10
200.0000000000001
 20
2.0
 30
0.0
 11
199.0000000000001
 21
1.0
 31
0.0
  0
LINE
  5
EACF
330
1F
100
AcDbEntity
  8
AM_0
100
AcDbLine
 10
199.0000000000001
 20
11.78388218141484
 30
0.0
 11
199.0000000000001
 21
16.99999999999992
 31
0.0
  0
LINE
  5
EAD0
330
1F
100
AcDbEntity
  8
AM_0
100
AcDbLine
 10
200.0000000000001
 20
15.99999999999992
 30
0.0
 11
199.0000000000001
 21
16.99999999999992
 31
0.0
  0
LINE
  5
EB7E
330
1F
100
AcDbEntity
  8
AM_0
100
AcDbLine
 10
200.0000000000001
 20
-71.18482132315077
 30
0.0
 11
200.0000000000001
 21
-57.1848213231508
 31
0.0
  0
LINE
  5
EB7F
330
1F
100
AcDbEntity
  8
AM_0
100
AcDbLine
 10
199.0000000000001
 20
-71.68482132315086
 30
0.0
 11
199.0000000000001
 21
-56.6848213231508
 31
0.0
  0
LINE
  5
EB80
330
1F
100
AcDbEntity
  8
AM_0
100
AcDbLine
 10
200.0000000000001
 20
-71.18482132315077
 30
0.0
 11
199.5000000000001
 21
-71.6848213231508
 31
0.0
  0
SPLINE
  5
EB81
330
1F
100
AcDbEntity
  8
AM_0
100
AcDbSpline
210
0.0
220
0.0
230
1.0
 70
    28
 71
     2
 72
     6
 73
     3
 74
     0
 42
0.0000000001
 43
0.0000000001
 40
0.0
 40
0.0
 40
0.0
 40
2.828427124746073
 40
2.828427124746073
 40
2.828427124746073
 10
199.0000000000001
 20
-71.6848213231508
 30
0.0
 41
1.0
 10
199.5
 20
-71.68482132315077
 30
0.0
 41
1.033333333333335
 10
199.5000000000001
 20
-71.68482132315077
 30
0.0
 41
1.033333333333335
  0
LINE
  5
EB82
330
1F
100
AcDbEntity
  8
AM_0
100
AcDbLine
 10
200.0000000000001
 20
-57.1848213231508
 30
0.0
 11
199.5000000000001
 21
-56.6848213231508
 31
0.0
  0
SPLINE
  5
EB83
330
1F
100
AcDbEntity
  8
AM_0
100
AcDbSpline
210
0.0
220
0.0
230
1.0
 70
    28
 71
     2
 72
     6
 73
     3
 74
     0
 42
0.0000000001
 43
0.0000000001
 40
2.828427124746073
 40
2.828427124746073
 40
2.828427124746073
 40
5.656854249492205
 40
5.656854249492205
 40
5.656854249492205
 10
199.5000000000001
 20
-56.6848213231508
 30
0.0
 41
1.033333333333335
 10
199.5000000000002
 20
-56.68482132315077
 30
0.0
 41
1.033333333333336
 10
199.0000000000001
 20
-56.6848213231508
 30
0.0
 41
1.0
  0
LINE
  5
EF21
330
1F
100
AcDbEntity
  8
AM_7
100
AcDbLine
 10
208.6992076711691
 20
8.999999999999943
 30
0.0
 11
-2.16554845196606
 21
8.999999999999972
 31
0.0
1001
GENIUS_GENODEF_13
1002
{
1000
HIER
1070
     0
1002
}
1002
{
1000
MANEDIT
1070
     0
1002
}
1002
{
1000
NOSEL
1070
     0
1002
}
1002
{
1000
BEHIND
1070
     0
1002
}
1002
{
1000
REACTOR
1002
}
1001
GENIUS_GENOBJ-N-CEN_13
1002
{
1000
OWNER
1000
GEN
1002
}
  0
ARC
  5
EF22
330
1F
100
AcDbEntity
  8
AM_0
100
AcDbCircle
 10
101.2499999999998
 20
8.999999999999954
 30
0.0
 40
8.0
100
AcDbArc
 50
200.3641348063178
 51
339.6358651936822
  0
ARC
  5
EF34
330
1F
100
AcDbEntity
  8
AM_0
100
AcDbCircle
 10
101.2499999999998
 20
8.999999999999954
 30
0.0
 40
8.0
100
AcDbArc
 50
20.36413480631778
 51
159.6358651936822
  0
LINE
  5
EF46
330
1F
100
AcDbEntity
  8
AM_0
100
AcDbLine
 10
113.7499999999997
 20
16.99999999999993
 30
0.0
 11
199.0000000000001
 21
16.99999999999992
 31
0.0
  0
LINE
  5
EF47
330
1F
100
AcDbEntity
  8
AM_0
100
AcDbLine
 10
113.7499999999997
 20
11.78388218141485
 30
0.0
 11
199.0000000000001
 21
11.78388218141484
 31
0.0
  0
LINE
  5
EF49
330
1F
100
AcDbEntity
  8
AM_0
100
AcDbLine
 10
113.7499999999997
 20
1.000000000000014
 30
0.0
 11
199.0000000000001
 21
1.000000000000028
 31
0.0
  0
LINE
  5
EF4A
330
1F
100
AcDbEntity
  8
AM_0
100
AcDbLine
 10
108.7499999999997
 20
11.78388218141496
 30
0.0
 11
108.7499999999997
 21
6.216117818584976
 31
0.0
  0
LINE
  5
EF4B
330
1F
100
AcDbEntity
  8
AM_0
100
AcDbLine
 10
93.74999999999977
 20
11.78388218141497
 30
0.0
 11
93.74999999999977
 21
6.216117818584976
 31
0.0
  0
LINE
  5
EF61
330
1F
100
AcDbEntity
  8
AM_7
  6
AM_ISO08W050x2
100
AcDbLine
 10
101.2499999999998
 20
20.20813857451877
 30
0.0
 11
101.2499999999998
 21
-2.183904590500887
 31
0.0
1001
GENIUS_GENODEF_13
1002
{
1000
HIER
1070
     0
1002
}
1002
{
1000
MANEDIT
1070
     0
1002
}
1002
{
1000
NOSEL
1070
     0
1002
}
1002
{
1000
BEHIND
1070
     0
1002
}
1002
{
1000
REACTOR
1002
}
1001
GENIUS_GENOBJ-N-CEN_13
1002
{
1000
OWNER
1000
GEN
1002
}
  0
LINE
  5
EF96
330
1F
100
AcDbEntity
  8
AM_7
100
AcDbLine
 10
-1.773854710452724
 20
-64.18482132315072
 30
0.0
 11
208.6992076711691
 21
-64.18482132315074
 31
0.0
1001
GENIUS_GENODEF_13
1002
{
1000
HIER
1070
     0
1002
}
1002
{
1000
MANEDIT
1070
     0
1002
}
1002
{
1000
NOSEL
1070
     0
1002
}
1002
{
1000
BEHIND
1070
     0
1002
}
1002
{
1000
REACTOR
1002
}
1001
GENIUS_GENOBJ-N-CEN_13
1002
{
1000
OWNER
1000
GEN
1002
}
  0
LINE
  5
F020
330
1F
100
AcDbEntity
  8
AM_7
  6
AM_ISO08W050x2
100
AcDbLine
 10
-52.80951493623513
 20
21.59834088949032
 30
0.0
 11
-52.80951493623513
 21
-5.105140796584742
 31
0.0
1001
GENIUS_GENODEF_13
1002
{
1000
HIER
1070
     0
1002
}
1002
{
1000
MANEDIT
1070
     0
1002
}
1002
{
1000
NOSEL
1070
     0
1002
}
1002
{
1000
BEHIND
1070
     0
1002
}
1002
{
1000
REACTOR
1002
}
1001
GENIUS_GENOBJ-N-CEN_13
1002
{
1000
OWNER
1000
GEN
1002
}
  0
LINE
  5
F032
330
1F
100
AcDbEntity
  8
AM_7
  6
AM_ISO08W050x2
100
AcDbLine
 10
-65.85597619880525
 20
8.99990100899732
 30
0.0
 11
-39.32549342032542
 21
8.999901008997313
 31
0.0
1001
GENIUS_GENODEF_13
1002
{
1000
HIER
1070
     0
1002
}
1002
{
1000
MANEDIT
1070
     0
1002
}
1002
{
1000
NOSEL
1070
     0
1002
}
1002
{
1000
BEHIND
1070
     0
1002
}
1002
{
1000
REACTOR
1002
}
1001
GENIUS_GENOBJ-N-CEN_13
1002
{
1000
OWNER
1000
GEN
1002
}
  0
DIMENSION
  5
F478
330
1F
100
AcDbEntity
  8
AM_5
100
AcDbDimension
  2
*D3
 10
108.7499999999997
 20
-8.684448857539863
 30
0.0
 11
101.2499999999998
 21
-8.684448857539863
 31
0.0
 70
   160
  1
<>
 71
     5
 42
14.99999999999994
  3
AM_JIS$0
100
AcDbAlignedDimension
 13
93.74999999999977
 23
6.216117818584976
 33
0.0
 14
108.7499999999997
 24
6.216117818584976
 34
0.0
100
AcDbRotatedDimension
1001
GENIUS_GENDTOL_13
1000

1000
h7
1000

1040
0.0
1001
ACAD
1000
DSTYLE
1002
{
1070
   271
1070
     0
1002
}
  0
DIMENSION
  5
F6A3
330
1F
100
AcDbEntity
  8
AM_5
100
AcDbDimension
  2
*D4
 10
97.27153141809754
 20
2.05941013005252
 30
0.0
 11
119.4219021495493
 21
28.80121543814872
 31
0.0
 70
   163
  1
<>
 71
     5
 42
15.99999999999988
  3
AM_JIS$3
100
AcDbDiametricDimension
 15
105.2284685819018
 25
15.94058986994737
 35
0.0
 40
0.0
1001
GENIUS_GENDTOL_13
1000

1000
h7
1000

1040
0.0
1001
ACAD
1000
DSTYLE
1002
{
1070
   271
1070
     1
1070
   288
1070
     1
1070
   289
1070
     3
1070
   172
1070
     1
1070
    74
1070
     1
1002
}
  0
DIMENSION
  5
10C41
330
1F
100
AcDbEntity
  8
AM_5
100
AcDbDimension
  2
*D5
 10
-0.0000000000001152
 20
-88.24940993380599
 30
0.0
 11
8.99999999999983
 21
-84.84940993380599
 31
0.0
 70
    32
  1
<>
 71
     5
 42
17.99999999999989
  3
AM_JIS$0
100
AcDbAlignedDimension
 13
17.99999999999977
 23
-71.93482132315074
 33
0.0
 14
-0.0000000000001137
 24
-64.18482132315072
 34
0.0
100
AcDbRotatedDimension
1001
GENIUS_GENDTOL_13
1000

1000
h7
1000

1040
0.0
1001
ACAD
1000
DSTYLE
1002
{
1070
   271
1070
     0
1002
}
  0
TEXT
  5
17F7B
330
1F
100
AcDbEntity
  8
AM_0
100
AcDbText
 10
24.03736832085315
 20
-115.0030074326415
 30
0.0
 40
5.0
  1
XBPC-316R18
 41
0.8773874757958455
100
AcDbText
  0
LINE
  5
18390
330
1F
100
AcDbEntity
  8
AM_0
100
AcDbLine
 10
27.24999999999977
 20
-71.68482132315074
 30
0.0
 11
199.0000000000001
 21
-71.68482132315077
 31
0.0
  0
LINE
  5
18391
330
1F
100
AcDbEntity
  8
AM_0
100
AcDbLine
 10
30.00268129851111
 20
-56.68482132315072
 30
0.0
 11
199.0000000000001
 21
-56.68482132315077
 31
0.0
  0
LINE
  5
18392
330
1F
100
AcDbEntity
  8
AM_0
100
AcDbLine
 10
58.61903250530622
 20
16.99999999999996
 30
0.0
 11
88.74999999999977
 21
16.99999999999996
 31
0.0
  0
LINE
  5
18393
330
1F
100
AcDbEntity
  8
AM_0
100
AcDbLine
 10
27.24999999999977
 20
1.000000000000021
 30
0.0
 11
88.74999999999977
 21
1.000000000000014
 31
0.0
  0
LINE
  5
18394
330
1F
100
AcDbEntity
  8
AM_0
100
AcDbLine
 10
88.74999999999977
 20
11.78388218141497
 30
0.0
 11
27.24999999999977
 21
11.78388218141497
 31
0.0
  0
LINE
  5
18395
330
1F
100
AcDbEntity
  8
AM_0
100
AcDbLine
 10
30.00268129851111
 20
6.216117818585012
 30
0.0
 11
88.74999999999977
 21
6.216117818584976
 31
0.0
  0
LINE
  5
18396
330
1F
100
AcDbEntity
  8
AM_0
100
AcDbLine
 10
55.96005453150701
 20
15.78258523496841
 30
0.0
 11
27.24999999999977
 21
15.78258523496842
 31
0.0
  0
LINE
  5
18397
330
1F
100
AcDbEntity
  8
AM_0
100
AcDbLine
 10
27.24999999999977
 20
16.82447430096999
 30
0.0
 11
55.96005453150701
 21
16.82447430096999
 31
0.0
  0
ELLIPSE
  5
18398
330
1F
100
AcDbEntity
  8
AM_0
100
AcDbEllipse
 10
29.6185244110543
 20
-56.68482132315072
 30
0.0
 11
15.74074538151591
 21
5.732576575288356
 31
-5.002184811329024E-18
210
2.805727671384631E-19
220
1.021809853077550E-19
230
0.9999999999999999
 40
0.1125307278460176
 41
1.870481670193048
 42
3.505238229123916
  0
SPLINE
  5
18399
330
1F
100
AcDbEntity
  8
AM_0
100
AcDbSpline
210
0.0
220
0.0
230
1.0
 70
     8
 71
     3
 72
    32
 73
    28
 74
     0
 42
0.0000000001
 43
0.0000000001
 40
4.045618079636788
 40
4.045618079636788
 40
4.045618079636788
 40
4.045618079636788
 40
5.259382177050171
 40
5.259382177050171
 40
5.845378705947328
 40
5.845378705947328
 40
6.431375234844486
 40
6.431375234844486
 40
7.017371763741644
 40
7.017371763741644
 40
7.603368292638802
 40
7.603368292638802
 40
8.189364821535959
 40
8.189364821535959
 40
8.775361350433116
 40
8.775361350433116
 40
9.361357879330274
 40
9.361357879330274
 40
9.947354408227431
 40
9.947354408227431
 40
11.26219995248998
 40
11.26219995248998
 40
12.57704549675252
 40
12.57704549675252
 40
13.89189104101506
 40
13.89189104101506
 40
14.21346012528928
 40
14.21346012528928
 40
14.21346012528928
 40
14.21346012528928
 10
30.00268129851111
 20
-56.68482132315072
 30
0.0
 10
30.29881936988488
 20
-56.78504884577436
 30
0.0
 10
30.55804916234979
 20
-56.91110806124993
 30
0.0
 10
30.87508287700655
 20
-57.14372484982633
 30
0.0
 10
30.97243445181903
 20
-57.23025630848574
 30
0.0
 10
31.1441940610805
 20
-57.42427221202098
 30
0.0
 10
31.2185971279448
 20
-57.5317935823218
 30
0.0
 10
31.33787253013361
 20
-57.76414404647215
 30
0.0
 10
31.38280932448947
 20
-57.88912936678426
 30
0.0
 10
31.44152745225574
 20
-58.14956008411886
 30
0.0
 10
31.45530650066348
 20
-58.28501046986875
 30
0.0
 10
31.45530650066348
 20
-58.55590001881606
 30
0.0
 10
31.44152745225574
 20
-58.7018802464961
 30
0.0
 10
31.38280932448947
 20
-59.00663394730685
 30
0.0
 10
31.33787253013361
 20
-59.16540353289017
 30
0.0
 10
31.2185971279448
 20
-59.48557663547385
 30
0.0
 10
31.1441940610805
 20
-59.64714773086925
 30
0.0
 10
30.97243445181903
 20
-59.9624005469519
 30
0.0
 10
30.87508287700655
 20
-60.11606132148711
 30
0.0
 10
30.54024333522534
 20
-60.58481033994215
 30
0.0
 10
30.25528887158191
 20
-60.89732015801877
 30
0.0
 10
29.60058384587546
 20
-61.46499262216952
 30
0.0
 10
29.23073049575362
 20
-61.71995652988315
 30
0.0
 10
28.43531498269681
 20
-62.14455257733121
 30
0.0
 10
28.00901270310851
 20
-62.31440128745302
 30
0.0
 10
27.46528280094344
 20
-62.46343797077714
 30
0.0
 10
27.35781057662166
 20
-62.48976906549916
 30
0.0
 10
27.24999999999977
 20
-62.51311172256334
 30
0.0
  0
ELLIPSE
  5
1839A
330
1F
100
AcDbEntity
  8
AM_0
100
AcDbEllipse
 10
16.90785135381395
 20
-56.55562953696202
 30
0.0
 11
5.561346434751362
 21
2.247201167552449
 31
-1.123824561243139E-16
210
1.737142996785334E-17
220
7.019360898267957E-18
230
1.0
 40
0.3122174173171767
 41
4.596205825726358
 42
5.23978725294615
  0
LINE
  5
1839B
330
1F
100
AcDbEntity
  8
AM_0
100
AcDbLine
 10
8.715026151380812
 20
-71.93482132315074
 30
0.0
 11
17.99999999999966
 21
-71.93482132315074
 31
0.0
  0
LINE
  5
1839C
330
1F
100
AcDbEntity
  8
AM_0
100
AcDbLine
 10
9.558691776116802
 20
-64.96290829371762
 30
0.0
 11
8.713338312667929
 21
-68.03370075810912
 31
0.0
  0
LINE
  5
1839D
330
1F
100
AcDbEntity
  8
AM_0
100
AcDbLine
 10
9.558691776116802
 20
-64.96290829371762
 30
0.0
 11
0.433143166057107
 21
-64.22260195291901
 31
0.0
  0
LINE
  5
1839E
330
1F
100
AcDbEntity
  8
AM_0
100
AcDbLine
 10
0.8014021413591763
 20
-63.58536973258384
 30
0.0
 11
9.788440310026317
 21
-64.31443947135318
 31
0.0
  0
ELLIPSE
  5
1839F
330
1F
100
AcDbEntity
  8
AM_0
100
AcDbEllipse
 10
9.456055863899678
 20
-62.16669592261994
 30
0.0
 11
1.80592038938224
 21
0.8022272710700553
 31
-3.391451091094288E-17
210
1.568456026315996E-17
220
6.967406787047161E-18
230
0.9999999999999999
 40
0.2827422957937204
 41
5.566350903965558
 42
8.409416459992201
  0
ELLIPSE
  5
183A0
330
1F
100
AcDbEntity
  8
AM_0
100
AcDbEllipse
 10
10.34198158419167
 20
-64.18482132315072
 30
0.0
 11
2.280650459371374
 21
7.748636383516287
 31
1.037085362593838E-16
210
-3.625276141013583E-18
220
-1.231707668797884E-17
230
0.9999999999999999
 40
0.0637432403834637
 41
1.615528098952071
 42
1.902516278124911
  0
ELLIPSE
  5
183A1
330
1F
100
AcDbEntity
  8
AM_0
100
AcDbEllipse
 10
16.5479580245086
 20
-56.68482132315072
 30
0.0
 11
15.74074538151591
 21
5.732576575288356
 31
-5.002184811329024E-18
210
2.805727671384631E-19
220
1.021809853077550E-19
230
0.9999999999999999
 40
0.1125307278460176
 41
3.989971300206171
 42
4.6975909275114
  0
LINE
  5
183A2
330
1F
100
AcDbEntity
  8
AM_0
100
AcDbLine
 10
2.999999999999773
 20
-71.15693361503381
 30
0.0
 11
2.999999999999773
 21
-67.57020856046381
 31
0.0
  0
ELLIPSE
  5
183A3
330
1F
100
AcDbEntity
  8
AM_0
100
AcDbEllipse
 10
0.7955898831530703
 20
-64.18482132315072
 30
0.0
 11
0.8286288427547254
 21
-8.249641919302894
 31
1.165279957616610E-16
210
-1.404625237365189E-18
220
1.398413214842511E-17
230
1.0
 40
0.0927614798988879
 41
5.098026217765195
 42
6.243560552385046
  0
LINE
  5
183A4
330
1F
100
AcDbEntity
  8
AM_0
100
AcDbLine
 10
8.715026151380698
 20
-71.93482132315074
 30
0.0
 11
8.715026151380698
 21
-68.03249939087885
 31
0.0
  0
LINE
  5
183A5
330
1F
100
AcDbEntity
  8
AM_0
100
AcDbLine
 10
8.715026151380812
 20
-71.93482132315074
 30
0.0
 11
3.173341932411745
 21
-72.41965586915103
 31
0.0
  0
SPLINE
  5
183A6
330
1F
100
AcDbEntity
  8
AM_0
100
AcDbSpline
210
0.0
220
0.0
230
1.0
 70
     8
 71
     3
 72
    55
 73
    51
 74
     0
 42
0.0000000001
 43
0.0000000001
 40
-8.512011633524866
 40
-8.512011633524866
 40
-8.512011633524866
 40
-8.512011633524866
 40
-8.09709962471325
 40
-8.09709962471325
 40
-7.236111331539604
 40
-7.236111331539604
 40
-6.805617184952781
 40
-6.805617184952781
 40
-6.375123038365958
 40
-6.375123038365958
 40
-6.009233716397313
 40
-6.009233716397313
 40
-5.643344394428668
 40
-5.643344394428668
 40
-5.277455072460024
 40
-5.277455072460024
 40
-4.911565750491379
 40
-4.911565750491379
 40
-4.027212738695109
 40
-4.027212738695109
 40
-3.585036232796975
 40
-3.585036232796975
 40
-3.142859726898839
 40
-3.142859726898839
 40
-2.733967519032303
 40
-2.733967519032303
 40
-2.325075311165767
 40
-2.325075311165767
 40
-1.916183103299231
 40
-1.916183103299231
 40
-1.507290895432696
 40
-1.507290895432696
 40
-1.130468171574522
 40
-1.130468171574522
 40
-0.7536454477163481
 40
-0.7536454477163481
 40
-0.3768227238581741
 40
-0.3768227238581741
 40
0.0
 40
0.0
 40
0.0
 40
0.3849237401817758
 40
0.3849237401817758
 40
0.7698474803635517
 40
0.7698474803635517
 40
1.154771220545328
 40
1.154771220545328
 40
1.539694960727103
 40
1.539694960727103
 40
1.557940388373984
 40
1.557940388373984
 40
1.557940388373984
 40
1.557940388373984
 10
2.999999999999773
 20
-71.15693361503381
 30
0.0
 10
3.080035213609108
 20
-71.08607462095989
 30
0.0
 10
3.167100969037392
 20
-71.01652020058074
 30
0.0
 10
3.446559749032076
 20
-70.81454113049384
 30
0.0
 10
3.682036659336518
 20
-70.67329654116253
 30
0.0
 10
4.075597603619826
 20
-70.5083806254529
 30
0.0
 10
4.213501206522892
 20
-70.46121293032189
 30
0.0
 10
4.495498102526767
 20
-70.39039500978504
 30
0.0
 10
4.639614148530654
 20
-70.36681938177895
 30
0.0
 10
4.904065144871652
 20
-70.3491756818635
 30
0.0
 10
5.027897374754843
 20
-70.35110724958554
 30
0.0
 10
5.269638879555714
 20
-70.37655309914388
 30
0.0
 10
5.387555613041286
 20
-70.40002724404243
 30
0.0
 10
5.608828896437672
 20
-70.46418055659652
 30
0.0
 10
5.712534066792614
 20
-70.50486754872077
 30
0.0
 10
5.900509930824569
 20
-70.59605963807107
 30
0.0
 10
5.984804700626
 20
-70.64651172316152
 30
0.0
 10
6.235054625387875
 20
-70.82092248640035
 30
0.0
 10
6.374822445381142
 20
-70.96721402498878
 30
0.0
 10
6.502102292739664
 20
-71.18032338637394
 30
0.0
 10
6.531110729890997
 20
-71.2504389076783
 30
0.0
 10
6.561494293849137
 20
-71.38363071301416
 30
0.0
 10
6.562832240120656
 20
-71.44671088582359
 30
0.0
 10
6.541469617111034
 20
-71.5579867377036
 30
0.0
 10
6.519821092656457
 20
-71.61076718381068
 30
0.0
 10
6.450633859273694
 20
-71.71073964395646
 30
0.0
 10
6.403085855644463
 20
-71.75794186280203
 30
0.0
 10
6.283051882733616
 20
-71.84457558219086
 30
0.0
 10
6.210464319858374
 20
-71.88409653159761
 30
0.0
 10
6.045035981563729
 20
-71.95502630981991
 30
0.0
 10
5.952185312095708
 20
-71.98646950283651
 30
0.0
 10
5.762808558821462
 20
-72.03972979231907
 30
0.0
 10
5.660974814635779
 20
-72.06381336838621
 30
0.0
 10
5.440359659194087
 20
-72.10816391657687
 30
0.0
 10
5.321584974634106
 20
-72.12846359733902
 30
0.0
 10
5.074551418546889
 20
-72.16523697386037
 30
0.0
 10
4.946111236566935
 20
-72.18175972052984
 30
0.0
 10
4.688244847497799
 20
-72.21107985245578
 30
0.0
 10
4.558817781800599
 20
-72.22388172012379
 30
0.0
 10
4.433688181924481
 20
-72.23472853944892
 30
0.0
 10
4.305868518878242
 20
-72.2458085460392
 30
0.0
 10
4.173725961302353
 20
-72.25561270040754
 30
0.0
 10
3.911526951354745
 20
-72.27094309990994
 30
0.0
 10
3.781467997978098
 20
-72.27646619307117
 30
0.0
 10
3.5332071687385
 20
-72.28139817664189
 30
0.0
 10
3.414780935538602
 20
-72.28078833844421
 30
0.0
 10
3.197489801024176
 20
-72.27185588180473
 30
0.0
 10
3.098634862765152
 20
-72.26349389487493
 30
0.0
 10
3.008140010477518
 20
-72.25050983301921
 30
0.0
 10
3.004061391871687
 20
-72.24991179477263
 30
0.0
 10
2.999999999999773
 20
-72.24930319554218
 30
0.0
  0
SPLINE
  5
183A7
330
1F
100
AcDbEntity
  8
AM_0
100
AcDbSpline
210
0.0
220
0.0
230
1.0
 70
     8
 71
     3
 72
    20
 73
    16
 74
     0
 42
0.0000000001
 43
0.0000000001
 40
1.589061183164045
 40
1.589061183164045
 40
1.589061183164045
 40
1.589061183164045
 40
1.900117996457201
 40
1.900117996457201
 40
2.300865455986472
 40
2.300865455986472
 40
2.701612915515743
 40
2.701612915515743
 40
3.102360375045014
 40
3.102360375045014
 40
3.55893946929618
 40
3.55893946929618
 40
4.015518563547346
 40
4.015518563547346
 40
4.56806973375094
 40
4.56806973375094
 40
4.56806973375094
 40
4.56806973375094
 10
2.999999999999773
 20
-72.24930319554218
 30
0.0
 10
2.931145419952145
 20
-72.23259525687851
 30
0.0
 10
2.867514914211938
 20
-72.21322770779059
 30
0.0
 10
2.738270761269632
 20
-72.16229945121637
 30
0.0
 10
2.677437171441966
 20
-72.12877844109093
 30
0.0
 10
2.583683494670822
 20
-72.05253742773147
 30
0.0
 10
2.550657941763916
 20
-72.00972179861219
 30
0.0
 10
2.511816492961884
 20
-71.91725152611022
 30
0.0
 10
2.505984434455968
 20
-71.86759238502387
 30
0.0
 10
2.517056145046809
 20
-71.75915901019104
 30
0.0
 10
2.537626728970736
 20
-71.69576653857143
 30
0.0
 10
2.608107091710963
 20
-71.56138905411339
 30
0.0
 10
2.657978803175524
 20
-71.49040812437934
 30
0.0
 10
2.796642878234138
 20
-71.33103290951061
 30
0.0
 10
2.891545944772588
 20
-71.24201370705291
 30
0.0
 10
2.999999999999773
 20
-71.15693361503381
 30
0.0
  0
LINE
  5
183A8
330
1F
100
AcDbEntity
  8
AM_0
100
AcDbLine
 10
2.999999999999773
 20
-72.43103257438605
 30
0.0
 11
2.999999999999773
 21
-72.24930319554218
 31
0.0
  0
LINE
  5
183A9
330
1F
100
AcDbEntity
  8
AM_0
100
AcDbLine
 10
1.593253417916117
 20
-72.43103257438605
 30
0.0
 11
2.999999999999773
 21
-72.43103257438605
 31
0.0
  0
SPLINE
  5
183AA
330
1F
100
AcDbEntity
  8
AM_0
100
AcDbSpline
210
0.0
220
0.0
230
1.0
 70
     8
 71
     3
 72
     8
 73
     4
 74
     0
 42
0.0000000001
 43
0.0000000001
 40
1.721832210918845
 40
1.721832210918845
 40
1.721832210918845
 40
1.721832210918845
 40
2.012104147338245
 40
2.012104147338245
 40
2.012104147338245
 40
2.012104147338245
 10
2.999999999999773
 20
-72.43103257438605
 30
0.0
 10
3.057628694591813
 20
-72.42851048740181
 30
0.0
 10
3.115422386262139
 20
-72.42472306030095
 30
0.0
 10
3.173341932411631
 20
-72.41965586915103
 30
0.0
  0
LINE
  5
183AB
330
1F
100
AcDbEntity
  8
AM_0
100
AcDbLine
 10
0.3605172818550955
 20
-67.35608162123336
 30
0.0
 11
8.713338312668157
 21
-68.03370075810915
 31
0.0
  0
ELLIPSE
  5
183AC
330
1F
100
AcDbEntity
  8
AM_0
100
AcDbEllipse
 10
-0.1579006199983724
 20
-48.29077371411225
 30
0.0
 11
14.88986657800411
 21
-7.886068307087996
 31
5.840982547657804E-18
210
-3.063473132350990E-19
220
1.622496632329601E-19
230
1.0
 40
0.880450676547112
 41
5.207078515854525
 42
5.690196876188604
  0
ELLIPSE
  5
183AD
330
1F
100
AcDbEntity
  8
AM_0
100
AcDbEllipse
 10
-0.5598441650824952
 20
-48.20694825138682
 30
0.0
 11
0.004880966302839489
 21
-15.08159127406861
 31
2.104867593237608E-18
210
-4.516855654633687E-23
220
1.395653372725018E-19
230
1.0
 40
0.8613405286120368
 41
0.1253601585870013
 42
0.356287659364406
  0
ELLIPSE
  5
183AE
330
1F
100
AcDbEntity
  8
AM_0
100
AcDbEllipse
 10
-0.5150804394405668
 20
-48.21628374155986
 30
0.0
 11
1.004353544016228
 21
-15.51837841299156
 31
-2.792332075691396E-16
210
1.159700035230124E-18
220
-1.791865434187178E-17
230
1.0
 40
0.1533565045587275
 41
0.1349302404380428
 42
0.260923568909234
  0
LINE
  5
183AF
330
1F
100
AcDbEntity
  8
AM_0
100
AcDbLine
 10
0.2191994686431826
 20
-66.23677614956728
 30
0.0
 11
0.0000110597762841
 21
-64.15722024501139
 31
0.0
  0
LINE
  5
183B0
330
1F
100
AcDbEntity
  8
AM_0
100
AcDbLine
 10
0.2191994686382941
 20
-66.23677614959053
 30
0.0
 11
0.3605172818549818
 21
-67.35608162123336
 31
0.0
  0
ELLIPSE
  5
183B1
330
1F
100
AcDbEntity
  8
AM_0
100
AcDbEllipse
 10
0.3984790923243509
 20
-64.1917748489855
 30
0.0
 11
-0.3984716947152832
 21
0.03493291443224124
 31
2.194970007552955E-17
210
5.466458867242771E-17
220
-4.792293715948951E-18
230
1.0
 40
0.0695066915419304
 41
6.201846805389584
 42
7.947176057384034
  0
LINE
  5
183B2
330
1F
100
AcDbEntity
  8
AM_0
100
AcDbLine
 10
0.0015220838046162
 20
-64.15470712365116
 30
0.0
 11
0.8014021413591763
 21
-63.58536973258384
 31
0.0
  0
LINE
  5
183B3
330
1F
100
AcDbEntity
  8
AM_0
100
AcDbLine
 10
0.8014021413589489
 20
-63.58536973258383
 30
0.0
 11
0.8002837250259063
 21
-63.57289172201406
 31
0.0
  0
LINE
  5
183B4
330
1F
100
AcDbEntity
  8
AM_0
100
AcDbLine
 10
7.698155970785706
 20
-64.14486602250807
 30
0.0
 11
8.169367735464334
 21
-62.59061060768164
 31
0.0
  0
ELLIPSE
  5
183B5
330
1F
100
AcDbEntity
  8
AM_0
100
AcDbEllipse
 10
5.180046958737989
 20
-64.27413901315072
 30
0.0
 11
-1.992358473576414
 21
0.1746645721612204
 31
3.176272533450878E-17
210
1.582068374102220E-17
220
-1.386955707806584E-18
230
1.0
 40
0.0695066915419304
 41
0.9004323412083981
 42
7.183617648387981
  0
LINE
  5
183B6
330
1F
100
AcDbEntity
  8
AM_0
100
AcDbLine
 10
8.713338312667929
 20
-68.03370075810915
 30
0.0
 11
9.060486009920851
 21
-67.78660850671176
 31
0.0
  0
ELLIPSE
  5
183B7
330
1F
100
AcDbEntity
  8
AM_0
100
AcDbEllipse
 10
-29.41949379874825
 20
-64.18482132315072
 30
0.0
 11
88.61841560082385
 21
-7.731397586150145
 31
2.768936982235353E-17
210
-3.100958769407495E-19
220
2.705390858322382E-20
230
1.0
 40
0.0060557195205533
 41
5.158281045250254
 42
5.16194353417716
  0
ELLIPSE
  5
183B8
330
1F
100
AcDbEntity
  8
AM_0
100
AcDbEllipse
 10
9.957279928855769
 20
-64.18482132315072
 30
0.0
 11
0.7284888624032292
 21
7.749775563470484
 31
1.024455614993211E-16
210
-1.231734589171166E-18
220
-1.310338031572594E-17
230
1.0
 40
0.0809629941463692
 41
1.891367456378835
 42
2.097261753503696
  0
SPLINE
  5
183B9
330
1F
100
AcDbEntity
  8
AM_0
100
AcDbSpline
210
0.0
220
0.0
230
1.0
 70
     8
 71
     3
 72
    10
 73
     6
 74
     0
 42
0.0000000001
 43
0.0000000001
 40
2.90662917786273
 40
2.90662917786273
 40
2.90662917786273
 40
2.90662917786273
 40
4.966935907987606
 40
4.966935907987606
 40
5.598433222928954
 40
5.598433222928954
 40
5.598433222928954
 40
5.598433222928954
 10
6.624124683551486
 20
-61.80406204971624
 30
0.0
 10
5.961096530904911
 20
-61.97364429185743
 30
0.0
 10
5.283327022491903
 20
-62.1181264989319
 30
0.0
 10
4.393700670960584
 20
-62.27388874489661
 30
0.0
 10
4.184698954607939
 20
-62.30807078019933
 30
0.0
 10
3.975743657391945
 20
-62.33992104018884
 30
0.0
  0
ELLIPSE
  5
183BA
330
1F
100
AcDbEntity
  8
AM_0
100
AcDbEllipse
 10
8.801049896915629
 20
-69.63819785581819
 30
0.0
 11
0.6287602950602377
 21
9.082044916463142
 31
8.898640741915519E-17
210
-6.750950327550487E-19
220
-9.751320906443552E-18
230
1.0
 40
0.1913847435778546
 41
0.6161641924266434
 42
0.6958681928839074
  0
SPLINE
  5
183BB
330
1F
100
AcDbEntity
  8
AM_0
100
AcDbSpline
210
0.0
220
0.0
230
1.0
 70
     8
 71
     3
 72
     8
 73
     4
 74
     0
 42
0.0000000001
 43
0.0000000001
 40
2.458545055531939
 40
2.458545055531939
 40
2.458545055531939
 40
2.458545055531939
 40
2.460392082474136
 40
2.460392082474136
 40
2.460392082474136
 40
2.460392082474136
 10
8.309680805144581
 20
-62.15678732066178
 30
0.0
 10
8.310135561345305
 20
-62.15648153395159
 30
0.0
 10
8.310590439591806
 20
-62.15617574224453
 30
0.0
 10
8.311045439367604
 20
-62.15586994579226
 30
0.0
  0
LINE
  5
183BC
330
1F
100
AcDbEntity
  8
AM_0
100
AcDbLine
 10
25.96005452730219
 20
-62.67255277258437
 30
0.0
 11
15.13657198893748
 21
-62.67255277258437
 31
0.0
  0
LINE
  5
183BD
330
1F
100
AcDbEntity
  8
AM_0
100
AcDbLine
 10
17.99999999999966
 20
-71.68482132315074
 30
0.0
 11
26.99999999999977
 21
-71.68482132315074
 31
0.0
  0
LINE
  5
183BE
330
1F
100
AcDbEntity
  8
AM_0
100
AcDbLine
 10
17.99999999999977
 20
-71.68482132315074
 30
0.0
 11
17.99999999999977
 21
-71.93482132315074
 31
0.0
  0
ELLIPSE
  5
183BF
330
1F
100
AcDbEntity
  8
AM_0
100
AcDbEllipse
 10
12.81741198472298
 20
-50.99677956095303
 30
0.0
 11
-4.127488581185261
 21
-14.46138536298178
 31
-2.744964393041901E-17
210
-5.009469851635759E-19
220
-1.755156254555662E-18
230
1.0
 40
0.117119499480969
 41
0.4222558247907062
 42
0.6691284756163294
  0
ELLIPSE
  5
183C0
330
1F
100
AcDbEntity
  8
AM_0
100
AcDbEllipse
 10
4.726264881381894
 20
-64.18482132315072
 30
0.0
 11
-20.33179611779146
 21
-7.40457807641415
 31
-1.969090195334921E-16
210
-8.550685632004966E-18
220
-3.114049491852321E-18
230
1.0
 40
0.1125307278460177
 41
1.987205897090773
 42
2.066873120352801
  0
SPLINE
  5
183C1
330
1F
100
AcDbEntity
  8
AM_0
100
AcDbSpline
210
0.0
220
0.0
230
1.0
 70
     8
 71
     3
 72
    10
 73
     6
 74
     0
 42
0.0000000001
 43
0.0000000001
 40
35.27909651399533
 40
35.27909651399533
 40
35.27909651399533
 40
35.27909651399533
 40
37.51511733242877
 40
37.51511733242877
 40
39.14284444435268
 40
39.14284444435268
 40
39.14284444435268
 40
39.14284444435268
 10
13.71209815290195
 20
-63.28226132202786
 30
0.0
 10
12.99290505328247
 20
-63.58547170516206
 30
0.0
 10
12.23406820134971
 20
-63.83661646566929
 30
0.0
 10
10.89368854846327
 20
-64.17976950828222
 30
0.0
 10
10.32002156247222
 20
-64.29649781539149
 30
0.0
 10
9.746568944943192
 20
-64.38608535043994
 30
0.0
  0
LINE
  5
183C2
330
1F
100
AcDbEntity
  8
AM_0
100
AcDbLine
 10
9.585540891328265
 20
-64.9437976719905
 30
0.0
 11
9.558691776116802
 21
-64.96290829371762
 31
0.0
  0
LINE
  5
183C3
330
1F
100
AcDbEntity
  8
AM_0
100
AcDbLine
 10
10.96654335373387
 20
-61.89737692815183
 30
0.0
 11
10.63057732679317
 21
-62.63960910803957
 31
0.0
  0
LINE
  5
183C4
330
1F
100
AcDbEntity
  8
AM_0
100
AcDbLine
 10
27.24999999999977
 20
-71.6848213231508
 30
0.0
 11
27.24999999999977
 21
-62.51311172256334
 31
0.0
  0
LINE
  5
183C5
330
1F
100
AcDbEntity
  8
AM_0
100
AcDbLine
 10
26.99999999999977
 20
-71.68482132315077
 30
0.0
 11
26.99999999999977
 21
-62.58272215029487
 31
0.0
  0
SPLINE
  5
183C6
330
1F
100
AcDbEntity
  8
AM_0
100
AcDbSpline
210
0.0
220
0.0
230
1.0
 70
    28
 71
     2
 72
     6
 73
     3
 74
     0
 42
0.0000000001
 43
0.0000000001
 40
0.0
 40
0.0
 40
0.0
 40
0.8683077351808841
 40
0.8683077351808841
 40
0.8683077351808841
 10
26.99999999999977
 20
-71.68482132315074
 30
0.0
 41
1.0
 10
27.10306055405002
 20
-71.6848213231508
 30
0.0
 41
1.001395898062718
 10
27.24999999999977
 20
-71.68482132315074
 30
0.0
 41
1.0
  0
SPLINE
  5
183C7
330
1F
100
AcDbEntity
  8
AM_0
100
AcDbSpline
210
0.0
220
0.0
230
1.0
 70
     8
 71
     3
 72
     8
 73
     4
 74
     0
 42
0.0000000001
 43
0.0000000001
 40
1.349977110272202
 40
1.349977110272202
 40
1.349977110272202
 40
1.349977110272202
 40
1.687186803935218
 40
1.687186803935218
 40
1.687186803935218
 40
1.687186803935218
 10
27.24999999999977
 20
-62.51311172256334
 30
0.0
 10
27.16513255068651
 20
-62.54031213478592
 30
0.0
 10
27.08139151888224
 20
-62.56347327959594
 30
0.0
 10
26.99999999999977
 20
-62.58272215029487
 30
0.0
  0
SPLINE
  5
183C8
330
1F
100
AcDbEntity
  8
AM_0
100
AcDbSpline
210
0.0
220
0.0
230
1.0
 70
     8
 71
     3
 72
    10
 73
     6
 74
     0
 42
0.0000000001
 43
0.0000000001
 40
0.9770413229207811
 40
0.9770413229207811
 40
0.9770413229207811
 40
0.9770413229207811
 40
0.9806912142757285
 40
0.9806912142757285
 40
1.961382428551457
 40
1.961382428551457
 40
1.961382428551457
 40
1.961382428551457
 10
26.99999999999977
 20
-62.58272215029487
 30
0.0
 10
26.99869170254704
 20
-62.58294985737541
 30
0.0
 10
26.99738332480285
 20
-62.58317713578842
 30
0.0
 10
26.64450507737331
 20
-62.64435627574366
 30
0.0
 10
26.28695159872746
 20
-62.67255277258437
 30
0.0
 10
25.96005452730219
 20
-62.67255277258437
 30
0.0
  0
LINE
  5
183C9
330
1F
100
AcDbEntity
  8
AM_0
100
AcDbLine
 10
-55.98077523431778
 20
0.8607479673226877
 30
0.0
 11
-56.55693473260476
 21
1.650115646840284
 31
0.0
  0
ARC
  5
183CA
330
1F
100
AcDbEntity
  8
AM_0
100
AcDbCircle
 10
-52.80951493623513
 20
8.999901008997284
 30
0.0
 40
8.25000000000003
100
AcDbArc
 50
181.7365015759405
 51
247.6324553579354
  0
ARC
  5
183CB
330
1F
100
AcDbEntity
  8
AM_0
100
AcDbCircle
 10
-52.80951493623513
 20
8.999901008997284
 30
0.0
 40
7.999999999999996
100
AcDbArc
 50
102.0243128370406
 51
151.5388669134967
  0
LINE
  5
183CC
330
1F
100
AcDbEntity
  8
AM_0
100
AcDbLine
 10
-51.79435771379701
 20
12.99933654907142
 30
0.0
 11
-59.40071523425888
 21
13.46161226937224
 31
0.0
  0
ARC
  5
183CD
330
1F
100
AcDbEntity
  8
AM_0
100
AcDbCircle
 10
-52.80951493623513
 20
8.499901008997313
 30
0.0
 40
8.25
100
AcDbArc
 50
90.0
 51
143.0283670153229
  0
ARC
  5
183CE
330
1F
100
AcDbEntity
  8
AM_0
100
AcDbCircle
 10
-52.80951493623513
 20
8.499901008997313
 30
0.0
 40
8.25
100
AcDbArc
 50
143.0283670153229
 51
178.2634984240653
  0
LINE
  5
183CF
330
1F
100
AcDbEntity
  8
AM_0
100
AcDbLine
 10
-55.45964784385137
 20
9.229241411674256
 30
0.0
 11
-55.98077523431778
 21
0.8607479673226877
 31
0.0
  0
LINE
  5
183D0
330
1F
100
AcDbEntity
  8
AM_0
100
AcDbLine
 10
-52.77940073673562
 20
0.4313471317690869
 30
0.0
 11
-52.21006334566823
 21
9.574018025552707
 31
0.0
  0
LINE
  5
183D1
330
1F
100
AcDbEntity
  8
AM_0
100
AcDbLine
 10
-55.95661417715542
 20
1.24873687784774
 30
0.0
 11
-55.4413163082437
 21
9.523617294354725
 31
0.0
  0
LINE
  5
183D2
330
1F
100
AcDbEntity
  8
AM_0
100
AcDbLine
 10
-50.52207054123619
 20
8.339474779711797
 30
0.0
 11
-51.26430272112407
 21
6.628498533515373
 31
0.0
  0
ARC
  5
183D3
330
1F
100
AcDbEntity
  8
AM_0
100
AcDbCircle
 10
-45.30951493623513
 20
1.782378248024116
 30
0.0
 40
6.0
100
AcDbArc
 50
90.0
 51
183.6646513580679
  0
LINE
  5
183D4
330
1F
100
AcDbEntity
  8
AM_0
100
AcDbLine
 10
-45.30951493623513
 20
7.782378248024092
 30
0.0
 11
-45.30951493623513
 21
6.216018827582303
 31
0.0
  0
SPLINE
  5
183D5
330
1F
100
AcDbEntity
  8
AM_0
100
AcDbSpline
210
0.0
220
0.0
230
1.0
 70
     8
 71
     3
 72
    32
 73
    28
 74
     0
 42
0.0000000001
 43
0.0000000001
 40
4.045618079636788
 40
4.045618079636788
 40
4.045618079636788
 40
4.045618079636788
 40
5.259382177050171
 40
5.259382177050171
 40
5.845378705947328
 40
5.845378705947328
 40
6.431375234844486
 40
6.431375234844486
 40
7.017371763741644
 40
7.017371763741644
 40
7.603368292638802
 40
7.603368292638802
 40
8.189364821535959
 40
8.189364821535959
 40
8.775361350433116
 40
8.775361350433116
 40
9.361357879330274
 40
9.361357879330274
 40
9.947354408227431
 40
9.947354408227431
 40
11.26219995248998
 40
11.26219995248998
 40
12.57704549675252
 40
12.57704549675252
 40
13.89189104101506
 40
13.89189104101506
 40
14.21346012528928
 40
14.21346012528928
 40
14.21346012528928
 40
14.21346012528928
 10
-45.30951493623513
 20
6.216018827582332
 30
0.0
 10
-45.40974245885877
 20
5.945997910499074
 30
0.0
 10
-45.53580167433438
 20
5.651606998596094
 30
0.0
 10
-45.76841846291075
 20
5.198524985783621
 30
0.0
 10
-45.8549499215701
 20
5.04142809241182
 30
0.0
 10
-46.04896582510537
 20
4.718492584421085
 30
0.0
 10
-46.15648719540627
 20
4.552673513431301
 30
0.0
 10
-46.38883765955666
 20
4.223342019869421
 30
0.0
 10
-46.51382297986868
 20
4.059655896191146
 30
0.0
 10
-46.77425369720322
 20
3.744676868606007
 30
0.0
 10
-46.90970408295311
 20
3.593387663541336
 30
0.0
 10
-47.18059363190048
 20
3.311896120751811
 30
0.0
 10
-47.32657385958055
 20
3.170740165527178
 30
0.0
 10
-47.63132756039136
 20
2.89841475688516
 30
0.0
 10
-47.79009714597464
 20
2.767240460347921
 30
0.0
 10
-48.11027024855821
 20
2.522423885695503
 30
0.0
 10
-48.27184134395361
 20
2.408618830851651
 30
0.0
 10
-48.58709416003626
 20
2.20235401296506
 30
0.0
 10
-48.74075493457156
 20
2.10985810162822
 30
0.0
 10
-49.20950395302657
 20
1.845995313693805
 30
0.0
 10
-49.52201377110316
 20
1.700166789432927
 30
0.0
 10
-50.08968623525391
 20
1.470205439129387
 30
0.0
 10
-50.34465014296757
 20
1.385874753171436
 30
0.0
 10
-50.76924619041563
 20
1.261280203317512
 30
0.0
 10
-50.93909490053738
 20
1.220660032116655
 30
0.0
 10
-51.08813158386158
 20
1.18723563712075
 30
0.0
 10
-51.11446267858355
 20
1.181501709751302
 30
0.0
 10
-51.13780533564773
 20
1.176513826241774
 30
0.0
  0
ARC
  5
183D6
330
1F
100
AcDbEntity
  8
AM_0
100
AcDbCircle
 10
-52.80951493623513
 20
8.999901008997284
 30
0.0
 40
7.999999999999996
100
AcDbArc
 50
270.4693738037799
 51
282.0616293422783
  0
SPLINE
  5
183D7
330
1F
100
AcDbEntity
  8
AM_0
100
AcDbSpline
210
0.0
220
0.0
230
1.0
 70
     8
 71
     3
 72
    10
 73
     6
 74
     0
 42
0.0000000001
 43
0.0000000001
 40
35.27909651399533
 40
35.27909651399533
 40
35.27909651399533
 40
35.27909651399533
 40
37.51511733242877
 40
37.51511733242877
 40
37.78052272316024
 40
37.78052272316024
 40
37.78052272316024
 40
37.78052272316024
 10
-51.90695493511225
 20
1.302636206200589
 30
0.0
 10
-52.21016531824648
 20
1.267082594527722
 30
0.0
 10
-52.46131007875374
 20
1.255179682637959
 30
0.0
 10
-52.68347053798107
 20
1.250890213816462
 30
0.0
 10
-52.70630207433442
 20
1.250552728420615
 30
0.0
 10
-52.7284009488651
 20
1.250324215426048
 30
0.0
  0
LINE
  5
183D8
330
1F
100
AcDbEntity
  8
AM_0
100
AcDbLine
 10
-54.86146976302962
 20
0.5419585668799414
 30
0.0
 11
-52.84496417636046
 21
0.0
 31
0.0
  0
LINE
  5
183D9
330
1F
100
AcDbEntity
  8
AM_0
100
AcDbLine
 10
-54.86146976267492
 20
0.5419585667789022
 30
0.0
 11
-55.98077523431778
 21
0.8607479673226877
 31
0.0
  0
ELLIPSE
  5
183DA
330
1F
100
AcDbEntity
  8
AM_0
100
AcDbEllipse
 10
-52.81646846206991
 20
0.3989261952363847
 30
0.0
 11
0.02790879336188573
 21
0.3990251862390186
 31
2.192532217119081E-17
210
-3.824433036678341E-18
220
-5.467972351693688E-17
230
1.0
 40
0.0871210716637073
 41
3.124592578165334
 42
4.799820866696913
  0
SPLINE
  5
183DB
330
1F
100
AcDbEntity
  8
AM_0
100
AcDbSpline
210
0.0
220
0.0
230
1.0
 70
     8
 71
     3
 72
     8
 73
     4
 74
     0
 42
0.0000000001
 43
0.0000000001
 40
1.349977110272202
 40
1.349977110272202
 40
1.349977110272202
 40
1.349977110272202
 40
1.687186803935218
 40
1.687186803935218
 40
1.687186803935218
 40
1.687186803935218
 10
-51.13780533564773
 20
1.176513826241774
 30
0.0
 10
-51.16500574787028
 20
1.257484943924652
 30
0.0
 10
-51.18816689268033
 20
1.338182547790183
 30
0.0
 10
-51.20741576337923
 20
1.417303944644317
 30
0.0
  0
ARC
  5
183DC
330
1F
100
AcDbEntity
  8
AM_0
100
AcDbCircle
 10
-52.80951493623513
 20
8.999901008997284
 30
0.0
 40
7.750000000000027
100
AcDbArc
 50
276.6878055681656
 51
281.2524012266079
  0
SPLINE
  5
183DD
330
1F
100
AcDbEntity
  8
AM_0
100
AcDbSpline
210
0.0
220
0.0
230
1.0
 70
     8
 71
     3
 72
    10
 73
     6
 74
     0
 42
0.0000000001
 43
0.0000000001
 40
0.9770413229207811
 40
0.9770413229207811
 40
0.9770413229207811
 40
0.9770413229207811
 40
0.9806912142757285
 40
0.9806912142757285
 40
1.961382428551457
 40
1.961382428551457
 40
1.961382428551457
 40
1.961382428551457
 10
-51.20741576337923
 20
1.417303944644317
 30
0.0
 10
-51.20764347045986
 20
1.417255833248959
 30
0.0
 10
-51.20787074887289
 20
1.417207823131406
 30
0.0
 10
-51.26904988882802
 20
1.404287255711068
 30
0.0
 10
-51.29724638566881
 20
1.398878457329147
 30
0.0
 10
-51.29724638566881
 20
1.398878457329147
 30
0.0
  0
ELLIPSE
  5
183DE
330
1F
100
AcDbEntity
  8
AM_0
100
AcDbEllipse
 10
-39.62147317403742
 20
-11.06141543685729
 30
0.0
 11
-1.906990375288947
 21
26.53458580992865
 31
4.302581068690438E-17
210
1.159352675951530E-19
220
-1.613167190702005E-18
230
1.0
 40
0.5405491255248209
 41
0.802904318787056
 42
0.9881007053717786
  0
ARC
  5
183DF
330
1F
100
AcDbEntity
  8
AM_0
100
AcDbCircle
 10
-52.80951493623513
 20
8.999901008997284
 30
0.0
 40
7.999999999999996
100
AcDbArc
 50
20.36413480631802
 51
57.97568716295801
  0
SPLINE
  5
183E0
330
1F
100
AcDbEntity
  8
AM_0
100
AcDbSpline
210
0.0
220
0.0
230
1.0
 70
     8
 71
     3
 72
    34
 73
    30
 74
     0
 42
0.0000000001
 43
0.0000000001
 40
0.9431206435791275
 40
0.9431206435791275
 40
0.9431206435791275
 40
0.9431206435791275
 40
2.251843241963401
 40
2.251843241963401
 40
3.560565840347675
 40
3.560565840347675
 40
4.869288438731948
 40
4.869288438731948
 40
6.178011037116222
 40
6.178011037116222
 40
6.713744425988628
 40
6.713744425988628
 40
7.249477814861033
 40
7.249477814861033
 40
7.785211203733438
 40
7.785211203733438
 40
8.320944592605844
 40
8.320944592605844
 40
8.856677981478249
 40
8.856677981478249
 40
9.392411370350654
 40
9.392411370350654
 40
9.928144759223059
 40
9.928144759223059
 40
10.46387814809547
 40
10.46387814809547
 40
11.77260074647974
 40
11.77260074647974
 40
12.21787060072593
 40
12.21787060072593
 40
12.21787060072593
 40
12.21787060072593
 10
-51.30899315629608
 20
16.60325121715747
 30
0.0
 10
-51.30899315629608
 20
16.60325121715747
 30
0.0
 10
-51.26044773634135
 20
16.59419559665344
 30
0.0
 10
-51.06096949581456
 20
16.55076244148311
 30
0.0
 10
-50.91013428414647
 20
16.51629253243459
 30
0.0
 10
-50.51885337468286
 20
16.40642965047238
 30
0.0
 10
-50.27827592243477
 20
16.33074287810635
 30
0.0
 10
-49.73178468613583
 20
16.11860805314612
 30
0.0
 10
-49.42611108063363
 20
15.98204464679955
 30
0.0
 10
-48.97091490587911
 20
15.73416520040559
 30
0.0
 10
-48.82993499169584
 20
15.65233155218627
 30
0.0
 10
-48.53966579118298
 20
15.46985285986333
 30
0.0
 10
-48.39039304028961
 20
15.36917422010911
 30
0.0
 10
-48.09343059171761
 20
15.15252888934251
 30
0.0
 10
-47.94558175423663
 20
15.03641471593952
 30
0.0
 10
-47.66060221332873
 20
14.79524754821381
 30
0.0
 10
-47.52347511757739
 20
14.67018963171254
 30
0.0
 10
-47.26791108598047
 20
14.42069585811041
 30
0.0
 10
-47.139593526917
 20
14.2866140662637
 30
0.0
 10
-46.89164671172136
 20
14.00751315555354
 30
0.0
 10
-46.77201262154085
 20
13.86249776162504
 30
0.0
 10
-46.54829255770733
 20
13.5708280370337
 30
0.0
 10
-46.44405531943653
 20
13.42401815719009
 30
0.0
 10
-46.25465289261592
 20
13.13821857245856
 30
0.0
 10
-46.16945451553943
 20
12.99924620568178
 30
0.0
 10
-45.91070630557783
 20
12.55013915686439
 30
0.0
 10
-45.7668356656111
 20
12.24783607052675
 30
0.0
 10
-45.6159200431066
 20
11.88514583217947
 30
0.0
 10
-45.58121416447625
 20
11.79672941182935
 30
0.0
 10
-45.54974942883155
 20
11.71252055060541
 30
0.0
  0
ARC
  5
183E1
330
1F
100
AcDbEntity
  8
AM_0
100
AcDbCircle
 10
-45.30951493623513
 20
16.68237824802409
 30
0.0
 40
6.0
100
AcDbArc
 50
211.4378105214966
 51
251.9814286667061
  0
ELLIPSE
  5
183E2
330
1F
100
AcDbEntity
  8
AM_0
100
AcDbEllipse
 10
-36.83164186447129
 20
12.05879973983295
 30
0.0
 11
-15.08159185239541
 21
0.0009662735101501351
 31
-1.992950565178768E-18
210
-1.321445757518829E-19
220
8.466467221017633E-24
230
1.0
 40
0.4972951979648897
 41
5.92665074742112
 42
6.157578248198525
  0
LINE
  5
183E3
330
1F
100
AcDbEntity
  8
AM_0
100
AcDbLine
 10
-51.60306224279088
 20
8.117688563699662
 30
0.0
 11
-52.31503327641008
 21
8.013371995646484
 31
0.0
  0
ELLIPSE
  5
183E4
330
1F
100
AcDbEntity
  8
AM_0
100
AcDbEllipse
 10
-36.91546732719667
 20
11.36411159548115
 30
0.0
 11
15.29791737712665
 21
1.605828847969771
 31
-2.258236830956695E-16
210
1.460084358013904E-17
220
1.532656717099184E-18
230
1.0
 40
0.1087062323196966
 41
2.693925586260198
 42
3.063817255473398
  0
ELLIPSE
  5
183E5
330
1F
100
AcDbEntity
  8
AM_0
100
AcDbEllipse
 10
-36.84097735464434
 20
11.98143357764241
 30
0.0
 11
5.25051718741872
 21
26.41136363549088
 31
1.106846864017474E-16
210
-8.106533844704863E-19
220
-4.029641874701633E-18
230
1.0
 40
0.553422454591932
 41
1.642056147855329
 42
1.771103187870556
  0
LINE
  5
183E6
330
1F
100
AcDbEntity
  8
AM_0
100
AcDbLine
 10
-52.21006334566823
 20
9.574018025552707
 30
0.0
 11
-55.45964784385137
 21
9.229241411674256
 31
0.0
  0
LINE
  5
183E7
330
1F
100
AcDbEntity
  8
AM_0
100
AcDbLine
 10
-53.92682496550276
 20
9.39187189011469
 30
0.0
 11
-52.21006334566823
 21
9.57401802555265
 31
0.0
  0
LINE
  5
183E8
330
1F
100
AcDbEntity
  8
AM_0
100
AcDbLine
 10
-55.4413163082437
 20
9.523617294354754
 30
0.0
 11
-53.92682496550276
 21
9.391871890114718
 31
0.0
  0
ELLIPSE
  5
183E9
330
1F
100
AcDbEntity
  8
AM_0
100
AcDbEllipse
 10
-50.79138953570441
 20
9.301583292779274
 30
0.0
 11
-0.7097044550241377
 21
-1.690605382464957
 31
-7.340574262134709E-17
210
-1.549644969410059E-17
220
-3.691449458500707E-17
230
0.9999999999999999
 40
0.3743855657699222
 41
1.129653812242782
 42
3.972719368269424
  0
ELLIPSE
  5
183EA
330
1F
100
AcDbEntity
  8
AM_0
100
AcDbEllipse
 10
-58.26289146890315
 20
9.824158335026542
 30
0.0
 11
-8.784037033887811
 21
0.7765345932755735
 31
-1.079191562819447E-16
210
-1.219055650361099E-17
220
1.077680888618093E-18
230
1.0
 40
0.1976346967763815
 41
2.448596903765308
 42
2.666455094653604
  0
SPLINE
  5
183EB
330
1F
100
AcDbEntity
  8
AM_0
100
AcDbSpline
210
0.0
220
0.0
230
1.0
 70
     8
 71
     3
 72
     8
 73
     4
 74
     0
 42
0.0000000001
 43
0.0000000001
 40
2.458545055531939
 40
2.458545055531939
 40
2.458545055531939
 40
2.458545055531939
 40
2.460392082474136
 40
2.460392082474136
 40
2.460392082474136
 40
2.460392082474136
 10
-50.78148093374625
 20
10.6363652672932
 30
0.0
 10
-50.78117514703604
 20
10.63670979998273
 30
0.0
 10
-50.78086935532895
 20
10.63705407677236
 30
0.0
 10
-50.78056355887668
 20
10.63739809751548
 30
0.0
  0
SPLINE
  5
183EC
330
1F
100
AcDbEntity
  8
AM_0
100
AcDbSpline
210
0.0
220
0.0
230
1.0
 70
     8
 71
     3
 72
    38
 73
    34
 74
     0
 42
0.0000000001
 43
0.0000000001
 40
-9.138107654842823
 40
-9.138107654842823
 40
-9.138107654842823
 40
-9.138107654842823
 40
-8.566757165328985
 40
-8.566757165328985
 40
-7.995406675815147
 40
-7.995406675815147
 40
-7.424056186301309
 40
-7.424056186301309
 40
-6.852705696787471
 40
-6.852705696787471
 40
-6.281792729445945
 40
-6.281792729445945
 40
-5.710879762104419
 40
-5.710879762104419
 40
-5.139966794762893
 40
-5.139966794762893
 40
-4.569053827421367
 40
-4.569053827421367
 40
-3.99814086007984
 40
-3.99814086007984
 40
-3.427227892738312
 40
-3.427227892738312
 40
-2.856314925396784
 40
-2.856314925396784
 40
-2.285401958055259
 40
-2.285401958055259
 40
-1.714051468541445
 40
-1.714051468541445
 40
-1.14270097902763
 40
-1.14270097902763
 40
-0.5713504895138151
 40
-0.5713504895138151
 40
0.0
 40
0.0
 40
0.0
 40
0.0
 10
-54.47612884277146
 20
16.82437530996728
 30
0.0
 10
-54.47612884277146
 20
16.82437530996728
 30
0.0
 10
-54.45667236006409
 20
16.82860335817299
 30
0.0
 10
-54.37569936959039
 20
16.84520370348762
 30
0.0
 10
-54.31421245165473
 20
16.8575462314152
 30
0.0
 10
-54.15308847505185
 20
16.88669455084233
 30
0.0
 10
-54.05333473767905
 20
16.90346071718478
 30
0.0
 10
-53.82461846835918
 20
16.93607821065342
 30
0.0
 10
-53.69564774649064
 20
16.95185454806105
 30
0.0
 10
-53.42275848354143
 20
16.97753850515497
 30
0.0
 10
-53.269217476731
 20
16.98841915672927
 30
0.0
 10
-52.93628300500347
 20
17.00063088062101
 30
0.0
 10
-52.75689834344007
 20
17.00190114237083
 30
0.0
 10
-52.3841056301394
 20
16.99075838264824
 30
0.0
 10
-52.19037474702668
 20
16.97829243402763
 30
0.0
 10
-51.8021945429831
 20
16.93862697291971
 30
0.0
 10
-51.60774268707746
 20
16.91140903189006
 30
0.0
 10
-51.23291634272198
 20
16.84531703429986
 30
0.0
 10
-51.04088228453725
 20
16.80438708101162
 30
0.0
 10
-50.66254582456918
 20
16.70889497309165
 30
0.0
 10
-50.47623473775593
 20
16.6543492686127
 30
0.0
 10
-50.12211312770728
 20
16.53731742046537
 30
0.0
 10
-49.95398114005957
 20
16.47477059721422
 30
0.0
 10
-49.64530172932768
 20
16.3494250346478
 30
0.0
 10
-49.5047417802507
 20
16.28668644949838
 30
0.0
 10
-49.2570941842522
 20
16.16921779971876
 30
0.0
 10
-49.14129717379615
 20
16.11028230709548
 30
0.0
 10
-48.93753002305368
 20
16.00140631796078
 30
0.0
 10
-48.84952653876405
 20
15.95153348761636
 30
0.0
 10
-48.70808883930692
 20
15.86903538137151
 30
0.0
 10
-48.65453142941863
 20
15.83640743447109
 30
0.0
 10
-48.58411936027142
 20
15.79311381866916
 30
0.0
 10
-48.56728232469823
 20
15.78248624396574
 30
0.0
 10
-48.56728232469823
 20
15.78248624396574
 30
0.0
  0
ARC
  5
183ED
330
1F
100
AcDbEntity
  8
AM_0
100
AcDbCircle
 10
-52.80951493623513
 20
8.999901008997313
 30
0.0
 40
7.750000000000027
100
AcDbArc
 50
78.83613123133436
 51
90.0
  0
SPLINE
  5
183EE
330
1F
100
AcDbEntity
  8
AM_0
100
AcDbSpline
210
0.0
220
0.0
230
1.0
 70
    28
 71
     2
 72
     6
 73
     3
 74
     0
 42
0.0000000001
 43
0.0000000001
 40
0.017346708130286
 40
0.017346708130286
 40
0.017346708130286
 40
0.3682577903369513
 40
0.3682577903369513
 40
0.3682577903369513
 10
-54.5209039650608
 20
16.57044297295608
 30
0.0
 41
1.000013232565076
 10
-54.49885506827854
 20
16.69548848041984
 30
0.0
 41
1.000140458787304
 10
-54.47612884277146
 20
16.82437530996734
 30
0.0
 41
1.0
  0
SPLINE
  5
183EF
330
1F
100
AcDbEntity
  8
AM_0
100
AcDbSpline
210
0.0
220
0.0
230
1.0
 70
    28
 71
     2
 72
     6
 73
     3
 74
     0
 42
0.0000000001
 43
0.0000000001
 40
0.0
 40
0.0
 40
0.0
 40
0.3682577903369524
 40
0.3682577903369524
 40
0.3682577903369524
 10
-48.56728232469823
 20
15.7824862439658
 30
0.0
 41
1.0
 10
-48.59113181794896
 20
15.64722904648571
 30
0.0
 41
1.000147402150909
 10
-48.6142360145368
 20
15.51619863641995
 30
0.0
 41
1.0
  0
SPLINE
  5
183F0
330
1F
100
AcDbEntity
  8
AM_0
100
AcDbSpline
210
0.0
220
0.0
230
1.0
 70
     8
 71
     3
 72
    10
 73
     6
 74
     0
 42
0.0000000001
 43
0.0000000001
 40
2.90662917786273
 40
2.90662917786273
 40
2.90662917786273
 40
2.90662917786273
 40
4.966935907987606
 40
4.966935907987606
 40
5.598433222928954
 40
5.598433222928954
 40
5.598433222928954
 40
5.598433222928954
 10
-50.42875566280065
 20
13.55294149623112
 30
0.0
 10
-50.5983379049419
 20
13.83034998514657
 30
0.0
 10
-50.74282011201626
 20
14.11758246322259
 30
0.0
 10
-50.89858235798101
 20
14.49797343423908
 30
0.0
 10
-50.93276439328372
 20
14.58758698919951
 30
0.0
 10
-50.9646146532732
 20
14.67742259007173
 30
0.0
  0
ARC
  5
183F1
330
1F
100
AcDbEntity
  8
AM_0
100
AcDbCircle
 10
-45.30951493623513
 20
16.68237824802409
 30
0.0
 40
6.0
100
AcDbArc
 50
180.755629389818
 51
199.52142208829
  0
LINE
  5
183F2
330
1F
100
AcDbEntity
  8
AM_0
100
AcDbLine
 10
-45.30951493623513
 20
10.95246342797399
 30
0.0
 11
-45.30951493623513
 21
7.78237824802412
 31
0.0
  0
SPLINE
  5
183F3
330
1F
100
AcDbEntity
  8
AM_0
100
AcDbSpline
210
0.0
220
0.0
230
1.0
 70
    28
 71
     2
 72
     6
 73
     3
 74
     0
 42
0.0000000001
 43
0.0000000001
 40
0.0
 40
0.0
 40
0.0
 40
0.8683077351808665
 40
0.8683077351808665
 40
0.8683077351808665
 10
-45.30951493623513
 20
11.78378319041235
 30
0.0
 41
1.0
 10
-45.30951493623512
 20
11.36152553330055
 30
0.0
 41
1.001395898062785
 10
-45.30951493623513
 20
10.95246342797401
 30
0.0
 41
1.0
  0
ARC
  5
183F4
330
1F
100
AcDbEntity
  8
AM_0
100
AcDbCircle
 10
-52.80951493623513
 20
8.999901008997284
 30
0.0
 40
7.750000000000027
100
AcDbArc
 50
14.59255060203404
 51
20.48825856235122
  0
ELLIPSE
  5
183F5
330
1F
100
AcDbEntity
  8
AM_0
100
AcDbEllipse
 10
-45.18032315004643
 20
16.63658462086528
 30
0.0
 11
2.003969661785511
 21
5.653546926436009
 31
-1.670084574199823E-16
210
9.302222174081618E-18
220
2.624318650335582E-17
230
0.9999999999999999
 40
0.3559172097403942
 41
3.150905754302615
 42
3.794487181522408
  0
LINE
  5
183F6
330
1F
100
AcDbEntity
  8
AM_0
100
AcDbLine
 10
24.35520908761305
 20
-56.68482132315072
 30
0.0
 11
25.96005452730219
 21
-56.68482132315072
 31
0.0
  0
LINE
  5
183F7
330
1F
100
AcDbEntity
  8
AM_0
100
AcDbLine
 10
21.57434943690578
 20
-56.68482132315072
 30
0.0
 11
24.35520908761305
 21
-56.68482132315072
 31
0.0
  0
ELLIPSE
  5
183F8
330
1F
100
AcDbEntity
  8
AM_0
100
AcDbEllipse
 10
4.726264881381894
 20
-64.18482132315072
 30
0.0
 11
-20.33179611779146
 21
-7.40457807641415
 31
-1.969090195334921E-16
210
-8.550685632004966E-18
220
-3.114049491852321E-18
230
1.0
 40
0.1125307278460177
 41
3.695966051257317
 42
3.798865566900894
  0
LINE
  5
183F9
330
1F
100
AcDbEntity
  8
AM_0
100
AcDbLine
 10
25.96005452730219
 20
-56.68482132315072
 30
0.0
 11
30.00268129851111
 21
-56.68482132315072
 31
0.0
  0
LINE
  5
183FA
330
1F
100
AcDbEntity
  8
AM_0
100
AcDbLine
 10
8.715026151380926
 20
16.75
 30
0.0
 11
21.27884323472767
 21
16.74999999999999
 31
0.0
  0
LINE
  5
183FB
330
1F
100
AcDbEntity
  8
AM_0
100
AcDbLine
 10
9.558691776116802
 20
0.8553669468546445
 30
0.0
 11
0.433143166057107
 21
0.0017315852456932
 31
0.0
  0
LINE
  5
183FC
330
1F
100
AcDbEntity
  8
AM_0
100
AcDbLine
 10
0.8014021413591763
 20
9.574124424439869
 30
0.0
 11
9.926950751419099
 21
10.42775978604882
 31
0.0
  0
ELLIPSE
  5
183FD
330
1F
100
AcDbEntity
  8
AM_0
100
AcDbEllipse
 10
9.456055863899678
 20
9.176682283781812
 30
0.0
 11
1.818716316833328
 21
-0.07573263932198383
 31
0.0
210
0.0
220
0.0
230
1.0
 40
0.9400482232207262
 41
5.73042091372112
 42
8.573486469747763
  0
LINE
  5
183FE
330
1F
100
AcDbEntity
  8
AM_0
100
AcDbLine
 10
7.311376686175095
 20
16.60335020816012
 30
0.0
 11
16.96005452730219
 21
16.60335020816012
 31
0.0
  0
ELLIPSE
  5
183FF
330
1F
100
AcDbEntity
  8
AM_0
100
AcDbEllipse
 10
16.5479580245086
 20
16.68247723902678
 30
0.0
 11
15.73323680740914
 21
-2.291893583031067
 31
0.0
210
0.0
220
0.0
230
1.0
 40
0.3524397423285112
 41
4.082226218343392
 42
4.789845845648621
  0
LINE
  5
18400
330
1F
100
AcDbEntity
  8
AM_0
100
AcDbLine
 10
0.0015220838046162
 20
0.4314535306562277
 30
0.0
 11
0.8014021413591763
 21
9.574124424439841
 31
0.0
  0
ELLIPSE
  5
18401
330
1F
100
AcDbEntity
  8
AM_0
100
AcDbEllipse
 10
0.3984790923243509
 20
0.3990325941235255
 30
0.0
 11
0.2494616320999616
 21
0.3126801786330938
 31
0.0
210
0.0
220
0.0
230
1.0
 40
0.9937699626689578
 41
2.159821810591438
 42
3.905151062585887
  0
ELLIPSE
  5
18406
330
1F
100
AcDbEntity
  8
AM_0
100
AcDbEllipse
 10
-0.1579006199983724
 20
11.23921058648369
 30
0.0
 11
16.42837395304505
 21
1.522395279805712
 31
0.0
210
0.0
220
0.0
230
1.0
 40
0.1058950379124387
 41
4.760931416613365
 42
5.244049776947444
  0
LINE
  5
18407
330
1F
100
AcDbEntity
  8
AM_0
100
AcDbLine
 10
3.975743657391945
 20
14.67752158107438
 30
0.0
 11
1.102773193262692
 21
13.01881131023552
 31
0.0
  0
LINE
  5
1840A
330
1F
100
AcDbEntity
  8
AM_0
100
AcDbLine
 10
7.69815597078582
 20
10.21927061791038
 30
0.0
 11
8.169367735464334
 21
10.4469970043738
 31
0.0
  0
ELLIPSE
  5
1840B
330
1F
100
AcDbEntity
  8
AM_0
100
AcDbEllipse
 10
8.801049896915629
 20
9.699257326029024
 30
0.0
 11
-1.816846916294046
 21
-0.7063714934134934
 31
0.0
210
0.0
220
0.0
230
1.0
 40
0.4813826607271819
 41
4.796443591917747
 42
4.876147592375011
  0
SPLINE
  5
1840C
330
1F
100
AcDbEntity
  8
AM_0
100
AcDbSpline
210
0.0
220
0.0
230
1.0
 70
     8
 71
     3
 72
     8
 73
     4
 74
     0
 42
0.0000000001
 43
0.0000000001
 40
2.458545055531939
 40
2.458545055531939
 40
2.458545055531939
 40
2.458545055531939
 40
2.460392082474136
 40
2.460392082474136
 40
2.460392082474136
 40
2.460392082474136
 10
8.309680805144581
 20
10.51146425829571
 30
0.0
 10
8.310135561345305
 20
10.51180879098524
 30
0.0
 10
8.310590439591806
 20
10.51215306777487
 30
0.0
 10
8.311045439367604
 20
10.51249708851799
 30
0.0
  0
SPLINE
  5
1840D
330
1F
100
AcDbEntity
  8
AM_0
100
AcDbSpline
210
0.0
220
0.0
230
1.0
 70
     8
 71
     3
 72
    10
 73
     6
 74
     0
 42
0.0000000001
 43
0.0000000001
 40
2.90662917786273
 40
2.90662917786273
 40
2.90662917786273
 40
2.90662917786273
 40
4.966935907987606
 40
4.966935907987606
 40
5.598433222928954
 40
5.598433222928954
 40
5.598433222928954
 40
5.598433222928954
 10
6.624124683551486
 20
13.55304048723377
 30
0.0
 10
5.961096530904911
 20
13.83044897614922
 30
0.0
 10
5.283327022491903
 20
14.11768145422525
 30
0.0
 10
4.393700670960584
 20
14.49807242524173
 30
0.0
 10
4.184698954607939
 20
14.58768598020216
 30
0.0
 10
3.975743657391945
 20
14.67752158107438
 30
0.0
  0
LINE
  5
1840E
330
1F
100
AcDbEntity
  8
AM_0
100
AcDbLine
 10
3.975743657391945
 20
14.67752158107438
 30
0.0
 11
7.311376686175095
 21
16.60335020816012
 31
0.0
  0
LINE
  5
1840F
330
1F
100
AcDbEntity
  8
AM_0
100
AcDbLine
 10
7.565381576561094
 20
16.75
 30
0.0
 11
8.715026151380926
 21
16.75
 31
0.0
  0
LINE
  5
18410
330
1F
100
AcDbEntity
  8
AM_0
100
AcDbLine
 10
7.311376686175095
 20
16.60335020816012
 30
0.0
 11
7.565381576561094
 21
16.75
 31
0.0
  0
LINE
  5
18411
330
1F
100
AcDbEntity
  8
AM_0
100
AcDbLine
 10
10.82590822549548
 20
1.249999999999965
 30
0.0
 11
26.99999999999977
 21
1.249999999999965
 31
0.0
  0
LINE
  5
18412
330
1F
100
AcDbEntity
  8
AM_0
100
AcDbLine
 10
24.35520908761305
 20
7.782477239026768
 30
0.0
 11
25.96005452730219
 21
7.782477239026768
 31
0.0
  0
LINE
  5
18413
330
1F
100
AcDbEntity
  8
AM_0
100
AcDbLine
 10
25.96005452730219
 20
1.398977448331799
 30
0.0
 11
15.13657198893748
 21
1.398977448331799
 31
0.0
  0
LINE
  5
18414
330
1F
100
AcDbEntity
  8
AM_0
100
AcDbLine
 10
23.96005453150701
 20
16.55818669342414
 30
0.0
 11
26.99999999999977
 21
16.55818669342414
 31
0.0
  0
LINE
  5
18415
330
1F
100
AcDbEntity
  8
AM_0
100
AcDbLine
 10
26.99999999999977
 20
15.5162976274226
 30
0.0
 11
23.96005453150701
 21
15.5162976274226
 31
0.0
  0
LINE
  5
18416
330
1F
100
AcDbEntity
  8
AM_0
100
AcDbLine
 10
26.99999999999977
 20
10.95256241897663
 30
0.0
 11
21.57434943690578
 21
10.95256241897663
 31
0.0
  0
LINE
  5
18417
330
1F
100
AcDbEntity
  8
AM_0
100
AcDbLine
 10
10.35857183367125
 20
9.998037840638286
 30
0.0
 11
9.558691776116802
 21
0.8553669468546445
 31
0.0
  0
LINE
  5
18418
330
1F
100
AcDbEntity
  8
AM_0
100
AcDbLine
 10
10.93683579536003
 20
8.188281905959993
 30
0.0
 11
10.63057732679317
 21
6.628597524518053
 31
0.0
  0
ELLIPSE
  5
18419
330
1F
100
AcDbEntity
  8
AM_0
100
AcDbEllipse
 10
29.6185244110543
 20
1.782477239026797
 30
0.0
 11
15.73323680740914
 21
-2.291893583031067
 31
0.0
210
0.0
220
0.0
230
1.0
 40
0.3524397423285112
 41
1.962736588330269
 42
3.59749314726114
  0
ELLIPSE
  5
1841A
330
1F
100
AcDbEntity
  8
AM_0
100
AcDbEllipse
 10
12.81741198472298
 20
-11.06131644585461
 30
0.0
 11
1.480689148135412
 21
26.55356402618344
 31
0.0
210
0.0
220
0.0
230
1.0
 40
0.158495008729392
 41
0.8505708583647766
 42
1.0974435091904
  0
SPLINE
  5
1841B
330
1F
100
AcDbEntity
  8
AM_0
100
AcDbSpline
210
0.0
220
0.0
230
1.0
 70
     8
 71
     3
 72
    10
 73
     6
 74
     0
 42
0.0000000001
 43
0.0000000001
 40
35.27909651399533
 40
35.27909651399533
 40
35.27909651399533
 40
35.27909651399533
 40
37.51511733242877
 40
37.51511733242877
 40
39.14284444435268
 40
39.14284444435268
 40
39.14284444435268
 40
39.14284444435268
 10
13.71209815290195
 20
1.302735197203241
 30
0.0
 10
12.99290505328247
 20
1.267181585530373
 30
0.0
 10
12.23406820134971
 20
1.255278673640611
 30
0.0
 10
10.89368854846327
 20
1.248653082919354
 30
0.0
 10
10.32002156247222
 20
1.250286476004611
 30
0.0
 10
9.746568944943192
 20
1.252613809075989
 30
0.0
  0
ELLIPSE
  5
1841C
330
1F
100
AcDbEntity
  8
AM_0
100
AcDbEllipse
 10
10.34198158419167
 20
8.999999999999968
 30
0.0
 11
-0.5865926701387081
 21
-7.748113408471746
 31
0.0
210
0.0
220
0.0
230
0.9999999999999999
 40
0.2915021252068223
 41
6.211970020921141
 42
6.2792782400197
  0
ELLIPSE
  5
1841D
330
1F
100
AcDbEntity
  8
AM_0
100
AcDbEllipse
 10
4.726264881381894
 20
8.999999999999968
 30
0.0
 11
-20.32209754290354
 21
2.960362544748466
 31
0.0
210
0.0
220
0.0
230
1.0
 40
0.3524397423285113
 41
2.079460815228002
 42
2.15912803849003
  0
SPLINE
  5
1841E
330
1F
100
AcDbEntity
  8
AM_0
100
AcDbSpline
210
0.0
220
0.0
230
1.0
 70
     8
 71
     3
 72
    34
 73
    30
 74
     0
 42
0.0000000001
 43
0.0000000001
 40
0.9431206435791275
 40
0.9431206435791275
 40
0.9431206435791275
 40
0.9431206435791275
 40
2.251843241963401
 40
2.251843241963401
 40
3.560565840347675
 40
3.560565840347675
 40
4.869288438731948
 40
4.869288438731948
 40
6.178011037116222
 40
6.178011037116222
 40
6.713744425988628
 40
6.713744425988628
 40
7.249477814861033
 40
7.249477814861033
 40
7.785211203733438
 40
7.785211203733438
 40
8.320944592605844
 40
8.320944592605844
 40
8.856677981478249
 40
8.856677981478249
 40
9.392411370350654
 40
9.392411370350654
 40
9.928144759223059
 40
9.928144759223059
 40
10.46387814809547
 40
10.46387814809547
 40
11.77260074647974
 40
11.77260074647974
 40
12.21787060072593
 40
12.21787060072593
 40
12.21787060072593
 40
12.21787060072593
 10
16.96005452730219
 20
16.60335020816012
 30
0.0
 10
17.39629539343025
 20
16.60335020816012
 30
0.0
 10
17.84431172974485
 20
16.59429458765609
 30
0.0
 10
18.72264804255622
 20
16.55086143248576
 30
0.0
 10
19.15298561384975
 20
16.51639152343725
 30
0.0
 10
19.95840635800653
 20
16.40652864147503
 30
0.0
 10
20.3341576644757
 20
16.33084186910901
 30
0.0
 10
21.00016573593496
 20
16.11870704414877
 30
0.0
 10
21.29058280041159
 20
15.9821436378022
 30
0.0
 10
21.62127028158193
 20
15.73426419140824
 30
0.0
 10
21.71205072936039
 20
15.65243054318892
 30
0.0
 10
21.87246016041286
 20
15.46995185086598
 30
0.0
 10
21.94208084535774
 20
15.36927321111175
 30
0.0
 10
22.05380319676692
 20
15.15262788034516
 30
0.0
 10
22.09596330157899
 20
15.03651370694217
 30
0.0
 10
22.15107846222452
 20
14.79534653921646
 30
0.0
 10
22.16403063381392
 20
14.67028862271518
 30
0.0
 10
22.16403063381392
 20
14.42079484911306
 30
0.0
 10
22.15107846222452
 20
14.28671305726635
 30
0.0
 10
22.09596330157899
 20
14.00761214655619
 30
0.0
 10
22.05380319676692
 20
13.86259675262769
 30
0.0
 10
21.94208084535774
 20
13.57092702803634
 30
0.0
 10
21.87246016041286
 20
13.42411714819274
 30
0.0
 10
21.71205072936039
 20
13.13831756346121
 30
0.0
 10
21.62127028158193
 20
12.99934519668442
 30
0.0
 10
21.29058280041159
 20
12.55023814786704
 30
0.0
 10
21.00016573593496
 20
12.2479350615294
 30
0.0
 10
20.55386293189815
 20
11.88524482318212
 30
0.0
 10
20.43564326731507
 20
11.796828402832
 30
0.0
 10
20.31308328589864
 20
11.71261954160806
 30
0.0
  0
ELLIPSE
  5
1841F
330
1F
100
AcDbEntity
  8
AM_0
100
AcDbEllipse
 10
16.90785135381395
 20
16.63668361186796
 30
0.0
 11
-3.955511402402691
 21
4.50914812356315
 31
0.0
210
0.0
220
0.0
230
1.0
 40
0.8808196320100978
 41
2.367555558387622
 42
3.011136985607414
  0
ELLIPSE
  5
18420
330
1F
100
AcDbEntity
  8
AM_0
100
AcDbEllipse
 10
9.961614825151628
 20
10.03045877717099
 30
0.0
 11
0.2494616320999616
 21
0.3126801786330938
 31
0.0
210
0.0
220
0.0
230
1.0
 40
0.9937699626689579
 41
5.301414464181231
 42
7.04674371617539
  0
ELLIPSE
  5
18421
330
1F
100
AcDbEntity
  8
AM_0
100
AcDbEllipse
 10
8.988088249663178
 20
9.550034906668568
 30
0.0
 11
1.091394640437352
 21
1.36797578151981
 31
0.0
210
0.0
220
0.0
230
1.0
 40
0.9937699626689582
 41
4.603282763383566
 42
6.082493403276904
  0
ELLIPSE
  5
18422
330
1F
100
AcDbEntity
  8
AM_0
100
AcDbEllipse
 10
8.801049896915629
 20
9.69925732602908
 30
0.0
 11
-2.421846997589003
 21
1.140050107783495
 31
0.0
210
0.0
220
0.0
230
1.0
 40
0.6285286617359939
 41
2.670814678492455
 42
2.888672869380751
  0
LINE
  5
18423
330
1F
100
AcDbEntity
  8
AM_0
100
AcDbLine
 10
10.21118817592856
 20
8.313434924067078
 30
0.0
 11
10.22061610872959
 21
8.322930181832756
 31
0.0
  0
LINE
  5
18424
330
1F
100
AcDbEntity
  8
AM_0
100
AcDbLine
 10
10.63442345359704
 20
7.992787554702201
 30
0.0
 11
10.16321168891841
 21
7.765061168238756
 31
0.0
  0
LINE
  5
18425
330
1F
100
AcDbEntity
  8
AM_0
100
AcDbLine
 10
21.57434943690578
 20
10.95256241897666
 30
0.0
 11
24.35520908761305
 21
7.782477239026797
 31
0.0
  0
ELLIPSE
  5
18426
330
1F
100
AcDbEntity
  8
AM_0
100
AcDbEllipse
 10
4.726264881381894
 20
8.999999999999968
 30
0.0
 11
-20.32209754290354
 21
2.960362544748466
 31
0.0
210
0.0
220
0.0
230
1.0
 40
0.3524397423285113
 41
3.788220969394547
 42
3.891120485038123
  0
SPLINE
  5
18427
330
1F
100
AcDbEntity
  8
AM_0
100
AcDbSpline
210
0.0
220
0.0
230
1.0
 70
     8
 71
     3
 72
    38
 73
    34
 74
     0
 42
0.0000000001
 43
0.0000000001
 40
0.0
 40
0.0
 40
0.0
 40
0.0
 40
0.5718157009076238
 40
0.5718157009076238
 40
1.143631401815248
 40
1.143631401815248
 40
1.715447102722871
 40
1.715447102722871
 40
2.287262803630495
 40
2.287262803630495
 40
2.85857653112219
 40
2.85857653112219
 40
3.429890258613885
 40
3.429890258613885
 40
4.00120398610558
 40
4.00120398610558
 40
4.572517713597275
 40
4.572517713597275
 40
5.143831441088971
 40
5.143831441088971
 40
5.715145168580667
 40
5.715145168580667
 40
6.286458896072364
 40
6.286458896072364
 40
6.857772623564061
 40
6.857772623564061
 40
7.429588324471673
 40
7.429588324471673
 40
8.001404025379287
 40
8.001404025379287
 40
8.573219726286901
 40
8.573219726286901
 40
9.145035427194515
 40
9.145035427194515
 40
9.145035427194515
 40
9.145035427194515
 10
23.96005453150701
 20
15.51629762742262
 30
0.0
 10
23.76944929787112
 20
15.51629762742262
 30
0.0
 10
23.57306825956528
 20
15.52722475470994
 30
0.0
 10
23.18380737181383
 20
15.57168173201699
 30
0.0
 10
22.99091966327694
 20
15.60517085592607
 30
0.0
 10
22.62205888691574
 20
15.6897434024191
 30
0.0
 10
22.44575417040005
 20
15.74082799104809
 30
0.0
 10
22.12015777133161
 20
15.85221309627888
 30
0.0
 10
21.97086370195791
 20
15.91244379195225
 30
0.0
 10
21.70672066498662
 20
16.0323414496602
 30
0.0
 10
21.58251169200514
 20
16.09631060904194
 30
0.0
 10
21.36293605194214
 20
16.22394087483556
 30
0.0
 10
21.26755256788727
 20
16.28754059519175
 30
0.0
 10
21.11383750840059
 20
16.40632523223197
 30
0.0
 10
21.05538378349081
 20
16.46157199619491
 30
0.0
 10
20.9784809485775
 20
16.55801330592524
 30
0.0
 10
20.96005453150701
 20
16.59919088995962
 30
0.0
 10
20.96005453150701
 20
16.66532928172963
 30
0.0
 10
20.9784809485775
 20
16.69233391554302
 30
0.0
 10
21.05538378349081
 20
16.73109114818345
 30
0.0
 10
21.11383750840059
 20
16.74286274243655
 30
0.0
 10
21.26755256788727
 20
16.75224159293139
 30
0.0
 10
21.36293605194214
 20
16.74990133626019
 30
0.0
 10
21.58251169200514
 20
16.73535962867378
 30
0.0
 10
21.70672066498662
 20
16.72322045809496
 30
0.0
 10
21.97086370195802
 20
16.69505871441398
 30
0.0
 10
22.12015777133161
 20
16.67797042404529
 30
0.0
 10
22.44575417040005
 20
16.64282593509227
 30
0.0
 10
22.62205888691574
 20
16.62484712194136
 30
0.0
 10
22.99091966327705
 20
16.59363592680179
 30
0.0
 10
23.18380737181383
 20
16.58044468120595
 30
0.0
 10
23.57306825956539
 20
16.56270396936093
 30
0.0
 10
23.76944929787112
 20
16.55818669342414
 30
0.0
 10
23.96005453150701
 20
16.55818669342414
 30
0.0
  0
ARC
  5
18428
330
1F
100
AcDbEntity
  8
AM_0
100
AcDbCircle
 10
25.96005452730219
 20
1.782477239026797
 30
0.0
 40
6.0
100
AcDbArc
 50
47.64120616491813
 51
90.0
  0
SPLINE
  5
18429
330
1F
100
AcDbEntity
  8
AM_0
100
AcDbSpline
210
0.0
220
0.0
230
1.0
 70
     8
 71
     3
 72
    32
 73
    28
 74
     0
 42
0.0000000001
 43
0.0000000001
 40
4.045618079636788
 40
4.045618079636788
 40
4.045618079636788
 40
4.045618079636788
 40
5.259382177050171
 40
5.259382177050171
 40
5.845378705947328
 40
5.845378705947328
 40
6.431375234844486
 40
6.431375234844486
 40
7.017371763741644
 40
7.017371763741644
 40
7.603368292638802
 40
7.603368292638802
 40
8.189364821535959
 40
8.189364821535959
 40
8.775361350433116
 40
8.775361350433116
 40
9.361357879330274
 40
9.361357879330274
 40
9.947354408227431
 40
9.947354408227431
 40
11.26219995248998
 40
11.26219995248998
 40
12.57704549675252
 40
12.57704549675252
 40
13.89189104101506
 40
13.89189104101506
 40
14.21346012528928
 40
14.21346012528928
 40
14.21346012528928
 40
14.21346012528928
 10
30.00268129851111
 20
6.216117818584984
 30
0.0
 10
30.29881936988488
 20
5.946096901501726
 30
0.0
 10
30.55804916234979
 20
5.651705989598746
 30
0.0
 10
30.87508287700655
 20
5.198623976786273
 30
0.0
 10
30.97243445181903
 20
5.041527083414472
 30
0.0
 10
31.1441940610805
 20
4.718591575423737
 30
0.0
 10
31.2185971279448
 20
4.552772504433953
 30
0.0
 10
31.33787253013361
 20
4.223441010872072
 30
0.0
 10
31.38280932448947
 20
4.059754887193797
 30
0.0
 10
31.44152745225574
 20
3.744775859608659
 30
0.0
 10
31.45530650066348
 20
3.593486654543987
 30
0.0
 10
31.45530650066348
 20
3.311995111754463
 30
0.0
 10
31.44152745225574
 20
3.17083915652983
 30
0.0
 10
31.38280932448947
 20
2.898513747887812
 30
0.0
 10
31.33787253013361
 20
2.767339451350573
 30
0.0
 10
31.2185971279448
 20
2.522522876698154
 30
0.0
 10
31.1441940610805
 20
2.408717821854303
 30
0.0
 10
30.97243445181903
 20
2.202453003967712
 30
0.0
 10
30.87508287700655
 20
2.109957092630872
 30
0.0
 10
30.54024333522534
 20
1.846094304696457
 30
0.0
 10
30.25528887158191
 20
1.700265780435579
 30
0.0
 10
29.60058384587546
 20
1.470304430132039
 30
0.0
 10
29.23073049575362
 20
1.385973744174088
 30
0.0
 10
28.43531498269681
 20
1.261379194320163
 30
0.0
 10
28.00901270310851
 20
1.220759023119307
 30
0.0
 10
27.46528280094344
 20
1.187334628123402
 30
0.0
 10
27.35781057662166
 20
1.181600700753954
 30
0.0
 10
27.24999999999977
 20
1.176612817244426
 30
0.0
  0
LINE
  5
1842A
330
1F
100
AcDbEntity
  8
AM_0
100
AcDbLine
 10
26.99999999999977
 20
1.249999999999965
 30
0.0
 11
27.24999999999977
 21
0.9999999999999929
 31
0.0
  0
LINE
  5
1842B
330
1F
100
AcDbEntity
  8
AM_0
100
AcDbLine
 10
27.24999999999977
 20
0.9999999999999929
 30
0.0
 11
27.24999999999977
 21
1.176612817244426
 31
0.0
  0
SPLINE
  5
1842C
330
1F
100
AcDbEntity
  8
AM_0
100
AcDbSpline
210
0.0
220
0.0
230
1.0
 70
     8
 71
     3
 72
     8
 73
     4
 74
     0
 42
0.0000000001
 43
0.0000000001
 40
1.349977110272202
 40
1.349977110272202
 40
1.349977110272202
 40
1.349977110272202
 40
1.687186803935218
 40
1.687186803935218
 40
1.687186803935218
 40
1.687186803935218
 10
27.24999999999977
 20
1.176612817244426
 30
0.0
 10
27.16513255068651
 20
1.257583934927304
 30
0.0
 10
27.08139151888224
 20
1.338281538792835
 30
0.0
 10
26.99999999999977
 20
1.417402935646969
 30
0.0
  0
SPLINE
  5
1842D
330
1F
100
AcDbEntity
  8
AM_0
100
AcDbSpline
210
0.0
220
0.0
230
1.0
 70
     8
 71
     3
 72
    10
 73
     6
 74
     0
 42
0.0000000001
 43
0.0000000001
 40
0.9770413229207811
 40
0.9770413229207811
 40
0.9770413229207811
 40
0.9770413229207811
 40
0.9806912142757285
 40
0.9806912142757285
 40
1.961382428551457
 40
1.961382428551457
 40
1.961382428551457
 40
1.961382428551457
 10
26.99999999999977
 20
1.417402935646969
 30
0.0
 10
26.99869170254704
 20
1.417354824251611
 30
0.0
 10
26.99738332480285
 20
1.417306814134058
 30
0.0
 10
26.64450507737331
 20
1.40438624671372
 30
0.0
 10
26.28695159872746
 20
1.398977448331799
 30
0.0
 10
25.96005452730219
 20
1.398977448331799
 30
0.0
  0
LINE
  5
1842E
330
1F
100
AcDbEntity
  8
AM_0
100
AcDbLine
 10
26.99999999999977
 20
1.249999999999965
 30
0.0
 11
26.99999999999977
 21
1.417402935646969
 31
0.0
  0
LINE
  5
1842F
330
1F
100
AcDbEntity
  8
AM_0
100
AcDbLine
 10
27.24999999999977
 20
11.78388218141497
 30
0.0
 11
27.24999999999977
 21
15.78258523496842
 31
0.0
  0
LINE
  5
18430
330
1F
100
AcDbEntity
  8
AM_0
100
AcDbLine
 10
26.99999999999977
 20
10.95256241897672
 30
0.0
 11
26.99999999999977
 21
15.5162976274226
 31
0.0
  0
SPLINE
  5
18431
330
1F
100
AcDbEntity
  8
AM_0
100
AcDbSpline
210
0.0
220
0.0
230
1.0
 70
    12
 71
     2
 72
     6
 73
     3
 74
     0
 42
0.0000000001
 43
0.0000000001
 40
0.0
 40
0.0
 40
0.0
 40
0.8683077351808665
 40
0.8683077351808665
 40
0.8683077351808665
 10
27.24999999999977
 20
11.783882181415
 30
0.0
 41
1.0
 10
27.10306055405044
 20
11.36162452430323
 30
0.0
 41
1.001395898062785
 10
26.99999999999977
 20
10.95256241897666
 30
0.0
 41
1.0
  0
SPLINE
  5
18432
330
1F
100
AcDbEntity
  8
AM_0
100
AcDbSpline
210
0.0
220
0.0
230
1.0
 70
    12
 71
     2
 72
     6
 73
     3
 74
     0
 42
0.0000000001
 43
0.0000000001
 40
0.0
 40
0.0
 40
0.0
 40
0.3682577903369524
 40
0.3682577903369524
 40
0.3682577903369524
 10
27.24999999999977
 20
15.78258523496844
 30
0.0
 41
1.0
 10
27.12267892892621
 20
15.64732803748834
 30
0.0
 41
1.000147402150909
 10
26.99999999999977
 20
15.5162976274226
 30
0.0
 41
1.0
  0
SPLINE
  5
18433
330
1F
100
AcDbEntity
  8
AM_0
100
AcDbSpline
210
0.0
220
0.0
230
1.0
 70
    12
 71
     2
 72
     6
 73
     3
 74
     0
 42
0.0000000001
 43
0.0000000001
 40
0.0
 40
0.0
 40
0.0
 40
0.3682577903369513
 40
0.3682577903369513
 40
0.3682577903369513
 10
26.99999999999977
 20
16.55818669342414
 30
0.0
 41
1.0
 10
27.12267892892302
 20
16.68921710348635
 30
0.0
 41
1.00014740213481
 10
27.24999999999977
 20
16.82447430096999
 30
0.0
 41
1.0
  0
SPLINE
  5
18434
330
1F
100
AcDbEntity
  8
AM_0
100
AcDbSpline
210
0.0
220
0.0
230
1.0
 70
     8
 71
     3
 72
    38
 73
    34
 74
     0
 42
0.0000000001
 43
0.0000000001
 40
-9.138107654842823
 40
-9.138107654842823
 40
-9.138107654842823
 40
-9.138107654842823
 40
-8.566757165328985
 40
-8.566757165328985
 40
-7.995406675815147
 40
-7.995406675815147
 40
-7.424056186301309
 40
-7.424056186301309
 40
-6.852705696787471
 40
-6.852705696787471
 40
-6.281792729445945
 40
-6.281792729445945
 40
-5.710879762104419
 40
-5.710879762104419
 40
-5.139966794762893
 40
-5.139966794762893
 40
-4.569053827421367
 40
-4.569053827421367
 40
-3.99814086007984
 40
-3.99814086007984
 40
-3.427227892738312
 40
-3.427227892738312
 40
-2.856314925396784
 40
-2.856314925396784
 40
-2.285401958055259
 40
-2.285401958055259
 40
-1.714051468541445
 40
-1.714051468541445
 40
-1.14270097902763
 40
-1.14270097902763
 40
-0.5713504895138151
 40
-0.5713504895138151
 40
0.0
 40
0.0
 40
0.0
 40
0.0
 10
55.96005453150701
 20
16.82447430096993
 30
0.0
 10
56.15050469467826
 20
16.82447430096993
 30
0.0
 10
56.34677972771817
 20
16.82870234917563
 30
0.0
 10
56.73592667523235
 20
16.84530269449026
 30
0.0
 10
56.92880601544027
 20
16.85764522241785
 30
0.0
 10
57.29772059433401
 20
16.88679354184497
 30
0.0
 10
57.47408511078868
 20
16.90355970818742
 30
0.0
 10
57.79981519450712
 20
16.93617720165607
 30
0.0
 10
57.94918251593776
 20
16.9519535390637
 30
0.0
 10
58.21346600545917
 20
16.97763749615762
 30
0.0
 10
58.33772521254741
 20
16.98851814773191
 30
0.0
 10
58.55734623907654
 20
17.00072987162365
 30
0.0
 10
58.65272478063196
 20
17.00200013337348
 30
0.0
 10
58.8063978669511
 20
16.99085737365089
 30
0.0
 10
58.86481450181736
 20
16.97839142503027
 30
0.0
 10
58.94165399511849
 20
16.93872596392236
 30
0.0
 10
58.96005453150701
 20
16.91150802289271
 30
0.0
 10
58.96005453150701
 20
16.8454160253025
 30
0.0
 10
58.94165399511849
 20
16.80448607201426
 30
0.0
 10
58.86481450181725
 20
16.70899396409429
 30
0.0
 10
58.8063978669511
 20
16.65444825961534
 30
0.0
 10
58.65272478063184
 20
16.53741641146802
 30
0.0
 10
58.55734623907642
 20
16.47486958821687
 30
0.0
 10
58.3377252125473
 20
16.34952402565044
 30
0.0
 10
58.21346600545917
 20
16.28678544050102
 30
0.0
 10
57.94918251593765
 20
16.1693167907214
 30
0.0
 10
57.79981519450701
 20
16.11038129809812
 30
0.0
 10
57.47408511078857
 20
16.00150530896342
 30
0.0
 10
57.2977205943339
 20
15.95163247861901
 30
0.0
 10
56.92880601544016
 20
15.86913437237415
 30
0.0
 10
56.73592667523235
 20
15.83650642547373
 30
0.0
 10
56.34677972771817
 20
15.7932128096718
 30
0.0
 10
56.15050469467826
 20
15.78258523496838
 30
0.0
 10
55.96005453150701
 20
15.78258523496838
 30
0.0
  0
ARC
  5
185F5
330
1F
100
AcDbEntity
  8
AM_0
100
AcDbCircle
 10
6.163752107580194
 20
6.918572983108781
 30
0.0
 40
0.726
100
AcDbArc
 50
196.9722150900625
 51
283.0277849099352
  0
ARC
  5
185F6
330
1F
100
AcDbEntity
  8
AM_0
100
AcDbCircle
 10
6.163752107580194
 20
3.510918388185722
 30
0.0
 40
0.726
100
AcDbArc
 50
76.97221509006482
 51
163.0277849099374
  0
CIRCLE
  5
185F7
330
1F
100
AcDbEntity
  8
AM_0
100
AcDbCircle
 10
5.180046958737989
 20
5.214745685647266
 30
0.0
 40
1.706099999999583
  0
CIRCLE
  5
185F9
330
1F
100
AcDbEntity
  8
AM_0
100
AcDbCircle
 10
5.180046958737989
 20
5.214745685647266
 30
0.0
 40
2.35
  0
CIRCLE
  5
185FA
330
1F
100
AcDbEntity
  8
AM_0
100
AcDbCircle
 10
5.180046958737989
 20
5.214745685647266
 30
0.0
 40
2.8
  0
ARC
  5
185FD
330
1F
100
AcDbEntity
  8
AM_0
100
AcDbCircle
 10
3.212636661053921
 20
5.214745685647266
 30
0.0
 40
0.726
100
AcDbArc
 50
316.9722150900641
 51
43.02778490993707
  0
ARC
  5
185FE
330
1F
100
AcDbEntity
  8
AM_0
100
AcDbCircle
 10
4.196341809896012
 20
3.510918388185608
 30
0.0
 40
0.726
100
AcDbArc
 50
16.97221509006256
 51
103.0277849099352
  0
ARC
  5
185FF
330
1F
100
AcDbEntity
  8
AM_0
100
AcDbCircle
 10
5.180046958738103
 20
3.811145685647567
 30
0.0
 40
0.3024999999998347
100
AcDbArc
 50
196.9722150900666
 51
343.0277849099334
  0
ARC
  5
18600
330
1F
100
AcDbEntity
  8
AM_0
100
AcDbCircle
 10
3.964493701986385
 20
4.512945685647445
 30
0.0
 40
0.3024999999998347
100
AcDbArc
 50
136.972215090063
 51
283.0277849099384
  0
ARC
  5
18601
330
1F
100
AcDbEntity
  8
AM_0
100
AcDbCircle
 10
4.196341809896012
 20
6.918572983108895
 30
0.0
 40
0.726
100
AcDbArc
 50
256.9722150900648
 51
343.0277849099375
  0
ARC
  5
18602
330
1F
100
AcDbEntity
  8
AM_0
100
AcDbCircle
 10
5.180046958738103
 20
6.618345685646993
 30
0.0
 40
0.3024999999998347
100
AcDbArc
 50
16.97221509006663
 51
163.0277849099334
  0
ARC
  5
18603
330
1F
100
AcDbEntity
  8
AM_0
100
AcDbCircle
 10
3.964493701986385
 20
5.916545685647201
 30
0.0
 40
0.3024999999998347
100
AcDbArc
 50
76.97221509006826
 51
223.027784909942
  0
ARC
  5
18604
330
1F
100
AcDbEntity
  8
AM_0
100
AcDbCircle
 10
7.147457256422285
 20
5.214745685647266
 30
0.0
 40
0.726
100
AcDbArc
 50
136.9722150900641
 51
223.0277849099359
  0
ARC
  5
18605
330
1F
100
AcDbEntity
  8
AM_0
100
AcDbCircle
 10
6.395600215489708
 20
4.512945685647445
 30
0.0
 40
0.3024999999998347
100
AcDbArc
 50
256.9722150900616
 51
43.02778490993707
  0
ARC
  5
18606
330
1F
100
AcDbEntity
  8
AM_0
100
AcDbCircle
 10
6.395600215489708
 20
5.916545685647201
 30
0.0
 40
0.3024999999998347
100
AcDbArc
 50
316.9722150900675
 51
103.0277849099418
  0
LINE
  5
18613
330
1F
100
AcDbEntity
  8
AM_7
  6
AM_ISO08W050x2
100
AcDbLine
 10
5.180046958737989
 20
10.56474568564724
 30
0.0
 11
5.180046958737989
 21
-0.1352543143527214
 31
0.0
1001
GENIUS_GENODEF_13
1002
{
1000
HIER
1070
     0
1002
}
1002
{
1000
MANEDIT
1070
     0
1002
}
1002
{
1000
NOSEL
1070
     0
1002
}
1002
{
1000
BEHIND
1070
     0
1002
}
1002
{
1000
REACTOR
1002
}
1001
GENIUS_GENOBJ-N-CEN_13
1002
{
1000
OWNER
1000
GEN
1002
}
  0
LINE
  5
1861B
330
1F
100
AcDbEntity
  8
AM_7
  6
AM_ISO08W050x2
100
AcDbLine
 10
10.53004695873801
 20
5.214745685647273
 30
0.0
 11
-0.1699530412620334
 21
5.214745685647273
 31
0.0
1001
GENIUS_GENODEF_13
1002
{
1000
HIER
1070
     0
1002
}
1002
{
1000
MANEDIT
1070
     0
1002
}
1002
{
1000
NOSEL
1070
     0
1002
}
1002
{
1000
BEHIND
1070
     0
1002
}
1002
{
1000
REACTOR
1002
}
1001
GENIUS_GENOBJ-N-CEN_13
1002
{
1000
OWNER
1000
GEN
1002
}
  0
LINE
  5
187A3
330
1F
100
AcDbEntity
  8
AM_5
100
AcDbLine
 10
-2.570757848202675
 20
0.0
 30
0.0
 11
0.3960510210162056
 21
0.0
 31
0.0
  0
LINE
  5
187A4
330
1F
100
AcDbEntity
  8
AM_5
100
AcDbLine
 10
0.0
 20
-3.141916874376904
 30
0.0
 11
0.0
 21
0.3966011501370019
 31
0.0
  0
CIRCLE
  5
188E5
330
1F
100
AcDbEntity
  8
AM_11
  6
ACJISTGB
100
AcDbCircle
 10
-52.80951493623513
 20
9.124901008997483
 30
0.0
 40
9.0
  0
DIMENSION
  5
188EF
330
1F
100
AcDbEntity
  8
AM_5
100
AcDbDimension
  2
*D6
 10
-46.34156845949224
 20
2.86665298147501
 30
0.0
 11
-77.01937263743588
 21
20.27720937049971
 31
0.0
 70
   163
  1
最小加工径\P<>
 71
     5
 42
17.99999999999992
  3
AM_JIS$3
100
AcDbDiametricDimension
 15
-59.27746141297814
 25
15.38314903651975
 35
0.0
 40
0.0
1001
GENIUS_GENDTOL_13
1000

1000
h7
1000

1040
0.0
1001
ACAD
1000
DSTYLE
1002
{
1070
   271
1070
     0
1070
   288
1070
     1
1070
   289
1070
     3
1070
   172
1070
     1
1070
    74
1070
     1
1002
}
  0
SPLINE
  5
189B0
330
1F
100
AcDbEntity
  8
AM_11
  6
ACJISTGB
100
AcDbSpline
210
0.0
220
0.0
230
1.0
 70
     8
 71
     3
 72
    10
 73
     6
 74
     4
 42
0.0000000001
 43
0.0000000001
 44
0.0000000001
 40
0.0
 40
0.0
 40
0.0
 40
0.0
 40
3.611293456373483
 40
9.398744622703486
 40
11.55174305206973
 40
11.55174305206973
 40
11.55174305206973
 40
11.55174305206973
 10
25.00090610714187
 20
-56.68482132315072
 30
0.0
 10
24.03030703441321
 20
-57.39926670349502
 30
0.0
 10
21.50422796445849
 20
-59.25868072172595
 30
0.0
 10
18.06726039923228
 20
-61.02172064558465
 30
0.0
 10
15.76170698033577
 20
-62.32041949089981
 30
0.0
 10
15.13657198893748
 20
-62.67255277258437
 30
0.0
 11
25.00090610714187
 21
-56.68482132315072
 31
0.0
 11
22.04920183188926
 21
-58.76541794419512
 31
0.0
 11
17.01616407190829
 21
-61.62253570677689
 31
0.0
 11
15.13657198893748
 21
-62.67255277258437
 31
0.0
  0
LINE
  5
18E5B
330
1F
100
AcDbEntity
  8
AM_5
100
AcDbLine
 10
0.0000073976090107
 20
-64.15684193455326
 30
0.0
 11
-8.038635261219724
 21
-63.45355183176986
 31
0.0
  0
DIMENSION
  5
198E9
330
1F
100
AcDbEntity
  8
AM_5
100
AcDbDimension
  2
*D8
 10
-8.038635261219724
 20
-63.45355183176986
 30
0.0
 11
-14.21837214555882
 21
-60.30907042218469
 31
0.0
 70
   162
 71
     5
 42
0.0872664625997148
  3
AM_JIS$2
100
AcDb2LineAngularDimension
 13
-1.773854710452724
 23
-64.18482132315072
 33
0.0
 14
153.6686900870427
 24
-64.18482132315074
 34
0.0
 15
0.0000073976090107
 25
-64.15684193455326
 35
0.0
 16
-14.71976054106371
 26
-63.74721441919705
 36
0.0
  0
LINE
  5
199AC
330
1F
100
AcDbEntity
  8
AM_0
100
AcDbLine
 10
0.8014021413591763
 20
9.574124424439841
 30
0.0
 11
1.102773193262692
 21
13.01881131023552
 31
0.0
  0
DIMENSION
  5
199F9
330
1F
100
AcDbEntity
  8
AM_5
100
AcDbDimension
  2
*D9
 10
0.8014021413591763
 20
9.574124424439841
 30
0.0
 11
-17.39169222558898
 21
18.9401686952681
 31
0.0
 70
    34
 71
     5
 42
1.658062789394622
  3
AM_JIS$2
100
AcDb2LineAngularDimension
 13
-2.570757848202675
 23
0.0
 33
0.0
 14
0.3960510210162056
 24
0.0
 34
0.0
 15
0.0015220838046162
 25
0.4314535306562277
 35
0.0
 16
-10.0396630420694
 26
19.91848238028081
 36
0.0
  0
DIMENSION
  5
19A41
330
1F
100
AcDbEntity
  8
AM_5
100
AcDbDimension
  2
*D10
 10
-9.337149193945606
 20
0.0000000000000026
 30
0.0
 11
-12.73714919394561
 21
4.499999999999987
 31
0.0
 70
    32
 71
     5
 42
8.999999999999972
  3
AM_JIS$0
100
AcDbAlignedDimension
 13
-2.16554845196606
 23
8.999999999999972
 33
0.0
 14
0.0
 24
0.0
 34
0.0
 50
90.0
100
AcDbRotatedDimension
1001
ACAD
1000
DSTYLE
1002
{
1070
   271
1070
     0
1002
}
  0
DIMENSION
  5
19AE0
330
1F
100
AcDbEntity
  8
AM_5
100
AcDbDimension
  2
*D11
 10
200.0000000000001
 20
-29.46738205201491
 30
0.0
 11
100.1184252911646
 21
-29.46738205201491
 31
0.0
 70
   160
 71
     5
 42
200.0000000000001
  3
AM_JIS$0
100
AcDbAlignedDimension
 13
0.0
 23
-3.141916874376904
 33
0.0
 14
200.0000000000001
 24
2.0
 34
0.0
100
AcDbRotatedDimension
1001
ACAD
1000
DSTYLE
1002
{
1070
   179
1070
     0
1070
   271
1070
     0
1002
}
  0
DIMENSION
  5
19AFB
330
1F
100
AcDbEntity
  8
AM_5
100
AcDbDimension
  2
*D12
 10
-52.21006334566823
 20
9.574018025552707
 30
0.0
 11
-52.80951493623525
 21
-13.59254745197003
 31
0.0
 70
   162
 71
     5
 42
0.0621922375291701
  3
AM_JIS$2
100
AcDb2LineAngularDimension
 13
-52.80951493623513
 23
21.59834088949032
 33
0.0
 14
-52.80951493623513
 24
-5.105140796584742
 34
0.0
 15
-52.77940073673562
 25
0.4313471317690869
 35
0.0
 16
-53.37075544975531
 26
-13.58091085048288
 36
0.0
1001
ACAD
1000
DSTYLE
1002
{
1070
   179
1070
     0
1070
   271
1070
     0
1002
}
  0
ENDSEC
  0
SECTION
  2
OBJECTS
  0
DICTIONARY
  5
C
330
0
100
AcDbDictionary
281
     1
  3
ACAD_COLOR
350
193A0
  3
ACAD_GROUP
350
D
  3
ACAD_LAYOUT
350
1A
  3
ACAD_MATERIAL
350
1939F
  3
ACAD_MLINESTYLE
350
17
  3
ACAD_PLOTSETTINGS
350
19
  3
ACAD_PLOTSTYLENAME
350
E
  3
ACAD_TABLESTYLE
350
193A1
  3
AcAmCatalogState
350
19408
  3
ACDBHEADERROUNDTRIPXREC
350
19DA6
  3
AcDbVariableDictionary
350
30
  3
ACDMSYSVARMGR
350
193BB
  3
ACGREF_MASTER
350
193B3
  3
ACGREFACAD_MASTER
350
193DB
  3
AcmDictionary
350
4D
  3
ACME_BOM_MANAGER_NAME
350
36
  3
ACME_COMMAND_HISTORY
350
2F
  3
ACME_SCOPE_NAME
350
2E
  3
ACMESTATEMGR
350
3B
  3
AcmeSysVarManager
350
32
  3
AcmSystemVariableManager
350
6A
  3
AD_APPL
350
193E6
  3
ADSYSVARMGR
350
193E5
  3
AmdtNamedDwgMgr
350
193D6
  3
AMG
350
3F
  3
AMGSNAPSETTINGS
350
73
  3
AMI_MASTER
350
193DE
  3
ASE_INDEX_DICTIONARY
350
194E1
  3
AUTOCAD_ASSEMBLIES_PROJECT
350
193EE
  3
Designer_Assemblies_SysVars
350
193E9
  3
DWGPROPS
350
19DA9
  3
eng_data
350
2A40
  3
FILENAME
350
2916
  3
GREFAM_MODULE
350
193DF
  3
line_dic_data
350
2A3E
  3
table_dic_data
350
1688
  3
ZWKSIZE
350
2918
  0
DICTIONARY
  5
19852
330
2
100
AcDbDictionary
280
     1
281
     1
  3
ACAD_LAYERSTATES
360
19853
  0
DICTIONARY
  5
165
330
1F
100
AcDbDictionary
280
     1
281
     1
  0
DICTIONARY
  5
193A0
102
{ACAD_REACTORS
330
C
102
}
330
C
100
AcDbDictionary
281
     1
  0
DICTIONARY
  5
D
102
{ACAD_REACTORS
330
C
102
}
330
C
100
AcDbDictionary
281
     1
  0
DICTIONARY
  5
1A
102
{ACAD_REACTORS
330
C
102
}
330
C
100
AcDbDictionary
281
     1
  3
Model
350
22
  3
ﾚｲｱｳﾄ1
350
1E
  3
ﾚｲｱｳﾄ2
350
26
  0
DICTIONARY
  5
1939F
102
{ACAD_REACTORS
330
C
102
}
330
C
100
AcDbDictionary
281
     1
  0
DICTIONARY
  5
17
102
{ACAD_REACTORS
330
C
102
}
330
C
100
AcDbDictionary
281
     1
  3
Standard
350
18
  0
DICTIONARY
  5
19
102
{ACAD_REACTORS
330
C
102
}
330
C
100
AcDbDictionary
281
     1
  0
ACDBDICTIONARYWDFLT
  5
E
102
{ACAD_REACTORS
330
C
102
}
330
C
100
AcDbDictionary
281
     1
  3
Normal
350
F
100
AcDbDictionaryWithDefault
340
F
  0
DICTIONARY
  5
193A1
102
{ACAD_REACTORS
330
C
102
}
330
C
100
AcDbDictionary
281
     1
  3
Standard
350
193A2
  0
ACAD_PROXY_OBJECT
  5
19408
102
{ACAD_REACTORS
330
C
102
}
330
C
100
AcDbProxyObject
 90
      499
 91
      571
 95
       25
 70
     0
 93
      600
310
3FFFFFFFE00A02814029F2E2E2816B9B2B93B32B92E483ECB652E4AABC7C0483ECB652E487CC6F6CBB846A445F7AE41BDC1B341A12E4B34482AE76F586C6EDC6F14413BC1B7C0AD94C00AA
  0
DICTIONARY
  5
19DA6
102
{ACAD_REACTORS
330
C
102
}
330
C
100
AcDbDictionary
281
     1
  3
COLORDICT
350
19DA7
  3
MATERIALDICT
350
19DA8
  0
DICTIONARY
  5
30
102
{ACAD_REACTORS
330
C
102
}
330
C
100
AcDbDictionary
281
     1
  3
CTABLESTYLE
350
19413
  3
HIDETEXT
350
19DA5
  3
INDEXCTL
350
19DA4
  0
ACAD_PROXY_OBJECT
  5
193BB
102
{ACAD_REACTORS
330
C
102
}
330
C
100
AcDbProxyObject
 90
      499
 91
      507
 95
       25
 70
     0
 93
      240
310
4C51A47A0000000000000000000000000000000000000000000000000000
330
193BC
330
193BD
330
193BE
330
193BF
330
193C0
330
193C1
330
193C2
330
193C3
330
193C4
330
193C5
330
193C6
330
193C7
330
193C8
330
193C9
330
193CA
330
193CB
330
193CC
330
193CD
330
193CE
330
193CF
330
193D0
330
193D1
330
193D2
330
193D3
330
193D4
330
193D5
 94
        0
  0
ACAD_PROXY_OBJECT
  5
193B3
102
{ACAD_REACTORS
330
C
102
}
330
C
100
AcDbProxyObject
 90
      499
 91
      535
 95
       25
 70
     0
 93
       34
310
0400004280
  0
ACAD_PROXY_OBJECT
  5
193DB
102
{ACAD_REACTORS
330
C
102
}
330
C
100
AcDbProxyObject
 90
      499
 91
      541
 95
       25
 70
     0
 93
      114
310
04000041C080000000000000000000
  0
DICTIONARY
  5
4D
102
{ACAD_REACTORS
330
C
102
}
330
C
100
AcDbDictionary
281
     1
  3
AcmBOMDATA
350
4E
  3
AcmStdDictionary
350
17E
  3
AMDTSECTSYM_ARROWCOLOR
350
193FC
  0
ACAD_PROXY_OBJECT
  5
36
102
{ACAD_REACTORS
330
C
102
}
330
C
100
AcDbProxyObject
 90
      499
 91
      510
 95
       25
 70
     0
 93
       50
310
00010040400000
330
0
330
0
330
37
 94
        0
  0
ACAD_PROXY_OBJECT
  5
2F
102
{ACAD_REACTORS
330
C
102
}
330
C
100
AcDbProxyObject
 90
      499
 91
      505
 95
       25
 70
     0
 93
     7300
310
478050644444544495440805184D5347202D20436F6D6D616E642043414E43454C4C45442E014B5354D1C80B481414104E88080819195CDADD1BDC0B985C9E08119A5B1955995C9CDA5BDB8E880E4B8C8B8C0B8D0050C475249505F5354524554434840405184D5347202D20436F6D6D616E642043414E43454C4C45442E01
310
4311D4925417D4D514915510D2201415454D05591501014B5354D1C80B481414104E88080819195CDADD1BDC0B985C9E08119A5B1955995C9CDA5BDB8E880E4B8C8B8C0B8D005055153415645404052D4D5347202D205050413A2020206465736B746F702E6172782046696C6556657273696F6E3A20392E322E302E340143
310
11D4925417D4D514915510D210201461354D1C80B4810DBDB5B585B990810D05390D1531311510B8052D4D5347202D205050413A2020206465736B746F702E6172782046696C6556657273696F6E3A20392E322E302E34014390535115149154D15511109353D1102014213880B4815539113C05084E202D20554E444F0141
310
15539113E014115539113E014154155491D150101461354D1C80B4810DBDB5B585B990810D05390D1531311510B805055153415645404052D4D5347202D205050413A2020206465736B746F702E6172782046696C6556657273696F6E3A20392E322E302E34014390535115149154D15511109353D1102014213880B481553
310
9113C05084E202D20554E444F014115539113E014115539113E01415454D05591501014B5354D1C80B481414104E88080819195CDADD1BDC0B985C9E08119A5B1955995C9CDA5BDB8E880E4B8C8B8C0B8D0050E414D4454524553455444424D4F4440805084E202D20554E444F014213880B4815539113C0504554E444F805
310
04554E444F80506524F544154458050844524F5047454F4D8050C475249505F53545245544348805055153415645404052D4D5347202D205050413A2020206465736B746F702E6172782046696C6556657273696F6E3A20392E322E302E3401411353D591601411693D3D3601415454D05591501014B5354D1C80B48141410
310
4E88080819195CDADD1BDC0B985C9E08119A5B1955995C9CDA5BDB8E880E4B8C8B8C0B8D0050E414D4454524553455444424D4F4440805084E202D20554E444F014213880B4815539113C0504554E444F80504554E444F805055055524745805055153415645404052D4D5347202D205050413A2020206465736B746F702E6
310
172782046696C6556657273696F6E3A20392E322E302E340
  0
ACAD_PROXY_OBJECT
  5
2E
102
{ACAD_REACTORS
330
C
102
}
330
C
100
AcDbProxyObject
 90
      499
 91
      504
 95
       25
 70
     0
 93
      586
310
09000046408000000000000000001344E200000000000000000000000000000000000000000000000000000000000000000000000000000000000000000000000000000000AAA406AA80
360
33
360
34
360
35
360
37
360
6B
360
6C
360
193B4
360
193B5
360
193B6
360
193B7
360
193B8
360
193B9
360
193BC
360
193BD
360
193BE
360
193BF
360
193C0
360
193C1
360
193C2
360
193C3
360
193C4
360
193C5
360
193C6
360
193C7
360
193C8
360
193C9
360
193CA
360
193CB
360
193CC
360
193CD
360
193CE
360
193CF
360
193D0
360
193D1
360
193D2
360
193D3
360
193D4
360
193D5
360
193E1
360
193E2
360
193E3
360
193E4
360
193EA
360
193EB
360
193EC
360
193ED
360
193F2
360
193F3
360
193F4
360
193F5
360
193F6
360
193F7
 94
        0
  0
ACAD_PROXY_OBJECT
  5
3B
102
{ACAD_REACTORS
330
C
102
}
330
C
100
AcDbProxyObject
 90
      499
 91
      515
 95
       25
 70
     0
 93
       50
310
09000042641280
  0
ACAD_PROXY_OBJECT
  5
32
102
{ACAD_REACTORS
330
C
102
}
330
C
100
AcDbProxyObject
 90
      499
 91
      507
 95
       25
 70
     0
 93
       48
310
903412000000
330
33
330
34
330
35
 94
        0
  0
ACAD_PROXY_OBJECT
  5
6A
102
{ACAD_REACTORS
330
C
102
}
330
C
100
AcDbProxyObject
 90
      499
 91
      507
 95
       25
 70
     0
 93
       40
310
90240E0000
330
6B
330
6C
 94
        0
  0
ACAD_PROXY_OBJECT
  5
193E6
102
{ACAD_REACTORS
330
C
102
}
330
C
100
AcDbProxyObject
 90
      499
 91
      551
 95
       25
 70
     0
 93
       42
310
000900004040
330
193E1
 94
        0
  0
ACAD_PROXY_OBJECT
  5
193E5
102
{ACAD_REACTORS
330
C
102
}
330
C
100
AcDbProxyObject
 90
      499
 91
      507
 95
       25
 70
     0
 93
        8
310
AA
  0
ACAD_PROXY_OBJECT
  5
193D6
102
{ACAD_REACTORS
330
C
102
}
330
C
100
AcDbProxyObject
 90
      499
 91
      540
 95
       25
 70
     0
 93
       42
310
000100005E80
330
193B4
 94
        0
  0
DICTIONARY
  5
3F
102
{ACAD_REACTORS
330
C
102
}
330
C
100
AcDbDictionary
281
     1
  3
AcMgSettings
350
40
  3
AMGLAYCFG
350
42
  0
DICTIONARY
  5
73
102
{ACAD_REACTORS
330
C
102
}
330
C
100
AcDbDictionary
281
     1
  3
DIMENSION
350
62F
  3
FEA
350
630
  3
HATCH (1)
350
631
  3
HATCH (2)
350
632
  3
SYMBOLS
350
633
  0
ACAD_PROXY_OBJECT
  5
193DE
102
{ACAD_REACTORS
330
C
102
}
330
C
100
AcDbProxyObject
 90
      499
 91
      544
 95
       25
 70
     0
 93
       34
310
0500004280
  0
DICTIONARY
  5
194E1
102
{ACAD_REACTORS
330
C
102
}
330
C
100
AcDbDictionary
281
     1
  3
ASEBlockHierarchyIndexRecord
350
194E3
1001
DCO15
1040
1562583665.64
  0
ACAD_PROXY_OBJECT
  5
193EE
102
{ACAD_REACTORS
330
C
102
}
330
C
100
AcDbProxyObject
 90
      499
 91
      554
 95
       25
 70
     0
 93
       98
310
0900004E400000000000000000
330
193F5
330
0
330
193F6
330
0
330
0
330
0
330
0
330
0
 94
        0
  0
ACAD_PROXY_OBJECT
  5
193E9
102
{ACAD_REACTORS
330
C
102
}
330
C
100
AcDbProxyObject
 90
      499
 91
      507
 95
       25
 70
     0
 93
       56
310
90441600000000
330
193EA
330
193EB
330
193EC
330
193ED
 94
        0
  0
XRECORD
  5
19DA9
102
{ACAD_REACTORS
330
C
102
}
330
C
100
AcDbXrecord
280
     1
  1
DWGPROPS COOKIE
  2

  3

  4

  6

  7

  8

  9

300
AmdtFileType=82
301
=
302
=
303
=
304
=
305
=
306
=
307
=
308
=
309
=
 40
0.0
 41
2451943.235431667
 42
2455482.222746667
  1

 90
        1
  0
DICTIONARY
  5
2A40
102
{ACAD_REACTORS
330
C
102
}
330
C
100
AcDbDictionary
281
     1
  3
eng_id
350
2A41
  0
DICTIONARY
  5
2916
102
{ACAD_REACTORS
330
C
102
}
330
C
100
AcDbDictionary
281
     1
  3
FILENAME
350
2917
  0
ACAD_PROXY_OBJECT
  5
193DF
102
{ACAD_REACTORS
330
C
102
}
330
C
100
AcDbProxyObject
 90
      499
 91
      545
 95
       25
 70
     0
 93
        8
310
05
  0
DICTIONARY
  5
2A3E
102
{ACAD_REACTORS
330
C
102
}
330
C
100
AcDbDictionary
281
     1
  3
line_data
350
2A3F
  0
DICTIONARY
  5
1688
102
{ACAD_REACTORS
330
C
102
}
330
C
100
AcDbDictionary
281
     1
  3
input_data
350
168A
  3
table_data
350
1689
  0
DICTIONARY
  5
2918
102
{ACAD_REACTORS
330
C
102
}
330
C
100
AcDbDictionary
281
     1
  3
ZWKSIZE
350
2919
  0
DICTIONARY
  5
19853
102
{ACAD_REACTORS
330
19852
102
}
330
19852
100
AcDbDictionary
281
     1
  0
LAYOUT
  5
22
102
{ACAD_REACTORS
330
1A
102
}
330
1A
100
AcDbPlotSettings
  1

  2
SII LP-2150 (D-SCAN C2)
  4
User262
  6
AM_VIEW1
 40
3.174999952316284
 41
3.174999952316284
 42
3.17498779296875
 43
3.17498779296875
 44
296.9259948730469
 45
419.9889831542969
 46
0.0
 47
0.0
 48
0.0
 49
0.0
140
420.0
141
297.0
142
1.0
143
1.022107788374329
 70
 11952
 72
     1
 73
     1
 74
     4
  7
sei_cad.ctb
 75
     0
147
0.9783703943695685
148
0.0
149
0.0
100
AcDbLayout
  1
Model
 70
     1
 71
     0
 10
0.0
 20
0.0
 11
12.0
 21
9.0
 12
0.0
 22
0.0
 32
0.0
 14
0.0
 24
0.0
 34
0.0
 15
0.0
 25
0.0
 35
0.0
146
0.0
 13
0.0
 23
0.0
 33
0.0
 16
1.0
 26
0.0
 36
0.0
 17
0.0
 27
1.0
 37
0.0
 76
     0
330
1F
  0
LAYOUT
  5
1E
102
{ACAD_REACTORS
330
1A
102
}
330
1A
100
AcDbPlotSettings
  1

  2
Canon LASER SHOT LBP-2030
  4

  6

 40
0.0
 41
0.0
 42
0.0
 43
0.0
 44
0.0
 45
0.0
 46
0.0
 47
0.0
 48
0.0
 49
0.0
140
0.0
141
0.0
142
1.0
143
1.0
 70
   688
 72
     0
 73
     0
 74
     5
  7
sei_cad.ctb
 75
    16
147
1.0
148
0.0
149
0.0
100
AcDbLayout
  1
ﾚｲｱｳﾄ1
 70
     1
 71
     1
 10
0.0
 20
0.0
 11
420.0
 21
297.0
 12
0.0
 22
0.0
 32
0.0
 14
1.000000000000000E+20
 24
1.000000000000000E+20
 34
1.000000000000000E+20
 15
-1.000000000000000E+20
 25
-1.000000000000000E+20
 35
-1.000000000000000E+20
146
0.0
 13
0.0
 23
0.0
 33
0.0
 16
1.0
 26
0.0
 36
0.0
 17
0.0
 27
1.0
 37
0.0
 76
     0
330
1B
  0
LAYOUT
  5
26
102
{ACAD_REACTORS
330
1A
102
}
330
1A
100
AcDbPlotSettings
  1

  2
Canon LASER SHOT LBP-2030
  4

  6

 40
0.0
 41
0.0
 42
0.0
 43
0.0
 44
0.0
 45
0.0
 46
0.0
 47
0.0
 48
0.0
 49
0.0
140
0.0
141
0.0
142
1.0
143
1.0
 70
   688
 72
     0
 73
     0
 74
     5
  7
sei_cad.ctb
 75
    16
147
1.0
148
0.0
149
0.0
100
AcDbLayout
  1
ﾚｲｱｳﾄ2
 70
     1
 71
     2
 10
0.0
 20
0.0
 11
12.0
 21
9.0
 12
0.0
 22
0.0
 32
0.0
 14
0.0
 24
0.0
 34
0.0
 15
0.0
 25
0.0
 35
0.0
146
0.0
 13
0.0
 23
0.0
 33
0.0
 16
1.0
 26
0.0
 36
0.0
 17
0.0
 27
1.0
 37
0.0
 76
     0
330
23
  0
MLINESTYLE
  5
18
102
{ACAD_REACTORS
330
17
102
}
330
17
100
AcDbMlineStyle
  2
STANDARD
 70
     0
  3

 62
   256
 51
90.0
 52
90.0
 71
     2
 49
0.5
 62
   256
  6
BYLAYER
 49
-0.5
 62
   256
  6
BYLAYER
  0
ACDBPLACEHOLDER
  5
F
102
{ACAD_REACTORS
330
E
102
}
330
E
  0
TABLESTYLE
  5
193A2
102
{ACAD_REACTORS
330
193A1
102
}
330
193A1
100
AcDbTableStyle
  3
Standard
 70
     0
 71
     8
 40
1.5
 41
1.5
280
     0
281
     0
  7
STANDARD
140
4.5
170
     2
 62
     0
 63
     7
283
     0
274
    -2
284
     1
 64
     0
275
    -2
285
     1
 65
     0
276
    -2
286
     1
 66
     0
277
    -2
287
     1
 67
     0
278
    -2
288
     1
 68
     0
279
    -2
289
     1
 69
     0
  7
STANDARD
140
6.0
170
     5
 62
     0
 63
     7
283
     0
274
    -2
284
     1
 64
     0
275
    -2
285
     1
 65
     0
276
    -2
286
     1
 66
     0
277
    -2
287
     1
 67
     0
278
    -2
288
     1
 68
     0
279
    -2
289
     1
 69
     0
  7
STANDARD
140
4.5
170
     5
 62
     0
 63
     7
283
     0
274
    -2
284
     1
 64
     0
275
    -2
285
     1
 65
     0
276
    -2
286
     1
 66
     0
277
    -2
287
     1
 67
     0
278
    -2
288
     1
 68
     0
279
    -2
289
     1
 69
     0
  0
XRECORD
  5
19DA7
102
{ACAD_REACTORS
330
19DA6
102
}
330
19DA6
100
AcDbXrecord
280
     1
340
193A0
  0
XRECORD
  5
19DA8
102
{ACAD_REACTORS
330
19DA6
102
}
330
19DA6
100
AcDbXrecord
280
     1
340
1939F
  0
DICTIONARYVAR
  5
19413
102
{ACAD_REACTORS
330
30
102
}
330
30
100
DictionaryVariables
280
     0
  1
STANDARD
  0
DICTIONARYVAR
  5
19DA5
102
{ACAD_REACTORS
330
30
102
}
330
30
100
DictionaryVariables
280
     0
  1
0
  0
DICTIONARYVAR
  5
19DA4
102
{ACAD_REACTORS
330
30
102
}
330
30
100
DictionaryVariables
280
     0
  1
1
  0
ACAD_PROXY_OBJECT
  5
4E
102
{ACAD_REACTORS
330
4D
102
}
330
4D
100
AcDbProxyObject
 90
      499
 91
      520
 95
       25
 70
     0
 93
      118
310
405010040CA904C415CD5B075DD0D8
350
4F
 94
        0
  0
DICTIONARY
  5
17E
102
{ACAD_REACTORS
330
4D
102
}
330
4D
100
AcDbDictionary
281
     1
  3
JIS
350
17F
  0
XRECORD
  5
193FC
102
{ACAD_REACTORS
330
4D
102
}
330
4D
100
AcDbXrecord
280
     1
 90
-1023410169
  0
ACAD_PROXY_OBJECT
  5
33
330
2E
100
AcDbProxyObject
 90
      499
 91
      508
 95
       25
 70
     0
 93
      156
310
00010143D050D351505391D5531054925390D490
330
2E
 94
        0
  0
ACAD_PROXY_OBJECT
  5
34
330
2E
100
AcDbProxyObject
 90
      499
 91
      508
 95
       25
 70
     0
 93
      148
310
000101439050D351531253915054925390D490
330
2E
 94
        0
  0
ACAD_PROXY_OBJECT
  5
35
330
2E
100
AcDbProxyObject
 90
      499
 91
      509
 95
       25
 70
     0
 93
      156
310
000101439050D35154D6535093D314D256915080
330
2E
 94
        0
  0
ACAD_PROXY_OBJECT
  5
37
330
2E
100
AcDbProxyObject
 90
      499
 91
      511
 95
       25
 70
     0
 93
       88
310
000101411093D34C402B00
330
2E
330
0
330
0
 94
        0
  0
ACAD_PROXY_OBJECT
  5
6B
330
2E
100
AcDbProxyObject
 90
      499
 91
      509
 95
       25
 70
     0
 93
      108
310
00010142505351D153D35054D4E0
330
2E
 94
        0
  0
ACAD_PROXY_OBJECT
  5
6C
330
2E
100
AcDbProxyObject
 90
      499
 91
      522
 95
       25
 70
     0
 93
      140
310
00010142105350D55494D511005034A49530
330
2E
 94
        0
  0
ACAD_PROXY_OBJECT
  5
193B4
330
2E
100
AcDbProxyObject
 90
      499
 91
      536
 95
       25
 70
     0
 93
      358
310
0001014124FEA55D00507392E322E302E32014124FEA55D00507392E322E302E3240501000041505391D311658
330
2E
330
193B5
330
193BB
 94
        0
  0
ACAD_PROXY_OBJECT
  5
193B5
330
2E
100
AcDbProxyObject
 90
      499
 91
      537
 95
       25
 70
     0
 93
       56
310
000190240E0000
330
2E
330
193B6
330
193B8
 94
        0
  0
ACAD_PROXY_OBJECT
  5
193B6
330
2E
100
AcDbProxyObject
 90
      499
 91
      538
 95
       25
 70
     0
 93
       48
310
0001AA000000
330
2E
330
1E
330
193B7
330
0
 94
        0
  0
ACAD_PROXY_OBJECT
  5
193B7
330
2E
100
AcDbProxyObject
 90
      499
 91
      539
 95
       25
 70
     0
 93
       28
310
0001AAA0
330
2E
 94
        0
  0
ACAD_PROXY_OBJECT
  5
193B8
330
2E
100
AcDbProxyObject
 90
      499
 91
      538
 95
       25
 70
     0
 93
       48
310
0001AA000000
330
2E
330
26
330
193B9
330
0
 94
        0
  0
ACAD_PROXY_OBJECT
  5
193B9
330
2E
100
AcDbProxyObject
 90
      499
 91
      539
 95
       25
 70
     0
 93
       28
310
0001AAA0
330
2E
 94
        0
  0
ACAD_PROXY_OBJECT
  5
193BC
330
2E
100
AcDbProxyObject
 90
      499
 91
      509
 95
       25
 70
     0
 93
      108
310
000101421053521310D05310D010
330
2E
 94
        0
  0
ACAD_PROXY_OBJECT
  5
193BD
330
2E
100
AcDbProxyObject
 90
      499
 91
      509
 95
       25
 70
     0
 93
      124
310
00010142905354915554D15112535010
330
2E
 94
        0
  0
ACAD_PROXY_OBJECT
  5
193BE
330
2E
100
AcDbProxyObject
 90
      499
 91
      509
 95
       25
 70
     0
 93
      132
310
00010143105354D150D51253D391125360
330
2E
 94
        0
  0
ACAD_PROXY_OBJECT
  5
193BF
330
2E
100
AcDbProxyObject
 90
      499
 91
      509
 95
       25
 70
     0
 93
      124
310
00010142905355941093D49111549010
330
2E
 94
        0
  0
ACAD_PROXY_OBJECT
  5
193C0
330
2E
100
AcDbProxyObject
 90
      499
 91
      509
 95
       25
 70
     0
 93
      116
310
0001014290535115D1D0D3D313D4A0
330
2E
 94
        0
  0
ACAD_PROXY_OBJECT
  5
193C1
330
2E
100
AcDbProxyObject
 90
      499
 91
      509
 95
       25
 70
     0
 93
      148
310
00010143505355925155D49151949154D21010
330
2E
 94
        0
  0
ACAD_PROXY_OBJECT
  5
193C2
330
2E
100
AcDbProxyObject
 90
      499
 91
      509
 95
       25
 70
     0
 93
      172
310
00010144105350539393D51154149154D15495915010
330
2E
 94
        0
  0
ACAD_PROXY_OBJECT
  5
193C3
330
2E
100
AcDbProxyObject
 90
      499
 91
      509
 95
       25
 70
     0
 93
      172
310
00010144105350555513D11253505494905391D15010
330
2E
 94
        0
  0
ACAD_PROXY_OBJECT
  5
193C4
330
2E
100
AcDbProxyObject
 90
      499
 91
      509
 95
       25
 70
     0
 93
      124
310
00010142D05351561514915191125360
330
2E
 94
        0
  0
ACAD_PROXY_OBJECT
  5
193C5
330
2E
100
AcDbProxyObject
 90
      499
 91
      509
 95
       25
 70
     0
 93
      132
310
00010142D05355105410539393D5115010
330
2E
 94
        0
  0
ACAD_PROXY_OBJECT
  5
193C6
330
2E
100
AcDbProxyObject
 90
      499
 91
      509
 95
       25
 70
     0
 93
      108
310
00010142105350555513D0D31010
330
2E
 94
        0
  0
ACAD_PROXY_OBJECT
  5
193C7
330
2E
100
AcDbProxyObject
 90
      499
 91
      509
 95
       25
 70
     0
 93
      108
310
00010142105350D3119150551050
330
2E
 94
        0
  0
ACAD_PROXY_OBJECT
  5
193C8
330
2E
100
AcDbProxyObject
 90
      499
 91
      509
 95
       25
 70
     0
 93
      108
310
00010142105350D315925155D3F0
330
2E
 94
        0
  0
ACAD_PROXY_OBJECT
  5
193C9
330
2E
100
AcDbProxyObject
 90
      499
 91
      509
 95
       25
 70
     0
 93
      148
310
0001014350535212511156915493D112535010
330
2E
 94
        0
  0
ACAD_PROXY_OBJECT
  5
193CA
330
2E
100
AcDbProxyObject
 90
      499
 91
      509
 95
       25
 70
     0
 93
      124
310
00010142905352105510D21254D3D010
330
2E
 94
        0
  0
ACAD_PROXY_OBJECT
  5
193CB
330
2E
100
AcDbProxyObject
 90
      499
 91
      509
 95
       25
 70
     0
 93
      148
310
00010143905354D25391D31152105513105660
330
2E
 94
        0
  0
ACAD_PROXY_OBJECT
  5
193CC
330
2E
100
AcDbProxyObject
 90
      499
 91
      509
 95
       25
 70
     0
 93
      124
310
00010142D0535115D1D193111254D420
330
2E
 94
        0
  0
ACAD_PROXY_OBJECT
  5
193CD
330
2E
100
AcDbProxyObject
 90
      499
 91
      509
 95
       25
 70
     0
 93
      100
310
00010142105350555513D213A0
330
2E
 94
        0
  0
ACAD_PROXY_OBJECT
  5
193CE
330
2E
100
AcDbProxyObject
 90
      499
 91
      509
 95
       25
 70
     0
 93
      116
310
000101425053521390D3D553951010
330
2E
 94
        0
  0
ACAD_PROXY_OBJECT
  5
193CF
330
2E
100
AcDbProxyObject
 90
      499
 91
      509
 95
       25
 70
     0
 93
      108
310
0001014210535213941493D29010
330
2E
 94
        0
  0
ACAD_PROXY_OBJECT
  5
193D0
330
2E
100
AcDbProxyObject
 90
      499
 91
      509
 95
       25
 70
     0
 93
      108
310
0001014210535213951654115070
330
2E
 94
        0
  0
ACAD_PROXY_OBJECT
  5
193D1
330
2E
100
AcDbProxyObject
 90
      499
 91
      509
 95
       25
 70
     0
 93
      108
310
000101421053521395925155D0F0
330
2E
 94
        0
  0
ACAD_PROXY_OBJECT
  5
193D2
330
2E
100
AcDbProxyObject
 90
      499
 91
      509
 95
       25
 70
     0
 93
      140
310
00010143505354D150D51253D390D3D41660
330
2E
 94
        0
  0
ACAD_PROXY_OBJECT
  5
193D3
330
2E
100
AcDbProxyObject
 90
      499
 91
      509
 95
       25
 70
     0
 93
      108
310
00010142105350D3141493D29030
330
2E
 94
        0
  0
ACAD_PROXY_OBJECT
  5
193D4
330
2E
100
AcDbProxyObject
 90
      499
 91
      508
 95
       25
 70
     0
 93
      212
310
00010143905350555513D2105510D21493D500000000000002E400
330
2E
 94
        0
  0
ACAD_PROXY_OBJECT
  5
193D5
330
2E
100
AcDbProxyObject
 90
      499
 91
      509
 95
       25
 70
     0
 93
      156
310
00010143905350555513D2105510D21111551010
330
2E
 94
        0
  0
ACAD_PROXY_OBJECT
  5
193E1
330
2E
100
AcDbProxyObject
 90
      499
 91
      547
 95
       25
 70
     0
 93
      698
310
0001000000009AA6A9AA4051E576564205365702030372030363A35333A313220323030352028555443290141CE4B8C8B8C0B8C80518547565204F63742031322031343A32303A343520323031300141CE4B8C8B8C0B8C80
330
2E
330
193E2
330
193E3
330
193E5
330
0
 94
        0
  0
ACAD_PROXY_OBJECT
  5
193E2
330
2E
100
AcDbProxyObject
 90
      499
 91
      548
 95
       25
 70
     0
 93
       70
310
0001AAA80820000000
330
2E
330
193E2
330
193E2
 94
        0
  0
ACAD_PROXY_OBJECT
  5
193E3
330
2E
100
AcDbProxyObject
 90
      499
 91
      549
 95
       25
 70
     0
 93
       48
310
000100000000
330
2E
330
0
330
193E4
330
0
330
0
 94
        0
  0
ACAD_PROXY_OBJECT
  5
193E4
330
2E
100
AcDbProxyObject
 90
      499
 91
      550
 95
       25
 70
     0
 93
       40
310
000100AAAA
330
2E
330
0
 94
        0
  0
ACAD_PROXY_OBJECT
  5
193EA
330
2E
100
AcDbProxyObject
 90
      499
 91
      522
 95
       25
 70
     0
 93
      180
310
00010143105050D3D35411119390535140504434F4D500
330
2E
 94
        0
  0
ACAD_PROXY_OBJECT
  5
193EB
330
2E
100
AcDbProxyObject
 90
      499
 91
      522
 95
       25
 70
     0
 93
      212
310
0001014390505193D311115491119390535140506466F6C6465720
330
2E
 94
        0
  0
ACAD_PROXY_OBJECT
  5
193EC
330
2E
100
AcDbProxyObject
 90
      499
 91
      522
 95
       25
 70
     0
 93
      180
310
00010143105050539393D1119390535140504284156290
330
2E
 94
        0
  0
ACAD_PROXY_OBJECT
  5
193ED
330
2E
100
AcDbProxyObject
 90
      499
 91
      522
 95
       25
 70
     0
 93
      436
310
00010143905050D3D35415925155D31254D50052295BD96CA0A90B396CA0A894591A496CA0A8DB691A496CA0A89BA96CA0A95E28F95310
330
2E
 94
        0
  0
ACAD_PROXY_OBJECT
  5
193F2
330
2E
100
AcDbProxyObject
 90
      499
 91
      555
 95
       25
 70
     0
 93
       32
310
00010000
330
2E
340
193EF
330
193F4
330
193EF
 94
        0
  0
ACAD_PROXY_OBJECT
  5
193F3
330
2E
100
AcDbProxyObject
 90
      499
 91
      556
 95
       25
 70
     0
 93
       18
310
000180
330
2E
 94
        0
  0
ACAD_PROXY_OBJECT
  5
193F4
330
2E
100
AcDbProxyObject
 90
      499
 91
      557
 95
       25
 70
     0
 93
      178
310
00010142D6109410CB4CCC4D948C4E1050055401550000
330
2E
330
193F2
330
193F3
 94
        0
  0
ACAD_PROXY_OBJECT
  5
193F5
330
2E
100
AcDbProxyObject
 90
      499
 91
      558
 95
       25
 70
     0
 93
      178
310
000100AAAAAA9BE72D9F0E641D52AFE0634E3DB5F3CEC0
330
2E
330
193F4
 94
        0
  0
ACAD_PROXY_OBJECT
  5
193F6
330
2E
100
AcDbProxyObject
 90
      499
 91
      559
 95
       25
 70
     0
 93
      108
310
000190140A000000000000AAAAA0
330
2E
330
193F7
330
193F7
330
193F7
330
193F7
330
193F7
330
0
 94
        0
  0
ACAD_PROXY_OBJECT
  5
193F7
330
2E
100
AcDbProxyObject
 90
      499
 91
      560
 95
       25
 70
     0
 93
       51
310
00010000AAAA80
330
2E
330
193F6
330
193F4
 94
        0
  0
DICTIONARY
  5
40
102
{ACAD_REACTORS
330
3F
102
}
330
3F
100
AcDbDictionary
281
     1
  3
DWGSETTINGS
350
41
  3
FEM
350
69
  3
Shaft
350
56
  3
TRANSSETTINGS
350
4C
  0
ACAD_PROXY_OBJECT
  5
42
102
{ACAD_REACTORS
330
3F
102
}
330
3F
100
AcDbProxyObject
 90
      499
 91
      519
 95
       25
 70
     0
 93
    23232
310
41502491013041105357CC201C00030C011E441013141105357CC603800030C011E441013241105357CCA01400030C011E441013341105357CCE01800030C010D9013441105357CD200C00030C010D9013541105357CD600C00030C010D9013641105357CDA00800030C011E9013741105357CDE01000030C010D901384110
310
5357CE200400030C011E9013941105357CE63F400030C0241102324141505357CC4C201C00030C011E902344141505357CC4C600C00030C010D902495041505357CC4CA01C00030C011E40902304E41505357CC13A01C00030C011E902314E41505357CC53A03800030C011E902324E41505357CC93A01400030C011E90233
310
4E41505357CCD3A01800030C010D902344E41505357CD13A00C00030C010D902354E41505357CD53A00C00030C010D902364E41505357CD93A00800030C011E902374E41505357CDD3A01000030C010D902384E41505357CE13A00400030C011E902394E41505357CE53A3F400030C024110332414E41905357CC4C13A01C0
310
0030C011E90334414E41905357CC4C53A00C00030C010D90349504E41905357CC4C93A01C00030C011E409044B4C494E41505357D0D3200400030C011E42504494E464F42105357D410549151A01000030C010D42D055241484D3541905357D093D4A01C00030C011E425045649455742105357D5925155D4E00400030C011
310
E42D06424548494E4441905357D25395A3F400030C0243505545241494C41505357D514A00C00030C010D4250348494441905357D21251201C00030C011E4250356495341905357D59254E01C00030C011E4250650415244494D42505357D41054911253600C00030C010D4250652454644494D42505357D49151911253601
310
000030C010D425774110531514901348070000C300479034110915312501348000000C0003FFFFFFFD034110921395901398000000C0003FFFFFFFE415092139594D06424548494E448000000C0003FFFFFFFE411093125110234418000000C0003FFFFFFFD03411093D05410234418000000C0003FFFFFFFD03411093D48C
310
9055241484D358010000C30047A411093D48CD055241484D358020000C30047A411093D48D5055241484D358000000C0003FFFFFFFE411093D48DD055241484D3581E0000C30047903411094105410234418000000C0003FFFFFFFD03411094115610234418000000C0003FFFFFFFD034110951112501358000000C0003FFF
310
FFFFD034110D0530C901348000000C0003FFFFFFFE4110D0530CD01348020000C30047A4110D0530D501348070000C30047A4110D0530DD013481E0000C30047A4110D15393901378000000C0003FFFFFFFE4110D15395D01378000000C0003FFFFFFFE4110D312539044B4C494E8000000C0003FFFFFFFE4110D3D38C5013
310
08000000C0003FFFFFFFD034110D3D38C901318000000C0003FFFFFFFD034110D3D38CD01328000000C0003FFFFFFFD034110D3D38D101328000000C0003FFFFFFFD034111115494101348000000C0003FFFFFFFD034111115510501348000000C0003FFFFFFFE4111125051D01358000000C0003FFFFFFFE4111125312501
310
358000000C0003FFFFFFFE411112535410650415244494D8000000C0003FFFFFFFE411112535490652454644494D8000000C0003FFFFFFFE411156135410234418000000C0003FFFFFFFD034111915353901388000000C0003FFFFFFFE415191535413901388030000C3004364151915354D410234418000000C0003FFFFFF
310
FE4151915354D510234418030000C300436415191535593901328000000C0003FFFFFFFE415191535595101328030000C3004364111931055101308000000C0003FFFFFFFD03411194905490234418000000C0003FFFFFFFD034111D49312501358000000C0003FFFFFFFD034111D5931250234418000000C0003FFFFFFFD0
310
34112105510D01388000000C0003FFFFFFFD014112125113901338000000C0003FFFFFFFD034112125115D01338000000C0003FFFFFFFD034112131253901348000000C0003FFFFFFFD01411213D0D3901378000000C0003FFFFFFFE411213D0D5D01378000000C0003FFFFFFFE4112539193D04494E464F8000000C0003FF
310
FFFFFE4113105112501348000000C0003FFFFFFFD034113115051101358000000C0003FFFFFFFE419397D0921395902394E8000000C0003FFFFFFFE419397D0D3D38C502304E8000000C0003FFFFFFFD03419397D0D3D38C902314E8000000C0003FFFFFFFD03419397D0D3D38CD02324E8000000C0003FFFFFFFD03419397
310
D0D3D38D102324E8000000C0003FFFFFFFD03419397D0D15393902374E8000000C0003FFFFFFFE419397D0D15395D02374E8000000C0003FFFFFFFE419397D1125312502354E8000000C0003FFFFFFFE419397D2105510D02384E8000000C0003FFFFFFFD01419397D2125113902334E8000000C0003FFFFFFFD03419397D2
310
125115D02334E8000000C0003FFFFFFFD03419397D3115051102354E8000000C0003FFFFFFFE419397D391D25410349504E8000000C0003FFFFFFFE419397D412105390334414E8000000C0003FFFFFFFE419397D510D3D3902304E8000000C0003FFFFFFFD03419397D5121312502344E8000000C0003FFFFFFFD01419397
310
D5131153902304E8000000C0003FFFFFFFD03419397D516150CD02364E8000000C0003FFFFFFFD03419397D594131250332414E8000000C0003FFFFFFFE411391D25410249508000000C0003FFFFFFFE411410530C9055241484D358010000C30047A411410530CD055241484D358020000C30047A411410530D5055241484
310
D358000000C0003FFFFFFFE411410530DD055241484D3581E0000C30047903411412105390234418000000C0003FFFFFFFE411413D4D3901368070000C30047A419413D4D49151901368050000C30047903411413D4D6101368000000C0003FFFFFFFD03411414D150D0234418000000C0003FFFFFFFD03411490D1D390137
310
8000000C0003FFFFFFFE411490D1D5D01378000000C0003FFFFFFFE4114919112501348000000C0003FFFFFFFD034114945514901348070000C30047903411494D093D01348000000C0003FFFFFFFD034114D09492D01348000000C0003FFFFFFFD014114D0D153901378000000C0003FFFFFFFD034114D150D51013480000
310
00C0003FFFFFFFD014114D15313901378000000C0003FFFFFFFD034114D15315D01378000000C0003FFFFFFFD034114D4D654D01308000000C0003FFFFFFFD034114D51312501348070000C300479034114D6508C501358000000C0003FFFFFFFD034114D6508C901358000000C0003FFFFFFFD034114D6508CD0135802000
310
0C30047A4114D6508D501358070000C300479034114D65353901378000000C0003FFFFFFFD034114D65355D01378000000C0003FFFFFFFD03411510D3D3901308000000C0003FFFFFFFD034115121312501348000000C0003FFFFFFFD01411512550C9055241484D358010000C30047A411512550CD055241484D358020000
310
C30047A411512550D5055241484D358000000C0003FFFFFFFE411512550DD055241484D3581E0000C300479034115131153901308000000C0003FFFFFFFD03415514905253105545241494C8000000C0003FFFFFFFE41151492D3901378000000C0003FFFFFFFD0341151492D5D01378000000C0003FFFFFFFD03411514931
310
2501348000000C0003FFFFFFFD01411516150C501368030000C300436411516150C901368030000C300436411516150CD01368000000C0003FFFFFFFE411516150D501368070000C30047A411516150DD013681E0000C30047A4115925155D04564945578000000C0003FFFFFFFE41159151121034849448000000C0003FFF
310
FFFFD0241159151159035649538000000C0003FFFFFFFD02411594131250232418000000C0003FFFFFFFE4116925690501348000000C0003FFFFFFFD01411354D653501358020000C30047AAAA3F400030C01013F90A4391E41D1E4190D4151E4110D40D0D4091E4051E4791E7F6
340
16
340
16
340
16
340
43
340
16
340
16
340
16
340
44
340
16
340
16
340
44
340
45
340
16
340
16
340
16
340
16
340
43
340
16
340
16
340
16
340
44
340
16
340
16
340
44
340
45
340
16
340
46
340
16
340
16
340
16
340
16
340
16
340
43
340
16
340
16
340
16
340
47
340
15
340
15
340
15
340
15
340
15
340
15
340
15
340
15
340
15
340
15
340
15
340
15
340
15
340
15
340
15
340
15
340
48
340
15
340
15
340
15
340
15
340
15
340
15
340
15
340
15
340
15
340
15
340
15
340
15
340
15
340
15
340
15
340
16
340
15
340
15
340
15
340
15
340
15
340
15
340
15
340
15
340
47
340
15
340
15
340
48
340
15
340
15
340
15
340
15
340
15
340
15
340
15
340
15
340
15
340
48
340
15
340
15
340
15
340
47
340
15
340
15
340
15
340
15
340
15
340
15
340
15
340
15
340
15
340
15
340
15
340
15
340
15
340
15
340
15
340
15
340
15
340
15
340
15
340
48
340
15
340
15
340
48
340
15
340
15
340
16
340
15
340
48
340
15
340
15
340
47
340
15
340
15
340
16
340
15
340
48
340
15
340
15
340
15
340
15
340
15
340
15
340
15
340
15
340
15
340
48
340
15
340
15
340
15
340
15
340
15
340
15
340
15
340
15
340
15
340
15
340
15
340
4B
340
16
 94
        0
  0
ACAD_PROXY_OBJECT
  5
62F
102
{ACAD_REACTORS
330
73
102
}
330
73
100
AcDbProxyObject
 90
      499
 91
      523
 95
       25
 70
     0
 93
      253
310
43D1444494D454E53494F4E2C414D44545F2A5F44494D404A9012A404A9012A0
  0
ACAD_PROXY_OBJECT
  5
630
102
{ACAD_REACTORS
330
73
102
}
330
73
100
AcDbProxyObject
 90
      499
 91
      523
 95
       25
 70
     0
 93
      181
310
43D012A42D05357D191504B505357CA9012A404A9012A8
  0
ACAD_PROXY_OBJECT
  5
631
102
{ACAD_REACTORS
330
73
102
}
330
73
100
AcDbProxyObject
 90
      499
 91
      523
 95
       25
 70
     0
 93
      133
310
43D054841544348404A9012A404A9012A8
  0
ACAD_PROXY_OBJECT
  5
632
102
{ACAD_REACTORS
330
73
102
}
330
73
100
AcDbProxyObject
 90
      499
 91
      523
 95
       25
 70
     0
 93
      549
310
43D044C494E4549CE0B0E138B0A8B4E0B0A8B4E138B105357CE0B105357CE138B0A8B505357CE0B0A8B505357CE139012A404A910494E534552542C5354445041525432448
  0
ACAD_PROXY_OBJECT
  5
633
102
{ACAD_REACTORS
330
73
102
}
330
73
100
AcDbProxyObject
 90
      499
 91
      523
 95
       25
 70
     0
 93
      909
310
43D6641434D46434652414D452C41434D444154554D5441524745542C41434D444154554D49442C41434D57454C4453594D2C41434D5355524653594D2C41434D4645415449442C41434D504152545245462C41434D42414C4C4F4F4E2C414D44544544474553594D404A9012A404A9012A8
  0
XRECORD
  5
194E3
102
{ACAD_REACTORS
330
194E1
102
}
330
194E1
100
AcDbXrecord
280
     1
330
0
330
0
330
0
330
0
330
0
330
0
330
0
330
0
330
0
330
0
330
0
330
0
330
0
330
0
330
0
330
0
330
0
330
0
330
0
330
0
330
0
330
0
330
0
330
0
330
0
330
0
330
0
330
0
330
0
330
0
330
0
330
0
330
0
330
0
330
0
330
0
330
0
330
0
330
0
330
0
330
0
330
0
330
0
330
0
330
0
330
0
330
0
330
0
330
0
330
0
330
0
330
0
330
0
330
0
330
0
330
0
330
0
330
0
330
0
330
0
330
0
330
0
330
0
330
0
330
0
330
0
330
0
330
0
330
0
330
0
  0
XRECORD
  5
2A41
102
{ACAD_REACTORS
330
2A40
102
}
330
2A40
100
AcDbXrecord
280
     1
  1
LINE
  0

  0
XRECORD
  5
2917
102
{ACAD_REACTORS
330
2916
102
}
330
2916
100
AcDbXrecord
280
     1
  1
25000259__00___
  0

  0
XRECORD
  5
2A3F
102
{ACAD_REACTORS
330
2A3E
102
}
330
2A3E
100
AcDbXrecord
280
     1
  1
110 ^M^J ^M^J ^M^J ^M^J ^M^J ^M^J ^M^J ^M^J ^M^J ^M^J ^M^Jボーリングクイル ^M^J鋼 ^M^J特型 ^M^J直付け ^M^Jストレート ^M^J25 ^M^J2 ^M^J ^M^Jアルミ ^M^J ^M^J
  0

  0
XRECORD
  5
168A
102
{ACAD_REACTORS
330
1688
102
}
330
1688
100
AcDbXrecord
280
     1
  1
1,,,,,,,,,^M^J2,,,,,,,,,^M^J3,,,,,,,,,^M^J4,,,,,,,,,^M^J5,,,,,,,,,^M^J6,,,,,,,,,^M^J7,,,,,,,,,^M^J8,,,,,,,,,^M^J9,,,,,,,,,^M^J10,,,,,,,,,
  0

  0
XRECORD
  5
1689
102
{ACAD_REACTORS
330
1688
102
}
330
1688
100
AcDbXrecord
280
     1
  1
10,10
  0

  0
XRECORD
  5
2919
102
{ACAD_REACTORS
330
2918
102
}
330
2918
100
AcDbXrecord
280
     1
  1
3
  0

  0
ACAD_PROXY_OBJECT
  5
4F
102
{ACAD_REACTORS
330
4E
102
}
330
4E
100
AcDbProxyObject
 90
      499
 91
      521
 95
       25
 70
     0
 93
      157
310
057356C1D77406406AA8FFFFFFFF05DD01009010
330
1F
330
0
330
193F4
 94
        0
  0
ACAD_PROXY_OBJECT
  5
17F
102
{ACAD_REACTORS
330
17E
102
}
330
17E
100
AcDbProxyObject
 90
      499
 91
      526
 95
       25
 70
     0
 93
     2379
310
5DC33333333333309408000000C00040D29254D01640600800030C0200800030C003333333333330940C8121E8720B1B6A9BAB9332A32BC3A29BA3220480A1282C6DA8C868CA6E8C88120286A0B1B6ABB2B63234B733A9BA3220480A1082C6DA92C8A6E8C88120285A0B1B6A230BA3AB6A9BA3220480A1282C6DA849E9AA6E
310
8C88120286A0B1A0B6B3AA34BA3632A9BA3220480A2082DAC8E888CAE8C2D2D8A6F2DAA6E8C88120288A0B6B23A29B2B1BA34B7B729BCB6A9BA3220480A2282DAC8E886CADCE8CAE498D2DCCAA6E8C88120288A0B6B23A2A343932B0B22634B732A9BA3220480A1682DAC8E89CDEE8CAA6E8C88120285A0B1A0B6B3A630BCA
310
9BA3220480A1682C682DACE88D2DAA6E8C88120288A0B1A0B6B3A437B632A1B430B93A29BA3220480C812020
340
180
360
181
360
182
360
183
360
184
360
185
360
186
360
193F9
360
193FA
360
193FB
360
193FD
360
193FE
360
193FF
360
19405
360
19406
360
19407
340
0
340
0
 94
        0
  0
ACAD_PROXY_OBJECT
  5
41
102
{ACAD_REACTORS
330
40
102
}
330
40
100
AcDbProxyObject
 90
      499
 91
      518
 95
       25
 70
     0
 93
     2962
310
4050B44574753455454494E4753A0E8482A68AA6A88882A069492A684A1A0A723A0A92920ACA0A81969B1820C868A9C829C8E82A12686AF87260F862666A8321A2A72224A0A50000000000000122020E868A9C889282A682A106260F86460F8666083A1A2A72224A9AA250000000000000042020C868A9C988A9C940000000
310
00000048808321A2A727A323250000000000000122020E868A9C9E8C8C62940000000000000488083A1A2A727A32319250000000000000122021CC6D0C2DACCCAE4C8D2DADADEC8CA9FC84A1A624A720A92920ACA0A819918182108698929C8AA8B2A082A0AB098929C8A84A22BA3AAA9A1A0A622A50A0E9882A6A89E84948
310
2A02608426A0A5A2AB24A2ABA7E8120CA0A68682988A0C00800010652455649534941501304154D0D0531150540CC4E8C5085354414E44415244415034A4953425512535154D51053541283B5991509E4ADCD050756455253494F4E4150531352E3030441ED115D1D4D15515125391D4D153911F40
  0
ACAD_PROXY_OBJECT
  5
69
102
{ACAD_REACTORS
330
40
102
}
330
40
100
AcDbProxyObject
 90
      499
 91
      518
 95
       25
 70
     0
 93
      411
310
4050346454D21092DCC6E486DECACC942842630BCA3B937BAB820A8320A6AFA322A0A20F688AE8EA68AA8A8929C8EA68A9C88FA0
  0
ACAD_PROXY_OBJECT
  5
56
102
{ACAD_REACTORS
330
40
102
}
330
40
100
AcDbProxyObject
 90
      499
 91
      518
 95
       25
 70
     0
 93
      583
310
40505536861667421292DCE8CAE4E4EAE0E89FA0484A634B3B43A2634B732A7F21A98D2CED0E898D2DCCAACD2CAEE9FC8229B4B232A7E80A20F688AE8EA68AA8A8929C8EA68A9C88FA
  0
ACAD_PROXY_OBJECT
  5
4C
102
{ACAD_REACTORS
330
40
102
}
330
40
100
AcDbProxyObject
 90
      499
 91
      518
 95
       25
 70
     0
 93
      852
310
4050D5452414E5353455454494E4753A2488A482AE929C8EA8A4829CA69882A8929E9C0C00800050D4F524947494E414C4C595F4F4E0600400028529A7AAA921A2A620A723A0A81A52827212AAA0A48AA68AA4AC8A0C0080001107B44574753455454494E4753454E447D0
  0
ACAD_PROXY_OBJECT
  5
181
330
17F
100
AcDbProxyObject
 90
      499
 91
      527
 95
       25
 70
     0
 93
       86
310
5DEA0C80A0280A0280A034
  0
ACAD_PROXY_OBJECT
  5
182
330
17F
100
AcDbProxyObject
 90
      499
 91
      528
 95
       25
 70
     0
 93
      282
310
5DD0E4050140501405014050140501405014050141101405014041000000000000001000
340
187
 94
        0
  0
ACAD_PROXY_OBJECT
  5
183
330
17F
100
AcDbProxyObject
 90
      499
 91
      529
 95
       25
 70
     0
 93
      323
310
5DCC199999999999E99F91740501405014050140501405014050140501405014050140501405014040
340
0
 94
        0
  0
ACAD_PROXY_OBJECT
  5
184
330
17F
100
AcDbProxyObject
 90
      499
 91
      530
 95
       25
 70
     0
 93
       10
310
5DC0
  0
ACAD_PROXY_OBJECT
  5
185
330
17F
100
AcDbProxyObject
 90
      499
 91
      531
 95
       25
 70
     0
 93
      257
310
5DE0C16A22A7D90F49F80000000000001081400000000000004204010000618000
340
188
340
189
 94
        0
  0
ACAD_PROXY_OBJECT
  5
186
330
17F
100
AcDbProxyObject
 90
      499
 91
      532
 95
       25
 70
     0
 93
     5277
310
5DD06411255115350141236025B6901405014069010000000000000910240690120281A8AA2CA0282484A4BE52028120280A032020000000000001220480D202405044E414D454050496BC914F4051C40640A80000000000004E4090193C3D3C4946284953424C414E4B28504152543A4E414D45292C424C4F434B3A4E414D
310
452C504152543A4E414D45293E3C41435F44455343524950544E3E40480A109A82A88AA492829880A091BBD2F7E80A3A80C81D0E27A15AF46E08A81203480901411393D5115014124A363B7D0147501904A0000000000000F902406428F4F1050D7D393D5114F901202832B22A72227A92028366EF6EE06F582028EA0320B4
310
0000000000001F20480C879E9E20A1AFAB27222FA620A122A61F20240506445020000000000000490201C00030C00010180000000000003E400000000000000F901073D3C4954454D3E4050180000000000003E400000000000000F901073D3C4954454D3E40501800000000000034400000000000000D101073D3C4954454
310
D3E40501800000000000034400000000000000D101073D3C4954454D3E405029010000000000000F9000000000000003E4041CF4F125511534F901418F4F1455164F9014060000000000000F9000000000000003E4041CF4F125511534F901800000000000034400000000000000D101073D3C4954454D3E40640400000000
310
0000003E400000000000000F90288800000000000020810000001800120881A068120480A032208521122080D21480D211480A1485214852050000000000003C2FC000000000000F0BF40600800030C0200400030C00CDCCCCCCCCCCEC3F3373333333333B0FC3333333333330940C80D069014090341504901A1999999999
310
9984A040100006180400800061804010000618008098A02808
340
0
340
0
 94
        0
  0
ACAD_PROXY_OBJECT
  5
193F9
330
17F
100
AcDbProxyObject
 90
      499
 91
      561
 95
       25
 70
     0
 93
     3042
310
5DD9740D29254D064A49535F413342929254D7D512551311505134A49535F42525F5265766973696F6E6C6973744190F4134522028323937783231306D6D2941D29254D7D04D1490E41312028353934783834316D6D2941929254D7D04C50E41332028323937783432306D6D2941929254D7D04CD0F41344C2028323130783
310
239376D6D2941D29254D7D04D1310E41322028343230783539346D6D2941929254D7D04C90F4130202838343178313138396D6D2941929254D7D04C10243129254C82557247A25E4C81050A4A49535F5449544C454143129254C82557247A25E4C81090A4A49535F5449544C45424110E979A97F0838A835883675F42525F4
310
4D29254D7D09497D4995D9A5CDA5BDB9B1A5CDD10E979A97F0838A835883675F54525F44D29254D7D51497D4995D9A5CDA5BDB9B1A5CDD10E979A97F0838A835883675F424C5F44D29254D7D09317D4995D9A5CDA5BDB9B1A5CDD10E979A97F0838A835883675F544C5F44D29254D7D51317D4995D9A5CDA5BDB9B1A5CDD00
  0
ACAD_PROXY_OBJECT
  5
193FA
330
17F
100
AcDbProxyObject
 90
      499
 91
      562
 95
       25
 70
     0
 93
      898
310
5DC4000000000000124048CF4F11115510525317D3105091530F880A0F11115510525317D05094D4D0D053114F8A50241C9A9999999999B93F26A666666666724FC000000000000E03F400000000000000400000000000000510000000000000024408070000C300000000000000049000
340
16
340
180
 94
        0
  0
ACAD_PROXY_OBJECT
  5
193FB
330
17F
100
AcDbProxyObject
 90
      499
 91
      563
 95
       25
 70
     0
 93
      823
310
5DC0B00000000000002480959E9E29A2A1AA24A7A72FA620A122A62FA324A929AA1F169E29A2A1AA24A7A72FA620A122A62FA620A9AA1F000000000000048803FFFE01C00030C008140380006180000000000000048800000000000000A2000000000000002480
340
652
340
180
 94
        0
  0
ACAD_PROXY_OBJECT
  5
193FD
330
17F
100
AcDbProxyObject
 90
      499
 91
      564
 95
       25
 70
     0
 93
      152
310
5DE8273108AC1C5A0640A3D0A5723F0BD1F200
  0
ACAD_PROXY_OBJECT
  5
193FE
330
17F
100
AcDbProxyObject
 90
      499
 91
      565
 95
       25
 70
     0
 93
       14
310
5DE0
340
0
 94
        0
  0
ACAD_PROXY_OBJECT
  5
193FF
330
17F
100
AcDbProxyObject
 90
      499
 91
      566
 95
       25
 70
     0
 93
     6059
310
5DD084050BA4050AA405024050E836583938376838C815B83672031405983D3C486F6C653A6469613E3C696628657175616C28486F6C653A7465726D696E6174696F6E2C223022292C2220905B82B320222C22208368838A838B22293E3C696628657175616C28486F6C653A7465726D696E6174696F6E2C223022292C486F
310
6C653A64657074682C2222293E2C203C486F6C653A63746469613E2082B482AE82E882CC905B82B3203C486F6C653A637464657074683E406901405034050E836583938376838C815B83672031405EF3D3C486F6C653A6374616E676C653E252564202525633C486F6C653A63746469613E208E4D8C8A2C203C69662865717
310
5616C28486F6C653A7461707065642C223022292C22252563222C486F6C653A6E6F6D696E616C202220782022293E3C696628657175616C28486F6C653A7461707065642C223022292C486F6C653A6469612C486F6C653A706974636864657363293E203C696628657175616C28486F6C653A7465726D696E6174696F6E2C2
310
23022292C22905B82B320222C222022293E3C696628657175616C28486F6C653A7465726D696E6174696F6E2C223022292C486F6C653A64657074682C2222293E406901405014050E836583938376838C815B83672031405C73D3C696628657175616C28486F6C653A7461707065642C223022292C22252563222C486F6C65
310
3A6E6F6D696E616C202220782022293E3C696628657175616C28486F6C653A7461707065642C223022292C486F6C653A6469612C486F6C653A706974636864657363293E203C696628657175616C28486F6C653A7465726D696E6174696F6E2C223022292C22905B82B320222C222022293E3C696628657175616C28486F6C
310
653A7465726D696E6174696F6E2C223022292C486F6C653A64657074682C2222293E4069014051E4090E836583938376838C815B83672032405173D3C535444503A444553433E203C535444503A5354443E40690E836583938376838C815B836720314050C3D3C535444503A444553433E40690240515AAABBA120
360
19403
330
19403
360
19404
330
19404
360
19402
330
19402
360
19401
360
19400
330
19401
330
19400
 94
        0
  0
ACAD_PROXY_OBJECT
  5
19405
330
17F
100
AcDbProxyObject
 90
      499
 91
      568
 95
       25
 70
     0
 93
       26
310
5DD02A80
340
42
 94
        0
  0
ACAD_PROXY_OBJECT
  5
19406
330
17F
100
AcDbProxyObject
 90
      499
 91
      569
 95
       25
 70
     0
 93
      250
310
5DD020000000000000A1000000000000002440408F0F9023C3E409A0DCFFFF80
340
58
340
1B97
340
1B98
340
5F
340
60
340
61
340
62
340
63
340
68
340
0
 94
        0
  0
ACAD_PROXY_OBJECT
  5
19407
330
17F
100
AcDbProxyObject
 90
      499
 91
      570
 95
       25
 70
     0
 93
    13889
310
5DD1D003FFFFFFFD030300030CCCCCCCCCCCC250200800030C01030300030CCCCCCCCCCCC250200800030C00050C8DC0955782CC838A83588367014ED1D15395149050D3CB1294138B0C0B23702555E0B320E2A0D620D9CB11D15395149055160B095CCB0A11D1539354D1C819D95B991A5B5E880CCC0A78000C0000000000
310
00000000000000000000010CCCCCCCCCCCC250200800030C010CCCCCCCCCCCC250200800030C020143CF4F111959985D5B1D151A5D1B194F8050A8C8A8365815B8375838B014E51D15395149050D3CB1294138B0C0B2322A0D96056E0DD60E2CB11D15395149055160B095CCB0A11D1539354D1C819D95B991A5B5E880CCC4
310
A78000C000000000000000000000000000000010CCCCCCCCCCCC250200800030C010CCCCCCCCCCCC250200800030C020143CF4F111959985D5B1D151A5D1B194F90D44111409034110541D0C4350F4050E44D03449074510F000141232D24D7C053247454E545241434F2C4A504E2C302C8CB4935F2C47454E54524154582C
310
25732C2847454E4D53472067656E64696D7A20312900010104002214000281464500A608E8A9CA8A482869E5894A09C5860591914588E8A9CA8A482A8B0584AE658508E8A9C9AA68E40CECADCC8D2DAF4406452029E9E9E27B934B3B4B71F1E24A31427A91424A9A12620A7259427B934B3B4B7149624A9A12620A7259424B
310
A32B6949496111116111711149F1E24BA32B69F00808200111A000140560052F47454E545241434F2C4A504E2C302C582C47454E54524154582C25732C2847454E4D53472067656E64696D7A20332900010100002054000280AC80A5E8E8A9CA8A482869E5894A09C586058B2588E8A9CA8A482A8B0584AE658508E8A9C9AA
310
68E40CECADCC8D2DAF4406852000202000040E800050152014BD1D15395149050D3CB1294138B0C0B148B11D15395149055160B095CCB0A11D1539354D1C819D95B991A5B5E880D8A400040400008250000A0507A6029823A2A72A2920A1A79625282716181641E99623A2A72A2920AA2C1612B9961423A2A726A9A39033B2
310
B73234B6BD101B948000808180105A000140A0F4C053047454E545241434F2C4A504E2C302C83D32C47454E54524154582C25732C2847454E4D53472067656E64696D7A203829000101010020F400028248704B5F00A668E8A9CA8A482869E5894A09C58605921C12D7C588E8A9CA8A482A8B0584AE658508E8A9C9AA68E40
310
CECADCC8D2DAF440646052000200080043280005048B4B8A69014CD1D15395149050D3CB1294138B0C0B22D2E29A4B11D15395149055160B095CCB0A11D1539354D1C819D95B991A5B5E880C8C4A4000400100086D0000A09196926BE029923A2A72A2920A1A796252827161816465A49AF9623A2A72A2920AA2C1612B9961
310
423A2A726A9A39033B2B73234B6BD10189480A02620202080043E80005048D8096DA014CD1D15395149050D3CB1294138B0C0B236025B68B11D15395149055160B095CCB0A11D1539354D1C819D95B991A5B5E880C4D0A4000404140280D0000A190687072706CD06C5069D06B0029DA3A2A72A2920A1A7962528271618164
310
1A1C1C9C1B341B141A741AC1623A2A72A2920AA2C1612B9961423A2A726A9A39033B2B73234B6BD10189A94800080820050EA000143A322A0D0E0E4E0D9A0D8A0D3A0D60053D47454E545241434F2C4A504E2C302C8C8A8343839383668362834E83582C47454E54524154582C25732C2847454E4D53472067656E64696D7A
310
2031372900010105002274000281464500A628E8A9CA8A482869E5894A09C5860591914588E8A9CA8A482A8B0584AE658508E8A9C9AA68E40CECADCC8D2DAF440626C52000202080044A8000504909497CA014CD1D15395149050D3CB1294138B0C0B242525F28B11D15395149055160B095CCB0A11D1539354D1C819D95B9
310
91A5B5E880C4E4A400040418008A521E000000000000001CA040C00000000000034408080000000000006881010000000000000D102040000000000001A204080000000000003440818000000000000728103000000000000125020600000000004028A040000000000000034408000000000000004881000000000000000D
310
102000000000000001A204000000000000003440818000000000000508143C0000000000000039408180000000000006881030000000000000D102060000000000001A2040C00000000000034408180000000000006881030000000000000E5020600000000000024A040C0000000000805140800000000000000688100000
310
00000000009102000000000000001A2040000000000000034408180000000000006881030000000000000A10284220000000878000002020000008380000020400000081800000208000000828000002028900000000
340
0
340
0
340
0
340
0
340
180
340
180
 94
        0
  0
ACAD_PROXY_OBJECT
  5
19403
330
193FF
100
AcDbProxyObject
 90
      499
 91
      567
 95
       25
 70
     0
 93
     1376
310
5DE0143A0D960E4E0DDA0E32056E0D9C80C405983D3C486F6C653A6469613E3C696628657175616C28486F6C653A7465726D696E6174696F6E2C223022292C2220905B82B320222C22208368838A838B22293E3C696628657175616C28486F6C653A7465726D696E6174696F6E2C223022292C486F6C653A64657074682C22
310
22293E2C203C486F6C653A63746469613E2082B482AE82E882CC905B82B3203C486F6C653A637464657074683E
  0
ACAD_PROXY_OBJECT
  5
19404
330
193FF
100
AcDbProxyObject
 90
      499
 91
      567
 95
       25
 70
     0
 93
     2072
310
5DE0143A0D960E4E0DDA0E32056E0D9C80C405EF3D3C486F6C653A6374616E676C653E252564202525633C486F6C653A63746469613E208E4D8C8A2C203C696628657175616C28486F6C653A7461707065642C223022292C22252563222C486F6C653A6E6F6D696E616C202220782022293E3C696628657175616C28486F6C
310
653A7461707065642C223022292C486F6C653A6469612C486F6C653A706974636864657363293E203C696628657175616C28486F6C653A7465726D696E6174696F6E2C223022292C22905B82B320222C222022293E3C696628657175616C28486F6C653A7465726D696E6174696F6E2C223022292C486F6C653A6465707468
310
2C2222293E
  0
ACAD_PROXY_OBJECT
  5
19402
330
193FF
100
AcDbProxyObject
 90
      499
 91
      567
 95
       25
 70
     0
 93
     1752
310
5DE0143A0D960E4E0DDA0E32056E0D9C80C405C73D3C696628657175616C28486F6C653A7461707065642C223022292C22252563222C486F6C653A6E6F6D696E616C202220782022293E3C696628657175616C28486F6C653A7461707065642C223022292C486F6C653A6469612C486F6C653A706974636864657363293E20
310
3C696628657175616C28486F6C653A7465726D696E6174696F6E2C223022292C22905B82B320222C222022293E3C696628657175616C28486F6C653A7465726D696E6174696F6E2C223022292C486F6C653A64657074682C2222293E
  0
ACAD_PROXY_OBJECT
  5
19401
330
193FF
100
AcDbProxyObject
 90
      499
 91
      567
 95
       25
 70
     0
 93
      344
310
5DE0143A0D960E4E0DDA0E32056E0D9C80C805173D3C535444503A444553433E203C535444503A5354443E
  0
ACAD_PROXY_OBJECT
  5
19400
330
193FF
100
AcDbProxyObject
 90
      499
 91
      567
 95
       25
 70
     0
 93
      256
310
5DE0143A0D960E4E0DDA0E32056E0D9C80C4050C3D3C535444503A444553433E
  0
ENDSEC
  0
EOF
