  0
SECTION
  2
HEADER
  9
$ACADVER
  1
AC1015
  9
$ACADMAINTVER
 70
     6
  9
$DWGCODEPAGE
  3
ANSI_932
  9
$INSBASE
 10
0.0
 20
0.0
 30
0.0
  9
$EXTMIN
 10
-96.67058639058232
 20
-117.2404585187844
 30
0.0
  9
$EXTMAX
 10
264.6143791372861
 20
39.894371557009
 30
0.0
  9
$LIMMIN
 10
0.0
 20
0.0
  9
$LIMMAX
 10
420.0
 20
297.0
  9
$ORTHOMODE
 70
     0
  9
$REGENMODE
 70
     1
  9
$FILLMODE
 70
     1
  9
$QTEXTMODE
 70
     0
  9
$MIRRTEXT
 70
     1
  9
$LTSCALE
 40
1.0
  9
$ATTMODE
 70
     1
  9
$TEXTSIZE
 40
4.0
  9
$TRACEWID
 40
1.0
  9
$TEXTSTYLE
  7
STANDARD
  9
$CLAYER
  8
AM_0
  9
$CELTYPE
  6
ByLayer
  9
$CECOLOR
 62
   256
  9
$CELTSCALE
 40
1.0
  9
$DISPSILH
 70
     0
  9
$DIMSCALE
 40
1.0
  9
$DIMASZ
 40
2.5
  9
$DIMEXO
 40
0.0
  9
$DIMDLI
 40
10.0
  9
$DIMRND
 40
0.0
  9
$DIMDLE
 40
0.0
  9
$DIMEXE
 40
1.0
  9
$DIMTP
 40
0.1
  9
$DIMTM
 40
0.1000000001
  9
$DIMTXT
 40
3.8
  9
$DIMCEN
 40
0.0
  9
$DIMTSZ
 40
0.0
  9
$DIMTOL
 70
     0
  9
$DIMLIM
 70
     0
  9
$DIMTIH
 70
     0
  9
$DIMTOH
 70
     0
  9
$DIMSE1
 70
     0
  9
$DIMSE2
 70
     0
  9
$DIMTAD
 70
     3
  9
$DIMZIN
 70
     1
  9
$DIMBLK
  1
Open30
  9
$DIMASO
 70
     1
  9
$DIMSHO
 70
     1
  9
$DIMPOST
  1

  9
$DIMAPOST
  1
"
  9
$DIMALT
 70
     0
  9
$DIMALTD
 70
     2
  9
$DIMALTF
 40
0.0393701
  9
$DIMLFAC
 40
1.0
  9
$DIMTOFL
 70
     1
  9
$DIMTVP
 40
0.0
  9
$DIMTIX
 70
     0
  9
$DIMSOXD
 70
     0
  9
$DIMSAH
 70
     0
  9
$DIMBLK1
  1

  9
$DIMBLK2
  1

  9
$DIMSTYLE
  2
AM_JIS
  9
$DIMCLRD
 70
   256
  9
$DIMCLRE
 70
   256
  9
$DIMCLRT
 70
     2
  9
$DIMTFAC
 40
0.71
  9
$DIMGAP
 40
1.5
  9
$DIMJUST
 70
     0
  9
$DIMSD1
 70
     0
  9
$DIMSD2
 70
     0
  9
$DIMTOLJ
 70
     0
  9
$DIMTZIN
 70
     8
  9
$DIMALTZ
 70
     0
  9
$DIMALTTZ
 70
     0
  9
$DIMUPT
 70
     0
  9
$DIMDEC
 70
     0
  9
$DIMTDEC
 70
     3
  9
$DIMALTU
 70
     2
  9
$DIMALTTD
 70
     2
  9
$DIMTXSTY
  7
STANDARD
  9
$DIMAUNIT
 70
     1
  9
$DIMADEC
 70
     0
  9
$DIMALTRND
 40
0.0
  9
$DIMAZIN
 70
     2
  9
$DIMDSEP
 70
    46
  9
$DIMATFIT
 70
     3
  9
$DIMFRAC
 70
     0
  9
$DIMLDRBLK
  1
Open30
  9
$DIMLUNIT
 70
     2
  9
$DIMLWD
 70
    -1
  9
$DIMLWE
 70
    -1
  9
$DIMTMOVE
 70
     0
  9
$LUNITS
 70
     2
  9
$LUPREC
 70
     4
  9
$SKETCHINC
 40
1.0
  9
$FILLETRAD
 40
0.2
  9
$AUNITS
 70
     0
  9
$AUPREC
 70
     4
  9
$MENU
  1
.
  9
$ELEVATION
 40
0.0
  9
$PELEVATION
 40
0.0
  9
$THICKNESS
 40
0.0
  9
$LIMCHECK
 70
     0
  9
$CHAMFERA
 40
2.0
  9
$CHAMFERB
 40
2.0
  9
$CHAMFERC
 40
20.0
  9
$CHAMFERD
 40
0.0
  9
$SKPOLY
 70
     0
  9
$TDCREATE
 40
2451943.610431667
  9
$TDUCREATE
 40
2451943.235431667
  9
$TDUPDATE
 40
2455482.597558773
  9
$TDUUPDATE
 40
2455482.222558773
  9
$TDINDWG
 40
1.4411029977
  9
$TDUSRTIMER
 40
1.4411028241
  9
$USRTIMER
 70
     1
  9
$ANGBASE
 50
0.0
  9
$ANGDIR
 70
     0
  9
$PDMODE
 70
     0
  9
$PDSIZE
 40
0.0
  9
$PLINEWID
 40
0.0
  9
$SPLFRAME
 70
     0
  9
$SPLINETYPE
 70
     6
  9
$SPLINESEGS
 70
     8
  9
$HANDSEED
  5
1B470
  9
$SURFTAB1
 70
     6
  9
$SURFTAB2
 70
     6
  9
$SURFTYPE
 70
     6
  9
$SURFU
 70
     6
  9
$SURFV
 70
     6
  9
$UCSBASE
  2

  9
$UCSNAME
  2

  9
$UCSORG
 10
0.0
 20
0.0
 30
0.0
  9
$UCSXDIR
 10
1.0
 20
0.0
 30
0.0
  9
$UCSYDIR
 10
0.0
 20
1.0
 30
0.0
  9
$UCSORTHOREF
  2

  9
$UCSORTHOVIEW
 70
     0
  9
$UCSORGTOP
 10
0.0
 20
0.0
 30
0.0
  9
$UCSORGBOTTOM
 10
0.0
 20
0.0
 30
0.0
  9
$UCSORGLEFT
 10
0.0
 20
0.0
 30
0.0
  9
$UCSORGRIGHT
 10
0.0
 20
0.0
 30
0.0
  9
$UCSORGFRONT
 10
0.0
 20
0.0
 30
0.0
  9
$UCSORGBACK
 10
0.0
 20
0.0
 30
0.0
  9
$PUCSBASE
  2

  9
$PUCSNAME
  2

  9
$PUCSORG
 10
0.0
 20
0.0
 30
0.0
  9
$PUCSXDIR
 10
1.0
 20
0.0
 30
0.0
  9
$PUCSYDIR
 10
0.0
 20
1.0
 30
0.0
  9
$PUCSORTHOREF
  2

  9
$PUCSORTHOVIEW
 70
     0
  9
$PUCSORGTOP
 10
0.0
 20
0.0
 30
0.0
  9
$PUCSORGBOTTOM
 10
0.0
 20
0.0
 30
0.0
  9
$PUCSORGLEFT
 10
0.0
 20
0.0
 30
0.0
  9
$PUCSORGRIGHT
 10
0.0
 20
0.0
 30
0.0
  9
$PUCSORGFRONT
 10
0.0
 20
0.0
 30
0.0
  9
$PUCSORGBACK
 10
0.0
 20
0.0
 30
0.0
  9
$USERI1
 70
     0
  9
$USERI2
 70
     0
  9
$USERI3
 70
     0
  9
$USERI4
 70
     0
  9
$USERI5
 70
     0
  9
$USERR1
 40
0.0
  9
$USERR2
 40
0.0
  9
$USERR3
 40
0.0
  9
$USERR4
 40
0.0
  9
$USERR5
 40
0.0
  9
$WORLDVIEW
 70
     1
  9
$SHADEDGE
 70
     3
  9
$SHADEDIF
 70
    70
  9
$TILEMODE
 70
     1
  9
$MAXACTVP
 70
    64
  9
$PINSBASE
 10
0.0
 20
0.0
 30
0.0
  9
$PLIMCHECK
 70
     0
  9
$PEXTMIN
 10
1.000000000000000E+20
 20
1.000000000000000E+20
 30
1.000000000000000E+20
  9
$PEXTMAX
 10
-1.000000000000000E+20
 20
-1.000000000000000E+20
 30
-1.000000000000000E+20
  9
$PLIMMIN
 10
0.0
 20
0.0
  9
$PLIMMAX
 10
420.0
 20
297.0
  9
$UNITMODE
 70
     0
  9
$VISRETAIN
 70
     1
  9
$PLINEGEN
 70
     0
  9
$PSLTSCALE
 70
     1
  9
$TREEDEPTH
 70
  3020
  9
$CMLSTYLE
  2
Standard
  9
$CMLJUST
 70
     0
  9
$CMLSCALE
 40
20.0
  9
$PROXYGRAPHICS
 70
     1
  9
$MEASUREMENT
 70
     1
  9
$CELWEIGHT
370
    -1
  9
$ENDCAPS
280
     0
  9
$JOINSTYLE
280
     0
  9
$LWDISPLAY
290
     0
  9
$INSUNITS
 70
     4
  9
$HYPERLINKBASE
  1

  9
$STYLESHEET
  1
sei_cad.ctb
  9
$XEDIT
290
     1
  9
$CEPSNTYPE
380
     0
  9
$PSTYLEMODE
290
     1
  9
$FINGERPRINTGUID
  2
{C77AB3BE-9CA2-11D3-BAF3-006094EB760E}
  9
$VERSIONGUID
  2
{37BEC421-A973-4117-9530-B3DBD2CF168C}
  9
$EXTNAMES
290
     1
  9
$PSVPSCALE
 40
0.0
  9
$OLESTARTUP
290
     0
  0
ENDSEC
  0
SECTION
  2
CLASSES
  0
CLASS
  1
ACDBDICTIONARYWDFLT
  2
AcDbDictionaryWithDefault
  3
ObjectDBX Classes
 90
        0
280
     0
281
     0
  0
CLASS
  1
ACDBPLACEHOLDER
  2
AcDbPlaceHolder
  3
ObjectDBX Classes
 90
        0
280
     0
281
     0
  0
CLASS
  1
LAYOUT
  2
AcDbLayout
  3
ObjectDBX Classes
 90
        0
280
     0
281
     0
  0
CLASS
  1
ACME_DOCUMENT
  2
AcMeDbDoc
  3
AcMeServices
 90
        0
280
     1
281
     0
  0
CLASS
  1
ACMESCOPE
  2
AcMeScope
  3
AcMeServices
 90
        0
280
     1
281
     0
  0
CLASS
  1
ACMECOMMANDHISTORY
  2
AcMeCommandHistory
  3
AcMeServices
 90
        0
280
     1
281
     0
  0
CLASS
  1
DICTIONARYVAR
  2
AcDbDictionaryVar
  3
ObjectDBX Classes
 90
        0
280
     0
281
     0
  0
CLASS
  1
ACIMSYSVARMAN
  2
AcImSysVarManager
  3
AcMeServices
 90
        0
280
     1
281
     0
  0
CLASS
  1
ACIMREALSYSVAR
  2
AcImRealSysVar
  3
AcMeServices
 90
        0
280
     1
281
     0
  0
CLASS
  1
ACIMINTSYSVAR
  2
AcImIntSysVar
  3
AcMeServices
 90
        0
280
     1
281
     0
  0
CLASS
  1
ACMEDRAWINGMAN
  2
AcMeDrawingMan
  3
AcMeServices
 90
        0
280
     1
281
     0
  0
CLASS
  1
ACMEVIEW
  2
AcMeView
  3
AcMeServices
 90
        0
280
     1
281
     0
  0
CLASS
  1
ACDBENTITYCACHE
  2
AcMeEntityCache
  3
AcMeServices
 90
        0
280
     1
281
     0
  0
CLASS
  1
GSMANAGER
  2
AcMeGSManager
  3
AcMeServices
 90
        0
280
     1
281
     0
  0
CLASS
  1
AMDTINTERNALREACTOR
  2
AmdtInternalReactor
  3
AcMeServices
 90
        0
280
     1
281
     0
  0
CLASS
  1
ACMESTATEMGR
  2
AcMeStateMgr
  3
AcMeServices
 90
        0
280
     1
281
     0
  0
CLASS
  1
ACME_DATABASE
  2
AcMeDbDatabase
  3
AcMeServices
 90
        0
280
     1
281
     0
  0
CLASS
  1
ACRFINSADJUSTERMGR
  2
AcRfInsAdjusterMgr
  3
AcMeServices
 90
        0
280
     1
281
     0
  0
CLASS
  1
AMGSETTINGSOBJ
  2
AmgSettingsObj
  3
"AcadM|Product Description: AutoCAD Mechanical 2000|Company: Autodesk"
 90
        0
280
     1
281
     0
  0
CLASS
  1
AMGOBJPROPCFG
  2
AmgObjPropCfg
  3
"AmgLay|Product Description: AutoCAD Mechanical 2000|Company: Autodesk"
 90
        1
280
     1
281
     0
  0
CLASS
  1
ACMDATADICTIONARY
  2
AcmDataDictionary
  3
"AcmSymBB|Product Description: AutoCAD Mechanical 2004 DX|Company: Autodesk"
 90
        0
280
     1
281
     0
  0
CLASS
  1
ACMDATAENTRYBLOCK
  2
AcmDataEntryBlock
  3
"AcmSymBB|Product Description: AutoCAD Mechanical 2004 DX|Company: Autodesk"
 90
        0
280
     1
281
     0
  0
CLASS
  1
ACIMSTRSYSVAR
  2
AcImStrSysVar
  3
AcMeServices
 90
        0
280
     1
281
     0
  0
CLASS
  1
ACAMGFILTERDAT
  2
AcAmgFilterDat
  3
"AcadM|Product Description: AutoCAD Mechanical 2000|Company: Autodesk"
 90
        0
280
     1
281
     0
  0
CLASS
  1
LAYER_INDEX
  2
AcDbLayerIndex
  3
ObjectDBX Classes
 90
        0
280
     0
281
     0
  0
CLASS
  1
IDBUFFER
  2
AcDbIdBuffer
  3
ObjectDBX Classes
 90
        0
280
     0
281
     0
  0
CLASS
  1
ACMSTANDARDJIS
  2
AcmStandardJIS
  3
"Amdt_StdImp|Product Description: AutoCAD Mechanical 2004 DX|Company: Autodesk"
 90
        0
280
     1
281
     0
  0
CLASS
  1
ACMSURFSTANDARDJIS
  2
AcmSurfTextStdJIS
  3
"Amdt_StdImp|Product Description: AutoCAD Mechanical 2004 DX|Company: Autodesk"
 90
        0
280
     1
281
     0
  0
CLASS
  1
ACMFCFSTANDARDJIS
  2
AcmFCFStdJIS
  3
"Amdt_StdImp|Product Description: AutoCAD Mechanical 2004 DX|Company: Autodesk"
 90
        0
280
     1
281
     0
  0
CLASS
  1
ACMWELDSTANDARDJIS
  2
AcmWeldingStdJIS
  3
"Amdt_StdImp|Product Description: AutoCAD Mechanical 2004 DX|Company: Autodesk"
 90
        0
280
     1
281
     0
  0
CLASS
  1
ACMIDSTANDARDJIS
  2
AcmIdStdJIS
  3
"Amdt_StdImp|Product Description: AutoCAD Mechanical 2004 DX|Company: Autodesk"
 90
        0
280
     1
281
     0
  0
CLASS
  1
ACMDATUMSTANDARDJIS
  2
AcmDatumStdJIS
  3
"Amdt_StdImp|Product Description: AutoCAD Mechanical 2004 DX|Company: Autodesk"
 90
        0
280
     1
281
     0
  0
CLASS
  1
ACMBOMSTANDARDJIS
  2
AcmBOMStdJIS
  3
"Amdt_StdImp|Product Description: AutoCAD Mechanical 2004 DX|Company: Autodesk"
 90
        0
280
     1
281
     0
  0
CLASS
  1
AMDTNOTE
  2
AmdtNote
  3
"AcmSymBB|Product Description: AutoCAD Mechanical 2004 DX|Company: Autodesk"
 90
     1023
280
     1
281
     1
  0
CLASS
  1
TABLESTYLE
  2
AcDbTableStyle
  3
ObjectDBX Classes
 90
     2047
280
     0
281
     0
  0
CLASS
  1
ACGREFMASTER
  2
AcGrefMaster
  3
AcAttribServices
 90
        0
280
     1
281
     0
  0
CLASS
  1
AM_DRAWING_MGR
  2
AcDmDwgMgr
  3
AcMechDwgViewMgmt
 90
        0
280
     1
281
     0
  0
CLASS
  1
AM_DWG_DOCUMENT
  2
AcDmDwgDocument
  3
AcMechDwgViewMgmt
 90
        0
280
     1
281
     0
  0
CLASS
  1
AM_DWG_SHEET
  2
AcDmSheet
  3
AcMechDwgViewMgmt
 90
        0
280
     1
281
     0
  0
CLASS
  1
AM_VIEWDIMPARMAP
  2
AcDmViewDimParMap
  3
AcMechDwgViewMgmt
 90
        0
280
     1
281
     0
  0
CLASS
  1
AM_DWGMGR_NAME
  2
AcDmDwgMgrName
  3
AcMechDwgViewMgmt
 90
        0
280
     1
281
     0
  0
CLASS
  1
ACGREFACADMASTER
  2
AcGrefacadMaster
  3
AcGrefServices
 90
        0
280
     1
281
     0
  0
CLASS
  1
AMDTMENUSTATEMGR
  2
AmdtMenuStateMgr
  3
McadcomServices
 90
        0
280
     1
281
     0
  0
CLASS
  1
AMDTMCOMMENUSTATE
  2
AmdtMcomMenuState
  3
McadcomServices
 90
        0
280
     1
281
     0
  0
CLASS
  1
AMIMASTER
  2
AmiMaster
  3
AmiServices
 90
        0
280
     1
281
     0
  0
CLASS
  1
MAPIAMMOUDLE
  2
MApiAmModule
  3
MApiAmServices
 90
        0
280
     1
281
     0
  0
CLASS
  1
AMDTADMENUSTATE
  2
AmdtAdMenuState
  3
DesignerServices
 90
        0
280
     1
281
     0
  0
CLASS
  1
ADAPPL
  2
AcAdAppl
  3
DesignerServices
 90
        0
280
     1
281
     0
  0
CLASS
  1
DEPMGR
  2
AcAdDepMgr
  3
DesignerServices
 90
        0
280
     1
281
     0
  0
CLASS
  1
PARAMMGR
  2
AcAdParamMgr
  3
DesignerServices
 90
        0
280
     1
281
     0
  0
CLASS
  1
PARAMSCOPE
  2
AcAdParamScope
  3
DesignerServices
 90
        0
280
     1
281
     0
  0
CLASS
  1
NAMEDAPPL
  2
AcAdNamedAppl
  3
DesignerServices
 90
        0
280
     1
281
     0
  0
CLASS
  1
AMDTDMMENUSTATE
  2
AmdtDmMenuState
  3
AcMechDwgViewMgmt
 90
        0
280
     1
281
     0
  0
CLASS
  1
AMDTAMMENUSTATE
  2
AmdtAmMenuState
  3
DesignerAssemblies
 90
        0
280
     1
281
     0
  0
CLASS
  1
ACAMPROJECT
  2
AcAmProject
  3
DesignerAssemblies
 90
        0
280
     1
281
     0
  0
CLASS
  1
ACAMGRCOMPDEF
  2
AcAmGrCompDef
  3
DesignerAssemblies
 90
        0
280
     1
281
     0
  0
CLASS
  1
ACCMCONTEXT
  2
AcCmContext
  3
DesignerAssemblies
 90
        0
280
     1
281
     0
  0
CLASS
  1
ACAMCOMPDEF
  2
AcAmCompDef
  3
DesignerAssemblies
 90
        0
280
     1
281
     0
  0
CLASS
  1
ACAMCOMPDEFMGR
  2
AcAmCompDefMgr
  3
DesignerAssemblies
 90
        0
280
     1
281
     0
  0
CLASS
  1
AMCONTEXTMGR
  2
AcAmContextMgr
  3
DesignerAssemblies
 90
        0
280
     1
281
     0
  0
CLASS
  1
ACAMCONTEXTMODELER
  2
AcAmContextModeler
  3
DesignerAssemblies
 90
        0
280
     1
281
     0
  0
CLASS
  1
ACAMGTITLESTD
  2
AcAmgTitleStd
  3
"TITLEAPP"
 90
        0
280
     1
281
     0
  0
CLASS
  1
ACMDETAILSTANDARDJIS
  2
AmdtDetailSymStdJIS
  3
"Amdt_StdImp|Product Description: AutoCAD Mechanical 2004 DX|Company: Autodesk"
 90
        0
280
     1
281
     0
  0
CLASS
  1
ACMSECTIONSTANDARDJIS
  2
AmdtSectionSymStdJIS
  3
"Amdt_StdImp|Product Description: AutoCAD Mechanical 2004 DX|Company: Autodesk"
 90
        0
280
     1
281
     0
  0
CLASS
  1
ACMCENTERLINESTANDARDJIS
  2
AmdtCenterLineStdJIS
  3
"Amdt_StdImp|Product Description: AutoCAD Mechanical 2004 DX|Company: Autodesk"
 90
        0
280
     1
281
     0
  0
CLASS
  1
ACMTHREADLINESTANDARDJIS
  2
AmdtThreadLineStdJIS
  3
"Amdt_StdImp|Product Description: AutoCAD Mechanical 2004 DX|Company: Autodesk"
 90
        0
280
     1
281
     0
  0
CLASS
  1
ACMNOTESTANDARDJIS
  2
AmdtNoteStdJIS
  3
"Amdt_StdImp|Product Description: AutoCAD Mechanical 2004 DX|Company: Autodesk"
 90
        0
280
     1
281
     0
  0
CLASS
  1
AMDTNOTETEMPLATEDB
  2
AmdtNoteTemplateDB
  3
AMDT_STDIMP_MODULE_NAME
 90
        0
280
     1
281
     0
  0
CLASS
  1
ACAMGLAYSTD
  2
AcAmgLayStd
  3
"AcAmgLayStd|Product Description: AutoCAD Mechanical 2000|Company: Autodesk"
 90
        0
280
     1
281
     0
  0
CLASS
  1
ACAMGDIMSTD
  2
AcAmgDimStd
  3
"AcAmgDimStd|Product Description: AutoCAD Mechanical 2000|Company: Autodesk"
 90
        0
280
     1
281
     0
  0
CLASS
  1
ACAMGHOLECHARTSTDJIS
  2
AcAmgHoleChartStdJIS
  3
ACMSYMBB_MODULE_NAME
 90
        0
280
     1
281
     0
  0
CLASS
  1
CATALOGSTATE
  2
AcAmCatalogState
  3
DesignerAssemblies
 90
        0
280
     1
281
     0
  0
CLASS
  1
ACAMGRCOMPDEFSET
  2
AcAmGrCompDefSet
  3
DesignerAssemblies
 90
        0
280
     1
281
     0
  0
CLASS
  1
AMDTBROWSERDBTAB
  2
AmdtBrowserDbTab
  3
McadcomServices
 90
        0
280
     1
281
     0
  0
CLASS
  1
CBROWSERAPPOBJECT
  2
CBrowserAppObject
  3
McadcomServices
 90
        0
280
     1
281
     0
  0
CLASS
  1
DM_PLACEHOLDER
  2
AcDmSelsetPlaceholder
  3
AcMechDwgViewMgmt
 90
        0
280
     1
281
     0
  0
CLASS
  1
SORTENTSTABLE
  2
AcDbSortentsTable
  3
ObjectDBX Classes
 90
        0
280
     0
281
     0
  0
ENDSEC
  0
SECTION
  2
TABLES
  0
TABLE
  2
VPORT
  5
8
330
0
100
AcDbSymbolTable
 70
     3
  0
VPORT
  5
1B468
330
8
100
AcDbSymbolTableRecord
100
AcDbViewportTableRecord
  2
*Active
 70
     0
 10
0.0
 20
0.0
 11
1.0
 21
1.0
 12
115.4369489568894
 22
-38.6609510400105
 13
0.0
 23
0.0
 14
2.5
 24
2.5
 15
10.0
 25
10.0
 16
0.0
 26
0.0
 36
1.0
 17
0.0
 27
0.0
 37
0.0
 40
264.8187284156577
 41
1.610603290676417
 42
50.0
 43
0.0
 44
0.0
 50
0.0
 51
0.0
 71
    16
 72
  2000
 73
     1
 74
     3
 75
     0
 76
     0
 77
     0
 78
     0
281
     0
 65
     1
110
0.0
120
0.0
130
0.0
111
1.0
121
0.0
131
0.0
112
0.0
122
1.0
132
0.0
 79
     0
146
0.0
  0
ENDTAB
  0
TABLE
  2
LTYPE
  5
5
330
0
100
AcDbSymbolTable
 70
    13
  0
LTYPE
  5
14
330
5
100
AcDbSymbolTableRecord
100
AcDbLinetypeTableRecord
  2
ByBlock
 70
     0
  3

 72
    65
 73
     0
 40
0.0
  0
LTYPE
  5
15
330
5
100
AcDbSymbolTableRecord
100
AcDbLinetypeTableRecord
  2
ByLayer
 70
     0
  3

 72
    65
 73
     0
 40
0.0
  0
LTYPE
  5
16
330
5
100
AcDbSymbolTableRecord
100
AcDbLinetypeTableRecord
  2
Continuous
 70
     0
  3
Solid line
 72
    65
 73
     0
 40
0.0
  0
LTYPE
  5
43
330
5
100
AcDbSymbolTableRecord
100
AcDbLinetypeTableRecord
  2
AM_ISO02W050
 70
     0
  3
__ __ __ __ __ __ __ __ __ __ __ __ __ __ __
 72
    65
 73
     2
 40
7.5
 49
6.0
 74
     0
 49
-1.5
 74
     0
  0
LTYPE
  5
44
330
5
100
AcDbSymbolTableRecord
100
AcDbLinetypeTableRecord
  2
AM_ISO08W050
 70
     0
  3
____ . ____ . ____ . ____ . ____ . ____ . ____
 72
    65
 73
     4
 40
18.0
 49
12.0
 74
     0
 49
-1.5
 74
     0
 49
3.0
 74
     0
 49
-1.5
 74
     0
  0
LTYPE
  5
45
330
5
100
AcDbSymbolTableRecord
100
AcDbLinetypeTableRecord
  2
AM_ISO09W050
 70
     0
  3
_____ . . _____ . . _____ . . ____ .. ____
 72
    65
 73
     6
 40
22.5
 49
12.0
 74
     0
 49
-1.5
 74
     0
 49
3.0
 74
     0
 49
-1.5
 74
     0
 49
3.0
 74
     0
 49
-1.5
 74
     0
  0
LTYPE
  5
46
330
5
100
AcDbSymbolTableRecord
100
AcDbLinetypeTableRecord
  2
Amconstr
 70
     0
  3
_______________________
 72
    65
 73
     2
 40
9999.0
 49
9999.0
 74
     0
 49
0.0
 74
     0
  0
LTYPE
  5
47
330
5
100
AcDbSymbolTableRecord
100
AcDbLinetypeTableRecord
  2
AM_ISO02W050x2
 70
     0
  3
 _ _ _ _ _ _ _ _ _ _ _ _
 72
    65
 73
     2
 40
3.75
 49
3.0
 74
     0
 49
-0.75
 74
     0
  0
LTYPE
  5
48
330
5
100
AcDbSymbolTableRecord
100
AcDbLinetypeTableRecord
  2
AM_ISO08W050x2
 70
     0
  3
__ . __ . __ . __ . __ . __
 72
    65
 73
     4
 40
9.0
 49
6.0
 74
     0
 49
-0.75
 74
     0
 49
1.5
 74
     0
 49
-0.75
 74
     0
  0
LTYPE
  5
4B
330
5
100
AcDbSymbolTableRecord
100
AcDbLinetypeTableRecord
  2
Amzigzag
 70
     0
  3
/\/-/\/-/\/-/\/-/\/-/\/
 72
    65
 73
     2
 40
11.0001
 49
0.0001
 74
     4
 75
   135
340
4A
 46
0.04
 50
0.0
 44
0.0
 45
0.0
 49
-11.0
 74
     0
  0
LTYPE
  5
188
330
5
100
AcDbSymbolTableRecord
100
AcDbLinetypeTableRecord
  2
ACJISTGB
 70
     0
  3
__ . . __ . .
 72
    65
 73
     6
 40
9.0
 49
4.0
 74
     0
 49
-1.0
 74
     0
 49
1.0
 74
     0
 49
-1.0
 74
     0
 49
1.0
 74
     0
 49
-1.0
 74
     0
  0
LTYPE
  5
189
330
5
100
AcDbSymbolTableRecord
100
AcDbLinetypeTableRecord
  2
ACJISTGL
 70
     0
  3
_ _ _ _ _
 72
    65
 73
     2
 40
3.0
 49
2.0
 74
     0
 49
-1.0
 74
     0
  0
LTYPE
  5
652
330
5
100
AcDbSymbolTableRecord
100
AcDbLinetypeTableRecord
  2
CENTER
 70
     0
  3
____ _ ____ _ ____ _ ____ _ ____ _ ____ _ ____
 72
    65
 73
     4
 40
17.5
 49
13.0
 74
     0
 49
-1.5
 74
     0
 49
1.5
 74
     0
 49
-1.5
 74
     0
  0
LTYPE
  5
12AB
330
5
100
AcDbSymbolTableRecord
100
AcDbLinetypeTableRecord
  2
HIDDEN
 70
     0
  3
Hidden __ __ __ __ __ __ __ __ __ __ __ __ __ _
 72
    65
 73
     2
 40
0.375
 49
0.25
 74
     0
 49
-0.125
 74
     0
  0
LTYPE
  5
12AC
330
5
100
AcDbSymbolTableRecord
100
AcDbLinetypeTableRecord
  2
PHANTOM2
 70
     0
  3
Phantom (.5x) ___ _ _ ___ _ _ ___ _ _ ___ _ _
 72
    65
 73
     6
 40
1.25
 49
0.625
 74
     0
 49
-0.125
 74
     0
 49
0.125
 74
     0
 49
-0.125
 74
     0
 49
0.125
 74
     0
 49
-0.125
 74
     0
  0
ENDTAB
  0
TABLE
  2
LAYER
  5
2
102
{ACAD_XDICTIONARY
360
1A948
102
}
330
0
100
AcDbSymbolTable
 70
     7
  0
LAYER
  5
10
330
2
100
AcDbSymbolTableRecord
100
AcDbLayerTableRecord
  2
0
 70
     0
 62
     7
  6
Continuous
370
    -3
390
F
  0
LAYER
  5
7D
330
2
100
AcDbSymbolTableRecord
100
AcDbLayerTableRecord
  2
AM_5
 70
     0
 62
     3
  6
Continuous
370
    13
390
F
  0
LAYER
  5
7F
330
2
100
AcDbSymbolTableRecord
100
AcDbLayerTableRecord
  2
Defpoints
 70
     0
 62
     7
  6
Continuous
290
     0
370
    -3
390
F
  0
LAYER
  5
12B1
330
2
100
AcDbSymbolTableRecord
100
AcDbLayerTableRecord
  2
AM_0
 70
     0
 62
     7
  6
Continuous
370
    30
390
F
  0
LAYER
  5
1AFF
330
2
100
AcDbSymbolTableRecord
100
AcDbLayerTableRecord
  2
AM_7
 70
     0
 62
     4
  6
AM_ISO08W050
370
    13
390
F
  0
LAYER
  5
361D
330
2
100
AcDbSymbolTableRecord
100
AcDbLayerTableRecord
  2
AM_11
 70
     0
 62
     3
  6
AM_ISO09W050
370
    13
390
F
  0
ENDTAB
  0
TABLE
  2
STYLE
  5
3
330
0
100
AcDbSymbolTable
 70
     4
  0
STYLE
  5
11
330
3
100
AcDbSymbolTableRecord
100
AcDbTextStyleTableRecord
  2
STANDARD
 70
     0
 40
0.0
 41
1.0
 50
0.0
 71
     0
 42
4.0
  3
ISOCP.SHX
  4
EXTFONT.SHX
  0
STYLE
  5
4A
330
3
100
AcDbSymbolTableRecord
100
AcDbTextStyleTableRecord
  2

 70
     1
 40
0.0
 41
1.0
 50
0.0
 71
     0
 42
2.5
  3
ltypeshp.shx
  4

  0
STYLE
  5
180
330
3
100
AcDbSymbolTableRecord
100
AcDbTextStyleTableRecord
  2
ACJISTS
 70
     0
 40
1.0
 41
1.0
 50
0.0
 71
     0
 42
2.5
  3
isocp.shx
  4
bigfont.shx
  0
STYLE
  5
187
330
3
100
AcDbSymbolTableRecord
100
AcDbTextStyleTableRecord
  2
ACJISGDT
 70
     0
 40
0.0
 41
1.0
 50
0.0
 71
     0
 42
2.5
  3
amgdt.shx
  4

  0
ENDTAB
  0
TABLE
  2
VIEW
  5
6
330
0
100
AcDbSymbolTable
 70
     6
  0
VIEW
  5
A30
330
6
100
AcDbSymbolTableRecord
100
AcDbViewTableRecord
  2
AM_VIEW1
 70
     0
 40
148.5
 10
108.6929657794677
 20
222.75
 41
217.3859315589354
 11
0.0
 21
0.0
 31
1.0
 12
0.0
 22
0.0
 32
0.0
 42
50.0
 43
0.0
 44
0.0
 50
0.0
 71
    16
281
     0
 72
     0
  0
VIEW
  5
A31
330
6
100
AcDbSymbolTableRecord
100
AcDbViewTableRecord
  2
AM_VIEW2
 70
     0
 40
148.5
 10
311.3070342205323
 20
222.75
 41
217.3859315589354
 11
0.0
 21
0.0
 31
1.0
 12
0.0
 22
0.0
 32
0.0
 42
50.0
 43
0.0
 44
0.0
 50
0.0
 71
    16
281
     0
 72
     0
  0
VIEW
  5
A32
330
6
100
AcDbSymbolTableRecord
100
AcDbViewTableRecord
  2
AM_VIEW3
 70
     0
 40
148.5
 10
108.6929657794677
 20
74.25
 41
217.3859315589354
 11
0.0
 21
0.0
 31
1.0
 12
0.0
 22
0.0
 32
0.0
 42
50.0
 43
0.0
 44
0.0
 50
0.0
 71
    16
281
     0
 72
     0
  0
VIEW
  5
A33
330
6
100
AcDbSymbolTableRecord
100
AcDbViewTableRecord
  2
AM_VIEW4
 70
     0
 40
148.5
 10
311.3070342205323
 20
74.25
 41
217.3859315589354
 11
0.0
 21
0.0
 31
1.0
 12
0.0
 22
0.0
 32
0.0
 42
50.0
 43
0.0
 44
0.0
 50
0.0
 71
    16
281
     0
 72
     0
  0
VIEW
  5
A34
330
6
100
AcDbSymbolTableRecord
100
AcDbViewTableRecord
  2
AM_VIEW5
 70
     0
 40
148.5
 10
210.0
 20
148.5
 41
217.3859315589353
 11
0.0
 21
0.0
 31
1.0
 12
0.0
 22
0.0
 32
0.0
 42
50.0
 43
0.0
 44
0.0
 50
0.0
 71
    16
281
     0
 72
     0
  0
VIEW
  5
A35
330
6
100
AcDbSymbolTableRecord
100
AcDbViewTableRecord
  2
AM_VIEW6
 70
     0
 40
296.99703
 10
210.0
 20
148.5
 41
434.7675153992395
 11
0.0
 21
0.0
 31
1.0
 12
0.0
 22
0.0
 32
0.0
 42
50.0
 43
0.0
 44
0.0
 50
0.0
 71
    16
281
     0
 72
     0
  0
ENDTAB
  0
TABLE
  2
UCS
  5
7
330
0
100
AcDbSymbolTable
 70
     0
  0
ENDTAB
  0
TABLE
  2
APPID
  5
9
330
0
100
AcDbSymbolTable
 70
    43
  0
APPID
  5
12
330
9
100
AcDbSymbolTableRecord
100
AcDbRegAppTableRecord
  2
ACAD
 70
     0
  0
APPID
  5
2C
330
9
100
AcDbSymbolTableRecord
100
AcDbRegAppTableRecord
  2
MCAD_NO_VIS
 70
     0
  0
APPID
  5
2D
330
9
100
AcDbSymbolTableRecord
100
AcDbRegAppTableRecord
  2
ACAD_TEMP_GRAPHIC
 70
     0
  0
APPID
  5
B9
330
9
100
AcDbSymbolTableRecord
100
AcDbRegAppTableRecord
  2
GENIUS_GENDTOL_13
 70
     0
  0
APPID
  5
359
330
9
100
AcDbSymbolTableRecord
100
AcDbRegAppTableRecord
  2
GENIUS_GENREC_14
 70
     0
  0
APPID
  5
35A
330
9
100
AcDbSymbolTableRecord
100
AcDbRegAppTableRecord
  2
GENIUS_GENODEF_13
 70
     0
  0
APPID
  5
35B
330
9
100
AcDbSymbolTableRecord
100
AcDbRegAppTableRecord
  2
GENIUS_GENOBJ-N-REC_13
 70
     0
  0
APPID
  5
667
330
9
100
AcDbSymbolTableRecord
100
AcDbRegAppTableRecord
  2
GENIUS_GENCFG_13
 70
     0
  0
APPID
  5
668
330
9
100
AcDbSymbolTableRecord
100
AcDbRegAppTableRecord
  2
GENIUS_GENCFG0_13
 70
     0
  0
APPID
  5
669
330
9
100
AcDbSymbolTableRecord
100
AcDbRegAppTableRecord
  2
GENIUS_GENCFG1_13
 70
     0
  0
APPID
  5
66A
330
9
100
AcDbSymbolTableRecord
100
AcDbRegAppTableRecord
  2
GENIUS_GENCFG2_13
 70
     0
  0
APPID
  5
66B
330
9
100
AcDbSymbolTableRecord
100
AcDbRegAppTableRecord
  2
GENIUS_GENCFG3_13
 70
     0
  0
APPID
  5
66C
330
9
100
AcDbSymbolTableRecord
100
AcDbRegAppTableRecord
  2
GENIUS_GENCFG4_13
 70
     0
  0
APPID
  5
A76
330
9
100
AcDbSymbolTableRecord
100
AcDbRegAppTableRecord
  2
GENIUS_GENBLLY_14
 70
     0
  0
APPID
  5
A77
330
9
100
AcDbSymbolTableRecord
100
AcDbRegAppTableRecord
  2
GENIUS_GENOBJ-N-CEN_13
 70
     0
  0
APPID
  5
A83
330
9
100
AcDbSymbolTableRecord
100
AcDbRegAppTableRecord
  2
GENIUS_GENTRA_14
 70
     0
  0
APPID
  5
A8D
330
9
100
AcDbSymbolTableRecord
100
AcDbRegAppTableRecord
  2
GENIUS_GENOBJ-N-TIT_13
 70
     0
  0
APPID
  5
A8E
330
9
100
AcDbSymbolTableRecord
100
AcDbRegAppTableRecord
  2
GENIUS_GENTITLE_13
 70
     0
  0
APPID
  5
A8F
330
9
100
AcDbSymbolTableRecord
100
AcDbRegAppTableRecord
  2
GENIUS_GENOENT_13
 70
     0
  0
APPID
  5
A90
330
9
100
AcDbSymbolTableRecord
100
AcDbRegAppTableRecord
  2
GENIUS_GENOREF_13
 70
     0
  0
APPID
  5
A91
330
9
100
AcDbSymbolTableRecord
100
AcDbRegAppTableRecord
  2
GENIUS_GENOLIS_13
 70
     0
  0
APPID
  5
A92
330
9
100
AcDbSymbolTableRecord
100
AcDbRegAppTableRecord
  2
GENIUS_GENZVEED_13
 70
     0
  0
APPID
  5
A93
330
9
100
AcDbSymbolTableRecord
100
AcDbRegAppTableRecord
  2
GENIUS_GENSCREG_15
 70
     0
  0
APPID
  5
A94
330
9
100
AcDbSymbolTableRecord
100
AcDbRegAppTableRecord
  2
GENIUS_GENOBJ-N-SDF_13
 70
     0
  0
APPID
  5
12B5
330
9
100
AcDbSymbolTableRecord
100
AcDbRegAppTableRecord
  2
GENIUS_GENOBJ-N-RSBK_13
 70
     0
  0
APPID
  5
12B6
330
9
100
AcDbSymbolTableRecord
100
AcDbRegAppTableRecord
  2
GENIUS_GENOBJ-N-LIB_13
 70
     0
  0
APPID
  5
12B7
330
9
100
AcDbSymbolTableRecord
100
AcDbRegAppTableRecord
  2
GENIUS_GENSCALE_13
 70
     0
  0
APPID
  5
12B8
330
9
100
AcDbSymbolTableRecord
100
AcDbRegAppTableRecord
  2
GENIUS_GENOBJ-N-HTC_13
 70
     0
  0
APPID
  5
12B9
330
9
100
AcDbSymbolTableRecord
100
AcDbRegAppTableRecord
  2
GENIUS_GENHATCH_13
 70
     0
  0
APPID
  5
1687
330
9
100
AcDbSymbolTableRecord
100
AcDbRegAppTableRecord
  2
BASE_TYPE
 70
     0
  0
APPID
  5
1ABF
330
9
100
AcDbSymbolTableRecord
100
AcDbRegAppTableRecord
  2
GENIUS_GENFIL_13
 70
     0
  0
APPID
  5
1AC0
330
9
100
AcDbSymbolTableRecord
100
AcDbRegAppTableRecord
  2
GENIUS_GENOBJ-N-CHA_13
 70
     0
  0
APPID
  5
1AE7
330
9
100
AcDbSymbolTableRecord
100
AcDbRegAppTableRecord
  2
GENIUS_GENOBJ-N-FIL_13
 70
     0
  0
APPID
  5
20E9
330
9
100
AcDbSymbolTableRecord
100
AcDbRegAppTableRecord
  2
GENIUS_GENDIMSH_14
 70
     0
  0
APPID
  5
1A904
330
9
100
AcDbSymbolTableRecord
100
AcDbRegAppTableRecord
  2
AD_DRAW
 70
     0
  0
APPID
  5
1A907
330
9
100
AcDbSymbolTableRecord
100
AcDbRegAppTableRecord
  2
ACATTRIBSERVICES
 70
     0
  0
APPID
  5
1A925
330
9
100
AcDbSymbolTableRecord
100
AcDbRegAppTableRecord
  2
DESIGNERASSEMBLIES
 70
     0
  0
APPID
  5
1A938
330
9
100
AcDbSymbolTableRecord
100
AcDbRegAppTableRecord
  2
ACADM_DIM_EDIT
 70
     0
  0
APPID
  5
1A939
330
9
100
AcDbSymbolTableRecord
100
AcDbRegAppTableRecord
  2
AMDT_DM_ADJ
 70
     0
  0
APPID
  5
1AB2A
330
9
100
AcDbSymbolTableRecord
100
AcDbRegAppTableRecord
  2
ACAD_DSTYLE_DIMTEXT_FILL
 70
     0
  0
APPID
  5
1AB2B
330
9
100
AcDbSymbolTableRecord
100
AcDbRegAppTableRecord
  2
ACAD_PSEXT
 70
     0
  0
APPID
  5
1ACB1
330
9
100
AcDbSymbolTableRecord
100
AcDbRegAppTableRecord
  2
GENIUS_GENCEN_19
 70
     0
  0
APPID
  5
1AE89
330
9
100
AcDbSymbolTableRecord
100
AcDbRegAppTableRecord
  2
DCO15
 70
     0
  0
ENDTAB
  0
TABLE
  2
DIMSTYLE
  5
A
330
0
100
AcDbSymbolTable
 70
    10
100
AcDbDimStyleTable
  0
DIMSTYLE
105
58
330
A
100
AcDbSymbolTableRecord
100
AcDbDimStyleTableRecord
  2
AM_JIS
 70
     0
  4
"
 41
2.5
 42
0.0
 43
10.0
 44
1.0
 47
0.1
 48
0.1000000001
 73
     0
 74
     0
 77
     3
 78
     1
 79
     2
140
3.8
141
0.0
143
0.0393701
146
0.71
147
1.5
172
     1
176
   256
177
   256
178
     2
179
     2
271
     3
272
     3
275
     1
283
     0
284
     8
340
11
341
59
342
59
371
    -1
372
    -1
  0
DIMSTYLE
105
5F
102
{ACAD_REACTORS
330
15FAE
330
19A66
102
}
330
A
100
AcDbSymbolTableRecord
100
AcDbDimStyleTableRecord
  2
AM_JIS$3
 70
     0
  4
"
 41
2.5
 42
0.0
 43
10.0
 44
1.0
 47
0.1
 48
0.1000000001
 73
     0
 77
     3
 78
     1
 79
     2
140
3.8
141
0.0
143
0.0393701
146
0.71
147
1.5
172
     1
176
   256
177
   256
178
     2
179
     2
271
     3
272
     3
275
     1
283
     0
284
     8
288
     1
289
     0
340
11
341
59
342
59
371
    -1
372
    -1
  0
DIMSTYLE
105
60
330
A
100
AcDbSymbolTableRecord
100
AcDbDimStyleTableRecord
  2
AM_JIS$4
 70
     0
  4
"
 41
2.5
 42
0.0
 43
10.0
 44
1.0
 47
0.1
 48
0.1000000001
 73
     0
 77
     3
 78
     1
 79
     2
140
3.8
141
0.0
143
0.0393701
146
0.71
147
1.5
172
     1
176
   256
177
   256
178
     2
179
     2
271
     3
272
     3
275
     1
283
     0
284
     8
288
     1
289
     0
340
11
341
59
342
59
371
    -1
372
    -1
  0
DIMSTYLE
105
61
330
A
100
AcDbSymbolTableRecord
100
AcDbDimStyleTableRecord
  2
AM_JIS$6
 70
     0
  4
"
 41
2.5
 42
0.0
 43
10.0
 44
1.0
 47
0.1
 48
0.1000000001
 73
     0
 74
     0
 78
     1
 79
     2
140
3.8
141
0.0
143
0.0393701
146
0.71
147
1.5
172
     1
176
   256
177
   256
178
     2
179
     2
271
     3
272
     3
275
     1
283
     0
284
     8
340
11
341
59
342
59
371
    -1
372
    -1
  0
DIMSTYLE
105
62
330
A
100
AcDbSymbolTableRecord
100
AcDbDimStyleTableRecord
  2
AM_JIS$7
 70
     0
  4
"
 41
2.5
 42
0.0
 43
10.0
 44
1.0
 47
0.1
 48
0.1000000001
 73
     0
 74
     0
 77
     3
 78
     1
 79
     2
140
5.0
141
0.0
143
0.0393701
146
0.71
147
1.5
172
     1
176
   256
177
   256
178
     2
179
     2
271
     3
272
     3
275
     1
283
     0
284
     8
340
11
341
59
342
59
371
    -1
372
    -1
  0
DIMSTYLE
105
63
330
A
100
AcDbSymbolTableRecord
100
AcDbDimStyleTableRecord
  2
AM_JIS$SF
 70
     0
  4
"
 41
2.5
 42
1.0
 43
10.0
 44
1.0
 47
0.1
 48
0.1
 73
     0
 74
     0
 75
     1
 76
     1
 77
     3
 78
     8
 79
     2
140
3.5
141
0.0
143
0.0393701
146
0.71
147
1.5
176
   256
177
   256
178
     2
271
     2
272
     3
274
     4
340
11
341
59
342
59
343
59
344
59
371
    -1
372
    -1
  0
DIMSTYLE
105
68
330
A
100
AcDbSymbolTableRecord
100
AcDbDimStyleTableRecord
  2
AM_JIS$SH
 70
     0
  4
"
 41
2.5
 42
1.0
 43
10.0
 44
1.0
 47
0.1
 48
0.1
 73
     0
 74
     0
 75
     1
 76
     1
 77
     3
 78
     8
 79
     2
140
3.5
141
0.0
143
0.0393701
144
2.0
146
0.71
147
1.5
173
     1
176
   256
177
   256
178
     2
271
     2
272
     3
274
     4
340
11
341
59
342
59
343
64
344
59
371
    -1
372
    -1
  0
DIMSTYLE
105
65F
330
A
100
AcDbSymbolTableRecord
100
AcDbDimStyleTableRecord
  2
STANDARD
 70
     0
340
11
  0
DIMSTYLE
105
1B97
102
{ACAD_REACTORS
330
F478
330
1B083
330
10C41
330
1B17A
102
}
330
A
100
AcDbSymbolTableRecord
100
AcDbDimStyleTableRecord
  2
AM_JIS$0
 70
     0
  4
"
 41
2.5
 42
0.0
 43
10.0
 44
1.0
 47
0.1
 48
0.1000000001
 73
     0
 74
     0
 77
     3
 78
     1
 79
     2
140
3.8
141
0.0
143
0.0393701
146
0.71
147
1.5
172
     1
176
     3
177
     3
178
     2
271
     3
272
     3
275
     1
283
     0
284
     8
289
     0
340
11
341
59
342
59
371
    13
372
    13
  0
DIMSTYLE
105
1B98
102
{ACAD_REACTORS
330
1B0BD
330
1B19D
330
19CF7
102
}
330
A
100
AcDbSymbolTableRecord
100
AcDbDimStyleTableRecord
  2
AM_JIS$2
 70
     0
  4
"
 41
2.5
 42
0.0
 43
10.0
 44
1.0
 47
0.1
 48
0.1000000001
 73
     0
 74
     0
 77
     3
 78
     1
 79
     2
140
3.8
141
0.0
143
0.0393701
146
0.71
147
1.5
172
     1
176
     3
177
     3
178
     2
271
     3
272
     3
275
     1
283
     0
284
     8
289
     0
340
11
341
59
342
59
371
    13
372
    13
  0
ENDTAB
  0
TABLE
  2
BLOCK_RECORD
  5
1
330
0
100
AcDbSymbolTable
 70
    13
  0
BLOCK_RECORD
  5
1F
102
{ACAD_XDICTIONARY
360
165
102
}
330
1
100
AcDbSymbolTableRecord
100
AcDbBlockTableRecord
  2
*Model_Space
340
22
  0
BLOCK_RECORD
  5
1B
330
1
100
AcDbSymbolTableRecord
100
AcDbBlockTableRecord
  2
*Paper_Space
340
1E
  0
BLOCK_RECORD
  5
23
330
1
100
AcDbSymbolTableRecord
100
AcDbBlockTableRecord
  2
*Paper_Space0
340
26
  0
BLOCK_RECORD
  5
59
330
1
100
AcDbSymbolTableRecord
100
AcDbBlockTableRecord
  2
_Open30
340
0
102
{BLKREFS
331
1B3EE
331
1B3EF
331
1B3F7
331
1B3F8
331
1B402
331
1B403
331
1B40B
331
1B40C
331
1B414
331
1B415
331
1B41F
331
1B420
331
1B428
331
1B429
331
1B433
331
1B434
331
1B43E
331
1B43F
102
}
  0
BLOCK_RECORD
  5
64
330
1
100
AcDbSymbolTableRecord
100
AcDbBlockTableRecord
  2
GENAXEH
340
0
  0
BLOCK_RECORD
  5
F479
330
1
100
AcDbSymbolTableRecord
100
AcDbBlockTableRecord
  2
*D3
340
0
  0
BLOCK_RECORD
  5
10C42
330
1
100
AcDbSymbolTableRecord
100
AcDbBlockTableRecord
  2
*D4
340
0
  0
BLOCK_RECORD
  5
15FAF
330
1
100
AcDbSymbolTableRecord
100
AcDbBlockTableRecord
  2
*D5
340
0
  0
BLOCK_RECORD
  5
19A67
330
1
100
AcDbSymbolTableRecord
100
AcDbBlockTableRecord
  2
*D6
340
0
  0
BLOCK_RECORD
  5
19CF8
330
1
100
AcDbSymbolTableRecord
100
AcDbBlockTableRecord
  2
*D7
340
0
  0
BLOCK_RECORD
  5
1A91C
330
1
100
AcDbSymbolTableRecord
100
AcDbBlockTableRecord
  2
*U8
340
0
  0
BLOCK_RECORD
  5
1B084
330
1
100
AcDbSymbolTableRecord
100
AcDbBlockTableRecord
  2
*D9
340
0
  0
BLOCK_RECORD
  5
1B0BE
330
1
100
AcDbSymbolTableRecord
100
AcDbBlockTableRecord
  2
*D10
340
0
  0
BLOCK_RECORD
  5
1B17B
330
1
100
AcDbSymbolTableRecord
100
AcDbBlockTableRecord
  2
*D11
340
0
  0
BLOCK_RECORD
  5
1B19E
330
1
100
AcDbSymbolTableRecord
100
AcDbBlockTableRecord
  2
*D12
340
0
  0
ENDTAB
  0
ENDSEC
  0
SECTION
  2
BLOCKS
  0
BLOCK
  5
20
330
1F
100
AcDbEntity
  8
0
100
AcDbBlockBegin
  2
*Model_Space
 70
     0
 71
     0
 10
0.0
 20
0.0
 30
0.0
  3
*Model_Space
  1

  0
ENDBLK
  5
21
330
1F
100
AcDbEntity
  8
0
100
AcDbBlockEnd
  0
BLOCK
  5
1C
330
1B
100
AcDbEntity
 67
     1
  8
0
100
AcDbBlockBegin
  2
*Paper_Space
 70
     0
 71
     0
 10
0.0
 20
0.0
 30
0.0
  3
*Paper_Space
  1

  0
ENDBLK
  5
1D
330
1B
100
AcDbEntity
 67
     1
  8
0
100
AcDbBlockEnd
  0
BLOCK
  5
24
330
23
100
AcDbEntity
  8
0
100
AcDbBlockBegin
  2
*Paper_Space0
 70
     0
 71
     0
 10
0.0
 20
0.0
 30
0.0
  3
*Paper_Space0
  1

  0
ENDBLK
  5
25
330
23
100
AcDbEntity
  8
0
100
AcDbBlockEnd
  0
BLOCK
  5
5D
330
59
100
AcDbEntity
  8
0
100
AcDbBlockBegin
  2
_Open30
 70
     0
 71
     0
 10
0.0
 20
0.0
 30
0.0
  3
_Open30
  1

  0
LINE
  5
5A
330
59
100
AcDbEntity
  8
0
 62
     0
370
    -2
100
AcDbLine
 10
-1.0
 20
0.26794919
 30
0.0
 11
0.0
 21
0.0
 31
0.0
  0
LINE
  5
5B
330
59
100
AcDbEntity
  8
0
 62
     0
370
    -2
100
AcDbLine
 10
0.0
 20
0.0
 30
0.0
 11
-1.0
 21
-0.26794919
 31
0.0
  0
LINE
  5
5C
330
59
100
AcDbEntity
  8
0
 62
     0
370
    -2
100
AcDbLine
 10
0.0
 20
0.0
 30
0.0
 11
-1.0
 21
0.0
 31
0.0
  0
ENDBLK
  5
5E
330
59
100
AcDbEntity
  8
0
100
AcDbBlockEnd
  0
BLOCK
  5
66
330
64
100
AcDbEntity
  8
0
100
AcDbBlockBegin
  2
GENAXEH
 70
     0
 71
     0
 10
0.0
 20
0.0
 30
0.0
  3
GENAXEH
  1

  0
LINE
  5
65
330
64
100
AcDbEntity
  8
0
100
AcDbLine
 10
-1.0
 20
0.0
 30
0.0
 11
1.0
 21
0.0
 31
0.0
  0
ENDBLK
  5
67
330
64
100
AcDbEntity
  8
0
100
AcDbBlockEnd
  0
BLOCK
  5
F484
330
F479
100
AcDbEntity
  8
0
100
AcDbBlockBegin
  2
*D3
 70
     1
 71
     0
 10
0.0
 20
0.0
 30
0.0
  3
*D3
  1

  0
LINE
  5
1B3EB
330
F479
100
AcDbEntity
  8
AM_5
 62
     3
370
    13
100
AcDbLine
 10
92.25
 20
6.641101056459306
 30
0.0
 11
92.25
 21
-13.8378434156414
 31
0.0
  0
LINE
  5
1B3EC
330
F479
100
AcDbEntity
  8
AM_5
 62
     3
370
    13
100
AcDbLine
 10
110.25
 20
6.641101056459277
 30
0.0
 11
110.25
 21
-13.8378434156414
 31
0.0
  0
LINE
  5
1B3ED
330
F479
100
AcDbEntity
  8
AM_5
 62
     3
370
    13
100
AcDbLine
 10
94.75
 20
-12.8378434156414
 30
0.0
 11
107.75
 21
-12.8378434156414
 31
0.0
  0
INSERT
  5
1B3EE
330
F479
100
AcDbEntity
  8
AM_5
 62
     3
370
    13
100
AcDbBlockReference
  2
_Open30
 10
92.25
 20
-12.8378434156414
 30
0.0
 41
2.5
 42
2.5
 43
2.5
 50
180.0
  0
INSERT
  5
1B3EF
330
F479
100
AcDbEntity
  8
AM_5
 62
     3
370
    13
100
AcDbBlockReference
  2
_Open30
 10
110.25
 20
-12.8378434156414
 30
0.0
 41
2.5
 42
2.5
 43
2.5
  0
MTEXT
  5
1B3F0
330
F479
100
AcDbEntity
  8
AM_5
 62
     2
100
AcDbMText
 10
101.25
 20
-9.437843415641401
 30
0.0
 40
3.8
 41
0.0
 71
     5
 72
     1
  1
18
 73
     1
 44
1.0
  0
POINT
  5
1B3F1
330
F479
100
AcDbEntity
  8
Defpoints
 62
     0
100
AcDbPoint
 10
92.25
 20
6.641101056459306
 30
0.0
  0
POINT
  5
1B3F2
330
F479
100
AcDbEntity
  8
Defpoints
 62
     0
100
AcDbPoint
 10
110.25
 20
6.641101056459277
 30
0.0
  0
POINT
  5
1B3F3
330
F479
100
AcDbEntity
  8
Defpoints
 62
     0
100
AcDbPoint
 10
110.25
 20
-12.8378434156414
 30
0.0
  0
ENDBLK
  5
F485
330
F479
100
AcDbEntity
  8
0
100
AcDbBlockEnd
  0
BLOCK
  5
10C4C
330
10C42
100
AcDbEntity
  8
0
100
AcDbBlockBegin
  2
*D4
 70
     1
 71
     0
 10
0.0
 20
0.0
 30
0.0
  3
*D4
  1

  0
LINE
  5
1B3F4
330
10C42
100
AcDbEntity
  8
AM_5
 62
     3
370
    13
100
AcDbLine
 10
17.99999999999989
 20
-78.75343978120607
 30
0.0
 11
17.99999999999989
 21
-94.06802839186135
 31
0.0
  0
LINE
  5
1B3F5
330
10C42
100
AcDbEntity
  8
AM_5
 62
     3
370
    13
100
AcDbLine
 10
0.0
 20
-69.00343978120607
 30
0.0
 11
-0.0000000000000015
 21
-94.06802839186135
 31
0.0
  0
LINE
  5
1B3F6
330
10C42
100
AcDbEntity
  8
AM_5
 62
     3
370
    13
100
AcDbLine
 10
15.49999999999989
 20
-93.06802839186135
 30
0.0
 11
2.499999999999999
 21
-93.06802839186135
 31
0.0
  0
INSERT
  5
1B3F7
330
10C42
100
AcDbEntity
  8
AM_5
 62
     3
370
    13
100
AcDbBlockReference
  2
_Open30
 10
17.99999999999989
 20
-93.06802839186135
 30
0.0
 41
2.5
 42
2.5
 43
2.5
  0
INSERT
  5
1B3F8
330
10C42
100
AcDbEntity
  8
AM_5
 62
     3
370
    13
100
AcDbBlockReference
  2
_Open30
 10
-0.0000000000000015
 20
-93.06802839186135
 30
0.0
 41
2.5
 42
2.5
 43
2.5
 50
180.0
  0
MTEXT
  5
1B3F9
330
10C42
100
AcDbEntity
  8
AM_5
 62
     2
100
AcDbMText
 10
8.999999999999943
 20
-89.66802839186134
 30
0.0
 40
3.8
 41
0.0
 71
     5
 72
     1
  1
18
 73
     1
 44
1.0
  0
POINT
  5
1B3FA
330
10C42
100
AcDbEntity
  8
Defpoints
 62
     0
100
AcDbPoint
 10
17.99999999999989
 20
-78.75343978120607
 30
0.0
  0
POINT
  5
1B3FB
330
10C42
100
AcDbEntity
  8
Defpoints
 62
     0
100
AcDbPoint
 10
0.0
 20
-69.00343978120607
 30
0.0
  0
POINT
  5
1B3FC
330
10C42
100
AcDbEntity
  8
Defpoints
 62
     0
100
AcDbPoint
 10
-0.0000000000000015
 20
-93.06802839186135
 30
0.0
  0
ENDBLK
  5
10C4D
330
10C42
100
AcDbEntity
  8
0
100
AcDbBlockEnd
  0
BLOCK
  5
15FB8
330
15FAF
100
AcDbEntity
  8
0
100
AcDbBlockBegin
  2
*D5
 70
     1
 71
     0
 10
0.0
 20
0.0
 30
0.0
  3
*D5
  1

  0
LINE
  5
1B3FD
330
15FAF
100
AcDbEntity
  8
AM_5
100
AcDbLine
 10
120.3868381826966
 20
32.02569130539461
 30
0.0
 11
111.2838460567123
 21
32.02569130539462
 31
0.0
  0
LINE
  5
1B3FE
330
15FAF
100
AcDbEntity
  8
AM_5
100
AcDbLine
 10
111.2838460567123
 20
32.02569130539462
 30
0.0
 11
106.633620340171
 21
22.28125135048847
 31
0.0
  0
LINE
  5
1B3FF
330
15FAF
100
AcDbEntity
  8
AM_5
100
AcDbLine
 10
95.86637965982902
 20
-0.2812513504885388
 30
0.0
 11
94.78965559179484
 21
-2.537501620586234
 31
0.0
  0
MTEXT
  5
1B400
330
15FAF
100
AcDbEntity
  8
AM_5
 62
     2
100
AcDbMText
 10
116.5853421197045
 20
35.42606532114264
 30
0.0
 40
3.8
 41
0.0
 71
     5
 72
     1
  1
\U+220520
 73
     1
 44
1.0
  0
LINE
  5
1B401
330
15FAF
100
AcDbEntity
  8
AM_5
100
AcDbLine
 10
96.94310372786322
 20
1.974998919609149
 30
0.0
 11
105.5568962721368
 21
20.02500108039077
 31
0.0
  0
INSERT
  5
1B402
330
15FAF
100
AcDbEntity
  8
AM_5
100
AcDbBlockReference
  2
_Open30
 10
96.94310372786322
 20
1.974998919609149
 30
0.0
 41
2.5
 42
2.5
 43
2.5
 50
64.48866642126419
  0
INSERT
  5
1B403
330
15FAF
100
AcDbEntity
  8
AM_5
100
AcDbBlockReference
  2
_Open30
 10
105.5568962721368
 20
20.02500108039077
 30
0.0
 41
2.5
 42
2.5
 43
2.5
 50
244.4886664212642
  0
POINT
  5
1B404
330
15FAF
100
AcDbEntity
  8
Defpoints
 62
     0
100
AcDbPoint
 10
105.5568962721368
 20
20.02500108039077
 30
0.0
  0
POINT
  5
1B405
330
15FAF
100
AcDbEntity
  8
Defpoints
 62
     0
100
AcDbPoint
 10
96.94310372786322
 20
1.974998919609149
 30
0.0
  0
ENDBLK
  5
15FB9
330
15FAF
100
AcDbEntity
  8
0
100
AcDbBlockEnd
  0
BLOCK
  5
19A6D
330
19A67
100
AcDbEntity
  8
0
100
AcDbBlockBegin
  2
*D6
 70
     1
 71
     0
 10
0.0
 20
0.0
 30
0.0
  3
*D6
  1

  0
LINE
  5
1B406
330
19A67
100
AcDbEntity
  8
AM_5
100
AcDbLine
 10
-96.67058639058232
 20
28.26029019217959
 30
0.0
 11
-72.80286038109323
 21
28.26029019217959
 31
0.0
  0
LINE
  5
1B407
330
19A67
100
AcDbEntity
  8
AM_5
100
AcDbLine
 10
-72.80286038109323
 20
28.26029019217959
 30
0.0
 11
-69.62670167688118
 21
22.79635528460543
 31
0.0
  0
LINE
  5
1B408
330
19A67
100
AcDbEntity
  8
AM_5
100
AcDbLine
 10
-56.05769790791072
 20
-0.5463552845995849
 30
0.0
 11
-54.8013086700431
 21
-2.707717374340778
 31
0.0
  0
MTEXT
  5
1B409
330
19A67
100
AcDbEntity
  8
AM_5
 62
     2
100
AcDbMText
 10
-85.48672338583781
 20
34.82733087459429
 30
0.0
 40
3.8
 41
0.0
 71
     5
 72
     1
  1
最小加工径\P\U+220522
 73
     1
 44
1.0
  0
LINE
  5
1B40A
330
19A67
100
AcDbEntity
  8
AM_5
100
AcDbLine
 10
-57.31408714577835
 20
1.615006805141604
 30
0.0
 11
-68.37031243901356
 21
20.63499319486424
 31
0.0
  0
INSERT
  5
1B40B
330
19A67
100
AcDbEntity
  8
AM_5
100
AcDbBlockReference
  2
_Open30
 10
-57.31408714577835
 20
1.615006805141604
 30
0.0
 41
2.5
 42
2.5
 43
2.5
 50
120.1692279641006
  0
INSERT
  5
1B40C
330
19A67
100
AcDbEntity
  8
AM_5
100
AcDbBlockReference
  2
_Open30
 10
-68.37031243901356
 20
20.63499319486424
 30
0.0
 41
2.5
 42
2.5
 43
2.5
 50
300.1692279641006
  0
POINT
  5
1B40D
330
19A67
100
AcDbEntity
  8
Defpoints
 62
     0
100
AcDbPoint
 10
-68.37031243901356
 20
20.63499319486424
 30
0.0
  0
POINT
  5
1B40E
330
19A67
100
AcDbEntity
  8
Defpoints
 62
     0
100
AcDbPoint
 10
-57.31408714577835
 20
1.615006805141604
 30
0.0
  0
ENDBLK
  5
19A6E
330
19A67
100
AcDbEntity
  8
0
100
AcDbBlockEnd
  0
BLOCK
  5
19D06
330
19CF8
100
AcDbEntity
  8
0
100
AcDbBlockBegin
  2
*D7
 70
     1
 71
     0
 10
0.0
 20
0.0
 30
0.0
  3
*D7
  1

  0
LINE
  5
1B40F
330
19CF8
100
AcDbEntity
  8
AM_5
 62
     3
370
    13
100
AcDbLine
 10
-9.581157902707442
 20
-68.16519708126735
 30
0.0
 11
-12.29224342605783
 21
-67.92800783212495
 31
0.0
  0
LINE
  5
1B410
330
19CF8
100
AcDbEntity
  8
AM_5
 62
     3
370
    13
100
AcDbLine
 10
-1.773854710452497
 20
-69.00343978120606
 30
0.0
 11
-12.33919779898865
 21
-69.00343978120608
 31
0.0
  0
ARC
  5
1B411
330
19CF8
100
AcDbEntity
  8
AM_5
 62
     3
370
    13
100
AcDbCircle
 10
-0.0000000000000107
 20
-69.00343978120607
 30
0.0
 40
11.33919779898864
100
AcDbArc
 50
149.6840716446147
 51
162.3420358223074
  0
ARC
  5
1B412
330
19CF8
100
AcDbEntity
  8
AM_5
 62
     3
370
    13
100
AcDbCircle
 10
-0.0000000000000107
 20
-69.00343978120607
 30
0.0
 40
11.33919779898864
100
AcDbArc
 50
192.6579641776927
 51
205.3159283553854
  0
ARC
  5
1B413
330
19CF8
100
AcDbEntity
  8
AM_5
 62
     3
370
    13
100
AcDbCircle
 10
-0.0000000000000107
 20
-69.00343978120607
 30
0.0
 40
11.33919779898864
100
AcDbArc
 50
175.0000000000001
 51
180.0
  0
INSERT
  5
1B414
330
19CF8
100
AcDbEntity
  8
AM_5
 62
     3
370
    13
100
AcDbBlockReference
  2
_Open30
 10
-11.29604872796608
 20
-68.01516357487262
 30
0.0
 41
2.5
 42
2.5
 43
2.5
 50
258.6710179111537
  0
INSERT
  5
1B415
330
19CF8
100
AcDbEntity
  8
AM_5
 62
     3
370
    13
100
AcDbBlockReference
  2
_Open30
 10
-11.33919779898865
 20
-69.00343978120607
 30
0.0
 41
2.5
 42
2.5
 43
2.5
 50
96.32898208884633
  0
MTEXT
  5
1B416
330
19CF8
100
AcDbEntity
  8
AM_5
 62
     2
100
AcDbMText
 10
-8.081173502737279
 20
-70.67214663647324
 30
0.0
 40
3.8
 41
0.0
 71
     5
 72
     1
  1
5°
 73
     1
 44
1.0
  0
POINT
  5
1B417
330
19CF8
100
AcDbEntity
  8
Defpoints
 62
     0
100
AcDbPoint
 10
-11.32001367098198
 20
-68.34412406520184
 30
0.0
  0
POINT
  5
1B418
330
19CF8
100
AcDbEntity
  8
Defpoints
 62
     0
100
AcDbPoint
 10
-1.773854710452497
 20
-69.00343978120606
 30
0.0
  0
POINT
  5
1B419
330
19CF8
100
AcDbEntity
  8
Defpoints
 62
     0
100
AcDbPoint
 10
0.0
 20
-69.00343978120606
 30
0.0
  0
POINT
  5
1B41A
330
19CF8
100
AcDbEntity
  8
Defpoints
 62
     0
100
AcDbPoint
 10
-9.581157902707442
 20
-68.16519708126735
 30
0.0
  0
POINT
  5
1B41B
330
19CF8
100
AcDbEntity
  8
Defpoints
 62
     0
100
AcDbPoint
 10
153.6686900870429
 20
-69.0034397812061
 30
0.0
  0
ENDBLK
  5
19D07
330
19CF8
100
AcDbEntity
  8
0
100
AcDbBlockEnd
  0
BLOCK
  5
1A91D
330
1A91C
100
AcDbEntity
  8
0
100
AcDbBlockBegin
  2
*U8
 70
     1
 71
     0
 10
0.0
 20
0.0
 30
0.0
  3
*U8
  1

  0
ENDBLK
  5
1A91E
330
1A91C
100
AcDbEntity
  8
0
100
AcDbBlockEnd
  0
BLOCK
  5
1B0B1
330
1B084
100
AcDbEntity
  8
0
100
AcDbBlockBegin
  2
*D9
 70
     1
 71
     0
 10
0.0
 20
0.0
 30
0.0
  3
*D9
  1

  0
LINE
  5
1B41C
330
1B084
100
AcDbEntity
  8
AM_5
 62
     3
370
    13
100
AcDbLine
 10
-5.206010663942152
 20
0.0
 30
0.0
 11
-10.10300583697108
 21
0.0000000000000014
 31
0.0
  0
LINE
  5
1B41D
330
1B084
100
AcDbEntity
  8
AM_5
 62
     3
370
    13
100
AcDbLine
 10
-2.165548451965833
 20
11.0
 30
0.0
 11
-10.10300583697108
 21
11.0
 31
0.0
  0
LINE
  5
1B41E
330
1B084
100
AcDbEntity
  8
AM_5
 62
     3
370
    13
100
AcDbLine
 10
-9.103005836971081
 20
2.500000000000001
 30
0.0
 11
-9.103005836971079
 21
8.500000000000002
 31
0.0
  0
INSERT
  5
1B41F
330
1B084
100
AcDbEntity
  8
AM_5
 62
     3
370
    13
100
AcDbBlockReference
  2
_Open30
 10
-9.103005836971081
 20
0.0000000000000011
 30
0.0
 41
2.5
 42
2.5
 43
2.5
 50
270.0
  0
INSERT
  5
1B420
330
1B084
100
AcDbEntity
  8
AM_5
 62
     3
370
    13
100
AcDbBlockReference
  2
_Open30
 10
-9.103005836971079
 20
11.0
 30
0.0
 41
2.5
 42
2.5
 43
2.5
 50
90.0
  0
MTEXT
  5
1B421
330
1B084
100
AcDbEntity
  8
AM_5
 62
     2
100
AcDbMText
 10
-12.50300583697108
 20
5.500000000000001
 30
0.0
 40
3.8
 41
0.0
 71
     5
 72
     1
  1
11
 11
6.123031769111886E-17
 21
1.0
 31
0.0
 73
     1
 44
1.0
  0
POINT
  5
1B422
330
1B084
100
AcDbEntity
  8
Defpoints
 62
     0
100
AcDbPoint
 10
-5.206010663942152
 20
0.0
 30
0.0
  0
POINT
  5
1B423
330
1B084
100
AcDbEntity
  8
Defpoints
 62
     0
100
AcDbPoint
 10
-2.165548451965833
 20
11.0
 30
0.0
  0
POINT
  5
1B424
330
1B084
100
AcDbEntity
  8
Defpoints
 62
     0
100
AcDbPoint
 10
-9.103005836971079
 20
11.0
 30
0.0
  0
ENDBLK
  5
1B0B2
330
1B084
100
AcDbEntity
  8
0
100
AcDbBlockEnd
  0
BLOCK
  5
1B102
330
1B0BE
100
AcDbEntity
  8
0
100
AcDbBlockBegin
  2
*D10
 70
     1
 71
     0
 10
0.0
 20
0.0
 30
0.0
  3
*D10
  1

  0
LINE
  5
1B425
330
1B0BE
100
AcDbEntity
  8
AM_5
 62
     3
370
    13
100
AcDbLine
 10
0.8026490546365031
 20
9.590376465194396
 30
0.0
 11
2.295655796349779
 21
26.65552161135097
 31
0.0
  0
LINE
  5
1B426
330
1B0BE
100
AcDbEntity
  8
AM_5
 62
     3
370
    13
100
AcDbLine
 10
-5.206010663942152
 20
0.0
 30
0.0
 11
-26.79374153855341
 21
0.0000000000000373
 31
0.0
  0
ARC
  5
1B427
330
1B0BE
100
AcDbEntity
  8
AM_5
 62
     3
370
    13
100
AcDbCircle
 10
-0.0364001650138825
 20
0.0000000000000003
 30
0.0
 40
25.75734137353953
100
AcDbArc
 50
90.56329674563371
 51
174.4367032543658
  0
INSERT
  5
1B428
330
1B0BE
100
AcDbEntity
  8
AM_5
 62
     3
370
    13
100
AcDbBlockReference
  2
_Open30
 10
2.208500053602112
 20
25.65932691325922
 30
0.0
 41
2.5
 42
2.5
 43
2.5
 50
357.7816483728167
  0
INSERT
  5
1B429
330
1B0BE
100
AcDbEntity
  8
AM_5
 62
     3
370
    13
100
AcDbBlockReference
  2
_Open30
 10
-25.79374153855341
 20
0.0000000000000355
 30
0.0
 41
2.5
 42
2.5
 43
2.5
 50
267.2183516271829
  0
MTEXT
  5
1B42A
330
1B0BE
100
AcDbEntity
  8
AM_5
 62
     2
100
AcDbMText
 10
-19.73481447708405
 20
21.49704699634695
 30
0.0
 40
3.8
 41
0.0
 71
     5
 72
     1
  1
95°
 11
0.7372773368101259
 21
0.6755902076156582
 31
0.0
 73
     1
 44
1.0
  0
POINT
  5
1B42B
330
1B0BE
100
AcDbEntity
  8
Defpoints
 62
     0
100
AcDbPoint
 10
-11.59627385760176
 20
23.01760097934765
 30
0.0
  0
POINT
  5
1B42C
330
1B0BE
100
AcDbEntity
  8
Defpoints
 62
     0
100
AcDbPoint
 10
0.0015268259846834
 20
0.4335074907999399
 30
0.0
  0
POINT
  5
1B42D
330
1B0BE
100
AcDbEntity
  8
Defpoints
 62
     0
100
AcDbPoint
 10
-5.206010663942152
 20
0.0
 30
0.0
  0
POINT
  5
1B42E
330
1B0BE
100
AcDbEntity
  8
Defpoints
 62
     0
100
AcDbPoint
 10
0.3972659722765002
 20
0.0
 30
0.0
  0
POINT
  5
1B42F
330
1B0BE
100
AcDbEntity
  8
Defpoints
 62
     0
100
AcDbPoint
 10
0.8026490546365031
 20
9.590376465194396
 30
0.0
  0
ENDBLK
  5
1B103
330
1B0BE
100
AcDbEntity
  8
0
100
AcDbBlockEnd
  0
BLOCK
  5
1B191
330
1B17B
100
AcDbEntity
  8
0
100
AcDbBlockBegin
  2
*D11
 70
     1
 71
     0
 10
0.0
 20
0.0
 30
0.0
  3
*D11
  1

  0
LINE
  5
1B430
330
1B17B
100
AcDbEntity
  8
AM_5
 62
     3
370
    13
100
AcDbLine
 10
0.0
 20
-4.098051992618252
 30
0.0
 11
-0.0000000000000019
 21
-34.38566080332221
 31
0.0
  0
LINE
  5
1B431
330
1B17B
100
AcDbEntity
  8
AM_5
 62
     3
370
    13
100
AcDbLine
 10
250.0
 20
2.000000000000995
 30
0.0
 11
250.0
 21
-34.38566080332221
 31
0.0
  0
LINE
  5
1B432
330
1B17B
100
AcDbEntity
  8
AM_5
 62
     3
370
    13
100
AcDbLine
 10
2.499999999999998
 20
-33.38566080332221
 30
0.0
 11
247.5
 21
-33.38566080332221
 31
0.0
  0
INSERT
  5
1B433
330
1B17B
100
AcDbEntity
  8
AM_5
 62
     3
370
    13
100
AcDbBlockReference
  2
_Open30
 10
-0.0000000000000018
 20
-33.38566080332221
 30
0.0
 41
2.5
 42
2.5
 43
2.5
 50
180.0
  0
INSERT
  5
1B434
330
1B17B
100
AcDbEntity
  8
AM_5
 62
     3
370
    13
100
AcDbBlockReference
  2
_Open30
 10
250.0
 20
-33.38566080332221
 30
0.0
 41
2.5
 42
2.5
 43
2.5
  0
MTEXT
  5
1B435
330
1B17B
100
AcDbEntity
  8
AM_5
 62
     2
100
AcDbMText
 10
125.0
 20
-29.98528678757418
 30
0.0
 40
3.8
 41
0.0
 71
     5
 72
     1
  1
250
 73
     1
 44
1.0
  0
POINT
  5
1B436
330
1B17B
100
AcDbEntity
  8
Defpoints
 62
     0
100
AcDbPoint
 10
0.0
 20
-4.098051992618252
 30
0.0
  0
POINT
  5
1B437
330
1B17B
100
AcDbEntity
  8
Defpoints
 62
     0
100
AcDbPoint
 10
250.0
 20
2.000000000000995
 30
0.0
  0
POINT
  5
1B438
330
1B17B
100
AcDbEntity
  8
Defpoints
 62
     0
100
AcDbPoint
 10
250.0
 20
-33.38566080332221
 30
0.0
  0
ENDBLK
  5
1B192
330
1B17B
100
AcDbEntity
  8
0
100
AcDbBlockEnd
  0
BLOCK
  5
1B1CE
330
1B19E
100
AcDbEntity
  8
0
100
AcDbBlockBegin
  2
*D12
 70
     1
 71
     0
 10
0.0
 20
0.0
 30
0.0
  3
*D12
  1

  0
LINE
  5
1B439
330
1B19E
100
AcDbEntity
  8
AM_5
 62
     3
370
    13
100
AcDbLine
 10
-62.84219979239595
 20
-0.1174098634719115
 30
0.0
 11
-63.27525249932735
 21
-15.99963366873777
 31
0.0
  0
LINE
  5
1B43A
330
1B19E
100
AcDbEntity
  8
AM_5
 62
     3
370
    13
100
AcDbLine
 10
-62.84219979239595
 20
-5.075659642478101
 30
0.0
 11
-62.84219979239595
 21
-16.00553648833031
 31
0.0
  0
ARC
  5
1B43B
330
1B19E
100
AcDbEntity
  8
AM_5
 62
     3
370
    13
100
AcDbCircle
 10
-62.84219979239595
 20
-0.1174098634719115
 30
0.0
 40
14.8881266248584
100
AcDbArc
 50
249.1733473809643
 51
258.805739404813
  0
ARC
  5
1B43C
330
1B19E
100
AcDbEntity
  8
AM_5
 62
     3
370
    13
100
AcDbCircle
 10
-62.84219979239595
 20
-0.1174098634719115
 30
0.0
 40
14.8881266248584
100
AcDbArc
 50
279.6323920238487
 51
289.2647840476974
  0
ARC
  5
1B43D
330
1B19E
100
AcDbEntity
  8
AM_5
 62
     3
370
    13
100
AcDbCircle
 10
-62.84219979239595
 20
-0.1174098634719115
 30
0.0
 40
14.8881266248584
100
AcDbArc
 50
268.4381314286617
 51
270.0
  0
INSERT
  5
1B43E
330
1B19E
100
AcDbEntity
  8
AM_5
 62
     3
370
    13
100
AcDbBlockReference
  2
_Open30
 10
-63.24799612624094
 20
-15.00000519268971
 30
0.0
 41
2.5
 42
2.5
 43
2.5
 50
353.6219354167373
  0
INSERT
  5
1B43F
330
1B19E
100
AcDbEntity
  8
AM_5
 62
     3
370
    13
100
AcDbBlockReference
  2
_Open30
 10
-62.84219979239595
 20
-15.00553648833031
 30
0.0
 41
2.5
 42
2.5
 43
2.5
 50
184.8161960119244
  0
MTEXT
  5
1B440
330
1B19E
100
AcDbEntity
  8
AM_5
 62
     2
100
AcDbMText
 10
-62.84219979239595
 20
-11.60516247258228
 30
0.0
 40
3.8
 41
0.0
 71
     5
 72
     1
  1
2°
 73
     1
 44
1.0
  0
POINT
  5
1B441
330
1B19E
100
AcDbEntity
  8
Defpoints
 62
     0
100
AcDbPoint
 10
-63.11274929680818
 20
-15.00307805013655
 30
0.0
  0
POINT
  5
1B442
330
1B19E
100
AcDbEntity
  8
Defpoints
 62
     0
100
AcDbPoint
 10
-62.82718058230216
 20
0.4334202139522603
 30
0.0
  0
POINT
  5
1B443
330
1B19E
100
AcDbEntity
  8
Defpoints
 62
     0
100
AcDbPoint
 10
-62.84219979239595
 20
-5.075659642478101
 30
0.0
  0
POINT
  5
1B444
330
1B19E
100
AcDbEntity
  8
Defpoints
 62
     0
100
AcDbPoint
 10
-62.84219979239595
 20
27.47866351642647
 30
0.0
  0
POINT
  5
1B445
330
1B19E
100
AcDbEntity
  8
Defpoints
 62
     0
100
AcDbPoint
 10
-62.57750478469359
 20
9.590289188346716
 30
0.0
  0
ENDBLK
  5
1B1CF
330
1B19E
100
AcDbEntity
  8
0
100
AcDbBlockEnd
  0
ENDSEC
  0
SECTION
  2
ENTITIES
  0
LINE
  5
EF21
330
1F
100
AcDbEntity
  8
AM_7
100
AcDbLine
 10
264.6143791372861
 20
10.99999999999994
 30
0.0
 11
-2.165548451965833
 21
11.0
 31
0.0
1001
GENIUS_GENODEF_13
1002
{
1000
HIER
1070
     0
1002
}
1002
{
1000
MANEDIT
1070
     0
1002
}
1002
{
1000
NOSEL
1070
     0
1002
}
1002
{
1000
BEHIND
1070
     0
1002
}
1002
{
1000
REACTOR
1002
}
1001
GENIUS_GENOBJ-N-CEN_13
1002
{
1000
OWNER
1000
GEN
1002
}
  0
LINE
  5
EF96
330
1F
100
AcDbEntity
  8
AM_7
100
AcDbLine
 10
-1.773854710452497
 20
-69.00343978120607
 30
0.0
 11
264.6143791372861
 21
-69.00343978120613
 31
0.0
1001
GENIUS_GENODEF_13
1002
{
1000
HIER
1070
     0
1002
}
1002
{
1000
MANEDIT
1070
     0
1002
}
1002
{
1000
NOSEL
1070
     0
1002
}
1002
{
1000
BEHIND
1070
     0
1002
}
1002
{
1000
REACTOR
1002
}
1001
GENIUS_GENOBJ-N-CEN_13
1002
{
1000
OWNER
1000
GEN
1002
}
  0
DIMENSION
  5
F478
330
1F
100
AcDbEntity
  8
AM_5
100
AcDbDimension
  2
*D3
 10
110.25
 20
-12.8378434156414
 30
0.0
 11
101.25
 21
-12.8378434156414
 31
0.0
 70
   160
  1
<>
 71
     5
 42
18.0
  3
AM_JIS$0
100
AcDbAlignedDimension
 13
92.25
 23
6.641101056459306
 33
0.0
 14
110.25
 24
6.641101056459277
 34
0.0
100
AcDbRotatedDimension
1001
GENIUS_GENDTOL_13
1000

1000
h7
1000

1040
0.0
1001
ACAD
1000
DSTYLE
1002
{
1070
   271
1070
     0
1002
}
  0
DIMENSION
  5
10C41
330
1F
100
AcDbEntity
  8
AM_5
100
AcDbDimension
  2
*D4
 10
-0.0000000000000015
 20
-93.06802839186135
 30
0.0
 11
8.999999999999943
 21
-89.66802839186134
 31
0.0
 70
    32
  1
<>
 71
     5
 42
17.99999999999989
  3
AM_JIS$0
100
AcDbAlignedDimension
 13
17.99999999999989
 23
-78.75343978120607
 33
0.0
 14
0.0
 24
-69.00343978120607
 34
0.0
100
AcDbRotatedDimension
1001
ACAD
1000
DSTYLE
1002
{
1070
   271
1070
     0
1002
}
1001
GENIUS_GENDTOL_13
1000

1000
h7
1000

1040
0.0
  0
LINE
  5
15113
330
1F
100
AcDbEntity
  8
AM_0
100
AcDbLine
 10
249.0
 20
15.35889894354168
 30
0.0
 11
115.25
 21
15.35889894354169
 31
0.0
  0
LINE
  5
151C6
330
1F
100
AcDbEntity
  8
AM_0
100
AcDbLine
 10
250.0
 20
2.000000000000995
 30
0.0
 11
250.0
 21
11.000000000001
 31
0.0
  0
SPLINE
  5
151C7
330
1F
100
AcDbEntity
  8
AM_0
100
AcDbSpline
210
0.0
220
0.0
230
1.0
 70
    12
 71
     2
 72
     6
 73
     3
 74
     0
 42
0.0000000001
 43
0.0000000001
 40
0.0
 40
0.0
 40
0.0
 40
4.496611670767331
 40
4.496611670767331
 40
4.496611670767331
 10
249.0
 20
6.641101056460371
 30
0.0
 41
1.0
 10
249.9999999999993
 20
8.935258395166017
 30
0.0
 41
1.027402333828092
 10
250.0
 20
11.000000000001
 30
0.0
 41
1.0
  0
LINE
  5
151C8
330
1F
100
AcDbEntity
  8
AM_0
100
AcDbLine
 10
250.0
 20
2.000000000000995
 30
0.0
 11
249.0
 21
1.000000000000995
 31
0.0
  0
LINE
  5
151C9
330
1F
100
AcDbEntity
  8
AM_0
100
AcDbLine
 10
249.0
 20
1.000000000000995
 30
0.0
 11
249.0
 21
6.641101056460315
 31
0.0
  0
LINE
  5
151CA
330
1F
100
AcDbEntity
  8
AM_0
100
AcDbLine
 10
250.0
 20
11.000000000001
 30
0.0
 11
250.0
 21
20.000000000001
 31
0.0
  0
LINE
  5
151CB
330
1F
100
AcDbEntity
  8
AM_0
100
AcDbLine
 10
249.0
 20
15.35889894354168
 30
0.0
 11
249.0
 21
21.000000000001
 31
0.0
  0
SPLINE
  5
151CC
330
1F
100
AcDbEntity
  8
AM_0
100
AcDbSpline
210
0.0
220
0.0
230
1.0
 70
    12
 71
     2
 72
     6
 73
     3
 74
     0
 42
0.0000000001
 43
0.0000000001
 40
4.496611670767331
 40
4.496611670767331
 40
4.496611670767331
 40
8.993223341534662
 40
8.993223341534662
 40
8.993223341534662
 10
250.0
 20
11.000000000001
 30
0.0
 41
1.0
 10
249.9999999999993
 20
13.06474160483603
 30
0.0
 41
1.027402333828092
 10
249.0
 20
15.35889894354168
 30
0.0
 41
1.0
  0
LINE
  5
151CD
330
1F
100
AcDbEntity
  8
AM_0
100
AcDbLine
 10
250.0
 20
20.000000000001
 30
0.0
 11
249.0
 21
21.000000000001
 31
0.0
  0
LINE
  5
159D5
330
1F
100
AcDbEntity
  8
AM_0
100
AcDbLine
 10
115.25
 20
1.000000000001009
 30
0.0
 11
249.0
 21
1.000000000001023
 31
0.0
  0
LINE
  5
159D6
330
1F
100
AcDbEntity
  8
AM_0
100
AcDbLine
 10
115.25
 20
6.641101056460329
 30
0.0
 11
249.0
 21
6.641101056460286
 31
0.0
  0
LINE
  5
159D8
330
1F
100
AcDbEntity
  8
AM_0
100
AcDbLine
 10
115.25
 20
21.00000000000101
 30
0.0
 11
249.0
 21
21.00000000000102
 31
0.0
  0
LINE
  5
15AD4
330
1F
100
AcDbEntity
  8
AM_7
100
AcDbLine
 10
-47.23559948210118
 20
11.0
 30
0.0
 11
-78.54559906981899
 21
11.00000000000001
 31
0.0
1001
GENIUS_GENODEF_13
1002
{
1000
HIER
1070
     0
1002
}
1002
{
1000
MANEDIT
1070
     0
1002
}
1002
{
1000
NOSEL
1070
     0
1002
}
1002
{
1000
BEHIND
1070
     0
1002
}
1002
{
1000
REACTOR
1002
}
1001
GENIUS_GENOBJ-N-CEN_13
1002
{
1000
OWNER
1000
GEN
1002
}
  0
LINE
  5
15ADA
330
1F
100
AcDbEntity
  8
AM_7
100
AcDbLine
 10
-62.84219979239595
 20
-5.075659642478101
 30
0.0
 11
-62.84219979239595
 21
27.47866351642647
 31
0.0
1001
GENIUS_GENODEF_13
1002
{
1000
HIER
1070
     0
1002
}
1002
{
1000
MANEDIT
1070
     0
1002
}
1002
{
1000
NOSEL
1070
     0
1002
}
1002
{
1000
BEHIND
1070
     0
1002
}
1002
{
1000
REACTOR
1002
}
1001
GENIUS_GENOBJ-N-CEN_13
1002
{
1000
OWNER
1000
GEN
1002
}
  0
ARC
  5
15ED6
330
1F
100
AcDbEntity
  8
AM_0
100
AcDbCircle
 10
101.25
 20
10.99999999999996
 30
0.0
 40
10.0
100
AcDbArc
 50
205.8419327631672
 51
334.1580672368328
  0
LINE
  5
15F4D
330
1F
100
AcDbEntity
  8
AM_0
100
AcDbLine
 10
110.25
 20
15.35889894354064
 30
0.0
 11
110.25
 21
6.641101056459277
 31
0.0
  0
LINE
  5
15F4E
330
1F
100
AcDbEntity
  8
AM_0
100
AcDbLine
 10
92.25
 20
15.35889894354067
 30
0.0
 11
92.25
 21
6.641101056459306
 31
0.0
  0
ARC
  5
15F60
330
1F
100
AcDbEntity
  8
AM_0
100
AcDbCircle
 10
101.25
 20
10.99999999999996
 30
0.0
 40
10.0
100
AcDbArc
 50
25.84193276316717
 51
154.1580672368328
  0
LINE
  5
15F69
330
1F
100
AcDbEntity
  8
AM_7
  6
AM_ISO08W050x2
100
AcDbLine
 10
101.25
 20
23.99999999999996
 30
0.0
 11
101.25
 21
-2.000000000000043
 31
0.0
1001
GENIUS_GENODEF_13
1002
{
1000
HIER
1070
     0
1002
}
1002
{
1000
MANEDIT
1070
     0
1002
}
1002
{
1000
NOSEL
1070
     0
1002
}
1002
{
1000
BEHIND
1070
     0
1002
}
1002
{
1000
REACTOR
1002
}
1001
GENIUS_GENOBJ-N-CEN_13
1002
{
1000
OWNER
1000
GEN
1002
}
  0
DIMENSION
  5
15FAE
330
1F
100
AcDbEntity
  8
AM_5
100
AcDbDimension
  2
*D5
 10
96.94310372786322
 20
1.974998919609149
 30
0.0
 11
116.5853421197045
 21
32.02569130539462
 31
0.0
 70
   163
  1
<>
 71
     5
 42
20.00000000000011
  3
AM_JIS$3
100
AcDbDiametricDimension
 15
105.5568962721368
 25
20.02500108039077
 35
0.0
 40
0.0
1001
GENIUS_GENDTOL_13
1000

1000
h7
1000

1040
0.0
1001
ACAD
1000
DSTYLE
1002
{
1070
   271
1070
     0
1070
   289
1070
     3
1002
}
  0
LINE
  5
1810C
330
1F
100
AcDbEntity
  8
AM_0
100
AcDbLine
 10
250.0
 20
-78.00343978120613
 30
0.0
 11
250.0
 21
-60.00343978120615
 31
0.0
  0
LINE
  5
1810D
330
1F
100
AcDbEntity
  8
AM_0
100
AcDbLine
 10
249.0
 20
-78.00343978120618
 30
0.0
 11
249.0
 21
-60.00343978120615
 31
0.0
  0
SPLINE
  5
1810F
330
1F
100
AcDbEntity
  8
AM_0
100
AcDbSpline
210
0.0
220
0.0
230
1.0
 70
    28
 71
     2
 72
     6
 73
     3
 74
     0
 42
0.0000000001
 43
0.0000000001
 40
0.0
 40
0.0
 40
0.0
 40
4.496611670767472
 40
4.496611670767472
 40
4.496611670767472
 10
248.9999999999999
 20
-78.00343978120613
 30
0.0
 41
1.0
 10
250.0000000000001
 20
-78.00343978120615
 30
0.0
 41
1.027402333828263
 10
250.0
 20
-78.00343978120613
 30
0.0
 41
1.0
  0
SPLINE
  5
18123
330
1F
100
AcDbEntity
  8
AM_0
100
AcDbSpline
210
0.0
220
0.0
230
1.0
 70
    28
 71
     2
 72
     6
 73
     3
 74
     0
 42
0.0000000001
 43
0.0000000001
 40
0.0
 40
0.0
 40
0.0
 40
4.4966116707674
 40
4.4966116707674
 40
4.4966116707674
 10
248.9999999999999
 20
-60.00343978120615
 30
0.0
 41
1.0
 10
249.9999999999999
 20
-60.00343978120624
 30
0.0
 41
1.027402333828208
 10
249.9999999999999
 20
-60.00343978120615
 30
0.0
 41
1.0
  0
TEXT
  5
18EEB
330
1F
100
AcDbEntity
  8
AM_0
100
AcDbText
 10
19.8100719388234
 20
-117.2574633899495
 30
0.0
 40
5.0
  1
XBPC-320R22
 41
0.8773874757958455
100
AcDbText
  0
LINE
  5
19387
330
1F
100
AcDbEntity
  8
AM_0
100
AcDbLine
 10
7.715026151380926
 20
-78.75343978120607
 30
0.0
 11
17.99999999999989
 21
-78.75343978120607
 31
0.0
  0
ELLIPSE
  5
19388
330
1F
100
AcDbEntity
  8
AM_0
100
AcDbEllipse
 10
12.5551385233947
 20
-55.51438434649477
 30
0.0
 11
-4.018366561678653
 21
-14.56646293238723
 31
0.0
210
0.0
220
0.0
230
0.9999999999999998
 40
0.133286958380099
 41
0.4934443886146522
 42
0.6090649833788235
  0
LINE
  5
19389
330
1F
100
AcDbEntity
  8
AM_0
100
AcDbLine
 10
7.699475956000242
 20
-69.32056534067006
 30
0.0
 11
8.319672219378163
 21
-67.28691823703143
 31
0.0
  0
LINE
  5
1938A
330
1F
100
AcDbEntity
  8
AM_0
100
AcDbLine
 10
8.714435498593957
 20
-66.14657645304085
 30
0.0
 11
8.743573994937833
 21
-66.14903459454733
 31
0.0
  0
ELLIPSE
  5
1938B
330
1F
100
AcDbEntity
  8
AM_0
100
AcDbEllipse
 10
8.951083296896854
 20
-74.30410450505984
 30
0.0
 11
-0.628124009835313
 21
-9.037726342901074
 31
0.0
210
0.0
220
0.0
230
1.0
 40
0.1923656058568808
 41
3.600784945936675
 42
3.836882396465013
  0
ELLIPSE
  5
1938C
330
1F
100
AcDbEntity
  8
AM_0
100
AcDbEllipse
 10
9.679842116190002
 20
-65.97750736566228
 30
0.0
 11
-1.746061758913858
 21
0.1213516842419959
 31
0.0
210
0.0
220
0.0
230
1.0
 40
0.1586571435957688
 41
1.002709558386555
 42
1.015912225970269
  0
LINE
  5
1938D
330
1F
100
AcDbEntity
  8
AM_0
100
AcDbLine
 10
11.36515143296265
 20
-65.74930766900174
 30
0.0
 11
11.36593998361377
 21
-65.7402979068943
 31
0.0
  0
ELLIPSE
  5
1938E
330
1F
100
AcDbEntity
  8
AM_0
100
AcDbEllipse
 10
-2.042851493251874
 20
-53.35244075909615
 30
0.0
 11
14.93955448722779
 21
-7.811259840306694
 31
0.0
210
0.0
220
0.0
230
1.0
 40
0.8754861071925267
 41
5.314717827477529
 42
5.683265657135849
  0
ELLIPSE
  5
1938F
330
1F
100
AcDbEntity
  8
AM_0
100
AcDbEllipse
 10
-0.7747441337062355
 20
-53.5402458316422
 30
0.0
 11
-1.143352922855392
 21
15.32413881250917
 31
0.0
210
0.0
220
0.0
230
1.0
 40
0.1513252968988054
 41
3.331685193702666
 42
3.572041756657945
  0
LINE
  5
19390
330
1F
100
AcDbEntity
  8
AM_0
100
AcDbLine
 10
11.37040360511446
 20
-65.73865273237747
 30
0.0
 11
10.37008630626292
 21
-67.76796881638565
 31
0.0
  0
LINE
  5
19391
330
1F
100
AcDbEntity
  8
AM_0
100
AcDbLine
 10
11.36593998361423
 20
-65.7402979068943
 30
0.0
 11
11.37040360511446
 21
-65.73865273237747
 31
0.0
  0
ELLIPSE
  5
19392
330
1F
100
AcDbEntity
  8
AM_0
100
AcDbEllipse
 10
9.656883876615552
 20
-66.23982187480389
 30
0.0
 11
1.80894893019861
 21
0.7881367954428461
 31
0.0
210
0.0
220
0.0
230
1.0
 40
0.255471726602462
 41
5.821191971600304
 42
8.2811464923995
  0
LINE
  5
19393
330
1F
100
AcDbEntity
  8
AM_0
100
AcDbLine
 10
8.714435498593957
 20
-66.14657645304085
 30
0.0
 11
8.724196196428011
 21
-66.14573104174447
 31
0.0
  0
LINE
  5
19394
330
1F
100
AcDbEntity
  8
AM_0
100
AcDbLine
 10
6.427034219570942
 20
-67.18400786259123
 30
0.0
 11
8.714435498593957
 21
-66.14657645304085
 31
0.0
  0
LINE
  5
19395
330
1F
100
AcDbEntity
  8
AM_0
100
AcDbLine
 10
5.128592932258584
 20
-65.2661868901033
 30
0.0
 11
2.763826761995688
 21
-66.64149153923542
 31
0.0
  0
ELLIPSE
  5
19396
330
1F
100
AcDbEntity
  8
AM_0
100
AcDbEllipse
 10
-3.066500643172958
 20
-53.20083963367448
 30
0.0
 11
0.002355519114203283
 21
15.04097976376855
 31
0.0
210
0.0
220
0.0
230
1.0
 40
0.8636660364418322
 41
3.479025720384224
 42
3.607216987087264
  0
LINE
  5
19399
330
1F
100
AcDbEntity
  8
AM_0
100
AcDbLine
 10
21.90935285125534
 20
-60.00343978120607
 30
0.0
 11
25.58382623635339
 21
-60.00343978120607
 31
0.0
  0
LINE
  5
1939B
330
1F
100
AcDbEntity
  8
AM_0
100
AcDbLine
 10
17.99999999999989
 20
-78.00343978120607
 30
0.0
 11
26.99999999999989
 21
-78.00343978120607
 31
0.0
  0
LINE
  5
1939C
330
1F
100
AcDbEntity
  8
AM_0
100
AcDbLine
 10
17.99999999999989
 20
-78.00343978120607
 30
0.0
 11
17.99999999999989
 21
-78.75343978120607
 31
0.0
  0
ELLIPSE
  5
1939E
330
1F
100
AcDbEntity
  8
AM_0
100
AcDbEllipse
 10
23.03826908256019
 20
-57.50343978120607
 30
0.0
 11
20.99168899789896
 21
7.713186467264181
 31
0.0
210
0.0
220
0.0
230
1.0
 40
0.1011310620463616
 41
3.654323067970775
 42
4.431076013688372
  0
ELLIPSE
  5
1939F
330
1F
100
AcDbEntity
  8
AM_0
100
AcDbEllipse
 10
18.60324763252856
 20
-59.11415322254219
 30
0.0
 11
7.237368828661979
 21
2.890307692235228
 31
0.0
210
0.0
220
0.0
230
1.0
 40
0.2812759698325029
 41
4.512088715444852
 42
5.071727278179161
  0
SPLINE
  5
193A0
330
1F
100
AcDbEntity
  8
AM_0
100
AcDbSpline
210
0.0
220
0.0
230
1.0
 70
    28
 71
     2
 72
     6
 73
     3
 74
     0
 42
0.0000000001
 43
0.0000000001
 40
0.0
 40
0.0
 40
0.0
 40
0.658262919514985
 40
0.658262919514985
 40
0.658262919514985
 10
27.0
 20
-78.00343978120607
 30
0.0
 41
1.0
 10
27.11561372345739
 20
-78.00343978120613
 30
0.0
 41
1.000475593576248
 10
27.25
 20
-78.00343978120607
 30
0.0
 41
1.0
  0
LINE
  5
193A2
330
1F
100
AcDbEntity
  8
AM_0
100
AcDbLine
 10
35.61400337664259
 20
-60.00343978120607
 30
0.0
 11
249.0
 21
-60.00343978120618
 31
0.0
  0
LINE
  5
193A4
330
1F
100
AcDbEntity
  8
AM_0
100
AcDbLine
 10
27.25
 20
-78.00343978120607
 30
0.0
 11
249.0000000000001
 21
-78.00343978120613
 31
0.0
  0
LINE
  5
193AA
330
1F
100
AcDbEntity
  8
AM_0
100
AcDbLine
 10
25.58382623635339
 20
-60.00343978120607
 30
0.0
 11
29.95999487594054
 21
-60.00343978120607
 31
0.0
  0
LINE
  5
193AC
330
1F
100
AcDbEntity
  8
AM_0
100
AcDbLine
 10
29.95999487594054
 20
-60.00343978120607
 30
0.0
 11
35.61400337664259
 21
-60.00343978120607
 31
0.0
  0
LINE
  5
193AE
330
1F
100
AcDbEntity
  8
AM_0
100
AcDbLine
 10
68.28371734403754
 20
21.00000000000298
 30
0.0
 11
87.24999999999989
 21
21.00000000000297
 31
0.0
  0
LINE
  5
193B1
330
1F
100
AcDbEntity
  8
AM_0
100
AcDbLine
 10
9.45880668838231
 20
20.75000000000298
 30
0.0
 11
21.61395021454473
 21
20.75000000000298
 31
0.0
  0
LINE
  5
193B4
330
1F
100
AcDbEntity
  8
AM_0
100
AcDbLine
 10
0.0015268259846835
 20
0.4335074907999399
 30
0.0
 11
0.8026490546365039
 21
9.590376465194396
 31
0.0
  0
LINE
  5
193B5
330
1F
100
AcDbEntity
  8
AM_0
100
AcDbLine
 10
10.35985604876714
 20
9.984514274889733
 30
0.0
 11
9.558733820115322
 21
0.8276453004952487
 31
0.0
  0
LINE
  5
193B8
330
1F
100
AcDbEntity
  8
AM_0
100
AcDbLine
 10
9.558733820115322
 20
0.8276453004952771
 30
0.0
 11
0.4330885237694702
 21
0.001618211520821
 31
0.0
  0
ELLIPSE
  5
193B9
330
1F
100
AcDbEntity
  8
AM_0
100
AcDbEllipse
 10
0.398478577415176
 20
0.399758141338225
 30
0.0
 11
0.1482449798364218
 21
0.3715150413553925
 31
0.0
210
0.0
220
0.0
230
1.0
 40
0.9955894868901623
 41
1.864420528800757
 42
3.609749780795129
  0
LINE
  5
193BA
330
1F
100
AcDbEntity
  8
AM_0
100
AcDbLine
 10
0.8026490546365039
 20
9.590376465194396
 30
0.0
 11
9.928294350982355
 21
10.41640355416885
 31
0.0
  0
ELLIPSE
  5
193BB
330
1F
100
AcDbEntity
  8
AM_0
100
AcDbEllipse
 10
9.96290429733665
 20
10.01826362435148
 30
0.0
 11
0.1482449798364218
 21
0.3715150413553925
 31
0.0
210
0.0
220
0.0
230
1.0
 40
0.9955894868901623
 41
5.006013182390555
 42
6.751342434384924
  0
ELLIPSE
  5
193BF
330
1F
100
AcDbEntity
  8
AM_0
100
AcDbEllipse
 10
12.5551385233947
 20
-13.57803083242007
 30
0.0
 11
1.565405567876622
 21
26.48951993002006
 31
0.0
210
0.0
220
0.0
230
1.0
 40
0.1577705860288545
 41
0.8700340543555944
 42
0.985654649119766
  0
LINE
  5
193C0
330
1F
100
AcDbEntity
  8
AM_0
100
AcDbLine
 10
10.20153050434192
 20
8.174845021247023
 30
0.0
 11
10.3272897090369
 21
8.301315301357874
 31
0.0
  0
LINE
  5
193C1
330
1F
100
AcDbEntity
  8
AM_0
100
AcDbLine
 10
10.78438878350005
 20
8.118919878470507
 30
0.0
 11
10.1641925201219
 21
7.748069908731367
 31
0.0
  0
LINE
  5
193C2
330
1F
100
AcDbEntity
  8
AM_0
100
AcDbLine
 10
0.8026490546365039
 20
9.715376465197409
 30
0.0
 11
0.7861745519712713
 21
9.741298403774835
 31
0.0
  0
LINE
  5
193C3
330
1F
100
AcDbEntity
  8
AM_0
100
AcDbLine
 10
7.699475956000356
 20
10.21465734216159
 30
0.0
 11
8.319672219378163
 21
10.58550731190056
 31
0.0
  0
ELLIPSE
  5
193C4
330
1F
100
AcDbEntity
  8
AM_0
100
AcDbEllipse
 10
9.094931426976132
 20
9.534609018072871
 30
0.0
 11
0.6485717867843527
 21
1.625378305929859
 31
0.0
210
0.0
220
0.0
230
1.0
 40
0.9955894868901621
 41
4.307881481592876
 42
6.09058606987196
  0
ELLIPSE
  5
193C5
330
1F
100
AcDbEntity
  8
AM_0
100
AcDbEllipse
 10
8.951083296896854
 20
9.592008479115663
 30
0.0
 11
1.75195256066684
 21
1.014818526671823
 31
0.0
210
0.0
220
0.0
230
1.0
 40
0.5810924777866293
 41
1.370705582014103
 42
1.594701161443308
  0
ELLIPSE
  5
193C6
330
1F
100
AcDbEntity
  8
AM_0
100
AcDbEllipse
 10
8.951083296896968
 20
9.592008479115663
 30
0.0
 11
2.486071091971802
 21
-0.6611131860064906
 31
0.0
210
0.0
220
0.0
230
1.0
 40
0.6745374375929023
 41
5.702142191255372
 42
6.160885541101335
  0
LINE
  5
193C7
330
1F
100
AcDbEntity
  8
AM_0
100
AcDbLine
 10
11.36418199483251
 20
8.856253876182876
 30
0.0
 11
11.36593998361377
 21
8.855552389076223
 31
0.0
  0
ELLIPSE
  5
193C8
330
1F
100
AcDbEntity
  8
AM_0
100
AcDbEllipse
 10
-2.042851493251874
 20
11.74293803450274
 30
0.0
 11
16.42912176229035
 21
1.474288124636233
 31
0.0
210
0.0
220
0.0
230
0.9999999999999998
 40
0.1379672388691744
 41
4.873053902362909
 42
5.24160173202123
  0
ELLIPSE
  5
193C9
330
1F
100
AcDbEntity
  8
AM_0
100
AcDbEllipse
 10
-0.7747441337062355
 20
9.543340217655555
 30
0.0
 11
2.079910448255326
 21
26.3169630845739
 31
0.0
210
0.0
220
0.0
230
1.0
 40
0.0583575805220013
 41
4.724523193106066
 42
4.964879756061345
  0
LINE
  5
193CA
330
1F
100
AcDbEntity
  8
AM_0
100
AcDbLine
 10
11.37040360511446
 20
8.73011701463858
 30
0.0
 11
10.37008630626292
 21
3.56620087082004
 31
0.0
  0
LINE
  5
193CB
330
1F
100
AcDbEntity
  8
AM_0
100
AcDbLine
 10
11.36593998361423
 20
8.855552389077417
 30
0.0
 11
11.37040360511446
 21
8.855117014641593
 31
0.0
  0
ELLIPSE
  5
193CC
330
1F
100
AcDbEntity
  8
AM_0
100
AcDbEllipse
 10
9.656883876615552
 20
9.310374141170144
 30
0.0
 11
1.812561262310734
 21
0.1743442331897177
 31
0.0
210
0.0
220
0.0
230
0.9999999999999999
 40
0.9504513534772188
 41
5.84087426049974
 42
8.300828781298936
  0
LINE
  5
193CD
330
1F
100
AcDbEntity
  8
AM_0
100
AcDbLine
 10
8.714435498593957
 20
10.92330881931733
 30
0.0
 11
8.724196196428011
 21
10.91363700129941
 31
0.0
  0
LINE
  5
193CE
330
1F
100
AcDbEntity
  8
AM_0
100
AcDbLine
 10
6.427034219570942
 20
10.53062869711479
 30
0.0
 11
8.714435498593957
 21
10.92330881931733
 31
0.0
  0
LINE
  5
193CF
330
1F
100
AcDbEntity
  8
AM_0
100
AcDbLine
 10
5.128592932258584
 20
18.24994992225632
 30
0.0
 11
2.763826761995688
 21
16.88465153728455
 31
0.0
  0
LINE
  5
193D0
330
1F
100
AcDbEntity
  8
AM_0
100
AcDbLine
 10
2.763826761995688
 20
16.88465153728455
 30
0.0
 11
1.231951036029841
 21
16.00022267453309
 31
0.0
  0
LINE
  5
193D2
330
1F
100
AcDbEntity
  8
AM_0
100
AcDbLine
 10
27.25
 20
15.35889894354366
 30
0.0
 11
27.25
 21
19.47823154371358
 31
0.0
  0
LINE
  5
193D4
330
1F
100
AcDbEntity
  8
AM_0
100
AcDbLine
 10
64.95999487678853
 20
19.47823154371352
 30
0.0
 11
27.25
 21
19.47823154371352
 31
0.0
  0
SPLINE
  5
193D5
330
1F
100
AcDbEntity
  8
AM_0
100
AcDbSpline
210
0.0
220
0.0
230
1.0
 70
    12
 71
     2
 72
     6
 73
     3
 74
     0
 42
0.0000000001
 43
0.0000000001
 40
0.0
 40
0.0
 40
0.0
 40
0.3681495330393884
 40
0.3681495330393884
 40
0.3681495330393884
 10
27.25
 20
19.47823154371358
 30
0.0
 41
1.0
 10
27.12315103695389
 20
19.34347588151039
 30
0.0
 41
1.000093631466343
 10
27.0
 20
19.21208911086191
 30
0.0
 41
1.0
  0
SPLINE
  5
193D6
330
1F
100
AcDbEntity
  8
AM_0
100
AcDbSpline
210
0.0
220
0.0
230
1.0
 70
     8
 71
     3
 72
    38
 73
    34
 74
     0
 42
0.0000000001
 43
0.0000000001
 40
-11.42263456855357
 40
-11.42263456855357
 40
-11.42263456855357
 40
-11.42263456855357
 40
-10.70844645666127
 40
-10.70844645666127
 40
-9.994258344768971
 40
-9.994258344768971
 40
-9.280070232876671
 40
-9.280070232876671
 40
-8.565882120984371
 40
-8.565882120984371
 40
-7.85224091180746
 40
-7.85224091180746
 40
-7.13859970263055
 40
-7.13859970263055
 40
-6.424958493453641
 40
-6.424958493453641
 40
-5.711317284276728
 40
-5.711317284276728
 40
-4.997676075099815
 40
-4.997676075099815
 40
-4.284034865922902
 40
-4.284034865922902
 40
-3.570393656745988
 40
-3.570393656745988
 40
-2.856752447569079
 40
-2.856752447569079
 40
-2.142564335676809
 40
-2.142564335676809
 40
-1.428376223784539
 40
-1.428376223784539
 40
-0.7141881118922697
 40
-0.7141881118922697
 40
0.0
 40
0.0
 40
0.0
 40
0.0
 10
64.95999487678841
 20
20.78059287621551
 30
0.0
 10
65.19805758075256
 20
20.78059287621551
 30
0.0
 10
65.44340137205245
 20
20.78587793647264
 30
0.0
 10
65.92983505644531
 20
20.8066283681159
 30
0.0
 10
66.17093423170513
 20
20.82205652802537
 30
0.0
 10
66.63207745532225
 20
20.85849192730927
 30
0.0
 10
66.8525331008907
 20
20.87944963523736
 30
0.0
 10
67.25969570553866
 20
20.92022150207316
 30
0.0
 10
67.44640485732691
 20
20.93994192383269
 30
0.0
 10
67.77675921922878
 20
20.9720468702001
 30
0.0
 10
67.93208322808891
 20
20.98564768466795
 30
0.0
 10
68.20660951125046
 20
21.00091233953262
 30
0.0
 10
68.32583268819474
 20
21.0025001667199
 30
0.0
 10
68.51792404609375
 20
20.98857171706668
 30
0.0
 10
68.59094483967635
 20
20.97298928129091
 30
0.0
 10
68.68699420630287
 20
20.92340745490601
 30
0.0
 10
68.70999487678853
 20
20.88938502861892
 30
0.0
 10
68.70999487678853
 20
20.80677003163119
 30
0.0
 10
68.68699420630287
 20
20.75560759002089
 30
0.0
 10
68.59094483967635
 20
20.63624245512092
 30
0.0
 10
68.51792404609364
 20
20.56806032452225
 30
0.0
 10
68.32583268819462
 20
20.42177051433808
 30
0.0
 10
68.20660951125035
 20
20.34358698527416
 30
0.0
 10
67.93208322808891
 20
20.18690503206611
 30
0.0
 10
67.77675921922867
 20
20.10848180062934
 30
0.0
 10
67.4464048573268
 20
19.9616459884048
 30
0.0
 10
67.25969570553855
 20
19.8879766226257
 30
0.0
 10
66.85253310089058
 20
19.75188163620734
 30
0.0
 10
66.63207745532213
 20
19.68954059827681
 30
0.0
 10
66.17093423170502
 20
19.58641796547076
 30
0.0
 10
65.9298350564452
 20
19.54563303184523
 30
0.0
 10
65.44340137205245
 20
19.4915160120928
 30
0.0
 10
65.19805758075256
 20
19.47823154371355
 30
0.0
 10
64.95999487678841
 20
19.47823154371355
 30
0.0
  0
SPLINE
  5
193D7
330
1F
100
AcDbEntity
  8
AM_0
100
AcDbSpline
210
0.0
220
0.0
230
1.0
 70
    12
 71
     2
 72
     6
 73
     3
 74
     0
 42
0.0000000001
 43
0.0000000001
 40
0.0
 40
0.0
 40
0.0
 40
0.3681495330393896
 40
0.3681495330393896
 40
0.3681495330393896
 10
27.0
 20
20.51445044336384
 30
0.0
 41
1.0
 10
27.12315103695429
 20
20.64583721401331
 30
0.0
 41
1.000093631560822
 10
27.25
 20
20.78059287621548
 30
0.0
 41
1.0
  0
LINE
  5
193D8
330
1F
100
AcDbEntity
  8
AM_0
100
AcDbLine
 10
27.25
 20
20.78059287621551
 30
0.0
 11
64.95999487678853
 21
20.78059287621551
 31
0.0
  0
SPLINE
  5
193DA
330
1F
100
AcDbEntity
  8
AM_0
100
AcDbSpline
210
0.0
220
0.0
230
1.0
 70
    12
 71
     2
 72
     6
 73
     3
 74
     0
 42
0.0000000001
 43
0.0000000001
 40
0.0
 40
0.0
 40
0.0
 40
0.6582629195149845
 40
0.6582629195149845
 40
0.6582629195149845
 10
27.25
 20
15.35889894354366
 30
0.0
 41
1.0
 10
27.11561372345705
 20
15.05059568099151
 30
0.0
 41
1.000475593576181
 10
27.0
 20
14.75000000000298
 30
0.0
 41
1.0
  0
LINE
  5
193DB
330
1F
100
AcDbEntity
  8
AM_0
100
AcDbLine
 10
87.24999999999989
 20
15.35889894354365
 30
0.0
 11
27.25
 21
15.35889894354366
 31
0.0
  0
LINE
  5
193DE
330
1F
100
AcDbEntity
  8
AM_0
100
AcDbLine
 10
24.95999487678853
 20
20.51445044336384
 30
0.0
 11
26.99999999999989
 21
20.51445044336384
 31
0.0
  0
SPLINE
  5
193DF
330
1F
100
AcDbEntity
  8
AM_0
100
AcDbSpline
210
0.0
220
0.0
230
1.0
 70
     8
 71
     3
 72
    38
 73
    34
 74
     0
 42
0.0000000001
 43
0.0000000001
 40
0.0
 40
0.0
 40
0.0
 40
0.0
 40
0.7146481072901194
 40
0.7146481072901194
 40
1.429296214580239
 40
1.429296214580239
 40
2.143944321870358
 40
2.143944321870358
 40
2.858592429160478
 40
2.858592429160478
 40
3.572630331560095
 40
3.572630331560095
 40
4.286668233959712
 40
4.286668233959712
 40
5.000706136359328
 40
5.000706136359328
 40
5.714744038758946
 40
5.714744038758946
 40
6.428781941158564
 40
6.428781941158564
 40
7.142819843558183
 40
7.142819843558183
 40
7.856857745957801
 40
7.856857745957801
 40
8.57089564835742
 40
8.57089564835742
 40
9.285543755647524
 40
9.285543755647524
 40
10.00019186293763
 40
10.00019186293763
 40
10.71483997022773
 40
10.71483997022773
 40
11.42948807751784
 40
11.42948807751784
 40
11.42948807751784
 40
11.42948807751784
 10
24.95999487678853
 20
19.21208911086191
 30
0.0
 10
24.72177884102507
 20
19.21208911086191
 30
0.0
 10
24.47633017123224
 20
19.22567055750304
 30
0.0
 10
23.98978367875759
 20
19.28094135082304
 30
0.0
 10
23.74867614728669
 20
19.3225804841197
 30
0.0
 10
23.28758604841426
 20
19.42776133418633
 30
0.0
 10
23.06718953621737
 20
19.49130490384059
 30
0.0
 10
22.66015923447048
 20
19.62989046533423
 30
0.0
 10
22.47352262393088
 20
19.70484572978052
 30
0.0
 10
22.14330730873496
 20
19.85409357648479
 30
0.0
 10
21.98803301355224
 20
19.93373897773037
 30
0.0
 10
21.71355166113835
 20
20.09269018400417
 30
0.0
 10
21.59432360602136
 20
20.17191956610196
 30
0.0
 10
21.4021907215182
 20
20.31995043359925
 30
0.0
 10
21.32913322132811
 20
20.38882892118008
 30
0.0
 10
21.23302116384105
 20
20.50913680588727
 30
0.0
 10
21.20999487678841
 20
20.56054513169309
 30
0.0
 10
21.20999487678841
 20
20.64320605205097
 30
0.0
 10
21.23302116384116
 20
20.67701656832887
 30
0.0
 10
21.32913322132811
 20
20.72569619617593
 30
0.0
 10
21.40219072151831
 20
20.74058890684975
 30
0.0
 10
21.59432360602136
 20
20.75276528112136
 30
0.0
 10
21.71355166113835
 20
20.75011467182131
 30
0.0
 10
21.98803301355224
 20
20.7325359464042
 30
0.0
 10
22.14330730873496
 20
20.71768530952016
 30
0.0
 10
22.47352262393088
 20
20.68312003825886
 30
0.0
 10
22.6601592344706
 20
20.66209713522557
 30
0.0
 10
23.06718953621737
 20
20.61881700777164
 30
0.0
 10
23.28758604841437
 20
20.59665590284496
 30
0.0
 10
23.74867614728669
 20
20.55817374991918
 30
0.0
 10
23.98978367875759
 20
20.54190372521987
 30
0.0
 10
24.47633017123224
 20
20.5200222725347
 30
0.0
 10
24.72177884102507
 20
20.51445044336384
 30
0.0
 10
24.95999487678853
 20
20.51445044336384
 30
0.0
  0
LINE
  5
193E0
330
1F
100
AcDbEntity
  8
AM_0
100
AcDbLine
 10
27.0
 20
19.21208911086191
 30
0.0
 11
24.95999487678853
 21
19.21208911086191
 31
0.0
  0
LINE
  5
193E1
330
1F
100
AcDbEntity
  8
AM_0
100
AcDbLine
 10
27.0
 20
14.75000000000298
 30
0.0
 11
27.0
 21
19.21208911086191
 31
0.0
  0
LINE
  5
193E2
330
1F
100
AcDbEntity
  8
AM_0
100
AcDbLine
 10
27.0
 20
14.75000000000298
 30
0.0
 11
23.27260914620752
 21
14.75000000000298
 31
0.0
  0
LINE
  5
193E3
330
1F
100
AcDbEntity
  8
AM_0
100
AcDbLine
 10
8.332918984482831
 20
20.0999684310793
 30
0.0
 11
9.45880668838231
 21
20.75000000000298
 31
0.0
  0
ELLIPSE
  5
193E4
330
1F
100
AcDbEntity
  8
AM_0
100
AcDbEllipse
 10
10.59278756874699
 20
11.00000000000298
 30
0.0
 11
-0.8464768896826931
 21
-9.746941929069033
 31
0.0
210
0.0
220
0.0
230
1.0
 40
0.2884641988337627
 41
6.226224188256983
 42
6.349944844887848
  0
SPLINE
  5
193E5
330
1F
100
AcDbEntity
  8
AM_0
100
AcDbSpline
210
0.0
220
0.0
230
1.0
 70
     8
 71
     3
 72
    10
 73
     6
 74
     0
 42
0.0000000001
 43
0.0000000001
 40
31.50175700208708
 40
31.50175700208708
 40
31.50175700208708
 40
31.50175700208708
 40
33.28613524518073
 40
33.28613524518073
 40
33.30629751129047
 40
33.30629751129047
 40
33.30629751129047
 40
33.30629751129047
 10
11.74592371196002
 20
1.304739715836803
 30
0.0
 10
11.16775777369935
 20
1.27931527172845
 30
0.0
 10
10.56799136073528
 20
1.266087271077367
 30
0.0
 10
9.949584439445289
 20
1.258645143916283
 30
0.0
 10
9.94267342768228
 20
1.258562760528065
 30
0.0
 10
9.935760928832906
 20
1.258481142544582
 30
0.0
  0
ELLIPSE
  5
193E7
330
1F
100
AcDbEntity
  8
AM_0
100
AcDbEllipse
 10
23.03826908256019
 20
20.18379513925473
 30
0.0
 11
20.98288050369628
 21
-2.764398393380622
 31
0.0
210
0.0
220
0.0
230
1.0
 40
0.3577775371536093
 41
3.738566267259929
 42
4.515319212977527
  0
LINE
  5
193E8
330
1F
100
AcDbEntity
  8
AM_0
100
AcDbLine
 10
5.128592932258584
 20
18.24994992225635
 30
0.0
 11
8.332918984482831
 21
20.0999684310793
 31
0.0
  0
LINE
  5
193E9
330
1F
100
AcDbEntity
  8
AM_0
100
AcDbLine
 10
8.332918984482831
 20
20.09996843107621
 30
0.0
 11
17.95999487594054
 21
20.09996843107621
 31
0.0
  0
ARC
  5
193EA
330
1F
100
AcDbEntity
  8
AM_0
100
AcDbCircle
 10
17.95999487594054
 20
20.18379513925473
 30
0.0
 40
7.599342076785332
100
AcDbArc
 50
301.3119528442117
 51
314.3539369460494
  0
ELLIPSE
  5
193EB
330
1F
100
AcDbEntity
  8
AM_0
100
AcDbEllipse
 10
18.60324763252856
 20
20.69216703379547
 30
0.0
 11
-4.832154679422713
 21
6.114218451447035
 31
0.0
210
0.0
220
0.0
230
1.0
 40
0.891188105005937
 41
2.327673803169823
 42
2.887312365904131
  0
SPLINE
  5
193EC
330
1F
100
AcDbEntity
  8
AM_0
100
AcDbSpline
210
0.0
220
0.0
230
1.0
 70
     8
 71
     3
 72
    32
 73
    28
 74
     0
 42
0.0000000001
 43
0.0000000001
 40
0.9409867562648251
 40
0.9409867562648251
 40
0.9409867562648251
 40
0.9409867562648251
 40
2.506845436772565
 40
2.506845436772565
 40
4.072704117280305
 40
4.072704117280305
 40
5.638562797788044
 40
5.638562797788044
 40
7.204421478295783
 40
7.204421478295783
 40
7.817816225332961
 40
7.817816225332961
 40
8.431210972370138
 40
8.431210972370138
 40
9.044605719407317
 40
9.044605719407317
 40
9.658000466444495
 40
9.658000466444495
 40
10.27139521348167
 40
10.27139521348167
 40
10.88478996051885
 40
10.88478996051885
 40
11.49818470755603
 40
11.49818470755603
 40
12.11157945459321
 40
12.11157945459321
 40
12.46914620913361
 40
12.46914620913361
 40
12.46914620913361
 40
12.46914620913361
 10
17.95999487594054
 20
20.09996843107621
 30
0.0
 10
18.4819477694432
 20
20.09996843107621
 30
0.0
 10
19.01939499768548
 20
20.08044050668372
 30
0.0
 10
20.07608770961235
 20
19.9930861561933
 30
0.0
 10
20.59535523271541
 20
19.92522147964516
 30
0.0
 10
21.57028345465449
 20
19.72639334052965
 30
0.0
 10
22.02658395341246
 20
19.59518235993716
 30
0.0
 10
22.83770799344063
 20
19.25110044084056
 30
0.0
 10
23.19277592716981
 20
19.03826244083277
 30
0.0
 10
23.59187124632081
 20
18.67202706968888
 30
0.0
 10
23.69834921158963
 20
18.55666179104881
 30
0.0
 10
23.88688612172268
 20
18.30396523329185
 30
0.0
 10
23.96892942744057
 20
18.16659829528498
 30
0.0
 10
24.10077070574607
 20
17.87547807979891
 30
0.0
 10
24.15063396945789
 20
17.72152959651413
 30
0.0
 10
24.21585981368867
 20
17.4057925075609
 30
0.0
 10
24.23121761088726
 20
17.24399836824566
 30
0.0
 10
24.23121761088726
 20
16.92445829192582
 30
0.0
 10
24.21585981368867
 20
16.75446152542534
 30
0.0
 10
24.15063396945789
 20
16.40430159745438
 30
0.0
 10
24.10077070574607
 20
16.2241420813393
 30
0.0
 10
23.96892942744057
 20
15.86510187158652
 30
0.0
 10
23.88688612172268
 20
15.68602073705762
 30
0.0
 10
23.69834921158963
 20
15.34006966539326
 30
0.0
 10
23.59187124632081
 20
15.1732117203529
 30
0.0
 10
23.41405521746538
 20
14.92680565606045
 30
0.0
 10
23.34500580983604
 20
14.83756928462506
 30
0.0
 10
23.27260914620752
 20
14.75000000000298
 30
0.0
  0
LINE
  5
193F8
330
1F
100
AcDbEntity
  8
AM_0
100
AcDbLine
 10
7.715026151380926
 20
-78.75343978120607
 30
0.0
 11
2.139473901950055
 21
-79.24123739592768
 31
0.0
  0
LINE
  5
193F9
330
1F
100
AcDbEntity
  8
AM_0
100
AcDbLine
 10
2.0
 20
-79.25039054716565
 30
0.0
 11
2.0
 21
-72.34115457775322
 31
0.0
  0
ELLIPSE
  5
193FA
330
1F
100
AcDbEntity
  8
AM_0
100
AcDbEllipse
 10
0.9458397300173829
 20
-69.00343978120604
 30
0.0
 11
1.061852273126573
 21
-10.24956099336365
 31
0.0
210
0.0
220
0.0
230
1.0
 40
0.0893395420352347
 41
5.020881046883464
 42
6.249537351702183
  0
SPLINE
  5
193FB
330
1F
100
AcDbEntity
  8
AM_0
100
AcDbSpline
210
0.0
220
0.0
230
1.0
 70
     8
 71
     3
 72
     8
 73
     4
 74
     0
 42
0.0000000001
 43
0.0000000001
 40
2.016557736495496
 40
2.016557736495496
 40
2.016557736495496
 40
2.016557736495496
 40
2.29048685793753
 40
2.29048685793753
 40
2.29048685793753
 40
2.29048685793753
 10
2.0
 20
-79.25039054716565
 30
0.0
 10
2.046397673181446
 20
-79.24836030798873
 30
0.0
 10
2.092895978087995
 20
-79.2453122400287
 30
0.0
 10
2.139473901950055
 20
-79.24123739592768
 30
0.0
  0
LINE
  5
193FC
330
1F
100
AcDbEntity
  8
AM_0
100
AcDbLine
 10
1.976285634084434
 20
-79.25039054716565
 30
0.0
 11
2.0
 21
-79.25039054716565
 31
0.0
  0
ELLIPSE
  5
193FD
330
1F
100
AcDbEntity
  8
AM_0
100
AcDbEllipse
 10
5.180691437375913
 20
-69.27493231120606
 30
0.0
 11
-1.992383661895868
 21
0.1743770162905978
 31
0.0
210
0.0
220
0.0
230
1.0
 40
0.0347696377795399
 41
1.192647092222285
 42
7.475832399401869
  0
LINE
  5
193FE
330
1F
100
AcDbEntity
  8
AM_0
100
AcDbLine
 10
9.558733820115322
 20
-69.81111984890841
 30
0.0
 11
0.4330885237694702
 21
-69.04127478856204
 31
0.0
  0
LINE
  5
193FF
330
1F
100
AcDbEntity
  8
AM_0
100
AcDbLine
 10
0.3605022132622935
 20
-72.20284553421915
 30
0.0
 11
8.713411743219581
 21
-72.90750212915965
 31
0.0
  0
LINE
  5
19400
330
1F
100
AcDbEntity
  8
AM_0
100
AcDbLine
 10
0.8026490546365039
 20
-68.73874477350371
 30
0.0
 11
9.677370942122707
 21
-69.48742178046176
 31
0.0
  0
SPLINE
  5
19401
330
1F
100
AcDbEntity
  8
AM_0
100
AcDbSpline
210
0.0
220
0.0
230
1.0
 70
    11
 71
     3
 72
    64
 73
    60
 74
     0
 42
0.0000000001
 43
0.0000000001
 40
0.0
 40
0.0
 40
0.0
 40
0.0
 40
0.3855713235602499
 40
0.3855713235602499
 40
0.7711426471204997
 40
0.7711426471204997
 40
1.15671397068075
 40
1.15671397068075
 40
1.542285294241
 40
1.542285294241
 40
1.966617633072621
 40
1.966617633072621
 40
2.390949971904242
 40
2.390949971904242
 40
2.815282310735864
 40
2.815282310735864
 40
3.239614649567485
 40
3.239614649567485
 40
3.729701258605865
 40
3.729701258605865
 40
4.219787867644245
 40
4.219787867644245
 40
5.199961085721006
 40
5.199961085721006
 40
6.092350479349845
 40
6.092350479349845
 40
6.538545176164265
 40
6.538545176164265
 40
6.984739872978683
 40
6.984739872978683
 40
7.351398156663647
 40
7.351398156663647
 40
7.718056440348612
 40
7.718056440348612
 40
8.084714724033576
 40
8.084714724033576
 40
8.451373007718541
 40
8.451373007718541
 40
9.428630154083404
 40
9.428630154083404
 40
9.917258727265836
 40
9.917258727265836
 40
10.40588730044827
 40
10.40588730044827
 40
10.8502184526286
 40
10.8502184526286
 40
11.29454960480894
 40
11.29454960480894
 40
11.73888075698927
 40
11.73888075698927
 40
12.18321190916961
 40
12.18321190916961
 40
12.56141927813827
 40
12.56141927813827
 40
12.93962664710693
 40
12.93962664710693
 40
13.31783401607559
 40
13.31783401607559
 40
13.69604138504425
 40
13.69604138504425
 40
13.69604138504425
 40
13.69604138504425
 10
4.304152511143116
 20
-78.47897393741856
 30
0.0
 10
4.176117808387517
 20
-78.48953689934199
 30
0.0
 10
4.044003608597336
 20
-78.49607885564849
 30
0.0
 10
3.782894582398967
 20
-78.49876681515259
 30
0.0
 10
3.653898068723265
 20
-78.49491018627693
 30
0.0
 10
3.409175117954078
 20
-78.47552062524859
 30
0.0
 10
3.293181618170252
 20
-78.459941185099
 30
0.0
 10
3.082118856760758
 20
-78.41705869058141
 30
0.0
 10
2.987057839249474
 20
-78.38971748316514
 30
0.0
 10
2.814372877362757
 20
-78.32235801408784
 30
0.0
 10
2.734265781641852
 20
-78.27936407778573
 30
0.0
 10
2.601581927058419
 20
-78.17850116176957
 30
0.0
 10
2.54898453171279
 20
-78.12060930285882
 30
0.0
 10
2.473085430808624
 20
-77.99291402282036
 30
0.0
 10
2.449688017934932
 20
-77.92298565565902
 30
0.0
 10
2.429346991584112
 20
-77.77628233963658
 30
0.0
 10
2.432378371252298
 20
-77.69950980845452
 30
0.0
 10
2.460048607763042
 20
-77.5347350292928
 30
0.0
 10
2.489135172180681
 20
-77.43959790100796
 30
0.0
 10
2.574778475862331
 20
-77.24102421317416
 30
0.0
 10
2.631298469542912
 20
-77.13759009542643
 30
0.0
 10
2.835992594117442
 20
-76.82476364952738
 30
0.0
 10
3.020325665588871
 20
-76.61248091122887
 30
0.0
 10
3.412251146024573
 20
-76.25715663361676
 30
0.0
 10
3.645769369426262
 20
-76.08266683053087
 30
0.0
 10
4.039906235003173
 20
-75.87980804253043
 30
0.0
 10
4.178557222464406
 20
-75.8219838336628
 30
0.0
 10
4.464458983355144
 20
-75.73635621781342
 30
0.0
 10
4.611725793363007
 20
-75.70861225311249
 30
0.0
 10
4.881645736530231
 20
-75.69281200806186
 30
0.0
 10
5.00464671446457
 20
-75.69874626073347
 30
0.0
 10
5.242735348351971
 20
-75.73750491238364
 30
0.0
 10
5.357838247119162
 20
-75.77026706986199
 30
0.0
 10
5.572148206573729
 20
-75.85643158952767
 30
0.0
 10
5.671740264783921
 20
-75.9098671864533
 30
0.0
 10
5.851207334326887
 20
-76.0281294097466
 30
0.0
 10
5.931111816513635
 20
-76.09290776305069
 30
0.0
 10
6.184489880248407
 20
-76.33176738344322
 30
0.0
 10
6.32373004338433
 20
-76.53770300950494
 30
0.0
 10
6.446357177843083
 20
-76.84415913319457
 30
0.0
 10
6.473045872998227
 20
-76.94606801731722
 30
0.0
 10
6.497766082362546
 20
-77.14245777269609
 30
0.0
 10
6.495752098565731
 20
-77.23694516570289
 30
0.0
 10
6.467520819767515
 20
-77.40506092169368
 30
0.0
 10
6.442497891017069
 20
-77.48577041296097
 30
0.0
 10
6.365817455667752
 20
-77.64213915017582
 30
0.0
 10
6.314147313537205
 20
-77.71780574974964
 30
0.0
 10
6.184646257195595
 20
-77.85972927620792
 30
0.0
 10
6.106713640685939
 20
-77.92609966076954
 30
0.0
 10
5.928940876354432
 20
-78.04710881827806
 30
0.0
 10
5.829086929858022
 20
-78.10177519909918
 30
0.0
 10
5.631868925250274
 20
-78.19128371422234
 30
0.0
 10
5.530352110190279
 20
-78.23055163494847
 30
0.0
 10
5.310437145585524
 20
-78.30219064043764
 30
0.0
 10
5.192042663276425
 20
-78.33458759040154
 30
0.0
 10
4.945563369653655
 20
-78.39089862776008
 30
0.0
 10
4.817293871551556
 20
-78.4148742011095
 30
0.0
 10
4.559383812583747
 20
-78.45372976580909
 30
0.0
 10
4.429741903058357
 20
-78.46861271552923
 30
0.0
 10
4.304152511143116
 20
-78.47897393741856
 30
0.0
  0
LINE
  5
19402
330
1F
100
AcDbEntity
  8
AM_0
100
AcDbLine
 10
0.2191686662180246
 20
-71.07308671323266
 30
0.0
 11
0.0000027565292839
 21
-68.98956024602045
 31
0.0
  0
LINE
  5
19403
330
1F
100
AcDbEntity
  8
AM_0
100
AcDbLine
 10
0.219168666213136
 20
-71.07308671325332
 30
0.0
 11
0.3605022132622935
 21
-72.20284553421915
 31
0.0
  0
LINE
  5
19404
330
1F
100
AcDbEntity
  8
AM_0
100
AcDbLine
 10
0.0015268259846835
 20
-68.9884205711122
 30
0.0
 11
0.8026490546365039
 21
-68.73874477350371
 31
0.0
  0
ELLIPSE
  5
19405
330
1F
100
AcDbEntity
  8
AM_0
100
AcDbEllipse
 10
0.398478577415176
 20
-69.02434115639586
 30
0.0
 11
-0.3984767323791738
 21
0.03487540325811957
 31
0.0
210
0.0
220
0.0
230
1.0
 40
0.0347696377795399
 41
6.19866027461282
 42
7.943989526607192
  0
LINE
  5
19406
330
1F
100
AcDbEntity
  8
AM_0
100
AcDbLine
 10
0.8026490546365039
 20
-68.73874477350371
 30
0.0
 11
0.7861745519712713
 21
-68.55565540749355
 31
0.0
  0
LINE
  5
19407
330
1F
100
AcDbEntity
  8
AM_0
100
AcDbLine
 10
7.715026151380926
 20
-78.75343978120607
 30
0.0
 11
7.715026151380926
 21
-72.82327770543525
 31
0.0
  0
LINE
  5
19408
330
1F
100
AcDbEntity
  8
AM_0
100
AcDbLine
 10
8.713411743219581
 20
-72.90750212915965
 30
0.0
 11
9.04976327296788
 21
-72.80267563269844
 31
0.0
  0
LINE
  5
19409
330
1F
100
AcDbEntity
  8
AM_0
100
AcDbLine
 10
9.558733820115322
 20
-69.81111984890841
 30
0.0
 11
8.713411743219581
 21
-72.90750212915965
 31
0.0
  0
ELLIPSE
  5
1940A
330
1F
100
AcDbEntity
  8
AM_0
100
AcDbEllipse
 10
10.59278756874699
 20
-69.00343978120607
 30
0.0
 11
2.847931487787613
 21
9.747762242720956
 31
0.0
210
0.0
220
0.0
230
1.0
 40
0.0733448014147842
 41
1.550508662003364
 42
1.844821895839758
  0
ELLIPSE
  5
1940B
330
1F
100
AcDbEntity
  8
AM_0
100
AcDbEllipse
 10
10.15699408025375
 20
-69.00343978120607
 30
0.0
 11
0.8886328316420948
 21
9.749712036566555
 31
0.0
210
0.0
220
0.0
230
1.0
 40
0.0843257894622373
 41
1.831082249848267
 42
1.991967387467885
  0
ELLIPSE
  5
1940C
330
1F
100
AcDbEntity
  8
AM_0
100
AcDbEllipse
 10
-32.15518080177606
 20
-69.00343978120604
 30
0.0
 11
111.4687201938242
 21
-9.744149362491307
 31
0.0
210
0.0
220
0.0
230
0.9999999999999999
 40
0.0030297076624706
 41
5.088407623402413
 42
5.091229722528601
  0
SPLINE
  5
1940D
330
1F
100
AcDbEntity
  8
AM_0
100
AcDbSpline
210
0.0
220
0.0
230
1.0
 70
     8
 71
     3
 72
    10
 73
     6
 74
     0
 42
0.0000000001
 43
0.0000000001
 40
31.50175700208708
 40
31.50175700208708
 40
31.50175700208708
 40
31.50175700208708
 40
33.28613524518073
 40
33.28613524518073
 40
33.30629751129047
 40
33.30629751129047
 40
33.30629751129047
 40
33.30629751129047
 10
11.74592371196002
 20
-67.97172857051318
 30
0.0
 10
11.16775777369935
 20
-68.2106487263239
 30
0.0
 10
10.56799136073528
 20
-68.41717404972248
 30
0.0
 10
9.949584439445289
 20
-68.5929408182716
 30
0.0
 10
9.94267342768228
 20
-68.59490050934865
 30
0.0
 10
9.935760928832906
 20
-68.59685603050225
 30
0.0
  0
LINE
  5
1940E
330
1F
100
AcDbEntity
  8
AM_0
100
AcDbLine
 10
9.587615748896383
 20
-69.80211857750818
 30
0.0
 11
9.558733820115322
 21
-69.81111984890841
 31
0.0
  0
LINE
  5
194A9
330
1F
100
AcDbEntity
  8
AM_7
  6
AM_ISO08W050x2
100
AcDbLine
 10
5.180691437375913
 20
10.55901088284483
 30
0.0
 11
5.180691437375913
 21
-0.1409891171551578
 31
0.0
1001
GENIUS_GENODEF_13
1002
{
1000
HIER
1070
     0
1002
}
1002
{
1000
MANEDIT
1070
     0
1002
}
1002
{
1000
NOSEL
1070
     0
1002
}
1002
{
1000
BEHIND
1070
     0
1002
}
1002
{
1000
REACTOR
1002
}
1001
GENIUS_GENOBJ-N-CEN_13
1002
{
1000
OWNER
1000
GEN
1002
}
  0
LINE
  5
194B3
330
1F
100
AcDbEntity
  8
AM_7
  6
AM_ISO08W050x2
100
AcDbLine
 10
10.53069143737594
 20
5.209010882844837
 30
0.0
 11
-0.16930856262411
 21
5.209010882844837
 31
0.0
1001
GENIUS_GENODEF_13
1002
{
1000
HIER
1070
     0
1002
}
1002
{
1000
MANEDIT
1070
     0
1002
}
1002
{
1000
NOSEL
1070
     0
1002
}
1002
{
1000
BEHIND
1070
     0
1002
}
1002
{
1000
REACTOR
1002
}
1001
GENIUS_GENOBJ-N-CEN_13
1002
{
1000
OWNER
1000
GEN
1002
}
  0
ARC
  5
194B4
330
1F
100
AcDbEntity
  8
AM_0
100
AcDbCircle
 10
4.196986288533822
 20
6.912838180306494
 30
0.0
 40
0.726
100
AcDbArc
 50
256.9722150900651
 51
343.0277849099375
  0
ARC
  5
194B5
330
1F
100
AcDbEntity
  8
AM_0
100
AcDbCircle
 10
4.196986288533935
 20
3.505183585383179
 30
0.0
 40
0.726
100
AcDbArc
 50
16.97221509006248
 51
103.0277849099349
  0
CIRCLE
  5
194B6
330
1F
100
AcDbEntity
  8
AM_0
100
AcDbCircle
 10
5.180691437375913
 20
5.209010882844837
 30
0.0
 40
2.8
  0
CIRCLE
  5
194B7
330
1F
100
AcDbEntity
  8
AM_0
100
AcDbCircle
 10
5.180691437375913
 20
5.209010882844837
 30
0.0
 40
2.35
  0
CIRCLE
  5
194B8
330
1F
100
AcDbEntity
  8
AM_0
100
AcDbCircle
 10
5.180691437375913
 20
5.209010882844837
 30
0.0
 40
1.706099999999583
  0
ARC
  5
194BC
330
1F
100
AcDbEntity
  8
AM_0
100
AcDbCircle
 10
3.965138180624308
 20
5.910810882844771
 30
0.0
 40
0.3024999999998347
100
AcDbArc
 50
76.97221509006819
 51
223.0277849099423
  0
ARC
  5
194BD
330
1F
100
AcDbEntity
  8
AM_0
100
AcDbCircle
 10
3.965138180624308
 20
4.507210882845016
 30
0.0
 40
0.3024999999998347
100
AcDbArc
 50
136.9722150900634
 51
283.0277849099385
  0
ARC
  5
194BE
330
1F
100
AcDbEntity
  8
AM_0
100
AcDbCircle
 10
3.213281139691731
 20
5.209010882844837
 30
0.0
 40
0.726
100
AcDbArc
 50
316.9722150900635
 51
43.02778490993651
  0
ARC
  5
194C1
330
1F
100
AcDbEntity
  8
AM_0
100
AcDbCircle
 10
6.396244694127631
 20
5.910810882844771
 30
0.0
 40
0.3024999999998347
100
AcDbArc
 50
316.9722150900681
 51
103.0277849099416
  0
ARC
  5
194C2
330
1F
100
AcDbEntity
  8
AM_0
100
AcDbCircle
 10
6.396244694127631
 20
4.507210882845016
 30
0.0
 40
0.3024999999998347
100
AcDbArc
 50
256.9722150900615
 51
43.02778490993651
  0
ARC
  5
194C3
330
1F
100
AcDbEntity
  8
AM_0
100
AcDbCircle
 10
7.148101735060209
 20
5.209010882844837
 30
0.0
 40
0.726
100
AcDbArc
 50
136.9722150900634
 51
223.0277849099365
  0
ARC
  5
194C4
330
1F
100
AcDbEntity
  8
AM_0
100
AcDbCircle
 10
5.180691437375913
 20
6.612610882844592
 30
0.0
 40
0.3024999999998347
100
AcDbArc
 50
16.97221509006655
 51
163.0277849099334
  0
ARC
  5
194C5
330
1F
100
AcDbEntity
  8
AM_0
100
AcDbCircle
 10
5.180691437376026
 20
3.805410882845138
 30
0.0
 40
0.3024999999998347
100
AcDbArc
 50
196.9722150900666
 51
343.0277849099334
  0
ARC
  5
194C6
330
1F
100
AcDbEntity
  8
AM_0
100
AcDbCircle
 10
6.164396586218118
 20
3.505183585383293
 30
0.0
 40
0.726
100
AcDbArc
 50
76.97221509006506
 51
163.0277849099374
  0
ARC
  5
194C7
330
1F
100
AcDbEntity
  8
AM_0
100
AcDbCircle
 10
6.164396586218118
 20
6.91283818030638
 30
0.0
 40
0.726
100
AcDbArc
 50
196.9722150900625
 51
283.027784909935
  0
LINE
  5
196B2
330
1F
100
AcDbEntity
  8
AM_5
100
AcDbLine
 10
-5.206010663942152
 20
0.0
 30
0.0
 11
0.3972659722765002
 21
0.0
 31
0.0
  0
LINE
  5
196B4
330
1F
100
AcDbEntity
  8
AM_5
100
AcDbLine
 10
0.0
 20
0.3985416423746528
 30
0.0
 11
0.0
 21
-4.098051992618252
 31
0.0
  0
CIRCLE
  5
19A5B
330
1F
100
AcDbEntity
  8
AM_11
  6
ACJISTGB
100
AcDbCircle
 10
-62.84219979239595
 20
11.12500000000303
 30
0.0
 40
11.0
  0
DIMENSION
  5
19A66
330
1F
100
AcDbEntity
  8
AM_5
100
AcDbDimension
  2
*D6
 10
-57.31408714577835
 20
1.615006805141604
 30
0.0
 11
-85.48672338583781
 21
28.26029019217959
 31
0.0
 70
   163
  1
最小加工径\P<>
 71
     5
 42
22.00000000000019
  3
AM_JIS$3
100
AcDbDiametricDimension
 15
-68.37031243901356
 25
20.63499319486424
 35
0.0
 40
0.0
1001
ACAD
1000
DSTYLE
1002
{
1070
   271
1070
     0
1070
   288
1070
     1
1070
   289
1070
     3
1070
   172
1070
     1
1070
    74
1070
     1
1002
}
1001
GENIUS_GENDTOL_13
1000

1000
h7
1000

1040
0.0
  0
SPLINE
  5
19B1A
330
1F
100
AcDbEntity
  8
AM_11
  6
ACJISTGB
100
AcDbSpline
210
0.0
220
0.0
230
1.0
 70
     8
 71
     3
 72
     9
 73
     5
 74
     3
 42
0.0000000001
 43
0.0000000001
 44
0.0000000001
 40
0.0
 40
0.0
 40
0.0
 40
0.0
 40
7.803111080408943
 40
13.48730785781176
 40
13.48730785781176
 40
13.48730785781176
 40
13.48730785781176
 10
27.0
 20
-60.00343978120607
 30
0.0
 10
24.87729606863598
 20
-61.53034011597551
 30
0.0
 10
21.20830287883334
 20
-64.16951501314384
 30
0.0
 10
17.00290083888521
 20
-65.80459383276254
 30
0.0
 10
15.23054322866642
 20
-66.49369427113454
 30
0.0
 11
27.0
 21
-60.00343978120607
 31
0.0
 11
20.45234004054953
 21
-64.2480471350858
 31
0.0
 11
15.23054322866642
 21
-66.49369427113454
 31
0.0
  0
LINE
  5
19CED
330
1F
100
AcDbEntity
  8
AM_5
100
AcDbLine
 10
0.0
 20
-69.00343978120607
 30
0.0
 11
-9.581157902707446
 21
-68.16519708126735
 31
0.0
  0
DIMENSION
  5
19CF7
330
1F
100
AcDbEntity
  8
AM_5
100
AcDbDimension
  2
*D7
 10
153.6686900870429
 20
-69.0034397812061
 30
0.0
 11
-13.38221677921786
 21
-71.76677568416476
 31
0.0
 70
   162
  1
<>
 71
     5
 42
0.0872664625997155
  3
AM_JIS$2
100
AcDb2LineAngularDimension
 13
0.0
 23
-69.00343978120607
 33
0.0
 14
-9.581157902707446
 24
-68.16519708126735
 34
0.0
 15
-1.773854710452497
 25
-69.00343978120607
 35
0.0
 16
-11.32001367098198
 26
-68.34412406520184
 36
0.0
1001
GENIUS_GENDTOL_13
1000

1000
h7
1000

1040
0.0
1001
ACAD
1000
DSTYLE
1002
{
1070
   279
1070
     1
1002
}
  0
LINE
  5
1A5C0
330
1F
100
AcDbEntity
  8
AM_0
100
AcDbLine
 10
-64.91184672480119
 20
0.4712205763595563
 30
0.0
 11
-62.87765234323695
 21
-0.0000069592136498
 31
0.0
  0
LINE
  5
1A5C1
330
1F
100
AcDbEntity
  8
AM_0
100
AcDbLine
 10
-65.81307164106374
 20
9.132195050266418
 30
0.0
 11
-66.04160554540908
 21
0.7507057816207947
 31
0.0
  0
LINE
  5
1A5C2
330
1F
100
AcDbEntity
  8
AM_0
100
AcDbLine
 10
-62.82718058230216
 20
0.4334202139522603
 30
0.0
 11
-62.57750478469359
 21
9.590289188346716
 31
0.0
  0
LINE
  5
1A5C3
330
1F
100
AcDbEntity
  8
AM_0
100
AcDbLine
 10
-66.04160554540908
 20
0.7507057816207947
 30
0.0
 11
-66.58343910643532
 21
1.457168743235272
 31
0.0
  0
LINE
  5
1A5C4
330
1F
100
AcDbEntity
  8
AM_0
100
AcDbLine
 10
-64.91184672444319
 20
0.4712205762709942
 30
0.0
 11
-66.04160554540908
 21
0.7507057816207947
 31
0.0
  0
ELLIPSE
  5
1A5C5
330
1F
100
AcDbEntity
  8
AM_0
100
AcDbEllipse
 10
-62.8631011675858
 20
0.3996708644905169
 30
0.0
 11
0.01396095639773995
 21
0.3997562903776005
 31
0.0
210
0.0
220
0.0
230
1.0
 40
0.0871357899055422
 41
3.124589683921208
 42
4.799957105049663
  0
LINE
  5
1A5C6
330
1F
100
AcDbEntity
  8
AM_0
100
AcDbLine
 10
-62.57750478469359
 20
9.590289188346716
 30
0.0
 11
-65.81307164106374
 21
9.132195050266418
 31
0.0
  0
ELLIPSE
  5
1A5C7
330
1F
100
AcDbEntity
  8
AM_0
100
AcDbEllipse
 10
-49.35314435768464
 20
-13.57803083242389
 30
0.0
 11
-2.833464759272436
 21
26.44633985244492
 31
0.0
210
0.0
220
0.0
230
1.0
 40
0.5406516785100271
 41
0.80284998391942
 42
0.9184705786835878
  0
LINE
  5
1A5C8
330
1F
100
AcDbEntity
  8
AM_0
100
AcDbLine
 10
-61.42753697641945
 20
8.243919878470379
 30
0.0
 11
-62.62014550392723
 21
8.026439256810292
 31
0.0
  0
LINE
  5
1A5C9
330
1F
100
AcDbEntity
  8
AM_0
100
AcDbLine
 10
-64.26949892352025
 20
9.350735307660656
 30
0.0
 11
-62.57750478469359
 21
9.590289188346688
 31
0.0
  0
LINE
  5
1A5CA
330
1F
100
AcDbEntity
  8
AM_0
100
AcDbLine
 10
-65.8050325752198
 20
9.427028083003094
 30
0.0
 11
-64.28686085791787
 21
9.348277191130691
 31
0.0
  0
LINE
  5
1A5CB
330
1F
100
AcDbEntity
  8
AM_0
100
AcDbLine
 10
-66.03116511627241
 20
1.133608900608166
 30
0.0
 11
-65.8050325752198
 21
9.427028083003094
 31
0.0
  0
ARC
  5
1A5CC
330
1F
100
AcDbEntity
  8
AM_0
100
AcDbCircle
 10
-62.84219979239595
 20
11.00000000000001
 30
0.0
 40
10.25
100
AcDbArc
 50
181.3975966282459
 51
251.8932287577153
  0
ARC
  5
1A5CD
330
1F
100
AcDbEntity
  8
AM_0
100
AcDbCircle
 10
-62.84219979239595
 20
10.50000000000001
 30
0.0
 40
10.25
100
AcDbArc
 50
143.3686069179597
 51
178.6024033717542
  0
ELLIPSE
  5
1A5CE
330
1F
100
AcDbEntity
  8
AM_0
100
AcDbEllipse
 10
-59.81626737685212
 20
9.426213156058068
 30
0.0
 11
0.2778980034089525
 21
-1.760620982501145
 31
0.0
210
0.0
220
0.0
230
1.0
 40
0.0677825235581913
 41
2.566253197640048
 42
2.575956092020169
  0
ELLIPSE
  5
1A5CF
330
1F
100
AcDbEntity
  8
AM_0
100
AcDbEllipse
 10
-68.14286451624878
 20
9.717008479115648
 30
0.0
 11
8.805748299622609
 21
-0.4696420150586595
 31
0.0
210
0.0
220
0.0
230
1.0
 40
0.197632841595183
 41
5.590197789127864
 42
6.048941138973841
  0
LINE
  5
1A5D0
330
1F
100
AcDbEntity
  8
AM_0
100
AcDbLine
 10
-59.59914421271435
 20
8.856253876181157
 30
0.0
 11
-59.57741274356727
 21
8.855117014638594
 31
0.0
  0
LINE
  5
1A5D1
330
1F
100
AcDbEntity
  8
AM_0
100
AcDbLine
 10
-59.59914421271435
 20
8.856253876179906
 30
0.0
 11
-59.57905791808412
 21
8.855552389073196
 31
0.0
  0
ELLIPSE
  5
1A5D2
330
1F
100
AcDbEntity
  8
AM_0
100
AcDbEllipse
 10
-47.19120077028606
 20
11.74293803449973
 30
0.0
 11
15.40543640694757
 21
2.284223168882848
 31
0.0
210
0.0
220
0.0
230
1.0
 40
0.1167806357446324
 41
2.668008882677489
 42
3.071516360023975
  0
ELLIPSE
  5
1A5D3
330
1F
100
AcDbEntity
  8
AM_0
100
AcDbEllipse
 10
-47.37900584283204
 20
9.543340217652599
 30
0.0
 11
9.965478273148641
 21
47.84237887790205
 31
0.0
210
0.0
220
0.0
230
0.9999999999999999
 40
0.3052605900970491
 41
1.499195889080161
 42
1.633316703829408
  0
LINE
  5
1A5D4
330
1F
100
AcDbEntity
  8
AM_0
100
AcDbLine
 10
-59.57741274356727
 20
8.855117014638623
 30
0.0
 11
-61.60672882757558
 21
3.691200870819884
 31
0.0
  0
LINE
  5
1A5D5
330
1F
100
AcDbEntity
  8
AM_0
100
AcDbLine
 10
-59.57905791808412
 20
8.855552389074475
 30
0.0
 11
-59.57741274356727
 21
8.855117014638594
 31
0.0
  0
ELLIPSE
  5
1A5D6
330
1F
100
AcDbEntity
  8
AM_0
100
AcDbEllipse
 10
-60.0785818859938
 20
9.435374141170158
 30
0.0
 11
-0.6502410547272101
 21
-1.71435374940207
 31
0.0
210
0.0
220
0.0
230
1.0
 40
0.3743721023558501
 41
1.370396398312681
 42
3.830350919111864
  0
LINE
  5
1A5D7
330
1F
100
AcDbEntity
  8
AM_0
100
AcDbLine
 10
-59.98533646423073
 20
10.92330881931436
 30
0.0
 11
-59.98449105293435
 21
10.91363700129641
 31
0.0
  0
LINE
  5
1A5D8
330
1F
100
AcDbEntity
  8
AM_0
100
AcDbLine
 10
-61.02276787378105
 20
10.53062869711179
 30
0.0
 11
-59.98533646423073
 21
10.92330881931436
 31
0.0
  0
LINE
  5
1A5D9
330
1F
100
AcDbEntity
  8
AM_0
100
AcDbLine
 10
-59.10494690129315
 20
18.24994992225335
 30
0.0
 11
-60.48025155042524
 21
16.88465153728158
 31
0.0
  0
ELLIPSE
  5
1A5DA
330
1F
100
AcDbEntity
  8
AM_0
100
AcDbEllipse
 10
-47.03959964486433
 20
13.51851044044375
 30
0.0
 11
15.04097989960158
 21
0.0004598856892360113
 31
0.0
210
0.0
220
0.0
230
1.0
 40
0.4986378213866425
 41
2.676088329923928
 42
2.804279596626971
  0
LINE
  5
1A5DB
330
1F
100
AcDbEntity
  8
AM_0
100
AcDbLine
 10
-61.23305594158296
 20
16.00022267453007
 30
0.0
 11
-71.06772921682057
 21
16.61581275775554
 31
0.0
  0
ARC
  5
1A5DC
330
1F
100
AcDbEntity
  8
AM_0
100
AcDbCircle
 10
-62.84219979239595
 20
10.50000000000001
 30
0.0
 40
10.25
100
AcDbArc
 50
121.5881228512847
 51
143.3686069179597
  0
ELLIPSE
  5
1A5DD
330
1F
100
AcDbEntity
  8
AM_0
100
AcDbEllipse
 10
-62.84219979239595
 20
9.282323969316579
 30
0.0
 11
-1.122191314195442E-15
 21
-11.33519108337793
 31
0.0
210
0.0
220
0.0
230
1.0
 40
0.9884519215740059
 41
3.536922325993372
 42
3.641330510941118
  0
ARC
  5
1A5DE
330
1F
100
AcDbEntity
  8
AM_0
100
AcDbCircle
 10
-62.84219979239595
 20
11.00000000000001
 30
0.0
 40
10.0
100
AcDbArc
 50
25.84193276316749
 51
57.9756871629584
  0
ARC
  5
1A5DF
330
1F
100
AcDbEntity
  8
AM_0
100
AcDbCircle
 10
-62.84219979239595
 20
11.00000000000001
 30
0.0
 40
10.0
100
AcDbArc
 50
102.0243128370437
 51
151.2329266506762
  0
SPLINE
  5
1A5E0
330
1F
100
AcDbEntity
  8
AM_0
100
AcDbSpline
210
0.0
220
0.0
230
1.0
 70
    28
 71
     2
 72
     6
 73
     3
 74
     0
 42
0.0000000001
 43
0.0000000001
 40
0.0
 40
0.0
 40
0.0
 40
0.3681495330393884
 40
0.3681495330393884
 40
0.3681495330393884
 10
-57.53940902797467
 20
19.47823154371061
 30
0.0
 41
1.0
 10
-57.56317008702376
 20
19.34347588150747
 30
0.0
 41
1.000093631466343
 10
-57.58633711959783
 20
19.21208911085894
 30
0.0
 41
1.0
  0
SPLINE
  5
1A5E1
330
1F
100
AcDbEntity
  8
AM_0
100
AcDbSpline
210
0.0
220
0.0
230
1.0
 70
     8
 71
     3
 72
    38
 73
    34
 74
     0
 42
0.0000000001
 43
0.0000000001
 40
-11.42263456855357
 40
-11.42263456855357
 40
-11.42263456855357
 40
-11.42263456855357
 40
-10.70844645666127
 40
-10.70844645666127
 40
-9.994258344768971
 40
-9.994258344768971
 40
-9.280070232876671
 40
-9.280070232876671
 40
-8.565882120984371
 40
-8.565882120984371
 40
-7.85224091180746
 40
-7.85224091180746
 40
-7.13859970263055
 40
-7.13859970263055
 40
-6.424958493453641
 40
-6.424958493453641
 40
-5.711317284276728
 40
-5.711317284276728
 40
-4.997676075099815
 40
-4.997676075099815
 40
-4.284034865922902
 40
-4.284034865922902
 40
-3.570393656745988
 40
-3.570393656745988
 40
-2.856752447569079
 40
-2.856752447569079
 40
-2.142564335676809
 40
-2.142564335676809
 40
-1.428376223784539
 40
-1.428376223784539
 40
-0.7141881118922697
 40
-0.7141881118922697
 40
0.0
 40
0.0
 40
0.0
 40
0.0
 10
-64.92546717556627
 20
20.78059287621251
 30
0.0
 10
-64.92546717556627
 20
20.78059287621251
 30
0.0
 10
-64.90114657218214
 20
20.78587793646965
 30
0.0
 10
-64.79993033409005
 20
20.80662836811293
 30
0.0
 10
-64.72307168667044
 20
20.82205652802237
 30
0.0
 10
-64.52166671591692
 20
20.85849192730628
 30
0.0
 10
-64.39697454420082
 20
20.87944963523437
 30
0.0
 10
-64.11107920755103
 20
20.92022150207016
 30
0.0
 10
-63.94986580521527
 20
20.93994192382969
 30
0.0
 10
-63.60875422652885
 20
20.9720468701971
 30
0.0
 10
-63.4168279680157
 20
20.98564768466498
 30
0.0
 10
-63.00065987835637
 20
21.00091233952965
 30
0.0
 10
-62.77642905140203
 20
21.00250016671693
 30
0.0
 10
-62.31043815977625
 20
20.98857171706369
 30
0.0
 10
-62.0682745558853
 20
20.97298928128795
 30
0.0
 10
-61.58304930083091
 20
20.92340745490303
 30
0.0
 10
-61.33998448094872
 20
20.88938502861596
 30
0.0
 10
-60.8714515505045
 20
20.80677003162823
 30
0.0
 10
-60.63140897777362
 20
20.75560759001793
 30
0.0
 10
-60.15848840281342
 20
20.63624245511797
 30
0.0
 10
-59.9255995442968
 20
20.56806032451927
 30
0.0
 10
-59.48294753173605
 20
20.42177051433511
 30
0.0
 10
-59.27278254717646
 20
20.34358698527116
 30
0.0
 10
-58.88693328376166
 20
20.18690503206314
 30
0.0
 10
-58.71123334741537
 20
20.10848180062637
 30
0.0
 10
-58.40167385241716
 20
19.96164598840183
 30
0.0
 10
-58.25692758934724
 20
19.88797662262273
 30
0.0
 10
-58.00221865091908
 20
19.75188163620437
 30
0.0
 10
-57.8922142955571
 20
19.68954059827384
 30
0.0
 10
-57.71541717123569
 20
19.58641796546779
 30
0.0
 10
-57.64847040887526
 20
19.54563303184223
 30
0.0
 10
-57.56045532244116
 20
19.4915160120898
 30
0.0
 10
-57.53940902797467
 20
19.47823154371055
 30
0.0
 10
-57.53940902797467
 20
19.47823154371055
 30
0.0
  0
SPLINE
  5
1A5E2
330
1F
100
AcDbEntity
  8
AM_0
100
AcDbSpline
210
0.0
220
0.0
230
1.0
 70
    28
 71
     2
 72
     6
 73
     3
 74
     0
 42
0.0000000001
 43
0.0000000001
 40
0.0
 40
0.0
 40
0.0
 40
0.3681495330393896
 40
0.3681495330393896
 40
0.3681495330393896
 10
-64.97239526718943
 20
20.51445044336084
 30
0.0
 41
1.0
 10
-64.9492282346157
 20
20.64583721401034
 30
0.0
 41
1.000093631560822
 10
-64.92546717556627
 20
20.78059287621251
 30
0.0
 41
1.0
  0
LINE
  5
1A5E3
330
1F
100
AcDbEntity
  8
AM_0
100
AcDbLine
 10
-53.84219979239595
 20
13.69129395844188
 30
0.0
 11
-53.84219979239595
 21
9.121049072445729
 31
0.0
  0
SPLINE
  5
1A5E4
330
1F
100
AcDbEntity
  8
AM_0
100
AcDbSpline
210
0.0
220
0.0
230
1.0
 70
    28
 71
     2
 72
     6
 73
     3
 74
     0
 42
0.0000000001
 43
0.0000000001
 40
0.0
 40
0.0
 40
0.0
 40
0.6582629195149845
 40
0.6582629195149845
 40
0.6582629195149845
 10
-53.84219979239595
 20
15.35889894354069
 30
0.0
 41
1.0
 10
-53.84219979239595
 20
15.05059568098851
 30
0.0
 41
1.000475593576181
 10
-53.84219979239595
 20
14.75000000000001
 30
0.0
 41
1.0
  0
ARC
  5
1A5E5
330
1F
100
AcDbEntity
  8
AM_0
100
AcDbCircle
 10
-62.84219979239595
 20
11.00000000000001
 30
0.0
 40
9.75
100
AcDbArc
 50
68.96001348715497
 51
116.2670201563403
  0
ARC
  5
1A5E6
330
1F
100
AcDbEntity
  8
AM_0
100
AcDbCircle
 10
-62.84219979239595
 20
11.00000000000001
 30
0.0
 40
9.75
100
AcDbArc
 50
270.2191138718093
 51
272.3899784567412
  0
SPLINE
  5
1A5E7
330
1F
100
AcDbEntity
  8
AM_0
100
AcDbSpline
210
0.0
220
0.0
230
1.0
 70
     8
 71
     3
 72
    10
 73
     6
 74
     0
 42
0.0000000001
 43
0.0000000001
 40
31.50175700208708
 40
31.50175700208708
 40
31.50175700208708
 40
31.50175700208708
 40
33.28613524518073
 40
33.28613524518073
 40
33.30629751129042
 40
33.30629751129042
 40
33.30629751129042
 40
33.30629751129042
 10
-61.81048858170311
 20
1.304739715833804
 30
0.0
 10
-62.04940873751377
 20
1.27931527172548
 30
0.0
 10
-62.2559340609123
 20
1.266087271074369
 30
0.0
 10
-62.43170082946153
 20
1.258645143913284
 30
0.0
 10
-62.43366052053852
 20
1.258562760525095
 30
0.0
 10
-62.43561604169213
 20
1.258481142541612
 30
0.0
  0
ARC
  5
1A5E8
330
1F
100
AcDbEntity
  8
AM_0
100
AcDbCircle
 10
-62.84219979239595
 20
11.00000000000001
 30
0.0
 40
9.75
100
AcDbArc
 50
276.0742126303666
 51
281.8652953291457
  0
ARC
  5
1A5E9
330
1F
100
AcDbEntity
  8
AM_0
100
AcDbCircle
 10
-51.34219979239595
 20
20.18379513925173
 30
0.0
 40
8.0
100
AcDbArc
 50
193.9887073862939
 51
238.4933729002647
  0
ARC
  5
1A5EA
330
1F
100
AcDbEntity
  8
AM_0
100
AcDbCircle
 10
-51.34219979239595
 20
20.18379513925173
 30
0.0
 40
8.0
100
AcDbArc
 50
180.6003755603875
 51
193.9887073862939
  0
LINE
  5
1A5EB
330
1F
100
AcDbEntity
  8
AM_0
100
AcDbLine
 10
-53.84219979239595
 20
14.75000000000001
 30
0.0
 11
-53.84219979239595
 21
13.69129395844188
 31
0.0
  0
ELLIPSE
  5
1A5EC
330
1F
100
AcDbEntity
  8
AM_0
100
AcDbEllipse
 10
-52.95291323373203
 20
20.6921670337925
 30
0.0
 11
2.345614241645842
 21
7.431788475681368
 31
0.0
210
0.0
220
0.0
230
1.0
 40
0.3559039059784415
 41
3.053153535171592
 42
3.612792097905901
  0
SPLINE
  5
1A5ED
330
1F
100
AcDbEntity
  8
AM_0
100
AcDbSpline
210
0.0
220
0.0
230
1.0
 70
     8
 71
     3
 72
    32
 73
    28
 74
     0
 42
0.0000000001
 43
0.0000000001
 40
0.9409867562648251
 40
0.9409867562648251
 40
0.9409867562648251
 40
0.9409867562648251
 40
2.506845436772565
 40
2.506845436772565
 40
4.072704117280305
 40
4.072704117280305
 40
5.638562797788044
 40
5.638562797788044
 40
7.204421478295783
 40
7.204421478295783
 40
7.817816225332961
 40
7.817816225332961
 40
8.431210972370138
 40
8.431210972370138
 40
9.044605719407317
 40
9.044605719407317
 40
9.658000466444495
 40
9.658000466444495
 40
10.27139521348167
 40
10.27139521348167
 40
10.88478996051885
 40
10.88478996051885
 40
11.49818470755603
 40
11.49818470755603
 40
12.11157945459321
 40
12.11157945459321
 40
12.46914620913361
 40
12.46914620913361
 40
12.46914620913361
 40
12.46914620913361
 10
-59.34176059802746
 20
20.09996843107321
 30
0.0
 10
-59.34176059802746
 20
20.09996843107321
 30
0.0
 10
-59.28950583141364
 20
20.08044050668072
 30
0.0
 10
-59.0738532558471
 20
19.99308615619033
 30
0.0
 10
-58.91057895358927
 20
19.92522147964219
 30
0.0
 10
-58.48705441988977
 20
19.72639334052666
 30
0.0
 10
-58.2267879936087
 20
19.59518235993416
 30
0.0
 10
-57.63657520002653
 20
19.25110044083756
 30
0.0
 10
-57.30694556483059
 20
19.03826244082977
 30
0.0
 10
-56.8229234448288
 20
18.67202706968588
 30
0.0
 10
-56.67799329486843
 20
18.55666179104584
 30
0.0
 10
-56.38056911199283
 20
18.30396523328888
 30
0.0
 10
-56.22809546345002
 20
18.16659829528199
 30
0.0
 10
-55.92596447015353
 20
17.87547807979594
 30
0.0
 10
-55.77614586777565
 20
17.72152959651113
 30
0.0
 10
-55.48870398840063
 20
17.40579250755793
 30
0.0
 10
-55.35108570441639
 20
17.24399836824269
 30
0.0
 10
-55.09590391313782
 20
16.92445829192282
 30
0.0
 10
-54.96855700511526
 20
16.75446152542234
 30
0.0
 10
-54.72421959864073
 20
16.40430159745138
 30
0.0
 10
-54.60722259920351
 20
16.22414208133633
 30
0.0
 10
-54.390141405279
 20
15.86510187158355
 30
0.0
 10
-54.28990250857135
 20
15.68602073705462
 30
0.0
 10
-54.1092521532554
 20
15.34006966539029
 30
0.0
 10
-54.02880141018784
 20
15.17321172034993
 30
0.0
 10
-53.91736840101294
 20
14.92680565605748
 30
0.0
 10
-53.87868699432181
 20
14.83756928462206
 30
0.0
 10
-53.84219979239595
 20
14.75000000000001
 30
0.0
  0
ARC
  5
1A5EE
330
1F
100
AcDbEntity
  8
AM_0
100
AcDbCircle
 10
-62.84219979239595
 20
11.00000000000001
 30
0.0
 40
10.0
100
AcDbArc
 50
270.1745754988544
 51
281.5370807634921
  0
SPLINE
  5
1A5EF
330
1F
100
AcDbEntity
  8
AM_0
100
AcDbSpline
210
0.0
220
0.0
230
1.0
 70
     8
 71
     3
 72
    10
 73
     6
 74
     0
 42
0.0000000001
 43
0.0000000001
 40
1.339740351733824
 40
1.339740351733824
 40
1.339740351733824
 40
1.339740351733824
 40
1.5183224729105
 40
1.5183224729105
 40
1.666206655789912
 40
1.666206655789912
 40
1.666206655789912
 40
1.666206655789912
 10
-60.84217897564588
 20
1.20204527809166
 30
0.0
 10
-60.84207265430791
 20
1.248651416150594
 30
0.0
 10
-60.84155851107335
 20
1.295360133469913
 30
0.0
 10
-60.83986676500081
 20
1.380829609160784
 30
0.0
 10
-60.83881845204064
 20
1.419576676412319
 30
0.0
 10
-60.83748811420742
 20
1.4583213695213
 30
0.0
  0
ARC
  5
1A5F0
330
1F
100
AcDbEntity
  8
AM_0
100
AcDbCircle
 10
-52.84219979239595
 20
1.183795139251984
 30
0.0
 40
8.0
100
AcDbArc
 50
97.18075578145833
 51
178.0334646197542
  0
SPLINE
  5
1A5F1
330
1F
100
AcDbEntity
  8
AM_0
100
AcDbSpline
210
0.0
220
0.0
230
1.0
 70
     8
 71
     3
 72
    32
 73
    28
 74
     0
 42
0.0000000001
 43
0.0000000001
 40
7.362525140179574
 40
7.362525140179574
 40
7.362525140179574
 40
7.362525140179574
 40
7.899723523840918
 40
7.899723523840918
 40
8.607660563172827
 40
8.607660563172827
 40
9.315597602504736
 40
9.315597602504736
 40
10.02353464183665
 40
10.02353464183665
 40
10.73147168116856
 40
10.73147168116856
 40
11.43940872050047
 40
11.43940872050047
 40
12.14734575983238
 40
12.14734575983238
 40
12.85528279916429
 40
12.85528279916429
 40
13.5632198384962
 40
13.5632198384962
 40
15.30299269695568
 40
15.30299269695568
 40
17.04276555541515
 40
17.04276555541515
 40
18.78253841387463
 40
18.78253841387463
 40
20.5223112723341
 40
20.5223112723341
 40
20.5223112723341
 40
20.5223112723341
 10
-53.84219979239595
 20
6.641101056459334
 30
0.0
 10
-53.90403724345811
 20
6.513422698514447
 30
0.0
 10
-53.97059075334028
 20
6.382934235662006
 30
0.0
 10
-54.13661863484242
 20
6.075332051709736
 30
0.0
 10
-54.24408372732955
 20
5.8888718191359
 30
0.0
 10
-54.48414419184041
 20
5.505080733960924
 30
0.0
 10
-54.61678498952335
 20
5.307772117778015
 30
0.0
 10
-54.9026205418254
 20
4.915430046978671
 30
0.0
 10
-55.05601317820788
 20
4.720183438437559
 30
0.0
 10
-55.3749730811569
 20
4.344076075464287
 30
0.0
 10
-55.54054722792444
 20
4.163220354408523
 30
0.0
 10
-55.87116243426499
 20
3.826414826171529
 30
0.0
 10
-56.04891590805983
 20
3.657514582032277
 30
0.0
 10
-56.41904237489155
 20
3.331633366368394
 30
0.0
 10
-56.61141020780156
 20
3.174645609187436
 30
0.0
 10
-56.99838299281521
 20
2.881581917922759
 30
0.0
 10
-57.1931973917857
 20
2.745304182456906
 30
0.0
 10
-57.57246971634891
 20
2.498166311013748
 30
0.0
 10
-57.75690456677603
 20
2.387261169642059
 30
0.0
 10
-58.35543668052094
 20
2.049720660444123
 30
0.0
 10
-58.75850910566601
 20
1.863565537722295
 30
0.0
 10
-59.47972647063784
 20
1.574251359024586
 30
0.0
 10
-59.79753792420263
 20
1.470964085148196
 30
0.0
 10
-60.31467256297765
 20
1.320946247700292
 30
0.0
 10
-60.51414897022357
 20
1.273825972271041
 30
0.0
 10
-60.77796753307985
 20
1.214437833016049
 30
0.0
 10
-60.84217897564588
 20
1.20204527809166
 30
0.0
 10
-60.84217897564588
 20
1.20204527809166
 30
0.0
  0
LINE
  5
1A5F2
330
1F
100
AcDbEntity
  8
AM_0
100
AcDbLine
 10
-53.84219979239595
 20
9.121049072445729
 30
0.0
 11
-53.84219979239595
 21
6.641101056459334
 31
0.0
  0
ELLIPSE
  5
1A609
330
1F
100
AcDbEntity
  8
AM_0
100
AcDbEllipse
 10
1.500201659674076
 20
-69.00343978120604
 30
0.0
 11
-25.58362096618935
 21
-9.400446006978216
 31
0.0
210
0.0
220
0.0
230
1.0
 40
0.1011310620463615
 41
1.945392749053145
 42
2.046466209402078
  0
LINE
  5
1A60D
330
1F
100
AcDbEntity
  8
AM_0
100
AcDbLine
 10
27.0
 20
-78.00343978120613
 30
0.0
 11
27.0
 21
-66.99872810301748
 31
0.0
  0
LINE
  5
1A611
330
1F
100
AcDbEntity
  8
AM_0
100
AcDbLine
 10
27.25
 20
-78.00343978120613
 30
0.0
 11
27.25
 21
-67.003418964456
 31
0.0
  0
LINE
  5
1A612
330
1F
100
AcDbEntity
  8
AM_0
100
AcDbLine
 10
29.95999487594054
 20
-67.003418964456
 30
0.0
 11
27.25
 21
-67.003418964456
 31
0.0
  0
SPLINE
  5
1A613
330
1F
100
AcDbEntity
  8
AM_0
100
AcDbSpline
210
0.0
220
0.0
230
1.0
 70
     8
 71
     3
 72
    10
 73
     6
 74
     0
 42
0.0000000001
 43
0.0000000001
 40
1.339740351733824
 40
1.339740351733824
 40
1.339740351733824
 40
1.339740351733824
 40
1.5183224729105
 40
1.5183224729105
 40
1.666206655789912
 40
1.666206655789912
 40
1.666206655789912
 40
1.666206655789912
 10
27.25
 20
-67.003418964456
 30
0.0
 10
27.20435678144236
 20
-67.00331264311807
 30
0.0
 10
27.15870790989106
 20
-67.00279849988347
 30
0.0
 10
27.07536017014979
 20
-67.0011067538109
 30
0.0
 10
27.03764332989658
 20
-67.00005844085074
 30
0.0
 10
27.0
 20
-66.99872810301748
 30
0.0
  0
LINE
  5
1A614
330
1F
100
AcDbEntity
  8
AM_0
100
AcDbLine
 10
27.0
 20
-66.99872810301748
 30
0.0
 11
14.06095201136282
 21
-66.99872810301748
 31
0.0
  0
ELLIPSE
  5
1A615
330
1F
100
AcDbEntity
  8
AM_0
100
AcDbEllipse
 10
34.29822212604086
 20
-59.00343978120607
 30
0.0
 11
20.99168899789896
 21
7.713186467264181
 31
0.0
210
0.0
220
0.0
230
1.0
 40
0.1011310620463616
 41
1.964705570355054
 42
3.375851548739633
  0
SPLINE
  5
1A617
330
1F
100
AcDbEntity
  8
AM_0
100
AcDbSpline
210
0.0
220
0.0
230
1.0
 70
     8
 71
     3
 72
    32
 73
    28
 74
     0
 42
0.0000000001
 43
0.0000000001
 40
7.362525140179574
 40
7.362525140179574
 40
7.362525140179574
 40
7.362525140179574
 40
7.899723523840918
 40
7.899723523840918
 40
8.607660563172827
 40
8.607660563172827
 40
9.315597602504736
 40
9.315597602504736
 40
10.02353464183665
 40
10.02353464183665
 40
10.73147168116856
 40
10.73147168116856
 40
11.43940872050047
 40
11.43940872050047
 40
12.14734575983238
 40
12.14734575983238
 40
12.85528279916429
 40
12.85528279916429
 40
13.5632198384962
 40
13.5632198384962
 40
15.30299269695568
 40
15.30299269695568
 40
17.04276555541515
 40
17.04276555541515
 40
18.78253841387463
 40
18.78253841387463
 40
20.5223112723341
 40
20.5223112723341
 40
20.5223112723341
 40
20.5223112723341
 10
35.72348445483397
 20
-60.00343978120607
 30
0.0
 10
35.83365076962616
 20
-60.06527723226817
 30
0.0
 10
35.93726441759554
 20
-60.13183074215034
 30
0.0
 10
36.16104580211515
 20
-60.29785862365254
 30
0.0
 10
36.28134835067533
 20
-60.40532371613968
 30
0.0
 10
36.49398632690281
 20
-60.64538418065062
 30
0.0
 10
36.5863106021111
 20
-60.77802497833348
 30
0.0
 10
36.73450342600722
 20
-61.06386053063552
 30
0.0
 10
36.79045049714102
 20
-61.21725316701797
 30
0.0
 10
36.86360406063216
 20
-61.53621306996699
 30
0.0
 10
36.88080643233298
 20
-61.7017872167345
 30
0.0
 10
36.88080643233298
 20
-62.03240242307517
 30
0.0
 10
36.86360406063216
 20
-62.21015589686992
 30
0.0
 10
36.79045049714102
 20
-62.5802823637017
 30
0.0
 10
36.73450342600722
 20
-62.77265019661162
 30
0.0
 10
36.5863106021111
 20
-63.1596229816253
 30
0.0
 10
36.49398632690281
 20
-63.35443738059585
 30
0.0
 10
36.28134835067533
 20
-63.73370970515903
 30
0.0
 10
36.16104580211527
 20
-63.91814455558615
 30
0.0
 10
35.72113227968612
 20
-64.51667666933109
 30
0.0
 10
35.33425913692713
 20
-64.91974909447619
 30
0.0
 10
34.4475669999191
 20
-65.64096645944791
 30
0.0
 10
33.94751864109958
 20
-65.95877791301281
 30
0.0
 10
32.87596479610875
 20
-66.47591255178783
 30
0.0
 10
32.30358925545602
 20
-66.67538895903373
 30
0.0
 10
31.13557802697687
 20
-66.93920752189
 30
0.0
 10
30.53991916209372
 20
-67.003418964456
 30
0.0
 10
29.95999487594054
 20
-67.003418964456
 30
0.0
  0
LINE
  5
1A61C
330
1F
100
AcDbEntity
  8
AM_0
100
AcDbLine
 10
9.816990774035844
 20
1.250000000002984
 30
0.0
 11
27.0
 21
1.250000000002984
 31
0.0
  0
LINE
  5
1A61E
330
1F
100
AcDbEntity
  8
AM_0
100
AcDbLine
 10
27.0
 20
1.250000000002984
 30
0.0
 11
27.25
 21
1.000000000002984
 31
0.0
  0
LINE
  5
1A61F
330
1F
100
AcDbEntity
  8
AM_0
100
AcDbLine
 10
27.25
 20
1.000000000002984
 30
0.0
 11
87.24999999999989
 21
1.00000000000297
 31
0.0
  0
LINE
  5
1A645
330
1F
100
AcDbEntity
  8
AM_0
100
AcDbLine
 10
21.90935285125534
 20
13.69129395844485
 30
0.0
 11
25.52128304108146
 21
9.121049072448727
 31
0.0
  0
ELLIPSE
  5
1A652
330
1F
100
AcDbEntity
  8
AM_0
100
AcDbEllipse
 10
1.500201659674076
 20
11.00000000000298
 30
0.0
 11
-25.57288561387985
 21
3.369110541932634
 31
0.0
210
0.0
220
0.0
230
1.0
 40
0.3577775371536092
 41
2.029635948342303
 42
2.130709408691236
  0
LINE
  5
1A659
330
1F
100
AcDbEntity
  8
AM_0
100
AcDbLine
 10
27.0
 20
1.250000000002984
 30
0.0
 11
27.0
 21
1.458321369524271
 31
0.0
  0
LINE
  5
1A65A
330
1F
100
AcDbEntity
  8
AM_0
100
AcDbLine
 10
35.72348445483397
 20
6.641101056462333
 30
0.0
 11
87.24999999999989
 21
6.641101056462318
 31
0.0
  0
LINE
  5
1A65C
330
1F
100
AcDbEntity
  8
AM_0
100
AcDbLine
 10
27.25
 20
1.000000000002984
 30
0.0
 11
27.25
 21
1.20204527809463
 31
0.0
  0
LINE
  5
1A65D
330
1F
100
AcDbEntity
  8
AM_0
100
AcDbLine
 10
29.95999487594054
 20
1.20204527809463
 30
0.0
 11
27.25
 21
1.20204527809463
 31
0.0
  0
SPLINE
  5
1A65E
330
1F
100
AcDbEntity
  8
AM_0
100
AcDbSpline
210
0.0
220
0.0
230
1.0
 70
     8
 71
     3
 72
    10
 73
     6
 74
     0
 42
0.0000000001
 43
0.0000000001
 40
1.339740351733824
 40
1.339740351733824
 40
1.339740351733824
 40
1.339740351733824
 40
1.5183224729105
 40
1.5183224729105
 40
1.666206655789912
 40
1.666206655789912
 40
1.666206655789912
 40
1.666206655789912
 10
27.25
 20
1.20204527809463
 30
0.0
 10
27.20435678144236
 20
1.248651416153592
 30
0.0
 10
27.15870790989106
 20
1.295360133472912
 30
0.0
 10
27.07536017014979
 20
1.380829609163783
 30
0.0
 10
27.03764332989658
 20
1.419576676415318
 30
0.0
 10
27.0
 20
1.458321369524271
 30
0.0
  0
LINE
  5
1A65F
330
1F
100
AcDbEntity
  8
AM_0
100
AcDbLine
 10
27.0
 20
1.458321369524271
 30
0.0
 11
14.06095201136282
 21
1.458321369524271
 31
0.0
  0
ELLIPSE
  5
1A660
330
1F
100
AcDbEntity
  8
AM_0
100
AcDbEllipse
 10
34.29822212604086
 20
1.183795139254954
 30
0.0
 11
20.98288050369628
 21
-2.764398393380622
 31
0.0
210
0.0
220
0.0
230
1.0
 40
0.3577775371536093
 41
2.04894876964421
 42
3.460094748028791
  0
LINE
  5
1A661
330
1F
100
AcDbEntity
  8
AM_0
100
AcDbLine
 10
25.52128304108146
 20
9.121049072448727
 30
0.0
 11
29.95999487594054
 21
9.121049072448727
 31
0.0
  0
SPLINE
  5
1A662
330
1F
100
AcDbEntity
  8
AM_0
100
AcDbSpline
210
0.0
220
0.0
230
1.0
 70
     8
 71
     3
 72
    32
 73
    28
 74
     0
 42
0.0000000001
 43
0.0000000001
 40
7.362525140179574
 40
7.362525140179574
 40
7.362525140179574
 40
7.362525140179574
 40
7.899723523840918
 40
7.899723523840918
 40
8.607660563172827
 40
8.607660563172827
 40
9.315597602504736
 40
9.315597602504736
 40
10.02353464183665
 40
10.02353464183665
 40
10.73147168116856
 40
10.73147168116856
 40
11.43940872050047
 40
11.43940872050047
 40
12.14734575983238
 40
12.14734575983238
 40
12.85528279916429
 40
12.85528279916429
 40
13.5632198384962
 40
13.5632198384962
 40
15.30299269695568
 40
15.30299269695568
 40
17.04276555541515
 40
17.04276555541515
 40
18.78253841387463
 40
18.78253841387463
 40
20.5223112723341
 40
20.5223112723341
 40
20.5223112723341
 40
20.5223112723341
 10
35.72348445483397
 20
6.641101056462333
 30
0.0
 10
35.83365076962616
 20
6.513422698517445
 30
0.0
 10
35.93726441759554
 20
6.382934235664976
 30
0.0
 10
36.16104580211515
 20
6.075332051712707
 30
0.0
 10
36.28134835067533
 20
5.888871819138871
 30
0.0
 10
36.49398632690281
 20
5.505080733963922
 30
0.0
 10
36.5863106021111
 20
5.307772117781013
 30
0.0
 10
36.73450342600722
 20
4.915430046981641
 30
0.0
 10
36.79045049714102
 20
4.720183438440557
 30
0.0
 10
36.86360406063216
 20
4.344076075467257
 30
0.0
 10
36.88080643233298
 20
4.163220354411493
 30
0.0
 10
36.88080643233298
 20
3.826414826174499
 30
0.0
 10
36.86360406063216
 20
3.657514582035276
 30
0.0
 10
36.79045049714102
 20
3.331633366371392
 30
0.0
 10
36.73450342600722
 20
3.174645609190435
 30
0.0
 10
36.5863106021111
 20
2.881581917925729
 30
0.0
 10
36.49398632690281
 20
2.745304182459876
 30
0.0
 10
36.28134835067533
 20
2.498166311016746
 30
0.0
 10
36.16104580211527
 20
2.387261169645029
 30
0.0
 10
35.72113227968612
 20
2.049720660447093
 30
0.0
 10
35.33425913692713
 20
1.863565537725293
 30
0.0
 10
34.4475669999191
 20
1.574251359027556
 30
0.0
 10
33.94751864109958
 20
1.470964085151167
 30
0.0
 10
32.87596479610875
 20
1.32094624770329
 30
0.0
 10
32.30358925545602
 20
1.273825972274011
 30
0.0
 10
31.13557802697687
 20
1.214437833019048
 30
0.0
 10
30.53991916209372
 20
1.20204527809463
 30
0.0
 10
29.95999487594054
 20
1.20204527809463
 30
0.0
  0
ARC
  5
1A663
330
1F
100
AcDbEntity
  8
AM_0
100
AcDbCircle
 10
29.95999487594054
 20
1.183795139254954
 30
0.0
 40
7.937253933193771
100
AcDbArc
 50
43.43694866344386
 51
90.0
  0
DIMENSION
  5
1B083
330
1F
100
AcDbEntity
  8
AM_5
100
AcDbDimension
  2
*D9
 10
-9.103005836971079
 20
11.0
 30
0.0
 11
-12.50300583697108
 21
5.500000000000001
 31
0.0
 70
    32
 71
     5
 42
11.0
  3
AM_JIS$0
100
AcDbAlignedDimension
 13
-5.206010663942152
 23
0.0
 33
0.0
 14
-2.165548451965833
 24
11.0
 34
0.0
 50
90.0
100
AcDbRotatedDimension
1001
ACAD
1000
DSTYLE
1002
{
1070
   179
1070
     2
1070
   271
1070
     0
1002
}
  0
DIMENSION
  5
1B0BD
330
1F
100
AcDbEntity
  8
AM_5
100
AcDbDimension
  2
*D10
 10
0.8026490546365039
 20
9.590376465194396
 30
0.0
 11
-19.73481447708405
 21
21.49704699634694
 31
0.0
 70
    34
 71
     5
 42
1.658062789394618
  3
AM_JIS$2
100
AcDb2LineAngularDimension
 13
-5.206010663942152
 23
0.0
 33
0.0
 14
0.3972659722765002
 24
0.0
 34
0.0
 15
0.0015268259846835
 25
0.4335074907999399
 35
0.0
 16
-11.59627385760176
 26
23.01760097934765
 36
0.0
1001
ACAD
1000
DSTYLE
1002
{
1070
   271
1070
     0
1002
}
  0
DIMENSION
  5
1B17A
330
1F
100
AcDbEntity
  8
AM_5
100
AcDbDimension
  2
*D11
 10
250.0
 20
-33.38566080332221
 30
0.0
 11
125.0
 21
-29.98528678757418
 31
0.0
 70
    32
 71
     5
 42
250.0
  3
AM_JIS$0
100
AcDbAlignedDimension
 13
0.0
 23
-4.098051992618252
 33
0.0
 14
250.0
 24
2.000000000000995
 34
0.0
100
AcDbRotatedDimension
1001
ACAD
1000
DSTYLE
1002
{
1070
   179
1070
     0
1070
   271
1070
     0
1002
}
  0
DIMENSION
  5
1B19D
330
1F
100
AcDbEntity
  8
AM_5
100
AcDbDimension
  2
*D12
 10
-62.57750478469359
 20
9.590289188346716
 30
0.0
 11
-62.84219979239595
 21
-15.00553648833031
 31
0.0
 70
   162
 71
     5
 42
0.0272597490532736
  3
AM_JIS$2
100
AcDb2LineAngularDimension
 13
-62.84219979239595
 23
-5.075659642478101
 33
0.0
 14
-62.84219979239595
 24
27.47866351642647
 34
0.0
 15
-62.82718058230216
 25
0.4334202139522603
 35
0.0
 16
-63.11274929680818
 26
-15.00307805013655
 36
0.0
1001
ACAD
1000
DSTYLE
1002
{
1070
   179
1070
     0
1070
   271
1070
     0
1002
}
  0
ENDSEC
  0
SECTION
  2
OBJECTS
  0
DICTIONARY
  5
C
330
0
100
AcDbDictionary
281
     1
  3
ACAD_COLOR
350
1A8CD
  3
ACAD_GROUP
350
D
  3
ACAD_LAYOUT
350
1A
  3
ACAD_MATERIAL
350
1A8CC
  3
ACAD_MLINESTYLE
350
17
  3
ACAD_PLOTSETTINGS
350
19
  3
ACAD_PLOTSTYLENAME
350
E
  3
ACAD_TABLESTYLE
350
1A8CE
  3
AcAmCatalogState
350
1A935
  3
ACDBHEADERROUNDTRIPXREC
350
1B46C
  3
AcDbVariableDictionary
350
30
  3
ACDMSYSVARMGR
350
1A8E8
  3
ACGREF_MASTER
350
1A8E0
  3
ACGREFACAD_MASTER
350
1A908
  3
AcmDictionary
350
4D
  3
ACME_BOM_MANAGER_NAME
350
36
  3
ACME_COMMAND_HISTORY
350
2F
  3
ACME_SCOPE_NAME
350
2E
  3
ACMESTATEMGR
350
3B
  3
AcmeSysVarManager
350
32
  3
AcmSystemVariableManager
350
6A
  3
AD_APPL
350
1A913
  3
ADSYSVARMGR
350
1A912
  3
AmdtNamedDwgMgr
350
1A903
  3
AMG
350
3F
  3
AMGSNAPSETTINGS
350
73
  3
AMI_MASTER
350
1A90B
  3
ASE_INDEX_DICTIONARY
350
1AE9B
  3
AUTOCAD_ASSEMBLIES_PROJECT
350
1A91B
  3
Designer_Assemblies_SysVars
350
1A916
  3
DWGPROPS
350
1B46F
  3
eng_data
350
2A40
  3
FILENAME
350
2916
  3
GREFAM_MODULE
350
1A90C
  3
line_dic_data
350
2A3E
  3
table_dic_data
350
1688
  3
ZWKSIZE
350
2918
  0
DICTIONARY
  5
1A948
330
2
100
AcDbDictionary
280
     1
281
     1
  3
ACAD_LAYERSTATES
360
1A949
  0
DICTIONARY
  5
165
330
1F
100
AcDbDictionary
280
     1
281
     1
  0
DICTIONARY
  5
1A8CD
102
{ACAD_REACTORS
330
C
102
}
330
C
100
AcDbDictionary
281
     1
  0
DICTIONARY
  5
D
102
{ACAD_REACTORS
330
C
102
}
330
C
100
AcDbDictionary
281
     1
  0
DICTIONARY
  5
1A
102
{ACAD_REACTORS
330
C
102
}
330
C
100
AcDbDictionary
281
     1
  3
Model
350
22
  3
ﾚｲｱｳﾄ1
350
1E
  3
ﾚｲｱｳﾄ2
350
26
  0
DICTIONARY
  5
1A8CC
102
{ACAD_REACTORS
330
C
102
}
330
C
100
AcDbDictionary
281
     1
  0
DICTIONARY
  5
17
102
{ACAD_REACTORS
330
C
102
}
330
C
100
AcDbDictionary
281
     1
  3
Standard
350
18
  0
DICTIONARY
  5
19
102
{ACAD_REACTORS
330
C
102
}
330
C
100
AcDbDictionary
281
     1
  0
ACDBDICTIONARYWDFLT
  5
E
102
{ACAD_REACTORS
330
C
102
}
330
C
100
AcDbDictionary
281
     1
  3
Normal
350
F
100
AcDbDictionaryWithDefault
340
F
  0
DICTIONARY
  5
1A8CE
102
{ACAD_REACTORS
330
C
102
}
330
C
100
AcDbDictionary
281
     1
  3
Standard
350
1A8CF
  0
ACAD_PROXY_OBJECT
  5
1A935
102
{ACAD_REACTORS
330
C
102
}
330
C
100
AcDbProxyObject
 90
      499
 91
      571
 95
       25
 70
     0
 93
      584
310
3FFFFFFFE00A028140298231D2E20A1A0A226991818182E4B34482AC8E746FA41B7C1A1C1B3A422AE4B34482AC8E746FA41B7C1A1C1B3CAABC7C0400870A3B97E2816ACDF8A83DB67E
  0
DICTIONARY
  5
1B46C
102
{ACAD_REACTORS
330
C
102
}
330
C
100
AcDbDictionary
281
     1
  3
COLORDICT
350
1B46D
  3
MATERIALDICT
350
1B46E
  0
DICTIONARY
  5
30
102
{ACAD_REACTORS
330
C
102
}
330
C
100
AcDbDictionary
281
     1
  3
CTABLESTYLE
350
1AE41
  3
HIDETEXT
350
1B46B
  3
INDEXCTL
350
1B46A
  0
ACAD_PROXY_OBJECT
  5
1A8E8
102
{ACAD_REACTORS
330
C
102
}
330
C
100
AcDbProxyObject
 90
      499
 91
      507
 95
       25
 70
     0
 93
      240
310
4C51A47A0000000000000000000000000000000000000000000000000000
330
1A8E9
330
1A8EA
330
1A8EB
330
1A8EC
330
1A8ED
330
1A8EE
330
1A8EF
330
1A8F0
330
1A8F1
330
1A8F2
330
1A8F3
330
1A8F4
330
1A8F5
330
1A8F6
330
1A8F7
330
1A8F8
330
1A8F9
330
1A8FA
330
1A8FB
330
1A8FC
330
1A8FD
330
1A8FE
330
1A8FF
330
1A900
330
1A901
330
1A902
 94
        0
  0
ACAD_PROXY_OBJECT
  5
1A8E0
102
{ACAD_REACTORS
330
C
102
}
330
C
100
AcDbProxyObject
 90
      499
 91
      535
 95
       25
 70
     0
 93
       34
310
0400004280
  0
ACAD_PROXY_OBJECT
  5
1A908
102
{ACAD_REACTORS
330
C
102
}
330
C
100
AcDbProxyObject
 90
      499
 91
      541
 95
       25
 70
     0
 93
      114
310
04000041C080000000000000000000
  0
DICTIONARY
  5
4D
102
{ACAD_REACTORS
330
C
102
}
330
C
100
AcDbDictionary
281
     1
  3
AcmBOMDATA
350
4E
  3
AcmStdDictionary
350
17E
  3
AMDTSECTSYM_ARROWCOLOR
350
1A929
  0
ACAD_PROXY_OBJECT
  5
36
102
{ACAD_REACTORS
330
C
102
}
330
C
100
AcDbProxyObject
 90
      499
 91
      510
 95
       25
 70
     0
 93
       50
310
00010040400000
330
0
330
0
330
37
 94
        0
  0
ACAD_PROXY_OBJECT
  5
2F
102
{ACAD_REACTORS
330
C
102
}
330
C
100
AcDbProxyObject
 90
      499
 91
      505
 95
       25
 70
     0
 93
     5690
310
47805055153415645404052D4D5347202D205050413A2020206465736B746F702E6172782046696C6556657273696F6E3A20392E322E302E34014390535115149154D15511109353D1102014213880B4815539113C05084E202D20554E444F014115539113E014115539113E014154155491D1601415454D05591501014B53
310
54D1C80B481414104E88080819195CDADD1BDC0B985C9E08119A5B1955995C9CDA5BDB8E880E4B8C8B8C0B8D0050E414D4454524553455444424D4F4440805084E202D20554E444F014213880B4815539113C0504554E444F80504554E444F805055153415645404052D4D5347202D205050413A2020206465736B746F702E
310
6172782046696C6556657273696F6E3A20392E322E302E34014390535115149154D15511109353D1102014213880B4815539113C05084E202D20554E444F014115539113E014115539113E01419493D510551160142111493D411D153D3601411693D3D36014311D4925417D4D514915510D2201415454D05591501014B535
310
4D1C80B481414104E88080819195CDADD1BDC0B985C9E08119A5B1955995C9CDA5BDB8E880E4B8C8B8C0B8D005044D4F564540405184D5347202D20436F6D6D616E642043414E43454C4C45442E014151549054D16014115539113E01411353D591601411693D3D3601415454D05591501014B5354D1C80B481414104E8808
310
0819195CDADD1BDC0B985C9E08119A5B1955995C9CDA5BDB8E880E4B8C8B8C0B8D005055153415645404052D4D5347202D205050413A2020206465736B746F702E6172782046696C6556657273696F6E3A20392E322E302E34014390535115149154D15511109353D1102014213880B4815539113C05084E202D20554E444F
310
014115539113E014115539113E014154155491D1601415454D05591501014B5354D1C80B481414104E88080819195CDADD1BDC0B985C9E08119A5B1955995C9CDA5BDB8E880E4B8C8B8C0B8D00
  0
ACAD_PROXY_OBJECT
  5
2E
102
{ACAD_REACTORS
330
C
102
}
330
C
100
AcDbProxyObject
 90
      499
 91
      504
 95
       25
 70
     0
 93
      586
310
09000046408000000000000000001344E200000000000000000000000000000000000000000000000000000000000000000000000000000000000000000000000000000000AAA406AA80
360
33
360
34
360
35
360
37
360
6B
360
6C
360
1A8E1
360
1A8E2
360
1A8E3
360
1A8E4
360
1A8E5
360
1A8E6
360
1A8E9
360
1A8EA
360
1A8EB
360
1A8EC
360
1A8ED
360
1A8EE
360
1A8EF
360
1A8F0
360
1A8F1
360
1A8F2
360
1A8F3
360
1A8F4
360
1A8F5
360
1A8F6
360
1A8F7
360
1A8F8
360
1A8F9
360
1A8FA
360
1A8FB
360
1A8FC
360
1A8FD
360
1A8FE
360
1A8FF
360
1A900
360
1A901
360
1A902
360
1A90E
360
1A90F
360
1A910
360
1A911
360
1A917
360
1A918
360
1A919
360
1A91A
360
1A91F
360
1A920
360
1A921
360
1A922
360
1A923
360
1A924
 94
        0
  0
ACAD_PROXY_OBJECT
  5
3B
102
{ACAD_REACTORS
330
C
102
}
330
C
100
AcDbProxyObject
 90
      499
 91
      515
 95
       25
 70
     0
 93
       50
310
09000042641280
  0
ACAD_PROXY_OBJECT
  5
32
102
{ACAD_REACTORS
330
C
102
}
330
C
100
AcDbProxyObject
 90
      499
 91
      507
 95
       25
 70
     0
 93
       48
310
903412000000
330
33
330
34
330
35
 94
        0
  0
ACAD_PROXY_OBJECT
  5
6A
102
{ACAD_REACTORS
330
C
102
}
330
C
100
AcDbProxyObject
 90
      499
 91
      507
 95
       25
 70
     0
 93
       40
310
90240E0000
330
6B
330
6C
 94
        0
  0
ACAD_PROXY_OBJECT
  5
1A913
102
{ACAD_REACTORS
330
C
102
}
330
C
100
AcDbProxyObject
 90
      499
 91
      551
 95
       25
 70
     0
 93
       42
310
000900004040
330
1A90E
 94
        0
  0
ACAD_PROXY_OBJECT
  5
1A912
102
{ACAD_REACTORS
330
C
102
}
330
C
100
AcDbProxyObject
 90
      499
 91
      507
 95
       25
 70
     0
 93
        8
310
AA
  0
ACAD_PROXY_OBJECT
  5
1A903
102
{ACAD_REACTORS
330
C
102
}
330
C
100
AcDbProxyObject
 90
      499
 91
      540
 95
       25
 70
     0
 93
       42
310
000100005E80
330
1A8E1
 94
        0
  0
DICTIONARY
  5
3F
102
{ACAD_REACTORS
330
C
102
}
330
C
100
AcDbDictionary
281
     1
  3
AcMgSettings
350
40
  3
AMGLAYCFG
350
42
  0
DICTIONARY
  5
73
102
{ACAD_REACTORS
330
C
102
}
330
C
100
AcDbDictionary
281
     1
  3
DIMENSION
350
62F
  3
FEA
350
630
  3
HATCH (1)
350
631
  3
HATCH (2)
350
632
  3
SYMBOLS
350
633
  0
ACAD_PROXY_OBJECT
  5
1A90B
102
{ACAD_REACTORS
330
C
102
}
330
C
100
AcDbProxyObject
 90
      499
 91
      544
 95
       25
 70
     0
 93
       34
310
0500004280
  0
DICTIONARY
  5
1AE9B
102
{ACAD_REACTORS
330
C
102
}
330
C
100
AcDbDictionary
281
     1
  3
ASEBlockHierarchyIndexRecord
350
1AE9C
1001
DCO15
1040
1562583666.687
  0
ACAD_PROXY_OBJECT
  5
1A91B
102
{ACAD_REACTORS
330
C
102
}
330
C
100
AcDbProxyObject
 90
      499
 91
      554
 95
       25
 70
     0
 93
       98
310
0900004E400000000000000000
330
1A922
330
0
330
1A923
330
0
330
0
330
0
330
0
330
0
 94
        0
  0
ACAD_PROXY_OBJECT
  5
1A916
102
{ACAD_REACTORS
330
C
102
}
330
C
100
AcDbProxyObject
 90
      499
 91
      507
 95
       25
 70
     0
 93
       56
310
90441600000000
330
1A917
330
1A918
330
1A919
330
1A91A
 94
        0
  0
XRECORD
  5
1B46F
102
{ACAD_REACTORS
330
C
102
}
330
C
100
AcDbXrecord
280
     1
  1
DWGPROPS COOKIE
  2

  3

  4

  6

  7

  8

  9

300
AmdtFileType=84
301
=
302
=
303
=
304
=
305
=
306
=
307
=
308
=
309
=
 40
0.0
 41
2451943.235431667
 42
2455482.222558773
  1

 90
        1
  0
DICTIONARY
  5
2A40
102
{ACAD_REACTORS
330
C
102
}
330
C
100
AcDbDictionary
281
     1
  3
eng_id
350
2A41
  0
DICTIONARY
  5
2916
102
{ACAD_REACTORS
330
C
102
}
330
C
100
AcDbDictionary
281
     1
  3
FILENAME
350
2917
  0
ACAD_PROXY_OBJECT
  5
1A90C
102
{ACAD_REACTORS
330
C
102
}
330
C
100
AcDbProxyObject
 90
      499
 91
      545
 95
       25
 70
     0
 93
        8
310
05
  0
DICTIONARY
  5
2A3E
102
{ACAD_REACTORS
330
C
102
}
330
C
100
AcDbDictionary
281
     1
  3
line_data
350
2A3F
  0
DICTIONARY
  5
1688
102
{ACAD_REACTORS
330
C
102
}
330
C
100
AcDbDictionary
281
     1
  3
input_data
350
168A
  3
table_data
350
1689
  0
DICTIONARY
  5
2918
102
{ACAD_REACTORS
330
C
102
}
330
C
100
AcDbDictionary
281
     1
  3
ZWKSIZE
350
2919
  0
DICTIONARY
  5
1A949
102
{ACAD_REACTORS
330
1A948
102
}
330
1A948
100
AcDbDictionary
281
     1
  0
LAYOUT
  5
22
102
{ACAD_REACTORS
330
1A
102
}
330
1A
100
AcDbPlotSettings
  1

  2
SII LP-2150 (D-SCAN C2)
  4
User262
  6
AM_VIEW1
 40
3.174999952316284
 41
3.174999952316284
 42
3.17498779296875
 43
3.17498779296875
 44
296.9259948730469
 45
419.9889831542969
 46
0.0
 47
0.0
 48
0.0
 49
0.0
140
420.0
141
297.0
142
1.0
143
1.022107788374329
 70
 11952
 72
     1
 73
     1
 74
     4
  7
sei_cad.ctb
 75
     0
147
0.9783703943695685
148
0.0
149
0.0
100
AcDbLayout
  1
Model
 70
     1
 71
     0
 10
0.0
 20
0.0
 11
12.0
 21
9.0
 12
0.0
 22
0.0
 32
0.0
 14
0.0
 24
0.0
 34
0.0
 15
0.0
 25
0.0
 35
0.0
146
0.0
 13
0.0
 23
0.0
 33
0.0
 16
1.0
 26
0.0
 36
0.0
 17
0.0
 27
1.0
 37
0.0
 76
     0
330
1F
  0
LAYOUT
  5
1E
102
{ACAD_REACTORS
330
1A
102
}
330
1A
100
AcDbPlotSettings
  1

  2
Canon LASER SHOT LBP-2030
  4

  6

 40
0.0
 41
0.0
 42
0.0
 43
0.0
 44
0.0
 45
0.0
 46
0.0
 47
0.0
 48
0.0
 49
0.0
140
0.0
141
0.0
142
1.0
143
1.0
 70
   688
 72
     0
 73
     0
 74
     5
  7
sei_cad.ctb
 75
    16
147
1.0
148
0.0
149
0.0
100
AcDbLayout
  1
ﾚｲｱｳﾄ1
 70
     1
 71
     1
 10
0.0
 20
0.0
 11
420.0
 21
297.0
 12
0.0
 22
0.0
 32
0.0
 14
1.000000000000000E+20
 24
1.000000000000000E+20
 34
1.000000000000000E+20
 15
-1.000000000000000E+20
 25
-1.000000000000000E+20
 35
-1.000000000000000E+20
146
0.0
 13
0.0
 23
0.0
 33
0.0
 16
1.0
 26
0.0
 36
0.0
 17
0.0
 27
1.0
 37
0.0
 76
     0
330
1B
  0
LAYOUT
  5
26
102
{ACAD_REACTORS
330
1A
102
}
330
1A
100
AcDbPlotSettings
  1

  2
Canon LASER SHOT LBP-2030
  4

  6

 40
0.0
 41
0.0
 42
0.0
 43
0.0
 44
0.0
 45
0.0
 46
0.0
 47
0.0
 48
0.0
 49
0.0
140
0.0
141
0.0
142
1.0
143
1.0
 70
   688
 72
     0
 73
     0
 74
     5
  7
sei_cad.ctb
 75
    16
147
1.0
148
0.0
149
0.0
100
AcDbLayout
  1
ﾚｲｱｳﾄ2
 70
     1
 71
     2
 10
0.0
 20
0.0
 11
12.0
 21
9.0
 12
0.0
 22
0.0
 32
0.0
 14
0.0
 24
0.0
 34
0.0
 15
0.0
 25
0.0
 35
0.0
146
0.0
 13
0.0
 23
0.0
 33
0.0
 16
1.0
 26
0.0
 36
0.0
 17
0.0
 27
1.0
 37
0.0
 76
     0
330
23
  0
MLINESTYLE
  5
18
102
{ACAD_REACTORS
330
17
102
}
330
17
100
AcDbMlineStyle
  2
STANDARD
 70
     0
  3

 62
   256
 51
90.0
 52
90.0
 71
     2
 49
0.5
 62
   256
  6
BYLAYER
 49
-0.5
 62
   256
  6
BYLAYER
  0
ACDBPLACEHOLDER
  5
F
102
{ACAD_REACTORS
330
E
102
}
330
E
  0
TABLESTYLE
  5
1A8CF
102
{ACAD_REACTORS
330
1A8CE
102
}
330
1A8CE
100
AcDbTableStyle
  3
Standard
 70
     0
 71
     8
 40
1.5
 41
1.5
280
     0
281
     0
  7
STANDARD
140
4.5
170
     2
 62
     0
 63
     7
283
     0
274
    -2
284
     1
 64
     0
275
    -2
285
     1
 65
     0
276
    -2
286
     1
 66
     0
277
    -2
287
     1
 67
     0
278
    -2
288
     1
 68
     0
279
    -2
289
     1
 69
     0
  7
STANDARD
140
6.0
170
     5
 62
     0
 63
     7
283
     0
274
    -2
284
     1
 64
     0
275
    -2
285
     1
 65
     0
276
    -2
286
     1
 66
     0
277
    -2
287
     1
 67
     0
278
    -2
288
     1
 68
     0
279
    -2
289
     1
 69
     0
  7
STANDARD
140
4.5
170
     5
 62
     0
 63
     7
283
     0
274
    -2
284
     1
 64
     0
275
    -2
285
     1
 65
     0
276
    -2
286
     1
 66
     0
277
    -2
287
     1
 67
     0
278
    -2
288
     1
 68
     0
279
    -2
289
     1
 69
     0
  0
XRECORD
  5
1B46D
102
{ACAD_REACTORS
330
1B46C
102
}
330
1B46C
100
AcDbXrecord
280
     1
340
1A8CD
  0
XRECORD
  5
1B46E
102
{ACAD_REACTORS
330
1B46C
102
}
330
1B46C
100
AcDbXrecord
280
     1
340
1A8CC
  0
DICTIONARYVAR
  5
1AE41
102
{ACAD_REACTORS
330
30
102
}
330
30
100
DictionaryVariables
280
     0
  1
STANDARD
  0
DICTIONARYVAR
  5
1B46B
102
{ACAD_REACTORS
330
30
102
}
330
30
100
DictionaryVariables
280
     0
  1
0
  0
DICTIONARYVAR
  5
1B46A
102
{ACAD_REACTORS
330
30
102
}
330
30
100
DictionaryVariables
280
     0
  1
1
  0
ACAD_PROXY_OBJECT
  5
4E
102
{ACAD_REACTORS
330
4D
102
}
330
4D
100
AcDbProxyObject
 90
      499
 91
      520
 95
       25
 70
     0
 93
      118
310
405010040CA904C415CD5B075DD0F8
350
4F
 94
        0
  0
DICTIONARY
  5
17E
102
{ACAD_REACTORS
330
4D
102
}
330
4D
100
AcDbDictionary
281
     1
  3
JIS
350
17F
  0
XRECORD
  5
1A929
102
{ACAD_REACTORS
330
4D
102
}
330
4D
100
AcDbXrecord
280
     1
 90
-1023410169
  0
ACAD_PROXY_OBJECT
  5
33
330
2E
100
AcDbProxyObject
 90
      499
 91
      508
 95
       25
 70
     0
 93
      156
310
00010143D050D351505391D5531054925390D490
330
2E
 94
        0
  0
ACAD_PROXY_OBJECT
  5
34
330
2E
100
AcDbProxyObject
 90
      499
 91
      508
 95
       25
 70
     0
 93
      148
310
000101439050D351531253915054925390D490
330
2E
 94
        0
  0
ACAD_PROXY_OBJECT
  5
35
330
2E
100
AcDbProxyObject
 90
      499
 91
      509
 95
       25
 70
     0
 93
      156
310
000101439050D35154D6535093D314D256915080
330
2E
 94
        0
  0
ACAD_PROXY_OBJECT
  5
37
330
2E
100
AcDbProxyObject
 90
      499
 91
      511
 95
       25
 70
     0
 93
       88
310
000101411093D34C402B00
330
2E
330
0
330
0
 94
        0
  0
ACAD_PROXY_OBJECT
  5
6B
330
2E
100
AcDbProxyObject
 90
      499
 91
      509
 95
       25
 70
     0
 93
      108
310
00010142505351D153D35054D4E0
330
2E
 94
        0
  0
ACAD_PROXY_OBJECT
  5
6C
330
2E
100
AcDbProxyObject
 90
      499
 91
      522
 95
       25
 70
     0
 93
      140
310
00010142105350D55494D511005034A49530
330
2E
 94
        0
  0
ACAD_PROXY_OBJECT
  5
1A8E1
330
2E
100
AcDbProxyObject
 90
      499
 91
      536
 95
       25
 70
     0
 93
      358
310
0001014124FEA55D00507392E322E302E32014124FEA55D00507392E322E302E3240501000041505391D311658
330
2E
330
1A8E2
330
1A8E8
 94
        0
  0
ACAD_PROXY_OBJECT
  5
1A8E2
330
2E
100
AcDbProxyObject
 90
      499
 91
      537
 95
       25
 70
     0
 93
       56
310
000190240E0000
330
2E
330
1A8E3
330
1A8E5
 94
        0
  0
ACAD_PROXY_OBJECT
  5
1A8E3
330
2E
100
AcDbProxyObject
 90
      499
 91
      538
 95
       25
 70
     0
 93
       48
310
0001AA000000
330
2E
330
1E
330
1A8E4
330
0
 94
        0
  0
ACAD_PROXY_OBJECT
  5
1A8E4
330
2E
100
AcDbProxyObject
 90
      499
 91
      539
 95
       25
 70
     0
 93
       28
310
0001AAA0
330
2E
 94
        0
  0
ACAD_PROXY_OBJECT
  5
1A8E5
330
2E
100
AcDbProxyObject
 90
      499
 91
      538
 95
       25
 70
     0
 93
       48
310
0001AA000000
330
2E
330
26
330
1A8E6
330
0
 94
        0
  0
ACAD_PROXY_OBJECT
  5
1A8E6
330
2E
100
AcDbProxyObject
 90
      499
 91
      539
 95
       25
 70
     0
 93
       28
310
0001AAA0
330
2E
 94
        0
  0
ACAD_PROXY_OBJECT
  5
1A8E9
330
2E
100
AcDbProxyObject
 90
      499
 91
      509
 95
       25
 70
     0
 93
      108
310
000101421053521310D05310D010
330
2E
 94
        0
  0
ACAD_PROXY_OBJECT
  5
1A8EA
330
2E
100
AcDbProxyObject
 90
      499
 91
      509
 95
       25
 70
     0
 93
      124
310
00010142905354915554D15112535010
330
2E
 94
        0
  0
ACAD_PROXY_OBJECT
  5
1A8EB
330
2E
100
AcDbProxyObject
 90
      499
 91
      509
 95
       25
 70
     0
 93
      132
310
00010143105354D150D51253D391125360
330
2E
 94
        0
  0
ACAD_PROXY_OBJECT
  5
1A8EC
330
2E
100
AcDbProxyObject
 90
      499
 91
      509
 95
       25
 70
     0
 93
      124
310
00010142905355941093D49111549010
330
2E
 94
        0
  0
ACAD_PROXY_OBJECT
  5
1A8ED
330
2E
100
AcDbProxyObject
 90
      499
 91
      509
 95
       25
 70
     0
 93
      116
310
0001014290535115D1D0D3D313D4A0
330
2E
 94
        0
  0
ACAD_PROXY_OBJECT
  5
1A8EE
330
2E
100
AcDbProxyObject
 90
      499
 91
      509
 95
       25
 70
     0
 93
      148
310
00010143505355925155D49151949154D21010
330
2E
 94
        0
  0
ACAD_PROXY_OBJECT
  5
1A8EF
330
2E
100
AcDbProxyObject
 90
      499
 91
      509
 95
       25
 70
     0
 93
      172
310
00010144105350539393D51154149154D15495915010
330
2E
 94
        0
  0
ACAD_PROXY_OBJECT
  5
1A8F0
330
2E
100
AcDbProxyObject
 90
      499
 91
      509
 95
       25
 70
     0
 93
      172
310
00010144105350555513D11253505494905391D15010
330
2E
 94
        0
  0
ACAD_PROXY_OBJECT
  5
1A8F1
330
2E
100
AcDbProxyObject
 90
      499
 91
      509
 95
       25
 70
     0
 93
      124
310
00010142D05351561514915191125360
330
2E
 94
        0
  0
ACAD_PROXY_OBJECT
  5
1A8F2
330
2E
100
AcDbProxyObject
 90
      499
 91
      509
 95
       25
 70
     0
 93
      132
310
00010142D05355105410539393D5115010
330
2E
 94
        0
  0
ACAD_PROXY_OBJECT
  5
1A8F3
330
2E
100
AcDbProxyObject
 90
      499
 91
      509
 95
       25
 70
     0
 93
      108
310
00010142105350555513D0D31010
330
2E
 94
        0
  0
ACAD_PROXY_OBJECT
  5
1A8F4
330
2E
100
AcDbProxyObject
 90
      499
 91
      509
 95
       25
 70
     0
 93
      108
310
00010142105350D3119150551050
330
2E
 94
        0
  0
ACAD_PROXY_OBJECT
  5
1A8F5
330
2E
100
AcDbProxyObject
 90
      499
 91
      509
 95
       25
 70
     0
 93
      108
310
00010142105350D315925155D3F0
330
2E
 94
        0
  0
ACAD_PROXY_OBJECT
  5
1A8F6
330
2E
100
AcDbProxyObject
 90
      499
 91
      509
 95
       25
 70
     0
 93
      148
310
0001014350535212511156915493D112535010
330
2E
 94
        0
  0
ACAD_PROXY_OBJECT
  5
1A8F7
330
2E
100
AcDbProxyObject
 90
      499
 91
      509
 95
       25
 70
     0
 93
      124
310
00010142905352105510D21254D3D010
330
2E
 94
        0
  0
ACAD_PROXY_OBJECT
  5
1A8F8
330
2E
100
AcDbProxyObject
 90
      499
 91
      509
 95
       25
 70
     0
 93
      148
310
00010143905354D25391D31152105513105660
330
2E
 94
        0
  0
ACAD_PROXY_OBJECT
  5
1A8F9
330
2E
100
AcDbProxyObject
 90
      499
 91
      509
 95
       25
 70
     0
 93
      124
310
00010142D0535115D1D193111254D420
330
2E
 94
        0
  0
ACAD_PROXY_OBJECT
  5
1A8FA
330
2E
100
AcDbProxyObject
 90
      499
 91
      509
 95
       25
 70
     0
 93
      100
310
00010142105350555513D213A0
330
2E
 94
        0
  0
ACAD_PROXY_OBJECT
  5
1A8FB
330
2E
100
AcDbProxyObject
 90
      499
 91
      509
 95
       25
 70
     0
 93
      116
310
000101425053521390D3D553951010
330
2E
 94
        0
  0
ACAD_PROXY_OBJECT
  5
1A8FC
330
2E
100
AcDbProxyObject
 90
      499
 91
      509
 95
       25
 70
     0
 93
      108
310
0001014210535213941493D29010
330
2E
 94
        0
  0
ACAD_PROXY_OBJECT
  5
1A8FD
330
2E
100
AcDbProxyObject
 90
      499
 91
      509
 95
       25
 70
     0
 93
      108
310
0001014210535213951654115070
330
2E
 94
        0
  0
ACAD_PROXY_OBJECT
  5
1A8FE
330
2E
100
AcDbProxyObject
 90
      499
 91
      509
 95
       25
 70
     0
 93
      108
310
000101421053521395925155D0F0
330
2E
 94
        0
  0
ACAD_PROXY_OBJECT
  5
1A8FF
330
2E
100
AcDbProxyObject
 90
      499
 91
      509
 95
       25
 70
     0
 93
      140
310
00010143505354D150D51253D390D3D41660
330
2E
 94
        0
  0
ACAD_PROXY_OBJECT
  5
1A900
330
2E
100
AcDbProxyObject
 90
      499
 91
      509
 95
       25
 70
     0
 93
      108
310
00010142105350D3141493D29030
330
2E
 94
        0
  0
ACAD_PROXY_OBJECT
  5
1A901
330
2E
100
AcDbProxyObject
 90
      499
 91
      508
 95
       25
 70
     0
 93
      212
310
00010143905350555513D2105510D21493D500000000000002E400
330
2E
 94
        0
  0
ACAD_PROXY_OBJECT
  5
1A902
330
2E
100
AcDbProxyObject
 90
      499
 91
      509
 95
       25
 70
     0
 93
      156
310
00010143905350555513D2105510D21111551010
330
2E
 94
        0
  0
ACAD_PROXY_OBJECT
  5
1A90E
330
2E
100
AcDbProxyObject
 90
      499
 91
      547
 95
       25
 70
     0
 93
      698
310
0001000000009AA6A9AA4051E576564204D61722032322030303A32323A313320323030362028555443290141CE4B8C8B8C0B8C80518547565204F63742031322031343A32303A323920323031300141CE4B8C8B8C0B8C80
330
2E
330
1A90F
330
1A910
330
1A912
330
0
 94
        0
  0
ACAD_PROXY_OBJECT
  5
1A90F
330
2E
100
AcDbProxyObject
 90
      499
 91
      548
 95
       25
 70
     0
 93
       70
310
0001AAA80820000000
330
2E
330
1A90F
330
1A90F
 94
        0
  0
ACAD_PROXY_OBJECT
  5
1A910
330
2E
100
AcDbProxyObject
 90
      499
 91
      549
 95
       25
 70
     0
 93
       48
310
000100000000
330
2E
330
0
330
1A911
330
0
330
0
 94
        0
  0
ACAD_PROXY_OBJECT
  5
1A911
330
2E
100
AcDbProxyObject
 90
      499
 91
      550
 95
       25
 70
     0
 93
       40
310
000100AAAA
330
2E
330
0
 94
        0
  0
ACAD_PROXY_OBJECT
  5
1A917
330
2E
100
AcDbProxyObject
 90
      499
 91
      522
 95
       25
 70
     0
 93
      180
310
00010143105050D3D35411119390535140504434F4D500
330
2E
 94
        0
  0
ACAD_PROXY_OBJECT
  5
1A918
330
2E
100
AcDbProxyObject
 90
      499
 91
      522
 95
       25
 70
     0
 93
      212
310
0001014390505193D311115491119390535140506466F6C6465720
330
2E
 94
        0
  0
ACAD_PROXY_OBJECT
  5
1A919
330
2E
100
AcDbProxyObject
 90
      499
 91
      522
 95
       25
 70
     0
 93
      180
310
00010143105050539393D1119390535140504284156290
330
2E
 94
        0
  0
ACAD_PROXY_OBJECT
  5
1A91A
330
2E
100
AcDbProxyObject
 90
      499
 91
      522
 95
       25
 70
     0
 93
      436
310
00010143905050D3D35415925155D31254D50052295BD96CA0A90B396CA0A894591A496CA0A8DB691A496CA0A89BA96CA0A95E28F95310
330
2E
 94
        0
  0
ACAD_PROXY_OBJECT
  5
1A91F
330
2E
100
AcDbProxyObject
 90
      499
 91
      555
 95
       25
 70
     0
 93
       32
310
00010000
330
2E
340
1A91C
330
1A921
330
1A91C
 94
        0
  0
ACAD_PROXY_OBJECT
  5
1A920
330
2E
100
AcDbProxyObject
 90
      499
 91
      556
 95
       25
 70
     0
 93
       18
310
000180
330
2E
 94
        0
  0
ACAD_PROXY_OBJECT
  5
1A921
330
2E
100
AcDbProxyObject
 90
      499
 91
      557
 95
       25
 70
     0
 93
      178
310
00010142D6109410CB4CCC8C148C8C9050055401550000
330
2E
330
1A91F
330
1A920
 94
        0
  0
ACAD_PROXY_OBJECT
  5
1A922
330
2E
100
AcDbProxyObject
 90
      499
 91
      558
 95
       25
 70
     0
 93
      178
310
000100AAAAAAB158F76F88DEC790201FFF056420E03C80
330
2E
330
1A921
 94
        0
  0
ACAD_PROXY_OBJECT
  5
1A923
330
2E
100
AcDbProxyObject
 90
      499
 91
      559
 95
       25
 70
     0
 93
      108
310
000190140A000000000000AAAAA0
330
2E
330
1A924
330
1A924
330
1A924
330
1A924
330
1A924
330
0
 94
        0
  0
ACAD_PROXY_OBJECT
  5
1A924
330
2E
100
AcDbProxyObject
 90
      499
 91
      560
 95
       25
 70
     0
 93
       51
310
00010000AAAA80
330
2E
330
1A923
330
1A921
 94
        0
  0
DICTIONARY
  5
40
102
{ACAD_REACTORS
330
3F
102
}
330
3F
100
AcDbDictionary
281
     1
  3
DWGSETTINGS
350
41
  3
FEM
350
69
  3
Shaft
350
56
  3
TRANSSETTINGS
350
4C
  0
ACAD_PROXY_OBJECT
  5
42
102
{ACAD_REACTORS
330
3F
102
}
330
3F
100
AcDbProxyObject
 90
      499
 91
      519
 95
       25
 70
     0
 93
    23232
310
41502491013041105357CC201C00030C011E441013141105357CC603800030C011E441013241105357CCA01400030C011E441013341105357CCE01800030C010D9013441105357CD200C00030C010D9013541105357CD600C00030C010D9013641105357CDA00800030C011E9013741105357CDE01000030C010D901384110
310
5357CE200400030C011E9013941105357CE63F400030C0241102324141505357CC4C201C00030C011E902344141505357CC4C600C00030C010D902495041505357CC4CA01C00030C011E40902304E41505357CC13A01C00030C011E902314E41505357CC53A03800030C011E902324E41505357CC93A01400030C011E90233
310
4E41505357CCD3A01800030C010D902344E41505357CD13A00C00030C010D902354E41505357CD53A00C00030C010D902364E41505357CD93A00800030C011E902374E41505357CDD3A01000030C010D902384E41505357CE13A00400030C011E902394E41505357CE53A3F400030C024110332414E41905357CC4C13A01C0
310
0030C011E90334414E41905357CC4C53A00C00030C010D90349504E41905357CC4C93A01C00030C011E409044B4C494E41505357D0D3200400030C011E42504494E464F42105357D410549151A01000030C010D42D055241484D3541905357D093D4A01C00030C011E425045649455742105357D5925155D4E00400030C011
310
E42D06424548494E4441905357D25395A3F400030C0243505545241494C41505357D514A00C00030C010D4250348494441905357D21251201C00030C011E4250356495341905357D59254E01C00030C011E4250650415244494D42505357D41054911253600C00030C010D4250652454644494D42505357D49151911253601
310
000030C010D425774110531514901348070000C300479034110915312501348000000C0003FFFFFFFD034110921395901398000000C0003FFFFFFFE415092139594D06424548494E448000000C0003FFFFFFFE411093125110234418000000C0003FFFFFFFD03411093D05410234418000000C0003FFFFFFFD03411093D48C
310
9055241484D358010000C30047A411093D48CD055241484D358020000C30047A411093D48D5055241484D358000000C0003FFFFFFFE411093D48DD055241484D3581E0000C30047903411094105410234418000000C0003FFFFFFFD03411094115610234418000000C0003FFFFFFFD034110951112501358000000C0003FFF
310
FFFFD034110D0530C901348000000C0003FFFFFFFE4110D0530CD01348020000C30047A4110D0530D501348070000C30047A4110D0530DD013481E0000C30047A4110D15393901378000000C0003FFFFFFFE4110D15395D01378000000C0003FFFFFFFE4110D312539044B4C494E8000000C0003FFFFFFFE4110D3D38C5013
310
08000000C0003FFFFFFFD034110D3D38C901318000000C0003FFFFFFFD034110D3D38CD01328000000C0003FFFFFFFD034110D3D38D101328000000C0003FFFFFFFD034111115494101348000000C0003FFFFFFFD034111115510501348000000C0003FFFFFFFE4111125051D01358000000C0003FFFFFFFE4111125312501
310
358000000C0003FFFFFFFE411112535410650415244494D8000000C0003FFFFFFFE411112535490652454644494D8000000C0003FFFFFFFE411156135410234418000000C0003FFFFFFFD034111915353901388000000C0003FFFFFFFE415191535413901388030000C3004364151915354D410234418000000C0003FFFFFF
310
FE4151915354D510234418030000C300436415191535593901328000000C0003FFFFFFFE415191535595101328030000C3004364111931055101308000000C0003FFFFFFFD03411194905490234418000000C0003FFFFFFFD034111D49312501358000000C0003FFFFFFFD034111D5931250234418000000C0003FFFFFFFD0
310
34112105510D01388000000C0003FFFFFFFD014112125113901338000000C0003FFFFFFFD034112125115D01338000000C0003FFFFFFFD034112131253901348000000C0003FFFFFFFD01411213D0D3901378000000C0003FFFFFFFE411213D0D5D01378000000C0003FFFFFFFE4112539193D04494E464F8000000C0003FF
310
FFFFFE4113105112501348000000C0003FFFFFFFD034113115051101358000000C0003FFFFFFFE419397D0921395902394E8000000C0003FFFFFFFE419397D0D3D38C502304E8000000C0003FFFFFFFD03419397D0D3D38C902314E8000000C0003FFFFFFFD03419397D0D3D38CD02324E8000000C0003FFFFFFFD03419397
310
D0D3D38D102324E8000000C0003FFFFFFFD03419397D0D15393902374E8000000C0003FFFFFFFE419397D0D15395D02374E8000000C0003FFFFFFFE419397D1125312502354E8000000C0003FFFFFFFE419397D2105510D02384E8000000C0003FFFFFFFD01419397D2125113902334E8000000C0003FFFFFFFD03419397D2
310
125115D02334E8000000C0003FFFFFFFD03419397D3115051102354E8000000C0003FFFFFFFE419397D391D25410349504E8000000C0003FFFFFFFE419397D412105390334414E8000000C0003FFFFFFFE419397D510D3D3902304E8000000C0003FFFFFFFD03419397D5121312502344E8000000C0003FFFFFFFD01419397
310
D5131153902304E8000000C0003FFFFFFFD03419397D516150CD02364E8000000C0003FFFFFFFD03419397D594131250332414E8000000C0003FFFFFFFE411391D25410249508000000C0003FFFFFFFE411410530C9055241484D358010000C30047A411410530CD055241484D358020000C30047A411410530D5055241484
310
D358000000C0003FFFFFFFE411410530DD055241484D3581E0000C30047903411412105390234418000000C0003FFFFFFFE411413D4D3901368070000C30047A419413D4D49151901368050000C30047903411413D4D6101368000000C0003FFFFFFFD03411414D150D0234418000000C0003FFFFFFFD03411490D1D390137
310
8000000C0003FFFFFFFE411490D1D5D01378000000C0003FFFFFFFE4114919112501348000000C0003FFFFFFFD034114945514901348070000C30047903411494D093D01348000000C0003FFFFFFFD034114D09492D01348000000C0003FFFFFFFD014114D0D153901378000000C0003FFFFFFFD034114D150D51013480000
310
00C0003FFFFFFFD014114D15313901378000000C0003FFFFFFFD034114D15315D01378000000C0003FFFFFFFD034114D4D654D01308000000C0003FFFFFFFD034114D51312501348070000C300479034114D6508C501358000000C0003FFFFFFFD034114D6508C901358000000C0003FFFFFFFD034114D6508CD0135802000
310
0C30047A4114D6508D501358070000C300479034114D65353901378000000C0003FFFFFFFD034114D65355D01378000000C0003FFFFFFFD03411510D3D3901308000000C0003FFFFFFFD034115121312501348000000C0003FFFFFFFD01411512550C9055241484D358010000C30047A411512550CD055241484D358020000
310
C30047A411512550D5055241484D358000000C0003FFFFFFFE411512550DD055241484D3581E0000C300479034115131153901308000000C0003FFFFFFFD03415514905253105545241494C8000000C0003FFFFFFFE41151492D3901378000000C0003FFFFFFFD0341151492D5D01378000000C0003FFFFFFFD03411514931
310
2501348000000C0003FFFFFFFD01411516150C501368030000C300436411516150C901368030000C300436411516150CD01368000000C0003FFFFFFFE411516150D501368070000C30047A411516150DD013681E0000C30047A4115925155D04564945578000000C0003FFFFFFFE41159151121034849448000000C0003FFF
310
FFFFD0241159151159035649538000000C0003FFFFFFFD02411594131250232418000000C0003FFFFFFFE4116925690501348000000C0003FFFFFFFD01411354D653501358020000C30047AAAA3F400030C01013F90A4051E4091E40D0D4110D4151E4190D41D1E4391E4791E7F6
340
16
340
16
340
16
340
43
340
16
340
16
340
16
340
44
340
16
340
16
340
44
340
45
340
16
340
16
340
16
340
16
340
43
340
16
340
16
340
16
340
44
340
16
340
16
340
44
340
45
340
16
340
46
340
16
340
16
340
16
340
16
340
16
340
43
340
16
340
16
340
16
340
47
340
15
340
15
340
15
340
15
340
15
340
15
340
15
340
15
340
15
340
15
340
15
340
15
340
15
340
15
340
15
340
15
340
48
340
15
340
15
340
15
340
15
340
15
340
15
340
15
340
15
340
15
340
15
340
15
340
15
340
15
340
15
340
15
340
16
340
15
340
15
340
15
340
15
340
15
340
15
340
15
340
15
340
47
340
15
340
15
340
48
340
15
340
15
340
15
340
15
340
15
340
15
340
15
340
15
340
15
340
48
340
15
340
15
340
15
340
47
340
15
340
15
340
15
340
15
340
15
340
15
340
15
340
15
340
15
340
15
340
15
340
15
340
15
340
15
340
15
340
15
340
15
340
15
340
15
340
48
340
15
340
15
340
48
340
15
340
15
340
16
340
15
340
48
340
15
340
15
340
47
340
15
340
15
340
16
340
15
340
48
340
15
340
15
340
15
340
15
340
15
340
15
340
15
340
15
340
15
340
48
340
15
340
15
340
15
340
15
340
15
340
15
340
15
340
15
340
15
340
15
340
15
340
4B
340
16
 94
        0
  0
ACAD_PROXY_OBJECT
  5
62F
102
{ACAD_REACTORS
330
73
102
}
330
73
100
AcDbProxyObject
 90
      499
 91
      523
 95
       25
 70
     0
 93
      253
310
43D1444494D454E53494F4E2C414D44545F2A5F44494D404A9012A404A9012A0
  0
ACAD_PROXY_OBJECT
  5
630
102
{ACAD_REACTORS
330
73
102
}
330
73
100
AcDbProxyObject
 90
      499
 91
      523
 95
       25
 70
     0
 93
      181
310
43D012A42D05357D191504B505357CA9012A404A9012A8
  0
ACAD_PROXY_OBJECT
  5
631
102
{ACAD_REACTORS
330
73
102
}
330
73
100
AcDbProxyObject
 90
      499
 91
      523
 95
       25
 70
     0
 93
      133
310
43D054841544348404A9012A404A9012A8
  0
ACAD_PROXY_OBJECT
  5
632
102
{ACAD_REACTORS
330
73
102
}
330
73
100
AcDbProxyObject
 90
      499
 91
      523
 95
       25
 70
     0
 93
      549
310
43D044C494E4549CE0B0E138B0A8B4E0B0A8B4E138B105357CE0B105357CE138B0A8B505357CE0B0A8B505357CE139012A404A910494E534552542C5354445041525432448
  0
ACAD_PROXY_OBJECT
  5
633
102
{ACAD_REACTORS
330
73
102
}
330
73
100
AcDbProxyObject
 90
      499
 91
      523
 95
       25
 70
     0
 93
      909
310
43D6641434D46434652414D452C41434D444154554D5441524745542C41434D444154554D49442C41434D57454C4453594D2C41434D5355524653594D2C41434D4645415449442C41434D504152545245462C41434D42414C4C4F4F4E2C414D44544544474553594D404A9012A404A9012A8
  0
XRECORD
  5
1AE9C
102
{ACAD_REACTORS
330
1AE9B
102
}
330
1AE9B
100
AcDbXrecord
280
     1
330
0
330
0
330
0
330
0
330
0
330
0
330
0
330
0
330
0
330
0
330
0
330
0
330
0
330
0
330
0
330
0
330
0
330
0
330
0
330
0
330
0
330
0
330
0
330
0
330
0
330
0
330
0
330
0
330
0
330
0
330
0
330
0
330
0
330
0
330
0
330
0
330
0
330
0
330
0
330
0
330
0
330
0
330
0
330
0
330
0
330
0
330
0
330
0
330
0
330
0
330
0
330
0
330
0
330
0
330
0
330
0
330
0
330
0
330
0
330
0
330
0
330
0
330
0
330
0
330
0
330
0
330
0
330
0
330
0
330
0
330
0
  0
XRECORD
  5
2A41
102
{ACAD_REACTORS
330
2A40
102
}
330
2A40
100
AcDbXrecord
280
     1
  1
LINE
  0

  0
XRECORD
  5
2917
102
{ACAD_REACTORS
330
2916
102
}
330
2916
100
AcDbXrecord
280
     1
  1
25000259__00___
  0

  0
XRECORD
  5
2A3F
102
{ACAD_REACTORS
330
2A3E
102
}
330
2A3E
100
AcDbXrecord
280
     1
  1
110 ^M^J ^M^J ^M^J ^M^J ^M^J ^M^J ^M^J ^M^J ^M^J ^M^J ^M^Jボーリングクイル ^M^J鋼 ^M^J特型 ^M^J直付け ^M^Jストレート ^M^J25 ^M^J2 ^M^J ^M^Jアルミ ^M^J ^M^J
  0

  0
XRECORD
  5
168A
102
{ACAD_REACTORS
330
1688
102
}
330
1688
100
AcDbXrecord
280
     1
  1
1,,,,,,,,,^M^J2,,,,,,,,,^M^J3,,,,,,,,,^M^J4,,,,,,,,,^M^J5,,,,,,,,,^M^J6,,,,,,,,,^M^J7,,,,,,,,,^M^J8,,,,,,,,,^M^J9,,,,,,,,,^M^J10,,,,,,,,,
  0

  0
XRECORD
  5
1689
102
{ACAD_REACTORS
330
1688
102
}
330
1688
100
AcDbXrecord
280
     1
  1
10,10
  0

  0
XRECORD
  5
2919
102
{ACAD_REACTORS
330
2918
102
}
330
2918
100
AcDbXrecord
280
     1
  1
3
  0

  0
ACAD_PROXY_OBJECT
  5
4F
102
{ACAD_REACTORS
330
4E
102
}
330
4E
100
AcDbProxyObject
 90
      499
 91
      521
 95
       25
 70
     0
 93
      157
310
057356C1D77406406AA8FFFFFFFF05DD01009010
330
1F
330
0
330
1A921
 94
        0
  0
ACAD_PROXY_OBJECT
  5
17F
102
{ACAD_REACTORS
330
17E
102
}
330
17E
100
AcDbProxyObject
 90
      499
 91
      526
 95
       25
 70
     0
 93
     2379
310
5DC33333333333309408000000C00040D29254D01640600800030C0200800030C003333333333330940C8121E8720B1B6A9BAB9332A32BC3A29BA3220480A1282C6DA8C868CA6E8C88120286A0B1B6ABB2B63234B733A9BA3220480A1082C6DA92C8A6E8C88120285A0B1B6A230BA3AB6A9BA3220480A1282C6DA849E9AA6E
310
8C88120286A0B1A0B6B3AA34BA3632A9BA3220480A2082DAC8E888CAE8C2D2D8A6F2DAA6E8C88120288A0B6B23A29B2B1BA34B7B729BCB6A9BA3220480A2282DAC8E886CADCE8CAE498D2DCCAA6E8C88120288A0B6B23A2A343932B0B22634B732A9BA3220480A1682DAC8E89CDEE8CAA6E8C88120285A0B1A0B6B3A630BCA
310
9BA3220480A1682C682DACE88D2DAA6E8C88120288A0B1A0B6B3A437B632A1B430B93A29BA3220480C812020
340
180
360
181
360
182
360
183
360
184
360
185
360
186
360
1A926
360
1A927
360
1A928
360
1A92A
360
1A92B
360
1A92C
360
1A932
360
1A933
360
1A934
340
0
340
0
 94
        0
  0
ACAD_PROXY_OBJECT
  5
41
102
{ACAD_REACTORS
330
40
102
}
330
40
100
AcDbProxyObject
 90
      499
 91
      518
 95
       25
 70
     0
 93
     2962
310
4050B44574753455454494E4753A0E8482A68AA6A88882A069492A684A1A0A723A0A92920ACA0A81969B1820C868A9C829C8E82A12686AF87260F862666A8321A2A72224A0A50000000000000122020E868A9C889282A682A106260F86460F8666083A1A2A72224A9AA250000000000000042020C868A9C988A9C940000000
310
00000048808321A2A727A323250000000000000122020E868A9C9E8C8C62940000000000000488083A1A2A727A32319250000000000000122021CC6D0C2DACCCAE4C8D2DADADEC8CA9FC84A1A624A720A92920ACA0A81991A982108698929C8AA8B2A082A0AB098929C8A84A22BA3AAA9A1A0A622A50A0E9882A6A89E84948
310
2A02608426A0A5A2AB24A2ABA7E8120CA0A68682988A0C00800010652455649534941501304154D0D0531150540CC4E8C5085354414E44415244415034A4953425512535154D5105354128285A51509E4ADCD050756455253494F4E4150531352E3030441ED115D1D4D15515125391D4D153911F40
  0
ACAD_PROXY_OBJECT
  5
69
102
{ACAD_REACTORS
330
40
102
}
330
40
100
AcDbProxyObject
 90
      499
 91
      518
 95
       25
 70
     0
 93
      411
310
4050346454D21092DCC6E486DECACC942842630BCA3B937BAB820A8320A6AFA322A0A20F688AE8EA68AA8A8929C8EA68A9C88FA0
  0
ACAD_PROXY_OBJECT
  5
56
102
{ACAD_REACTORS
330
40
102
}
330
40
100
AcDbProxyObject
 90
      499
 91
      518
 95
       25
 70
     0
 93
      583
310
40505536861667421292DCE8CAE4E4EAE0E89FA0484A634B3B43A2634B732A7F21A98D2CED0E898D2DCCAACD2CAEE9FC8229B4B232A7E80A20F688AE8EA68AA8A8929C8EA68A9C88FA
  0
ACAD_PROXY_OBJECT
  5
4C
102
{ACAD_REACTORS
330
40
102
}
330
40
100
AcDbProxyObject
 90
      499
 91
      518
 95
       25
 70
     0
 93
      852
310
4050D5452414E5353455454494E4753A2488A482AE929C8EA8A4829CA69882A8929E9C0C00800050D4F524947494E414C4C595F4F4E0600400028529A7AAA921A2A620A723A0A81A52827212AAA0A48AA68AA4AC8A0C0080001107B44574753455454494E4753454E447D0
  0
ACAD_PROXY_OBJECT
  5
181
330
17F
100
AcDbProxyObject
 90
      499
 91
      527
 95
       25
 70
     0
 93
       86
310
5DEA0C80A0280A0280A034
  0
ACAD_PROXY_OBJECT
  5
182
330
17F
100
AcDbProxyObject
 90
      499
 91
      528
 95
       25
 70
     0
 93
      282
310
5DD0E4050140501405014050140501405014050141101405014041000000000000001000
340
187
 94
        0
  0
ACAD_PROXY_OBJECT
  5
183
330
17F
100
AcDbProxyObject
 90
      499
 91
      529
 95
       25
 70
     0
 93
      323
310
5DCC199999999999E99F91740501405014050140501405014050140501405014050140501405014040
340
0
 94
        0
  0
ACAD_PROXY_OBJECT
  5
184
330
17F
100
AcDbProxyObject
 90
      499
 91
      530
 95
       25
 70
     0
 93
       10
310
5DC0
  0
ACAD_PROXY_OBJECT
  5
185
330
17F
100
AcDbProxyObject
 90
      499
 91
      531
 95
       25
 70
     0
 93
      257
310
5DE0C16A22A7D90F49F80000000000001081400000000000004204010000618000
340
188
340
189
 94
        0
  0
ACAD_PROXY_OBJECT
  5
186
330
17F
100
AcDbProxyObject
 90
      499
 91
      532
 95
       25
 70
     0
 93
     5277
310
5DD06411255115350141236025B6901405014069010000000000000910240690120281A8AA2CA0282484A4BE52028120280A032020000000000001220480D202405044E414D454050496BC914F4051C40640A80000000000004E4090193C3D3C4946284953424C414E4B28504152543A4E414D45292C424C4F434B3A4E414D
310
452C504152543A4E414D45293E3C41435F44455343524950544E3E40480A109A82A88AA492829880A091BBD2F7E80A3A80C81D0E27A15AF46E08A81203480901411393D5115014124A363B7D0147501904A0000000000000F902406428F4F1050D7D393D5114F901202832B22A72227A92028366EF6EE06F582028EA0320B4
310
0000000000001F20480C879E9E20A1AFAB27222FA620A122A61F20240506445020000000000000490201C00030C00010180000000000003E400000000000000F901073D3C4954454D3E4050180000000000003E400000000000000F901073D3C4954454D3E40501800000000000034400000000000000D101073D3C4954454
310
D3E40501800000000000034400000000000000D101073D3C4954454D3E405029010000000000000F9000000000000003E4041CF4F125511534F901418F4F1455164F9014060000000000000F9000000000000003E4041CF4F125511534F901800000000000034400000000000000D101073D3C4954454D3E40640400000000
310
0000003E400000000000000F90288800000000000020810000001800120881A068120480A032208521122080D21480D211480A1485214852050000000000003C2FC000000000000F0BF40600800030C0200400030C00CDCCCCCCCCCCEC3F3373333333333B0FC3333333333330940C80D069014090341504901A1999999999
310
9984A040100006180400800061804010000618008098A02808
340
0
340
0
 94
        0
  0
ACAD_PROXY_OBJECT
  5
1A926
330
17F
100
AcDbProxyObject
 90
      499
 91
      561
 95
       25
 70
     0
 93
     3042
310
5DD9740D29254D064A49535F413342929254D7D512551311505134A49535F42525F5265766973696F6E6C6973744190F4134522028323937783231306D6D2941D29254D7D04D1490E41312028353934783834316D6D2941929254D7D04C50E41332028323937783432306D6D2941929254D7D04CD0F41344C2028323130783
310
239376D6D2941D29254D7D04D1310E41322028343230783539346D6D2941929254D7D04C90F4130202838343178313138396D6D2941929254D7D04C10243129254C82557247A25E4C81050A4A49535F5449544C454143129254C82557247A25E4C81090A4A49535F5449544C45424110E979A97F0838A835883675F42525F4
310
4D29254D7D09497D4995D9A5CDA5BDB9B1A5CDD10E979A97F0838A835883675F54525F44D29254D7D51497D4995D9A5CDA5BDB9B1A5CDD10E979A97F0838A835883675F424C5F44D29254D7D09317D4995D9A5CDA5BDB9B1A5CDD10E979A97F0838A835883675F544C5F44D29254D7D51317D4995D9A5CDA5BDB9B1A5CDD00
  0
ACAD_PROXY_OBJECT
  5
1A927
330
17F
100
AcDbProxyObject
 90
      499
 91
      562
 95
       25
 70
     0
 93
      898
310
5DC4000000000000124048CF4F11115510525317D3105091530F880A0F11115510525317D05094D4D0D053114F8A50241C9A9999999999B93F26A666666666724FC000000000000E03F400000000000000400000000000000510000000000000024408070000C300000000000000049000
340
16
340
180
 94
        0
  0
ACAD_PROXY_OBJECT
  5
1A928
330
17F
100
AcDbProxyObject
 90
      499
 91
      563
 95
       25
 70
     0
 93
      823
310
5DC0B00000000000002480959E9E29A2A1AA24A7A72FA620A122A62FA324A929AA1F169E29A2A1AA24A7A72FA620A122A62FA620A9AA1F000000000000048803FFFE01C00030C008140380006180000000000000048800000000000000A2000000000000002480
340
652
340
180
 94
        0
  0
ACAD_PROXY_OBJECT
  5
1A92A
330
17F
100
AcDbProxyObject
 90
      499
 91
      564
 95
       25
 70
     0
 93
      152
310
5DE8273108AC1C5A0640A3D0A5723F0BD1F200
  0
ACAD_PROXY_OBJECT
  5
1A92B
330
17F
100
AcDbProxyObject
 90
      499
 91
      565
 95
       25
 70
     0
 93
       14
310
5DE0
340
0
 94
        0
  0
ACAD_PROXY_OBJECT
  5
1A92C
330
17F
100
AcDbProxyObject
 90
      499
 91
      566
 95
       25
 70
     0
 93
     6059
310
5DD084050BA4050AA405024050E836583938376838C815B83672031405983D3C486F6C653A6469613E3C696628657175616C28486F6C653A7465726D696E6174696F6E2C223022292C2220905B82B320222C22208368838A838B22293E3C696628657175616C28486F6C653A7465726D696E6174696F6E2C223022292C486F
310
6C653A64657074682C2222293E2C203C486F6C653A63746469613E2082B482AE82E882CC905B82B3203C486F6C653A637464657074683E406901405034050E836583938376838C815B83672031405EF3D3C486F6C653A6374616E676C653E252564202525633C486F6C653A63746469613E208E4D8C8A2C203C69662865717
310
5616C28486F6C653A7461707065642C223022292C22252563222C486F6C653A6E6F6D696E616C202220782022293E3C696628657175616C28486F6C653A7461707065642C223022292C486F6C653A6469612C486F6C653A706974636864657363293E203C696628657175616C28486F6C653A7465726D696E6174696F6E2C2
310
23022292C22905B82B320222C222022293E3C696628657175616C28486F6C653A7465726D696E6174696F6E2C223022292C486F6C653A64657074682C2222293E406901405014050E836583938376838C815B83672031405C73D3C696628657175616C28486F6C653A7461707065642C223022292C22252563222C486F6C65
310
3A6E6F6D696E616C202220782022293E3C696628657175616C28486F6C653A7461707065642C223022292C486F6C653A6469612C486F6C653A706974636864657363293E203C696628657175616C28486F6C653A7465726D696E6174696F6E2C223022292C22905B82B320222C222022293E3C696628657175616C28486F6C
310
653A7465726D696E6174696F6E2C223022292C486F6C653A64657074682C2222293E4069014051E4090E836583938376838C815B83672032405173D3C535444503A444553433E203C535444503A5354443E40690E836583938376838C815B836720314050C3D3C535444503A444553433E40690240515AAABBA120
360
1A930
330
1A930
360
1A931
330
1A931
360
1A92F
330
1A92F
360
1A92E
360
1A92D
330
1A92E
330
1A92D
 94
        0
  0
ACAD_PROXY_OBJECT
  5
1A932
330
17F
100
AcDbProxyObject
 90
      499
 91
      568
 95
       25
 70
     0
 93
       26
310
5DD02A80
340
42
 94
        0
  0
ACAD_PROXY_OBJECT
  5
1A933
330
17F
100
AcDbProxyObject
 90
      499
 91
      569
 95
       25
 70
     0
 93
      250
310
5DD020000000000000A1000000000000002440408F0F9023C3E409A0DCFFFF80
340
58
340
1B97
340
1B98
340
5F
340
60
340
61
340
62
340
63
340
68
340
0
 94
        0
  0
ACAD_PROXY_OBJECT
  5
1A934
330
17F
100
AcDbProxyObject
 90
      499
 91
      570
 95
       25
 70
     0
 93
    13889
310
5DD1D003FFFFFFFD030300030CCCCCCCCCCCC250200800030C01030300030CCCCCCCCCCCC250200800030C00050C8DC0955782CC838A83588367014ED1D15395149050D3CB1294138B0C0B23702555E0B320E2A0D620D9CB11D15395149055160B095CCB0A11D1539354D1C819D95B991A5B5E880CCC0A78000C0000000000
310
00000000000000000000010CCCCCCCCCCCC250200800030C010CCCCCCCCCCCC250200800030C020143CF4F111959985D5B1D151A5D1B194F8050A8C8A8365815B8375838B014E51D15395149050D3CB1294138B0C0B2322A0D96056E0DD60E2CB11D15395149055160B095CCB0A11D1539354D1C819D95B991A5B5E880CCC4
310
A78000C000000000000000000000000000000010CCCCCCCCCCCC250200800030C010CCCCCCCCCCCC250200800030C020143CF4F111959985D5B1D151A5D1B194F90D44111409034110541D0C4350F4050E44D03449074510F000141232D24D7C053247454E545241434F2C4A504E2C302C8CB4935F2C47454E54524154582C
310
25732C2847454E4D53472067656E64696D7A20312900010104002214000281464500A608E8A9CA8A482869E5894A09C5860591914588E8A9CA8A482A8B0584AE658508E8A9C9AA68E40CECADCC8D2DAF4406452029E9E9E27B934B3B4B71F1E24A31427A91424A9A12620A7259427B934B3B4B7149624A9A12620A7259424B
310
A32B6949496111116111711149F1E24BA32B69F00808200111A000140560052F47454E545241434F2C4A504E2C302C582C47454E54524154582C25732C2847454E4D53472067656E64696D7A20332900010100002054000280AC80A5E8E8A9CA8A482869E5894A09C586058B2588E8A9CA8A482A8B0584AE658508E8A9C9AA
310
68E40CECADCC8D2DAF4406852000202000040E800050152014BD1D15395149050D3CB1294138B0C0B148B11D15395149055160B095CCB0A11D1539354D1C819D95B991A5B5E880D8A400040400008250000A0507A6029823A2A72A2920A1A79625282716181641E99623A2A72A2920AA2C1612B9961423A2A726A9A39033B2
310
B73234B6BD101B948000808180105A000140A0F4C053047454E545241434F2C4A504E2C302C83D32C47454E54524154582C25732C2847454E4D53472067656E64696D7A203829000101010020F400028248704B5F00A668E8A9CA8A482869E5894A09C58605921C12D7C588E8A9CA8A482A8B0584AE658508E8A9C9AA68E40
310
CECADCC8D2DAF440646052000200080043280005048B4B8A69014CD1D15395149050D3CB1294138B0C0B22D2E29A4B11D15395149055160B095CCB0A11D1539354D1C819D95B991A5B5E880C8C4A4000400100086D0000A09196926BE029923A2A72A2920A1A796252827161816465A49AF9623A2A72A2920AA2C1612B9961
310
423A2A726A9A39033B2B73234B6BD10189480A02620202080043E80005048D8096DA014CD1D15395149050D3CB1294138B0C0B236025B68B11D15395149055160B095CCB0A11D1539354D1C819D95B991A5B5E880C4D0A4000404140280D0000A190687072706CD06C5069D06B0029DA3A2A72A2920A1A7962528271618164
310
1A1C1C9C1B341B141A741AC1623A2A72A2920AA2C1612B9961423A2A726A9A39033B2B73234B6BD10189A94800080820050EA000143A322A0D0E0E4E0D9A0D8A0D3A0D60053D47454E545241434F2C4A504E2C302C8C8A8343839383668362834E83582C47454E54524154582C25732C2847454E4D53472067656E64696D7A
310
2031372900010105002274000281464500A628E8A9CA8A482869E5894A09C5860591914588E8A9CA8A482A8B0584AE658508E8A9C9AA68E40CECADCC8D2DAF440626C52000202080044A8000504909497CA014CD1D15395149050D3CB1294138B0C0B242525F28B11D15395149055160B095CCB0A11D1539354D1C819D95B9
310
91A5B5E880C4E4A400040418008A521E000000000000001CA040C00000000000034408080000000000006881010000000000000D102040000000000001A204080000000000003440818000000000000728103000000000000125020600000000004028A040000000000000034408000000000000004881000000000000000D
310
102000000000000001A204000000000000003440818000000000000508143C0000000000000039408180000000000006881030000000000000D102060000000000001A2040C00000000000034408180000000000006881030000000000000E5020600000000000024A040C0000000000805140800000000000000688100000
310
00000000009102000000000000001A2040000000000000034408180000000000006881030000000000000A10284220000000878000002020000008380000020400000081800000208000000828000002028900000000
340
0
340
0
340
0
340
0
340
180
340
180
 94
        0
  0
ACAD_PROXY_OBJECT
  5
1A930
330
1A92C
100
AcDbProxyObject
 90
      499
 91
      567
 95
       25
 70
     0
 93
     1376
310
5DE0143A0D960E4E0DDA0E32056E0D9C80C405983D3C486F6C653A6469613E3C696628657175616C28486F6C653A7465726D696E6174696F6E2C223022292C2220905B82B320222C22208368838A838B22293E3C696628657175616C28486F6C653A7465726D696E6174696F6E2C223022292C486F6C653A64657074682C22
310
22293E2C203C486F6C653A63746469613E2082B482AE82E882CC905B82B3203C486F6C653A637464657074683E
  0
ACAD_PROXY_OBJECT
  5
1A931
330
1A92C
100
AcDbProxyObject
 90
      499
 91
      567
 95
       25
 70
     0
 93
     2072
310
5DE0143A0D960E4E0DDA0E32056E0D9C80C405EF3D3C486F6C653A6374616E676C653E252564202525633C486F6C653A63746469613E208E4D8C8A2C203C696628657175616C28486F6C653A7461707065642C223022292C22252563222C486F6C653A6E6F6D696E616C202220782022293E3C696628657175616C28486F6C
310
653A7461707065642C223022292C486F6C653A6469612C486F6C653A706974636864657363293E203C696628657175616C28486F6C653A7465726D696E6174696F6E2C223022292C22905B82B320222C222022293E3C696628657175616C28486F6C653A7465726D696E6174696F6E2C223022292C486F6C653A6465707468
310
2C2222293E
  0
ACAD_PROXY_OBJECT
  5
1A92F
330
1A92C
100
AcDbProxyObject
 90
      499
 91
      567
 95
       25
 70
     0
 93
     1752
310
5DE0143A0D960E4E0DDA0E32056E0D9C80C405C73D3C696628657175616C28486F6C653A7461707065642C223022292C22252563222C486F6C653A6E6F6D696E616C202220782022293E3C696628657175616C28486F6C653A7461707065642C223022292C486F6C653A6469612C486F6C653A706974636864657363293E20
310
3C696628657175616C28486F6C653A7465726D696E6174696F6E2C223022292C22905B82B320222C222022293E3C696628657175616C28486F6C653A7465726D696E6174696F6E2C223022292C486F6C653A64657074682C2222293E
  0
ACAD_PROXY_OBJECT
  5
1A92E
330
1A92C
100
AcDbProxyObject
 90
      499
 91
      567
 95
       25
 70
     0
 93
      344
310
5DE0143A0D960E4E0DDA0E32056E0D9C80C805173D3C535444503A444553433E203C535444503A5354443E
  0
ACAD_PROXY_OBJECT
  5
1A92D
330
1A92C
100
AcDbProxyObject
 90
      499
 91
      567
 95
       25
 70
     0
 93
      256
310
5DE0143A0D960E4E0DDA0E32056E0D9C80C4050C3D3C535444503A444553433E
  0
ENDSEC
  0
EOF
