  0
SECTION
  2
HEADER
  9
$ACADVER
  1
AC1015
  9
$ACADMAINTVER
 70
     6
  9
$DWGCODEPAGE
  3
ANSI_932
  9
$INSBASE
 10
0.0
 20
0.0
 30
0.0
  9
$EXTMIN
 10
-85.90656678922184
 20
-93.74703457004245
 30
0.0
  9
$EXTMAX
 10
130.4588124887482
 20
26.22957784040194
 30
0.0
  9
$LIMMIN
 10
0.0
 20
0.0
  9
$LIMMAX
 10
420.0
 20
297.0
  9
$ORTHOMODE
 70
     0
  9
$REGENMODE
 70
     1
  9
$FILLMODE
 70
     1
  9
$QTEXTMODE
 70
     0
  9
$MIRRTEXT
 70
     1
  9
$LTSCALE
 40
1.0
  9
$ATTMODE
 70
     1
  9
$TEXTSIZE
 40
4.0
  9
$TRACEWID
 40
1.0
  9
$TEXTSTYLE
  7
STANDARD
  9
$CLAYER
  8
AM_0
  9
$CELTYPE
  6
ByLayer
  9
$CECOLOR
 62
   256
  9
$CELTSCALE
 40
1.0
  9
$DISPSILH
 70
     0
  9
$DIMSCALE
 40
1.0
  9
$DIMASZ
 40
2.5
  9
$DIMEXO
 40
0.0
  9
$DIMDLI
 40
10.0
  9
$DIMRND
 40
0.0
  9
$DIMDLE
 40
0.0
  9
$DIMEXE
 40
1.0
  9
$DIMTP
 40
0.1
  9
$DIMTM
 40
0.1000000001
  9
$DIMTXT
 40
3.8
  9
$DIMCEN
 40
0.0
  9
$DIMTSZ
 40
0.0
  9
$DIMTOL
 70
     0
  9
$DIMLIM
 70
     0
  9
$DIMTIH
 70
     0
  9
$DIMTOH
 70
     0
  9
$DIMSE1
 70
     0
  9
$DIMSE2
 70
     0
  9
$DIMTAD
 70
     3
  9
$DIMZIN
 70
     1
  9
$DIMBLK
  1
Open30
  9
$DIMASO
 70
     1
  9
$DIMSHO
 70
     1
  9
$DIMPOST
  1

  9
$DIMAPOST
  1
"
  9
$DIMALT
 70
     0
  9
$DIMALTD
 70
     2
  9
$DIMALTF
 40
0.0393701
  9
$DIMLFAC
 40
1.0
  9
$DIMTOFL
 70
     1
  9
$DIMTVP
 40
0.0
  9
$DIMTIX
 70
     0
  9
$DIMSOXD
 70
     0
  9
$DIMSAH
 70
     0
  9
$DIMBLK1
  1

  9
$DIMBLK2
  1

  9
$DIMSTYLE
  2
AM_JIS
  9
$DIMCLRD
 70
   256
  9
$DIMCLRE
 70
   256
  9
$DIMCLRT
 70
     2
  9
$DIMTFAC
 40
0.71
  9
$DIMGAP
 40
1.5
  9
$DIMJUST
 70
     0
  9
$DIMSD1
 70
     0
  9
$DIMSD2
 70
     0
  9
$DIMTOLJ
 70
     0
  9
$DIMTZIN
 70
     8
  9
$DIMALTZ
 70
     0
  9
$DIMALTTZ
 70
     0
  9
$DIMUPT
 70
     0
  9
$DIMDEC
 70
     0
  9
$DIMTDEC
 70
     3
  9
$DIMALTU
 70
     2
  9
$DIMALTTD
 70
     2
  9
$DIMTXSTY
  7
STANDARD
  9
$DIMAUNIT
 70
     1
  9
$DIMADEC
 70
     0
  9
$DIMALTRND
 40
0.0
  9
$DIMAZIN
 70
     2
  9
$DIMDSEP
 70
    46
  9
$DIMATFIT
 70
     3
  9
$DIMFRAC
 70
     0
  9
$DIMLDRBLK
  1
Open30
  9
$DIMLUNIT
 70
     2
  9
$DIMLWD
 70
    -1
  9
$DIMLWE
 70
    -1
  9
$DIMTMOVE
 70
     0
  9
$LUNITS
 70
     2
  9
$LUPREC
 70
     4
  9
$SKETCHINC
 40
1.0
  9
$FILLETRAD
 40
0.4
  9
$AUNITS
 70
     0
  9
$AUPREC
 70
     4
  9
$MENU
  1
.
  9
$ELEVATION
 40
0.0
  9
$PELEVATION
 40
0.0
  9
$THICKNESS
 40
0.0
  9
$LIMCHECK
 70
     0
  9
$CHAMFERA
 40
2.0
  9
$CHAMFERB
 40
2.0
  9
$CHAMFERC
 40
20.0
  9
$CHAMFERD
 40
0.0
  9
$SKPOLY
 70
     0
  9
$TDCREATE
 40
2451943.610431667
  9
$TDUCREATE
 40
2451943.235431667
  9
$TDUPDATE
 40
2455482.600389711
  9
$TDUUPDATE
 40
2455482.225389711
  9
$TDINDWG
 40
2.226598831
  9
$TDUSRTIMER
 40
2.2265986574
  9
$USRTIMER
 70
     1
  9
$ANGBASE
 50
0.0
  9
$ANGDIR
 70
     0
  9
$PDMODE
 70
     0
  9
$PDSIZE
 40
0.0
  9
$PLINEWID
 40
0.0
  9
$SPLFRAME
 70
     0
  9
$SPLINETYPE
 70
     6
  9
$SPLINESEGS
 70
     8
  9
$HANDSEED
  5
2128A
  9
$SURFTAB1
 70
     6
  9
$SURFTAB2
 70
     6
  9
$SURFTYPE
 70
     6
  9
$SURFU
 70
     6
  9
$SURFV
 70
     6
  9
$UCSBASE
  2

  9
$UCSNAME
  2

  9
$UCSORG
 10
0.0
 20
0.0
 30
0.0
  9
$UCSXDIR
 10
1.0
 20
0.0
 30
0.0
  9
$UCSYDIR
 10
0.0
 20
1.0
 30
0.0
  9
$UCSORTHOREF
  2

  9
$UCSORTHOVIEW
 70
     0
  9
$UCSORGTOP
 10
0.0
 20
0.0
 30
0.0
  9
$UCSORGBOTTOM
 10
0.0
 20
0.0
 30
0.0
  9
$UCSORGLEFT
 10
0.0
 20
0.0
 30
0.0
  9
$UCSORGRIGHT
 10
0.0
 20
0.0
 30
0.0
  9
$UCSORGFRONT
 10
0.0
 20
0.0
 30
0.0
  9
$UCSORGBACK
 10
0.0
 20
0.0
 30
0.0
  9
$PUCSBASE
  2

  9
$PUCSNAME
  2

  9
$PUCSORG
 10
0.0
 20
0.0
 30
0.0
  9
$PUCSXDIR
 10
1.0
 20
0.0
 30
0.0
  9
$PUCSYDIR
 10
0.0
 20
1.0
 30
0.0
  9
$PUCSORTHOREF
  2

  9
$PUCSORTHOVIEW
 70
     0
  9
$PUCSORGTOP
 10
0.0
 20
0.0
 30
0.0
  9
$PUCSORGBOTTOM
 10
0.0
 20
0.0
 30
0.0
  9
$PUCSORGLEFT
 10
0.0
 20
0.0
 30
0.0
  9
$PUCSORGRIGHT
 10
0.0
 20
0.0
 30
0.0
  9
$PUCSORGFRONT
 10
0.0
 20
0.0
 30
0.0
  9
$PUCSORGBACK
 10
0.0
 20
0.0
 30
0.0
  9
$USERI1
 70
     0
  9
$USERI2
 70
     0
  9
$USERI3
 70
     0
  9
$USERI4
 70
     0
  9
$USERI5
 70
     0
  9
$USERR1
 40
0.0
  9
$USERR2
 40
0.0
  9
$USERR3
 40
0.0
  9
$USERR4
 40
0.0
  9
$USERR5
 40
0.0
  9
$WORLDVIEW
 70
     1
  9
$SHADEDGE
 70
     3
  9
$SHADEDIF
 70
    70
  9
$TILEMODE
 70
     1
  9
$MAXACTVP
 70
    64
  9
$PINSBASE
 10
0.0
 20
0.0
 30
0.0
  9
$PLIMCHECK
 70
     0
  9
$PEXTMIN
 10
1.000000000000000E+20
 20
1.000000000000000E+20
 30
1.000000000000000E+20
  9
$PEXTMAX
 10
-1.000000000000000E+20
 20
-1.000000000000000E+20
 30
-1.000000000000000E+20
  9
$PLIMMIN
 10
0.0
 20
0.0
  9
$PLIMMAX
 10
420.0
 20
297.0
  9
$UNITMODE
 70
     0
  9
$VISRETAIN
 70
     1
  9
$PLINEGEN
 70
     0
  9
$PSLTSCALE
 70
     1
  9
$TREEDEPTH
 70
  3020
  9
$CMLSTYLE
  2
Standard
  9
$CMLJUST
 70
     0
  9
$CMLSCALE
 40
20.0
  9
$PROXYGRAPHICS
 70
     1
  9
$MEASUREMENT
 70
     1
  9
$CELWEIGHT
370
    -1
  9
$ENDCAPS
280
     0
  9
$JOINSTYLE
280
     0
  9
$LWDISPLAY
290
     0
  9
$INSUNITS
 70
     4
  9
$HYPERLINKBASE
  1

  9
$STYLESHEET
  1
sei_cad.ctb
  9
$XEDIT
290
     1
  9
$CEPSNTYPE
380
     0
  9
$PSTYLEMODE
290
     1
  9
$FINGERPRINTGUID
  2
{C77AB3BE-9CA2-11D3-BAF3-006094EB760E}
  9
$VERSIONGUID
  2
{DF47DB95-75C7-40E6-81E0-EE583D48397F}
  9
$EXTNAMES
290
     1
  9
$PSVPSCALE
 40
0.0
  9
$OLESTARTUP
290
     0
  0
ENDSEC
  0
SECTION
  2
CLASSES
  0
CLASS
  1
ACDBDICTIONARYWDFLT
  2
AcDbDictionaryWithDefault
  3
ObjectDBX Classes
 90
        0
280
     0
281
     0
  0
CLASS
  1
ACDBPLACEHOLDER
  2
AcDbPlaceHolder
  3
ObjectDBX Classes
 90
        0
280
     0
281
     0
  0
CLASS
  1
LAYOUT
  2
AcDbLayout
  3
ObjectDBX Classes
 90
        0
280
     0
281
     0
  0
CLASS
  1
ACME_DOCUMENT
  2
AcMeDbDoc
  3
AcMeServices
 90
        0
280
     1
281
     0
  0
CLASS
  1
ACMESCOPE
  2
AcMeScope
  3
AcMeServices
 90
        0
280
     1
281
     0
  0
CLASS
  1
ACMECOMMANDHISTORY
  2
AcMeCommandHistory
  3
AcMeServices
 90
        0
280
     1
281
     0
  0
CLASS
  1
DICTIONARYVAR
  2
AcDbDictionaryVar
  3
ObjectDBX Classes
 90
        0
280
     0
281
     0
  0
CLASS
  1
ACIMSYSVARMAN
  2
AcImSysVarManager
  3
AcMeServices
 90
        0
280
     1
281
     0
  0
CLASS
  1
ACIMREALSYSVAR
  2
AcImRealSysVar
  3
AcMeServices
 90
        0
280
     1
281
     0
  0
CLASS
  1
ACIMINTSYSVAR
  2
AcImIntSysVar
  3
AcMeServices
 90
        0
280
     1
281
     0
  0
CLASS
  1
ACMEDRAWINGMAN
  2
AcMeDrawingMan
  3
AcMeServices
 90
        0
280
     1
281
     0
  0
CLASS
  1
ACMEVIEW
  2
AcMeView
  3
AcMeServices
 90
        0
280
     1
281
     0
  0
CLASS
  1
ACDBENTITYCACHE
  2
AcMeEntityCache
  3
AcMeServices
 90
        0
280
     1
281
     0
  0
CLASS
  1
GSMANAGER
  2
AcMeGSManager
  3
AcMeServices
 90
        0
280
     1
281
     0
  0
CLASS
  1
AMDTINTERNALREACTOR
  2
AmdtInternalReactor
  3
AcMeServices
 90
        0
280
     1
281
     0
  0
CLASS
  1
ACMESTATEMGR
  2
AcMeStateMgr
  3
AcMeServices
 90
        0
280
     1
281
     0
  0
CLASS
  1
ACME_DATABASE
  2
AcMeDbDatabase
  3
AcMeServices
 90
        0
280
     1
281
     0
  0
CLASS
  1
ACRFINSADJUSTERMGR
  2
AcRfInsAdjusterMgr
  3
AcMeServices
 90
        0
280
     1
281
     0
  0
CLASS
  1
AMGSETTINGSOBJ
  2
AmgSettingsObj
  3
"AcadM|Product Description: AutoCAD Mechanical 2000|Company: Autodesk"
 90
        0
280
     1
281
     0
  0
CLASS
  1
AMGOBJPROPCFG
  2
AmgObjPropCfg
  3
"AmgLay|Product Description: AutoCAD Mechanical 2000|Company: Autodesk"
 90
        1
280
     1
281
     0
  0
CLASS
  1
ACMDATADICTIONARY
  2
AcmDataDictionary
  3
"AcmSymBB|Product Description: AutoCAD Mechanical 2004 DX|Company: Autodesk"
 90
        0
280
     1
281
     0
  0
CLASS
  1
ACMDATAENTRYBLOCK
  2
AcmDataEntryBlock
  3
"AcmSymBB|Product Description: AutoCAD Mechanical 2004 DX|Company: Autodesk"
 90
        0
280
     1
281
     0
  0
CLASS
  1
ACIMSTRSYSVAR
  2
AcImStrSysVar
  3
AcMeServices
 90
        0
280
     1
281
     0
  0
CLASS
  1
ACAMGFILTERDAT
  2
AcAmgFilterDat
  3
"AcadM|Product Description: AutoCAD Mechanical 2000|Company: Autodesk"
 90
        0
280
     1
281
     0
  0
CLASS
  1
LAYER_INDEX
  2
AcDbLayerIndex
  3
ObjectDBX Classes
 90
        0
280
     0
281
     0
  0
CLASS
  1
IDBUFFER
  2
AcDbIdBuffer
  3
ObjectDBX Classes
 90
        0
280
     0
281
     0
  0
CLASS
  1
ACMSTANDARDJIS
  2
AcmStandardJIS
  3
"Amdt_StdImp|Product Description: AutoCAD Mechanical 2004 DX|Company: Autodesk"
 90
        0
280
     1
281
     0
  0
CLASS
  1
ACMSURFSTANDARDJIS
  2
AcmSurfTextStdJIS
  3
"Amdt_StdImp|Product Description: AutoCAD Mechanical 2004 DX|Company: Autodesk"
 90
        0
280
     1
281
     0
  0
CLASS
  1
ACMFCFSTANDARDJIS
  2
AcmFCFStdJIS
  3
"Amdt_StdImp|Product Description: AutoCAD Mechanical 2004 DX|Company: Autodesk"
 90
        0
280
     1
281
     0
  0
CLASS
  1
ACMWELDSTANDARDJIS
  2
AcmWeldingStdJIS
  3
"Amdt_StdImp|Product Description: AutoCAD Mechanical 2004 DX|Company: Autodesk"
 90
        0
280
     1
281
     0
  0
CLASS
  1
ACMIDSTANDARDJIS
  2
AcmIdStdJIS
  3
"Amdt_StdImp|Product Description: AutoCAD Mechanical 2004 DX|Company: Autodesk"
 90
        0
280
     1
281
     0
  0
CLASS
  1
ACMDATUMSTANDARDJIS
  2
AcmDatumStdJIS
  3
"Amdt_StdImp|Product Description: AutoCAD Mechanical 2004 DX|Company: Autodesk"
 90
        0
280
     1
281
     0
  0
CLASS
  1
ACMBOMSTANDARDJIS
  2
AcmBOMStdJIS
  3
"Amdt_StdImp|Product Description: AutoCAD Mechanical 2004 DX|Company: Autodesk"
 90
        0
280
     1
281
     0
  0
CLASS
  1
AMDTNOTE
  2
AmdtNote
  3
"AcmSymBB|Product Description: AutoCAD Mechanical 2004 DX|Company: Autodesk"
 90
     1023
280
     1
281
     1
  0
CLASS
  1
TABLESTYLE
  2
AcDbTableStyle
  3
ObjectDBX Classes
 90
     2047
280
     0
281
     0
  0
CLASS
  1
ACGREFMASTER
  2
AcGrefMaster
  3
AcAttribServices
 90
        0
280
     1
281
     0
  0
CLASS
  1
AM_DRAWING_MGR
  2
AcDmDwgMgr
  3
AcMechDwgViewMgmt
 90
        0
280
     1
281
     0
  0
CLASS
  1
AM_DWG_DOCUMENT
  2
AcDmDwgDocument
  3
AcMechDwgViewMgmt
 90
        0
280
     1
281
     0
  0
CLASS
  1
AM_DWG_SHEET
  2
AcDmSheet
  3
AcMechDwgViewMgmt
 90
        0
280
     1
281
     0
  0
CLASS
  1
AM_VIEWDIMPARMAP
  2
AcDmViewDimParMap
  3
AcMechDwgViewMgmt
 90
        0
280
     1
281
     0
  0
CLASS
  1
AM_DWGMGR_NAME
  2
AcDmDwgMgrName
  3
AcMechDwgViewMgmt
 90
        0
280
     1
281
     0
  0
CLASS
  1
ACGREFACADMASTER
  2
AcGrefacadMaster
  3
AcGrefServices
 90
        0
280
     1
281
     0
  0
CLASS
  1
AMDTMENUSTATEMGR
  2
AmdtMenuStateMgr
  3
McadcomServices
 90
        0
280
     1
281
     0
  0
CLASS
  1
AMDTMCOMMENUSTATE
  2
AmdtMcomMenuState
  3
McadcomServices
 90
        0
280
     1
281
     0
  0
CLASS
  1
AMIMASTER
  2
AmiMaster
  3
AmiServices
 90
        0
280
     1
281
     0
  0
CLASS
  1
MAPIAMMOUDLE
  2
MApiAmModule
  3
MApiAmServices
 90
        0
280
     1
281
     0
  0
CLASS
  1
AMDTADMENUSTATE
  2
AmdtAdMenuState
  3
DesignerServices
 90
        0
280
     1
281
     0
  0
CLASS
  1
ADAPPL
  2
AcAdAppl
  3
DesignerServices
 90
        0
280
     1
281
     0
  0
CLASS
  1
DEPMGR
  2
AcAdDepMgr
  3
DesignerServices
 90
        0
280
     1
281
     0
  0
CLASS
  1
PARAMMGR
  2
AcAdParamMgr
  3
DesignerServices
 90
        0
280
     1
281
     0
  0
CLASS
  1
PARAMSCOPE
  2
AcAdParamScope
  3
DesignerServices
 90
        0
280
     1
281
     0
  0
CLASS
  1
NAMEDAPPL
  2
AcAdNamedAppl
  3
DesignerServices
 90
        0
280
     1
281
     0
  0
CLASS
  1
AMDTDMMENUSTATE
  2
AmdtDmMenuState
  3
AcMechDwgViewMgmt
 90
        0
280
     1
281
     0
  0
CLASS
  1
AMDTAMMENUSTATE
  2
AmdtAmMenuState
  3
DesignerAssemblies
 90
        0
280
     1
281
     0
  0
CLASS
  1
ACAMPROJECT
  2
AcAmProject
  3
DesignerAssemblies
 90
        0
280
     1
281
     0
  0
CLASS
  1
ACAMGRCOMPDEF
  2
AcAmGrCompDef
  3
DesignerAssemblies
 90
        0
280
     1
281
     0
  0
CLASS
  1
ACCMCONTEXT
  2
AcCmContext
  3
DesignerAssemblies
 90
        0
280
     1
281
     0
  0
CLASS
  1
ACAMCOMPDEF
  2
AcAmCompDef
  3
DesignerAssemblies
 90
        0
280
     1
281
     0
  0
CLASS
  1
ACAMCOMPDEFMGR
  2
AcAmCompDefMgr
  3
DesignerAssemblies
 90
        0
280
     1
281
     0
  0
CLASS
  1
AMCONTEXTMGR
  2
AcAmContextMgr
  3
DesignerAssemblies
 90
        0
280
     1
281
     0
  0
CLASS
  1
ACAMCONTEXTMODELER
  2
AcAmContextModeler
  3
DesignerAssemblies
 90
        0
280
     1
281
     0
  0
CLASS
  1
ACAMGTITLESTD
  2
AcAmgTitleStd
  3
"TITLEAPP"
 90
        0
280
     1
281
     0
  0
CLASS
  1
ACMDETAILSTANDARDJIS
  2
AmdtDetailSymStdJIS
  3
"Amdt_StdImp|Product Description: AutoCAD Mechanical 2004 DX|Company: Autodesk"
 90
        0
280
     1
281
     0
  0
CLASS
  1
ACMSECTIONSTANDARDJIS
  2
AmdtSectionSymStdJIS
  3
"Amdt_StdImp|Product Description: AutoCAD Mechanical 2004 DX|Company: Autodesk"
 90
        0
280
     1
281
     0
  0
CLASS
  1
ACMCENTERLINESTANDARDJIS
  2
AmdtCenterLineStdJIS
  3
"Amdt_StdImp|Product Description: AutoCAD Mechanical 2004 DX|Company: Autodesk"
 90
        0
280
     1
281
     0
  0
CLASS
  1
ACMTHREADLINESTANDARDJIS
  2
AmdtThreadLineStdJIS
  3
"Amdt_StdImp|Product Description: AutoCAD Mechanical 2004 DX|Company: Autodesk"
 90
        0
280
     1
281
     0
  0
CLASS
  1
ACMNOTESTANDARDJIS
  2
AmdtNoteStdJIS
  3
"Amdt_StdImp|Product Description: AutoCAD Mechanical 2004 DX|Company: Autodesk"
 90
        0
280
     1
281
     0
  0
CLASS
  1
AMDTNOTETEMPLATEDB
  2
AmdtNoteTemplateDB
  3
AMDT_STDIMP_MODULE_NAME
 90
        0
280
     1
281
     0
  0
CLASS
  1
ACAMGLAYSTD
  2
AcAmgLayStd
  3
"AcAmgLayStd|Product Description: AutoCAD Mechanical 2000|Company: Autodesk"
 90
        0
280
     1
281
     0
  0
CLASS
  1
ACAMGDIMSTD
  2
AcAmgDimStd
  3
"AcAmgDimStd|Product Description: AutoCAD Mechanical 2000|Company: Autodesk"
 90
        0
280
     1
281
     0
  0
CLASS
  1
ACAMGHOLECHARTSTDJIS
  2
AcAmgHoleChartStdJIS
  3
ACMSYMBB_MODULE_NAME
 90
        0
280
     1
281
     0
  0
CLASS
  1
CATALOGSTATE
  2
AcAmCatalogState
  3
DesignerAssemblies
 90
        0
280
     1
281
     0
  0
CLASS
  1
ACAMGRCOMPDEFSET
  2
AcAmGrCompDefSet
  3
DesignerAssemblies
 90
        0
280
     1
281
     0
  0
CLASS
  1
AMDTBROWSERDBTAB
  2
AmdtBrowserDbTab
  3
McadcomServices
 90
        0
280
     1
281
     0
  0
CLASS
  1
CBROWSERAPPOBJECT
  2
CBrowserAppObject
  3
McadcomServices
 90
        0
280
     1
281
     0
  0
CLASS
  1
DM_PLACEHOLDER
  2
AcDmSelsetPlaceholder
  3
AcMechDwgViewMgmt
 90
        0
280
     1
281
     0
  0
CLASS
  1
SORTENTSTABLE
  2
AcDbSortentsTable
  3
ObjectDBX Classes
 90
        0
280
     0
281
     0
  0
ENDSEC
  0
SECTION
  2
TABLES
  0
TABLE
  2
VPORT
  5
8
330
0
100
AcDbSymbolTable
 70
     4
  0
VPORT
  5
21282
330
8
100
AcDbSymbolTableRecord
100
AcDbViewportTableRecord
  2
*Active
 70
     0
 10
0.0
 20
0.0
 11
1.0
 21
1.0
 12
41.1042736870163
 22
-33.75490868114184
 13
0.0
 23
0.0
 14
2.5
 24
2.5
 15
10.0
 25
10.0
 16
0.0
 26
0.0
 36
1.0
 17
0.0
 27
0.0
 37
0.0
 40
158.5033241238901
 41
1.610603290676417
 42
50.0
 43
0.0
 44
0.0
 50
0.0
 51
0.0
 71
    16
 72
  2000
 73
     1
 74
     3
 75
     0
 76
     0
 77
     0
 78
     0
281
     0
 65
     1
110
0.0
120
0.0
130
0.0
111
1.0
121
0.0
131
0.0
112
0.0
122
1.0
132
0.0
 79
     0
146
0.0
  0
ENDTAB
  0
TABLE
  2
LTYPE
  5
5
330
0
100
AcDbSymbolTable
 70
    13
  0
LTYPE
  5
14
330
5
100
AcDbSymbolTableRecord
100
AcDbLinetypeTableRecord
  2
ByBlock
 70
     0
  3

 72
    65
 73
     0
 40
0.0
  0
LTYPE
  5
15
330
5
100
AcDbSymbolTableRecord
100
AcDbLinetypeTableRecord
  2
ByLayer
 70
     0
  3

 72
    65
 73
     0
 40
0.0
  0
LTYPE
  5
16
330
5
100
AcDbSymbolTableRecord
100
AcDbLinetypeTableRecord
  2
Continuous
 70
     0
  3
Solid line
 72
    65
 73
     0
 40
0.0
  0
LTYPE
  5
43
330
5
100
AcDbSymbolTableRecord
100
AcDbLinetypeTableRecord
  2
AM_ISO02W050
 70
     0
  3
__ __ __ __ __ __ __ __ __ __ __ __ __ __ __
 72
    65
 73
     2
 40
7.5
 49
6.0
 74
     0
 49
-1.5
 74
     0
  0
LTYPE
  5
44
330
5
100
AcDbSymbolTableRecord
100
AcDbLinetypeTableRecord
  2
AM_ISO08W050
 70
     0
  3
____ . ____ . ____ . ____ . ____ . ____ . ____
 72
    65
 73
     4
 40
18.0
 49
12.0
 74
     0
 49
-1.5
 74
     0
 49
3.0
 74
     0
 49
-1.5
 74
     0
  0
LTYPE
  5
45
330
5
100
AcDbSymbolTableRecord
100
AcDbLinetypeTableRecord
  2
AM_ISO09W050
 70
     0
  3
_____ . . _____ . . _____ . . ____ .. ____
 72
    65
 73
     6
 40
22.5
 49
12.0
 74
     0
 49
-1.5
 74
     0
 49
3.0
 74
     0
 49
-1.5
 74
     0
 49
3.0
 74
     0
 49
-1.5
 74
     0
  0
LTYPE
  5
46
330
5
100
AcDbSymbolTableRecord
100
AcDbLinetypeTableRecord
  2
Amconstr
 70
     0
  3
_______________________
 72
    65
 73
     2
 40
9999.0
 49
9999.0
 74
     0
 49
0.0
 74
     0
  0
LTYPE
  5
47
330
5
100
AcDbSymbolTableRecord
100
AcDbLinetypeTableRecord
  2
AM_ISO02W050x2
 70
     0
  3
 _ _ _ _ _ _ _ _ _ _ _ _
 72
    65
 73
     2
 40
3.75
 49
3.0
 74
     0
 49
-0.75
 74
     0
  0
LTYPE
  5
48
330
5
100
AcDbSymbolTableRecord
100
AcDbLinetypeTableRecord
  2
AM_ISO08W050x2
 70
     0
  3
__ . __ . __ . __ . __ . __
 72
    65
 73
     4
 40
9.0
 49
6.0
 74
     0
 49
-0.75
 74
     0
 49
1.5
 74
     0
 49
-0.75
 74
     0
  0
LTYPE
  5
4B
330
5
100
AcDbSymbolTableRecord
100
AcDbLinetypeTableRecord
  2
Amzigzag
 70
     0
  3
/\/-/\/-/\/-/\/-/\/-/\/
 72
    65
 73
     2
 40
11.0001
 49
0.0001
 74
     4
 75
   135
340
4A
 46
0.04
 50
0.0
 44
0.0
 45
0.0
 49
-11.0
 74
     0
  0
LTYPE
  5
188
330
5
100
AcDbSymbolTableRecord
100
AcDbLinetypeTableRecord
  2
ACJISTGB
 70
     0
  3
__ . . __ . .
 72
    65
 73
     6
 40
9.0
 49
4.0
 74
     0
 49
-1.0
 74
     0
 49
1.0
 74
     0
 49
-1.0
 74
     0
 49
1.0
 74
     0
 49
-1.0
 74
     0
  0
LTYPE
  5
189
330
5
100
AcDbSymbolTableRecord
100
AcDbLinetypeTableRecord
  2
ACJISTGL
 70
     0
  3
_ _ _ _ _
 72
    65
 73
     2
 40
3.0
 49
2.0
 74
     0
 49
-1.0
 74
     0
  0
LTYPE
  5
652
330
5
100
AcDbSymbolTableRecord
100
AcDbLinetypeTableRecord
  2
CENTER
 70
     0
  3
____ _ ____ _ ____ _ ____ _ ____ _ ____ _ ____
 72
    65
 73
     4
 40
17.5
 49
13.0
 74
     0
 49
-1.5
 74
     0
 49
1.5
 74
     0
 49
-1.5
 74
     0
  0
LTYPE
  5
12AB
330
5
100
AcDbSymbolTableRecord
100
AcDbLinetypeTableRecord
  2
HIDDEN
 70
     0
  3
Hidden __ __ __ __ __ __ __ __ __ __ __ __ __ _
 72
    65
 73
     2
 40
0.375
 49
0.25
 74
     0
 49
-0.125
 74
     0
  0
LTYPE
  5
12AC
330
5
100
AcDbSymbolTableRecord
100
AcDbLinetypeTableRecord
  2
PHANTOM2
 70
     0
  3
Phantom (.5x) ___ _ _ ___ _ _ ___ _ _ ___ _ _
 72
    65
 73
     6
 40
1.25
 49
0.625
 74
     0
 49
-0.125
 74
     0
 49
0.125
 74
     0
 49
-0.125
 74
     0
 49
0.125
 74
     0
 49
-0.125
 74
     0
  0
ENDTAB
  0
TABLE
  2
LAYER
  5
2
330
0
100
AcDbSymbolTable
 70
     8
  0
LAYER
  5
10
330
2
100
AcDbSymbolTableRecord
100
AcDbLayerTableRecord
  2
0
 70
     0
 62
     7
  6
Continuous
370
    -3
390
F
  0
LAYER
  5
7D
330
2
100
AcDbSymbolTableRecord
100
AcDbLayerTableRecord
  2
AM_5
 70
     0
 62
     3
  6
Continuous
370
    13
390
F
  0
LAYER
  5
7F
330
2
100
AcDbSymbolTableRecord
100
AcDbLayerTableRecord
  2
Defpoints
 70
     0
 62
     7
  6
Continuous
290
     0
370
    -3
390
F
  0
LAYER
  5
12B1
330
2
100
AcDbSymbolTableRecord
100
AcDbLayerTableRecord
  2
AM_0
 70
     0
 62
     7
  6
Continuous
370
    30
390
F
  0
LAYER
  5
12B2
330
2
100
AcDbSymbolTableRecord
100
AcDbLayerTableRecord
  2
AM_4
 70
     0
 62
     3
  6
Continuous
370
    13
390
F
  0
LAYER
  5
1AFF
330
2
100
AcDbSymbolTableRecord
100
AcDbLayerTableRecord
  2
AM_7
 70
     0
 62
     4
  6
AM_ISO08W050
370
    13
390
F
  0
LAYER
  5
361D
330
2
100
AcDbSymbolTableRecord
100
AcDbLayerTableRecord
  2
AM_11
 70
     0
 62
     3
  6
AM_ISO09W050
370
    13
390
F
  0
ENDTAB
  0
TABLE
  2
STYLE
  5
3
330
0
100
AcDbSymbolTable
 70
     4
  0
STYLE
  5
11
330
3
100
AcDbSymbolTableRecord
100
AcDbTextStyleTableRecord
  2
STANDARD
 70
     0
 40
0.0
 41
1.0
 50
0.0
 71
     0
 42
4.0
  3
ISOCP.SHX
  4
EXTFONT.SHX
  0
STYLE
  5
4A
330
3
100
AcDbSymbolTableRecord
100
AcDbTextStyleTableRecord
  2

 70
     1
 40
0.0
 41
1.0
 50
0.0
 71
     0
 42
2.5
  3
ltypeshp.shx
  4

  0
STYLE
  5
180
330
3
100
AcDbSymbolTableRecord
100
AcDbTextStyleTableRecord
  2
ACJISTS
 70
     0
 40
1.0
 41
1.0
 50
0.0
 71
     0
 42
2.5
  3
isocp.shx
  4
bigfont.shx
  0
STYLE
  5
187
330
3
100
AcDbSymbolTableRecord
100
AcDbTextStyleTableRecord
  2
ACJISGDT
 70
     0
 40
0.0
 41
1.0
 50
0.0
 71
     0
 42
2.5
  3
amgdt.shx
  4

  0
ENDTAB
  0
TABLE
  2
VIEW
  5
6
330
0
100
AcDbSymbolTable
 70
     6
  0
VIEW
  5
A30
330
6
100
AcDbSymbolTableRecord
100
AcDbViewTableRecord
  2
AM_VIEW1
 70
     0
 40
148.5
 10
108.6929657794677
 20
222.75
 41
217.3859315589354
 11
0.0
 21
0.0
 31
1.0
 12
0.0
 22
0.0
 32
0.0
 42
50.0
 43
0.0
 44
0.0
 50
0.0
 71
    16
281
     0
 72
     0
  0
VIEW
  5
A31
330
6
100
AcDbSymbolTableRecord
100
AcDbViewTableRecord
  2
AM_VIEW2
 70
     0
 40
148.5
 10
311.3070342205323
 20
222.75
 41
217.3859315589354
 11
0.0
 21
0.0
 31
1.0
 12
0.0
 22
0.0
 32
0.0
 42
50.0
 43
0.0
 44
0.0
 50
0.0
 71
    16
281
     0
 72
     0
  0
VIEW
  5
A32
330
6
100
AcDbSymbolTableRecord
100
AcDbViewTableRecord
  2
AM_VIEW3
 70
     0
 40
148.5
 10
108.6929657794677
 20
74.25
 41
217.3859315589354
 11
0.0
 21
0.0
 31
1.0
 12
0.0
 22
0.0
 32
0.0
 42
50.0
 43
0.0
 44
0.0
 50
0.0
 71
    16
281
     0
 72
     0
  0
VIEW
  5
A33
330
6
100
AcDbSymbolTableRecord
100
AcDbViewTableRecord
  2
AM_VIEW4
 70
     0
 40
148.5
 10
311.3070342205323
 20
74.25
 41
217.3859315589354
 11
0.0
 21
0.0
 31
1.0
 12
0.0
 22
0.0
 32
0.0
 42
50.0
 43
0.0
 44
0.0
 50
0.0
 71
    16
281
     0
 72
     0
  0
VIEW
  5
A34
330
6
100
AcDbSymbolTableRecord
100
AcDbViewTableRecord
  2
AM_VIEW5
 70
     0
 40
148.5
 10
210.0
 20
148.5
 41
217.3859315589353
 11
0.0
 21
0.0
 31
1.0
 12
0.0
 22
0.0
 32
0.0
 42
50.0
 43
0.0
 44
0.0
 50
0.0
 71
    16
281
     0
 72
     0
  0
VIEW
  5
A35
330
6
100
AcDbSymbolTableRecord
100
AcDbViewTableRecord
  2
AM_VIEW6
 70
     0
 40
296.99703
 10
210.0
 20
148.5
 41
434.7675153992395
 11
0.0
 21
0.0
 31
1.0
 12
0.0
 22
0.0
 32
0.0
 42
50.0
 43
0.0
 44
0.0
 50
0.0
 71
    16
281
     0
 72
     0
  0
ENDTAB
  0
TABLE
  2
UCS
  5
7
330
0
100
AcDbSymbolTable
 70
     0
  0
ENDTAB
  0
TABLE
  2
APPID
  5
9
330
0
100
AcDbSymbolTable
 70
    41
  0
APPID
  5
12
330
9
100
AcDbSymbolTableRecord
100
AcDbRegAppTableRecord
  2
ACAD
 70
     0
  0
APPID
  5
2C
330
9
100
AcDbSymbolTableRecord
100
AcDbRegAppTableRecord
  2
MCAD_NO_VIS
 70
     0
  0
APPID
  5
2D
330
9
100
AcDbSymbolTableRecord
100
AcDbRegAppTableRecord
  2
ACAD_TEMP_GRAPHIC
 70
     0
  0
APPID
  5
B9
330
9
100
AcDbSymbolTableRecord
100
AcDbRegAppTableRecord
  2
GENIUS_GENDTOL_13
 70
     0
  0
APPID
  5
359
330
9
100
AcDbSymbolTableRecord
100
AcDbRegAppTableRecord
  2
GENIUS_GENREC_14
 70
     0
  0
APPID
  5
35A
330
9
100
AcDbSymbolTableRecord
100
AcDbRegAppTableRecord
  2
GENIUS_GENODEF_13
 70
     0
  0
APPID
  5
35B
330
9
100
AcDbSymbolTableRecord
100
AcDbRegAppTableRecord
  2
GENIUS_GENOBJ-N-REC_13
 70
     0
  0
APPID
  5
667
330
9
100
AcDbSymbolTableRecord
100
AcDbRegAppTableRecord
  2
GENIUS_GENCFG_13
 70
     0
  0
APPID
  5
668
330
9
100
AcDbSymbolTableRecord
100
AcDbRegAppTableRecord
  2
GENIUS_GENCFG0_13
 70
     0
  0
APPID
  5
669
330
9
100
AcDbSymbolTableRecord
100
AcDbRegAppTableRecord
  2
GENIUS_GENCFG1_13
 70
     0
  0
APPID
  5
66A
330
9
100
AcDbSymbolTableRecord
100
AcDbRegAppTableRecord
  2
GENIUS_GENCFG2_13
 70
     0
  0
APPID
  5
66B
330
9
100
AcDbSymbolTableRecord
100
AcDbRegAppTableRecord
  2
GENIUS_GENCFG3_13
 70
     0
  0
APPID
  5
66C
330
9
100
AcDbSymbolTableRecord
100
AcDbRegAppTableRecord
  2
GENIUS_GENCFG4_13
 70
     0
  0
APPID
  5
A76
330
9
100
AcDbSymbolTableRecord
100
AcDbRegAppTableRecord
  2
GENIUS_GENBLLY_14
 70
     0
  0
APPID
  5
A77
330
9
100
AcDbSymbolTableRecord
100
AcDbRegAppTableRecord
  2
GENIUS_GENOBJ-N-CEN_13
 70
     0
  0
APPID
  5
A83
330
9
100
AcDbSymbolTableRecord
100
AcDbRegAppTableRecord
  2
GENIUS_GENTRA_14
 70
     0
  0
APPID
  5
A8D
330
9
100
AcDbSymbolTableRecord
100
AcDbRegAppTableRecord
  2
GENIUS_GENOBJ-N-TIT_13
 70
     0
  0
APPID
  5
A8E
330
9
100
AcDbSymbolTableRecord
100
AcDbRegAppTableRecord
  2
GENIUS_GENTITLE_13
 70
     0
  0
APPID
  5
A8F
330
9
100
AcDbSymbolTableRecord
100
AcDbRegAppTableRecord
  2
GENIUS_GENOENT_13
 70
     0
  0
APPID
  5
A90
330
9
100
AcDbSymbolTableRecord
100
AcDbRegAppTableRecord
  2
GENIUS_GENOREF_13
 70
     0
  0
APPID
  5
A91
330
9
100
AcDbSymbolTableRecord
100
AcDbRegAppTableRecord
  2
GENIUS_GENOLIS_13
 70
     0
  0
APPID
  5
A92
330
9
100
AcDbSymbolTableRecord
100
AcDbRegAppTableRecord
  2
GENIUS_GENZVEED_13
 70
     0
  0
APPID
  5
A93
330
9
100
AcDbSymbolTableRecord
100
AcDbRegAppTableRecord
  2
GENIUS_GENSCREG_15
 70
     0
  0
APPID
  5
A94
330
9
100
AcDbSymbolTableRecord
100
AcDbRegAppTableRecord
  2
GENIUS_GENOBJ-N-SDF_13
 70
     0
  0
APPID
  5
12B5
330
9
100
AcDbSymbolTableRecord
100
AcDbRegAppTableRecord
  2
GENIUS_GENOBJ-N-RSBK_13
 70
     0
  0
APPID
  5
12B6
330
9
100
AcDbSymbolTableRecord
100
AcDbRegAppTableRecord
  2
GENIUS_GENOBJ-N-LIB_13
 70
     0
  0
APPID
  5
12B7
330
9
100
AcDbSymbolTableRecord
100
AcDbRegAppTableRecord
  2
GENIUS_GENSCALE_13
 70
     0
  0
APPID
  5
12B8
330
9
100
AcDbSymbolTableRecord
100
AcDbRegAppTableRecord
  2
GENIUS_GENOBJ-N-HTC_13
 70
     0
  0
APPID
  5
12B9
330
9
100
AcDbSymbolTableRecord
100
AcDbRegAppTableRecord
  2
GENIUS_GENHATCH_13
 70
     0
  0
APPID
  5
1687
330
9
100
AcDbSymbolTableRecord
100
AcDbRegAppTableRecord
  2
BASE_TYPE
 70
     0
  0
APPID
  5
1ABF
330
9
100
AcDbSymbolTableRecord
100
AcDbRegAppTableRecord
  2
GENIUS_GENFIL_13
 70
     0
  0
APPID
  5
1AC0
330
9
100
AcDbSymbolTableRecord
100
AcDbRegAppTableRecord
  2
GENIUS_GENOBJ-N-CHA_13
 70
     0
  0
APPID
  5
1AE7
330
9
100
AcDbSymbolTableRecord
100
AcDbRegAppTableRecord
  2
GENIUS_GENOBJ-N-FIL_13
 70
     0
  0
APPID
  5
20E9
330
9
100
AcDbSymbolTableRecord
100
AcDbRegAppTableRecord
  2
GENIUS_GENDIMSH_14
 70
     0
  0
APPID
  5
20757
330
9
100
AcDbSymbolTableRecord
100
AcDbRegAppTableRecord
  2
AD_DRAW
 70
     0
  0
APPID
  5
2075A
330
9
100
AcDbSymbolTableRecord
100
AcDbRegAppTableRecord
  2
ACATTRIBSERVICES
 70
     0
  0
APPID
  5
20778
330
9
100
AcDbSymbolTableRecord
100
AcDbRegAppTableRecord
  2
DESIGNERASSEMBLIES
 70
     0
  0
APPID
  5
2078B
330
9
100
AcDbSymbolTableRecord
100
AcDbRegAppTableRecord
  2
ACADM_DIM_EDIT
 70
     0
  0
APPID
  5
2078C
330
9
100
AcDbSymbolTableRecord
100
AcDbRegAppTableRecord
  2
AMDT_DM_ADJ
 70
     0
  0
APPID
  5
20958
330
9
100
AcDbSymbolTableRecord
100
AcDbRegAppTableRecord
  2
ACAD_DSTYLE_DIMTEXT_FILL
 70
     0
  0
APPID
  5
20959
330
9
100
AcDbSymbolTableRecord
100
AcDbRegAppTableRecord
  2
ACAD_PSEXT
 70
     0
  0
ENDTAB
  0
TABLE
  2
DIMSTYLE
  5
A
330
0
100
AcDbSymbolTable
 70
    10
100
AcDbDimStyleTable
  0
DIMSTYLE
105
58
330
A
100
AcDbSymbolTableRecord
100
AcDbDimStyleTableRecord
  2
AM_JIS
 70
     0
  4
"
 41
2.5
 42
0.0
 43
10.0
 44
1.0
 47
0.1
 48
0.1000000001
 73
     0
 74
     0
 77
     3
 78
     1
 79
     2
140
3.8
141
0.0
143
0.0393701
146
0.71
147
1.5
172
     1
176
   256
177
   256
178
     2
179
     2
271
     3
272
     3
275
     1
283
     0
284
     8
340
11
341
59
342
59
371
    -1
372
    -1
  0
DIMSTYLE
105
5F
102
{ACAD_REACTORS
330
20F99
330
20FA0
102
}
330
A
100
AcDbSymbolTableRecord
100
AcDbDimStyleTableRecord
  2
AM_JIS$3
 70
     0
  4
"
 41
2.5
 42
0.0
 43
10.0
 44
1.0
 47
0.1
 48
0.1000000001
 73
     0
 77
     3
 78
     1
 79
     2
140
3.8
141
0.0
143
0.0393701
146
0.71
147
1.5
172
     1
176
   256
177
   256
178
     2
179
     2
271
     3
272
     3
275
     1
283
     0
284
     8
288
     1
289
     0
340
11
341
59
342
59
371
    -1
372
    -1
  0
DIMSTYLE
105
60
330
A
100
AcDbSymbolTableRecord
100
AcDbDimStyleTableRecord
  2
AM_JIS$4
 70
     0
  4
"
 41
2.5
 42
0.0
 43
10.0
 44
1.0
 47
0.1
 48
0.1000000001
 73
     0
 77
     3
 78
     1
 79
     2
140
3.8
141
0.0
143
0.0393701
146
0.71
147
1.5
172
     1
176
   256
177
   256
178
     2
179
     2
271
     3
272
     3
275
     1
283
     0
284
     8
288
     1
289
     0
340
11
341
59
342
59
371
    -1
372
    -1
  0
DIMSTYLE
105
61
330
A
100
AcDbSymbolTableRecord
100
AcDbDimStyleTableRecord
  2
AM_JIS$6
 70
     0
  4
"
 41
2.5
 42
0.0
 43
10.0
 44
1.0
 47
0.1
 48
0.1000000001
 73
     0
 74
     0
 78
     1
 79
     2
140
3.8
141
0.0
143
0.0393701
146
0.71
147
1.5
172
     1
176
   256
177
   256
178
     2
179
     2
271
     3
272
     3
275
     1
283
     0
284
     8
340
11
341
59
342
59
371
    -1
372
    -1
  0
DIMSTYLE
105
62
330
A
100
AcDbSymbolTableRecord
100
AcDbDimStyleTableRecord
  2
AM_JIS$7
 70
     0
  4
"
 41
2.5
 42
0.0
 43
10.0
 44
1.0
 47
0.1
 48
0.1000000001
 73
     0
 74
     0
 77
     3
 78
     1
 79
     2
140
5.0
141
0.0
143
0.0393701
146
0.71
147
1.5
172
     1
176
   256
177
   256
178
     2
179
     2
271
     3
272
     3
275
     1
283
     0
284
     8
340
11
341
59
342
59
371
    -1
372
    -1
  0
DIMSTYLE
105
63
330
A
100
AcDbSymbolTableRecord
100
AcDbDimStyleTableRecord
  2
AM_JIS$SF
 70
     0
  4
"
 41
2.5
 42
1.0
 43
10.0
 44
1.0
 47
0.1
 48
0.1
 73
     0
 74
     0
 75
     1
 76
     1
 77
     3
 78
     8
 79
     2
140
3.5
141
0.0
143
0.0393701
146
0.71
147
1.5
176
   256
177
   256
178
     2
271
     2
272
     3
274
     4
340
11
341
59
342
59
343
59
344
59
371
    -1
372
    -1
  0
DIMSTYLE
105
68
330
A
100
AcDbSymbolTableRecord
100
AcDbDimStyleTableRecord
  2
AM_JIS$SH
 70
     0
  4
"
 41
2.5
 42
1.0
 43
10.0
 44
1.0
 47
0.1
 48
0.1
 73
     0
 74
     0
 75
     1
 76
     1
 77
     3
 78
     8
 79
     2
140
3.5
141
0.0
143
0.0393701
144
2.0
146
0.71
147
1.5
173
     1
176
   256
177
   256
178
     2
271
     2
272
     3
274
     4
340
11
341
59
342
59
343
64
344
59
371
    -1
372
    -1
  0
DIMSTYLE
105
65F
330
A
100
AcDbSymbolTableRecord
100
AcDbDimStyleTableRecord
  2
STANDARD
 70
     0
340
11
  0
DIMSTYLE
105
1B97
102
{ACAD_REACTORS
330
20F95
330
20F9C
330
20F9D
330
20EBD
102
}
330
A
100
AcDbSymbolTableRecord
100
AcDbDimStyleTableRecord
  2
AM_JIS$0
 70
     0
  4
"
 41
2.5
 42
0.0
 43
10.0
 44
1.0
 47
0.1
 48
0.1000000001
 73
     0
 74
     0
 77
     3
 78
     1
 79
     2
140
3.8
141
0.0
143
0.0393701
146
0.71
147
1.5
172
     1
176
     3
177
     3
178
     2
271
     3
272
     3
275
     1
283
     0
284
     8
289
     0
340
11
341
59
342
59
371
    13
372
    13
  0
DIMSTYLE
105
1B98
102
{ACAD_REACTORS
330
20FA1
330
20F97
330
20F9E
102
}
330
A
100
AcDbSymbolTableRecord
100
AcDbDimStyleTableRecord
  2
AM_JIS$2
 70
     0
  4
"
 41
2.5
 42
0.0
 43
10.0
 44
1.0
 47
0.1
 48
0.1000000001
 73
     0
 74
     0
 77
     3
 78
     1
 79
     2
140
3.8
141
0.0
143
0.0393701
146
0.71
147
1.5
172
     1
176
     3
177
     3
178
     2
271
     3
272
     3
275
     1
283
     0
284
     8
289
     0
340
11
341
59
342
59
371
    13
372
    13
  0
ENDTAB
  0
TABLE
  2
BLOCK_RECORD
  5
1
330
0
100
AcDbSymbolTable
 70
    13
  0
BLOCK_RECORD
  5
1F
102
{ACAD_XDICTIONARY
360
165
102
}
330
1
100
AcDbSymbolTableRecord
100
AcDbBlockTableRecord
  2
*Model_Space
340
22
  0
BLOCK_RECORD
  5
1B
330
1
100
AcDbSymbolTableRecord
100
AcDbBlockTableRecord
  2
*Paper_Space
340
1E
  0
BLOCK_RECORD
  5
23
330
1
100
AcDbSymbolTableRecord
100
AcDbBlockTableRecord
  2
*Paper_Space0
340
26
  0
BLOCK_RECORD
  5
59
330
1
100
AcDbSymbolTableRecord
100
AcDbBlockTableRecord
  2
_Open30
340
0
102
{BLKREFS
331
2125C
331
2125D
331
21211
331
21212
331
2121C
331
2121D
331
21229
331
2122A
331
21232
331
21233
331
2123B
331
2123C
331
21244
331
21245
331
21250
331
21251
331
21208
331
21209
102
}
  0
BLOCK_RECORD
  5
64
330
1
100
AcDbSymbolTableRecord
100
AcDbBlockTableRecord
  2
GENAXEH
340
0
  0
BLOCK_RECORD
  5
2076F
330
1
100
AcDbSymbolTableRecord
100
AcDbBlockTableRecord
  2
*U3
340
0
  0
BLOCK_RECORD
  5
20FA2
330
1
100
AcDbSymbolTableRecord
100
AcDbBlockTableRecord
  2
*D4
340
0
  0
BLOCK_RECORD
  5
20FB2
330
1
100
AcDbSymbolTableRecord
100
AcDbBlockTableRecord
  2
*D5
340
0
  0
BLOCK_RECORD
  5
20FBC
330
1
100
AcDbSymbolTableRecord
100
AcDbBlockTableRecord
  2
*D6
340
0
  0
BLOCK_RECORD
  5
20FCA
330
1
100
AcDbSymbolTableRecord
100
AcDbBlockTableRecord
  2
*D7
340
0
  0
BLOCK_RECORD
  5
20FD4
330
1
100
AcDbSymbolTableRecord
100
AcDbBlockTableRecord
  2
*D8
340
0
  0
BLOCK_RECORD
  5
20FE0
330
1
100
AcDbSymbolTableRecord
100
AcDbBlockTableRecord
  2
*D9
340
0
  0
BLOCK_RECORD
  5
20FEA
330
1
100
AcDbSymbolTableRecord
100
AcDbBlockTableRecord
  2
*D10
340
0
  0
BLOCK_RECORD
  5
20FF6
330
1
100
AcDbSymbolTableRecord
100
AcDbBlockTableRecord
  2
*D11
340
0
  0
BLOCK_RECORD
  5
21000
330
1
100
AcDbSymbolTableRecord
100
AcDbBlockTableRecord
  2
*D12
340
0
  0
ENDTAB
  0
ENDSEC
  0
SECTION
  2
BLOCKS
  0
BLOCK
  5
20
330
1F
100
AcDbEntity
  8
0
100
AcDbBlockBegin
  2
*Model_Space
 70
     0
 71
     0
 10
0.0
 20
0.0
 30
0.0
  3
*Model_Space
  1

  0
ENDBLK
  5
21
330
1F
100
AcDbEntity
  8
0
100
AcDbBlockEnd
  0
BLOCK
  5
1C
330
1B
100
AcDbEntity
 67
     1
  8
0
100
AcDbBlockBegin
  2
*Paper_Space
 70
     0
 71
     0
 10
0.0
 20
0.0
 30
0.0
  3
*Paper_Space
  1

  0
ENDBLK
  5
1D
330
1B
100
AcDbEntity
 67
     1
  8
0
100
AcDbBlockEnd
  0
BLOCK
  5
24
330
23
100
AcDbEntity
  8
0
100
AcDbBlockBegin
  2
*Paper_Space0
 70
     0
 71
     0
 10
0.0
 20
0.0
 30
0.0
  3
*Paper_Space0
  1

  0
ENDBLK
  5
25
330
23
100
AcDbEntity
  8
0
100
AcDbBlockEnd
  0
BLOCK
  5
5D
330
59
100
AcDbEntity
  8
0
100
AcDbBlockBegin
  2
_Open30
 70
     0
 71
     0
 10
0.0
 20
0.0
 30
0.0
  3
_Open30
  1

  0
LINE
  5
5A
330
59
100
AcDbEntity
  8
0
 62
     0
370
    -2
100
AcDbLine
 10
-1.0
 20
0.26794919
 30
0.0
 11
0.0
 21
0.0
 31
0.0
  0
LINE
  5
5B
330
59
100
AcDbEntity
  8
0
 62
     0
370
    -2
100
AcDbLine
 10
0.0
 20
0.0
 30
0.0
 11
-1.0
 21
-0.26794919
 31
0.0
  0
LINE
  5
5C
330
59
100
AcDbEntity
  8
0
 62
     0
370
    -2
100
AcDbLine
 10
0.0
 20
0.0
 30
0.0
 11
-1.0
 21
0.0
 31
0.0
  0
ENDBLK
  5
5E
330
59
100
AcDbEntity
  8
0
100
AcDbBlockEnd
  0
BLOCK
  5
66
330
64
100
AcDbEntity
  8
0
100
AcDbBlockBegin
  2
GENAXEH
 70
     0
 71
     0
 10
0.0
 20
0.0
 30
0.0
  3
GENAXEH
  1

  0
LINE
  5
65
330
64
100
AcDbEntity
  8
0
100
AcDbLine
 10
-1.0
 20
0.0
 30
0.0
 11
1.0
 21
0.0
 31
0.0
  0
ENDBLK
  5
67
330
64
100
AcDbEntity
  8
0
100
AcDbBlockEnd
  0
BLOCK
  5
20770
330
2076F
100
AcDbEntity
  8
0
100
AcDbBlockBegin
  2
*U3
 70
     1
 71
     0
 10
0.0
 20
0.0
 30
0.0
  3
*U3
  1

  0
ENDBLK
  5
20771
330
2076F
100
AcDbEntity
  8
0
100
AcDbBlockEnd
  0
BLOCK
  5
21091
330
20FA2
100
AcDbEntity
  8
0
100
AcDbBlockBegin
  2
*D4
 70
     1
 71
     0
 10
0.0
 20
0.0
 30
0.0
  3
*D4
  1

  0
LINE
  5
21255
330
20FA2
100
AcDbEntity
  8
AM_5
 62
     3
370
    13
100
AcDbLine
 10
-50.50035899338826
 20
-0.0162203948042285
 30
0.0
 11
-53.16598923575903
 21
-19.62282232178363
 31
0.0
  0
LINE
  5
21256
330
20FA2
100
AcDbEntity
  8
AM_5
 62
     3
370
    13
100
AcDbLine
 10
-50.50035899338826
 20
-3.338786365380507
 30
0.0
 11
-50.50035899338828
 21
-19.80319650819947
 31
0.0
  0
ARC
  5
21257
330
20FA2
100
AcDbEntity
  8
AM_5
 62
     3
370
    13
100
AcDbCircle
 10
-50.50035899338826
 20
-0.0162203948042285
 30
0.0
 40
18.78697611339524
100
AcDbArc
 50
246.9636094472674
 51
262.2577788435899
  0
LINE
  5
21258
330
20FA2
100
AcDbEntity
  8
AM_5
 62
     3
370
    13
100
AcDbLine
 10
-57.85199759791363
 20
-17.30505729361659
 30
0.0
 11
-66.73247283067784
 21
-13.5288608421245
 31
0.0
  0
ARC
  5
21259
330
20FA2
100
AcDbEntity
  8
AM_5
 62
     3
370
    13
100
AcDbCircle
 10
-50.50035899338826
 20
-0.0162203948042285
 30
0.0
 40
18.78697611339524
100
AcDbArc
 50
246.9977023884003
 51
254.6277406159951
  0
ARC
  5
2125A
330
20FA2
100
AcDbEntity
  8
AM_5
 62
     3
370
    13
100
AcDbCircle
 10
-50.50035899338826
 20
-0.0162203948042285
 30
0.0
 40
18.78697611339524
100
AcDbArc
 50
277.6300382275948
 51
285.2600764551897
  0
ARC
  5
2125B
330
20FA2
100
AcDbEntity
  8
AM_5
 62
     3
370
    13
100
AcDbCircle
 10
-50.50035899338826
 20
-0.0162203948042285
 30
0.0
 40
18.78697611339524
100
AcDbArc
 50
262.2577788435899
 51
270.0
  0
INSERT
  5
2125C
330
20FA2
100
AcDbEntity
  8
AM_5
 62
     3
370
    13
100
AcDbBlockReference
  2
_Open30
 10
-53.03127283305582
 20
-18.63193812529914
 30
0.0
 41
2.5
 42
2.5
 43
2.5
 50
348.4427597297925
  0
INSERT
  5
2125D
330
20FA2
100
AcDbEntity
  8
AM_5
 62
     3
370
    13
100
AcDbBlockReference
  2
_Open30
 10
-50.50035899338827
 20
-18.80319650819947
 30
0.0
 41
2.5
 42
2.5
 43
2.5
 50
183.8150191137974
  0
MTEXT
  5
2125E
330
20FA2
100
AcDbEntity
  8
AM_5
 62
     2
100
AcDbMText
 10
-60.96176185314827
 20
-12.28808696513497
 30
0.0
 40
3.8
 41
0.0
 71
     5
 72
     1
  1
8°
 11
0.9202565008045812
 21
-0.3913156944551391
 31
0.0
 73
     1
 44
1.0
  0
POINT
  5
2125F
330
20FA2
100
AcDbEntity
  8
Defpoints
 62
     0
100
AcDbPoint
 10
-51.34628369735082
 20
-18.78414204000803
 30
0.0
  0
POINT
  5
21260
330
20FA2
100
AcDbEntity
  8
Defpoints
 62
     0
100
AcDbPoint
 10
-49.14888629853311
 20
9.924313262872353
 30
0.0
  0
POINT
  5
21261
330
20FA2
100
AcDbEntity
  8
Defpoints
 62
     0
100
AcDbPoint
 10
-50.50035899338825
 20
16.58829489181179
 30
0.0
  0
POINT
  5
21262
330
20FA2
100
AcDbEntity
  8
Defpoints
 62
     0
100
AcDbPoint
 10
-50.50035899338826
 20
-3.338786365380507
 30
0.0
  0
POINT
  5
21263
330
20FA2
100
AcDbEntity
  8
Defpoints
 62
     0
100
AcDbPoint
 10
-50.44215655306284
 20
0.4118780190344826
 30
0.0
  0
ENDBLK
  5
21092
330
20FA2
100
AcDbEntity
  8
0
100
AcDbBlockEnd
  0
BLOCK
  5
21093
330
20FB2
100
AcDbEntity
  8
0
100
AcDbBlockBegin
  2
*D5
 70
     1
 71
     0
 10
0.0
 20
0.0
 30
0.0
  3
*D5
  1

  0
LINE
  5
2120E
330
20FB2
100
AcDbEntity
  8
AM_5
 62
     3
370
    13
100
AcDbLine
 10
0.0
 20
-55.6787164840176
 30
0.0
 11
-0.0000000000000012
 21
-74.7811900336944
 31
0.0
  0
LINE
  5
2120F
330
20FB2
100
AcDbEntity
  8
AM_5
 62
     3
370
    13
100
AcDbLine
 10
14.99999999999994
 20
-60.4287164840176
 30
0.0
 11
14.99999999999994
 21
-74.7811900336944
 31
0.0
  0
LINE
  5
21210
330
20FB2
100
AcDbEntity
  8
AM_5
 62
     3
370
    13
100
AcDbLine
 10
2.499999999999999
 20
-73.7811900336944
 30
0.0
 11
12.49999999999994
 21
-73.7811900336944
 31
0.0
  0
INSERT
  5
21211
330
20FB2
100
AcDbEntity
  8
AM_5
 62
     3
370
    13
100
AcDbBlockReference
  2
_Open30
 10
-0.0000000000000011
 20
-73.7811900336944
 30
0.0
 41
2.5
 42
2.5
 43
2.5
 50
180.0
  0
INSERT
  5
21212
330
20FB2
100
AcDbEntity
  8
AM_5
 62
     3
370
    13
100
AcDbBlockReference
  2
_Open30
 10
14.99999999999994
 20
-73.7811900336944
 30
0.0
 41
2.5
 42
2.5
 43
2.5
  0
MTEXT
  5
21213
330
20FB2
100
AcDbEntity
  8
AM_5
 62
     2
100
AcDbMText
 10
7.499999999999972
 20
-70.3811900336944
 30
0.0
 40
3.8
 41
0.0
 71
     5
 72
     1
  1
15
 73
     1
 44
1.0
  0
POINT
  5
21214
330
20FB2
100
AcDbEntity
  8
Defpoints
 62
     0
100
AcDbPoint
 10
0.0
 20
-55.6787164840176
 30
0.0
  0
POINT
  5
21215
330
20FB2
100
AcDbEntity
  8
Defpoints
 62
     0
100
AcDbPoint
 10
14.99999999999994
 20
-60.4287164840176
 30
0.0
  0
POINT
  5
21216
330
20FB2
100
AcDbEntity
  8
Defpoints
 62
     0
100
AcDbPoint
 10
14.99999999999994
 20
-73.7811900336944
 30
0.0
  0
ENDBLK
  5
21094
330
20FB2
100
AcDbEntity
  8
0
100
AcDbBlockEnd
  0
BLOCK
  5
21095
330
20FBC
100
AcDbEntity
  8
0
100
AcDbBlockBegin
  2
*D6
 70
     1
 71
     0
 10
0.0
 20
0.0
 30
0.0
  3
*D6
  1

  0
LINE
  5
21217
330
20FBC
100
AcDbEntity
  8
AM_5
 62
     3
370
    13
100
AcDbLine
 10
-5.662006422416139
 20
-55.18335510924521
 30
0.0
 11
-15.9619483423518
 21
-54.28222695627542
 31
0.0
  0
LINE
  5
21218
330
20FBC
100
AcDbEntity
  8
AM_5
 62
     3
370
    13
100
AcDbLine
 10
-3.774423958771251
 20
-55.67871648401759
 30
0.0
 11
-16.02292039189488
 21
-55.67871648401759
 31
0.0
  0
ARC
  5
21219
330
20FBC
100
AcDbEntity
  8
AM_5
 62
     3
370
    13
100
AcDbCircle
 10
0.0000000000000551
 20
-55.67871648401759
 30
0.0
 40
15.02292039189494
100
AcDbArc
 50
155.9084727858664
 51
165.4542363929332
  0
ARC
  5
2121A
330
20FBC
100
AcDbEntity
  8
AM_5
 62
     3
370
    13
100
AcDbCircle
 10
0.0000000000000551
 20
-55.67871648401759
 30
0.0
 40
15.02292039189494
100
AcDbArc
 50
189.5457636070668
 51
199.0915272141337
  0
ARC
  5
2121B
330
20FBC
100
AcDbEntity
  8
AM_5
 62
     3
370
    13
100
AcDbCircle
 10
0.0000000000000551
 20
-55.67871648401759
 30
0.0
 40
15.02292039189494
100
AcDbArc
 50
175.0000000000001
 51
180.0
  0
INSERT
  5
2121C
330
20FBC
100
AcDbEntity
  8
AM_5
 62
     3
370
    13
100
AcDbBlockReference
  2
_Open30
 10
-14.96575364426005
 20
-54.36938269902307
 30
0.0
 41
2.5
 42
2.5
 43
2.5
 50
260.2271181964667
  0
INSERT
  5
2121D
330
20FBC
100
AcDbEntity
  8
AM_5
 62
     3
370
    13
100
AcDbBlockReference
  2
_Open30
 10
-15.02292039189488
 20
-55.67871648401759
 30
0.0
 41
2.5
 42
2.5
 43
2.5
 50
94.77288180353341
  0
MTEXT
  5
2121E
330
20FBC
100
AcDbEntity
  8
AM_5
 62
     2
100
AcDbMText
 10
-14.05190902286032
 20
-57.7289776073945
 30
0.0
 40
3.8
 41
0.0
 71
     5
 72
     1
  1
5°
 73
     1
 44
1.0
  0
POINT
  5
2121F
330
20FBC
100
AcDbEntity
  8
Defpoints
 62
     0
100
AcDbPoint
 10
-14.99750398828846
 20
-54.80521134809519
 30
0.0
  0
POINT
  5
21220
330
20FBC
100
AcDbEntity
  8
Defpoints
 62
     0
100
AcDbPoint
 10
130.4588124887482
 20
-55.67871648401761
 30
0.0
  0
POINT
  5
21221
330
20FBC
100
AcDbEntity
  8
Defpoints
 62
     0
100
AcDbPoint
 10
0.0
 20
-55.67871648401759
 30
0.0
  0
POINT
  5
21222
330
20FBC
100
AcDbEntity
  8
Defpoints
 62
     0
100
AcDbPoint
 10
-5.662006422416139
 20
-55.18335510924521
 30
0.0
  0
POINT
  5
21223
330
20FBC
100
AcDbEntity
  8
Defpoints
 62
     0
100
AcDbPoint
 10
-3.774423958771251
 20
-55.67871648401759
 30
0.0
  0
ENDBLK
  5
21096
330
20FBC
100
AcDbEntity
  8
0
100
AcDbBlockEnd
  0
BLOCK
  5
21097
330
20FCA
100
AcDbEntity
  8
0
100
AcDbBlockBegin
  2
*D7
 70
     1
 71
     0
 10
0.0
 20
0.0
 30
0.0
  3
*D7
  1

  0
LINE
  5
21224
330
20FCA
100
AcDbEntity
  8
AM_5
100
AcDbLine
 10
-85.90656678922184
 20
13.22931467894839
 30
0.0
 11
-62.03884077973276
 21
13.22931467894839
 31
0.0
  0
LINE
  5
21225
330
20FCA
100
AcDbEntity
  8
AM_5
100
AcDbLine
 10
-62.03884077973276
 20
13.22931467894839
 30
0.0
 11
-57.73841556523387
 21
10.58151624733474
 31
0.0
  0
LINE
  5
21226
330
20FCA
100
AcDbEntity
  8
AM_5
100
AcDbLine
 10
-43.26230242154258
 20
1.668483752664596
 30
0.0
 11
-41.13346225335268
 21
0.357743679918979
 31
0.0
  0
MTEXT
  5
21227
330
20FCA
100
AcDbEntity
  8
AM_5
 62
     2
100
AcDbMText
 10
-74.7227037844773
 20
19.79635536136308
 30
0.0
 40
3.8
 41
0.0
 71
     5
 72
     1
  1
最小加工径\P\U+220512
 73
     1
 44
1.0
  0
LINE
  5
21228
330
20FCA
100
AcDbEntity
  8
AM_5
100
AcDbLine
 10
-45.39114258973248
 20
2.979223825410209
 30
0.0
 11
-55.60957539704396
 21
9.270776174589127
 31
0.0
  0
INSERT
  5
21229
330
20FCA
100
AcDbEntity
  8
AM_5
100
AcDbBlockReference
  2
_Open30
 10
-45.39114258973248
 20
2.979223825410209
 30
0.0
 41
2.5
 42
2.5
 43
2.5
 50
148.3791356400483
  0
INSERT
  5
2122A
330
20FCA
100
AcDbEntity
  8
AM_5
100
AcDbBlockReference
  2
_Open30
 10
-55.60957539704396
 20
9.270776174589127
 30
0.0
 41
2.5
 42
2.5
 43
2.5
 50
328.3791356400483
  0
POINT
  5
2122B
330
20FCA
100
AcDbEntity
  8
Defpoints
 62
     0
100
AcDbPoint
 10
-55.60957539704396
 20
9.270776174589127
 30
0.0
  0
POINT
  5
2122C
330
20FCA
100
AcDbEntity
  8
Defpoints
 62
     0
100
AcDbPoint
 10
-45.39114258973248
 20
2.979223825410209
 30
0.0
  0
ENDBLK
  5
21098
330
20FCA
100
AcDbEntity
  8
0
100
AcDbBlockEnd
  0
BLOCK
  5
21099
330
20FD4
100
AcDbEntity
  8
0
100
AcDbBlockBegin
  2
*D8
 70
     1
 71
     0
 10
0.0
 20
0.0
 30
0.0
  3
*D8
  1

  0
LINE
  5
2122D
330
20FD4
100
AcDbEntity
  8
AM_5
 62
     3
370
    13
100
AcDbLine
 10
-3.146326607073377
 20
0.0
 30
0.0
 11
-10.83501031080067
 21
0.0000000000000022
 31
0.0
  0
LINE
  5
2122E
330
20FD4
100
AcDbEntity
  8
AM_5
 62
     3
370
    13
100
AcDbLine
 10
-6.156535901553582
 20
6.000000000000004
 30
0.0
 11
-10.83501031080067
 21
6.000000000000004
 31
0.0
  0
LINE
  5
2122F
330
20FD4
100
AcDbEntity
  8
AM_5
 62
     3
370
    13
100
AcDbLine
 10
-9.835010310800669
 20
-2.499999999999998
 30
0.0
 11
-9.835010310800671
 21
-4.999999999999998
 31
0.0
  0
LINE
  5
21230
330
20FD4
100
AcDbEntity
  8
AM_5
 62
     3
370
    13
100
AcDbLine
 10
-9.835010310800668
 20
8.500000000000004
 30
0.0
 11
-9.835010310800668
 21
11.0
 31
0.0
  0
LINE
  5
21231
330
20FD4
100
AcDbEntity
  8
AM_5
 62
     3
370
    13
100
AcDbLine
 10
-9.835010310800669
 20
0.0000000000000019
 30
0.0
 11
-9.835010310800668
 21
6.000000000000004
 31
0.0
  0
INSERT
  5
21232
330
20FD4
100
AcDbEntity
  8
AM_5
 62
     3
370
    13
100
AcDbBlockReference
  2
_Open30
 10
-9.835010310800669
 20
0.0000000000000019
 30
0.0
 41
2.5
 42
2.5
 43
2.5
 50
90.0
  0
INSERT
  5
21233
330
20FD4
100
AcDbEntity
  8
AM_5
 62
     3
370
    13
100
AcDbBlockReference
  2
_Open30
 10
-9.835010310800668
 20
6.000000000000004
 30
0.0
 41
2.5
 42
2.5
 43
2.5
 50
270.0
  0
MTEXT
  5
21234
330
20FD4
100
AcDbEntity
  8
AM_5
 62
     2
100
AcDbMText
 10
-13.23501031080067
 20
3.000000000000002
 30
0.0
 40
3.8
 41
0.0
 71
     5
 72
     1
  1
6
 11
6.123031769111886E-17
 21
1.0
 31
0.0
 73
     1
 44
1.0
  0
POINT
  5
21235
330
20FD4
100
AcDbEntity
  8
Defpoints
 62
     0
100
AcDbPoint
 10
-3.146326607073377
 20
0.0
 30
0.0
  0
POINT
  5
21236
330
20FD4
100
AcDbEntity
  8
Defpoints
 62
     0
100
AcDbPoint
 10
-6.156535901553582
 20
6.000000000000004
 30
0.0
  0
POINT
  5
21237
330
20FD4
100
AcDbEntity
  8
Defpoints
 62
     0
100
AcDbPoint
 10
-9.835010310800668
 20
6.000000000000004
 30
0.0
  0
ENDBLK
  5
2109A
330
20FD4
100
AcDbEntity
  8
0
100
AcDbBlockEnd
  0
BLOCK
  5
2109B
330
20FE0
100
AcDbEntity
  8
0
100
AcDbBlockBegin
  2
*D9
 70
     1
 71
     0
 10
0.0
 20
0.0
 30
0.0
  3
*D9
  1

  0
LINE
  5
21238
330
20FE0
100
AcDbEntity
  8
AM_5
 62
     3
370
    13
100
AcDbLine
 10
0.0
 20
0.0
 30
0.0
 11
-0.000000000000002
 21
-32.51483003008671
 31
0.0
  0
LINE
  5
21239
330
20FE0
100
AcDbEntity
  8
AM_5
 62
     3
370
    13
100
AcDbLine
 10
125.0
 20
1.999999999999986
 30
0.0
 11
125.0
 21
-32.51483003008671
 31
0.0
  0
LINE
  5
2123A
330
20FE0
100
AcDbEntity
  8
AM_5
 62
     3
370
    13
100
AcDbLine
 10
2.499999999999998
 20
-31.51483003008671
 30
0.0
 11
122.5
 21
-31.51483003008671
 31
0.0
  0
INSERT
  5
2123B
330
20FE0
100
AcDbEntity
  8
AM_5
 62
     3
370
    13
100
AcDbBlockReference
  2
_Open30
 10
-0.0000000000000019
 20
-31.51483003008671
 30
0.0
 41
2.5
 42
2.5
 43
2.5
 50
180.0
  0
INSERT
  5
2123C
330
20FE0
100
AcDbEntity
  8
AM_5
 62
     3
370
    13
100
AcDbBlockReference
  2
_Open30
 10
125.0
 20
-31.51483003008671
 30
0.0
 41
2.5
 42
2.5
 43
2.5
  0
MTEXT
  5
2123D
330
20FE0
100
AcDbEntity
  8
AM_5
 62
     2
100
AcDbMText
 10
62.5
 20
-28.11445601433868
 30
0.0
 40
3.8
 41
0.0
 71
     5
 72
     1
  1
125
 73
     1
 44
1.0
  0
POINT
  5
2123E
330
20FE0
100
AcDbEntity
  8
Defpoints
 62
     0
100
AcDbPoint
 10
0.0
 20
0.0
 30
0.0
  0
POINT
  5
2123F
330
20FE0
100
AcDbEntity
  8
Defpoints
 62
     0
100
AcDbPoint
 10
125.0
 20
1.999999999999986
 30
0.0
  0
POINT
  5
21240
330
20FE0
100
AcDbEntity
  8
Defpoints
 62
     0
100
AcDbPoint
 10
125.0
 20
-31.51483003008671
 30
0.0
  0
ENDBLK
  5
2109C
330
20FE0
100
AcDbEntity
  8
0
100
AcDbBlockEnd
  0
BLOCK
  5
2109D
330
20FEA
100
AcDbEntity
  8
0
100
AcDbBlockBegin
  2
*D10
 70
     1
 71
     0
 10
0.0
 20
0.0
 30
0.0
  3
*D10
  1

  0
LINE
  5
21241
330
20FEA
100
AcDbEntity
  8
AM_5
 62
     3
370
    13
100
AcDbLine
 10
0.4990659233047268
 20
9.924343001102955
 30
0.0
 11
1.205700672456633
 21
23.40773723796845
 31
0.0
  0
LINE
  5
21242
330
20FEA
100
AcDbEntity
  8
AM_5
 62
     3
370
    13
100
AcDbLine
 10
-3.146326607073377
 20
-0.0000000000000002
 30
0.0
 11
-23.46090760671367
 21
0.0
 31
0.0
  0
ARC
  5
21243
330
20FEA
100
AcDbEntity
  8
AM_5
 62
     3
370
    13
100
AcDbCircle
 10
-0.0210468542263069
 20
-0.0000000000000025
 30
0.0
 40
22.43986075248736
100
AcDbArc
 50
93.38656506427284
 51
173.613434935727
  0
INSERT
  5
21244
330
20FEA
100
AcDbEntity
  8
AM_5
 62
     3
370
    13
100
AcDbBlockReference
  2
_Open30
 10
1.153364716213686
 20
22.40910770321387
 30
0.0
 41
2.5
 42
2.5
 43
2.5
 50
0.1932825321363405
  0
INSERT
  5
21245
330
20FEA
100
AcDbEntity
  8
AM_5
 62
     3
370
    13
100
AcDbBlockReference
  2
_Open30
 10
-22.46090760671367
 20
-0.0000000000000018
 30
0.0
 41
2.5
 42
2.5
 43
2.5
 50
266.8067174678635
  0
MTEXT
  5
21246
330
20FEA
100
AcDbEntity
  8
AM_5
 62
     2
100
AcDbMText
 10
-17.8080332384904
 20
18.74357274038064
 30
0.0
 40
3.8
 41
0.0
 71
     5
 72
     1
  1
93°
 11
0.7253743710122885
 21
0.688354575693753
 31
0.0
 73
     1
 44
1.0
  0
POINT
  5
21247
330
20FEA
100
AcDbEntity
  8
Defpoints
 62
     0
100
AcDbPoint
 10
-10.55592335039429
 20
19.81322103549825
 30
0.0
  0
POINT
  5
21248
330
20FEA
100
AcDbEntity
  8
Defpoints
 62
     0
100
AcDbPoint
 10
0.4990659233047268
 20
9.924343001102955
 30
0.0
  0
POINT
  5
21249
330
20FEA
100
AcDbEntity
  8
Defpoints
 62
     0
100
AcDbPoint
 10
-3.146326607073377
 20
-0.0000000000000002
 30
0.0
  0
POINT
  5
2124A
330
20FEA
100
AcDbEntity
  8
Defpoints
 62
     0
100
AcDbPoint
 10
0.3935950683695069
 20
0.0
 30
0.0
  0
POINT
  5
2124B
330
20FEA
100
AcDbEntity
  8
Defpoints
 62
     0
100
AcDbPoint
 10
0.0005403166014162
 20
0.4119077572650838
 30
0.0
  0
ENDBLK
  5
2109E
330
20FEA
100
AcDbEntity
  8
0
100
AcDbBlockEnd
  0
BLOCK
  5
2109F
330
20FF6
100
AcDbEntity
  8
0
100
AcDbBlockBegin
  2
*D11
 70
     1
 71
     0
 10
0.0
 20
0.0
 30
0.0
  3
*D11
  1

  0
LINE
  5
2124C
330
20FF6
100
AcDbEntity
  8
AM_5
100
AcDbLine
 10
74.43743732174582
 20
-1.27767933735727
 30
0.0
 11
73.8332497623277
 21
-3.70357244980975
 31
0.0
  0
LINE
  5
2124D
330
20FF6
100
AcDbEntity
  8
AM_5
100
AcDbLine
 10
78.06256267825451
 20
13.27767933735755
 30
0.0
 11
79.66439605987493
 21
19.70925262481791
 31
0.0
  0
LINE
  5
2124E
330
20FF6
100
AcDbEntity
  8
AM_5
100
AcDbLine
 10
79.66439605987493
 20
19.70925262481791
 30
0.0
 11
88.0073881858592
 21
19.70925262481791
 31
0.0
  0
LINE
  5
2124F
330
20FF6
100
AcDbEntity
  8
AM_5
100
AcDbLine
 10
75.04162488116393
 20
1.148213775095208
 30
0.0
 11
77.45837511883639
 21
10.85178622490508
 31
0.0
  0
INSERT
  5
21250
330
20FF6
100
AcDbEntity
  8
AM_5
100
AcDbBlockReference
  2
_Open30
 10
75.04162488116393
 20
1.148213775095208
 30
0.0
 41
2.5
 42
2.5
 43
2.5
 50
76.01457727291952
  0
INSERT
  5
21251
330
20FF6
100
AcDbEntity
  8
AM_5
100
AcDbBlockReference
  2
_Open30
 10
77.45837511883639
 20
10.85178622490508
 30
0.0
 41
2.5
 42
2.5
 43
2.5
 50
256.0145772729196
  0
MTEXT
  5
21252
330
20FF6
100
AcDbEntity
  8
AM_5
 62
     2
100
AcDbMText
 10
84.58589212286705
 20
23.10925262481791
 30
0.0
 40
3.8
 41
0.0
 71
     5
 72
     1
  1
\U+220510
 73
     1
 44
1.0
  0
POINT
  5
21253
330
20FF6
100
AcDbEntity
  8
Defpoints
 62
     0
100
AcDbPoint
 10
77.45837511883639
 20
10.85178622490508
 30
0.0
  0
POINT
  5
21254
330
20FF6
100
AcDbEntity
  8
Defpoints
 62
     0
100
AcDbPoint
 10
75.04162488116393
 20
1.148213775095208
 30
0.0
  0
ENDBLK
  5
210A0
330
20FF6
100
AcDbEntity
  8
0
100
AcDbBlockEnd
  0
BLOCK
  5
210A1
330
21000
100
AcDbEntity
  8
0
100
AcDbBlockBegin
  2
*D12
 70
     1
 71
     0
 10
0.0
 20
0.0
 30
0.0
  3
*D12
  1

  0
LINE
  5
21205
330
21000
100
AcDbEntity
  8
AM_5
 62
     3
370
    13
100
AcDbLine
 10
71.75
 20
3.602084238343643
 30
0.0
 11
71.75
 21
-12.27725520477257
 31
0.0
  0
LINE
  5
21206
330
21000
100
AcDbEntity
  8
AM_5
 62
     3
370
    13
100
AcDbLine
 10
80.75
 20
3.820550528229653
 30
0.0
 11
80.75
 21
-12.27725520477257
 31
0.0
  0
LINE
  5
21207
330
21000
100
AcDbEntity
  8
AM_5
 62
     3
370
    13
100
AcDbLine
 10
74.25
 20
-11.27725520477257
 30
0.0
 11
78.25
 21
-11.27725520477257
 31
0.0
  0
INSERT
  5
21208
330
21000
100
AcDbEntity
  8
AM_5
 62
     3
370
    13
100
AcDbBlockReference
  2
_Open30
 10
71.75
 20
-11.27725520477257
 30
0.0
 41
2.5
 42
2.5
 43
2.5
 50
180.0
  0
INSERT
  5
21209
330
21000
100
AcDbEntity
  8
AM_5
 62
     3
370
    13
100
AcDbBlockReference
  2
_Open30
 10
80.75
 20
-11.27725520477257
 30
0.0
 41
2.5
 42
2.5
 43
2.5
  0
MTEXT
  5
2120A
330
21000
100
AcDbEntity
  8
AM_5
 62
     2
100
AcDbMText
 10
76.16314079543582
 20
-7.877255204772565
 30
0.0
 40
3.8
 41
0.0
 71
     5
 72
     1
  1
9
 73
     1
 44
1.0
  0
POINT
  5
2120B
330
21000
100
AcDbEntity
  8
Defpoints
 62
     0
100
AcDbPoint
 10
71.75
 20
3.602084238343643
 30
0.0
  0
POINT
  5
2120C
330
21000
100
AcDbEntity
  8
Defpoints
 62
     0
100
AcDbPoint
 10
80.75
 20
3.820550528229653
 30
0.0
  0
POINT
  5
2120D
330
21000
100
AcDbEntity
  8
Defpoints
 62
     0
100
AcDbPoint
 10
80.75
 20
-11.27725520477257
 30
0.0
  0
ENDBLK
  5
210A2
330
21000
100
AcDbEntity
  8
0
100
AcDbBlockEnd
  0
ENDSEC
  0
SECTION
  2
ENTITIES
  0
TEXT
  5
2064E
330
1F
100
AcDbEntity
  8
AM_0
100
AcDbText
 10
10.96758996126431
 20
-93.99506606610548
 30
0.0
 40
5.0
  1
XBPT-210R
 41
0.9615476469366813
100
AcDbText
  0
LINE
  5
20EBC
330
1F
100
AcDbEntity
  8
AM_7
  6
AM_ISO08W050x2
100
AcDbLine
 10
76.25
 20
14.37169208644232
 30
0.0
 11
76.25
 21
-1.870638985540133
 31
0.0
1001
GENIUS_GENODEF_13
1002
{
1000
HIER
1070
     0
1002
}
1002
{
1000
MANEDIT
1070
     0
1002
}
1002
{
1000
NOSEL
1070
     0
1002
}
1002
{
1000
BEHIND
1070
     0
1002
}
1002
{
1000
REACTOR
1002
}
1001
GENIUS_GENOBJ-N-CEN_13
1002
{
1000
OWNER
1000
GEN
1002
}
  0
DIMENSION
  5
20EBD
330
1F
100
AcDbEntity
  8
AM_5
100
AcDbDimension
  2
*D12
 10
80.75
 20
-11.27725520477257
 30
0.0
 11
76.16314079543582
 21
-11.27725520477257
 31
0.0
 70
   160
  1
<>
 71
     5
 42
9.0
  3
AM_JIS$0
100
AcDbAlignedDimension
 13
71.75
 23
3.602084238343643
 33
0.0
 14
80.75
 24
3.820550528229653
 34
0.0
100
AcDbRotatedDimension
1001
ACAD
1000
DSTYLE
1002
{
1070
   271
1070
     0
1002
}
1001
GENIUS_GENDTOL_13
1000

1000
h7
1000

1040
0.0
  0
LINE
  5
20EBE
330
1F
100
AcDbEntity
  8
AM_0
100
AcDbLine
 10
23.31919926284155
 20
-51.1787164840176
 30
0.0
 11
124.5
 21
-51.17871648401761
 31
0.0
  0
LINE
  5
20EBF
330
1F
100
AcDbEntity
  8
AM_0
100
AcDbLine
 10
20.25000000000006
 20
-60.1787164840176
 30
0.0
 11
124.5000000000001
 21
-60.17871648401761
 31
0.0
  0
LINE
  5
20EC0
330
1F
100
AcDbEntity
  8
AM_0
100
AcDbLine
 10
36.65462763176419
 20
11.0
 30
0.0
 11
66.75
 21
10.99999999999999
 31
0.0
  0
LINE
  5
20EC1
330
1F
100
AcDbEntity
  8
AM_0
100
AcDbLine
 10
20.25000000000006
 20
1.0
 30
0.0
 11
66.75
 21
0.9999999999999929
 31
0.0
  0
LINE
  5
20EC2
330
1F
100
AcDbEntity
  8
AM_0
100
AcDbLine
 10
124.0
 20
8.179449471770326
 30
0.0
 11
85.75
 21
8.179449471770329
 31
0.0
  0
LINE
  5
20EC3
330
1F
100
AcDbEntity
  8
AM_0
100
AcDbLine
 10
23.31919926284155
 20
3.82055052822966
 30
0.0
 11
66.75
 21
3.820550528229653
 31
0.0
  0
LINE
  5
20EC4
330
1F
100
AcDbEntity
  8
AM_0
100
AcDbLine
 10
15.00000000000006
 20
-60.1787164840176
 30
0.0
 11
20.00000000000006
 21
-60.1787164840176
 31
0.0
  0
LINE
  5
20EC5
330
1F
100
AcDbEntity
  8
AM_0
100
AcDbLine
 10
19.9646105462885
 20
-54.66420653724271
 30
0.0
 11
17.43495487136573
 21
-54.66420653724271
 31
0.0
  0
LINE
  5
20EC6
330
1F
100
AcDbEntity
  8
AM_0
100
AcDbLine
 10
18.4616322626697
 20
-51.1787164840176
 30
0.0
 11
19.9646105462885
 21
-51.1787164840176
 31
0.0
  0
LINE
  5
20EC7
330
1F
100
AcDbEntity
  8
AM_0
100
AcDbLine
 10
17.77070328828535
 20
1.25
 30
0.0
 11
20.00000000000006
 21
1.25
 31
0.0
  0
LINE
  5
20EC8
330
1F
100
AcDbEntity
  8
AM_0
100
AcDbLine
 10
20.00000000000006
 20
7.520690632574542
 30
0.0
 11
16.70020349745909
 21
7.520690632574542
 31
0.0
  0
LINE
  5
20EC9
330
1F
100
AcDbEntity
  8
AM_0
100
AcDbLine
 10
19.9646105462885
 20
1.359604589273147
 30
0.0
 11
17.43495487136573
 21
1.359604589273147
 31
0.0
  0
LINE
  5
20ECA
330
1F
100
AcDbEntity
  8
AM_0
100
AcDbLine
 10
18.4616322626697
 20
5.668626966597003
 30
0.0
 11
19.9646105462885
 21
5.668626966597003
 31
0.0
  0
LINE
  5
20ECB
330
1F
100
AcDbEntity
  8
AM_0
100
AcDbLine
 10
20.00000000000006
 20
9.957376731932783
 30
0.0
 11
14.99999999999994
 21
9.957376731932783
 31
0.0
  0
LINE
  5
20ECC
330
1F
100
AcDbEntity
  8
AM_0
100
AcDbLine
 10
14.99999999999994
 20
10.61723980706708
 30
0.0
 11
20.00000000000006
 21
10.61723980706708
 31
0.0
  0
LINE
  5
20ECD
330
1F
100
AcDbEntity
  8
AM_0
100
AcDbLine
 10
14.99999999999994
 20
-60.4287164840176
 30
0.0
 11
14.99999999999994
 21
-60.1787164840176
 31
0.0
  0
ELLIPSE
  5
20ECE
330
1F
100
AcDbEntity
  8
AM_0
100
AcDbEllipse
 10
0.3646722697752125
 20
-55.6787164840176
 30
0.0
 11
0.512290821155667
 21
-5.249894392113325
 31
0.0
210
0.0
220
0.0
230
1.0
 40
0.065001603003328
 41
5.3344435335722
 42
6.276842459967365
  0
LINE
  5
20ECF
330
1F
100
AcDbEntity
  8
AM_0
100
AcDbLine
 10
13.13397459621552
 20
-60.9287164840176
 30
0.0
 11
13.13397459621552
 21
-58.69969171642634
 31
0.0
  0
SPLINE
  5
20ED0
330
1F
100
AcDbEntity
  8
AM_0
100
AcDbSpline
210
0.0
220
0.0
230
1.0
 70
    11
 71
     3
 72
    62
 73
    58
 74
     0
 42
0.0000000001
 43
0.0000000001
 40
0.0
 40
0.0
 40
0.0
 40
0.0
 40
0.2844247822944371
 40
0.2844247822944371
 40
0.5688495645888743
 40
0.5688495645888743
 40
1.137699129177749
 40
1.137699129177749
 40
1.421600638326629
 40
1.421600638326629
 40
1.705502147475509
 40
1.705502147475509
 40
1.989403656624389
 40
1.989403656624389
 40
2.273305165773269
 40
2.273305165773269
 40
2.565933982178473
 40
2.565933982178473
 40
2.858562798583678
 40
2.858562798583678
 40
3.443820431394086
 40
3.443820431394086
 40
4.026715705203401
 40
4.026715705203401
 40
4.318163342108058
 40
4.318163342108058
 40
4.609610979012715
 40
4.609610979012715
 40
4.891648488320433
 40
4.891648488320433
 40
5.17368599762815
 40
5.17368599762815
 40
5.455723506935867
 40
5.455723506935867
 40
5.737761016243584
 40
5.737761016243584
 40
6.320279479320815
 40
6.320279479320815
 40
6.611538710859431
 40
6.611538710859431
 40
6.902797942398047
 40
6.902797942398047
 40
7.186286309219749
 40
7.186286309219749
 40
7.469774676041451
 40
7.469774676041451
 40
7.753263042863152
 40
7.753263042863152
 40
8.036751409684854
 40
8.036751409684854
 40
8.319753049538083
 40
8.319753049538083
 40
8.602754689391313
 40
8.602754689391313
 40
8.885756329244543
 40
8.885756329244543
 40
9.168757969097772
 40
9.168757969097772
 40
9.168757969097772
 40
9.168757969097772
 10
2.908074038120788
 20
-60.72466549778414
 30
0.0
 10
2.81326577735598
 20
-60.72466549778414
 30
0.0
 10
2.715256673103625
 20
-60.7272191311896
 30
0.0
 10
2.520284826902241
 20
-60.7376149500771
 30
0.0
 10
2.423319707055043
 20
-60.74544877128869
 30
0.0
 10
2.144214890062244
 20
-60.77490377814806
 30
0.0
 10
1.974138049448868
 20
-60.80263165450586
 30
0.0
 10
1.7724287581255
 20
-60.84155819962203
 30
0.0
 10
1.7093576264121
 20
-60.85495084583039
 30
0.0
 10
1.59844983732404
 20
-60.87995143572474
 30
0.0
 10
1.550609217940462
 20
-60.89153307201167
 30
0.0
 10
1.474364378296059
 20
-60.9105276935349
 30
0.0
 10
1.445890281211007
 20
-60.91794003785751
 30
0.0
 10
1.409489121948866
 20
-60.9273043559443
 30
0.0
 10
1.401566678041831
 20
-60.92924896427999
 30
0.0
 10
1.404023509481363
 20
-60.92790806882604
 30
0.0
 10
1.415036898222468
 20
-60.92442219984318
 30
0.0
 10
1.457650183706164
 20
-60.91172376685219
 30
0.0
 10
1.489232915168145
 20
-60.90251865061345
 30
0.0
 10
1.611700991165947
 20
-60.86840466277474
 30
0.0
 10
1.731665939256232
 20
-60.83677827312198
 30
0.0
 10
2.002990854112341
 20
-60.77693854212063
 30
0.0
 10
2.173647472367293
 20
-60.74442476452484
 30
0.0
 10
2.45531772320652
 20
-60.70905873481399
 30
0.0
 10
2.553441124099379
 20
-60.69949710806955
 30
0.0
 10
2.751513035059759
 20
-60.68669585291013
 30
0.0
 10
2.851466646349195
 20
-60.68347377408389
 30
0.0
 10
3.042628361753316
 20
-60.68347377408389
 30
0.0
 10
3.139492466478714
 20
-60.68649570555672
 30
0.0
 10
3.33122815899543
 20
-60.69879119434589
 30
0.0
 10
3.426102324954343
 20
-60.70805304606625
 30
0.0
 10
3.607036580383806
 20
-60.73113116436247
 30
0.0
 10
3.693279300871552
 20
-60.7449416708173
 30
0.0
 10
3.851978696246988
 20
-60.77431737591806
 30
0.0
 10
3.924439289566237
 20
-60.78985111931715
 30
0.0
 10
4.120215979637806
 20
-60.83553501347751
 30
0.0
 10
4.232950080278897
 20
-60.86786850117662
 30
0.0
 10
4.344156654896494
 20
-60.90244133145396
 30
0.0
 10
4.371930861878639
 20
-60.91171282846003
 30
0.0
 10
4.407599182897911
 20
-60.92445047565937
 30
0.0
 10
4.415479129794676
 20
-60.92791125420942
 30
0.0
 10
4.413029895284637
 20
-60.92924800339267
 30
0.0
 10
4.403094151240509
 20
-60.92731111949999
 30
0.0
 10
4.363728775300785
 20
-60.91798358310518
 30
0.0
 10
4.334302858601632
 20
-60.91059995553385
 30
0.0
 10
4.257057658794167
 20
-60.89165089147636
 30
0.0
 10
4.2091704955252
 20
-60.88008711308967
 30
0.0
 10
4.098674044922689
 20
-60.85508306455159
 30
0.0
 10
4.036056237904688
 20
-60.84166883503298
 30
0.0
 10
3.90275238384902
 20
-60.81568307227138
 30
0.0
 10
3.827542305893189
 20
-60.80220363012711
 30
0.0
 10
3.663746447180188
 20
-60.77686850515397
 30
0.0
 10
3.575163279341098
 20
-60.7650397401913
 30
0.0
 10
3.390315663505135
 20
-60.74538213811363
 30
0.0
 10
3.293898073419712
 20
-60.73755630355066
 30
0.0
 10
3.099944888113328
 20
-60.72719467140681
 30
0.0
 10
3.002407918071924
 20
-60.72466549778414
 30
0.0
 10
2.908074038120788
 20
-60.72466549778414
 30
0.0
  0
LINE
  5
20ED1
330
1F
100
AcDbEntity
  8
AM_0
100
AcDbLine
 10
0.8747882938615135
 20
-60.9287164840176
 30
0.0
 11
1.402759178688257
 21
-60.9287164840176
 31
0.0
  0
LINE
  5
20ED2
330
1F
100
AcDbEntity
  8
AM_0
100
AcDbLine
 10
4.413340641123966
 20
-60.9287164840176
 30
0.0
 11
13.13397459621552
 21
-60.9287164840176
 31
0.0
  0
LINE
  5
20ED3
330
1F
100
AcDbEntity
  8
AM_0
100
AcDbLine
 10
14.99999999999994
 20
-60.4287164840176
 30
0.0
 11
13.13397459621552
 21
-60.9287164840176
 31
0.0
  0
ELLIPSE
  5
20ED4
330
1F
100
AcDbEntity
  8
AM_0
100
AcDbEllipse
 10
3.408430481553808
 20
-55.27056571768239
 30
0.0
 11
-1.494178904502574
 21
0.1320204580339359
 31
0.0
210
0.0
220
0.0
230
0.9999999999999999
 40
0.1386874154720413
 41
0.567246873268797
 42
6.85043218044838
  0
LINE
  5
20ED5
330
1F
100
AcDbEntity
  8
AM_0
100
AcDbLine
 10
0.357896881826548
 20
-58.76449373290689
 30
0.0
 11
2.837341836310998
 21
-58.80265078296887
 31
0.0
  0
LINE
  5
20ED6
330
1F
100
AcDbEntity
  8
AM_0
100
AcDbLine
 10
0.5794813879711569
 20
-55.72318517427641
 30
0.0
 11
5.175198723719291
 21
-55.79391028399652
 31
0.0
  0
LINE
  5
20ED7
330
1F
100
AcDbEntity
  8
AM_0
100
AcDbLine
 10
7.909449437810906
 20
-55.54184267025474
 30
0.0
 11
1.113936768130486
 21
-54.33670625275354
 31
0.0
  0
ELLIPSE
  5
20ED8
330
1F
100
AcDbEntity
  8
AM_0
100
AcDbEllipse
 10
-0.1679633872688555
 20
-38.59619666665253
 30
0.0
 11
24.65700398880798
 21
-8.052018021171499
 31
0.0
210
0.0
220
0.0
230
0.9999999999999999
 40
0.5777483987134818
 41
4.951841487174337
 42
5.177373032975476
  0
SPLINE
  5
20ED9
330
1F
100
AcDbEntity
  8
AM_0
100
AcDbSpline
210
0.0
220
0.0
230
1.0
 70
     8
 71
     3
 72
    16
 73
    12
 74
     0
 42
0.0000000001
 43
0.0000000001
 40
4.895185956505241
 40
4.895185956505241
 40
4.895185956505241
 40
4.895185956505241
 40
6.478147584187873
 40
6.478147584187873
 40
8.42306115670522
 40
8.42306115670522
 40
10.36797472922257
 40
10.36797472922257
 40
12.31288830173992
 40
12.31288830173992
 40
12.96607559116947
 40
12.96607559116947
 40
12.96607559116947
 40
12.96607559116947
 10
0.7982062645214114
 20
-54.21417845869979
 30
0.0
 10
1.359084928303901
 20
-54.26179128419642
 30
0.0
 10
1.910839542131782
 20
-54.28356022218628
 30
0.0
 10
3.086797942198416
 20
-54.28356022218628
 30
0.0
 10
3.764364588630997
 20
-54.25059171150073
 30
0.0
 10
5.1391265930543
 20
-54.10930089821113
 30
0.0
 10
5.836310371188063
 20
-54.0008844612176
 30
0.0
 10
7.212931028824357
 20
-53.71591434662116
 30
0.0
 10
7.892768509057135
 20
-53.53933273644361
 30
0.0
 10
8.766870403028861
 20
-53.27436698199577
 30
0.0
 10
8.983779972142884
 20
-53.20536107414495
 30
0.0
 10
9.197260508975035
 20
-53.13460809025628
 30
0.0
  0
ELLIPSE
  5
20EDA
330
1F
100
AcDbEntity
  8
AM_0
100
AcDbEllipse
 10
-27.13160330062004
 20
-55.67871648401759
 30
0.0
 11
60.00264260606878
 21
-5.19963766539967
 31
0.0
210
0.0
220
0.0
230
1.0
 40
0.0120901910919801
 41
5.205098802064615
 42
5.236337156459715
  0
LINE
  5
20EDB
330
1F
100
AcDbEntity
  8
AM_0
100
AcDbLine
 10
0.4990659233047268
 20
-54.32724378916257
 30
0.0
 11
0.0005403166014162
 21
-55.62051404369228
 31
0.0
  0
LINE
  5
20EDC
330
1F
100
AcDbEntity
  8
AM_0
100
AcDbLine
 10
0.2191115258839886
 20
-57.6879184730997
 30
0.0
 11
0.000044655923034
 21
-55.62420373163346
 31
0.0
  0
ELLIPSE
  5
20EDD
330
1F
100
AcDbEntity
  8
AM_0
100
AcDbEllipse
 10
0.3984776219999162
 20
-55.65789190841733
 30
0.0
 11
-0.3984477078673534
 21
0.03520545547571053
 31
0.0
210
0.0
220
0.0
230
1.0
 40
0.1386874154720414
 41
6.243356797965205
 42
8.337751900358487
  0
LINE
  5
20EDE
330
1F
100
AcDbEntity
  8
AM_0
100
AcDbLine
 10
0.219111525882056
 20
-57.68791847315131
 30
0.0
 11
0.357896881826548
 21
-58.76449373290689
 31
0.0
  0
ELLIPSE
  5
20EDF
330
1F
100
AcDbEntity
  8
AM_0
100
AcDbEllipse
 10
0.89700322870317
 20
-54.36462165388758
 30
0.0
 11
-0.3984477078673535
 21
0.03520545547571054
 31
0.0
210
0.0
220
0.0
230
1.0
 40
0.1386874154720413
 41
4.148961695572181
 42
6.24335679796528
  0
LINE
  5
20EE0
330
1F
100
AcDbEntity
  8
AM_0
100
AcDbLine
 10
0.5349956967585854
 20
-54.2340351221419
 30
0.0
 11
1.160649367332837
 21
-54.34499040392902
 31
0.0
  0
LINE
  5
20EE1
330
1F
100
AcDbEntity
  8
AM_0
100
AcDbLine
 10
0.5349956967585854
 20
-54.2340351221419
 30
0.0
 11
0.5507451777994561
 21
-54.1931779724176
 31
0.0
  0
LINE
  5
20EE2
330
1F
100
AcDbEntity
  8
AM_0
100
AcDbLine
 10
0.5413073188189514
 20
-54.30870039851101
 30
0.0
 11
0.5349956967585854
 21
-54.2340351221419
 31
0.0
  0
ELLIPSE
  5
20EE3
330
1F
100
AcDbEntity
  8
AM_0
100
AcDbEllipse
 10
9.351728006265319
 20
-55.6787164840176
 30
0.0
 11
60.0026426060675
 21
-5.199637665399669
 31
0.0
210
0.0
220
0.0
230
1.0
 40
0.0120901910919805
 41
1.71488363698897
 42
1.719051621205769
  0
SPLINE
  5
20EE4
330
1F
100
AcDbEntity
  8
AM_0
100
AcDbSpline
210
0.0
220
0.0
230
1.0
 70
     8
 71
     3
 72
    12
 73
     8
 74
     0
 42
0.0000000001
 43
0.0000000001
 40
18.35156049313081
 40
18.35156049313081
 40
18.35156049313081
 40
18.35156049313081
 40
19.55984191580779
 40
19.55984191580779
 40
21.03645136371959
 40
21.03645136371959
 40
22.48233872862484
 40
22.48233872862484
 40
22.48233872862484
 40
22.48233872862484
 10
10.06631469165785
 20
-56.0534952378577
 30
0.0
 10
10.44393453961811
 20
-55.95785971977392
 30
0.0
 10
10.83006700010304
 20
-55.84801243875697
 30
0.0
 10
11.68691120156842
 20
-55.57875522131428
 30
0.0
 10
12.15740811452184
 20
-55.41365094099945
 30
0.0
 10
13.05304891228025
 20
-55.07144015779394
 30
0.0
 10
13.51058044661471
 20
-54.8826505830086
 30
0.0
 10
13.9724973504471
 20
-54.67779021287393
 30
0.0
  0
ELLIPSE
  5
20EE5
330
1F
100
AcDbEntity
  8
AM_0
100
AcDbEllipse
 10
19.01845386168992
 20
-49.17871648401763
 30
0.0
 11
10.08441235524106
 21
3.774688918419492
 31
0.0
210
0.0
220
0.0
230
1.0
 40
0.1312448258257526
 41
3.546428891409962
 42
3.889811137000991
  0
SPLINE
  5
20EE6
330
1F
100
AcDbEntity
  8
AM_0
100
AcDbSpline
210
0.0
220
0.0
230
1.0
 70
     8
 71
     3
 72
    22
 73
    18
 74
     0
 42
0.0000000001
 43
0.0000000001
 40
7.193046732804491
 40
7.193046732804491
 40
7.193046732804491
 40
7.193046732804491
 40
7.712732641354188
 40
7.712732641354188
 40
8.319212084817931
 40
8.319212084817931
 40
8.936434511725611
 40
8.936434511725611
 40
9.553656938633294
 40
9.553656938633294
 40
10.11188985945645
 40
10.11188985945645
 40
10.67012278027961
 40
10.67012278027961
 40
11.22835570110277
 40
11.22835570110277
 40
11.41535050890738
 40
11.41535050890738
 40
11.41535050890738
 40
11.41535050890738
 10
13.13397459621552
 20
-58.69969171642634
 30
0.0
 10
12.95106737835926
 20
-58.66384341621716
 30
0.0
 10
12.77090962150805
 20
-58.62017611021628
 30
0.0
 10
12.39415467575606
 20
-58.50944019170902
 30
0.0
 10
12.19985526150498
 20
-58.43960623461098
 30
0.0
 10
11.83517971346834
 20
-58.28253070991266
 30
0.0
 10
11.63993312956194
 20
-58.18347642715784
 30
0.0
 10
11.27177341495701
 20
-57.95331980334194
 30
0.0
 10
11.0989849126745
 20
-57.82189994450411
 30
0.0
 10
10.82071050721464
 20
-57.56706766031903
 30
0.0
 10
10.69369392246853
 20
-57.4298089958387
 30
0.0
 10
10.46666193802514
 20
-57.12748631004155
 30
0.0
 10
10.36665012102372
 20
-56.96239265503721
 30
0.0
 10
10.20443485333351
 20
-56.61366938416788
 30
0.0
 10
10.14203436984997
 20
-56.42963583724767
 30
0.0
 10
10.08693524307523
 20
-56.17970416494583
 30
0.0
 10
10.0754508064428
 20
-56.11663876570376
 30
0.0
 10
10.06631469165785
 20
-56.0534952378577
 30
0.0
  0
SPLINE
  5
20EE7
330
1F
100
AcDbEntity
  8
AM_0
100
AcDbSpline
210
0.0
220
0.0
230
1.0
 70
     8
 71
     3
 72
    32
 73
    28
 74
     0
 42
0.0000000001
 43
0.0000000001
 40
3.081553128145407
 40
3.081553128145407
 40
3.081553128145407
 40
3.081553128145407
 40
3.47765938423056
 40
3.47765938423056
 40
3.764824985756082
 40
3.764824985756082
 40
4.051990587281603
 40
4.051990587281603
 40
4.339156188807124
 40
4.339156188807124
 40
4.626321790332645
 40
4.626321790332645
 40
4.908911145792986
 40
4.908911145792986
 40
5.191500501253329
 40
5.191500501253329
 40
5.756679212174014
 40
5.756679212174014
 40
6.356219375539839
 40
6.356219375539839
 40
6.955759538905664
 40
6.955759538905664
 40
7.248215170693067
 40
7.248215170693067
 40
7.54067080248047
 40
7.54067080248047
 40
7.730473169775051
 40
7.730473169775051
 40
7.730473169775051
 40
7.730473169775051
 10
8.75743723487625
 20
-54.62613832394919
 30
0.0
 10
8.893791809340826
 20
-54.59756522497287
 30
0.0
 10
9.027785500877201
 20
-54.57333108766966
 30
0.0
 10
9.241203277102443
 20
-54.54177700119215
 30
0.0
 10
9.331707372978201
 20
-54.5306912766799
 30
0.0
 10
9.506198976863459
 20
-54.5153709945142
 30
0.0
 10
9.590189546675958
 20
-54.51114660872059
 30
0.0
 10
9.744992707437575
 20
-54.51095474147118
 30
0.0
 10
9.815942900821142
 20
-54.51499835045388
 30
0.0
 10
9.940114986456308
 20
-54.53137082692487
 30
0.0
 10
9.993328181945969
 20
-54.5437075008297
 30
0.0
 10
10.07922114168412
 20
-54.57470774665356
 30
0.0
 10
10.11480180640621
 20
-54.59420123145515
 30
0.0
 10
10.16711820769967
 20
-54.64067776937347
 30
0.0
 10
10.18386438686639
 20
-54.66765437486737
 30
0.0
 10
10.20369924220535
 20
-54.75653519538523
 30
0.0
 10
10.1748759850791
 20
-54.82681095878621
 30
0.0
 10
10.05483796380014
 20
-54.96678064114795
 30
0.0
 10
9.951575844192689
 20
-55.0462629757356
 30
0.0
 10
9.679839570420825
 20
-55.19442915964058
 30
0.0
 10
9.511304120260661
 20
-55.26292237908157
 30
0.0
 10
9.251145769321852
 20
-55.34371515160177
 30
0.0
 10
9.158628676097692
 20
-55.36878075695648
 30
0.0
 10
8.964928745899385
 20
-55.41344896342594
 30
0.0
 10
8.863747364044855
 20
-55.43305460482949
 30
0.0
 10
8.695351720471933
 20
-55.45975254261674
 30
0.0
 10
8.628611705044818
 20
-55.468847090336
 30
0.0
 10
8.562385537773537
 20
-55.47647033188906
 30
0.0
  0
ELLIPSE
  5
20EE8
330
1F
100
AcDbEntity
  8
AM_0
100
AcDbEllipse
 10
7.801309437123166
 20
-41.4724442351002
 30
0.0
 11
9.065640533351367
 21
12.20155237935506
 31
0.0
210
0.0
220
0.0
230
1.0
 40
0.8274354026924675
 41
3.678502681138466
 42
3.882011374095993
  0
SPLINE
  5
20EE9
330
1F
100
AcDbEntity
  8
AM_0
100
AcDbSpline
210
0.0
220
0.0
230
1.0
 70
     8
 71
     3
 72
    12
 73
     8
 74
     0
 42
0.0000000001
 43
0.0000000001
 40
35.27216873182034
 40
35.27216873182034
 40
35.27216873182034
 40
35.27216873182034
 40
35.6508162949665
 40
35.6508162949665
 40
37.50666373261519
 40
37.50666373261519
 40
39.13656631964678
 40
39.13656631964678
 40
39.13656631964678
 40
39.13656631964678
 10
10.06631469165785
 20
-56.0534952378577
 30
0.0
 10
9.932075662966156
 20
-56.07042739786115
 30
0.0
 10
9.79802811770179
 20
-56.08580079645569
 30
0.0
 10
9.009080517795667
 20
-56.16750743035098
 30
0.0
 10
8.3623285882652
 20
-56.19830509463336
 30
0.0
 10
7.200411913371795
 20
-56.19830509463336
 30
0.0
 10
6.649827731988182
 20
-56.17479336242258
 30
0.0
 10
6.096722505412174
 20
-56.12650406105547
 30
0.0
  0
LINE
  5
20EEA
330
1F
100
AcDbEntity
  8
AM_0
100
AcDbLine
 10
3.110601620715386
 20
-55.76213747336212
 30
0.0
 11
5.175198723719291
 21
-55.79391028399647
 31
0.0
  0
LINE
  5
20EEB
330
1F
100
AcDbEntity
  8
AM_0
100
AcDbLine
 10
3.110601620717659
 20
-55.76213747333628
 30
0.0
 11
3.110806048956476
 21
-55.86490417343481
 31
0.0
  0
LINE
  5
20EEC
330
1F
100
AcDbEntity
  8
AM_0
100
AcDbLine
 10
2.833321468335782
 20
-58.84815243556392
 30
0.0
 11
2.833440985676418
 21
-58.90823416776482
 31
0.0
  0
LINE
  5
20EED
330
1F
100
AcDbEntity
  8
AM_0
100
AcDbLine
 10
2.964066108008694
 20
-57.36841296650471
 30
0.0
 11
3.110601620715386
 21
-55.76213747336215
 31
0.0
  0
LINE
  5
20EEE
330
1F
100
AcDbEntity
  8
AM_0
100
AcDbLine
 10
2.833321468335782
 20
-58.84815243556392
 30
0.0
 11
2.964066108008694
 21
-57.36841296650471
 31
0.0
  0
ELLIPSE
  5
20EEF
330
1F
100
AcDbEntity
  8
AM_0
100
AcDbEllipse
 10
3.061570894502268
 20
-55.6787164840176
 30
0.0
 11
-0.4547470462503942
 21
-5.249996988999611
 31
0.0
210
0.0
220
0.0
230
0.9999999999999999
 40
0.0123646009951994
 41
0.9092959088107737
 42
1.536395569980855
  0
ELLIPSE
  5
20EF0
330
1F
100
AcDbEntity
  8
AM_0
100
AcDbEllipse
 10
9.351728006265319
 20
-55.6787164840176
 30
0.0
 11
60.0026426060675
 21
-5.199637665399669
 31
0.0
210
0.0
220
0.0
230
1.0
 40
0.0120901910919805
 41
4.609237495290017
 42
4.659162362694207
  0
LINE
  5
20EF1
330
1F
100
AcDbEntity
  8
AM_0
100
AcDbLine
 10
6.730320544645849
 20
-54.93986719273417
 30
0.0
 11
6.550293262453067
 21
-55.30080587382528
 31
0.0
  0
ELLIPSE
  5
20EF2
330
1F
100
AcDbEntity
  8
AM_0
100
AcDbEllipse
 10
5.718390958804037
 20
-40.72068314716213
 30
0.0
 11
17.20205602977308
 21
-1.884746425694375
 31
0.0
210
0.0
220
0.0
230
0.9999999999999999
 40
0.8583751236379519
 41
4.933926154381706
 42
4.971516089360636
  0
ELLIPSE
  5
20EF3
330
1F
100
AcDbEntity
  8
AM_0
100
AcDbEllipse
 10
4.151958624281633
 20
-40.15533078784551
 30
0.0
 11
17.20205602977312
 21
-1.884746425694422
 31
0.0
210
0.0
220
0.0
230
1.0
 40
0.8583751236379495
 41
4.955949007212122
 42
5.075975158243037
  0
SPLINE
  5
20EF4
330
1F
100
AcDbEntity
  8
AM_0
100
AcDbSpline
210
0.0
220
0.0
230
1.0
 70
     8
 71
     3
 72
    12
 73
     8
 74
     0
 42
0.0000000001
 43
0.0000000001
 40
3.550448660957977
 40
3.550448660957977
 40
3.550448660957977
 40
3.550448660957977
 40
3.663498112352538
 40
3.663498112352538
 40
4.274081131077961
 40
4.274081131077961
 40
4.721351056820321
 40
4.721351056820321
 40
4.721351056820321
 40
4.721351056820321
 10
9.944321346760546
 20
-53.16958086301207
 30
0.0
 10
9.916450947503506
 20
-53.1712817320163
 30
0.0
 10
9.888866014270377
 20
-53.17275713238689
 30
0.0
 10
9.714244163133856
 20
-53.18069707701372
 30
0.0
 10
9.575807206501452
 20
-53.18069366588162
 30
0.0
 10
9.357964220217752
 20
-53.16484169368138
 30
0.0
 10
9.272687102690668
 20
-53.15324784225612
 30
0.0
 10
9.197260508975035
 20
-53.13460809025628
 30
0.0
  0
LINE
  5
20EF5
330
1F
100
AcDbEntity
  8
AM_0
100
AcDbLine
 10
9.197260508975035
 20
-53.13460809025764
 30
0.0
 11
10.33252263775574
 21
-53.13460809025764
 31
0.0
  0
SPLINE
  5
20EF6
330
1F
100
AcDbEntity
  8
AM_0
100
AcDbSpline
210
0.0
220
0.0
230
1.0
 70
     8
 71
     3
 72
    16
 73
    12
 74
     0
 42
0.0000000001
 43
0.0000000001
 40
1.339929193727084
 40
1.339929193727084
 40
1.339929193727084
 40
1.339929193727084
 40
1.479246440299245
 40
1.479246440299245
 40
2.09274954718622
 40
2.09274954718622
 40
2.499751001576306
 40
2.499751001576306
 40
2.906752455966392
 40
2.906752455966392
 40
2.909039512462998
 40
2.909039512462998
 40
2.909039512462998
 40
2.909039512462998
 10
13.9724973504471
 20
-54.67779021287393
 30
0.0
 10
13.93864287801841
 20
-54.67698571834811
 30
0.0
 10
13.90533157527318
 20
-54.67564088939662
 30
0.0
 10
13.7297136061157
 20
-54.66517067969366
 30
0.0
 10
13.60321514069551
 20
-54.64453665331052
 30
0.0
 10
13.44936977942285
 20
-54.58901121754892
 30
0.0
 10
13.39754371824733
 20
-54.55957395459143
 30
0.0
 10
13.32713311476232
 20
-54.48409403717855
 30
0.0
 10
13.30869724641224
 20
-54.43797649431926
 30
0.0
 10
13.30852929038912
 20
-54.38438093449642
 30
0.0
 10
13.30852891460614
 20
-54.38408121978904
 30
0.0
 10
13.30852909587179
 20
-54.38378127644467
 30
0.0
  0
SPLINE
  5
20EF7
330
1F
100
AcDbEntity
  8
AM_0
100
AcDbSpline
210
0.0
220
0.0
230
1.0
 70
     8
 71
     3
 72
    14
 73
    10
 74
     0
 42
0.0000000001
 43
0.0000000001
 40
1.375453680100176
 40
1.375453680100176
 40
1.375453680100176
 40
1.375453680100176
 40
2.086456946466044
 40
2.086456946466044
 40
3.129685419699066
 40
3.129685419699066
 40
4.172913892932088
 40
4.172913892932088
 40
4.693160335651
 40
4.693160335651
 40
4.693160335651
 40
4.693160335651
 10
17.43495487136573
 20
-54.66420653726701
 30
0.0
 10
17.19113637311642
 20
-54.67059991136728
 30
0.0
 10
16.94207093792124
 20
-54.67414478140816
 30
0.0
 10
16.32208630632493
 20
-54.67912207923797
 30
0.0
 10
15.94836061250095
 20
-54.67891654985164
 30
0.0
 10
15.21118831431164
 20
-54.67808514993135
 30
0.0
 10
14.84774282441106
 20
-54.67746628864407
 30
0.0
 10
14.32658451909373
 20
-54.67746628864407
 30
0.0
 10
14.15046280959427
 20
-54.67758786672425
 30
0.0
 10
13.9724973504471
 20
-54.67779021287393
 30
0.0
  0
SPLINE
  5
20EF8
330
1F
100
AcDbEntity
  8
AM_0
100
AcDbSpline
210
0.0
220
0.0
230
1.0
 70
     8
 71
     3
 72
    12
 73
     8
 74
     0
 42
0.0000000001
 43
0.0000000001
 40
2.58532345376128
 40
2.58532345376128
 40
2.58532345376128
 40
2.58532345376128
 40
3.042544892653059
 40
3.042544892653059
 40
4.155921334048879
 40
4.155921334048879
 40
4.515859245310687
 40
4.515859245310687
 40
4.515859245310687
 40
4.515859245310687
 10
14.99999999999994
 20
-57.87354628316427
 30
0.0
 10
14.86226515481229
 20
-57.96665145445175
 30
0.0
 10
14.72123269867603
 20
-58.05120632271596
 30
0.0
 10
14.262045555268
 20
-58.30263705429559
 30
0.0
 10
13.88875246643414
 20
-58.46287485115735
 30
0.0
 10
13.38265325130288
 20
-58.62908830291184
 30
0.0
 10
13.25807797856675
 20
-58.66622554861087
 30
0.0
 10
13.13397459621552
 20
-58.69969171642634
 30
0.0
  0
SPLINE
  5
20EF9
330
1F
100
AcDbEntity
  8
AM_0
100
AcDbSpline
210
0.0
220
0.0
230
1.0
 70
     8
 71
     3
 72
    29
 73
    25
 74
     0
 42
0.0000000001
 43
0.0000000001
 40
-1.053332105489469
 40
-1.053332105489469
 40
-1.053332105489469
 40
-1.053332105489469
 40
-0.7727665941582984
 40
-0.7727665941582984
 40
-0.3863832970791492
 40
-0.3863832970791492
 40
0.0
 40
0.0
 40
0.0
 40
0.3863832970791499
 40
0.3863832970791499
 40
0.7727665941582997
 40
0.7727665941582997
 40
1.15914989123745
 40
1.15914989123745
 40
1.5455331883166
 40
1.5455331883166
 40
1.990330467091379
 40
1.990330467091379
 40
2.435127745866158
 40
2.435127745866158
 40
3.317628309766208
 40
3.317628309766208
 40
3.718661030967557
 40
3.718661030967557
 40
3.718661030967557
 40
3.718661030967557
 10
17.43495487136573
 20
-54.66420653726701
 30
0.0
 10
17.49126985571672
 20
-54.74328972115637
 30
0.0
 10
17.54210913899664
 20
-54.82696591413205
 30
0.0
 10
17.64614322103466
 20
-55.03387303030914
 30
0.0
 10
17.6930325749035
 20
-55.1604615079527
 30
0.0
 10
17.7553191921636
 20
-55.41848347464162
 30
0.0
 10
17.77070328828535
 20
-55.54992205165789
 30
0.0
 10
17.77070328828535
 20
-55.6787164840176
 30
0.0
 10
17.77070328828535
 20
-55.80751091637731
 30
0.0
 10
17.7553191921636
 20
-55.93894949339358
 30
0.0
 10
17.6930325749035
 20
-56.19697146008249
 30
0.0
 10
17.64614322103466
 20
-56.32355993772606
 30
0.0
 10
17.5256031402381
 20
-56.56329484010394
 30
0.0
 10
17.45183472290245
 20
-56.67672300587117
 30
0.0
 10
17.28621119721652
 20
-56.88469716581821
 30
0.0
 10
17.19437336540631
 20
-56.97926687884618
 30
0.0
 10
16.99087519455708
 20
-57.15912522048575
 30
0.0
 10
16.86271540525712
 20
-57.25379535894649
 30
0.0
 10
16.59131889860151
 20
-57.42020752344146
 30
0.0
 10
16.44818581688247
 20
-57.49216243091647
 30
0.0
 10
16.04749910631671
 20
-57.66459947681665
 30
0.0
 10
15.74211212712152
 20
-57.75546373636664
 30
0.0
 10
15.2863701093047
 20
-57.83995954216027
 30
0.0
 10
15.14237111352514
 20
-57.85986662307207
 30
0.0
 10
14.99999999999994
 20
-57.87354628316427
 30
0.0
  0
LINE
  5
20EFA
330
1F
100
AcDbEntity
  8
AM_0
100
AcDbLine
 10
14.99999999999994
 20
-60.1787164840176
 30
0.0
 11
14.99999999999994
 21
-57.8735462831643
 31
0.0
  0
ELLIPSE
  5
20EFB
330
1F
100
AcDbEntity
  8
AM_0
100
AcDbEllipse
 10
23.40510283120949
 20
-50.67871648401763
 30
0.0
 11
10.08441235524106
 21
3.774688918419492
 31
0.0
210
0.0
220
0.0
230
1.0
 40
0.1312448258257526
 41
2.033361946809866
 42
3.092415732361779
  0
ELLIPSE
  5
20EFC
330
1F
100
AcDbEntity
  8
AM_0
100
AcDbEllipse
 10
12.92154394940661
 20
-51.41613642202339
 30
0.0
 11
2.796348220692445
 21
1.195984255649166
 31
0.0
210
0.0
220
0.0
230
1.0
 40
0.3502975707187302
 41
4.21842547161712
 42
5.287630968365925
  0
ELLIPSE
  5
20EFD
330
1F
100
AcDbEntity
  8
AM_0
100
AcDbEllipse
 10
7.62496012231594
 20
-55.6787164840176
 30
0.0
 11
-11.97523967184876
 21
-4.482443090623147
 31
0.0
210
0.0
220
0.0
230
1.0
 40
0.1312448258257525
 41
3.804713399657739
 42
4.000769729923036
  0
LINE
  5
20EFE
330
1F
100
AcDbEntity
  8
AM_0
100
AcDbLine
 10
16.70020349745909
 20
-51.1787164840176
 30
0.0
 11
18.4616322626697
 21
-51.1787164840176
 31
0.0
  0
ELLIPSE
  5
20EFF
330
1F
100
AcDbEntity
  8
AM_0
100
AcDbEllipse
 10
-13.53902269880638
 20
-63.44539137553772
 30
0.0
 11
-31.27168425652716
 21
-11.59938962108979
 31
0.0
210
0.0
220
0.0
230
1.0
 40
0.0967790434503069
 41
3.528304772387221
 42
3.544051059294437
  0
LINE
  5
20F00
330
1F
100
AcDbEntity
  8
AM_0
100
AcDbLine
 10
0.4990659233047268
 20
9.924343001102955
 30
0.0
 11
0.0005403166014162
 21
0.4119077572650838
 31
0.0
  0
LINE
  5
20F01
330
1F
100
AcDbEntity
  8
AM_0
100
AcDbLine
 10
0.5794813879711569
 20
0.0454573856922877
 30
0.0
 11
9.110814359929407
 21
4.473393723957457
 31
0.0
  0
LINE
  5
20F02
330
1F
100
AcDbEntity
  8
AM_0
100
AcDbLine
 10
3.110636579382742
 20
1.359178709977641
 30
0.0
 11
3.110806048956476
 21
0.7533025488113481
 31
0.0
  0
SPLINE
  5
20F03
330
1F
100
AcDbEntity
  8
AM_0
100
AcDbSpline
210
0.0
220
0.0
230
1.0
 70
     8
 71
     3
 72
    12
 73
     8
 74
     0
 42
0.0000000001
 43
0.0000000001
 40
18.35156049313081
 40
18.35156049313081
 40
18.35156049313081
 40
18.35156049313081
 40
19.55984191580779
 40
19.55984191580779
 40
21.03645136371959
 40
21.03645136371959
 40
22.48233872862484
 40
22.48233872862484
 40
22.48233872862484
 40
22.48233872862484
 10
10.06631469165785
 20
0.763394144433704
 30
0.0
 10
10.44393453961811
 20
0.9501813753711588
 30
0.0
 10
10.83006700010304
 20
1.111190140011274
 30
0.0
 10
11.68691120156842
 20
1.409133536249129
 30
0.0
 10
12.15740811452184
 20
1.532657980794994
 30
0.0
 10
13.05304891228025
 20
1.705046976371648
 30
0.0
 10
13.51058044661471
 20
1.76167714512485
 30
0.0
 10
13.9724973504471
 20
1.786077355734591
 30
0.0
  0
ELLIPSE
  5
20F04
330
1F
100
AcDbEntity
  8
AM_0
100
AcDbEllipse
 10
3.061570894502268
 20
6.0
 30
0.0
 11
-0.06589524493458181
 21
5.249996899219333
 31
0.0
210
0.0
220
0.0
230
0.9999999999999999
 40
0.0865916534829883
 41
2.694913204085854
 42
3.105034040357998
  0
ELLIPSE
  5
20F05
330
1F
100
AcDbEntity
  8
AM_0
100
AcDbEllipse
 10
0.3984776219999162
 20
0.396134482374805
 30
0.0
 11
0.3386676610744965
 21
0.2128478690105449
 31
0.0
210
0.0
220
0.0
230
1.0
 40
0.9864929781841173
 41
2.534517271110426
 42
4.628912373503709
  0
SPLINE
  5
20F06
330
1F
100
AcDbEntity
  8
AM_0
100
AcDbSpline
210
0.0
220
0.0
230
1.0
 70
     8
 71
     3
 72
    12
 73
     8
 74
     0
 42
0.0000000001
 43
0.0000000001
 40
35.27216873182034
 40
35.27216873182034
 40
35.27216873182034
 40
35.27216873182034
 40
35.6508162949665
 40
35.6508162949665
 40
37.50666373261519
 40
37.50666373261519
 40
39.13656631964678
 40
39.13656631964678
 40
39.13656631964678
 40
39.13656631964678
 10
10.06631469165785
 20
0.763394144433704
 30
0.0
 10
9.932075662966156
 20
0.7646059625465966
 30
0.0
 10
9.79802811770179
 20
0.7657879957534135
 30
0.0
 10
9.009080517795667
 20
0.7723601581236039
 30
0.0
 10
8.3623285882652
 20
0.7757749210319673
 30
0.0
 10
7.200411913371795
 20
0.7757749210319673
 30
0.0
 10
6.649827731988182
 20
0.7732651994178355
 30
0.0
 10
6.096722505412174
 20
0.7691314023529117
 30
0.0
  0
ELLIPSE
  5
20F07
330
1F
100
AcDbEntity
  8
AM_0
100
AcDbEllipse
 10
9.351728006265319
 20
6.0
 30
0.0
 11
60.00264162229667
 21
0.7364178510439025
 31
0.0
210
0.0
220
0.0
230
0.9999999999999999
 40
0.0866310979383466
 41
4.60712656736306
 42
4.657051434767249
  0
LINE
  5
20F08
330
1F
100
AcDbEntity
  8
AM_0
100
AcDbLine
 10
0.7091663169357503
 20
11.25
 30
0.0
 11
13.13397459621552
 21
11.25
 31
0.0
  0
LINE
  5
20F09
330
1F
100
AcDbEntity
  8
AM_0
100
AcDbLine
 10
9.146744133385425
 20
5.158974642432298
 30
0.0
 11
1.113936768130486
 21
10.24347354800503
 31
0.0
  0
ELLIPSE
  5
20F0A
330
1F
100
AcDbEntity
  8
AM_0
100
AcDbEllipse
 10
-0.1679633872688555
 20
13.24423462654244
 30
0.0
 11
25.07231741565478
 21
-16.07239120098334
 31
0.0
210
0.0
220
0.0
230
1.0
 40
0.0618511336799315
 41
4.804991747441346
 42
5.030523293242484
  0
SPLINE
  5
20F0B
330
1F
100
AcDbEntity
  8
AM_0
100
AcDbSpline
210
0.0
220
0.0
230
1.0
 70
     8
 71
     3
 72
    16
 73
    12
 74
     0
 42
0.0000000001
 43
0.0000000001
 40
4.895185956505241
 40
4.895185956505241
 40
4.895185956505241
 40
4.895185956505241
 40
6.478147584187873
 40
6.478147584187873
 40
8.42306115670522
 40
8.42306115670522
 40
10.36797472922257
 40
10.36797472922257
 40
12.31288830173992
 40
12.31288830173992
 40
12.96607559116947
 40
12.96607559116947
 40
12.96607559116947
 40
12.96607559116947
 10
0.7982062645214114
 20
11.04158986554819
 30
0.0
 10
1.359084928303901
 20
11.05542097741812
 30
0.0
 10
1.910839542131782
 20
11.06122900144547
 30
0.0
 10
3.086797942198416
 20
11.06122900144547
 30
0.0
 10
3.764364588630997
 20
11.05256303635764
 30
0.0
 10
5.1391265930543
 20
11.01047585853999
 30
0.0
 10
5.836310371188063
 20
10.97699248891971
 30
0.0
 10
7.212931028824357
 20
10.87165122032926
 30
0.0
 10
7.892768509057135
 20
10.79943853761094
 30
0.0
 10
8.766870403028861
 20
10.6676694922273
 30
0.0
 10
8.983779972142884
 20
10.63158237852187
 30
0.0
 10
9.197260508975035
 20
10.59238636013868
 30
0.0
  0
ELLIPSE
  5
20F0C
330
1F
100
AcDbEntity
  8
AM_0
100
AcDbEllipse
 10
0.89700322870317
 20
9.908569726212676
 30
0.0
 11
0.3386676610744965
 21
0.212847869010545
 31
0.0
210
0.0
220
0.0
230
1.0
 40
0.9864929781841175
 41
0.4401221687174022
 42
2.5345172711105
  0
LINE
  5
20F0D
330
1F
100
AcDbEntity
  8
AM_0
100
AcDbLine
 10
0.5286550583808207
 20
10.61393733200887
 30
0.0
 11
1.160649367332837
 21
10.21390603210571
 31
0.0
  0
LINE
  5
20F0E
330
1F
100
AcDbEntity
  8
AM_0
100
AcDbLine
 10
0.5286550583808207
 20
10.61393733200882
 30
0.0
 11
0.5507451777994561
 21
11.03544192008539
 31
0.0
  0
LINE
  5
20F0F
330
1F
100
AcDbEntity
  8
AM_0
100
AcDbLine
 10
0.6945389498347936
 20
10.24726906325665
 30
0.0
 11
0.5286550583808207
 21
10.61393733200887
 31
0.0
  0
ELLIPSE
  5
20F10
330
1F
100
AcDbEntity
  8
AM_0
100
AcDbEllipse
 10
9.351728006265319
 20
6.0
 30
0.0
 11
60.00264162229667
 21
0.7364178510439025
 31
0.0
210
0.0
220
0.0
230
0.9999999999999999
 40
0.0866310979383466
 41
1.712772709062011
 42
1.716940693278811
  0
ELLIPSE
  5
20F11
330
1F
100
AcDbEntity
  8
AM_0
100
AcDbEllipse
 10
0.3646722697752125
 20
6.0
 30
0.0
 11
-0.3477559386595562
 21
-5.249892200587293
 31
0.0
210
0.0
220
0.0
230
1.0
 40
0.0967444505301005
 41
3.148000975013746
 42
3.43487951454368
  0
ELLIPSE
  5
20F12
330
1F
100
AcDbEntity
  8
AM_0
100
AcDbEllipse
 10
19.01845386168992
 20
10.00000000000011
 30
0.0
 11
10.07754470229426
 21
-1.731680393773391
 31
0.0
210
0.0
220
0.0
230
1.0
 40
0.3577983824033982
 41
3.656920767724233
 42
4.00030301331526
  0
LINE
  5
20F13
330
1F
100
AcDbEntity
  8
AM_0
100
AcDbLine
 10
9.197260508975035
 20
10.59238636014001
 30
0.0
 11
11.9646105462885
 21
10.59238636014001
 31
0.0
  0
ELLIPSE
  5
20F14
330
1F
100
AcDbEntity
  8
AM_0
100
AcDbEllipse
 10
7.801309437123166
 20
-2.206133051612653
 30
0.0
 11
13.34989878023422
 21
6.839712881519272
 31
0.0
210
0.0
220
0.0
230
1.0
 40
0.3549856695950525
 41
1.382148124483637
 42
1.585656817441164
  0
ELLIPSE
  5
20F15
330
1F
100
AcDbEntity
  8
AM_0
100
AcDbEllipse
 10
8.929810593958166
 20
4.82407082064006
 30
0.0
 11
0.3386676610744965
 21
0.212847869010545
 31
0.0
210
0.0
220
0.0
230
1.0
 40
0.9864929781841175
 41
4.628912373503551
 42
6.72330747589699
  0
ELLIPSE
  5
20F16
330
1F
100
AcDbEntity
  8
AM_0
100
AcDbEllipse
 10
8.325180880338451
 20
5.674718745202938
 30
0.0
 11
-1.270003729029362
 21
-0.7981795087895433
 31
0.0
210
0.0
220
0.0
230
1.0
 40
0.9864929781841179
 41
1.222218217992118
 42
2.899757198108105
  0
LINE
  5
20F17
330
1F
100
AcDbEntity
  8
AM_0
100
AcDbLine
 10
6.730320544645849
 20
6.743934848590982
 30
0.0
 11
6.55029326245284
 21
6.802441367245478
 31
0.0
  0
LINE
  5
20F18
330
1F
100
AcDbEntity
  8
AM_0
100
AcDbLine
 10
7.91990864009864
 20
3.731472900474046
 30
0.0
 11
7.773208041981604
 21
3.779148681476812
 31
0.0
  0
ELLIPSE
  5
20F19
330
1F
100
AcDbEntity
  8
AM_0
100
AcDbEllipse
 10
5.718390958804037
 20
1.832109463457584
 30
0.0
 11
17.27767975869418
 21
-0.8499619424851679
 31
0.0
210
0.0
220
0.0
230
1.0
 40
0.1167877459730608
 41
1.41118664077407
 42
1.448776575753
  0
SPLINE
  5
20F1A
330
1F
100
AcDbEntity
  8
AM_0
100
AcDbSpline
210
0.0
220
0.0
230
1.0
 70
     8
 71
     3
 72
    32
 73
    28
 74
     0
 42
0.0000000001
 43
0.0000000001
 40
3.081553128145407
 40
3.081553128145407
 40
3.081553128145407
 40
3.081553128145407
 40
3.47765938423056
 40
3.47765938423056
 40
3.764824985756082
 40
3.764824985756082
 40
4.051990587281603
 40
4.051990587281603
 40
4.339156188807124
 40
4.339156188807124
 40
4.626321790332645
 40
4.626321790332645
 40
4.908911145792986
 40
4.908911145792986
 40
5.191500501253329
 40
5.191500501253329
 40
5.756679212174014
 40
5.756679212174014
 40
6.356219375539839
 40
6.356219375539839
 40
6.955759538905664
 40
6.955759538905664
 40
7.248215170693067
 40
7.248215170693067
 40
7.54067080248047
 40
7.54067080248047
 40
7.730473169775051
 40
7.730473169775051
 40
7.730473169775051
 40
7.730473169775051
 10
8.75743723487625
 20
6.595044921297244
 30
0.0
 10
8.893791809340826
 20
6.584014203793487
 30
0.0
 10
9.027785500877201
 20
6.555291809753982
 30
0.0
 10
9.241203277102443
 20
6.482281031887851
 30
0.0
 10
9.331707372978201
 20
6.442406036998136
 30
0.0
 10
9.506198976863459
 20
6.344608862375452
 30
0.0
 10
9.590189546675958
 20
6.286690552438415
 30
0.0
 10
9.744992707437575
 20
6.155938734343152
 30
0.0
 10
9.815942900821142
 20
6.082982803473044
 30
0.0
 10
9.940114986456308
 20
5.927301182779246
 30
0.0
 10
9.993328181945969
 20
5.844569377646707
 30
0.0
 10
10.07922114168412
 20
5.67804504874465
 30
0.0
 10
10.11480180640621
 20
5.589273240686282
 30
0.0
 10
10.16711820769967
 20
5.405335528348076
 30
0.0
 10
10.18386438686639
 20
5.31017096525008
 30
0.0
 10
10.20369924220535
 20
5.024925060748586
 30
0.0
 10
10.1748759850791
 20
4.834717404151348
 30
0.0
 10
10.05483796380014
 20
4.493060606030099
 30
0.0
 10
9.951575844192689
 20
4.319788951700502
 30
0.0
 10
9.679839570420825
 20
4.028246730552496
 30
0.0
 10
9.511304120260661
 20
3.909936450318725
 30
0.0
 10
9.251145769321852
 20
3.790787644347716
 30
0.0
 10
9.158628676097692
 20
3.757828322265368
 30
0.0
 10
8.964928745899385
 20
3.709305173905563
 30
0.0
 10
8.863747364044855
 20
3.693738337782008
 30
0.0
 10
8.695351720471933
 20
3.684294730108007
 30
0.0
 10
8.628611705044818
 20
3.684688926207713
 30
0.0
 10
8.562385537773537
 20
3.689196116076886
 30
0.0
  0
ELLIPSE
  5
20F1B
330
1F
100
AcDbEntity
  8
AM_0
100
AcDbEllipse
 10
4.151958624281633
 20
4.869018356480552
 30
0.0
 11
17.27767975869422
 21
-0.8499619424852621
 31
0.0
210
0.0
220
0.0
230
1.0
 40
0.1167877459730601
 41
1.30672757189168
 42
1.426753722922595
  0
SPLINE
  5
20F1C
330
1F
100
AcDbEntity
  8
AM_0
100
AcDbSpline
210
0.0
220
0.0
230
1.0
 70
     8
 71
     3
 72
    12
 73
     8
 74
     0
 42
0.0000000001
 43
0.0000000001
 40
3.550448660957977
 40
3.550448660957977
 40
3.550448660957977
 40
3.550448660957977
 40
3.663498112352538
 40
3.663498112352538
 40
4.274081131077961
 40
4.274081131077961
 40
4.721351056820321
 40
4.721351056820321
 40
4.721351056820321
 40
4.721351056820321
 10
9.944321346760546
 20
9.729812086737269
 30
0.0
 10
9.916450947503506
 20
9.754935111081409
 30
0.0
 10
9.888866014270377
 20
9.780246471594523
 30
0.0
 10
9.714244163133856
 20
9.943558782614616
 30
0.0
 10
9.575807206501452
 20
10.0868518710659
 30
0.0
 10
9.357964220217752
 20
10.35120257578342
 30
0.0
 10
9.272687102690668
 20
10.46791212602358
 30
0.0
 10
9.197260508975035
 20
10.59238636013868
 30
0.0
  0
LINE
  5
20F1D
330
1F
100
AcDbEntity
  8
AM_0
100
AcDbLine
 10
16.70020349745909
 20
7.520690632574542
 30
0.0
 11
18.4616322626697
 21
5.668626966597003
 31
0.0
  0
SPLINE
  5
20F1E
330
1F
100
AcDbEntity
  8
AM_0
100
AcDbSpline
210
0.0
220
0.0
230
1.0
 70
     8
 71
     3
 72
    14
 73
    10
 74
     0
 42
0.0000000001
 43
0.0000000001
 40
1.375453680100176
 40
1.375453680100176
 40
1.375453680100176
 40
1.375453680100176
 40
2.086456946466044
 40
2.086456946466044
 40
3.129685419699066
 40
3.129685419699066
 40
4.172913892932088
 40
4.172913892932088
 40
4.693160335651
 40
4.693160335651
 40
4.693160335651
 40
4.693160335651
 10
17.43495487136573
 20
1.359604589264535
 30
0.0
 10
17.19113637311642
 20
1.434460853713972
 30
0.0
 10
16.94207093792124
 20
1.500650323530351
 30
0.0
 10
16.32208630632493
 20
1.639857464326184
 30
0.0
 10
15.94836061250095
 20
1.701500387854793
 30
0.0
 10
15.21118831431164
 20
1.781566489081058
 30
0.0
 10
14.84774282441106
 20
1.800000000000011
 30
0.0
 10
14.32658451909373
 20
1.800000000000011
 30
0.0
 10
14.15046280959427
 20
1.795478169275754
 30
0.0
 10
13.9724973504471
 20
1.786077355734591
 30
0.0
  0
ELLIPSE
  5
20F1F
330
1F
100
AcDbEntity
  8
AM_0
100
AcDbEllipse
 10
23.40510283120949
 20
1.700000000000102
 30
0.0
 11
10.07754470229426
 21
-1.731680393773391
 31
0.0
210
0.0
220
0.0
230
1.0
 40
0.3577983824033982
 41
2.143853823124137
 42
3.20290760867605
  0
SPLINE
  5
20F20
330
1F
100
AcDbEntity
  8
AM_0
100
AcDbSpline
210
0.0
220
0.0
230
1.0
 70
     8
 71
     3
 72
    16
 73
    12
 74
     0
 42
0.0000000001
 43
0.0000000001
 40
1.339929193727084
 40
1.339929193727084
 40
1.339929193727084
 40
1.339929193727084
 40
1.479246440299245
 40
1.479246440299245
 40
2.09274954718622
 40
2.09274954718622
 40
2.499751001576306
 40
2.499751001576306
 40
2.906752455966392
 40
2.906752455966392
 40
2.909039512462998
 40
2.909039512462998
 40
2.909039512462998
 40
2.909039512462998
 10
13.9724973504471
 20
1.786077355734591
 30
0.0
 10
13.93864287801841
 20
1.823453421667864
 30
0.0
 10
13.90533157527318
 20
1.861536455815582
 30
0.0
 10
13.7297136061157
 20
2.070467854957968
 30
0.0
 10
13.60321514069551
 20
2.252754009849298
 30
0.0
 10
13.44936977942285
 20
2.551020545531856
 30
0.0
 10
13.39754371824733
 20
2.678501966126959
 30
0.0
 10
13.32713311476232
 20
2.940009057040328
 30
0.0
 10
13.30869724641224
 20
3.074053115541005
 30
0.0
 10
13.30852929038912
 20
3.206005183838101
 30
0.0
 10
13.30852891460614
 20
3.206742449235264
 30
0.0
 10
13.30852909587179
 20
3.20747964626986
 30
0.0
  0
SPLINE
  5
20F21
330
1F
100
AcDbEntity
  8
AM_0
100
AcDbSpline
210
0.0
220
0.0
230
1.0
 70
     8
 71
     3
 72
    12
 73
     8
 74
     0
 42
0.0000000001
 43
0.0000000001
 40
-1.053332105489469
 40
-1.053332105489469
 40
-1.053332105489469
 40
-1.053332105489469
 40
-0.7727665941582984
 40
-0.7727665941582984
 40
-0.3863832970791492
 40
-0.3863832970791492
 40
0.0
 40
0.0
 40
0.0
 40
0.0
 10
17.43495487135419
 20
1.359604589265985
 30
0.0
 10
17.49126985571672
 20
1.342314968537181
 30
0.0
 10
17.54210913899664
 20
1.326158211541326
 30
0.0
 10
17.64614322103466
 20
1.292407265099882
 30
0.0
 10
17.6930325749035
 20
1.27658300278793
 30
0.0
 10
17.7553191921636
 20
1.255367754811374
 30
0.0
 10
17.77070328828535
 20
1.25
 30
0.0
 10
17.77070328828535
 20
1.25
 30
0.0
  0
SPLINE
  5
20F22
330
1F
100
AcDbEntity
  8
AM_0
100
AcDbSpline
210
0.0
220
0.0
230
1.0
 70
     8
 71
     3
 72
    16
 73
    12
 74
     0
 42
0.0000000001
 43
0.0000000001
 40
1.038803185868014
 40
1.038803185868014
 40
1.038803185868014
 40
1.038803185868014
 40
1.390273824305945
 40
1.390273824305945
 40
2.085410736458917
 40
2.085410736458917
 40
2.78054764861189
 40
2.78054764861189
 40
3.38633451505895
 40
3.38633451505895
 40
3.990286170957199
 40
3.990286170957199
 40
3.990286170957199
 40
3.990286170957199
 10
13.13397459621552
 20
10.49810612326598
 30
0.0
 10
13.2434631884318
 20
10.44754360049288
 30
0.0
 10
13.35056743840556
 20
10.39395709376171
 30
0.0
 10
13.65881660323845
 20
10.22530171241994
 30
0.0
 10
13.84971575299153
 20
10.10112628914499
 30
0.0
 10
14.18714305106875
 20
9.828416058189731
 30
0.0
 10
14.33364871764042
 20
9.679777509089035
 30
0.0
 10
14.55451678260147
 20
9.381099117161085
 30
0.0
 10
14.64532768044325
 20
9.218506851808684
 30
0.0
 10
14.76519670579415
 20
8.873761482943309
 30
0.0
 10
14.79422430168364
 20
8.691421633987545
 30
0.0
 10
14.79438800971343
 20
8.519900345350038
 30
0.0
  0
ELLIPSE
  5
20F23
330
1F
100
AcDbEntity
  8
AM_0
100
AcDbEllipse
 10
12.92154394940661
 20
10.91010371490324
 30
0.0
 11
-2.095973855600541
 21
2.20382288484567
 31
0.0
210
0.0
220
0.0
230
1.0
 40
0.8611796173631692
 41
1.961388270886972
 42
3.030593767635777
  0
SPLINE
  5
20F24
330
1F
100
AcDbEntity
  8
AM_0
100
AcDbSpline
210
0.0
220
0.0
230
1.0
 70
     8
 71
     3
 72
    20
 73
    16
 74
     0
 42
0.0000000001
 43
0.0000000001
 40
3.734772811489828
 40
3.734772811489828
 40
3.734772811489828
 40
3.734772811489828
 40
4.024545325469532
 40
4.024545325469532
 40
4.422557800475246
 40
4.422557800475246
 40
4.820570275480962
 40
4.820570275480962
 40
5.229687894339769
 40
5.229687894339769
 40
5.638805513198575
 40
5.638805513198575
 40
6.047923132057381
 40
6.047923132057381
 40
6.2488431532341
 40
6.2488431532341
 40
6.2488431532341
 40
6.2488431532341
 10
13.13397459621552
 20
11.23424712827904
 30
0.0
 10
13.1604929785662
 20
11.23463853512274
 30
0.0
 10
13.19452291311671
 20
11.23021125680324
 30
0.0
 10
13.29116201026579
 20
11.20941762278346
 30
0.0
 10
13.35989033309403
 20
11.18914607076255
 30
0.0
 10
13.51598309495876
 20
11.1369860642595
 30
0.0
 10
13.60335889873551
 20
11.10513360182586
 30
0.0
 10
13.78918589292442
 20
11.03566268789069
 30
0.0
 10
13.89454530098334
 20
10.99536917546206
 30
0.0
 10
14.12233580546433
 20
10.90953215282315
 30
0.0
 10
14.24476926047186
 20
10.86403065722539
 30
0.0
 10
14.49987917004665
 20
10.7736682509863
 30
0.0
 10
14.63274290721216
 20
10.72878893895768
 30
0.0
 10
14.83263430780608
 20
10.6662708843607
 30
0.0
 10
14.8987541575496
 20
10.64638088520965
 30
0.0
 10
14.96461054314528
 20
10.62742702935285
 30
0.0
  0
SPLINE
  5
20F25
330
1F
100
AcDbEntity
  8
AM_0
100
AcDbSpline
210
0.0
220
0.0
230
1.0
 70
     8
 71
     3
 72
    20
 73
    16
 74
     0
 42
0.0000000001
 43
0.0000000001
 40
0.208197597682077
 40
0.208197597682077
 40
0.208197597682077
 40
0.208197597682077
 40
0.4091176188588119
 40
0.4091176188588119
 40
0.8182352377176239
 40
0.8182352377176239
 40
1.227352856576436
 40
1.227352856576436
 40
1.636470475435248
 40
1.636470475435248
 40
2.034482950440962
 40
2.034482950440962
 40
2.432495425446676
 40
2.432495425446676
 40
2.722267939426344
 40
2.722267939426344
 40
2.722267939426344
 40
2.722267939426344
 10
14.96461054314528
 20
9.967563954218548
 30
0.0
 10
14.8987541575496
 20
9.986517810075355
 30
0.0
 10
14.83263430780608
 20
10.00760028764063
 30
0.0
 10
14.63274290721216
 20
10.07738541492256
 30
0.0
 10
14.49987917004665
 20
10.13215200909093
 30
0.0
 10
14.2447692604718
 20
10.25158159264205
 30
0.0
 10
14.12233580546433
 20
10.31628075685873
 30
0.0
 10
13.89454530098334
 20
10.4481892455068
 30
0.0
 10
13.78918589292442
 20
10.51536609343526
 30
0.0
 10
13.60335889873551
 20
10.64280333985505
 30
0.0
 10
13.5159830949587
 20
10.70759129541472
 30
0.0
 10
13.35989033309397
 20
10.83292392909658
 30
0.0
 10
13.29116201026579
 20
10.89343494368552
 30
0.0
 10
13.19452291311671
 20
10.98798518462883
 30
0.0
 10
13.16049297856614
 20
11.0248272234748
 30
0.0
 10
13.13397459621552
 20
11.05757872175613
 30
0.0
  0
LINE
  5
20F26
330
1F
100
AcDbEntity
  8
AM_0
100
AcDbLine
 10
13.29357093694472
 20
11.20723628938666
 30
0.0
 11
13.13397459621552
 21
11.25
 31
0.0
  0
LINE
  5
20F27
330
1F
100
AcDbEntity
  8
AM_0
100
AcDbLine
 10
13.13397459621552
 20
10.49810612326598
 30
0.0
 11
13.13397459621552
 21
11.05757872175613
 31
0.0
  0
SPLINE
  5
20F28
330
1F
100
AcDbEntity
  8
AM_0
100
AcDbSpline
210
0.0
220
0.0
230
1.0
 70
     8
 71
     3
 72
    12
 73
     8
 74
     0
 42
0.0000000001
 43
0.0000000001
 40
0.9517356377449426
 40
0.9517356377449426
 40
0.9517356377449426
 40
0.9517356377449426
 40
1.506097342524861
 40
1.506097342524861
 40
2.06045904730478
 40
2.06045904730478
 40
2.083790373290919
 40
2.083790373290919
 40
2.083790373290919
 40
2.083790373290919
 10
11.9646105462885
 20
10.59238636014001
 30
0.0
 10
12.1493977812151
 20
10.59238636014001
 30
0.0
 10
12.34165457321086
 20
10.58572022828196
 30
0.0
 10
12.72782421327878
 20
10.55638909188019
 30
0.0
 10
12.92173815511404
 20
10.53372490049716
 30
0.0
 10
13.11813857305532
 20
10.5008120589404
 30
0.0
 10
13.12606140732572
 20
10.4994670122326
 30
0.0
 10
13.13397459621552
 20
10.49810612326598
 30
0.0
  0
LINE
  5
20F29
330
1F
100
AcDbEntity
  8
AM_0
100
AcDbLine
 10
13.13397459621552
 20
11.23424712827904
 30
0.0
 11
13.13397459621552
 21
11.25
 31
0.0
  0
SPLINE
  5
20F2A
330
1F
100
AcDbEntity
  8
AM_0
100
AcDbSpline
210
0.0
220
0.0
230
1.0
 70
     8
 71
     3
 72
    14
 73
    10
 74
     0
 42
0.0000000001
 43
0.0000000001
 40
2.391793449940779
 40
2.391793449940779
 40
2.391793449940779
 40
2.391793449940779
 40
2.530148097559683
 40
2.530148097559683
 40
2.891461948757016
 40
2.891461948757016
 40
3.25277579995435
 40
3.25277579995435
 40
3.391130447573229
 40
3.391130447573229
 40
3.391130447573229
 40
3.391130447573229
 10
13.13397459621552
 20
11.05757872175613
 30
0.0
 10
13.12101417971388
 20
11.07014932681145
 30
0.0
 10
13.10986823109579
 20
11.08220312335379
 30
0.0
 10
13.0762471536496
 20
11.12357325255539
 30
0.0
 10
13.06461054314531
 20
11.14932687270536
 30
0.0
 10
13.06461054314531
 20
11.19115453392286
 30
0.0
 10
13.0762471536496
 20
11.20853861206496
 30
0.0
 10
13.10986823109579
 20
11.22633869703768
 30
0.0
 10
13.12101417971388
 20
11.23061969196007
 30
0.0
 10
13.13397459621552
 20
11.23424712827904
 30
0.0
  0
ELLIPSE
  5
20F2B
330
1F
100
AcDbEntity
  8
AM_0
100
AcDbEllipse
 10
7.62496012231594
 20
6.0
 30
0.0
 11
-11.96708433397443
 21
2.056370467605902
 31
0.0
210
0.0
220
0.0
230
1.0
 40
0.357798382403398
 41
3.915205275972006
 42
4.111261606237304
  0
LINE
  5
20F2C
330
1F
100
AcDbEntity
  8
AM_0
100
AcDbLine
 10
14.99999999999994
 20
8.368170228281173
 30
0.0
 11
14.99999999999994
 21
9.957376731932783
 31
0.0
  0
ELLIPSE
  5
20F2D
330
1F
100
AcDbEntity
  8
AM_0
100
AcDbEllipse
 10
-13.53902269880638
 20
9.159210102291983
 30
0.0
 11
-31.2636942725578
 21
5.025413996079977
 31
0.0
210
0.0
220
0.0
230
1.0
 40
0.2639760091441422
 41
3.606593752082467
 42
3.622340038989682
  0
LINE
  5
20F2E
330
1F
100
AcDbEntity
  8
AM_0
100
AcDbLine
 10
14.9999999924982
 20
9.957376706658238
 30
0.0
 11
14.96461054314528
 21
9.967563954218548
 31
0.0
  0
LINE
  5
20F2F
330
1F
100
AcDbEntity
  8
AM_0
100
AcDbLine
 10
14.96461054314528
 20
10.62742702935285
 30
0.0
 11
14.9999999924982
 21
10.61723978179253
 31
0.0
  0
SPLINE
  5
20F30
330
1F
100
AcDbEntity
  8
AM_0
100
AcDbSpline
210
0.0
220
0.0
230
1.0
 70
     8
 71
     3
 72
    30
 73
    26
 74
     0
 42
0.0000000001
 43
0.0000000001
 40
4.669428964083762
 40
4.669428964083762
 40
4.669428964083762
 40
4.669428964083762
 40
4.775303076943898
 40
4.775303076943898
 40
5.164588656535509
 40
5.164588656535509
 40
5.55387423612712
 40
5.55387423612712
 40
5.94315981571873
 40
5.94315981571873
 40
6.332445395310341
 40
6.332445395310341
 40
6.721730974901952
 40
6.721730974901952
 40
7.111016554493563
 40
7.111016554493563
 40
7.500302134085175
 40
7.500302134085175
 40
8.428211557333425
 40
8.428211557333425
 40
9.356120980581675
 40
9.356120980581675
 40
10.28403040382993
 40
10.28403040382993
 40
10.92827734087779
 40
10.92827734087779
 40
10.92827734087779
 40
10.92827734087779
 10
23.31919926284155
 20
-51.1787164840176
 30
0.0
 10
23.33584470168381
 20
-51.19311385435628
 30
0.0
 10
23.35199853603461
 20
-51.2080267183766
 30
0.0
 10
23.42494697981351
 20
-51.28016148508183
 30
0.0
 10
23.4746609402082
 20
-51.34387624290764
 30
0.0
 10
23.55439068301723
 20
-51.48342318548649
 30
0.0
 10
23.58445135122162
 20
-51.55935513961762
 30
0.0
 10
23.62374786508588
 20
-51.71923191654477
 30
0.0
 10
23.63298189815436
 20
-51.80318067423175
 30
0.0
 10
23.63298189815436
 20
-51.97240033068655
 30
0.0
 10
23.62374786508588
 20
-52.06417255470777
 30
0.0
 10
23.58445135122162
 20
-52.25693487626089
 30
0.0
 10
23.55439068301723
 20
-52.35792186798437
 30
0.0
 10
23.4746609402082
 20
-52.56254912555565
 30
0.0
 10
23.42494697981351
 20
-52.66629894593504
 30
0.0
 10
23.31024548997226
 20
-52.86947213856288
 30
0.0
 10
23.24526087490978
 20
-52.96887959613537
 30
0.0
 10
23.01224379053429
 20
-53.2860077714403
 30
0.0
 10
22.809336899725
 20
-53.50079795369726
 30
0.0
 10
22.34313228714825
 20
-53.88842452791704
 30
0.0
 10
22.07972133363234
 20
-54.06107944701898
 30
0.0
 10
21.51381296907636
 20
-54.34351671499218
 30
0.0
 10
21.21078655042606
 20
-54.45340941384743
 30
0.0
 10
20.6856015261414
 20
-54.57690078948403
 30
0.0
 10
20.46704464755231
 20
-54.60979186682528
 30
0.0
 10
20.25000000000006
 20
-54.62499994236208
 30
0.0
  0
SPLINE
  5
20F31
330
1F
100
AcDbEntity
  8
AM_0
100
AcDbSpline
210
0.0
220
0.0
230
1.0
 70
    28
 71
     2
 72
     6
 73
     3
 74
     0
 42
0.0000000001
 43
0.0000000001
 40
0.0
 40
0.0
 40
0.0
 40
0.7048271353547252
 40
0.7048271353547252
 40
0.7048271353547252
 10
20.00000000000006
 20
-60.1787164840176
 30
0.0
 41
1.0
 10
20.1027454765017
 20
-60.1787164840176
 30
0.0
 41
1.002290359892704
 10
20.25000000000006
 20
-60.1787164840176
 30
0.0
 41
1.0
  0
LINE
  5
20F32
330
1F
100
AcDbEntity
  8
AM_0
100
AcDbLine
 10
20.00000000000006
 20
-60.17871648401763
 30
0.0
 11
20.00000000000006
 21
-54.6640522928428
 31
0.0
  0
LINE
  5
20F33
330
1F
100
AcDbEntity
  8
AM_0
100
AcDbLine
 10
20.25000000000006
 20
-60.17871648401763
 30
0.0
 11
20.25000000000006
 21
-54.62499994236208
 31
0.0
  0
SPLINE
  5
20F34
330
1F
100
AcDbEntity
  8
AM_0
100
AcDbSpline
210
0.0
220
0.0
230
1.0
 70
     8
 71
     3
 72
    10
 73
     6
 74
     0
 42
0.0000000001
 43
0.0000000001
 40
1.358332210775787
 40
1.358332210775787
 40
1.358332210775787
 40
1.358332210775787
 40
1.378279382815335
 40
1.378279382815335
 40
1.702789915969291
 40
1.702789915969291
 40
1.702789915969291
 40
1.702789915969291
 10
20.25000000000006
 20
-54.62499994236208
 30
0.0
 10
20.24527349545048
 20
-54.62602879824439
 30
0.0
 10
20.24055922303256
 20
-54.62703853561692
 30
0.0
 10
20.15936976330778
 20
-54.64414787359272
 30
0.0
 10
20.08030184711538
 20
-54.65646088775213
 30
0.0
 10
20.00000000000006
 20
-54.66405229284277
 30
0.0
  0
SPLINE
  5
20F35
330
1F
100
AcDbEntity
  8
AM_0
100
AcDbSpline
210
0.0
220
0.0
230
1.0
 70
     8
 71
     3
 72
     8
 73
     4
 74
     0
 42
0.0000000001
 43
0.0000000001
 40
0.9494917139574323
 40
0.9494917139574323
 40
0.9494917139574323
 40
0.9494917139574323
 40
0.9846452881851995
 40
0.9846452881851995
 40
0.9846452881851995
 40
0.9846452881851995
 10
20.00000000000006
 20
-54.66405229284277
 30
0.0
 10
19.9881270236429
 20
-54.66415579112831
 30
0.0
 10
19.97632840436438
 20
-54.66420653724271
 30
0.0
 10
19.9646105462885
 20
-54.66420653724271
 30
0.0
  0
LINE
  5
20F36
330
1F
100
AcDbEntity
  8
AM_0
100
AcDbLine
 10
19.9646105462885
 20
-51.1787164840176
 30
0.0
 11
23.31919926284155
 21
-51.1787164840176
 31
0.0
  0
LINE
  5
20F37
330
1F
100
AcDbEntity
  8
AM_0
100
AcDbLine
 10
20.00000000000006
 20
1.25
 30
0.0
 11
20.25000000000006
 21
1.0
 31
0.0
  0
SPLINE
  5
20F38
330
1F
100
AcDbEntity
  8
AM_0
100
AcDbSpline
210
0.0
220
0.0
230
1.0
 70
     8
 71
     3
 72
    30
 73
    26
 74
     0
 42
0.0000000001
 43
0.0000000001
 40
4.669428964083762
 40
4.669428964083762
 40
4.669428964083762
 40
4.669428964083762
 40
4.775303076943898
 40
4.775303076943898
 40
5.164588656535509
 40
5.164588656535509
 40
5.55387423612712
 40
5.55387423612712
 40
5.94315981571873
 40
5.94315981571873
 40
6.332445395310341
 40
6.332445395310341
 40
6.721730974901952
 40
6.721730974901952
 40
7.111016554493563
 40
7.111016554493563
 40
7.500302134085175
 40
7.500302134085175
 40
8.428211557333425
 40
8.428211557333425
 40
9.356120980581675
 40
9.356120980581675
 40
10.28403040382993
 40
10.28403040382993
 40
10.92827734087779
 40
10.92827734087779
 40
10.92827734087779
 40
10.92827734087779
 10
23.31919926284155
 20
3.82055052822966
 30
0.0
 10
23.33584470168381
 20
3.79082367869114
 30
0.0
 10
23.35199853603461
 20
3.760784133955667
 30
0.0
 10
23.42494697981351
 20
3.619175681671266
 30
0.0
 10
23.4746609402082
 20
3.504597477909755
 30
0.0
 10
23.55439068301723
 20
3.276511663305939
 30
0.0
 10
23.58445135122162
 20
3.162878144900162
 30
0.0
 10
23.62374786508588
 20
2.943714629036435
 30
0.0
 10
23.63298189815436
 20
2.838187177054465
 30
0.0
 10
23.63298189815436
 20
2.64142013466514
 30
0.0
 10
23.62374786508588
 20
2.542620863730633
 30
0.0
 10
23.58445135122162
 20
2.351738916245211
 30
0.0
 10
23.55439068301723
 20
2.259652730168853
 30
0.0
 10
23.4746609402082
 20
2.087535986458533
 30
0.0
 10
23.42494697981351
 20
2.007387936493103
 30
0.0
 10
23.31024548997226
 20
1.86191388230688
 30
0.0
 10
23.24526087490978
 20
1.796563354785747
 30
0.0
 10
23.01224379053429
 20
1.60185630850043
 30
0.0
 10
22.809336899725
 20
1.494308599591307
 30
0.0
 10
22.34313228714825
 20
1.326731462841735
 30
0.0
 10
22.07972133363234
 20
1.266597364621504
 30
0.0
 10
21.51381296907636
 20
1.179306404061435
 30
0.0
 10
21.21078655042606
 20
1.151883553586259
 30
0.0
 10
20.6856015261414
 20
1.12263322106179
 30
0.0
 10
20.46704464755231
 20
1.115571456376927
 30
0.0
 10
20.25000000000006
 20
1.112292822821559
 30
0.0
  0
SPLINE
  5
20F39
330
1F
100
AcDbEntity
  8
AM_0
100
AcDbSpline
210
0.0
220
0.0
230
1.0
 70
     8
 71
     3
 72
    10
 73
     6
 74
     0
 42
0.0000000001
 43
0.0000000001
 40
1.358332210775787
 40
1.358332210775787
 40
1.358332210775787
 40
1.358332210775787
 40
1.378279382815335
 40
1.378279382815335
 40
1.702789915969291
 40
1.702789915969291
 40
1.702789915969291
 40
1.702789915969291
 10
20.25000000000006
 20
1.112292822821559
 30
0.0
 10
20.24527349545048
 20
1.116906110702473
 30
0.0
 10
20.24055922303256
 20
1.121511007346385
 30
0.0
 10
20.15936976330778
 20
1.200877240244438
 30
0.0
 10
20.08030184711538
 20
1.279099107514242
 30
0.0
 10
20.00000000000006
 20
1.359638313757472
 30
0.0
  0
LINE
  5
20F3A
330
1F
100
AcDbEntity
  8
AM_0
100
AcDbLine
 10
20.25000000000006
 20
1.0
 30
0.0
 11
20.25000000000006
 21
1.112292822821559
 31
0.0
  0
SPLINE
  5
20F3B
330
1F
100
AcDbEntity
  8
AM_0
100
AcDbSpline
210
0.0
220
0.0
230
1.0
 70
     8
 71
     3
 72
    38
 73
    34
 74
     0
 42
0.0000000001
 43
0.0000000001
 40
-5.789259305062274
 40
-5.789259305062274
 40
-5.789259305062274
 40
-5.789259305062274
 40
-5.427283887971719
 40
-5.427283887971719
 40
-5.065308470881165
 40
-5.065308470881165
 40
-4.70333305379061
 40
-4.70333305379061
 40
-4.341357636700056
 40
-4.341357636700056
 40
-3.97967564065782
 40
-3.97967564065782
 40
-3.617993644615586
 40
-3.617993644615586
 40
-3.256311648573352
 40
-3.256311648573352
 40
-2.894629652531116
 40
-2.894629652531116
 40
-2.532947656488881
 40
-2.532947656488881
 40
-2.171265660446647
 40
-2.171265660446647
 40
-1.809583664404411
 40
-1.809583664404411
 40
-1.447901668362176
 40
-1.447901668362176
 40
-1.085926251271633
 40
-1.085926251271633
 40
-0.723950834181089
 40
-0.723950834181089
 40
-0.3619754170905445
 40
-0.3619754170905445
 40
0.0
 40
0.0
 40
0.0
 40
0.0
 10
34.96461054314528
 20
10.88460085369817
 30
0.0
 10
35.0852690155088
 20
10.88460085369817
 30
0.0
 10
35.20960395029243
 20
10.88735387890148
 30
0.0
 10
35.45609320809353
 20
10.89816443125627
 30
0.0
 10
35.57825234457295
 20
10.90620248441382
 30
0.0
 10
35.81188440922171
 20
10.92520093238042
 30
0.0
 10
35.92356649449022
 20
10.93613584291512
 30
0.0
 10
36.12982761313697
 20
10.9574532005856
 30
0.0
 10
36.22440792283464
 20
10.96778752564063
 30
0.0
 10
36.3917510794098
 20
10.98470147821641
 30
0.0
 10
36.47043557621174
 20
10.99192153801792
 30
0.0
 10
36.60951713583103
 20
11.00026483480511
 30
0.0
 10
36.66992481488836
 20
11.00134916942318
 30
0.0
 10
36.76726195719942
 20
10.99475344556523
 30
0.0
 10
36.80426875911689
 20
10.98703997770582
 30
0.0
 10
36.85295016897095
 20
10.96215611734146
 30
0.0
 10
36.86461054314526
 20
10.94497390489692
 30
0.0
 10
36.86461054314526
 20
10.90310362522515
 30
0.0
 10
36.85295016897095
 20
10.87711661672639
 30
0.0
 10
36.80426875911689
 20
10.81639007732195
 30
0.0
 10
36.76726195719937
 20
10.78166109901323
 30
0.0
 10
36.66992481488836
 20
10.70708245888153
 30
0.0
 10
36.60951713583103
 20
10.66719406661911
 30
0.0
 10
36.47043557621174
 20
10.58721106220412
 30
0.0
 10
36.39175107940974
 20
10.54715487484611
 30
0.0
 10
36.22440792283464
 20
10.47212325390171
 30
0.0
 10
36.12982761313691
 20
10.4344591368341
 30
0.0
 10
35.92356649449022
 20
10.36484935284477
 30
0.0
 10
35.81188440922171
 20
10.33294710798577
 30
0.0
 10
35.57825234457295
 20
10.28015745470685
 30
0.0
 10
35.45609320809348
 20
10.25926874153683
 30
0.0
 10
35.20960395029243
 20
10.23154650304934
 30
0.0
 10
35.0852690155088
 20
10.22473777856387
 30
0.0
 10
34.96461054314528
 20
10.22473777856387
 30
0.0
  0
LINE
  5
20F3C
330
1F
100
AcDbEntity
  8
AM_0
100
AcDbLine
 10
34.96461054314528
 20
10.22473777856385
 30
0.0
 11
20.25000000000006
 21
10.22473777856385
 31
0.0
  0
LINE
  5
20F3D
330
1F
100
AcDbEntity
  8
AM_0
100
AcDbLine
 10
20.25000000000006
 20
10.88460085369817
 30
0.0
 11
34.96461054314528
 21
10.88460085369817
 31
0.0
  0
ARC
  5
20F3E
330
1F
100
AcDbEntity
  8
AM_0
100
AcDbCircle
 10
19.9646105462885
 20
1.700000000000102
 30
0.0
 40
3.968626966596888
100
AcDbArc
 50
32.29838397438373
 51
90.0
  0
LINE
  5
20F3F
330
1F
100
AcDbEntity
  8
AM_0
100
AcDbLine
 10
20.00000000000006
 20
1.25
 30
0.0
 11
20.00000000000006
 21
1.359638313757472
 31
0.0
  0
SPLINE
  5
20F40
330
1F
100
AcDbEntity
  8
AM_0
100
AcDbSpline
210
0.0
220
0.0
230
1.0
 70
     8
 71
     3
 72
     8
 73
     4
 74
     0
 42
0.0000000001
 43
0.0000000001
 40
0.9494917139574323
 40
0.9494917139574323
 40
0.9494917139574323
 40
0.9494917139574323
 40
0.9846452881851995
 40
0.9846452881851995
 40
0.9846452881851995
 40
0.9846452881851995
 10
20.00000000000006
 20
1.359638313757472
 30
0.0
 10
19.9881270236429
 20
1.359615682762041
 30
0.0
 10
19.97632840436438
 20
1.359604589273147
 30
0.0
 10
19.9646105462885
 20
1.359604589273147
 30
0.0
  0
SPLINE
  5
20F41
330
1F
100
AcDbEntity
  8
AM_0
100
AcDbSpline
210
0.0
220
0.0
230
1.0
 70
    12
 71
     2
 72
     6
 73
     3
 74
     0
 42
0.0000000001
 43
0.0000000001
 40
0.0
 40
0.0
 40
0.0
 40
0.7048271353547252
 40
0.7048271353547252
 40
0.7048271353547252
 10
20.25000000000006
 20
8.17944947177034
 30
0.0
 41
1.0
 10
20.1027454765017
 20
7.841624426028915
 30
0.0
 41
1.002290359892704
 10
20.00000000000006
 20
7.520690632574542
 30
0.0
 41
1.0
  0
LINE
  5
20F42
330
1F
100
AcDbEntity
  8
AM_0
100
AcDbLine
 10
20.25000000000006
 20
8.17944947177034
 30
0.0
 11
20.25000000000006
 21
10.22473777856388
 31
0.0
  0
LINE
  5
20F43
330
1F
100
AcDbEntity
  8
AM_0
100
AcDbLine
 10
20.00000000000006
 20
7.520690632574542
 30
0.0
 11
20.00000000000006
 21
9.957376731932783
 31
0.0
  0
SPLINE
  5
20F44
330
1F
100
AcDbEntity
  8
AM_0
100
AcDbSpline
210
0.0
220
0.0
230
1.0
 70
    12
 71
     2
 72
     6
 73
     3
 74
     0
 42
0.0000000001
 43
0.0000000001
 40
0.0
 40
0.0
 40
0.0
 40
0.3690590295139445
 40
0.3690590295139445
 40
0.3690590295139445
 10
20.25000000000006
 20
10.22473777856388
 30
0.0
 41
1.0
 10
20.12122028776651
 20
10.08762954951954
 30
0.0
 41
1.000387888380082
 10
20.00000000000006
 20
9.957376731932783
 30
0.0
 41
1.0
  0
SPLINE
  5
20F45
330
1F
100
AcDbEntity
  8
AM_0
100
AcDbSpline
210
0.0
220
0.0
230
1.0
 70
    12
 71
     2
 72
     6
 73
     3
 74
     0
 42
0.0000000001
 43
0.0000000001
 40
0.0
 40
0.0
 40
0.0
 40
0.3690590295139462
 40
0.3690590295139462
 40
0.3690590295139462
 10
20.00000000000006
 20
10.61723980706708
 30
0.0
 41
1.0
 10
20.1212202877673
 20
10.74749262465528
 30
0.0
 41
1.000387888381175
 10
20.25000000000006
 20
10.88460085369817
 30
0.0
 41
1.0
  0
SPLINE
  5
20F46
330
1F
100
AcDbEntity
  8
AM_0
100
AcDbSpline
210
0.0
220
0.0
230
1.0
 70
    28
 71
     2
 72
     6
 73
     3
 74
     0
 42
0.0000000001
 43
0.0000000001
 40
0.0
 40
0.0
 40
0.0
 40
2.23606797749979
 40
2.23606797749979
 40
2.23606797749979
 10
124.0
 20
-51.17871648401761
 30
0.0
 41
1.0
 10
124.5
 20
-51.17871648401761
 30
0.0
 41
1.055555555555552
 10
124.5
 20
-51.17871648401761
 30
0.0
 41
1.055555555555552
  0
SPLINE
  5
20F47
330
1F
100
AcDbEntity
  8
AM_0
100
AcDbSpline
210
0.0
220
0.0
230
1.0
 70
    28
 71
     2
 72
     6
 73
     3
 74
     0
 42
0.0000000001
 43
0.0000000001
 40
0.0
 40
0.0
 40
0.0
 40
2.23606797749979
 40
2.23606797749979
 40
2.23606797749979
 10
124.0
 20
-60.17871648401761
 30
0.0
 41
1.0
 10
124.5
 20
-60.17871648401761
 30
0.0
 41
1.055555555555552
 10
124.5
 20
-60.17871648401761
 30
0.0
 41
1.055555555555552
  0
LINE
  5
20F48
330
1F
100
AcDbEntity
  8
AM_0
100
AcDbLine
 10
124.0
 20
-60.17871648401764
 30
0.0
 11
124.0
 21
-51.17871648401761
 31
0.0
  0
LINE
  5
20F49
330
1F
100
AcDbEntity
  8
AM_0
100
AcDbLine
 10
125.0
 20
-59.67871648401761
 30
0.0
 11
125.0
 21
-51.67871648401761
 31
0.0
  0
LINE
  5
20F4A
330
1F
100
AcDbEntity
  8
AM_0
100
AcDbLine
 10
125.0
 20
-59.67871648401761
 30
0.0
 11
124.5
 21
-60.17871648401761
 31
0.0
  0
LINE
  5
20F4B
330
1F
100
AcDbEntity
  8
AM_0
100
AcDbLine
 10
125.0
 20
-51.67871648401761
 30
0.0
 11
124.5
 21
-51.17871648401761
 31
0.0
  0
LINE
  5
20F4C
330
1F
100
AcDbEntity
  8
AM_0
100
AcDbLine
 10
125.0
 20
1.999999999999986
 30
0.0
 11
124.0
 21
0.9999999999999858
 31
0.0
  0
LINE
  5
20F4D
330
1F
100
AcDbEntity
  8
AM_0
100
AcDbLine
 10
124.0
 20
0.9999999999999858
 30
0.0
 11
124.0
 21
3.820550528229646
 31
0.0
  0
LINE
  5
20F4E
330
1F
100
AcDbEntity
  8
AM_0
100
AcDbLine
 10
125.0
 20
9.999999999999986
 30
0.0
 11
124.0
 21
10.99999999999999
 31
0.0
  0
SPLINE
  5
20F4F
330
1F
100
AcDbEntity
  8
AM_0
100
AcDbSpline
210
0.0
220
0.0
230
1.0
 70
    12
 71
     2
 72
     6
 73
     3
 74
     0
 42
0.0000000001
 43
0.0000000001
 40
0.0
 40
0.0
 40
0.0
 40
4.47213595499958
 40
4.47213595499958
 40
4.47213595499958
 10
124.0
 20
3.820550528229646
 30
0.0
 41
1.0
 10
124.95
 20
5.999999999999986
 30
0.0
 41
1.111111111111104
 10
124.0
 20
8.179449471770326
 30
0.0
 41
1.0
  0
LINE
  5
20F50
330
1F
100
AcDbEntity
  8
AM_0
100
AcDbLine
 10
124.0
 20
8.179449471770326
 30
0.0
 11
124.0
 21
10.99999999999999
 31
0.0
  0
LINE
  5
20F51
330
1F
100
AcDbEntity
  8
AM_0
100
AcDbLine
 10
125.0
 20
1.999999999999986
 30
0.0
 11
125.0
 21
9.999999999999986
 31
0.0
  0
LINE
  5
20F52
330
1F
100
AcDbEntity
  8
AM_0
100
AcDbLine
 10
-49.14888629853311
 20
9.924313262872353
 30
0.0
 11
-50.44215655306283
 21
0.4118780190344822
 31
0.0
  0
LINE
  5
20F53
330
1F
100
AcDbEntity
  8
AM_0
100
AcDbLine
 10
-52.50956098252192
 20
0.681498704080191
 30
0.0
 11
-53.58613624227741
 21
1.202392545501773
 31
0.0
  0
SPLINE
  5
20F54
330
1F
100
AcDbEntity
  8
AM_0
100
AcDbSpline
210
0.0
220
0.0
230
1.0
 70
     8
 71
     3
 72
    30
 73
    26
 74
     0
 42
0.0000000001
 43
0.0000000001
 40
4.669428964083762
 40
4.669428964083762
 40
4.669428964083762
 40
4.669428964083762
 40
4.775303076943898
 40
4.775303076943898
 40
5.164588656535509
 40
5.164588656535509
 40
5.55387423612712
 40
5.55387423612712
 40
5.94315981571873
 40
5.94315981571873
 40
6.332445395310341
 40
6.332445395310341
 40
6.721730974901952
 40
6.721730974901952
 40
7.111016554493563
 40
7.111016554493563
 40
7.500302134085175
 40
7.500302134085175
 40
8.428211557333425
 40
8.428211557333425
 40
9.356120980581675
 40
9.356120980581675
 40
10.28403040382993
 40
10.28403040382993
 40
10.92827734087779
 40
10.92827734087779
 40
10.92827734087779
 40
10.92827734087779
 10
-46.00035899338826
 20
3.820550528229667
 30
0.0
 10
-46.01475636372692
 20
3.790823678691147
 30
0.0
 10
-46.02966922774721
 20
3.760784133955674
 30
0.0
 10
-46.10180399445238
 20
3.619175681671273
 30
0.0
 10
-46.16551875227827
 20
3.504597477909762
 30
0.0
 10
-46.30506569485709
 20
3.276511663305946
 30
0.0
 10
-46.38099764898828
 20
3.162878144900169
 30
0.0
 10
-46.54087442591543
 20
2.943714629036442
 30
0.0
 10
-46.62482318360236
 20
2.838187177054472
 30
0.0
 10
-46.79404284005722
 20
2.641420134665147
 30
0.0
 10
-46.88581506407837
 20
2.54262086373064
 30
0.0
 10
-47.07857738563149
 20
2.351738916245218
 30
0.0
 10
-47.17956437735501
 20
2.25965273016886
 30
0.0
 10
-47.38419163492625
 20
2.087535986458541
 30
0.0
 10
-47.48794145530559
 20
2.00738793649311
 30
0.0
 10
-47.69111464793349
 20
1.861913882306887
 30
0.0
 10
-47.79052210550589
 20
1.796563354785754
 30
0.0
 10
-48.1076502808109
 20
1.601856308500437
 30
0.0
 10
-48.32244046306784
 20
1.494308599591314
 30
0.0
 10
-48.71006703728762
 20
1.326731462841742
 30
0.0
 10
-48.8827219563895
 20
1.266597364621511
 30
0.0
 10
-49.16515922436275
 20
1.179306404061443
 30
0.0
 10
-49.27505192321809
 20
1.151883553586266
 30
0.0
 10
-49.39854329885469
 20
1.122633221061797
 30
0.0
 10
-49.43143437619591
 20
1.115571456376934
 30
0.0
 10
-49.44664245173266
 20
1.112292822821566
 30
0.0
  0
SPLINE
  5
20F55
330
1F
100
AcDbEntity
  8
AM_0
100
AcDbSpline
210
0.0
220
0.0
230
1.0
 70
     8
 71
     3
 72
    10
 73
     6
 74
     0
 42
0.0000000001
 43
0.0000000001
 40
1.358332210775787
 40
1.358332210775787
 40
1.358332210775787
 40
1.358332210775787
 40
1.378279382815335
 40
1.378279382815335
 40
1.702789915969291
 40
1.702789915969291
 40
1.702789915969291
 40
1.702789915969291
 10
-49.44664245173266
 20
1.112292822821566
 30
0.0
 10
-49.44767130761494
 20
1.11690611070248
 30
0.0
 10
-49.4486810449875
 20
1.121511007346392
 30
0.0
 10
-49.46579038296335
 20
1.200877240244445
 30
0.0
 10
-49.47810339712277
 20
1.279099107514249
 30
0.0
 10
-49.48569480221335
 20
1.359638313757479
 30
0.0
  0
ARC
  5
20F56
330
1F
100
AcDbEntity
  8
AM_0
100
AcDbCircle
 10
-50.50035899338826
 20
6.000000000000007
 30
0.0
 40
5.0
100
AcDbArc
 50
271.5863968393177
 51
282.1659155584954
  0
LINE
  5
20F57
330
1F
100
AcDbEntity
  8
AM_0
100
AcDbLine
 10
-52.50956098284536
 20
0.6814987042367093
 30
0.0
 11
-50.53580046755968
 21
0.0001398437459343
 31
0.0
  0
ELLIPSE
  5
20F58
330
1F
100
AcDbEntity
  8
AM_0
100
AcDbEllipse
 10
-50.47953441778788
 20
0.3961047441442034
 30
0.0
 11
0.05568690749597919
 21
0.3961047441441901
 31
0.0
210
0.0
220
0.0
230
0.9999999999999999
 40
0.0871630930102616
 41
3.124584314917581
 42
4.764470814610283
  0
ARC
  5
20F59
330
1F
100
AcDbEntity
  8
AM_0
100
AcDbCircle
 10
-50.50035899338826
 20
6.000000000000007
 30
0.0
 40
5.25
100
AcDbArc
 50
73.56307045205946
 51
234.9157520812231
  0
ARC
  5
20F5A
330
1F
100
AcDbEntity
  8
AM_0
100
AcDbCircle
 10
-50.50035899338826
 20
6.000000000000007
 30
0.0
 40
5.0
100
AcDbArc
 50
25.84193276316733
 51
51.71464455300546
  0
LINE
  5
20F5B
330
1F
100
AcDbEntity
  8
AM_0
100
AcDbLine
 10
-52.39452373288208
 20
9.967101075423649
 30
0.0
 11
-53.58613624227741
 21
1.202392545501802
 31
0.0
  0
LINE
  5
20F5C
330
1F
100
AcDbEntity
  8
AM_0
100
AcDbLine
 10
-46.00035899338826
 20
7.520690632574549
 30
0.0
 11
-46.00035899338826
 21
5.66862696659701
 31
0.0
  0
LINE
  5
20F5D
330
1F
100
AcDbEntity
  8
AM_0
100
AcDbLine
 10
-53.53346709886267
 20
1.589791710004683
 30
0.0
 11
-52.34922890906643
 21
10.30025965300516
 31
0.0
  0
SPLINE
  5
20F5E
330
1F
100
AcDbEntity
  8
AM_0
100
AcDbSpline
210
0.0
220
0.0
230
1.0
 70
     8
 71
     3
 72
    12
 73
     8
 74
     0
 42
0.0000000001
 43
0.0000000001
 40
-1.053332105489469
 40
-1.053332105489469
 40
-1.053332105489469
 40
-1.053332105489469
 40
-0.7727665941582984
 40
-0.7727665941582984
 40
-0.3863832970791492
 40
-0.3863832970791492
 40
-0.1714544762579264
 40
-0.1714544762579264
 40
-0.1714544762579264
 40
-0.1714544762579264
 10
-49.48584904664614
 20
1.359604589265992
 30
0.0
 10
-49.56493223052695
 20
1.342314968537188
 30
0.0
 10
-49.64860842350271
 20
1.326158211541333
 30
0.0
 10
-49.85551553967974
 20
1.29240726509989
 30
0.0
 10
-49.98210401732325
 20
1.276583002787938
 30
0.0
 10
-50.18287839917076
 20
1.260074802525402
 30
0.0
 10
-50.25539295104471
 20
1.255795562408402
 30
0.0
 10
-50.3277818896018
 20
1.253141920294389
 30
0.0
  0
SPLINE
  5
20F5F
330
1F
100
AcDbEntity
  8
AM_0
100
AcDbSpline
210
0.0
220
0.0
230
1.0
 70
     8
 71
     3
 72
    10
 73
     6
 74
     0
 42
0.0000000001
 43
0.0000000001
 40
20.34962716495917
 40
20.34962716495917
 40
20.34962716495917
 40
20.34962716495917
 40
21.03645136371959
 40
21.03645136371959
 40
22.48233872862484
 40
22.48233872862484
 40
22.48233872862484
 40
22.48233872862484
 10
-50.29771947193166
 20
1.4742610563437
 30
0.0
 10
-50.22154968807507
 20
1.53085097935449
 30
0.0
 10
-50.14281327126736
 20
1.579244955749211
 30
0.0
 10
-49.89308266716461
 20
1.705046976371655
 30
0.0
 10
-49.70429309237915
 20
1.761677145124857
 30
0.0
 10
-49.49943272224442
 20
1.78607735573457
 30
0.0
  0
LINE
  5
20F60
330
1F
100
AcDbEntity
  8
AM_0
100
AcDbLine
 10
-53.58613624227741
 20
1.202392545501802
 30
0.0
 11
-53.59902128455013
 21
1.761982538340455
 31
0.0
  0
SPLINE
  5
20F61
330
1F
100
AcDbEntity
  8
AM_0
100
AcDbSpline
210
0.0
220
0.0
230
1.0
 70
     8
 71
     3
 72
    12
 73
     8
 74
     0
 42
0.0000000001
 43
0.0000000001
 40
1.375453680100176
 40
1.375453680100176
 40
1.375453680100176
 40
1.375453680100176
 40
2.086456946466044
 40
2.086456946466044
 40
3.129685419699066
 40
3.129685419699066
 40
3.655706015188355
 40
3.655706015188355
 40
3.655706015188355
 40
3.655706015188355
 10
-49.48584904661237
 20
1.35960458926278
 30
0.0
 10
-49.49224242073791
 20
1.434460853713979
 30
0.0
 10
-49.49578729077877
 20
1.500650323530358
 30
0.0
 10
-49.50076458860855
 20
1.639857464326191
 30
0.0
 10
-49.50055905922221
 20
1.7015003878548
 30
0.0
 10
-49.49993375346031
 20
1.761719054239627
 30
0.0
 10
-49.49967249559524
 20
1.776413168222753
 30
0.0
 10
-49.49943272224465
 20
1.786077355734598
 30
0.0
  0
ARC
  5
20F62
330
1F
100
AcDbEntity
  8
AM_0
100
AcDbCircle
 10
-45.50035899338826
 20
1.700000000000109
 30
0.0
 40
4.0
100
AcDbArc
 50
97.18075578145825
 51
157.8600679709357
  0
SPLINE
  5
20F63
330
1F
100
AcDbEntity
  8
AM_0
100
AcDbSpline
210
0.0
220
0.0
230
1.0
 70
    24
 71
     3
 72
     8
 73
     4
 74
     0
 42
0.0000000001
 43
0.0000000001
 40
0.9494917139574323
 40
0.9494917139574323
 40
0.9494917139574323
 40
0.9494917139574323
 40
0.9846452881851995
 40
0.9846452881851995
 40
0.9846452881851995
 40
0.9846452881851995
 10
-49.48569480221335
 20
1.359638313757479
 30
0.0
 10
-49.48579830049886
 20
1.359615682762048
 30
0.0
 10
-49.48584904661328
 20
1.359604589273154
 30
0.0
 10
-49.48584904661328
 20
1.359604589273154
 30
0.0
  0
LINE
  5
20F64
330
1F
100
AcDbEntity
  8
AM_0
100
AcDbLine
 10
-46.00035899338826
 20
5.66862696659701
 30
0.0
 11
-46.00035899338826
 21
3.820550528229667
 31
0.0
  0
SPLINE
  5
20F65
330
1F
100
AcDbEntity
  8
AM_0
100
AcDbSpline
210
0.0
220
0.0
230
1.0
 70
     8
 71
     3
 72
    16
 73
    12
 74
     0
 42
0.0000000001
 43
0.0000000001
 40
1.339929193727084
 40
1.339929193727084
 40
1.339929193727084
 40
1.339929193727084
 40
1.479246440299245
 40
1.479246440299245
 40
2.09274954718622
 40
2.09274954718622
 40
2.499751001576306
 40
2.499751001576306
 40
2.906752455966392
 40
2.906752455966392
 40
2.909039512462998
 40
2.909039512462998
 40
2.909039512462998
 40
2.909039512462998
 10
-49.49943272224454
 20
1.786077355734598
 30
0.0
 10
-49.49862822771871
 20
1.823453421667871
 30
0.0
 10
-49.49728339876714
 20
1.861536455815589
 30
0.0
 10
-49.48681318906432
 20
2.070467854957975
 30
0.0
 10
-49.46617916268104
 20
2.252754009849305
 30
0.0
 10
-49.41065372691952
 20
2.551020545531863
 30
0.0
 10
-49.38121646396206
 20
2.678501966126966
 30
0.0
 10
-49.3057365465491
 20
2.940009057040335
 30
0.0
 10
-49.25961900368992
 20
3.074053115541013
 30
0.0
 10
-49.20602344386697
 20
3.206005183838109
 30
0.0
 10
-49.20572372915962
 20
3.206742449235271
 30
0.0
 10
-49.2054237858153
 20
3.207479646269867
 30
0.0
  0
SPLINE
  5
20F66
330
1F
100
AcDbEntity
  8
AM_0
100
AcDbSpline
210
0.0
220
0.0
230
1.0
 70
     8
 71
     3
 72
    24
 73
    20
 74
     0
 42
0.0000000001
 43
0.0000000001
 40
3.081553128145407
 40
3.081553128145407
 40
3.081553128145407
 40
3.081553128145407
 40
3.47765938423056
 40
3.47765938423056
 40
3.764824985756082
 40
3.764824985756082
 40
4.051990587281603
 40
4.051990587281603
 40
4.339156188807124
 40
4.339156188807124
 40
4.626321790332645
 40
4.626321790332645
 40
4.908911145792986
 40
4.908911145792986
 40
5.191500501253329
 40
5.191500501253329
 40
5.756679212174014
 40
5.756679212174014
 40
6.252322830031041
 40
6.252322830031041
 40
6.252322830031041
 40
6.252322830031041
 10
-49.44778083331977
 20
6.720044921297195
 30
0.0
 10
-49.41920773434339
 20
6.709014203793437
 30
0.0
 10
-49.39497359704029
 20
6.680291809753932
 30
0.0
 10
-49.36341951056278
 20
6.607281031887801
 30
0.0
 10
-49.35233378605045
 20
6.567406036998086
 30
0.0
 10
-49.33701350388475
 20
6.469608862375402
 30
0.0
 10
-49.33278911809117
 20
6.411690552438365
 30
0.0
 10
-49.33259725084184
 20
6.280938734343103
 30
0.0
 10
-49.3366408598244
 20
6.207982803472994
 30
0.0
 10
-49.35301333629553
 20
6.052301182779196
 30
0.0
 10
-49.3653500102003
 20
5.969569377646657
 30
0.0
 10
-49.39635025602416
 20
5.8030450487446
 30
0.0
 10
-49.41584374082567
 20
5.714273240686232
 30
0.0
 10
-49.46232027874402
 20
5.530335528348026
 30
0.0
 10
-49.48929688423795
 20
5.43517096525003
 30
0.0
 10
-49.57817770475589
 20
5.149925060748537
 30
0.0
 10
-49.64845346815679
 20
4.959717404151299
 30
0.0
 10
-49.77593741958862
 20
4.648537454871509
 30
0.0
 10
-49.84058111861185
 20
4.504920706082437
 30
0.0
 10
-49.90305656585878
 20
4.37713872171549
 30
0.0
  0
ELLIPSE
  5
20F67
330
1F
100
AcDbEntity
  8
AM_0
100
AcDbEllipse
 10
-34.97697329721609
 20
4.994018356480503
 30
0.0
 11
14.88513821568432
 21
-2.000943881022627
 31
0.0
210
0.0
220
0.0
230
1.0
 40
0.0597217553384752
 41
3.345719318494229
 42
3.386250761672939
  0
LINE
  5
20F68
330
1F
100
AcDbEntity
  8
AM_0
100
AcDbLine
 10
-51.21629072793661
 20
10.1939339480947
 30
0.0
 11
-49.13117250695785
 21
10.30466999203433
 31
0.0
  0
LINE
  5
20F69
330
1F
100
AcDbEntity
  8
AM_0
100
AcDbLine
 10
-50.81959632469153
 20
10.27030537103594
 30
0.0
 11
-49.07484402533595
 21
10.60620427608556
 31
0.0
  0
LINE
  5
20F6A
330
1F
100
AcDbEntity
  8
AM_0
100
AcDbLine
 10
-51.21629072796162
 20
10.19393394814274
 30
0.0
 11
-52.39452373288208
 21
9.967101075423621
 31
0.0
  0
LINE
  5
20F6B
330
1F
100
AcDbEntity
  8
AM_0
100
AcDbLine
 10
-50.82204380156901
 20
10.2703532991549
 30
0.0
 11
-50.83777273512027
 21
10.21421411463886
 31
0.0
  0
LINE
  5
20F6C
330
1F
100
AcDbEntity
  8
AM_0
100
AcDbLine
 10
-52.34922890906643
 20
10.30025965300516
 30
0.0
 11
-50.81959632469153
 21
10.27030537103591
 31
0.0
  0
ELLIPSE
  5
20F6D
330
1F
100
AcDbEntity
  8
AM_0
100
AcDbEllipse
 10
-49.18626416325816
 20
9.908539987982074
 30
0.0
 11
0.05568690749597919
 21
0.3961047441441901
 31
0.0
210
0.0
220
0.0
230
0.9999999999999999
 40
0.0871630930102616
 41
4.764470814610205
 42
6.300193645851724
  0
SPLINE
  5
20F6E
330
1F
100
AcDbEntity
  8
AM_0
100
AcDbSpline
210
0.0
220
0.0
230
1.0
 70
    28
 71
     2
 72
     6
 73
     3
 74
     0
 42
0.0000000001
 43
0.0000000001
 40
0.0
 40
0.0
 40
0.0
 40
0.7048271353547252
 40
0.7048271353547252
 40
0.7048271353547252
 10
-46.00035899338826
 20
8.179449471770347
 30
0.0
 41
1.0
 10
-46.00035899338826
 20
7.841624426028922
 30
0.0
 41
1.002290359892704
 10
-46.00035899338826
 20
7.520690632574549
 30
0.0
 41
1.0
  0
ARC
  5
20F6F
330
1F
100
AcDbEntity
  8
AM_0
100
AcDbCircle
 10
-50.50035899338826
 20
6.000000000000007
 30
0.0
 40
4.75
100
AcDbArc
 50
18.67171806400731
 51
29.90491833503177
  0
LINE
  5
20F70
330
1F
100
AcDbEntity
  8
AM_0
100
AcDbLine
 10
-49.05567763151242
 20
10.73492391958317
 30
0.0
 11
-49.12273570773851
 21
10.28456837826801
 31
0.0
  0
LINE
  5
20F71
330
1F
100
AcDbEntity
  8
AM_0
100
AcDbLine
 10
-49.05567763151242
 20
10.73492391958317
 30
0.0
 11
-49.01482048178815
 21
11.0354419200854
 31
0.0
  0
ELLIPSE
  5
20F72
330
1F
100
AcDbEntity
  8
AM_0
100
AcDbEllipse
 10
-58.26703388490836
 20
9.159210102291986
 30
0.0
 11
-11.48335106258052
 21
4.671023210290321
 31
0.0
210
0.0
220
0.0
230
1.0
 40
0.7365875589339196
 41
3.564186946088352
 42
3.579933232995568
  0
SPLINE
  5
20F73
330
1F
100
AcDbEntity
  8
AM_0
100
AcDbSpline
210
0.0
220
0.0
230
1.0
 70
     8
 71
     3
 72
    16
 73
    12
 74
     0
 42
0.0000000001
 43
0.0000000001
 40
1.038803185868014
 40
1.038803185868014
 40
1.038803185868014
 40
1.038803185868014
 40
1.390273824305945
 40
1.390273824305945
 40
2.085410736458917
 40
2.085410736458917
 40
2.78054764861189
 40
2.78054764861189
 40
3.38633451505895
 40
3.38633451505895
 40
3.990286170957199
 40
3.990286170957199
 40
3.990286170957199
 40
3.990286170957199
 10
-47.79304643222412
 20
10.49810612326599
 30
0.0
 10
-47.76592937523679
 20
10.44754360049289
 30
0.0
 10
-47.73388007563534
 20
10.39395709376172
 30
0.0
 10
-47.62507839452104
 20
10.22530171241994
 30
0.0
 10
-47.53499975998074
 20
10.10112628914499
 30
0.0
 10
-47.33029018361725
 20
9.828416058189738
 30
0.0
 10
-47.21576041324869
 20
9.679777509089043
 30
0.0
 10
-46.99203455858418
 20
9.381099117161092
 30
0.0
 10
-46.87276795976283
 20
9.218506851808691
 30
0.0
 10
-46.63393536427947
 20
8.873761482943316
 30
0.0
 10
-46.51461386675049
 20
8.691421633987552
 30
0.0
 10
-46.40902346146942
 20
8.519900345350045
 30
0.0
  0
ELLIPSE
  5
20F74
330
1F
100
AcDbEntity
  8
AM_0
100
AcDbEllipse
 10
-46.23777893139396
 20
10.91010371490325
 30
0.0
 11
1.145947282019855
 21
2.817223196333901
 31
0.0
210
0.0
220
0.0
230
1.0
 40
0.3683222482918753
 41
2.796343569436949
 42
3.865549066185754
  0
SPLINE
  5
20F75
330
1F
100
AcDbEntity
  8
AM_0
100
AcDbSpline
210
0.0
220
0.0
230
1.0
 70
     8
 71
     3
 72
    12
 73
     8
 74
     0
 42
0.0000000001
 43
0.0000000001
 40
3.550448660957977
 40
3.550448660957977
 40
3.550448660957977
 40
3.550448660957977
 40
3.663498112352538
 40
3.663498112352538
 40
4.274081131077961
 40
4.274081131077961
 40
4.721351056820321
 40
4.721351056820321
 40
4.721351056820321
 40
4.721351056820321
 10
-47.99122337238265
 20
9.729812086737276
 30
0.0
 10
-47.9929242413869
 20
9.754935111081416
 30
0.0
 10
-47.99439964175753
 20
9.780246471594531
 30
0.0
 10
-48.00233958638427
 20
9.943558782614623
 30
0.0
 10
-48.0023361752522
 20
10.08685187106591
 30
0.0
 10
-47.98648420305193
 20
10.35120257578343
 30
0.0
 10
-47.9748903516267
 20
10.46791212602359
 30
0.0
 10
-47.95625059962691
 20
10.59238636013868
 30
0.0
  0
ARC
  5
20F76
330
1F
100
AcDbEntity
  8
AM_0
100
AcDbCircle
 10
-44.00035899338826
 20
10.00000000000012
 30
0.0
 40
4.0
100
AcDbArc
 50
183.8731058277983
 51
203.5474592598884
  0
SPLINE
  5
20F77
330
1F
100
AcDbEntity
  8
AM_0
100
AcDbSpline
210
0.0
220
0.0
230
1.0
 70
     8
 71
     3
 72
    12
 73
     8
 74
     0
 42
0.0000000001
 43
0.0000000001
 40
0.9517356377449426
 40
0.9517356377449426
 40
0.9517356377449426
 40
0.9517356377449426
 40
1.506097342524861
 40
1.506097342524861
 40
2.06045904730478
 40
2.06045904730478
 40
2.083790373290919
 40
2.083790373290919
 40
2.083790373290919
 40
2.083790373290919
 10
-47.95625059962816
 20
10.59238636014002
 30
0.0
 10
-47.95625059962816
 20
10.59238636014002
 30
0.0
 10
-47.94408063773466
 20
10.58572022828196
 30
0.0
 10
-47.89215894573664
 20
10.5563890918802
 30
0.0
 10
-47.85241489146694
 20
10.53372490049717
 30
0.0
 10
-47.79754610595904
 20
10.5008120589404
 30
0.0
 10
-47.7953075021432
 20
10.49946701223261
 30
0.0
 10
-47.79304643222412
 20
10.49810612326599
 30
0.0
  0
SPLINE
  5
20F78
330
1F
100
AcDbEntity
  8
AM_0
100
AcDbSpline
210
0.0
220
0.0
230
1.0
 70
     8
 71
     3
 72
    14
 73
    10
 74
     0
 42
0.0000000001
 43
0.0000000001
 40
8.297381315364774
 40
8.297381315364774
 40
8.297381315364774
 40
8.297381315364774
 40
8.42306115670522
 40
8.42306115670522
 40
10.36797472922257
 40
10.36797472922257
 40
12.31288830173992
 40
12.31288830173992
 40
12.96607559116947
 40
12.96607559116947
 40
12.96607559116947
 40
12.96607559116947
 10
-49.01482048178815
 20
11.0354419200854
 30
0.0
 10
-49.01056166426628
 20
11.03418742522462
 30
0.0
 10
-49.00615390319712
 20
11.03287927903859
 30
0.0
 10
-48.93094340758165
 20
11.01047585854
 30
0.0
 10
-48.82252697058817
 20
10.97699248891971
 30
0.0
 10
-48.5375568559918
 20
10.87165122032926
 30
0.0
 10
-48.36097524581413
 20
10.79943853761095
 30
0.0
 10
-48.09600949136637
 20
10.66766949222731
 30
0.0
 10
-48.02700358351552
 20
10.63158237852188
 30
0.0
 10
-47.95625059962555
 20
10.59238636013854
 30
0.0
  0
LINE
  5
20F79
330
1F
100
AcDbEntity
  8
AM_7
  6
AM_ISO08W050x2
100
AcDbLine
 10
3.408430481553808
 20
10.19292500974248
 30
0.0
 11
3.408430481553808
 21
-0.1070749902574733
 31
0.0
1001
GENIUS_GENODEF_13
1002
{
1000
HIER
1070
     0
1002
}
1002
{
1000
MANEDIT
1070
     0
1002
}
1002
{
1000
NOSEL
1070
     0
1002
}
1002
{
1000
BEHIND
1070
     0
1002
}
1002
{
1000
REACTOR
1002
}
1001
GENIUS_GENOBJ-N-CEN_13
1002
{
1000
OWNER
1000
GEN
1002
}
  0
ARC
  5
20F7A
330
1F
100
AcDbEntity
  8
AM_0
100
AcDbCircle
 10
4.413019949943646
 20
5.622925009742431
 30
0.0
 40
0.2499999999998634
100
AcDbArc
 50
316.9722150900681
 51
103.0277849099416
  0
ARC
  5
20F7B
330
1F
100
AcDbEntity
  8
AM_0
100
AcDbCircle
 10
4.413019949943646
 20
4.462925009742634
 30
0.0
 40
0.2499999999998634
100
AcDbArc
 50
256.9722150900615
 51
43.02778490993651
  0
CIRCLE
  5
20F7C
330
1F
100
AcDbEntity
  8
AM_0
100
AcDbCircle
 10
3.408430481553808
 20
5.042925009742504
 30
0.0
 40
1.803589838486232
  0
LINE
  5
20F7D
330
1F
100
AcDbEntity
  8
AM_7
  6
AM_ISO08W050x2
100
AcDbLine
 10
-1.74156951844617
 20
5.042925009742504
 30
0.0
 11
8.558430481553842
 21
5.042925009742504
 31
0.0
1001
GENIUS_GENODEF_13
1002
{
1000
HIER
1070
     0
1002
}
1002
{
1000
MANEDIT
1070
     0
1002
}
1002
{
1000
NOSEL
1070
     0
1002
}
1002
{
1000
BEHIND
1070
     0
1002
}
1002
{
1000
REACTOR
1002
}
1001
GENIUS_GENOBJ-N-CEN_13
1002
{
1000
OWNER
1000
GEN
1002
}
  0
CIRCLE
  5
20F7E
330
1F
100
AcDbEntity
  8
0
100
AcDbCircle
 10
3.408430481553808
 20
5.042925009742504
 30
0.0
 40
2.15
  0
ARC
  5
20F7F
330
1F
100
AcDbEntity
  8
AM_0
100
AcDbCircle
 10
2.595451019700931
 20
3.634803276303131
 30
0.0
 40
0.6
100
AcDbArc
 50
16.97221509006248
 51
103.0277849099349
  0
ARC
  5
20F80
330
1F
100
AcDbEntity
  8
AM_0
100
AcDbCircle
 10
4.221409943406854
 20
3.634803276303188
 30
0.0
 40
0.6
100
AcDbArc
 50
76.97221509006506
 51
163.0277849099374
  0
ARC
  5
20F81
330
1F
100
AcDbEntity
  8
AM_0
100
AcDbCircle
 10
3.408430481553921
 20
3.882925009742763
 30
0.0
 40
0.2499999999998634
100
AcDbArc
 50
196.9722150900682
 51
343.0277849099334
  0
ARC
  5
20F82
330
1F
100
AcDbEntity
  8
AM_0
100
AcDbCircle
 10
5.034389405259788
 20
5.042925009742504
 30
0.0
 40
0.6
100
AcDbArc
 50
136.9722150900634
 51
223.0277849099365
  0
ARC
  5
20F83
330
1F
100
AcDbEntity
  8
AM_0
100
AcDbCircle
 10
2.595451019700874
 20
6.451046743181877
 30
0.0
 40
0.6
100
AcDbArc
 50
256.9722150900651
 51
343.0277849099375
  0
ARC
  5
20F84
330
1F
100
AcDbEntity
  8
AM_0
100
AcDbCircle
 10
2.40384101316414
 20
5.622925009742431
 30
0.0
 40
0.2499999999998634
100
AcDbArc
 50
76.97221509006826
 51
223.0277849099411
  0
ARC
  5
20F85
330
1F
100
AcDbEntity
  8
AM_0
100
AcDbCircle
 10
3.408430481553864
 20
6.202925009742302
 30
0.0
 40
0.2499999999998634
100
AcDbArc
 50
16.97221509006815
 51
163.0277849099318
  0
ARC
  5
20F86
330
1F
100
AcDbEntity
  8
AM_0
100
AcDbCircle
 10
2.40384101316414
 20
4.462925009742634
 30
0.0
 40
0.2499999999998634
100
AcDbArc
 50
136.9722150900634
 51
283.0277849099385
  0
ARC
  5
20F87
330
1F
100
AcDbEntity
  8
AM_0
100
AcDbCircle
 10
1.782471557847941
 20
5.042925009742504
 30
0.0
 40
0.6
100
AcDbArc
 50
316.9722150900635
 51
43.02778490993651
  0
ARC
  5
20F88
330
1F
100
AcDbEntity
  8
AM_0
100
AcDbCircle
 10
4.221409943406854
 20
6.45104674318182
 30
0.0
 40
0.6
100
AcDbArc
 50
196.9722150900626
 51
283.027784909935
  0
LINE
  5
20F89
330
1F
100
AcDbEntity
  8
AM_5
100
AcDbLine
 10
-3.146326607073377
 20
0.0
 30
0.0
 11
0.3935950683695069
 21
0.0
 31
0.0
  0
ARC
  5
20F8A
330
1F
100
AcDbEntity
  8
AM_0
100
AcDbCircle
 10
76.25
 20
5.999999999999993
 30
0.0
 40
5.0
100
AcDbArc
 50
205.8419327631672
 51
334.1580672368328
  0
LINE
  5
20F8B
330
1F
100
AcDbEntity
  8
AM_0
100
AcDbLine
 10
85.75
 20
0.9999999999999929
 30
0.0
 11
124.0
 21
0.9999999999999858
 31
0.0
  0
LINE
  5
20F8C
330
1F
100
AcDbEntity
  8
AM_0
100
AcDbLine
 10
85.75
 20
3.820550528229653
 30
0.0
 11
123.9999999999999
 21
3.820550528229646
 31
0.0
  0
LINE
  5
20F8D
330
1F
100
AcDbEntity
  8
AM_0
100
AcDbLine
 10
66.75
 20
8.179449471770333
 30
0.0
 11
20.25000000000006
 21
8.17944947177034
 31
0.0
  0
LINE
  5
20F8E
330
1F
100
AcDbEntity
  8
AM_0
100
AcDbLine
 10
85.75
 20
10.99999999999999
 30
0.0
 11
124.0000000000001
 21
10.99999999999999
 31
0.0
  0
LINE
  5
20F8F
330
1F
100
AcDbEntity
  8
AM_0
100
AcDbLine
 10
80.75
 20
8.179449471770333
 30
0.0
 11
80.75
 21
3.820550528229653
 31
0.0
  0
LINE
  5
20F90
330
1F
100
AcDbEntity
  8
AM_0
100
AcDbLine
 10
71.75
 20
8.179449471770333
 30
0.0
 11
71.75
 21
3.820550528229653
 31
0.0
  0
ARC
  5
20F91
330
1F
100
AcDbEntity
  8
AM_0
100
AcDbCircle
 10
76.25
 20
5.999999999999993
 30
0.0
 40
5.0
100
AcDbArc
 50
25.84193276316717
 51
154.1580672368328
  0
LINE
  5
20F92
330
1F
100
AcDbEntity
  8
AM_7
100
AcDbLine
 10
130.4588124887482
 20
-55.67871648401761
 30
0.0
 11
-3.774423958771251
 21
-55.6787164840176
 31
0.0
1001
GENIUS_GENODEF_13
1002
{
1000
HIER
1070
     0
1002
}
1002
{
1000
MANEDIT
1070
     0
1002
}
1002
{
1000
NOSEL
1070
     0
1002
}
1002
{
1000
BEHIND
1070
     0
1002
}
1002
{
1000
REACTOR
1002
}
1001
GENIUS_GENOBJ-N-CEN_13
1002
{
1000
OWNER
1000
GEN
1002
}
  0
LINE
  5
20F93
330
1F
100
AcDbEntity
  8
AM_7
100
AcDbLine
 10
128.4412382185365
 20
5.999999999999986
 30
0.0
 11
-6.156535901553582
 21
6.000000000000004
 31
0.0
1001
GENIUS_GENODEF_13
1002
{
1000
HIER
1070
     0
1002
}
1002
{
1000
MANEDIT
1070
     0
1002
}
1002
{
1000
NOSEL
1070
     0
1002
}
1002
{
1000
BEHIND
1070
     0
1002
}
1002
{
1000
REACTOR
1002
}
1001
GENIUS_GENOBJ-N-CEN_13
1002
{
1000
OWNER
1000
GEN
1002
}
  0
LINE
  5
20F94
330
1F
100
AcDbEntity
  8
AM_11
  6
ACJISTGB
 48
0.5
100
AcDbLine
 10
20.0
 20
-51.1787164840176
 30
0.0
 11
13.9724973504471
 21
-54.67779021287393
 31
0.0
  0
DIMENSION
  5
20F95
330
1F
100
AcDbEntity
  8
AM_5
100
AcDbDimension
  2
*D5
 10
14.99999999999994
 20
-73.7811900336944
 30
0.0
 11
7.499999999999972
 21
-70.3811900336944
 31
0.0
 70
    32
  1
<>
 71
     5
 42
14.99999999999994
  3
AM_JIS$0
100
AcDbAlignedDimension
 13
0.0
 23
-55.6787164840176
 33
0.0
 14
14.99999999999994
 24
-60.4287164840176
 34
0.0
100
AcDbRotatedDimension
1001
ACAD
1000
DSTYLE
1002
{
1070
   271
1070
     0
1002
}
1001
GENIUS_GENDTOL_13
1000

1000
h7
1000

1040
0.0
  0
LINE
  5
20F96
330
1F
100
AcDbEntity
  8
AM_5
100
AcDbLine
 10
0.0
 20
-55.6787164840176
 30
0.0
 11
-5.662006422416141
 21
-55.18335510924521
 31
0.0
  0
DIMENSION
  5
20F97
330
1F
100
AcDbEntity
  8
AM_5
100
AcDbDimension
  2
*D6
 10
-3.774423958771251
 20
-55.6787164840176
 30
0.0
 11
-19.26207297017549
 21
-58.48917300648382
 31
0.0
 70
   162
  1
<>
 71
     5
 42
0.0872664625997146
  3
AM_JIS$2
100
AcDb2LineAngularDimension
 13
0.0
 23
-55.6787164840176
 33
0.0
 14
-5.662006422416141
 24
-55.18335510924521
 34
0.0
 15
130.4588124887482
 25
-55.67871648401761
 35
0.0
 16
-14.99750398828846
 26
-54.80521134809519
 36
0.0
1001
ACAD
1000
DSTYLE
1002
{
1070
   279
1070
     1
1002
}
1001
GENIUS_GENDTOL_13
1000

1000
h7
1000

1040
0.0
  0
CIRCLE
  5
20F98
330
1F
100
AcDbEntity
  8
AM_11
  6
ACJISTGB
100
AcDbCircle
 10
-50.50035899338826
 20
6.12499999999995
 30
0.0
 40
6.0
  0
DIMENSION
  5
20F99
330
1F
100
AcDbEntity
  8
AM_5
100
AcDbDimension
  2
*D7
 10
-45.39114258973248
 20
2.979223825410209
 30
0.0
 11
-74.7227037844773
 21
13.22931467894839
 31
0.0
 70
   163
  1
最小加工径\P<>
 71
     5
 42
11.99999999999993
  3
AM_JIS$3
100
AcDbDiametricDimension
 15
-55.60957539704396
 25
9.270776174589127
 35
0.0
 40
0.0
1001
ACAD
1000
DSTYLE
1002
{
1070
   271
1070
     0
1070
   288
1070
     1
1070
   289
1070
     3
1070
   172
1070
     1
1070
    74
1070
     1
1002
}
1001
GENIUS_GENDTOL_13
1000

1000
h7
1000

1040
0.0
  0
LINE
  5
20F9A
330
1F
100
AcDbEntity
  8
AM_7
  6
AM_ISO08W050x2
100
AcDbLine
 10
-50.50035899338826
 20
16.58829489181179
 30
0.0
 11
-50.50035899338826
 21
-3.338786365380507
 31
0.0
1001
GENIUS_GENODEF_13
1002
{
1000
HIER
1070
     0
1002
}
1002
{
1000
MANEDIT
1070
     0
1002
}
1002
{
1000
NOSEL
1070
     0
1002
}
1002
{
1000
BEHIND
1070
     0
1002
}
1002
{
1000
REACTOR
1002
}
1001
GENIUS_GENOBJ-N-CEN_13
1002
{
1000
OWNER
1000
GEN
1002
}
  0
LINE
  5
20F9B
330
1F
100
AcDbEntity
  8
AM_7
  6
AM_ISO08W050x2
100
AcDbLine
 10
-43.65176221590394
 20
6.000000000000007
 30
0.0
 11
-58.39744859447666
 21
6.000000000000007
 31
0.0
1001
GENIUS_GENODEF_13
1002
{
1000
HIER
1070
     0
1002
}
1002
{
1000
MANEDIT
1070
     0
1002
}
1002
{
1000
NOSEL
1070
     0
1002
}
1002
{
1000
BEHIND
1070
     0
1002
}
1002
{
1000
REACTOR
1002
}
1001
GENIUS_GENOBJ-N-CEN_13
1002
{
1000
OWNER
1000
GEN
1002
}
  0
DIMENSION
  5
20F9C
330
1F
100
AcDbEntity
  8
AM_5
100
AcDbDimension
  2
*D8
 10
-9.835010310800668
 20
6.000000000000004
 30
0.0
 11
-9.835010310800669
 21
3.000000000000001
 31
0.0
 70
   160
 71
     5
 42
6.000000000000003
  3
AM_JIS$0
100
AcDbAlignedDimension
 13
-3.146326607073377
 23
0.0
 33
0.0
 14
-6.156535901553582
 24
6.000000000000004
 34
0.0
 50
90.0
100
AcDbRotatedDimension
1001
ACAD
1000
DSTYLE
1002
{
1070
   179
1070
     2
1070
   271
1070
     0
1002
}
  0
DIMENSION
  5
20F9D
330
1F
100
AcDbEntity
  8
AM_5
100
AcDbDimension
  2
*D9
 10
125.0
 20
-31.51483003008671
 30
0.0
 11
62.5
 21
-28.11445601433868
 31
0.0
 70
    32
 71
     5
 42
125.0
  3
AM_JIS$0
100
AcDbAlignedDimension
 13
0.0
 23
0.0
 33
0.0
 14
125.0
 24
1.999999999999986
 34
0.0
100
AcDbRotatedDimension
1001
ACAD
1000
DSTYLE
1002
{
1070
   179
1070
     2
1070
   271
1070
     0
1002
}
  0
DIMENSION
  5
20F9E
330
1F
100
AcDbEntity
  8
AM_5
100
AcDbDimension
  2
*D10
 10
0.0005403166014162
 20
0.4119077572650838
 30
0.0
 11
-17.8080332384904
 21
18.74357274038064
 31
0.0
 70
    34
 71
     5
 42
1.623156204354729
  3
AM_JIS$2
100
AcDb2LineAngularDimension
 13
-3.146326607073377
 23
0.0
 33
0.0
 14
0.3935950683695069
 24
0.0
 34
0.0
 15
0.4990659233047268
 25
9.924343001102955
 35
0.0
 16
-10.55592335039429
 26
19.81322103549825
 36
0.0
1001
ACAD
1000
DSTYLE
1002
{
1070
   271
1070
     0
1002
}
  0
LINE
  5
20F9F
330
1F
100
AcDbEntity
  8
AM_4
100
AcDbLine
 10
0.0
 20
0.0
 30
0.0
 11
0.0
 21
0.3912806392772836
 31
0.0
  0
DIMENSION
  5
20FA0
330
1F
100
AcDbEntity
  8
AM_5
100
AcDbDimension
  2
*D11
 10
75.04162488116393
 20
1.148213775095208
 30
0.0
 11
84.58589212286705
 21
19.70925262481791
 31
0.0
 70
   163
 71
     5
 42
9.999999999999936
  3
AM_JIS$3
100
AcDbDiametricDimension
 15
77.45837511883639
 25
10.85178622490508
 35
0.0
 40
0.0
1001
ACAD
1000
DSTYLE
1002
{
1070
   179
1070
     0
1070
   271
1070
     0
1002
}
  0
DIMENSION
  5
20FA1
330
1F
100
AcDbEntity
  8
AM_5
100
AcDbDimension
  2
*D4
 10
-50.44215655306283
 20
0.4118780190344822
 30
0.0
 11
-60.96176185314827
 21
-12.28808696513497
 31
0.0
 70
    34
 71
     5
 42
0.135127250596919
  3
AM_JIS$2
100
AcDb2LineAngularDimension
 13
-50.50035899338826
 23
16.58829489181179
 33
0.0
 14
-50.50035899338826
 24
-3.338786365380507
 34
0.0
 15
-49.14888629853311
 25
9.924313262872353
 35
0.0
 16
-51.34628369735082
 26
-18.78414204000803
 36
0.0
1001
ACAD
1000
DSTYLE
1002
{
1070
   179
1070
     0
1070
   271
1070
     0
1002
}
  0
ENDSEC
  0
SECTION
  2
OBJECTS
  0
DICTIONARY
  5
C
330
0
100
AcDbDictionary
281
     1
  3
ACAD_COLOR
350
20720
  3
ACAD_GROUP
350
D
  3
ACAD_LAYOUT
350
1A
  3
ACAD_MATERIAL
350
2071F
  3
ACAD_MLINESTYLE
350
17
  3
ACAD_PLOTSETTINGS
350
19
  3
ACAD_PLOTSTYLENAME
350
E
  3
ACAD_TABLESTYLE
350
20721
  3
AcAmCatalogState
350
20788
  3
ACDBHEADERROUNDTRIPXREC
350
21286
  3
AcDbVariableDictionary
350
30
  3
ACDMSYSVARMGR
350
2073B
  3
ACGREF_MASTER
350
20733
  3
ACGREFACAD_MASTER
350
2075B
  3
AcmDictionary
350
4D
  3
ACME_BOM_MANAGER_NAME
350
36
  3
ACME_COMMAND_HISTORY
350
2F
  3
ACME_SCOPE_NAME
350
2E
  3
ACMESTATEMGR
350
3B
  3
AcmeSysVarManager
350
32
  3
AcmSystemVariableManager
350
6A
  3
AD_APPL
350
20766
  3
ADSYSVARMGR
350
20765
  3
AmdtNamedDwgMgr
350
20756
  3
AMG
350
3F
  3
AMGSNAPSETTINGS
350
73
  3
AMI_MASTER
350
2075E
  3
AUTOCAD_ASSEMBLIES_PROJECT
350
2076E
  3
Designer_Assemblies_SysVars
350
20769
  3
DWGPROPS
350
21289
  3
eng_data
350
2A40
  3
FILENAME
350
2916
  3
GREFAM_MODULE
350
2075F
  3
line_dic_data
350
2A3E
  3
table_dic_data
350
1688
  3
ZWKSIZE
350
2918
  0
DICTIONARY
  5
165
330
1F
100
AcDbDictionary
280
     1
281
     1
  0
DICTIONARY
  5
20720
102
{ACAD_REACTORS
330
C
102
}
330
C
100
AcDbDictionary
281
     1
  0
DICTIONARY
  5
D
102
{ACAD_REACTORS
330
C
102
}
330
C
100
AcDbDictionary
281
     1
  0
DICTIONARY
  5
1A
102
{ACAD_REACTORS
330
C
102
}
330
C
100
AcDbDictionary
281
     1
  3
Model
350
22
  3
ﾚｲｱｳﾄ1
350
1E
  3
ﾚｲｱｳﾄ2
350
26
  0
DICTIONARY
  5
2071F
102
{ACAD_REACTORS
330
C
102
}
330
C
100
AcDbDictionary
281
     1
  0
DICTIONARY
  5
17
102
{ACAD_REACTORS
330
C
102
}
330
C
100
AcDbDictionary
281
     1
  3
Standard
350
18
  0
DICTIONARY
  5
19
102
{ACAD_REACTORS
330
C
102
}
330
C
100
AcDbDictionary
281
     1
  0
ACDBDICTIONARYWDFLT
  5
E
102
{ACAD_REACTORS
330
C
102
}
330
C
100
AcDbDictionary
281
     1
  3
Normal
350
F
100
AcDbDictionaryWithDefault
340
F
  0
DICTIONARY
  5
20721
102
{ACAD_REACTORS
330
C
102
}
330
C
100
AcDbDictionary
281
     1
  3
Standard
350
20722
  0
ACAD_PROXY_OBJECT
  5
20788
102
{ACAD_REACTORS
330
C
102
}
330
C
100
AcDbProxyObject
 90
      499
 91
      571
 95
       25
 70
     0
 93
      672
310
3FFFFFFFE00A0281402A1A19D2E2237B1BAB6B2B73A399030B7321029B2BA3A34B733B9AE20B236B4B734B9BA3930BA37B92E41B341AC41A741B3C1B141BB2E413BC1B7C0ADCAE7C6AC483ECB65400A000000302
  0
DICTIONARY
  5
21286
102
{ACAD_REACTORS
330
C
102
}
330
C
100
AcDbDictionary
281
     1
  3
COLORDICT
350
21287
  3
MATERIALDICT
350
21288
  0
DICTIONARY
  5
30
102
{ACAD_REACTORS
330
C
102
}
330
C
100
AcDbDictionary
281
     1
  3
CTABLESTYLE
350
207CF
  3
HIDETEXT
350
21285
  3
INDEXCTL
350
21284
  0
ACAD_PROXY_OBJECT
  5
2073B
102
{ACAD_REACTORS
330
C
102
}
330
C
100
AcDbProxyObject
 90
      499
 91
      507
 95
       25
 70
     0
 93
      240
310
4C51A47A0000000000000000000000000000000000000000000000000000
330
2073C
330
2073D
330
2073E
330
2073F
330
20740
330
20741
330
20742
330
20743
330
20744
330
20745
330
20746
330
20747
330
20748
330
20749
330
2074A
330
2074B
330
2074C
330
2074D
330
2074E
330
2074F
330
20750
330
20751
330
20752
330
20753
330
20754
330
20755
 94
        0
  0
ACAD_PROXY_OBJECT
  5
20733
102
{ACAD_REACTORS
330
C
102
}
330
C
100
AcDbProxyObject
 90
      499
 91
      535
 95
       25
 70
     0
 93
       34
310
0400004280
  0
ACAD_PROXY_OBJECT
  5
2075B
102
{ACAD_REACTORS
330
C
102
}
330
C
100
AcDbProxyObject
 90
      499
 91
      541
 95
       25
 70
     0
 93
      114
310
04000041C080000000000000000000
  0
DICTIONARY
  5
4D
102
{ACAD_REACTORS
330
C
102
}
330
C
100
AcDbDictionary
281
     1
  3
AcmBOMDATA
350
4E
  3
AcmStdDictionary
350
17E
  3
AMDTSECTSYM_ARROWCOLOR
350
2077C
  0
ACAD_PROXY_OBJECT
  5
36
102
{ACAD_REACTORS
330
C
102
}
330
C
100
AcDbProxyObject
 90
      499
 91
      510
 95
       25
 70
     0
 93
       50
310
00010040400000
330
0
330
0
330
37
 94
        0
  0
ACAD_PROXY_OBJECT
  5
2F
102
{ACAD_REACTORS
330
C
102
}
330
C
100
AcDbProxyObject
 90
      499
 91
      505
 95
       25
 70
     0
 93
     5962
310
478050653454C4543548050653454C454354404052D4D5347202D205050413A2020206465736B746F702E6172782046696C6556657273696F6E3A20392E322E302E34014390535115149154D15511109353D1102014213880B4815539113C05084E202D20554E444F014115539113E014115539113E0142941493D41154951
310
25154E014154155491D1601415454D05591501014B5354D1C80B481414104E88080819195CDADD1BDC0B985C9E08119A5B1955995C9CDA5BDB8E880E4B8C8B8C0B8D005055055524745805055153415645404052D4D5347202D205050413A2020206465736B746F702E6172782046696C6556657273696F6E3A20392E322E3
310
02E34014390535115149154D15511109353D1102014213880B4815539113C05084E202D20554E444F014115539113E014115539113D02014B5354D1C80B481414104E88080819195CDADD1BDC0B985C9E08119A5B1955995C9CDA5BDB8E880E4B8C8B8C0B8D0052D4D5347202D205050413A2020206465736B746F702E6172
310
782046696C6556657273696F6E3A20392E322E302E34014390535115149154D15511109353D1102014213880B4815539113C05084E202D20554E444F014115539113E014115539113E01419493D510551160142111493D411D153D360142111493D411D153D36014311D4925417D4D514915510D22014194D1531150D52014
310
11353D591601411693D3D3601415454D05591501014B5354D1C80B481414104E88080819195CDADD1BDC0B985C9E08119A5B1955995C9CDA5BDB8E880E4B8C8B8C0B8D0050E414D4454524553455444424D4F4440805084E202D20554E444F014213880B4815539113C0504554E444F80504554E444F805055055524745805
310
055055524745404052D4D5347202D205050413A2020206465736B746F702E6172782046696C6556657273696F6E3A20392E322E302E3401415454D05591501014B5354D1C80B481414104E88080819195CDADD1BDC0B985C9E08119A5B1955995C9CDA5BDB8E880E4B8C8B8C0B8D00
  0
ACAD_PROXY_OBJECT
  5
2E
102
{ACAD_REACTORS
330
C
102
}
330
C
100
AcDbProxyObject
 90
      499
 91
      504
 95
       25
 70
     0
 93
      586
310
09000046408000000000000000001344E200000000000000000000000000000000000000000000000000000000000000000000000000000000000000000000000000000000AAA406AA80
360
33
360
34
360
35
360
37
360
6B
360
6C
360
20734
360
20735
360
20736
360
20737
360
20738
360
20739
360
2073C
360
2073D
360
2073E
360
2073F
360
20740
360
20741
360
20742
360
20743
360
20744
360
20745
360
20746
360
20747
360
20748
360
20749
360
2074A
360
2074B
360
2074C
360
2074D
360
2074E
360
2074F
360
20750
360
20751
360
20752
360
20753
360
20754
360
20755
360
20761
360
20762
360
20763
360
20764
360
2076A
360
2076B
360
2076C
360
2076D
360
20772
360
20773
360
20774
360
20775
360
20776
360
20777
 94
        0
  0
ACAD_PROXY_OBJECT
  5
3B
102
{ACAD_REACTORS
330
C
102
}
330
C
100
AcDbProxyObject
 90
      499
 91
      515
 95
       25
 70
     0
 93
       50
310
09000042641280
  0
ACAD_PROXY_OBJECT
  5
32
102
{ACAD_REACTORS
330
C
102
}
330
C
100
AcDbProxyObject
 90
      499
 91
      507
 95
       25
 70
     0
 93
       48
310
903412000000
330
33
330
34
330
35
 94
        0
  0
ACAD_PROXY_OBJECT
  5
6A
102
{ACAD_REACTORS
330
C
102
}
330
C
100
AcDbProxyObject
 90
      499
 91
      507
 95
       25
 70
     0
 93
       40
310
90240E0000
330
6B
330
6C
 94
        0
  0
ACAD_PROXY_OBJECT
  5
20766
102
{ACAD_REACTORS
330
C
102
}
330
C
100
AcDbProxyObject
 90
      499
 91
      551
 95
       25
 70
     0
 93
       42
310
000900004040
330
20761
 94
        0
  0
ACAD_PROXY_OBJECT
  5
20765
102
{ACAD_REACTORS
330
C
102
}
330
C
100
AcDbProxyObject
 90
      499
 91
      507
 95
       25
 70
     0
 93
        8
310
AA
  0
ACAD_PROXY_OBJECT
  5
20756
102
{ACAD_REACTORS
330
C
102
}
330
C
100
AcDbProxyObject
 90
      499
 91
      540
 95
       25
 70
     0
 93
       42
310
000100005E80
330
20734
 94
        0
  0
DICTIONARY
  5
3F
102
{ACAD_REACTORS
330
C
102
}
330
C
100
AcDbDictionary
281
     1
  3
AcMgSettings
350
40
  3
AMGLAYCFG
350
42
  0
DICTIONARY
  5
73
102
{ACAD_REACTORS
330
C
102
}
330
C
100
AcDbDictionary
281
     1
  3
DIMENSION
350
62F
  3
FEA
350
630
  3
HATCH (1)
350
631
  3
HATCH (2)
350
632
  3
SYMBOLS
350
633
  0
ACAD_PROXY_OBJECT
  5
2075E
102
{ACAD_REACTORS
330
C
102
}
330
C
100
AcDbProxyObject
 90
      499
 91
      544
 95
       25
 70
     0
 93
       34
310
0500004280
  0
ACAD_PROXY_OBJECT
  5
2076E
102
{ACAD_REACTORS
330
C
102
}
330
C
100
AcDbProxyObject
 90
      499
 91
      554
 95
       25
 70
     0
 93
       98
310
0900004E400000000000000000
330
20775
330
0
330
20776
330
0
330
0
330
0
330
0
330
0
 94
        0
  0
ACAD_PROXY_OBJECT
  5
20769
102
{ACAD_REACTORS
330
C
102
}
330
C
100
AcDbProxyObject
 90
      499
 91
      507
 95
       25
 70
     0
 93
       56
310
90441600000000
330
2076A
330
2076B
330
2076C
330
2076D
 94
        0
  0
XRECORD
  5
21289
102
{ACAD_REACTORS
330
C
102
}
330
C
100
AcDbXrecord
280
     1
  1
DWGPROPS COOKIE
  2

  3

  4

  6

  7

  8

  9

300
AmdtFileType=82
301
=
302
=
303
=
304
=
305
=
306
=
307
=
308
=
309
=
 40
0.0
 41
2451943.235431667
 42
2455482.225389711
  1

 90
        1
  0
DICTIONARY
  5
2A40
102
{ACAD_REACTORS
330
C
102
}
330
C
100
AcDbDictionary
281
     1
  3
eng_id
350
2A41
  0
DICTIONARY
  5
2916
102
{ACAD_REACTORS
330
C
102
}
330
C
100
AcDbDictionary
281
     1
  3
FILENAME
350
2917
  0
ACAD_PROXY_OBJECT
  5
2075F
102
{ACAD_REACTORS
330
C
102
}
330
C
100
AcDbProxyObject
 90
      499
 91
      545
 95
       25
 70
     0
 93
        8
310
05
  0
DICTIONARY
  5
2A3E
102
{ACAD_REACTORS
330
C
102
}
330
C
100
AcDbDictionary
281
     1
  3
line_data
350
2A3F
  0
DICTIONARY
  5
1688
102
{ACAD_REACTORS
330
C
102
}
330
C
100
AcDbDictionary
281
     1
  3
input_data
350
168A
  3
table_data
350
1689
  0
DICTIONARY
  5
2918
102
{ACAD_REACTORS
330
C
102
}
330
C
100
AcDbDictionary
281
     1
  3
ZWKSIZE
350
2919
  0
LAYOUT
  5
22
102
{ACAD_REACTORS
330
1A
102
}
330
1A
100
AcDbPlotSettings
  1

  2
SII LP-2150 (D-SCAN C2)
  4
User262
  6
AM_VIEW1
 40
3.174999952316284
 41
3.174999952316284
 42
3.17498779296875
 43
3.17498779296875
 44
296.9259948730469
 45
419.9889831542969
 46
0.0
 47
0.0
 48
0.0
 49
0.0
140
420.0
141
297.0
142
1.0
143
1.022107788374329
 70
 11952
 72
     1
 73
     1
 74
     4
  7
sei_cad.ctb
 75
     0
147
0.9783703943695685
148
0.0
149
0.0
100
AcDbLayout
  1
Model
 70
     1
 71
     0
 10
0.0
 20
0.0
 11
12.0
 21
9.0
 12
0.0
 22
0.0
 32
0.0
 14
0.0
 24
0.0
 34
0.0
 15
0.0
 25
0.0
 35
0.0
146
0.0
 13
0.0
 23
0.0
 33
0.0
 16
1.0
 26
0.0
 36
0.0
 17
0.0
 27
1.0
 37
0.0
 76
     0
330
1F
  0
LAYOUT
  5
1E
102
{ACAD_REACTORS
330
1A
102
}
330
1A
100
AcDbPlotSettings
  1

  2
Canon LASER SHOT LBP-2030
  4

  6

 40
0.0
 41
0.0
 42
0.0
 43
0.0
 44
0.0
 45
0.0
 46
0.0
 47
0.0
 48
0.0
 49
0.0
140
0.0
141
0.0
142
1.0
143
1.0
 70
   688
 72
     0
 73
     0
 74
     5
  7
sei_cad.ctb
 75
    16
147
1.0
148
0.0
149
0.0
100
AcDbLayout
  1
ﾚｲｱｳﾄ1
 70
     1
 71
     1
 10
0.0
 20
0.0
 11
420.0
 21
297.0
 12
0.0
 22
0.0
 32
0.0
 14
1.000000000000000E+20
 24
1.000000000000000E+20
 34
1.000000000000000E+20
 15
-1.000000000000000E+20
 25
-1.000000000000000E+20
 35
-1.000000000000000E+20
146
0.0
 13
0.0
 23
0.0
 33
0.0
 16
1.0
 26
0.0
 36
0.0
 17
0.0
 27
1.0
 37
0.0
 76
     0
330
1B
  0
LAYOUT
  5
26
102
{ACAD_REACTORS
330
1A
102
}
330
1A
100
AcDbPlotSettings
  1

  2
Canon LASER SHOT LBP-2030
  4

  6

 40
0.0
 41
0.0
 42
0.0
 43
0.0
 44
0.0
 45
0.0
 46
0.0
 47
0.0
 48
0.0
 49
0.0
140
0.0
141
0.0
142
1.0
143
1.0
 70
   688
 72
     0
 73
     0
 74
     5
  7
sei_cad.ctb
 75
    16
147
1.0
148
0.0
149
0.0
100
AcDbLayout
  1
ﾚｲｱｳﾄ2
 70
     1
 71
     2
 10
0.0
 20
0.0
 11
12.0
 21
9.0
 12
0.0
 22
0.0
 32
0.0
 14
0.0
 24
0.0
 34
0.0
 15
0.0
 25
0.0
 35
0.0
146
0.0
 13
0.0
 23
0.0
 33
0.0
 16
1.0
 26
0.0
 36
0.0
 17
0.0
 27
1.0
 37
0.0
 76
     0
330
23
  0
MLINESTYLE
  5
18
102
{ACAD_REACTORS
330
17
102
}
330
17
100
AcDbMlineStyle
  2
STANDARD
 70
     0
  3

 62
   256
 51
90.0
 52
90.0
 71
     2
 49
0.5
 62
   256
  6
BYLAYER
 49
-0.5
 62
   256
  6
BYLAYER
  0
ACDBPLACEHOLDER
  5
F
102
{ACAD_REACTORS
330
E
102
}
330
E
  0
TABLESTYLE
  5
20722
102
{ACAD_REACTORS
330
20721
102
}
330
20721
100
AcDbTableStyle
  3
Standard
 70
     0
 71
     8
 40
1.5
 41
1.5
280
     0
281
     0
  7
STANDARD
140
4.5
170
     2
 62
     0
 63
     7
283
     0
274
    -2
284
     1
 64
     0
275
    -2
285
     1
 65
     0
276
    -2
286
     1
 66
     0
277
    -2
287
     1
 67
     0
278
    -2
288
     1
 68
     0
279
    -2
289
     1
 69
     0
  7
STANDARD
140
6.0
170
     5
 62
     0
 63
     7
283
     0
274
    -2
284
     1
 64
     0
275
    -2
285
     1
 65
     0
276
    -2
286
     1
 66
     0
277
    -2
287
     1
 67
     0
278
    -2
288
     1
 68
     0
279
    -2
289
     1
 69
     0
  7
STANDARD
140
4.5
170
     5
 62
     0
 63
     7
283
     0
274
    -2
284
     1
 64
     0
275
    -2
285
     1
 65
     0
276
    -2
286
     1
 66
     0
277
    -2
287
     1
 67
     0
278
    -2
288
     1
 68
     0
279
    -2
289
     1
 69
     0
  0
XRECORD
  5
21287
102
{ACAD_REACTORS
330
21286
102
}
330
21286
100
AcDbXrecord
280
     1
340
20720
  0
XRECORD
  5
21288
102
{ACAD_REACTORS
330
21286
102
}
330
21286
100
AcDbXrecord
280
     1
340
2071F
  0
DICTIONARYVAR
  5
207CF
102
{ACAD_REACTORS
330
30
102
}
330
30
100
DictionaryVariables
280
     0
  1
STANDARD
  0
DICTIONARYVAR
  5
21285
102
{ACAD_REACTORS
330
30
102
}
330
30
100
DictionaryVariables
280
     0
  1
0
  0
DICTIONARYVAR
  5
21284
102
{ACAD_REACTORS
330
30
102
}
330
30
100
DictionaryVariables
280
     0
  1
1
  0
ACAD_PROXY_OBJECT
  5
4E
102
{ACAD_REACTORS
330
4D
102
}
330
4D
100
AcDbProxyObject
 90
      499
 91
      520
 95
       25
 70
     0
 93
      118
310
405010040CA904C415CD5B075DD0D8
350
4F
 94
        0
  0
DICTIONARY
  5
17E
102
{ACAD_REACTORS
330
4D
102
}
330
4D
100
AcDbDictionary
281
     1
  3
JIS
350
17F
  0
XRECORD
  5
2077C
102
{ACAD_REACTORS
330
4D
102
}
330
4D
100
AcDbXrecord
280
     1
 90
-1023410169
  0
ACAD_PROXY_OBJECT
  5
33
330
2E
100
AcDbProxyObject
 90
      499
 91
      508
 95
       25
 70
     0
 93
      156
310
00010143D050D351505391D5531054925390D490
330
2E
 94
        0
  0
ACAD_PROXY_OBJECT
  5
34
330
2E
100
AcDbProxyObject
 90
      499
 91
      508
 95
       25
 70
     0
 93
      148
310
000101439050D351531253915054925390D490
330
2E
 94
        0
  0
ACAD_PROXY_OBJECT
  5
35
330
2E
100
AcDbProxyObject
 90
      499
 91
      509
 95
       25
 70
     0
 93
      156
310
000101439050D35154D6535093D314D256915080
330
2E
 94
        0
  0
ACAD_PROXY_OBJECT
  5
37
330
2E
100
AcDbProxyObject
 90
      499
 91
      511
 95
       25
 70
     0
 93
       88
310
000101411093D34C402B00
330
2E
330
0
330
0
 94
        0
  0
ACAD_PROXY_OBJECT
  5
6B
330
2E
100
AcDbProxyObject
 90
      499
 91
      509
 95
       25
 70
     0
 93
      108
310
00010142505351D153D35054D4E0
330
2E
 94
        0
  0
ACAD_PROXY_OBJECT
  5
6C
330
2E
100
AcDbProxyObject
 90
      499
 91
      522
 95
       25
 70
     0
 93
      140
310
00010142105350D55494D511005034A49530
330
2E
 94
        0
  0
ACAD_PROXY_OBJECT
  5
20734
330
2E
100
AcDbProxyObject
 90
      499
 91
      536
 95
       25
 70
     0
 93
      358
310
0001014124FEA55D00507392E322E302E32014124FEA55D00507392E322E302E3240501000041505391D311658
330
2E
330
20735
330
2073B
 94
        0
  0
ACAD_PROXY_OBJECT
  5
20735
330
2E
100
AcDbProxyObject
 90
      499
 91
      537
 95
       25
 70
     0
 93
       56
310
000190240E0000
330
2E
330
20736
330
20738
 94
        0
  0
ACAD_PROXY_OBJECT
  5
20736
330
2E
100
AcDbProxyObject
 90
      499
 91
      538
 95
       25
 70
     0
 93
       48
310
0001AA000000
330
2E
330
1E
330
20737
330
0
 94
        0
  0
ACAD_PROXY_OBJECT
  5
20737
330
2E
100
AcDbProxyObject
 90
      499
 91
      539
 95
       25
 70
     0
 93
       28
310
0001AAA0
330
2E
 94
        0
  0
ACAD_PROXY_OBJECT
  5
20738
330
2E
100
AcDbProxyObject
 90
      499
 91
      538
 95
       25
 70
     0
 93
       48
310
0001AA000000
330
2E
330
26
330
20739
330
0
 94
        0
  0
ACAD_PROXY_OBJECT
  5
20739
330
2E
100
AcDbProxyObject
 90
      499
 91
      539
 95
       25
 70
     0
 93
       28
310
0001AAA0
330
2E
 94
        0
  0
ACAD_PROXY_OBJECT
  5
2073C
330
2E
100
AcDbProxyObject
 90
      499
 91
      509
 95
       25
 70
     0
 93
      108
310
000101421053521310D05310D010
330
2E
 94
        0
  0
ACAD_PROXY_OBJECT
  5
2073D
330
2E
100
AcDbProxyObject
 90
      499
 91
      509
 95
       25
 70
     0
 93
      124
310
00010142905354915554D15112535010
330
2E
 94
        0
  0
ACAD_PROXY_OBJECT
  5
2073E
330
2E
100
AcDbProxyObject
 90
      499
 91
      509
 95
       25
 70
     0
 93
      132
310
00010143105354D150D51253D391125360
330
2E
 94
        0
  0
ACAD_PROXY_OBJECT
  5
2073F
330
2E
100
AcDbProxyObject
 90
      499
 91
      509
 95
       25
 70
     0
 93
      124
310
00010142905355941093D49111549010
330
2E
 94
        0
  0
ACAD_PROXY_OBJECT
  5
20740
330
2E
100
AcDbProxyObject
 90
      499
 91
      509
 95
       25
 70
     0
 93
      116
310
0001014290535115D1D0D3D313D4A0
330
2E
 94
        0
  0
ACAD_PROXY_OBJECT
  5
20741
330
2E
100
AcDbProxyObject
 90
      499
 91
      509
 95
       25
 70
     0
 93
      148
310
00010143505355925155D49151949154D21010
330
2E
 94
        0
  0
ACAD_PROXY_OBJECT
  5
20742
330
2E
100
AcDbProxyObject
 90
      499
 91
      509
 95
       25
 70
     0
 93
      172
310
00010144105350539393D51154149154D15495915010
330
2E
 94
        0
  0
ACAD_PROXY_OBJECT
  5
20743
330
2E
100
AcDbProxyObject
 90
      499
 91
      509
 95
       25
 70
     0
 93
      172
310
00010144105350555513D11253505494905391D15010
330
2E
 94
        0
  0
ACAD_PROXY_OBJECT
  5
20744
330
2E
100
AcDbProxyObject
 90
      499
 91
      509
 95
       25
 70
     0
 93
      124
310
00010142D05351561514915191125360
330
2E
 94
        0
  0
ACAD_PROXY_OBJECT
  5
20745
330
2E
100
AcDbProxyObject
 90
      499
 91
      509
 95
       25
 70
     0
 93
      132
310
00010142D05355105410539393D5115010
330
2E
 94
        0
  0
ACAD_PROXY_OBJECT
  5
20746
330
2E
100
AcDbProxyObject
 90
      499
 91
      509
 95
       25
 70
     0
 93
      108
310
00010142105350555513D0D31010
330
2E
 94
        0
  0
ACAD_PROXY_OBJECT
  5
20747
330
2E
100
AcDbProxyObject
 90
      499
 91
      509
 95
       25
 70
     0
 93
      108
310
00010142105350D3119150551050
330
2E
 94
        0
  0
ACAD_PROXY_OBJECT
  5
20748
330
2E
100
AcDbProxyObject
 90
      499
 91
      509
 95
       25
 70
     0
 93
      108
310
00010142105350D315925155D3F0
330
2E
 94
        0
  0
ACAD_PROXY_OBJECT
  5
20749
330
2E
100
AcDbProxyObject
 90
      499
 91
      509
 95
       25
 70
     0
 93
      148
310
0001014350535212511156915493D112535010
330
2E
 94
        0
  0
ACAD_PROXY_OBJECT
  5
2074A
330
2E
100
AcDbProxyObject
 90
      499
 91
      509
 95
       25
 70
     0
 93
      124
310
00010142905352105510D21254D3D010
330
2E
 94
        0
  0
ACAD_PROXY_OBJECT
  5
2074B
330
2E
100
AcDbProxyObject
 90
      499
 91
      509
 95
       25
 70
     0
 93
      148
310
00010143905354D25391D31152105513105660
330
2E
 94
        0
  0
ACAD_PROXY_OBJECT
  5
2074C
330
2E
100
AcDbProxyObject
 90
      499
 91
      509
 95
       25
 70
     0
 93
      124
310
00010142D0535115D1D193111254D420
330
2E
 94
        0
  0
ACAD_PROXY_OBJECT
  5
2074D
330
2E
100
AcDbProxyObject
 90
      499
 91
      509
 95
       25
 70
     0
 93
      100
310
00010142105350555513D213A0
330
2E
 94
        0
  0
ACAD_PROXY_OBJECT
  5
2074E
330
2E
100
AcDbProxyObject
 90
      499
 91
      509
 95
       25
 70
     0
 93
      116
310
000101425053521390D3D553951010
330
2E
 94
        0
  0
ACAD_PROXY_OBJECT
  5
2074F
330
2E
100
AcDbProxyObject
 90
      499
 91
      509
 95
       25
 70
     0
 93
      108
310
0001014210535213941493D29010
330
2E
 94
        0
  0
ACAD_PROXY_OBJECT
  5
20750
330
2E
100
AcDbProxyObject
 90
      499
 91
      509
 95
       25
 70
     0
 93
      108
310
0001014210535213951654115070
330
2E
 94
        0
  0
ACAD_PROXY_OBJECT
  5
20751
330
2E
100
AcDbProxyObject
 90
      499
 91
      509
 95
       25
 70
     0
 93
      108
310
000101421053521395925155D0F0
330
2E
 94
        0
  0
ACAD_PROXY_OBJECT
  5
20752
330
2E
100
AcDbProxyObject
 90
      499
 91
      509
 95
       25
 70
     0
 93
      140
310
00010143505354D150D51253D390D3D41660
330
2E
 94
        0
  0
ACAD_PROXY_OBJECT
  5
20753
330
2E
100
AcDbProxyObject
 90
      499
 91
      509
 95
       25
 70
     0
 93
      108
310
00010142105350D3141493D29030
330
2E
 94
        0
  0
ACAD_PROXY_OBJECT
  5
20754
330
2E
100
AcDbProxyObject
 90
      499
 91
      508
 95
       25
 70
     0
 93
      212
310
00010143905350555513D2105510D21493D500000000000002E400
330
2E
 94
        0
  0
ACAD_PROXY_OBJECT
  5
20755
330
2E
100
AcDbProxyObject
 90
      499
 91
      509
 95
       25
 70
     0
 93
      156
310
00010143905350555513D2105510D21111551010
330
2E
 94
        0
  0
ACAD_PROXY_OBJECT
  5
20761
330
2E
100
AcDbProxyObject
 90
      499
 91
      547
 95
       25
 70
     0
 93
      698
310
0001000000009AA6A9AA4051E547565204A756E2030362030313A35353A343420323030362028555443290141CE4B8C8B8C0B8C80518547565204F63742031322031343A32343A333320323031300141CE4B8C8B8C0B8C80
330
2E
330
20762
330
20763
330
20765
330
0
 94
        0
  0
ACAD_PROXY_OBJECT
  5
20762
330
2E
100
AcDbProxyObject
 90
      499
 91
      548
 95
       25
 70
     0
 93
       70
310
0001AAA80820000000
330
2E
330
20762
330
20762
 94
        0
  0
ACAD_PROXY_OBJECT
  5
20763
330
2E
100
AcDbProxyObject
 90
      499
 91
      549
 95
       25
 70
     0
 93
       48
310
000100000000
330
2E
330
0
330
20764
330
0
330
0
 94
        0
  0
ACAD_PROXY_OBJECT
  5
20764
330
2E
100
AcDbProxyObject
 90
      499
 91
      550
 95
       25
 70
     0
 93
       40
310
000100AAAA
330
2E
330
0
 94
        0
  0
ACAD_PROXY_OBJECT
  5
2076A
330
2E
100
AcDbProxyObject
 90
      499
 91
      522
 95
       25
 70
     0
 93
      180
310
00010143105050D3D35411119390535140504434F4D500
330
2E
 94
        0
  0
ACAD_PROXY_OBJECT
  5
2076B
330
2E
100
AcDbProxyObject
 90
      499
 91
      522
 95
       25
 70
     0
 93
      212
310
0001014390505193D311115491119390535140506466F6C6465720
330
2E
 94
        0
  0
ACAD_PROXY_OBJECT
  5
2076C
330
2E
100
AcDbProxyObject
 90
      499
 91
      522
 95
       25
 70
     0
 93
      180
310
00010143105050539393D1119390535140504284156290
330
2E
 94
        0
  0
ACAD_PROXY_OBJECT
  5
2076D
330
2E
100
AcDbProxyObject
 90
      499
 91
      522
 95
       25
 70
     0
 93
      436
310
00010143905050D3D35415925155D31254D50052295BD96CA0A90B396CA0A894591A496CA0A8DB691A496CA0A89BA96CA0A95E28F95310
330
2E
 94
        0
  0
ACAD_PROXY_OBJECT
  5
20772
330
2E
100
AcDbProxyObject
 90
      499
 91
      555
 95
       25
 70
     0
 93
       32
310
00010000
330
2E
340
2076F
330
20774
330
2076F
 94
        0
  0
ACAD_PROXY_OBJECT
  5
20773
330
2E
100
AcDbProxyObject
 90
      499
 91
      556
 95
       25
 70
     0
 93
       18
310
000180
330
2E
 94
        0
  0
ACAD_PROXY_OBJECT
  5
20774
330
2E
100
AcDbProxyObject
 90
      499
 91
      557
 95
       25
 70
     0
 93
      162
310
00010142561094150B4C8C4C149050055401550000
330
2E
330
20772
330
20773
 94
        0
  0
ACAD_PROXY_OBJECT
  5
20775
330
2E
100
AcDbProxyObject
 90
      499
 91
      558
 95
       25
 70
     0
 93
      178
310
000100AAAAAA887101F6B9A8DC93A576F455F92A1B2F00
330
2E
330
20774
 94
        0
  0
ACAD_PROXY_OBJECT
  5
20776
330
2E
100
AcDbProxyObject
 90
      499
 91
      559
 95
       25
 70
     0
 93
      108
310
000190140A000000000000AAAAA0
330
2E
330
20777
330
20777
330
20777
330
20777
330
20777
330
0
 94
        0
  0
ACAD_PROXY_OBJECT
  5
20777
330
2E
100
AcDbProxyObject
 90
      499
 91
      560
 95
       25
 70
     0
 93
       51
310
00010000AAAA80
330
2E
330
20776
330
20774
 94
        0
  0
DICTIONARY
  5
40
102
{ACAD_REACTORS
330
3F
102
}
330
3F
100
AcDbDictionary
281
     1
  3
DWGSETTINGS
350
41
  3
FEM
350
69
  3
Shaft
350
56
  3
TRANSSETTINGS
350
4C
  0
ACAD_PROXY_OBJECT
  5
42
102
{ACAD_REACTORS
330
3F
102
}
330
3F
100
AcDbProxyObject
 90
      499
 91
      519
 95
       25
 70
     0
 93
    23232
310
41502491013041105357CC201C00030C011E441013141105357CC603800030C011E441013241105357CCA01400030C011E441013341105357CCE01800030C010D9013441105357CD200C00030C010D9013541105357CD600C00030C010D9013641105357CDA00800030C011E9013741105357CDE01000030C010D901384110
310
5357CE200400030C011E9013941105357CE63F400030C0241102324141505357CC4C201C00030C011E902344141505357CC4C600C00030C010D902495041505357CC4CA01C00030C011E40902304E41505357CC13A01C00030C011E902314E41505357CC53A03800030C011E902324E41505357CC93A01400030C011E90233
310
4E41505357CCD3A01800030C010D902344E41505357CD13A00C00030C010D902354E41505357CD53A00C00030C010D902364E41505357CD93A00800030C011E902374E41505357CDD3A01000030C010D902384E41505357CE13A00400030C011E902394E41505357CE53A3F400030C024110332414E41905357CC4C13A01C0
310
0030C011E90334414E41905357CC4C53A00C00030C010D90349504E41905357CC4C93A01C00030C011E409044B4C494E41505357D0D3200400030C011E42504494E464F42105357D410549151A01000030C010D42D055241484D3541905357D093D4A01C00030C011E425045649455742105357D5925155D4E00400030C011
310
E42D06424548494E4441905357D25395A3F400030C0243505545241494C41505357D514A00C00030C010D4250348494441905357D21251201C00030C011E4250356495341905357D59254E01C00030C011E4250650415244494D42505357D41054911253600C00030C010D4250652454644494D42505357D49151911253601
310
000030C010D425774110531514901348070000C300479034110915312501348000000C0003FFFFFFFD034110921395901398000000C0003FFFFFFFE415092139594D06424548494E448000000C0003FFFFFFFE411093125110234418000000C0003FFFFFFFD03411093D05410234418000000C0003FFFFFFFD03411093D48C
310
9055241484D358010000C30047A411093D48CD055241484D358020000C30047A411093D48D5055241484D358000000C0003FFFFFFFE411093D48DD055241484D3581E0000C30047903411094105410234418000000C0003FFFFFFFD03411094115610234418000000C0003FFFFFFFD034110951112501358000000C0003FFF
310
FFFFD034110D0530C901348000000C0003FFFFFFFE4110D0530CD01348020000C30047A4110D0530D501348070000C30047A4110D0530DD013481E0000C30047A4110D15393901378000000C0003FFFFFFFE4110D15395D01378000000C0003FFFFFFFE4110D312539044B4C494E8000000C0003FFFFFFFE4110D3D38C5013
310
08000000C0003FFFFFFFD034110D3D38C901318000000C0003FFFFFFFD034110D3D38CD01328000000C0003FFFFFFFD034110D3D38D101328000000C0003FFFFFFFD034111115494101348000000C0003FFFFFFFD034111115510501348000000C0003FFFFFFFE4111125051D01358000000C0003FFFFFFFE4111125312501
310
358000000C0003FFFFFFFE411112535410650415244494D8000000C0003FFFFFFFE411112535490652454644494D8000000C0003FFFFFFFE411156135410234418000000C0003FFFFFFFD034111915353901388000000C0003FFFFFFFE415191535413901388030000C3004364151915354D410234418000000C0003FFFFFF
310
FE4151915354D510234418030000C300436415191535593901328000000C0003FFFFFFFE415191535595101328030000C3004364111931055101308000000C0003FFFFFFFD03411194905490234418000000C0003FFFFFFFD034111D49312501358000000C0003FFFFFFFD034111D5931250234418000000C0003FFFFFFFD0
310
34112105510D01388000000C0003FFFFFFFD014112125113901338000000C0003FFFFFFFD034112125115D01338000000C0003FFFFFFFD034112131253901348000000C0003FFFFFFFD01411213D0D3901378000000C0003FFFFFFFE411213D0D5D01378000000C0003FFFFFFFE4112539193D04494E464F8000000C0003FF
310
FFFFFE4113105112501348000000C0003FFFFFFFD034113115051101358000000C0003FFFFFFFE419397D0921395902394E8000000C0003FFFFFFFE419397D0D3D38C502304E8000000C0003FFFFFFFD03419397D0D3D38C902314E8000000C0003FFFFFFFD03419397D0D3D38CD02324E8000000C0003FFFFFFFD03419397
310
D0D3D38D102324E8000000C0003FFFFFFFD03419397D0D15393902374E8000000C0003FFFFFFFE419397D0D15395D02374E8000000C0003FFFFFFFE419397D1125312502354E8000000C0003FFFFFFFE419397D2105510D02384E8000000C0003FFFFFFFD01419397D2125113902334E8000000C0003FFFFFFFD03419397D2
310
125115D02334E8000000C0003FFFFFFFD03419397D3115051102354E8000000C0003FFFFFFFE419397D391D25410349504E8000000C0003FFFFFFFE419397D412105390334414E8000000C0003FFFFFFFE419397D510D3D3902304E8000000C0003FFFFFFFD03419397D5121312502344E8000000C0003FFFFFFFD01419397
310
D5131153902304E8000000C0003FFFFFFFD03419397D516150CD02364E8000000C0003FFFFFFFD03419397D594131250332414E8000000C0003FFFFFFFE411391D25410249508000000C0003FFFFFFFE411410530C9055241484D358010000C30047A411410530CD055241484D358020000C30047A411410530D5055241484
310
D358000000C0003FFFFFFFE411410530DD055241484D3581E0000C30047903411412105390234418000000C0003FFFFFFFE411413D4D3901368070000C30047A419413D4D49151901368050000C30047903411413D4D6101368000000C0003FFFFFFFD03411414D150D0234418000000C0003FFFFFFFD03411490D1D390137
310
8000000C0003FFFFFFFE411490D1D5D01378000000C0003FFFFFFFE4114919112501348000000C0003FFFFFFFD034114945514901348070000C30047903411494D093D01348000000C0003FFFFFFFD034114D09492D01348000000C0003FFFFFFFD014114D0D153901378000000C0003FFFFFFFD034114D150D51013480000
310
00C0003FFFFFFFD014114D15313901378000000C0003FFFFFFFD034114D15315D01378000000C0003FFFFFFFD034114D4D654D01308000000C0003FFFFFFFD034114D51312501348070000C300479034114D6508C501358000000C0003FFFFFFFD034114D6508C901358000000C0003FFFFFFFD034114D6508CD0135802000
310
0C30047A4114D6508D501358070000C300479034114D65353901378000000C0003FFFFFFFD034114D65355D01378000000C0003FFFFFFFD03411510D3D3901308000000C0003FFFFFFFD034115121312501348000000C0003FFFFFFFD01411512550C9055241484D358010000C30047A411512550CD055241484D358020000
310
C30047A411512550D5055241484D358000000C0003FFFFFFFE411512550DD055241484D3581E0000C300479034115131153901308000000C0003FFFFFFFD03415514905253105545241494C8000000C0003FFFFFFFE41151492D3901378000000C0003FFFFFFFD0341151492D5D01378000000C0003FFFFFFFD03411514931
310
2501348000000C0003FFFFFFFD01411516150C501368030000C300436411516150C901368030000C300436411516150CD01368000000C0003FFFFFFFE411516150D501368070000C30047A411516150DD013681E0000C30047A4115925155D04564945578000000C0003FFFFFFFE41159151121034849448000000C0003FFF
310
FFFFD0241159151159035649538000000C0003FFFFFFFD02411594131250232418000000C0003FFFFFFFE4116925690501348000000C0003FFFFFFFD01411354D653501358020000C30047AAAA3F400030C01013F90A4051E4091E40D0D4110D4151E4190D41D1E4391E4791E7F6
340
16
340
16
340
16
340
43
340
16
340
16
340
16
340
44
340
16
340
16
340
44
340
45
340
16
340
16
340
16
340
16
340
43
340
16
340
16
340
16
340
44
340
16
340
16
340
44
340
45
340
16
340
46
340
16
340
16
340
16
340
16
340
16
340
43
340
16
340
16
340
16
340
47
340
15
340
15
340
15
340
15
340
15
340
15
340
15
340
15
340
15
340
15
340
15
340
15
340
15
340
15
340
15
340
15
340
48
340
15
340
15
340
15
340
15
340
15
340
15
340
15
340
15
340
15
340
15
340
15
340
15
340
15
340
15
340
15
340
16
340
15
340
15
340
15
340
15
340
15
340
15
340
15
340
15
340
47
340
15
340
15
340
48
340
15
340
15
340
15
340
15
340
15
340
15
340
15
340
15
340
15
340
48
340
15
340
15
340
15
340
47
340
15
340
15
340
15
340
15
340
15
340
15
340
15
340
15
340
15
340
15
340
15
340
15
340
15
340
15
340
15
340
15
340
15
340
15
340
15
340
48
340
15
340
15
340
48
340
15
340
15
340
16
340
15
340
48
340
15
340
15
340
47
340
15
340
15
340
16
340
15
340
48
340
15
340
15
340
15
340
15
340
15
340
15
340
15
340
15
340
15
340
48
340
15
340
15
340
15
340
15
340
15
340
15
340
15
340
15
340
15
340
15
340
15
340
4B
340
16
 94
        0
  0
ACAD_PROXY_OBJECT
  5
62F
102
{ACAD_REACTORS
330
73
102
}
330
73
100
AcDbProxyObject
 90
      499
 91
      523
 95
       25
 70
     0
 93
      253
310
43D1444494D454E53494F4E2C414D44545F2A5F44494D404A9012A404A9012A0
  0
ACAD_PROXY_OBJECT
  5
630
102
{ACAD_REACTORS
330
73
102
}
330
73
100
AcDbProxyObject
 90
      499
 91
      523
 95
       25
 70
     0
 93
      181
310
43D012A42D05357D191504B505357CA9012A404A9012A8
  0
ACAD_PROXY_OBJECT
  5
631
102
{ACAD_REACTORS
330
73
102
}
330
73
100
AcDbProxyObject
 90
      499
 91
      523
 95
       25
 70
     0
 93
      133
310
43D054841544348404A9012A404A9012A8
  0
ACAD_PROXY_OBJECT
  5
632
102
{ACAD_REACTORS
330
73
102
}
330
73
100
AcDbProxyObject
 90
      499
 91
      523
 95
       25
 70
     0
 93
      549
310
43D044C494E4549CE0B0E138B0A8B4E0B0A8B4E138B105357CE0B105357CE138B0A8B505357CE0B0A8B505357CE139012A404A910494E534552542C5354445041525432448
  0
ACAD_PROXY_OBJECT
  5
633
102
{ACAD_REACTORS
330
73
102
}
330
73
100
AcDbProxyObject
 90
      499
 91
      523
 95
       25
 70
     0
 93
      909
310
43D6641434D46434652414D452C41434D444154554D5441524745542C41434D444154554D49442C41434D57454C4453594D2C41434D5355524653594D2C41434D4645415449442C41434D504152545245462C41434D42414C4C4F4F4E2C414D44544544474553594D404A9012A404A9012A8
  0
XRECORD
  5
2A41
102
{ACAD_REACTORS
330
2A40
102
}
330
2A40
100
AcDbXrecord
280
     1
  1
LINE
  0

  0
XRECORD
  5
2917
102
{ACAD_REACTORS
330
2916
102
}
330
2916
100
AcDbXrecord
280
     1
  1
25000259__00___
  0

  0
XRECORD
  5
2A3F
102
{ACAD_REACTORS
330
2A3E
102
}
330
2A3E
100
AcDbXrecord
280
     1
  1
110 ^M^J ^M^J ^M^J ^M^J ^M^J ^M^J ^M^J ^M^J ^M^J ^M^J ^M^Jボーリングクイル ^M^J鋼 ^M^J特型 ^M^J直付け ^M^Jストレート ^M^J25 ^M^J2 ^M^J ^M^Jアルミ ^M^J ^M^J
  0

  0
XRECORD
  5
168A
102
{ACAD_REACTORS
330
1688
102
}
330
1688
100
AcDbXrecord
280
     1
  1
1,,,,,,,,,^M^J2,,,,,,,,,^M^J3,,,,,,,,,^M^J4,,,,,,,,,^M^J5,,,,,,,,,^M^J6,,,,,,,,,^M^J7,,,,,,,,,^M^J8,,,,,,,,,^M^J9,,,,,,,,,^M^J10,,,,,,,,,
  0

  0
XRECORD
  5
1689
102
{ACAD_REACTORS
330
1688
102
}
330
1688
100
AcDbXrecord
280
     1
  1
10,10
  0

  0
XRECORD
  5
2919
102
{ACAD_REACTORS
330
2918
102
}
330
2918
100
AcDbXrecord
280
     1
  1
3
  0

  0
ACAD_PROXY_OBJECT
  5
4F
102
{ACAD_REACTORS
330
4E
102
}
330
4E
100
AcDbProxyObject
 90
      499
 91
      521
 95
       25
 70
     0
 93
      157
310
057356C1D77406406AA8FFFFFFFF05DD01009010
330
1F
330
0
330
20774
 94
        0
  0
ACAD_PROXY_OBJECT
  5
17F
102
{ACAD_REACTORS
330
17E
102
}
330
17E
100
AcDbProxyObject
 90
      499
 91
      526
 95
       25
 70
     0
 93
     2379
310
5DC33333333333309408000000C00040D29254D01640600800030C0200800030C003333333333330940C8121E8720B1B6A9BAB9332A32BC3A29BA3220480A1282C6DA8C868CA6E8C88120286A0B1B6ABB2B63234B733A9BA3220480A1082C6DA92C8A6E8C88120285A0B1B6A230BA3AB6A9BA3220480A1282C6DA849E9AA6E
310
8C88120286A0B1A0B6B3AA34BA3632A9BA3220480A2082DAC8E888CAE8C2D2D8A6F2DAA6E8C88120288A0B6B23A29B2B1BA34B7B729BCB6A9BA3220480A2282DAC8E886CADCE8CAE498D2DCCAA6E8C88120288A0B6B23A2A343932B0B22634B732A9BA3220480A1682DAC8E89CDEE8CAA6E8C88120285A0B1A0B6B3A630BCA
310
9BA3220480A1682C682DACE88D2DAA6E8C88120288A0B1A0B6B3A437B632A1B430B93A29BA3220480C812020
340
180
360
181
360
182
360
183
360
184
360
185
360
186
360
20779
360
2077A
360
2077B
360
2077D
360
2077E
360
2077F
360
20785
360
20786
360
20787
340
0
340
0
 94
        0
  0
ACAD_PROXY_OBJECT
  5
41
102
{ACAD_REACTORS
330
40
102
}
330
40
100
AcDbProxyObject
 90
      499
 91
      518
 95
       25
 70
     0
 93
     2954
310
4050B44574753455454494E4753A0E8482A68AA6A88882A069492A684A1A0A723A0A92920ACA0A811A1AA0C868A9C829C8E82A12686AF87260F862666A8321A2A72224A0A50000000000000122020E868A9C889282A682A106260F86460F8666083A1A2A72224A9AA250000000000000042020C868A9C988A9C94000000000
310
000048808321A2A727A323250000000000000122020E868A9C9E8C8C62940000000000000488083A1A2A727A32319250000000000000122021CC6D0C2DACCCAE4C8D2DADADEC8CA9FC84A1A624A720A92920ACA0A8198991AA108698929C8AA8B2A082A0AB098929C8A84A22BA3AAA9A1A0A622A50A0E9882A6A89E849482A
310
02608426A0A5A2AB24A2ABA7E8120CA0A68682988A0C00800010652455649534941501304154D0D0531150540CC4E8C5085354414E44415244415034A4953425512535154D510535412809E811909E4ADCD050756455253494F4E4150531352E3030441ED115D1D4D15515125391D4D153911F40
  0
ACAD_PROXY_OBJECT
  5
69
102
{ACAD_REACTORS
330
40
102
}
330
40
100
AcDbProxyObject
 90
      499
 91
      518
 95
       25
 70
     0
 93
      411
310
4050346454D21092DCC6E486DECACC942842630BCA3B937BAB820A8320A6AFA322A0A20F688AE8EA68AA8A8929C8EA68A9C88FA0
  0
ACAD_PROXY_OBJECT
  5
56
102
{ACAD_REACTORS
330
40
102
}
330
40
100
AcDbProxyObject
 90
      499
 91
      518
 95
       25
 70
     0
 93
      583
310
40505536861667421292DCE8CAE4E4EAE0E89FA0484A634B3B43A2634B732A7F21A98D2CED0E898D2DCCAACD2CAEE9FC8229B4B232A7E80A20F688AE8EA68AA8A8929C8EA68A9C88FA
  0
ACAD_PROXY_OBJECT
  5
4C
102
{ACAD_REACTORS
330
40
102
}
330
40
100
AcDbProxyObject
 90
      499
 91
      518
 95
       25
 70
     0
 93
      852
310
4050D5452414E5353455454494E4753A2488A482AE929C8EA8A4829CA69882A8929E9C0C00800050D4F524947494E414C4C595F4F4E0600400028529A7AAA921A2A620A723A0A81A52827212AAA0A48AA68AA4AC8A0C0080001107B44574753455454494E4753454E447D0
  0
ACAD_PROXY_OBJECT
  5
181
330
17F
100
AcDbProxyObject
 90
      499
 91
      527
 95
       25
 70
     0
 93
       86
310
5DEA0C80A0280A0280A034
  0
ACAD_PROXY_OBJECT
  5
182
330
17F
100
AcDbProxyObject
 90
      499
 91
      528
 95
       25
 70
     0
 93
      282
310
5DD0E4050140501405014050140501405014050141101405014041000000000000001000
340
187
 94
        0
  0
ACAD_PROXY_OBJECT
  5
183
330
17F
100
AcDbProxyObject
 90
      499
 91
      529
 95
       25
 70
     0
 93
      323
310
5DCC199999999999E99F91740501405014050140501405014050140501405014050140501405014040
340
0
 94
        0
  0
ACAD_PROXY_OBJECT
  5
184
330
17F
100
AcDbProxyObject
 90
      499
 91
      530
 95
       25
 70
     0
 93
       10
310
5DC0
  0
ACAD_PROXY_OBJECT
  5
185
330
17F
100
AcDbProxyObject
 90
      499
 91
      531
 95
       25
 70
     0
 93
      257
310
5DE0C16A22A7D90F49F80000000000001081400000000000004204010000618000
340
188
340
189
 94
        0
  0
ACAD_PROXY_OBJECT
  5
186
330
17F
100
AcDbProxyObject
 90
      499
 91
      532
 95
       25
 70
     0
 93
     5277
310
5DD06411255115350141236025B6901405014069010000000000000910240690120281A8AA2CA0282484A4BE52028120280A032020000000000001220480D202405044E414D454050496BC914F4051C40640A80000000000004E4090193C3D3C4946284953424C414E4B28504152543A4E414D45292C424C4F434B3A4E414D
310
452C504152543A4E414D45293E3C41435F44455343524950544E3E40480A109A82A88AA492829880A091BBD2F7E80A3A80C81D0E27A15AF46E08A81203480901411393D5115014124A363B7D0147501904A0000000000000F902406428F4F1050D7D393D5114F901202832B22A72227A92028366EF6EE06F582028EA0320B4
310
0000000000001F20480C879E9E20A1AFAB27222FA620A122A61F20240506445020000000000000490201C00030C00010180000000000003E400000000000000F901073D3C4954454D3E4050180000000000003E400000000000000F901073D3C4954454D3E40501800000000000034400000000000000D101073D3C4954454
310
D3E40501800000000000034400000000000000D101073D3C4954454D3E405029010000000000000F9000000000000003E4041CF4F125511534F901418F4F1455164F9014060000000000000F9000000000000003E4041CF4F125511534F901800000000000034400000000000000D101073D3C4954454D3E40640400000000
310
0000003E400000000000000F90288800000000000020810000001800120881A068120480A032208521122080D21480D211480A1485214852050000000000003C2FC000000000000F0BF40600800030C0200400030C00CDCCCCCCCCCCEC3F3373333333333B0FC3333333333330940C80D069014090341504901A1999999999
310
9984A040100006180400800061804010000618008098A02808
340
0
340
0
 94
        0
  0
ACAD_PROXY_OBJECT
  5
20779
330
17F
100
AcDbProxyObject
 90
      499
 91
      561
 95
       25
 70
     0
 93
     3042
310
5DD9740D29254D064A49535F413342929254D7D512551311505134A49535F42525F5265766973696F6E6C6973744190F4134522028323937783231306D6D2941D29254D7D04D1490E41312028353934783834316D6D2941929254D7D04C50E41332028323937783432306D6D2941929254D7D04CD0F41344C2028323130783
310
239376D6D2941D29254D7D04D1310E41322028343230783539346D6D2941929254D7D04C90F4130202838343178313138396D6D2941929254D7D04C10243129254C82557247A25E4C81050A4A49535F5449544C454143129254C82557247A25E4C81090A4A49535F5449544C45424110E979A97F0838A835883675F42525F4
310
4D29254D7D09497D4995D9A5CDA5BDB9B1A5CDD10E979A97F0838A835883675F54525F44D29254D7D51497D4995D9A5CDA5BDB9B1A5CDD10E979A97F0838A835883675F424C5F44D29254D7D09317D4995D9A5CDA5BDB9B1A5CDD10E979A97F0838A835883675F544C5F44D29254D7D51317D4995D9A5CDA5BDB9B1A5CDD00
  0
ACAD_PROXY_OBJECT
  5
2077A
330
17F
100
AcDbProxyObject
 90
      499
 91
      562
 95
       25
 70
     0
 93
      898
310
5DC4000000000000124048CF4F11115510525317D3105091530F880A0F11115510525317D05094D4D0D053114F8A50241C9A9999999999B93F26A666666666724FC000000000000E03F400000000000000400000000000000510000000000000024408070000C300000000000000049000
340
16
340
180
 94
        0
  0
ACAD_PROXY_OBJECT
  5
2077B
330
17F
100
AcDbProxyObject
 90
      499
 91
      563
 95
       25
 70
     0
 93
      823
310
5DC0B00000000000002480959E9E29A2A1AA24A7A72FA620A122A62FA324A929AA1F169E29A2A1AA24A7A72FA620A122A62FA620A9AA1F000000000000048803FFFE01C00030C008140380006180000000000000048800000000000000A2000000000000002480
340
652
340
180
 94
        0
  0
ACAD_PROXY_OBJECT
  5
2077D
330
17F
100
AcDbProxyObject
 90
      499
 91
      564
 95
       25
 70
     0
 93
      152
310
5DE8273108AC1C5A0640A3D0A5723F0BD1F200
  0
ACAD_PROXY_OBJECT
  5
2077E
330
17F
100
AcDbProxyObject
 90
      499
 91
      565
 95
       25
 70
     0
 93
       14
310
5DE0
340
0
 94
        0
  0
ACAD_PROXY_OBJECT
  5
2077F
330
17F
100
AcDbProxyObject
 90
      499
 91
      566
 95
       25
 70
     0
 93
     6059
310
5DD084050BA4050AA405024050E836583938376838C815B83672031405983D3C486F6C653A6469613E3C696628657175616C28486F6C653A7465726D696E6174696F6E2C223022292C2220905B82B320222C22208368838A838B22293E3C696628657175616C28486F6C653A7465726D696E6174696F6E2C223022292C486F
310
6C653A64657074682C2222293E2C203C486F6C653A63746469613E2082B482AE82E882CC905B82B3203C486F6C653A637464657074683E406901405034050E836583938376838C815B83672031405EF3D3C486F6C653A6374616E676C653E252564202525633C486F6C653A63746469613E208E4D8C8A2C203C69662865717
310
5616C28486F6C653A7461707065642C223022292C22252563222C486F6C653A6E6F6D696E616C202220782022293E3C696628657175616C28486F6C653A7461707065642C223022292C486F6C653A6469612C486F6C653A706974636864657363293E203C696628657175616C28486F6C653A7465726D696E6174696F6E2C2
310
23022292C22905B82B320222C222022293E3C696628657175616C28486F6C653A7465726D696E6174696F6E2C223022292C486F6C653A64657074682C2222293E406901405014050E836583938376838C815B83672031405C73D3C696628657175616C28486F6C653A7461707065642C223022292C22252563222C486F6C65
310
3A6E6F6D696E616C202220782022293E3C696628657175616C28486F6C653A7461707065642C223022292C486F6C653A6469612C486F6C653A706974636864657363293E203C696628657175616C28486F6C653A7465726D696E6174696F6E2C223022292C22905B82B320222C222022293E3C696628657175616C28486F6C
310
653A7465726D696E6174696F6E2C223022292C486F6C653A64657074682C2222293E4069014051E4090E836583938376838C815B83672032405173D3C535444503A444553433E203C535444503A5354443E40690E836583938376838C815B836720314050C3D3C535444503A444553433E40690240515AAABBA120
360
20783
330
20783
360
20784
330
20784
360
20782
330
20782
360
20781
360
20780
330
20781
330
20780
 94
        0
  0
ACAD_PROXY_OBJECT
  5
20785
330
17F
100
AcDbProxyObject
 90
      499
 91
      568
 95
       25
 70
     0
 93
       26
310
5DD02A80
340
42
 94
        0
  0
ACAD_PROXY_OBJECT
  5
20786
330
17F
100
AcDbProxyObject
 90
      499
 91
      569
 95
       25
 70
     0
 93
      250
310
5DD020000000000000A1000000000000002440408F0F9023C3E409A0DCFFFF80
340
58
340
1B97
340
1B98
340
5F
340
60
340
61
340
62
340
63
340
68
340
0
 94
        0
  0
ACAD_PROXY_OBJECT
  5
20787
330
17F
100
AcDbProxyObject
 90
      499
 91
      570
 95
       25
 70
     0
 93
    13889
310
5DD1D003FFFFFFFD030300030CCCCCCCCCCCC250200800030C01030300030CCCCCCCCCCCC250200800030C00050C8DC0955782CC838A83588367014ED1D15395149050D3CB1294138B0C0B23702555E0B320E2A0D620D9CB11D15395149055160B095CCB0A11D1539354D1C819D95B991A5B5E880CCC0A78000C0000000000
310
00000000000000000000010CCCCCCCCCCCC250200800030C010CCCCCCCCCCCC250200800030C020143CF4F111959985D5B1D151A5D1B194F8050A8C8A8365815B8375838B014E51D15395149050D3CB1294138B0C0B2322A0D96056E0DD60E2CB11D15395149055160B095CCB0A11D1539354D1C819D95B991A5B5E880CCC4
310
A78000C000000000000000000000000000000010CCCCCCCCCCCC250200800030C010CCCCCCCCCCCC250200800030C020143CF4F111959985D5B1D151A5D1B194F90D44111409034110541D0C4350F4050E44D03449074510F000141232D24D7C053247454E545241434F2C4A504E2C302C8CB4935F2C47454E54524154582C
310
25732C2847454E4D53472067656E64696D7A20312900010104002214000281464500A608E8A9CA8A482869E5894A09C5860591914588E8A9CA8A482A8B0584AE658508E8A9C9AA68E40CECADCC8D2DAF4406452029E9E9E27B934B3B4B71F1E24A31427A91424A9A12620A7259427B934B3B4B7149624A9A12620A7259424B
310
A32B6949496111116111711149F1E24BA32B69F00808200111A000140560052F47454E545241434F2C4A504E2C302C582C47454E54524154582C25732C2847454E4D53472067656E64696D7A20332900010100002054000280AC80A5E8E8A9CA8A482869E5894A09C586058B2588E8A9CA8A482A8B0584AE658508E8A9C9AA
310
68E40CECADCC8D2DAF4406852000202000040E800050152014BD1D15395149050D3CB1294138B0C0B148B11D15395149055160B095CCB0A11D1539354D1C819D95B991A5B5E880D8A400040400008250000A0507A6029823A2A72A2920A1A79625282716181641E99623A2A72A2920AA2C1612B9961423A2A726A9A39033B2
310
B73234B6BD101B948000808180105A000140A0F4C053047454E545241434F2C4A504E2C302C83D32C47454E54524154582C25732C2847454E4D53472067656E64696D7A203829000101010020F400028248704B5F00A668E8A9CA8A482869E5894A09C58605921C12D7C588E8A9CA8A482A8B0584AE658508E8A9C9AA68E40
310
CECADCC8D2DAF440646052000200080043280005048B4B8A69014CD1D15395149050D3CB1294138B0C0B22D2E29A4B11D15395149055160B095CCB0A11D1539354D1C819D95B991A5B5E880C8C4A4000400100086D0000A09196926BE029923A2A72A2920A1A796252827161816465A49AF9623A2A72A2920AA2C1612B9961
310
423A2A726A9A39033B2B73234B6BD10189480A02620202080043E80005048D8096DA014CD1D15395149050D3CB1294138B0C0B236025B68B11D15395149055160B095CCB0A11D1539354D1C819D95B991A5B5E880C4D0A4000404140280D0000A190687072706CD06C5069D06B0029DA3A2A72A2920A1A7962528271618164
310
1A1C1C9C1B341B141A741AC1623A2A72A2920AA2C1612B9961423A2A726A9A39033B2B73234B6BD10189A94800080820050EA000143A322A0D0E0E4E0D9A0D8A0D3A0D60053D47454E545241434F2C4A504E2C302C8C8A8343839383668362834E83582C47454E54524154582C25732C2847454E4D53472067656E64696D7A
310
2031372900010105002274000281464500A628E8A9CA8A482869E5894A09C5860591914588E8A9CA8A482A8B0584AE658508E8A9C9AA68E40CECADCC8D2DAF440626C52000202080044A8000504909497CA014CD1D15395149050D3CB1294138B0C0B242525F28B11D15395149055160B095CCB0A11D1539354D1C819D95B9
310
91A5B5E880C4E4A400040418008A521E000000000000001CA040C00000000000034408080000000000006881010000000000000D102040000000000001A204080000000000003440818000000000000728103000000000000125020600000000004028A040000000000000034408000000000000004881000000000000000D
310
102000000000000001A204000000000000003440818000000000000508143C0000000000000039408180000000000006881030000000000000D102060000000000001A2040C00000000000034408180000000000006881030000000000000E5020600000000000024A040C0000000000805140800000000000000688100000
310
00000000009102000000000000001A2040000000000000034408180000000000006881030000000000000A10284220000000878000002020000008380000020400000081800000208000000828000002028900000000
340
0
340
0
340
0
340
0
340
180
340
180
 94
        0
  0
ACAD_PROXY_OBJECT
  5
20783
330
2077F
100
AcDbProxyObject
 90
      499
 91
      567
 95
       25
 70
     0
 93
     1376
310
5DE0143A0D960E4E0DDA0E32056E0D9C80C405983D3C486F6C653A6469613E3C696628657175616C28486F6C653A7465726D696E6174696F6E2C223022292C2220905B82B320222C22208368838A838B22293E3C696628657175616C28486F6C653A7465726D696E6174696F6E2C223022292C486F6C653A64657074682C22
310
22293E2C203C486F6C653A63746469613E2082B482AE82E882CC905B82B3203C486F6C653A637464657074683E
  0
ACAD_PROXY_OBJECT
  5
20784
330
2077F
100
AcDbProxyObject
 90
      499
 91
      567
 95
       25
 70
     0
 93
     2072
310
5DE0143A0D960E4E0DDA0E32056E0D9C80C405EF3D3C486F6C653A6374616E676C653E252564202525633C486F6C653A63746469613E208E4D8C8A2C203C696628657175616C28486F6C653A7461707065642C223022292C22252563222C486F6C653A6E6F6D696E616C202220782022293E3C696628657175616C28486F6C
310
653A7461707065642C223022292C486F6C653A6469612C486F6C653A706974636864657363293E203C696628657175616C28486F6C653A7465726D696E6174696F6E2C223022292C22905B82B320222C222022293E3C696628657175616C28486F6C653A7465726D696E6174696F6E2C223022292C486F6C653A6465707468
310
2C2222293E
  0
ACAD_PROXY_OBJECT
  5
20782
330
2077F
100
AcDbProxyObject
 90
      499
 91
      567
 95
       25
 70
     0
 93
     1752
310
5DE0143A0D960E4E0DDA0E32056E0D9C80C405C73D3C696628657175616C28486F6C653A7461707065642C223022292C22252563222C486F6C653A6E6F6D696E616C202220782022293E3C696628657175616C28486F6C653A7461707065642C223022292C486F6C653A6469612C486F6C653A706974636864657363293E20
310
3C696628657175616C28486F6C653A7465726D696E6174696F6E2C223022292C22905B82B320222C222022293E3C696628657175616C28486F6C653A7465726D696E6174696F6E2C223022292C486F6C653A64657074682C2222293E
  0
ACAD_PROXY_OBJECT
  5
20781
330
2077F
100
AcDbProxyObject
 90
      499
 91
      567
 95
       25
 70
     0
 93
      344
310
5DE0143A0D960E4E0DDA0E32056E0D9C80C805173D3C535444503A444553433E203C535444503A5354443E
  0
ACAD_PROXY_OBJECT
  5
20780
330
2077F
100
AcDbProxyObject
 90
      499
 91
      567
 95
       25
 70
     0
 93
      256
310
5DE0143A0D960E4E0DDA0E32056E0D9C80C4050C3D3C535444503A444553433E
  0
ENDSEC
  0
EOF
