  0
SECTION
  2
HEADER
  9
$ACADVER
  1
AC1015
  9
$ACADMAINTVER
 70
     6
  9
$DWGCODEPAGE
  3
ANSI_932
  9
$INSBASE
 10
0.0
 20
0.0
 30
0.0
  9
$EXTMIN
 10
-90.81635064050232
 20
-99.78352215911202
 30
0.0
  9
$EXTMAX
 10
155.4588124887482
 20
28.91827727498493
 30
0.0
  9
$LIMMIN
 10
0.0
 20
0.0
  9
$LIMMAX
 10
420.0
 20
297.0
  9
$ORTHOMODE
 70
     0
  9
$REGENMODE
 70
     1
  9
$FILLMODE
 70
     1
  9
$QTEXTMODE
 70
     0
  9
$MIRRTEXT
 70
     1
  9
$LTSCALE
 40
1.0
  9
$ATTMODE
 70
     1
  9
$TEXTSIZE
 40
4.0
  9
$TRACEWID
 40
1.0
  9
$TEXTSTYLE
  7
STANDARD
  9
$CLAYER
  8
AM_0
  9
$CELTYPE
  6
ByLayer
  9
$CECOLOR
 62
   256
  9
$CELTSCALE
 40
1.0
  9
$DISPSILH
 70
     0
  9
$DIMSCALE
 40
1.0
  9
$DIMASZ
 40
2.5
  9
$DIMEXO
 40
0.0
  9
$DIMDLI
 40
10.0
  9
$DIMRND
 40
0.0
  9
$DIMDLE
 40
0.0
  9
$DIMEXE
 40
1.0
  9
$DIMTP
 40
0.1
  9
$DIMTM
 40
0.1000000001
  9
$DIMTXT
 40
3.8
  9
$DIMCEN
 40
0.0
  9
$DIMTSZ
 40
0.0
  9
$DIMTOL
 70
     0
  9
$DIMLIM
 70
     0
  9
$DIMTIH
 70
     0
  9
$DIMTOH
 70
     0
  9
$DIMSE1
 70
     0
  9
$DIMSE2
 70
     0
  9
$DIMTAD
 70
     3
  9
$DIMZIN
 70
     1
  9
$DIMBLK
  1
Open30
  9
$DIMASO
 70
     1
  9
$DIMSHO
 70
     1
  9
$DIMPOST
  1

  9
$DIMAPOST
  1
"
  9
$DIMALT
 70
     0
  9
$DIMALTD
 70
     2
  9
$DIMALTF
 40
0.0393701
  9
$DIMLFAC
 40
1.0
  9
$DIMTOFL
 70
     1
  9
$DIMTVP
 40
0.0
  9
$DIMTIX
 70
     0
  9
$DIMSOXD
 70
     0
  9
$DIMSAH
 70
     0
  9
$DIMBLK1
  1

  9
$DIMBLK2
  1

  9
$DIMSTYLE
  2
AM_JIS
  9
$DIMCLRD
 70
   256
  9
$DIMCLRE
 70
   256
  9
$DIMCLRT
 70
     2
  9
$DIMTFAC
 40
0.71
  9
$DIMGAP
 40
1.5
  9
$DIMJUST
 70
     0
  9
$DIMSD1
 70
     0
  9
$DIMSD2
 70
     0
  9
$DIMTOLJ
 70
     0
  9
$DIMTZIN
 70
     8
  9
$DIMALTZ
 70
     0
  9
$DIMALTTZ
 70
     0
  9
$DIMUPT
 70
     0
  9
$DIMDEC
 70
     0
  9
$DIMTDEC
 70
     3
  9
$DIMALTU
 70
     2
  9
$DIMALTTD
 70
     2
  9
$DIMTXSTY
  7
STANDARD
  9
$DIMAUNIT
 70
     1
  9
$DIMADEC
 70
     0
  9
$DIMALTRND
 40
0.0
  9
$DIMAZIN
 70
     2
  9
$DIMDSEP
 70
    46
  9
$DIMATFIT
 70
     3
  9
$DIMFRAC
 70
     0
  9
$DIMLDRBLK
  1
Open30
  9
$DIMLUNIT
 70
     2
  9
$DIMLWD
 70
    -1
  9
$DIMLWE
 70
    -1
  9
$DIMTMOVE
 70
     0
  9
$LUNITS
 70
     2
  9
$LUPREC
 70
     4
  9
$SKETCHINC
 40
1.0
  9
$FILLETRAD
 40
0.4
  9
$AUNITS
 70
     0
  9
$AUPREC
 70
     4
  9
$MENU
  1
.
  9
$ELEVATION
 40
0.0
  9
$PELEVATION
 40
0.0
  9
$THICKNESS
 40
0.0
  9
$LIMCHECK
 70
     0
  9
$CHAMFERA
 40
2.0
  9
$CHAMFERB
 40
2.0
  9
$CHAMFERC
 40
20.0
  9
$CHAMFERD
 40
0.0
  9
$SKPOLY
 70
     0
  9
$TDCREATE
 40
2451943.610431667
  9
$TDUCREATE
 40
2451943.235431667
  9
$TDUPDATE
 40
2455482.600311412
  9
$TDUUPDATE
 40
2455482.225311412
  9
$TDINDWG
 40
1.7865834028
  9
$TDUSRTIMER
 40
1.7865832292
  9
$USRTIMER
 70
     1
  9
$ANGBASE
 50
0.0
  9
$ANGDIR
 70
     0
  9
$PDMODE
 70
     0
  9
$PDSIZE
 40
0.0
  9
$PLINEWID
 40
0.0
  9
$SPLFRAME
 70
     0
  9
$SPLINETYPE
 70
     6
  9
$SPLINESEGS
 70
     8
  9
$HANDSEED
  5
1A595
  9
$SURFTAB1
 70
     6
  9
$SURFTAB2
 70
     6
  9
$SURFTYPE
 70
     6
  9
$SURFU
 70
     6
  9
$SURFV
 70
     6
  9
$UCSBASE
  2

  9
$UCSNAME
  2

  9
$UCSORG
 10
0.0
 20
0.0
 30
0.0
  9
$UCSXDIR
 10
1.0
 20
0.0
 30
0.0
  9
$UCSYDIR
 10
0.0
 20
1.0
 30
0.0
  9
$UCSORTHOREF
  2

  9
$UCSORTHOVIEW
 70
     0
  9
$UCSORGTOP
 10
0.0
 20
0.0
 30
0.0
  9
$UCSORGBOTTOM
 10
0.0
 20
0.0
 30
0.0
  9
$UCSORGLEFT
 10
0.0
 20
0.0
 30
0.0
  9
$UCSORGRIGHT
 10
0.0
 20
0.0
 30
0.0
  9
$UCSORGFRONT
 10
0.0
 20
0.0
 30
0.0
  9
$UCSORGBACK
 10
0.0
 20
0.0
 30
0.0
  9
$PUCSBASE
  2

  9
$PUCSNAME
  2

  9
$PUCSORG
 10
0.0
 20
0.0
 30
0.0
  9
$PUCSXDIR
 10
1.0
 20
0.0
 30
0.0
  9
$PUCSYDIR
 10
0.0
 20
1.0
 30
0.0
  9
$PUCSORTHOREF
  2

  9
$PUCSORTHOVIEW
 70
     0
  9
$PUCSORGTOP
 10
0.0
 20
0.0
 30
0.0
  9
$PUCSORGBOTTOM
 10
0.0
 20
0.0
 30
0.0
  9
$PUCSORGLEFT
 10
0.0
 20
0.0
 30
0.0
  9
$PUCSORGRIGHT
 10
0.0
 20
0.0
 30
0.0
  9
$PUCSORGFRONT
 10
0.0
 20
0.0
 30
0.0
  9
$PUCSORGBACK
 10
0.0
 20
0.0
 30
0.0
  9
$USERI1
 70
     0
  9
$USERI2
 70
     0
  9
$USERI3
 70
     0
  9
$USERI4
 70
     0
  9
$USERI5
 70
     0
  9
$USERR1
 40
0.0
  9
$USERR2
 40
0.0
  9
$USERR3
 40
0.0
  9
$USERR4
 40
0.0
  9
$USERR5
 40
0.0
  9
$WORLDVIEW
 70
     1
  9
$SHADEDGE
 70
     3
  9
$SHADEDIF
 70
    70
  9
$TILEMODE
 70
     1
  9
$MAXACTVP
 70
    64
  9
$PINSBASE
 10
0.0
 20
0.0
 30
0.0
  9
$PLIMCHECK
 70
     0
  9
$PEXTMIN
 10
1.000000000000000E+20
 20
1.000000000000000E+20
 30
1.000000000000000E+20
  9
$PEXTMAX
 10
-1.000000000000000E+20
 20
-1.000000000000000E+20
 30
-1.000000000000000E+20
  9
$PLIMMIN
 10
0.0
 20
0.0
  9
$PLIMMAX
 10
420.0
 20
297.0
  9
$UNITMODE
 70
     0
  9
$VISRETAIN
 70
     1
  9
$PLINEGEN
 70
     0
  9
$PSLTSCALE
 70
     1
  9
$TREEDEPTH
 70
  3020
  9
$CMLSTYLE
  2
Standard
  9
$CMLJUST
 70
     0
  9
$CMLSCALE
 40
20.0
  9
$PROXYGRAPHICS
 70
     1
  9
$MEASUREMENT
 70
     1
  9
$CELWEIGHT
370
    -1
  9
$ENDCAPS
280
     0
  9
$JOINSTYLE
280
     0
  9
$LWDISPLAY
290
     0
  9
$INSUNITS
 70
     4
  9
$HYPERLINKBASE
  1

  9
$STYLESHEET
  1
sei_cad.ctb
  9
$XEDIT
290
     1
  9
$CEPSNTYPE
380
     0
  9
$PSTYLEMODE
290
     1
  9
$FINGERPRINTGUID
  2
{C77AB3BE-9CA2-11D3-BAF3-006094EB760E}
  9
$VERSIONGUID
  2
{7B32A286-D446-4FC5-9108-0A70846C6532}
  9
$EXTNAMES
290
     1
  9
$PSVPSCALE
 40
0.0
  9
$OLESTARTUP
290
     0
  0
ENDSEC
  0
SECTION
  2
CLASSES
  0
CLASS
  1
ACDBDICTIONARYWDFLT
  2
AcDbDictionaryWithDefault
  3
ObjectDBX Classes
 90
        0
280
     0
281
     0
  0
CLASS
  1
ACDBPLACEHOLDER
  2
AcDbPlaceHolder
  3
ObjectDBX Classes
 90
        0
280
     0
281
     0
  0
CLASS
  1
LAYOUT
  2
AcDbLayout
  3
ObjectDBX Classes
 90
        0
280
     0
281
     0
  0
CLASS
  1
ACME_DOCUMENT
  2
AcMeDbDoc
  3
AcMeServices
 90
        0
280
     1
281
     0
  0
CLASS
  1
ACMESCOPE
  2
AcMeScope
  3
AcMeServices
 90
        0
280
     1
281
     0
  0
CLASS
  1
ACMECOMMANDHISTORY
  2
AcMeCommandHistory
  3
AcMeServices
 90
        0
280
     1
281
     0
  0
CLASS
  1
DICTIONARYVAR
  2
AcDbDictionaryVar
  3
ObjectDBX Classes
 90
        0
280
     0
281
     0
  0
CLASS
  1
ACIMSYSVARMAN
  2
AcImSysVarManager
  3
AcMeServices
 90
        0
280
     1
281
     0
  0
CLASS
  1
ACIMREALSYSVAR
  2
AcImRealSysVar
  3
AcMeServices
 90
        0
280
     1
281
     0
  0
CLASS
  1
ACIMINTSYSVAR
  2
AcImIntSysVar
  3
AcMeServices
 90
        0
280
     1
281
     0
  0
CLASS
  1
ACMEDRAWINGMAN
  2
AcMeDrawingMan
  3
AcMeServices
 90
        0
280
     1
281
     0
  0
CLASS
  1
ACMEVIEW
  2
AcMeView
  3
AcMeServices
 90
        0
280
     1
281
     0
  0
CLASS
  1
ACDBENTITYCACHE
  2
AcMeEntityCache
  3
AcMeServices
 90
        0
280
     1
281
     0
  0
CLASS
  1
GSMANAGER
  2
AcMeGSManager
  3
AcMeServices
 90
        0
280
     1
281
     0
  0
CLASS
  1
AMDTINTERNALREACTOR
  2
AmdtInternalReactor
  3
AcMeServices
 90
        0
280
     1
281
     0
  0
CLASS
  1
ACMESTATEMGR
  2
AcMeStateMgr
  3
AcMeServices
 90
        0
280
     1
281
     0
  0
CLASS
  1
ACME_DATABASE
  2
AcMeDbDatabase
  3
AcMeServices
 90
        0
280
     1
281
     0
  0
CLASS
  1
ACRFINSADJUSTERMGR
  2
AcRfInsAdjusterMgr
  3
AcMeServices
 90
        0
280
     1
281
     0
  0
CLASS
  1
AMGSETTINGSOBJ
  2
AmgSettingsObj
  3
"AcadM|Product Description: AutoCAD Mechanical 2000|Company: Autodesk"
 90
        0
280
     1
281
     0
  0
CLASS
  1
AMGOBJPROPCFG
  2
AmgObjPropCfg
  3
"AmgLay|Product Description: AutoCAD Mechanical 2000|Company: Autodesk"
 90
        1
280
     1
281
     0
  0
CLASS
  1
ACMDATADICTIONARY
  2
AcmDataDictionary
  3
"AcmSymBB|Product Description: AutoCAD Mechanical 2004 DX|Company: Autodesk"
 90
        0
280
     1
281
     0
  0
CLASS
  1
ACMDATAENTRYBLOCK
  2
AcmDataEntryBlock
  3
"AcmSymBB|Product Description: AutoCAD Mechanical 2004 DX|Company: Autodesk"
 90
        0
280
     1
281
     0
  0
CLASS
  1
ACIMSTRSYSVAR
  2
AcImStrSysVar
  3
AcMeServices
 90
        0
280
     1
281
     0
  0
CLASS
  1
ACAMGFILTERDAT
  2
AcAmgFilterDat
  3
"AcadM|Product Description: AutoCAD Mechanical 2000|Company: Autodesk"
 90
        0
280
     1
281
     0
  0
CLASS
  1
LAYER_INDEX
  2
AcDbLayerIndex
  3
ObjectDBX Classes
 90
        0
280
     0
281
     0
  0
CLASS
  1
IDBUFFER
  2
AcDbIdBuffer
  3
ObjectDBX Classes
 90
        0
280
     0
281
     0
  0
CLASS
  1
ACMSTANDARDJIS
  2
AcmStandardJIS
  3
"Amdt_StdImp|Product Description: AutoCAD Mechanical 2004 DX|Company: Autodesk"
 90
        0
280
     1
281
     0
  0
CLASS
  1
ACMSURFSTANDARDJIS
  2
AcmSurfTextStdJIS
  3
"Amdt_StdImp|Product Description: AutoCAD Mechanical 2004 DX|Company: Autodesk"
 90
        0
280
     1
281
     0
  0
CLASS
  1
ACMFCFSTANDARDJIS
  2
AcmFCFStdJIS
  3
"Amdt_StdImp|Product Description: AutoCAD Mechanical 2004 DX|Company: Autodesk"
 90
        0
280
     1
281
     0
  0
CLASS
  1
ACMWELDSTANDARDJIS
  2
AcmWeldingStdJIS
  3
"Amdt_StdImp|Product Description: AutoCAD Mechanical 2004 DX|Company: Autodesk"
 90
        0
280
     1
281
     0
  0
CLASS
  1
ACMIDSTANDARDJIS
  2
AcmIdStdJIS
  3
"Amdt_StdImp|Product Description: AutoCAD Mechanical 2004 DX|Company: Autodesk"
 90
        0
280
     1
281
     0
  0
CLASS
  1
ACMDATUMSTANDARDJIS
  2
AcmDatumStdJIS
  3
"Amdt_StdImp|Product Description: AutoCAD Mechanical 2004 DX|Company: Autodesk"
 90
        0
280
     1
281
     0
  0
CLASS
  1
ACMBOMSTANDARDJIS
  2
AcmBOMStdJIS
  3
"Amdt_StdImp|Product Description: AutoCAD Mechanical 2004 DX|Company: Autodesk"
 90
        0
280
     1
281
     0
  0
CLASS
  1
AMDTNOTE
  2
AmdtNote
  3
"AcmSymBB|Product Description: AutoCAD Mechanical 2004 DX|Company: Autodesk"
 90
     1023
280
     1
281
     1
  0
CLASS
  1
TABLESTYLE
  2
AcDbTableStyle
  3
ObjectDBX Classes
 90
     2047
280
     0
281
     0
  0
CLASS
  1
ACGREFMASTER
  2
AcGrefMaster
  3
AcAttribServices
 90
        0
280
     1
281
     0
  0
CLASS
  1
AM_DRAWING_MGR
  2
AcDmDwgMgr
  3
AcMechDwgViewMgmt
 90
        0
280
     1
281
     0
  0
CLASS
  1
AM_DWG_DOCUMENT
  2
AcDmDwgDocument
  3
AcMechDwgViewMgmt
 90
        0
280
     1
281
     0
  0
CLASS
  1
AM_DWG_SHEET
  2
AcDmSheet
  3
AcMechDwgViewMgmt
 90
        0
280
     1
281
     0
  0
CLASS
  1
AM_VIEWDIMPARMAP
  2
AcDmViewDimParMap
  3
AcMechDwgViewMgmt
 90
        0
280
     1
281
     0
  0
CLASS
  1
AM_DWGMGR_NAME
  2
AcDmDwgMgrName
  3
AcMechDwgViewMgmt
 90
        0
280
     1
281
     0
  0
CLASS
  1
ACGREFACADMASTER
  2
AcGrefacadMaster
  3
AcGrefServices
 90
        0
280
     1
281
     0
  0
CLASS
  1
AMDTMENUSTATEMGR
  2
AmdtMenuStateMgr
  3
McadcomServices
 90
        0
280
     1
281
     0
  0
CLASS
  1
AMDTMCOMMENUSTATE
  2
AmdtMcomMenuState
  3
McadcomServices
 90
        0
280
     1
281
     0
  0
CLASS
  1
AMIMASTER
  2
AmiMaster
  3
AmiServices
 90
        0
280
     1
281
     0
  0
CLASS
  1
MAPIAMMOUDLE
  2
MApiAmModule
  3
MApiAmServices
 90
        0
280
     1
281
     0
  0
CLASS
  1
AMDTADMENUSTATE
  2
AmdtAdMenuState
  3
DesignerServices
 90
        0
280
     1
281
     0
  0
CLASS
  1
ADAPPL
  2
AcAdAppl
  3
DesignerServices
 90
        0
280
     1
281
     0
  0
CLASS
  1
DEPMGR
  2
AcAdDepMgr
  3
DesignerServices
 90
        0
280
     1
281
     0
  0
CLASS
  1
PARAMMGR
  2
AcAdParamMgr
  3
DesignerServices
 90
        0
280
     1
281
     0
  0
CLASS
  1
PARAMSCOPE
  2
AcAdParamScope
  3
DesignerServices
 90
        0
280
     1
281
     0
  0
CLASS
  1
NAMEDAPPL
  2
AcAdNamedAppl
  3
DesignerServices
 90
        0
280
     1
281
     0
  0
CLASS
  1
AMDTDMMENUSTATE
  2
AmdtDmMenuState
  3
AcMechDwgViewMgmt
 90
        0
280
     1
281
     0
  0
CLASS
  1
AMDTAMMENUSTATE
  2
AmdtAmMenuState
  3
DesignerAssemblies
 90
        0
280
     1
281
     0
  0
CLASS
  1
ACAMPROJECT
  2
AcAmProject
  3
DesignerAssemblies
 90
        0
280
     1
281
     0
  0
CLASS
  1
ACAMGRCOMPDEF
  2
AcAmGrCompDef
  3
DesignerAssemblies
 90
        0
280
     1
281
     0
  0
CLASS
  1
ACCMCONTEXT
  2
AcCmContext
  3
DesignerAssemblies
 90
        0
280
     1
281
     0
  0
CLASS
  1
ACAMCOMPDEF
  2
AcAmCompDef
  3
DesignerAssemblies
 90
        0
280
     1
281
     0
  0
CLASS
  1
ACAMCOMPDEFMGR
  2
AcAmCompDefMgr
  3
DesignerAssemblies
 90
        0
280
     1
281
     0
  0
CLASS
  1
AMCONTEXTMGR
  2
AcAmContextMgr
  3
DesignerAssemblies
 90
        0
280
     1
281
     0
  0
CLASS
  1
ACAMCONTEXTMODELER
  2
AcAmContextModeler
  3
DesignerAssemblies
 90
        0
280
     1
281
     0
  0
CLASS
  1
ACAMGTITLESTD
  2
AcAmgTitleStd
  3
"TITLEAPP"
 90
        0
280
     1
281
     0
  0
CLASS
  1
ACMDETAILSTANDARDJIS
  2
AmdtDetailSymStdJIS
  3
"Amdt_StdImp|Product Description: AutoCAD Mechanical 2004 DX|Company: Autodesk"
 90
        0
280
     1
281
     0
  0
CLASS
  1
ACMSECTIONSTANDARDJIS
  2
AmdtSectionSymStdJIS
  3
"Amdt_StdImp|Product Description: AutoCAD Mechanical 2004 DX|Company: Autodesk"
 90
        0
280
     1
281
     0
  0
CLASS
  1
ACMCENTERLINESTANDARDJIS
  2
AmdtCenterLineStdJIS
  3
"Amdt_StdImp|Product Description: AutoCAD Mechanical 2004 DX|Company: Autodesk"
 90
        0
280
     1
281
     0
  0
CLASS
  1
ACMTHREADLINESTANDARDJIS
  2
AmdtThreadLineStdJIS
  3
"Amdt_StdImp|Product Description: AutoCAD Mechanical 2004 DX|Company: Autodesk"
 90
        0
280
     1
281
     0
  0
CLASS
  1
ACMNOTESTANDARDJIS
  2
AmdtNoteStdJIS
  3
"Amdt_StdImp|Product Description: AutoCAD Mechanical 2004 DX|Company: Autodesk"
 90
        0
280
     1
281
     0
  0
CLASS
  1
AMDTNOTETEMPLATEDB
  2
AmdtNoteTemplateDB
  3
AMDT_STDIMP_MODULE_NAME
 90
        0
280
     1
281
     0
  0
CLASS
  1
ACAMGLAYSTD
  2
AcAmgLayStd
  3
"AcAmgLayStd|Product Description: AutoCAD Mechanical 2000|Company: Autodesk"
 90
        0
280
     1
281
     0
  0
CLASS
  1
ACAMGDIMSTD
  2
AcAmgDimStd
  3
"AcAmgDimStd|Product Description: AutoCAD Mechanical 2000|Company: Autodesk"
 90
        0
280
     1
281
     0
  0
CLASS
  1
ACAMGHOLECHARTSTDJIS
  2
AcAmgHoleChartStdJIS
  3
ACMSYMBB_MODULE_NAME
 90
        0
280
     1
281
     0
  0
CLASS
  1
CATALOGSTATE
  2
AcAmCatalogState
  3
DesignerAssemblies
 90
        0
280
     1
281
     0
  0
CLASS
  1
ACAMGRCOMPDEFSET
  2
AcAmGrCompDefSet
  3
DesignerAssemblies
 90
        0
280
     1
281
     0
  0
CLASS
  1
AMDTBROWSERDBTAB
  2
AmdtBrowserDbTab
  3
McadcomServices
 90
        0
280
     1
281
     0
  0
CLASS
  1
CBROWSERAPPOBJECT
  2
CBrowserAppObject
  3
McadcomServices
 90
        0
280
     1
281
     0
  0
CLASS
  1
DM_PLACEHOLDER
  2
AcDmSelsetPlaceholder
  3
AcMechDwgViewMgmt
 90
        0
280
     1
281
     0
  0
CLASS
  1
SORTENTSTABLE
  2
AcDbSortentsTable
  3
ObjectDBX Classes
 90
        0
280
     0
281
     0
  0
ENDSEC
  0
SECTION
  2
TABLES
  0
TABLE
  2
VPORT
  5
8
330
0
100
AcDbSymbolTable
 70
     3
  0
VPORT
  5
1A58D
330
8
100
AcDbSymbolTableRecord
100
AcDbViewportTableRecord
  2
*Active
 70
     0
 10
0.0
 20
0.0
 11
1.0
 21
1.0
 12
53.76722554877532
 22
-35.42607102948318
 13
0.0
 23
0.0
 14
2.5
 24
2.5
 15
10.0
 25
10.0
 16
0.0
 26
0.0
 36
1.0
 17
0.0
 27
0.0
 37
0.0
 40
180.441610213651
 41
1.610603290676417
 42
50.0
 43
0.0
 44
0.0
 50
0.0
 51
0.0
 71
    16
 72
  2000
 73
     1
 74
     3
 75
     0
 76
     0
 77
     0
 78
     0
281
     0
 65
     1
110
0.0
120
0.0
130
0.0
111
1.0
121
0.0
131
0.0
112
0.0
122
1.0
132
0.0
 79
     0
146
0.0
  0
ENDTAB
  0
TABLE
  2
LTYPE
  5
5
330
0
100
AcDbSymbolTable
 70
    13
  0
LTYPE
  5
14
330
5
100
AcDbSymbolTableRecord
100
AcDbLinetypeTableRecord
  2
ByBlock
 70
     0
  3

 72
    65
 73
     0
 40
0.0
  0
LTYPE
  5
15
330
5
100
AcDbSymbolTableRecord
100
AcDbLinetypeTableRecord
  2
ByLayer
 70
     0
  3

 72
    65
 73
     0
 40
0.0
  0
LTYPE
  5
16
330
5
100
AcDbSymbolTableRecord
100
AcDbLinetypeTableRecord
  2
Continuous
 70
     0
  3
Solid line
 72
    65
 73
     0
 40
0.0
  0
LTYPE
  5
43
330
5
100
AcDbSymbolTableRecord
100
AcDbLinetypeTableRecord
  2
AM_ISO02W050
 70
     0
  3
__ __ __ __ __ __ __ __ __ __ __ __ __ __ __
 72
    65
 73
     2
 40
7.5
 49
6.0
 74
     0
 49
-1.5
 74
     0
  0
LTYPE
  5
44
330
5
100
AcDbSymbolTableRecord
100
AcDbLinetypeTableRecord
  2
AM_ISO08W050
 70
     0
  3
____ . ____ . ____ . ____ . ____ . ____ . ____
 72
    65
 73
     4
 40
18.0
 49
12.0
 74
     0
 49
-1.5
 74
     0
 49
3.0
 74
     0
 49
-1.5
 74
     0
  0
LTYPE
  5
45
330
5
100
AcDbSymbolTableRecord
100
AcDbLinetypeTableRecord
  2
AM_ISO09W050
 70
     0
  3
_____ . . _____ . . _____ . . ____ .. ____
 72
    65
 73
     6
 40
22.5
 49
12.0
 74
     0
 49
-1.5
 74
     0
 49
3.0
 74
     0
 49
-1.5
 74
     0
 49
3.0
 74
     0
 49
-1.5
 74
     0
  0
LTYPE
  5
46
330
5
100
AcDbSymbolTableRecord
100
AcDbLinetypeTableRecord
  2
Amconstr
 70
     0
  3
_______________________
 72
    65
 73
     2
 40
9999.0
 49
9999.0
 74
     0
 49
0.0
 74
     0
  0
LTYPE
  5
47
330
5
100
AcDbSymbolTableRecord
100
AcDbLinetypeTableRecord
  2
AM_ISO02W050x2
 70
     0
  3
 _ _ _ _ _ _ _ _ _ _ _ _
 72
    65
 73
     2
 40
3.75
 49
3.0
 74
     0
 49
-0.75
 74
     0
  0
LTYPE
  5
48
330
5
100
AcDbSymbolTableRecord
100
AcDbLinetypeTableRecord
  2
AM_ISO08W050x2
 70
     0
  3
__ . __ . __ . __ . __ . __
 72
    65
 73
     4
 40
9.0
 49
6.0
 74
     0
 49
-0.75
 74
     0
 49
1.5
 74
     0
 49
-0.75
 74
     0
  0
LTYPE
  5
4B
330
5
100
AcDbSymbolTableRecord
100
AcDbLinetypeTableRecord
  2
Amzigzag
 70
     0
  3
/\/-/\/-/\/-/\/-/\/-/\/
 72
    65
 73
     2
 40
11.0001
 49
0.0001
 74
     4
 75
   135
340
4A
 46
0.04
 50
0.0
 44
0.0
 45
0.0
 49
-11.0
 74
     0
  0
LTYPE
  5
188
330
5
100
AcDbSymbolTableRecord
100
AcDbLinetypeTableRecord
  2
ACJISTGB
 70
     0
  3
__ . . __ . .
 72
    65
 73
     6
 40
9.0
 49
4.0
 74
     0
 49
-1.0
 74
     0
 49
1.0
 74
     0
 49
-1.0
 74
     0
 49
1.0
 74
     0
 49
-1.0
 74
     0
  0
LTYPE
  5
189
330
5
100
AcDbSymbolTableRecord
100
AcDbLinetypeTableRecord
  2
ACJISTGL
 70
     0
  3
_ _ _ _ _
 72
    65
 73
     2
 40
3.0
 49
2.0
 74
     0
 49
-1.0
 74
     0
  0
LTYPE
  5
652
330
5
100
AcDbSymbolTableRecord
100
AcDbLinetypeTableRecord
  2
CENTER
 70
     0
  3
____ _ ____ _ ____ _ ____ _ ____ _ ____ _ ____
 72
    65
 73
     4
 40
17.5
 49
13.0
 74
     0
 49
-1.5
 74
     0
 49
1.5
 74
     0
 49
-1.5
 74
     0
  0
LTYPE
  5
12AB
330
5
100
AcDbSymbolTableRecord
100
AcDbLinetypeTableRecord
  2
HIDDEN
 70
     0
  3
Hidden __ __ __ __ __ __ __ __ __ __ __ __ __ _
 72
    65
 73
     2
 40
0.375
 49
0.25
 74
     0
 49
-0.125
 74
     0
  0
LTYPE
  5
12AC
330
5
100
AcDbSymbolTableRecord
100
AcDbLinetypeTableRecord
  2
PHANTOM2
 70
     0
  3
Phantom (.5x) ___ _ _ ___ _ _ ___ _ _ ___ _ _
 72
    65
 73
     6
 40
1.25
 49
0.625
 74
     0
 49
-0.125
 74
     0
 49
0.125
 74
     0
 49
-0.125
 74
     0
 49
0.125
 74
     0
 49
-0.125
 74
     0
  0
ENDTAB
  0
TABLE
  2
LAYER
  5
2
102
{ACAD_XDICTIONARY
360
19F74
102
}
330
0
100
AcDbSymbolTable
 70
     7
  0
LAYER
  5
10
330
2
100
AcDbSymbolTableRecord
100
AcDbLayerTableRecord
  2
0
 70
     0
 62
     7
  6
Continuous
370
    -3
390
F
  0
LAYER
  5
7D
330
2
100
AcDbSymbolTableRecord
100
AcDbLayerTableRecord
  2
AM_5
 70
     0
 62
     3
  6
Continuous
370
    13
390
F
  0
LAYER
  5
7F
330
2
100
AcDbSymbolTableRecord
100
AcDbLayerTableRecord
  2
Defpoints
 70
     0
 62
     7
  6
Continuous
290
     0
370
    -3
390
F
  0
LAYER
  5
12B1
330
2
100
AcDbSymbolTableRecord
100
AcDbLayerTableRecord
  2
AM_0
 70
     0
 62
     7
  6
Continuous
370
    30
390
F
  0
LAYER
  5
1AFF
330
2
100
AcDbSymbolTableRecord
100
AcDbLayerTableRecord
  2
AM_7
 70
     0
 62
     4
  6
AM_ISO08W050
370
    13
390
F
  0
LAYER
  5
361D
330
2
100
AcDbSymbolTableRecord
100
AcDbLayerTableRecord
  2
AM_11
 70
     0
 62
     3
  6
AM_ISO09W050
370
    13
390
F
  0
ENDTAB
  0
TABLE
  2
STYLE
  5
3
330
0
100
AcDbSymbolTable
 70
     4
  0
STYLE
  5
11
330
3
100
AcDbSymbolTableRecord
100
AcDbTextStyleTableRecord
  2
STANDARD
 70
     0
 40
0.0
 41
1.0
 50
0.0
 71
     0
 42
4.0
  3
ISOCP.SHX
  4
EXTFONT.SHX
  0
STYLE
  5
4A
330
3
100
AcDbSymbolTableRecord
100
AcDbTextStyleTableRecord
  2

 70
     1
 40
0.0
 41
1.0
 50
0.0
 71
     0
 42
2.5
  3
ltypeshp.shx
  4

  0
STYLE
  5
180
330
3
100
AcDbSymbolTableRecord
100
AcDbTextStyleTableRecord
  2
ACJISTS
 70
     0
 40
1.0
 41
1.0
 50
0.0
 71
     0
 42
2.5
  3
isocp.shx
  4
bigfont.shx
  0
STYLE
  5
187
330
3
100
AcDbSymbolTableRecord
100
AcDbTextStyleTableRecord
  2
ACJISGDT
 70
     0
 40
0.0
 41
1.0
 50
0.0
 71
     0
 42
2.5
  3
amgdt.shx
  4

  0
ENDTAB
  0
TABLE
  2
VIEW
  5
6
330
0
100
AcDbSymbolTable
 70
     6
  0
VIEW
  5
A30
330
6
100
AcDbSymbolTableRecord
100
AcDbViewTableRecord
  2
AM_VIEW1
 70
     0
 40
148.5
 10
108.6929657794677
 20
222.75
 41
217.3859315589354
 11
0.0
 21
0.0
 31
1.0
 12
0.0
 22
0.0
 32
0.0
 42
50.0
 43
0.0
 44
0.0
 50
0.0
 71
    16
281
     0
 72
     0
  0
VIEW
  5
A31
330
6
100
AcDbSymbolTableRecord
100
AcDbViewTableRecord
  2
AM_VIEW2
 70
     0
 40
148.5
 10
311.3070342205323
 20
222.75
 41
217.3859315589354
 11
0.0
 21
0.0
 31
1.0
 12
0.0
 22
0.0
 32
0.0
 42
50.0
 43
0.0
 44
0.0
 50
0.0
 71
    16
281
     0
 72
     0
  0
VIEW
  5
A32
330
6
100
AcDbSymbolTableRecord
100
AcDbViewTableRecord
  2
AM_VIEW3
 70
     0
 40
148.5
 10
108.6929657794677
 20
74.25
 41
217.3859315589354
 11
0.0
 21
0.0
 31
1.0
 12
0.0
 22
0.0
 32
0.0
 42
50.0
 43
0.0
 44
0.0
 50
0.0
 71
    16
281
     0
 72
     0
  0
VIEW
  5
A33
330
6
100
AcDbSymbolTableRecord
100
AcDbViewTableRecord
  2
AM_VIEW4
 70
     0
 40
148.5
 10
311.3070342205323
 20
74.25
 41
217.3859315589354
 11
0.0
 21
0.0
 31
1.0
 12
0.0
 22
0.0
 32
0.0
 42
50.0
 43
0.0
 44
0.0
 50
0.0
 71
    16
281
     0
 72
     0
  0
VIEW
  5
A34
330
6
100
AcDbSymbolTableRecord
100
AcDbViewTableRecord
  2
AM_VIEW5
 70
     0
 40
148.5
 10
210.0
 20
148.5
 41
217.3859315589353
 11
0.0
 21
0.0
 31
1.0
 12
0.0
 22
0.0
 32
0.0
 42
50.0
 43
0.0
 44
0.0
 50
0.0
 71
    16
281
     0
 72
     0
  0
VIEW
  5
A35
330
6
100
AcDbSymbolTableRecord
100
AcDbViewTableRecord
  2
AM_VIEW6
 70
     0
 40
296.99703
 10
210.0
 20
148.5
 41
434.7675153992395
 11
0.0
 21
0.0
 31
1.0
 12
0.0
 22
0.0
 32
0.0
 42
50.0
 43
0.0
 44
0.0
 50
0.0
 71
    16
281
     0
 72
     0
  0
ENDTAB
  0
TABLE
  2
UCS
  5
7
330
0
100
AcDbSymbolTable
 70
     0
  0
ENDTAB
  0
TABLE
  2
APPID
  5
9
330
0
100
AcDbSymbolTable
 70
    42
  0
APPID
  5
12
330
9
100
AcDbSymbolTableRecord
100
AcDbRegAppTableRecord
  2
ACAD
 70
     0
  0
APPID
  5
2C
330
9
100
AcDbSymbolTableRecord
100
AcDbRegAppTableRecord
  2
MCAD_NO_VIS
 70
     0
  0
APPID
  5
2D
330
9
100
AcDbSymbolTableRecord
100
AcDbRegAppTableRecord
  2
ACAD_TEMP_GRAPHIC
 70
     0
  0
APPID
  5
B9
330
9
100
AcDbSymbolTableRecord
100
AcDbRegAppTableRecord
  2
GENIUS_GENDTOL_13
 70
     0
  0
APPID
  5
359
330
9
100
AcDbSymbolTableRecord
100
AcDbRegAppTableRecord
  2
GENIUS_GENREC_14
 70
     0
  0
APPID
  5
35A
330
9
100
AcDbSymbolTableRecord
100
AcDbRegAppTableRecord
  2
GENIUS_GENODEF_13
 70
     0
  0
APPID
  5
35B
330
9
100
AcDbSymbolTableRecord
100
AcDbRegAppTableRecord
  2
GENIUS_GENOBJ-N-REC_13
 70
     0
  0
APPID
  5
667
330
9
100
AcDbSymbolTableRecord
100
AcDbRegAppTableRecord
  2
GENIUS_GENCFG_13
 70
     0
  0
APPID
  5
668
330
9
100
AcDbSymbolTableRecord
100
AcDbRegAppTableRecord
  2
GENIUS_GENCFG0_13
 70
     0
  0
APPID
  5
669
330
9
100
AcDbSymbolTableRecord
100
AcDbRegAppTableRecord
  2
GENIUS_GENCFG1_13
 70
     0
  0
APPID
  5
66A
330
9
100
AcDbSymbolTableRecord
100
AcDbRegAppTableRecord
  2
GENIUS_GENCFG2_13
 70
     0
  0
APPID
  5
66B
330
9
100
AcDbSymbolTableRecord
100
AcDbRegAppTableRecord
  2
GENIUS_GENCFG3_13
 70
     0
  0
APPID
  5
66C
330
9
100
AcDbSymbolTableRecord
100
AcDbRegAppTableRecord
  2
GENIUS_GENCFG4_13
 70
     0
  0
APPID
  5
A76
330
9
100
AcDbSymbolTableRecord
100
AcDbRegAppTableRecord
  2
GENIUS_GENBLLY_14
 70
     0
  0
APPID
  5
A77
330
9
100
AcDbSymbolTableRecord
100
AcDbRegAppTableRecord
  2
GENIUS_GENOBJ-N-CEN_13
 70
     0
  0
APPID
  5
A83
330
9
100
AcDbSymbolTableRecord
100
AcDbRegAppTableRecord
  2
GENIUS_GENTRA_14
 70
     0
  0
APPID
  5
A8D
330
9
100
AcDbSymbolTableRecord
100
AcDbRegAppTableRecord
  2
GENIUS_GENOBJ-N-TIT_13
 70
     0
  0
APPID
  5
A8E
330
9
100
AcDbSymbolTableRecord
100
AcDbRegAppTableRecord
  2
GENIUS_GENTITLE_13
 70
     0
  0
APPID
  5
A8F
330
9
100
AcDbSymbolTableRecord
100
AcDbRegAppTableRecord
  2
GENIUS_GENOENT_13
 70
     0
  0
APPID
  5
A90
330
9
100
AcDbSymbolTableRecord
100
AcDbRegAppTableRecord
  2
GENIUS_GENOREF_13
 70
     0
  0
APPID
  5
A91
330
9
100
AcDbSymbolTableRecord
100
AcDbRegAppTableRecord
  2
GENIUS_GENOLIS_13
 70
     0
  0
APPID
  5
A92
330
9
100
AcDbSymbolTableRecord
100
AcDbRegAppTableRecord
  2
GENIUS_GENZVEED_13
 70
     0
  0
APPID
  5
A93
330
9
100
AcDbSymbolTableRecord
100
AcDbRegAppTableRecord
  2
GENIUS_GENSCREG_15
 70
     0
  0
APPID
  5
A94
330
9
100
AcDbSymbolTableRecord
100
AcDbRegAppTableRecord
  2
GENIUS_GENOBJ-N-SDF_13
 70
     0
  0
APPID
  5
12B5
330
9
100
AcDbSymbolTableRecord
100
AcDbRegAppTableRecord
  2
GENIUS_GENOBJ-N-RSBK_13
 70
     0
  0
APPID
  5
12B6
330
9
100
AcDbSymbolTableRecord
100
AcDbRegAppTableRecord
  2
GENIUS_GENOBJ-N-LIB_13
 70
     0
  0
APPID
  5
12B7
330
9
100
AcDbSymbolTableRecord
100
AcDbRegAppTableRecord
  2
GENIUS_GENSCALE_13
 70
     0
  0
APPID
  5
12B8
330
9
100
AcDbSymbolTableRecord
100
AcDbRegAppTableRecord
  2
GENIUS_GENOBJ-N-HTC_13
 70
     0
  0
APPID
  5
12B9
330
9
100
AcDbSymbolTableRecord
100
AcDbRegAppTableRecord
  2
GENIUS_GENHATCH_13
 70
     0
  0
APPID
  5
1687
330
9
100
AcDbSymbolTableRecord
100
AcDbRegAppTableRecord
  2
BASE_TYPE
 70
     0
  0
APPID
  5
1ABF
330
9
100
AcDbSymbolTableRecord
100
AcDbRegAppTableRecord
  2
GENIUS_GENFIL_13
 70
     0
  0
APPID
  5
1AC0
330
9
100
AcDbSymbolTableRecord
100
AcDbRegAppTableRecord
  2
GENIUS_GENOBJ-N-CHA_13
 70
     0
  0
APPID
  5
1AE7
330
9
100
AcDbSymbolTableRecord
100
AcDbRegAppTableRecord
  2
GENIUS_GENOBJ-N-FIL_13
 70
     0
  0
APPID
  5
20E9
330
9
100
AcDbSymbolTableRecord
100
AcDbRegAppTableRecord
  2
GENIUS_GENDIMSH_14
 70
     0
  0
APPID
  5
19B32
330
9
100
AcDbSymbolTableRecord
100
AcDbRegAppTableRecord
  2
AD_DRAW
 70
     0
  0
APPID
  5
19B35
330
9
100
AcDbSymbolTableRecord
100
AcDbRegAppTableRecord
  2
ACATTRIBSERVICES
 70
     0
  0
APPID
  5
19B53
330
9
100
AcDbSymbolTableRecord
100
AcDbRegAppTableRecord
  2
DESIGNERASSEMBLIES
 70
     0
  0
APPID
  5
19B66
330
9
100
AcDbSymbolTableRecord
100
AcDbRegAppTableRecord
  2
ACADM_DIM_EDIT
 70
     0
  0
APPID
  5
19B67
330
9
100
AcDbSymbolTableRecord
100
AcDbRegAppTableRecord
  2
AMDT_DM_ADJ
 70
     0
  0
APPID
  5
19C03
330
9
100
AcDbSymbolTableRecord
100
AcDbRegAppTableRecord
  2
DCO15
 70
     0
  0
APPID
  5
19DBB
330
9
100
AcDbSymbolTableRecord
100
AcDbRegAppTableRecord
  2
ACAD_DSTYLE_DIMTEXT_FILL
 70
     0
  0
APPID
  5
19DBC
330
9
100
AcDbSymbolTableRecord
100
AcDbRegAppTableRecord
  2
ACAD_PSEXT
 70
     0
  0
ENDTAB
  0
TABLE
  2
DIMSTYLE
  5
A
330
0
100
AcDbSymbolTable
 70
    10
100
AcDbDimStyleTable
  0
DIMSTYLE
105
58
330
A
100
AcDbSymbolTableRecord
100
AcDbDimStyleTableRecord
  2
AM_JIS
 70
     0
  4
"
 41
2.5
 42
0.0
 43
10.0
 44
1.0
 47
0.1
 48
0.1000000001
 73
     0
 74
     0
 77
     3
 78
     1
 79
     2
140
3.8
141
0.0
143
0.0393701
146
0.71
147
1.5
172
     1
176
   256
177
   256
178
     2
179
     2
271
     3
272
     3
275
     1
283
     0
284
     8
340
11
341
59
342
59
371
    -1
372
    -1
  0
DIMSTYLE
105
5F
102
{ACAD_REACTORS
330
18EF2
330
1A299
102
}
330
A
100
AcDbSymbolTableRecord
100
AcDbDimStyleTableRecord
  2
AM_JIS$3
 70
     0
  4
"
 41
2.5
 42
0.0
 43
10.0
 44
1.0
 47
0.1
 48
0.1000000001
 73
     0
 77
     3
 78
     1
 79
     2
140
3.8
141
0.0
143
0.0393701
146
0.71
147
1.5
172
     1
176
   256
177
   256
178
     2
179
     2
271
     3
272
     3
275
     1
283
     0
284
     8
288
     1
289
     0
340
11
341
59
342
59
371
    -1
372
    -1
  0
DIMSTYLE
105
60
330
A
100
AcDbSymbolTableRecord
100
AcDbDimStyleTableRecord
  2
AM_JIS$4
 70
     0
  4
"
 41
2.5
 42
0.0
 43
10.0
 44
1.0
 47
0.1
 48
0.1000000001
 73
     0
 77
     3
 78
     1
 79
     2
140
3.8
141
0.0
143
0.0393701
146
0.71
147
1.5
172
     1
176
   256
177
   256
178
     2
179
     2
271
     3
272
     3
275
     1
283
     0
284
     8
288
     1
289
     0
340
11
341
59
342
59
371
    -1
372
    -1
  0
DIMSTYLE
105
61
330
A
100
AcDbSymbolTableRecord
100
AcDbDimStyleTableRecord
  2
AM_JIS$6
 70
     0
  4
"
 41
2.5
 42
0.0
 43
10.0
 44
1.0
 47
0.1
 48
0.1000000001
 73
     0
 74
     0
 78
     1
 79
     2
140
3.8
141
0.0
143
0.0393701
146
0.71
147
1.5
172
     1
176
   256
177
   256
178
     2
179
     2
271
     3
272
     3
275
     1
283
     0
284
     8
340
11
341
59
342
59
371
    -1
372
    -1
  0
DIMSTYLE
105
62
330
A
100
AcDbSymbolTableRecord
100
AcDbDimStyleTableRecord
  2
AM_JIS$7
 70
     0
  4
"
 41
2.5
 42
0.0
 43
10.0
 44
1.0
 47
0.1
 48
0.1000000001
 73
     0
 74
     0
 77
     3
 78
     1
 79
     2
140
5.0
141
0.0
143
0.0393701
146
0.71
147
1.5
172
     1
176
   256
177
   256
178
     2
179
     2
271
     3
272
     3
275
     1
283
     0
284
     8
340
11
341
59
342
59
371
    -1
372
    -1
  0
DIMSTYLE
105
63
330
A
100
AcDbSymbolTableRecord
100
AcDbDimStyleTableRecord
  2
AM_JIS$SF
 70
     0
  4
"
 41
2.5
 42
1.0
 43
10.0
 44
1.0
 47
0.1
 48
0.1
 73
     0
 74
     0
 75
     1
 76
     1
 77
     3
 78
     8
 79
     2
140
3.5
141
0.0
143
0.0393701
146
0.71
147
1.5
176
   256
177
   256
178
     2
271
     2
272
     3
274
     4
340
11
341
59
342
59
343
59
344
59
371
    -1
372
    -1
  0
DIMSTYLE
105
68
330
A
100
AcDbSymbolTableRecord
100
AcDbDimStyleTableRecord
  2
AM_JIS$SH
 70
     0
  4
"
 41
2.5
 42
1.0
 43
10.0
 44
1.0
 47
0.1
 48
0.1
 73
     0
 74
     0
 75
     1
 76
     1
 77
     3
 78
     8
 79
     2
140
3.5
141
0.0
143
0.0393701
144
2.0
146
0.71
147
1.5
173
     1
176
   256
177
   256
178
     2
271
     2
272
     3
274
     4
340
11
341
59
342
59
343
64
344
59
371
    -1
372
    -1
  0
DIMSTYLE
105
65F
330
A
100
AcDbSymbolTableRecord
100
AcDbDimStyleTableRecord
  2
STANDARD
 70
     0
340
11
  0
DIMSTYLE
105
1B97
102
{ACAD_REACTORS
330
1748D
330
1A002
330
1A228
330
1A2D1
102
}
330
A
100
AcDbSymbolTableRecord
100
AcDbDimStyleTableRecord
  2
AM_JIS$0
 70
     0
  4
"
 41
2.5
 42
0.0
 43
10.0
 44
1.0
 47
0.1
 48
0.1000000001
 73
     0
 74
     0
 77
     3
 78
     1
 79
     2
140
3.8
141
0.0
143
0.0393701
146
0.71
147
1.5
172
     1
176
     3
177
     3
178
     2
271
     3
272
     3
275
     1
283
     0
284
     8
289
     0
340
11
341
59
342
59
371
    13
372
    13
  0
DIMSTYLE
105
1B98
102
{ACAD_REACTORS
330
16E08
330
1A18E
330
1A258
102
}
330
A
100
AcDbSymbolTableRecord
100
AcDbDimStyleTableRecord
  2
AM_JIS$2
 70
     0
  4
"
 41
2.5
 42
0.0
 43
10.0
 44
1.0
 47
0.1
 48
0.1000000001
 73
     0
 74
     0
 77
     3
 78
     1
 79
     2
140
3.8
141
0.0
143
0.0393701
146
0.71
147
1.5
172
     1
176
     3
177
     3
178
     2
271
     3
272
     3
275
     1
283
     0
284
     8
289
     0
340
11
341
59
342
59
371
    13
372
    13
  0
ENDTAB
  0
TABLE
  2
BLOCK_RECORD
  5
1
330
0
100
AcDbSymbolTable
 70
    13
  0
BLOCK_RECORD
  5
1F
102
{ACAD_XDICTIONARY
360
165
102
}
330
1
100
AcDbSymbolTableRecord
100
AcDbBlockTableRecord
  2
*Model_Space
340
22
  0
BLOCK_RECORD
  5
1B
330
1
100
AcDbSymbolTableRecord
100
AcDbBlockTableRecord
  2
*Paper_Space
340
1E
  0
BLOCK_RECORD
  5
23
330
1
100
AcDbSymbolTableRecord
100
AcDbBlockTableRecord
  2
*Paper_Space0
340
26
  0
BLOCK_RECORD
  5
59
330
1
100
AcDbSymbolTableRecord
100
AcDbBlockTableRecord
  2
_Open30
340
0
102
{BLKREFS
331
1A518
331
1A519
331
1A523
331
1A524
331
1A52E
331
1A52F
331
1A535
331
1A536
331
1A540
331
1A541
331
1A54D
331
1A54E
331
1A556
331
1A557
331
1A562
331
1A563
331
1A56A
331
1A56B
102
}
  0
BLOCK_RECORD
  5
64
330
1
100
AcDbSymbolTableRecord
100
AcDbBlockTableRecord
  2
GENAXEH
340
0
  0
BLOCK_RECORD
  5
16E09
330
1
100
AcDbSymbolTableRecord
100
AcDbBlockTableRecord
  2
*D3
340
0
  0
BLOCK_RECORD
  5
1748E
330
1
100
AcDbSymbolTableRecord
100
AcDbBlockTableRecord
  2
*D4
340
0
  0
BLOCK_RECORD
  5
18EF3
330
1
100
AcDbSymbolTableRecord
100
AcDbBlockTableRecord
  2
*D5
340
0
  0
BLOCK_RECORD
  5
19B4A
330
1
100
AcDbSymbolTableRecord
100
AcDbBlockTableRecord
  2
*U6
340
0
  0
BLOCK_RECORD
  5
1A003
330
1
100
AcDbSymbolTableRecord
100
AcDbBlockTableRecord
  2
*D7
340
0
  0
BLOCK_RECORD
  5
1A18F
330
1
100
AcDbSymbolTableRecord
100
AcDbBlockTableRecord
  2
*D8
340
0
  0
BLOCK_RECORD
  5
1A229
330
1
100
AcDbSymbolTableRecord
100
AcDbBlockTableRecord
  2
*D9
340
0
  0
BLOCK_RECORD
  5
1A259
330
1
100
AcDbSymbolTableRecord
100
AcDbBlockTableRecord
  2
*D10
340
0
  0
BLOCK_RECORD
  5
1A29A
330
1
100
AcDbSymbolTableRecord
100
AcDbBlockTableRecord
  2
*D11
340
0
  0
BLOCK_RECORD
  5
1A2D2
330
1
100
AcDbSymbolTableRecord
100
AcDbBlockTableRecord
  2
*D12
340
0
  0
ENDTAB
  0
ENDSEC
  0
SECTION
  2
BLOCKS
  0
BLOCK
  5
20
330
1F
100
AcDbEntity
  8
0
100
AcDbBlockBegin
  2
*Model_Space
 70
     0
 71
     0
 10
0.0
 20
0.0
 30
0.0
  3
*Model_Space
  1

  0
ENDBLK
  5
21
330
1F
100
AcDbEntity
  8
0
100
AcDbBlockEnd
  0
BLOCK
  5
1C
330
1B
100
AcDbEntity
 67
     1
  8
0
100
AcDbBlockBegin
  2
*Paper_Space
 70
     0
 71
     0
 10
0.0
 20
0.0
 30
0.0
  3
*Paper_Space
  1

  0
ENDBLK
  5
1D
330
1B
100
AcDbEntity
 67
     1
  8
0
100
AcDbBlockEnd
  0
BLOCK
  5
24
330
23
100
AcDbEntity
  8
0
100
AcDbBlockBegin
  2
*Paper_Space0
 70
     0
 71
     0
 10
0.0
 20
0.0
 30
0.0
  3
*Paper_Space0
  1

  0
ENDBLK
  5
25
330
23
100
AcDbEntity
  8
0
100
AcDbBlockEnd
  0
BLOCK
  5
5D
330
59
100
AcDbEntity
  8
0
100
AcDbBlockBegin
  2
_Open30
 70
     0
 71
     0
 10
0.0
 20
0.0
 30
0.0
  3
_Open30
  1

  0
LINE
  5
5A
330
59
100
AcDbEntity
  8
0
 62
     0
370
    -2
100
AcDbLine
 10
-1.0
 20
0.26794919
 30
0.0
 11
0.0
 21
0.0
 31
0.0
  0
LINE
  5
5B
330
59
100
AcDbEntity
  8
0
 62
     0
370
    -2
100
AcDbLine
 10
0.0
 20
0.0
 30
0.0
 11
-1.0
 21
-0.26794919
 31
0.0
  0
LINE
  5
5C
330
59
100
AcDbEntity
  8
0
 62
     0
370
    -2
100
AcDbLine
 10
0.0
 20
0.0
 30
0.0
 11
-1.0
 21
0.0
 31
0.0
  0
ENDBLK
  5
5E
330
59
100
AcDbEntity
  8
0
100
AcDbBlockEnd
  0
BLOCK
  5
66
330
64
100
AcDbEntity
  8
0
100
AcDbBlockBegin
  2
GENAXEH
 70
     0
 71
     0
 10
0.0
 20
0.0
 30
0.0
  3
GENAXEH
  1

  0
LINE
  5
65
330
64
100
AcDbEntity
  8
0
100
AcDbLine
 10
-1.0
 20
0.0
 30
0.0
 11
1.0
 21
0.0
 31
0.0
  0
ENDBLK
  5
67
330
64
100
AcDbEntity
  8
0
100
AcDbBlockEnd
  0
BLOCK
  5
16E18
330
16E09
100
AcDbEntity
  8
0
100
AcDbBlockBegin
  2
*D3
 70
     1
 71
     0
 10
0.0
 20
0.0
 30
0.0
  3
*D3
  1

  0
LINE
  5
1A513
330
16E09
100
AcDbEntity
  8
AM_5
 62
     3
370
    13
100
AcDbLine
 10
-7.426960639923722
 20
-51.74700856069543
 30
0.0
 11
-13.18149549488306
 21
-51.24355199702173
 31
0.0
  0
LINE
  5
1A514
330
16E09
100
AcDbEntity
  8
AM_5
 62
     3
370
    13
100
AcDbLine
 10
-1.300096829471329
 20
-52.39678342114198
 30
0.0
 11
-13.23184666625187
 21
-52.39678342114196
 31
0.0
  0
ARC
  5
1A515
330
16E09
100
AcDbEntity
  8
AM_5
 62
     3
370
    13
100
AcDbCircle
 10
0.0000000000002593
 20
-52.39678342114198
 30
0.0
 40
12.23184666625213
100
AcDbArc
 50
151.53830266585
 51
163.2691513329252
  0
ARC
  5
1A516
330
16E09
100
AcDbEntity
  8
AM_5
 62
     3
370
    13
100
AcDbCircle
 10
0.0000000000002593
 20
-52.39678342114198
 30
0.0
 40
12.23184666625213
100
AcDbArc
 50
191.7308486670752
 51
203.4616973341504
  0
ARC
  5
1A517
330
16E09
100
AcDbEntity
  8
AM_5
 62
     3
370
    13
100
AcDbCircle
 10
0.0000000000002593
 20
-52.39678342114198
 30
0.0
 40
12.23184666625213
100
AcDbArc
 50
175.0000000000004
 51
180.0
  0
INSERT
  5
1A518
330
16E09
100
AcDbEntity
  8
AM_5
 62
     3
370
    13
100
AcDbBlockReference
  2
_Open30
 10
-12.18530079679131
 20
-51.33070773976938
 30
0.0
 41
2.5
 42
2.5
 43
2.5
 50
259.1345756664628
  0
INSERT
  5
1A519
330
16E09
100
AcDbEntity
  8
AM_5
 62
     3
370
    13
100
AcDbBlockReference
  2
_Open30
 10
-12.23184666625187
 20
-52.39678342114197
 30
0.0
 41
2.5
 42
2.5
 43
2.5
 50
95.86542433353758
  0
MTEXT
  5
1A51A
330
16E09
100
AcDbEntity
  8
AM_5
 62
     2
100
AcDbMText
 10
-14.26522601333987
 20
-46.00476050303993
 30
0.0
 40
3.8
 41
0.0
 71
     5
 72
     1
  1
5°
 11
0.4089102877334346
 21
0.9125745868616766
 31
0.0
 73
     1
 44
1.0
  0
POINT
  5
1A51B
330
16E09
100
AcDbEntity
  8
Defpoints
 62
     0
100
AcDbPoint
 10
-12.22667198452518
 20
-52.04102360114519
 30
0.0
  0
POINT
  5
1A51C
330
16E09
100
AcDbEntity
  8
Defpoints
 62
     0
100
AcDbPoint
 10
155.4588124887482
 20
-52.39678342114202
 30
0.0
  0
POINT
  5
1A51D
330
16E09
100
AcDbEntity
  8
Defpoints
 62
     0
100
AcDbPoint
 10
0.0000000000001705
 20
-52.39678342114198
 30
0.0
  0
POINT
  5
1A51E
330
16E09
100
AcDbEntity
  8
Defpoints
 62
     0
100
AcDbPoint
 10
-7.426960639923722
 20
-51.74700856069543
 30
0.0
  0
POINT
  5
1A51F
330
16E09
100
AcDbEntity
  8
Defpoints
 62
     0
100
AcDbPoint
 10
-1.300096829471329
 20
-52.39678342114198
 30
0.0
  0
ENDBLK
  5
16E19
330
16E09
100
AcDbEntity
  8
0
100
AcDbBlockEnd
  0
BLOCK
  5
17498
330
1748E
100
AcDbEntity
  8
0
100
AcDbBlockBegin
  2
*D4
 70
     1
 71
     0
 10
0.0
 20
0.0
 30
0.0
  3
*D4
  1

  0
LINE
  5
1A520
330
1748E
100
AcDbEntity
  8
AM_5
 62
     3
370
    13
100
AcDbLine
 10
0.0000000000001705
 20
-52.39678342114198
 30
0.0
 11
0.0000000000001692
 21
-74.12897295593413
 31
0.0
  0
LINE
  5
1A521
330
1748E
100
AcDbEntity
  8
AM_5
 62
     3
370
    13
100
AcDbLine
 10
16.99999999999989
 20
-57.89678342114198
 30
0.0
 11
16.99999999999989
 21
-74.12897295593413
 31
0.0
  0
LINE
  5
1A522
330
1748E
100
AcDbEntity
  8
AM_5
 62
     3
370
    13
100
AcDbLine
 10
2.500000000000169
 20
-73.12897295593413
 30
0.0
 11
14.49999999999989
 21
-73.12897295593413
 31
0.0
  0
INSERT
  5
1A523
330
1748E
100
AcDbEntity
  8
AM_5
 62
     3
370
    13
100
AcDbBlockReference
  2
_Open30
 10
0.0000000000001693
 20
-73.12897295593413
 30
0.0
 41
2.5
 42
2.5
 43
2.5
 50
180.0
  0
INSERT
  5
1A524
330
1748E
100
AcDbEntity
  8
AM_5
 62
     3
370
    13
100
AcDbBlockReference
  2
_Open30
 10
16.99999999999989
 20
-73.12897295593413
 30
0.0
 41
2.5
 42
2.5
 43
2.5
  0
MTEXT
  5
1A525
330
1748E
100
AcDbEntity
  8
AM_5
 62
     2
100
AcDbMText
 10
8.500000000000028
 20
-69.72897295593413
 30
0.0
 40
3.8
 41
0.0
 71
     5
 72
     1
  1
17
 73
     1
 44
1.0
  0
POINT
  5
1A526
330
1748E
100
AcDbEntity
  8
Defpoints
 62
     0
100
AcDbPoint
 10
0.0000000000001705
 20
-52.39678342114198
 30
0.0
  0
POINT
  5
1A527
330
1748E
100
AcDbEntity
  8
Defpoints
 62
     0
100
AcDbPoint
 10
16.99999999999989
 20
-57.89678342114198
 30
0.0
  0
POINT
  5
1A528
330
1748E
100
AcDbEntity
  8
Defpoints
 62
     0
100
AcDbPoint
 10
16.99999999999989
 20
-73.12897295593413
 30
0.0
  0
ENDBLK
  5
17499
330
1748E
100
AcDbEntity
  8
0
100
AcDbBlockEnd
  0
BLOCK
  5
18EFC
330
18EF3
100
AcDbEntity
  8
0
100
AcDbBlockBegin
  2
*D5
 70
     1
 71
     0
 10
0.0
 20
0.0
 30
0.0
  3
*D5
  1

  0
LINE
  5
1A529
330
18EF3
100
AcDbEntity
  8
AM_5
100
AcDbLine
 10
-90.81635064050232
 20
-4.072044239926768
 30
0.0
 11
-66.94862463101326
 21
-4.072044239926765
 31
0.0
  0
LINE
  5
1A52A
330
18EF3
100
AcDbEntity
  8
AM_5
100
AcDbLine
 10
-66.94862463101326
 20
-4.072044239926765
 30
0.0
 11
-56.21395038532251
 21
2.588877614442527
 31
0.0
  0
LINE
  5
1A52B
330
18EF3
100
AcDbEntity
  8
AM_5
100
AcDbLine
 10
-38.37003277375202
 20
13.66112238555774
 30
0.0
 11
-36.24575686761268
 21
14.97924676307146
 31
0.0
  0
MTEXT
  5
1A52C
330
18EF3
100
AcDbEntity
  8
AM_5
 62
     2
100
AcDbMText
 10
-79.6324876357578
 20
2.494622426739905
 30
0.0
 40
3.8
 41
0.0
 71
     5
 72
     1
  1
最小加工径\P\U+220516
 73
     1
 44
1.0
  0
LINE
  5
1A52D
330
18EF3
100
AcDbEntity
  8
AM_5
100
AcDbLine
 10
-40.49430867989136
 20
12.34299800804403
 30
0.0
 11
-54.08967447918316
 21
3.907001991956239
 31
0.0
  0
INSERT
  5
1A52E
330
18EF3
100
AcDbEntity
  8
AM_5
100
AcDbBlockReference
  2
_Open30
 10
-40.49430867989136
 20
12.34299800804403
 30
0.0
 41
2.5
 42
2.5
 43
2.5
 50
211.8198192275513
  0
INSERT
  5
1A52F
330
18EF3
100
AcDbEntity
  8
AM_5
100
AcDbBlockReference
  2
_Open30
 10
-54.08967447918316
 20
3.907001991956239
 30
0.0
 41
2.5
 42
2.5
 43
2.5
 50
31.8198192275513
  0
POINT
  5
1A530
330
18EF3
100
AcDbEntity
  8
Defpoints
 62
     0
100
AcDbPoint
 10
-54.08967447918316
 20
3.907001991956239
 30
0.0
  0
POINT
  5
1A531
330
18EF3
100
AcDbEntity
  8
Defpoints
 62
     0
100
AcDbPoint
 10
-40.49430867989136
 20
12.34299800804403
 30
0.0
  0
ENDBLK
  5
18EFD
330
18EF3
100
AcDbEntity
  8
0
100
AcDbBlockEnd
  0
BLOCK
  5
19B4B
330
19B4A
100
AcDbEntity
  8
0
100
AcDbBlockBegin
  2
*U6
 70
     1
 71
     0
 10
0.0
 20
0.0
 30
0.0
  3
*U6
  1

  0
ENDBLK
  5
19B4C
330
19B4A
100
AcDbEntity
  8
0
100
AcDbBlockEnd
  0
BLOCK
  5
1A030
330
1A003
100
AcDbEntity
  8
0
100
AcDbBlockBegin
  2
*D7
 70
     1
 71
     0
 10
0.0
 20
0.0
 30
0.0
  3
*D7
  1

  0
LINE
  5
1A532
330
1A003
100
AcDbEntity
  8
AM_5
 62
     3
370
    13
100
AcDbLine
 10
95.75000000000006
 20
5.602084238343639
 30
0.0
 11
95.75000000000006
 21
-12.54374685508513
 31
0.0
  0
LINE
  5
1A533
330
1A003
100
AcDbEntity
  8
AM_5
 62
     3
370
    13
100
AcDbLine
 10
106.7500000000001
 20
5.602084238343637
 30
0.0
 11
106.7500000000001
 21
-12.54374685508513
 31
0.0
  0
LINE
  5
1A534
330
1A003
100
AcDbEntity
  8
AM_5
 62
     3
370
    13
100
AcDbLine
 10
98.25000000000006
 20
-11.54374685508513
 30
0.0
 11
104.2500000000001
 21
-11.54374685508513
 31
0.0
  0
INSERT
  5
1A535
330
1A003
100
AcDbEntity
  8
AM_5
 62
     3
370
    13
100
AcDbBlockReference
  2
_Open30
 10
95.75000000000006
 20
-11.54374685508513
 30
0.0
 41
2.5
 42
2.5
 43
2.5
 50
180.0
  0
INSERT
  5
1A536
330
1A003
100
AcDbEntity
  8
AM_5
 62
     3
370
    13
100
AcDbBlockReference
  2
_Open30
 10
106.7500000000001
 20
-11.54374685508513
 30
0.0
 41
2.5
 42
2.5
 43
2.5
  0
MTEXT
  5
1A537
330
1A003
100
AcDbEntity
  8
AM_5
 62
     2
100
AcDbMText
 10
101.2500000000001
 20
-8.143746855085132
 30
0.0
 40
3.8
 41
0.0
 71
     5
 72
     1
  1
11
 73
     1
 44
1.0
  0
POINT
  5
1A538
330
1A003
100
AcDbEntity
  8
Defpoints
 62
     0
100
AcDbPoint
 10
95.75000000000006
 20
5.602084238343639
 30
0.0
  0
POINT
  5
1A539
330
1A003
100
AcDbEntity
  8
Defpoints
 62
     0
100
AcDbPoint
 10
106.7500000000001
 20
5.602084238343637
 30
0.0
  0
POINT
  5
1A53A
330
1A003
100
AcDbEntity
  8
Defpoints
 62
     0
100
AcDbPoint
 10
106.7500000000001
 20
-11.54374685508513
 30
0.0
  0
ENDBLK
  5
1A031
330
1A003
100
AcDbEntity
  8
0
100
AcDbBlockEnd
  0
BLOCK
  5
1A1D8
330
1A18F
100
AcDbEntity
  8
0
100
AcDbBlockBegin
  2
*D8
 70
     1
 71
     0
 10
0.0
 20
0.0
 30
0.0
  3
*D8
  1

  0
LINE
  5
1A53B
330
1A18F
100
AcDbEntity
  8
AM_5
 62
     3
370
    13
100
AcDbLine
 10
-47.29199157953753
 20
-0.0204004769394359
 30
0.0
 11
-49.13016196726181
 21
-18.30716883324849
 31
0.0
  0
LINE
  5
1A53C
330
1A18F
100
AcDbEntity
  8
AM_5
 62
     3
370
    13
100
AcDbLine
 10
-47.29199157953752
 20
-2.588845057297441
 30
0.0
 11
-47.29199157953754
 21
-18.39932229764515
 31
0.0
  0
ARC
  5
1A53D
330
1A18F
100
AcDbEntity
  8
AM_5
 62
     3
370
    13
100
AcDbCircle
 10
-47.29199157953753
 20
-0.0204004769394359
 30
0.0
 40
17.37892182070571
100
AcDbArc
 50
247.761438093518
 51
256.0106979739395
  0
ARC
  5
1A53E
330
1A18F
100
AcDbEntity
  8
AM_5
 62
     3
370
    13
100
AcDbCircle
 10
-47.29199157953753
 20
-0.0204004769394359
 30
0.0
 40
17.37892182070571
100
AcDbArc
 50
278.2492598804215
 51
286.498519760843
  0
ARC
  5
1A53F
330
1A18F
100
AcDbEntity
  8
AM_5
 62
     3
370
    13
100
AcDbCircle
 10
-47.29199157953753
 20
-0.0204004769394359
 30
0.0
 40
17.37892182070571
100
AcDbArc
 50
264.259957854361
 51
270.0
  0
INSERT
  5
1A540
330
1A18F
100
AcDbEntity
  8
AM_5
 62
     3
370
    13
100
AcDbBlockReference
  2
_Open30
 10
-49.03014683004885
 20
-17.31218291760532
 30
0.0
 41
2.5
 42
2.5
 43
2.5
 50
350.1353279141502
  0
INSERT
  5
1A541
330
1A18F
100
AcDbEntity
  8
AM_5
 62
     3
370
    13
100
AcDbBlockReference
  2
_Open30
 10
-47.29199157953754
 20
-17.39932229764515
 30
0.0
 41
2.5
 42
2.5
 43
2.5
 50
184.1246299402108
  0
MTEXT
  5
1A542
330
1A18F
100
AcDbEntity
  8
AM_5
 62
     2
100
AcDbMText
 10
-50.9287924747421
 20
-13.51795338544998
 30
0.0
 40
3.8
 41
0.0
 71
     5
 72
     1
  1
6°
 11
0.9655646609681899
 21
-0.2601631901122534
 31
0.0
 73
     1
 44
1.0
  0
POINT
  5
1A543
330
1A18F
100
AcDbEntity
  8
Defpoints
 62
     0
100
AcDbPoint
 10
-47.87223911116652
 20
-17.3896329427751
 30
0.0
  0
POINT
  5
1A544
330
1A18F
100
AcDbEntity
  8
Defpoints
 62
     0
100
AcDbPoint
 10
-47.24822920378478
 20
0.4149630962399815
 30
0.0
  0
POINT
  5
1A545
330
1A18F
100
AcDbEntity
  8
Defpoints
 62
     0
100
AcDbPoint
 10
-47.29199157953752
 20
-2.588845057297441
 30
0.0
  0
POINT
  5
1A546
330
1A18F
100
AcDbEntity
  8
Defpoints
 62
     0
100
AcDbPoint
 10
-47.29199157953753
 20
18.50552737384309
 30
0.0
  0
POINT
  5
1A547
330
1A18F
100
AcDbEntity
  8
Defpoints
 62
     0
100
AcDbPoint
 10
-46.28809995153569
 20
9.966668066165207
 30
0.0
  0
ENDBLK
  5
1A1D9
330
1A18F
100
AcDbEntity
  8
0
100
AcDbBlockEnd
  0
BLOCK
  5
1A243
330
1A229
100
AcDbEntity
  8
0
100
AcDbBlockBegin
  2
*D9
 70
     1
 71
     0
 10
0.0
 20
0.0
 30
0.0
  3
*D9
  1

  0
LINE
  5
1A548
330
1A229
100
AcDbEntity
  8
AM_5
 62
     3
370
    13
100
AcDbLine
 10
-1.112227104857425
 20
0.0
 30
0.0
 11
-6.79477210952399
 21
0.0000000000000016
 31
0.0
  0
LINE
  5
1A549
330
1A229
100
AcDbEntity
  8
AM_5
 62
     3
370
    13
100
AcDbLine
 10
-2.165548451965719
 20
8.0
 30
0.0
 11
-6.794772109523988
 21
8.0
 31
0.0
  0
LINE
  5
1A54A
330
1A229
100
AcDbEntity
  8
AM_5
 62
     3
370
    13
100
AcDbLine
 10
-5.794772109523991
 20
-2.499999999999999
 30
0.0
 11
-5.794772109523991
 21
-4.999999999999999
 31
0.0
  0
LINE
  5
1A54B
330
1A229
100
AcDbEntity
  8
AM_5
 62
     3
370
    13
100
AcDbLine
 10
-5.794772109523987
 20
10.5
 30
0.0
 11
-5.794772109523987
 21
13.0
 31
0.0
  0
LINE
  5
1A54C
330
1A229
100
AcDbEntity
  8
AM_5
 62
     3
370
    13
100
AcDbLine
 10
-5.79477210952399
 20
0.0000000000000013
 30
0.0
 11
-5.794772109523988
 21
8.0
 31
0.0
  0
INSERT
  5
1A54D
330
1A229
100
AcDbEntity
  8
AM_5
 62
     3
370
    13
100
AcDbBlockReference
  2
_Open30
 10
-5.79477210952399
 20
0.0000000000000013
 30
0.0
 41
2.5
 42
2.5
 43
2.5
 50
90.0
  0
INSERT
  5
1A54E
330
1A229
100
AcDbEntity
  8
AM_5
 62
     3
370
    13
100
AcDbBlockReference
  2
_Open30
 10
-5.794772109523988
 20
8.0
 30
0.0
 41
2.5
 42
2.5
 43
2.5
 50
270.0
  0
MTEXT
  5
1A54F
330
1A229
100
AcDbEntity
  8
AM_5
 62
     2
100
AcDbMText
 10
-9.19477210952399
 20
4.0
 30
0.0
 40
3.8
 41
0.0
 71
     5
 72
     1
  1
8
 11
6.123031769111886E-17
 21
1.0
 31
0.0
 73
     1
 44
1.0
  0
POINT
  5
1A550
330
1A229
100
AcDbEntity
  8
Defpoints
 62
     0
100
AcDbPoint
 10
-1.112227104857425
 20
0.0
 30
0.0
  0
POINT
  5
1A551
330
1A229
100
AcDbEntity
  8
Defpoints
 62
     0
100
AcDbPoint
 10
-2.165548451965719
 20
8.0
 30
0.0
  0
POINT
  5
1A552
330
1A229
100
AcDbEntity
  8
Defpoints
 62
     0
100
AcDbPoint
 10
-5.794772109523988
 20
8.0
 30
0.0
  0
ENDBLK
  5
1A244
330
1A229
100
AcDbEntity
  8
0
100
AcDbBlockEnd
  0
BLOCK
  5
1A284
330
1A259
100
AcDbEntity
  8
0
100
AcDbBlockBegin
  2
*D10
 70
     1
 71
     0
 10
0.0
 20
0.0
 30
0.0
  3
*D10
  1

  0
LINE
  5
1A553
330
1A259
100
AcDbEntity
  8
AM_5
 62
     3
370
    13
100
AcDbLine
 10
0.501128434727832
 20
9.966684754711565
 30
0.0
 11
1.118541254280801
 21
21.74762315735767
 31
0.0
  0
LINE
  5
1A554
330
1A259
100
AcDbEntity
  8
AM_5
 62
     3
370
    13
100
AcDbLine
 10
-1.112227104857425
 20
0.0
 30
0.0
 11
-21.79867180104268
 21
-0.0000000000000231
 31
0.0
  0
ARC
  5
1A555
330
1A259
100
AcDbEntity
  8
AM_5
 62
     3
370
    13
100
AcDbCircle
 10
-0.0212033800807233
 20
0.0
 30
0.0
 40
20.77746842096196
100
AcDbArc
 50
93.89814530641812
 51
173.1018546935821
  0
INSERT
  5
1A556
330
1A259
100
AcDbEntity
  8
AM_5
 62
     3
370
    13
100
AcDbBlockReference
  2
_Open30
 10
1.066205298037859
 20
20.74899362260309
 30
0.0
 41
2.5
 42
2.5
 43
2.5
 50
0.4490726532090942
  0
INSERT
  5
1A557
330
1A259
100
AcDbEntity
  8
AM_5
 62
     3
370
    13
100
AcDbBlockReference
  2
_Open30
 10
-20.79867180104268
 20
-0.0000000000000213
 30
0.0
 41
2.5
 42
2.5
 43
2.5
 50
266.5509273467911
  0
MTEXT
  5
1A558
330
1A259
100
AcDbEntity
  8
AM_5
 62
     2
100
AcDbMText
 10
-16.66387439634114
 20
17.5377159485247
 30
0.0
 40
3.8
 41
0.0
 71
     5
 72
     1
  1
93°
 11
0.7253743710122866
 21
0.688354575693755
 31
0.0
 73
     1
 44
1.0
  0
POINT
  5
1A559
330
1A259
100
AcDbEntity
  8
Defpoints
 62
     0
100
AcDbPoint
 10
-9.775633950404249
 20
18.34541572799071
 30
0.0
  0
POINT
  5
1A55A
330
1A259
100
AcDbEntity
  8
Defpoints
 62
     0
100
AcDbPoint
 10
0.0005447888872823
 20
0.4149797847863396
 30
0.0
  0
POINT
  5
1A55B
330
1A259
100
AcDbEntity
  8
Defpoints
 62
     0
100
AcDbPoint
 10
-1.112227104857425
 20
0.0
 30
0.0
  0
POINT
  5
1A55C
330
1A259
100
AcDbEntity
  8
Defpoints
 62
     0
100
AcDbPoint
 10
0.3948281606302544
 20
0.0
 30
0.0
  0
POINT
  5
1A55D
330
1A259
100
AcDbEntity
  8
Defpoints
 62
     0
100
AcDbPoint
 10
0.501128434727832
 20
9.966684754711565
 30
0.0
  0
ENDBLK
  5
1A285
330
1A259
100
AcDbEntity
  8
0
100
AcDbBlockEnd
  0
BLOCK
  5
1A2B7
330
1A29A
100
AcDbEntity
  8
0
100
AcDbBlockBegin
  2
*D11
 70
     1
 71
     0
 10
0.0
 20
0.0
 30
0.0
  3
*D11
  1

  0
LINE
  5
1A55E
330
1A29A
100
AcDbEntity
  8
AM_5
100
AcDbLine
 10
98.13691156190272
 20
0.0905954474065993
 30
0.0
 11
97.22129731540352
 21
-2.235700009238514
 31
0.0
  0
LINE
  5
1A55F
330
1A29A
100
AcDbEntity
  8
AM_5
100
AcDbLine
 10
104.3630884380972
 20
15.90940455259332
 30
0.0
 11
107.3969544763151
 21
23.61752924348888
 31
0.0
  0
LINE
  5
1A560
330
1A29A
100
AcDbEntity
  8
AM_5
100
AcDbLine
 10
107.3969544763151
 20
23.61752924348888
 30
0.0
 11
115.965178885764
 21
23.61752924348887
 31
0.0
  0
LINE
  5
1A561
330
1A29A
100
AcDbEntity
  8
AM_5
100
AcDbLine
 10
99.05252580840191
 20
2.416890904051719
 30
0.0
 11
103.447474191598
 21
13.5831090959482
 31
0.0
  0
INSERT
  5
1A562
330
1A29A
100
AcDbEntity
  8
AM_5
100
AcDbBlockReference
  2
_Open30
 10
99.05252580840191
 20
2.416890904051719
 30
0.0
 41
2.5
 42
2.5
 43
2.5
 50
68.51573475386289
  0
INSERT
  5
1A563
330
1A29A
100
AcDbEntity
  8
AM_5
100
AcDbBlockReference
  2
_Open30
 10
103.447474191598
 20
13.5831090959482
 30
0.0
 41
2.5
 42
2.5
 43
2.5
 50
248.5157347538629
  0
MTEXT
  5
1A564
330
1A29A
100
AcDbEntity
  8
AM_5
 62
     2
100
AcDbMText
 10
112.4310666810395
 20
27.0179032592369
 30
0.0
 40
3.8
 41
0.0
 71
     5
 72
     1
  1
\U+220512
 73
     1
 44
1.0
  0
POINT
  5
1A565
330
1A29A
100
AcDbEntity
  8
Defpoints
 62
     0
100
AcDbPoint
 10
103.447474191598
 20
13.5831090959482
 30
0.0
  0
POINT
  5
1A566
330
1A29A
100
AcDbEntity
  8
Defpoints
 62
     0
100
AcDbPoint
 10
99.05252580840191
 20
2.416890904051719
 30
0.0
  0
ENDBLK
  5
1A2B8
330
1A29A
100
AcDbEntity
  8
0
100
AcDbBlockEnd
  0
BLOCK
  5
1A2E8
330
1A2D2
100
AcDbEntity
  8
0
100
AcDbBlockBegin
  2
*D12
 70
     1
 71
     0
 10
0.0
 20
0.0
 30
0.0
  3
*D12
  1

  0
LINE
  5
1A567
330
1A2D2
100
AcDbEntity
  8
AM_5
 62
     3
370
    13
100
AcDbLine
 10
0.0
 20
0.0
 30
0.0
 11
-0.0000000000000018
 21
-29.81555865862369
 31
0.0
  0
LINE
  5
1A568
330
1A2D2
100
AcDbEntity
  8
AM_5
 62
     3
370
    13
100
AcDbLine
 10
150.0
 20
3.000000000000011
 30
0.0
 11
150.0
 21
-29.81555865862369
 31
0.0
  0
LINE
  5
1A569
330
1A2D2
100
AcDbEntity
  8
AM_5
 62
     3
370
    13
100
AcDbLine
 10
2.499999999999998
 20
-28.81555865862369
 30
0.0
 11
147.5
 21
-28.81555865862369
 31
0.0
  0
INSERT
  5
1A56A
330
1A2D2
100
AcDbEntity
  8
AM_5
 62
     3
370
    13
100
AcDbBlockReference
  2
_Open30
 10
-0.0000000000000018
 20
-28.81555865862369
 30
0.0
 41
2.5
 42
2.5
 43
2.5
 50
180.0
  0
INSERT
  5
1A56B
330
1A2D2
100
AcDbEntity
  8
AM_5
 62
     3
370
    13
100
AcDbBlockReference
  2
_Open30
 10
150.0
 20
-28.81555865862369
 30
0.0
 41
2.5
 42
2.5
 43
2.5
  0
MTEXT
  5
1A56C
330
1A2D2
100
AcDbEntity
  8
AM_5
 62
     2
100
AcDbMText
 10
75.0
 20
-25.41555865862369
 30
0.0
 40
3.8
 41
0.0
 71
     5
 72
     1
  1
150
 73
     1
 44
1.0
  0
POINT
  5
1A56D
330
1A2D2
100
AcDbEntity
  8
Defpoints
 62
     0
100
AcDbPoint
 10
0.0
 20
0.0
 30
0.0
  0
POINT
  5
1A56E
330
1A2D2
100
AcDbEntity
  8
Defpoints
 62
     0
100
AcDbPoint
 10
150.0
 20
3.000000000000011
 30
0.0
  0
POINT
  5
1A56F
330
1A2D2
100
AcDbEntity
  8
Defpoints
 62
     0
100
AcDbPoint
 10
150.0
 20
-28.81555865862369
 30
0.0
  0
ENDBLK
  5
1A2E9
330
1A2D2
100
AcDbEntity
  8
0
100
AcDbBlockEnd
  0
ENDSEC
  0
SECTION
  2
ENTITIES
  0
LINE
  5
EF21
330
1F
100
AcDbEntity
  8
AM_7
100
AcDbLine
 10
153.4412382185366
 20
7.999999999999954
 30
0.0
 11
-2.165548451965719
 21
8.0
 31
0.0
1001
GENIUS_GENODEF_13
1002
{
1000
HIER
1070
     0
1002
}
1002
{
1000
MANEDIT
1070
     0
1002
}
1002
{
1000
NOSEL
1070
     0
1002
}
1002
{
1000
BEHIND
1070
     0
1002
}
1002
{
1000
REACTOR
1002
}
1001
GENIUS_GENOBJ-N-CEN_13
1002
{
1000
OWNER
1000
GEN
1002
}
  0
LINE
  5
EF61
330
1F
100
AcDbEntity
  8
AM_7
  6
AM_ISO08W050x2
100
AcDbLine
 10
101.2500000000001
 20
19.20813857451877
 30
0.0
 11
101.2500000000001
 21
-3.183904590500916
 31
0.0
1001
GENIUS_GENODEF_13
1002
{
1000
HIER
1070
     0
1002
}
1002
{
1000
MANEDIT
1070
     0
1002
}
1002
{
1000
NOSEL
1070
     0
1002
}
1002
{
1000
BEHIND
1070
     0
1002
}
1002
{
1000
REACTOR
1002
}
1001
GENIUS_GENOBJ-N-CEN_13
1002
{
1000
OWNER
1000
GEN
1002
}
  0
LINE
  5
15C95
330
1F
100
AcDbEntity
  8
AM_0
100
AcDbLine
 10
149.0
 20
10.3979157616563
 30
0.0
 11
111.7500000000001
 21
10.39791576165634
 31
0.0
  0
LINE
  5
15D64
330
1F
100
AcDbEntity
  8
AM_0
100
AcDbLine
 10
150.0
 20
3.000000000000011
 30
0.0
 11
150.0
 21
12.99999999999995
 31
0.0
  0
SPLINE
  5
15D65
330
1F
100
AcDbEntity
  8
AM_0
100
AcDbSpline
210
0.0
220
0.0
230
1.0
 70
    12
 71
     2
 72
     6
 73
     3
 74
     0
 42
0.0000000001
 43
0.0000000001
 40
0.0
 40
0.0
 40
0.0
 40
4.898979485566207
 40
4.898979485566207
 40
4.898979485566207
 10
149.0
 20
5.602084238343719
 30
0.0
 41
1.0
 10
149.9583333333331
 20
7.999999999999953
 30
0.0
 41
1.090909090909074
 10
149.0
 20
10.3979157616563
 30
0.0
 41
1.0
  0
LINE
  5
15D66
330
1F
100
AcDbEntity
  8
AM_0
100
AcDbLine
 10
149.0
 20
2.000000000000011
 30
0.0
 11
149.0
 21
5.602084238343718
 31
0.0
  0
LINE
  5
15D67
330
1F
100
AcDbEntity
  8
AM_0
100
AcDbLine
 10
150.0
 20
3.000000000000011
 30
0.0
 11
149.0
 21
2.000000000000011
 31
0.0
  0
LINE
  5
15D68
330
1F
100
AcDbEntity
  8
AM_0
100
AcDbLine
 10
150.0
 20
12.99999999999995
 30
0.0
 11
149.0
 21
13.99999999999995
 31
0.0
  0
LINE
  5
15D69
330
1F
100
AcDbEntity
  8
AM_0
100
AcDbLine
 10
149.0
 20
10.3979157616563
 30
0.0
 11
149.0
 21
13.99999999999995
 31
0.0
  0
LINE
  5
166A2
330
1F
100
AcDbEntity
  8
AM_7
100
AcDbLine
 10
155.4588124887482
 20
-52.39678342114202
 30
0.0
 11
-1.300096829471329
 21
-52.39678342114198
 31
0.0
1001
GENIUS_GENODEF_13
1002
{
1000
HIER
1070
     0
1002
}
1002
{
1000
MANEDIT
1070
     0
1002
}
1002
{
1000
NOSEL
1070
     0
1002
}
1002
{
1000
BEHIND
1070
     0
1002
}
1002
{
1000
REACTOR
1002
}
1001
GENIUS_GENOBJ-N-CEN_13
1002
{
1000
OWNER
1000
GEN
1002
}
  0
ARC
  5
1679D
330
1F
100
AcDbEntity
  8
AM_0
100
AcDbCircle
 10
101.2500000000001
 20
7.999999999999988
 30
0.0
 40
6.0
100
AcDbArc
 50
203.5564643091011
 51
336.4435356908988
  0
ARC
  5
167AF
330
1F
100
AcDbEntity
  8
AM_0
100
AcDbCircle
 10
101.2500000000001
 20
7.999999999999988
 30
0.0
 40
6.0
100
AcDbArc
 50
23.55646430910113
 51
156.4435356908989
  0
LINE
  5
167C9
330
1F
100
AcDbEntity
  8
AM_0
100
AcDbLine
 10
111.7500000000001
 20
13.99999999999999
 30
0.0
 11
149.0
 21
13.99999999999995
 31
0.0
  0
LINE
  5
167CB
330
1F
100
AcDbEntity
  8
AM_0
100
AcDbLine
 10
111.7500000000001
 20
5.602084238343693
 30
0.0
 11
149.0
 21
5.602084238343689
 31
0.0
  0
LINE
  5
167CC
330
1F
100
AcDbEntity
  8
AM_0
100
AcDbLine
 10
111.7500000000001
 20
2.000000000000043
 30
0.0
 11
149.0
 21
2.000000000000011
 31
0.0
  0
LINE
  5
167CD
330
1F
100
AcDbEntity
  8
AM_0
100
AcDbLine
 10
106.7500000000001
 20
10.39791576165634
 30
0.0
 11
106.7500000000001
 21
5.602084238343636
 31
0.0
  0
LINE
  5
167CE
330
1F
100
AcDbEntity
  8
AM_0
100
AcDbLine
 10
95.75000000000006
 20
10.39791576165634
 30
0.0
 11
95.75000000000006
 21
5.60208423834364
 31
0.0
  0
LINE
  5
16820
330
1F
100
AcDbEntity
  8
AM_7
  6
AM_ISO08W050x2
100
AcDbLine
 10
-38.206023672968
 20
8.000000000000034
 30
0.0
 11
-57.19395193443364
 21
8.000000000000036
 31
0.0
1001
GENIUS_GENODEF_13
1002
{
1000
HIER
1070
     0
1002
}
1002
{
1000
MANEDIT
1070
     0
1002
}
1002
{
1000
NOSEL
1070
     0
1002
}
1002
{
1000
BEHIND
1070
     0
1002
}
1002
{
1000
REACTOR
1002
}
1001
GENIUS_GENOBJ-N-CEN_13
1002
{
1000
OWNER
1000
GEN
1002
}
  0
LINE
  5
1682C
330
1F
100
AcDbEntity
  8
AM_7
  6
AM_ISO08W050x2
100
AcDbLine
 10
-47.29199157953752
 20
-2.588845057297441
 30
0.0
 11
-47.29199157953752
 21
18.50552737384309
 31
0.0
1001
GENIUS_GENODEF_13
1002
{
1000
HIER
1070
     0
1002
}
1002
{
1000
MANEDIT
1070
     0
1002
}
1002
{
1000
NOSEL
1070
     0
1002
}
1002
{
1000
BEHIND
1070
     0
1002
}
1002
{
1000
REACTOR
1002
}
1001
GENIUS_GENOBJ-N-CEN_13
1002
{
1000
OWNER
1000
GEN
1002
}
  0
LINE
  5
16DE6
330
1F
100
AcDbEntity
  8
AM_5
100
AcDbLine
 10
0.0000000000001705
 20
-52.39678342114198
 30
0.0
 11
-7.426960639923721
 21
-51.74700856069543
 31
0.0
  0
DIMENSION
  5
16E08
330
1F
100
AcDbEntity
  8
AM_5
100
AcDbDimension
  2
*D3
 10
-1.300096829471329
 20
-52.39678342114198
 30
0.0
 11
-11.16247241801017
 21
-47.3950554813336
 31
0.0
 70
   162
  1
<>
 71
     5
 42
0.0872664625997088
  3
AM_JIS$2
100
AcDb2LineAngularDimension
 13
0.0000000000001705
 23
-52.39678342114198
 33
0.0
 14
-7.426960639923721
 24
-51.74700856069543
 34
0.0
 15
155.4588124887482
 25
-52.39678342114202
 35
0.0
 16
-12.22667198452518
 26
-52.04102360114519
 36
0.0
1001
GENIUS_GENDTOL_13
1000

1000
h7
1000

1040
0.0
  0
DIMENSION
  5
1748D
330
1F
100
AcDbEntity
  8
AM_5
100
AcDbDimension
  2
*D4
 10
16.99999999999989
 20
-73.12897295593413
 30
0.0
 11
8.500000000000028
 21
-69.72897295593413
 31
0.0
 70
    32
  1
<>
 71
     5
 42
16.99999999999972
  3
AM_JIS$0
100
AcDbAlignedDimension
 13
0.0000000000001705
 23
-52.39678342114198
 33
0.0
 14
16.99999999999989
 24
-57.89678342114198
 34
0.0
100
AcDbRotatedDimension
1001
GENIUS_GENDTOL_13
1000

1000
h7
1000

1040
0.0
1001
ACAD
1000
DSTYLE
1002
{
1070
   271
1070
     0
1002
}
  0
LINE
  5
182EC
330
1F
100
AcDbEntity
  8
AM_7
  6
AM_ISO08W050x2
100
AcDbLine
 10
3.409434899968971
 20
1.088325445406099
 30
0.0
 11
3.409434899968971
 21
9.338937080800463
 31
0.0
1001
GENIUS_GENODEF_13
1002
{
1000
HIER
1070
     0
1002
}
1002
{
1000
MANEDIT
1070
     0
1002
}
1002
{
1000
NOSEL
1070
     0
1002
}
1002
{
1000
BEHIND
1070
     0
1002
}
1002
{
1000
REACTOR
1002
}
1001
GENIUS_GENOBJ-N-CEN_13
1002
{
1000
OWNER
1000
GEN
1002
}
  0
LINE
  5
182F2
330
1F
100
AcDbEntity
  8
AM_7
  6
AM_ISO08W050x2
100
AcDbLine
 10
6.415695128978143
 20
5.054661720472325
 30
0.0
 11
-0.5011742566011321
 21
5.054661720472325
 31
0.0
1001
GENIUS_GENODEF_13
1002
{
1000
HIER
1070
     0
1002
}
1002
{
1000
MANEDIT
1070
     0
1002
}
1002
{
1000
NOSEL
1070
     0
1002
}
1002
{
1000
BEHIND
1070
     0
1002
}
1002
{
1000
REACTOR
1002
}
1001
GENIUS_GENOBJ-N-CEN_13
1002
{
1000
OWNER
1000
GEN
1002
}
  0
ARC
  5
182F3
330
1F
100
AcDbEntity
  8
AM_0
100
AcDbCircle
 10
4.222414361822018
 20
6.462783453911641
 30
0.0
 40
0.6
100
AcDbArc
 50
196.972215090063
 51
283.027784909935
  0
ARC
  5
182F4
330
1F
100
AcDbEntity
  8
AM_0
100
AcDbCircle
 10
4.222414361822018
 20
3.646539987033009
 30
0.0
 40
0.6
100
AcDbArc
 50
76.97221509006315
 51
163.0277849099371
  0
CIRCLE
  5
182F5
330
1F
100
AcDbEntity
  8
AM_0
100
AcDbCircle
 10
3.409434899968971
 20
5.054661720472325
 30
0.0
 40
1.803589838486232
  0
CIRCLE
  5
182F6
330
1F
100
AcDbEntity
  8
AM_0
100
AcDbCircle
 10
3.409434899968971
 20
5.054661720472325
 30
0.0
 40
2.15
  0
ARC
  5
182FC
330
1F
100
AcDbEntity
  8
AM_0
100
AcDbCircle
 10
1.783475976263105
 20
5.054661720472325
 30
0.0
 40
0.6
100
AcDbArc
 50
316.9722150900635
 51
43.02778490993651
  0
ARC
  5
182FD
330
1F
100
AcDbEntity
  8
AM_0
100
AcDbCircle
 10
2.596455438116038
 20
3.646539987033011
 30
0.0
 40
0.6
100
AcDbArc
 50
16.97221509006296
 51
103.0277849099349
  0
ARC
  5
182FE
330
1F
100
AcDbEntity
  8
AM_0
100
AcDbCircle
 10
3.409434899968971
 20
3.894661720472584
 30
0.0
 40
0.2499999999998634
100
AcDbArc
 50
196.9722150900682
 51
343.0277849099334
  0
ARC
  5
182FF
330
1F
100
AcDbEntity
  8
AM_0
100
AcDbCircle
 10
2.404845431579304
 20
4.474661720472511
 30
0.0
 40
0.2499999999998634
100
AcDbArc
 50
136.9722150900634
 51
283.0277849099369
  0
ARC
  5
18300
330
1F
100
AcDbEntity
  8
AM_0
100
AcDbCircle
 10
2.596455438116038
 20
6.462783453911754
 30
0.0
 40
0.6
100
AcDbArc
 50
256.9722150900631
 51
343.0277849099371
  0
ARC
  5
18301
330
1F
100
AcDbEntity
  8
AM_0
100
AcDbCircle
 10
2.404845431579304
 20
5.634661720472252
 30
0.0
 40
0.2499999999998634
100
AcDbArc
 50
76.97221509006819
 51
223.0277849099411
  0
ARC
  5
18302
330
1F
100
AcDbEntity
  8
AM_0
100
AcDbCircle
 10
3.409434899968971
 20
6.214661720472179
 30
0.0
 40
0.2499999999998634
100
AcDbArc
 50
16.97221509006815
 51
163.0277849099318
  0
ARC
  5
1830A
330
1F
100
AcDbEntity
  8
AM_0
100
AcDbCircle
 10
5.035393823674951
 20
5.054661720472325
 30
0.0
 40
0.6
100
AcDbArc
 50
136.9722150900634
 51
223.0277849099365
  0
ARC
  5
1830B
330
1F
100
AcDbEntity
  8
AM_0
100
AcDbCircle
 10
4.414024368358753
 20
4.474661720472511
 30
0.0
 40
0.2499999999998634
100
AcDbArc
 50
256.9722150900631
 51
43.02778490993651
  0
ARC
  5
1830C
330
1F
100
AcDbEntity
  8
AM_0
100
AcDbCircle
 10
4.414024368358753
 20
5.634661720472252
 30
0.0
 40
0.2499999999998634
100
AcDbArc
 50
316.9722150900681
 51
103.0277849099401
  0
LINE
  5
185C3
330
1F
100
AcDbEntity
  8
AM_0
100
AcDbLine
 10
25.24999999999994
 20
-46.89678342114198
 30
0.0
 11
149.4999999999999
 21
-46.89678342114202
 31
0.0
  0
LINE
  5
185C4
330
1F
100
AcDbEntity
  8
AM_0
100
AcDbLine
 10
25.24999999999994
 20
-57.896783421142
 30
0.0
 11
149.4999999999999
 21
-57.89678342114205
 31
0.0
  0
LINE
  5
185C5
330
1F
100
AcDbEntity
  8
AM_0
100
AcDbLine
 10
25.25
 20
2.000000000000025
 30
0.0
 11
90.75
 21
2.000000000000018
 31
0.0
  0
LINE
  5
185C6
330
1F
100
AcDbEntity
  8
AM_0
100
AcDbLine
 10
90.75
 20
10.39791576165637
 30
0.0
 11
25.25
 21
10.39791576165638
 31
0.0
  0
LINE
  5
185C7
330
1F
100
AcDbEntity
  8
AM_0
100
AcDbLine
 10
25.25
 20
5.602084238343675
 30
0.0
 11
90.75
 21
5.602084238343668
 31
0.0
  0
SPLINE
  5
185C8
330
1F
100
AcDbEntity
  8
AM_0
100
AcDbSpline
210
0.0
220
0.0
230
1.0
 70
     8
 71
     3
 72
    38
 73
    34
 74
     0
 42
0.0000000001
 43
0.0000000001
 40
-6.853580741132117
 40
-6.853580741132117
 40
-6.853580741132117
 40
-6.853580741132117
 40
-6.425067873996739
 40
-6.425067873996739
 40
-5.996555006861362
 40
-5.996555006861362
 40
-5.568042139725986
 40
-5.568042139725986
 40
-5.139529272590607
 40
-5.139529272590607
 40
-4.711344547084462
 40
-4.711344547084462
 40
-4.283159821578316
 40
-4.283159821578316
 40
-3.85497509607217
 40
-3.85497509607217
 40
-3.426790370566025
 40
-3.426790370566025
 40
-2.998605645059879
 40
-2.998605645059879
 40
-2.570420919553735
 40
-2.570420919553735
 40
-2.142236194047591
 40
-2.142236194047591
 40
-1.714051468541445
 40
-1.714051468541445
 40
-1.285538601406085
 40
-1.285538601406085
 40
-0.8570257342707226
 40
-0.8570257342707226
 40
-0.4285128671353604
 40
-0.4285128671353604
 40
0.0
 40
0.0
 40
0.0
 40
0.0
 10
41.96446668828622
 20
13.86835572572752
 30
0.0
 10
42.10730431066469
 20
13.86835572572752
 30
0.0
 10
42.25451058544462
 20
13.87152676188179
 30
0.0
 10
42.54637079608028
 20
13.88397702086777
 30
0.0
 10
42.6910303012362
 20
13.89323391681347
 30
0.0
 10
42.96771623540644
 20
13.91509515638381
 30
0.0
 10
43.0999896227475
 20
13.92766978114065
 30
0.0
 10
43.3442871855363
 20
13.95213290124212
 30
0.0
 10
43.45631267660929
 20
13.96396515429785
 30
0.0
 10
43.65452529375034
 20
13.98322812211827
 30
0.0
 10
43.74771969906647
 20
13.99138861079899
 30
0.0
 10
43.91243546896334
 20
14.0005474037178
 30
0.0
 10
43.98396937512996
 20
14.00150010003017
 30
0.0
 10
44.09922418986935
 20
13.99314303023825
 30
0.0
 10
44.14303666601893
 20
13.98379356877279
 30
0.0
 10
44.20066628599489
 20
13.95404447294183
 30
0.0
 10
44.21446668828622
 20
13.9336310171696
 30
0.0
 10
44.21446668828622
 20
13.88406201897694
 30
0.0
 10
44.20066628599489
 20
13.85336455401076
 30
0.0
 10
44.14303666601893
 20
13.78174547307079
 30
0.0
 10
44.09922418986935
 20
13.74083619471159
 30
0.0
 10
43.9839693751299
 20
13.65306230860107
 30
0.0
 10
43.91243546896334
 20
13.60615219116272
 30
0.0
 10
43.74771969906647
 20
13.51214301923789
 30
0.0
 10
43.65452529375034
 20
13.46508908037583
 30
0.0
 10
43.45631267660923
 20
13.37698759304112
 30
0.0
 10
43.34428718553625
 20
13.33278597357366
 30
0.0
 10
43.09998962274744
 20
13.25112898172261
 30
0.0
 10
42.96771623540644
 20
13.21372435896432
 30
0.0
 10
42.69103030123614
 20
13.15185077928069
 30
0.0
 10
42.54637079608028
 20
13.12737981910535
 30
0.0
 10
42.25451058544462
 20
13.09490960725389
 30
0.0
 10
42.10730431066469
 20
13.08693892622636
 30
0.0
 10
41.96446668828622
 20
13.08693892622636
 30
0.0
  0
ARC
  5
186E8
330
1F
100
AcDbEntity
  8
AM_0
100
AcDbCircle
 10
-47.29199157953752
 20
8.000000000000036
 30
0.0
 40
6.0
100
AcDbArc
 50
279.7377923275749
 51
336.4435356908993
  0
SPLINE
  5
186E9
330
1F
100
AcDbEntity
  8
AM_0
100
AcDbSpline
210
0.0
220
0.0
230
1.0
 70
     8
 71
     3
 72
    38
 73
    34
 74
     0
 42
0.0000000001
 43
0.0000000001
 40
-6.853580741132117
 40
-6.853580741132117
 40
-6.853580741132117
 40
-6.853580741132117
 40
-6.425067873996739
 40
-6.425067873996739
 40
-5.996555006861362
 40
-5.996555006861362
 40
-5.568042139725986
 40
-5.568042139725986
 40
-5.139529272590607
 40
-5.139529272590607
 40
-4.711344547084462
 40
-4.711344547084462
 40
-4.283159821578316
 40
-4.283159821578316
 40
-3.85497509607217
 40
-3.85497509607217
 40
-3.426790370566025
 40
-3.426790370566025
 40
-2.998605645059879
 40
-2.998605645059879
 40
-2.570420919553735
 40
-2.570420919553735
 40
-2.142236194047591
 40
-2.142236194047591
 40
-1.714051468541445
 40
-1.714051468541445
 40
-1.285538601406085
 40
-1.285538601406085
 40
-0.8570257342707226
 40
-0.8570257342707226
 40
-0.4285128671353604
 40
-0.4285128671353604
 40
0.0
 40
0.0
 40
0.0
 40
0.0
 10
-48.54195200943963
 20
13.86835572572753
 30
0.0
 10
-48.54195200943963
 20
13.86835572572753
 30
0.0
 10
-48.52735964740913
 20
13.8715267618818
 30
0.0
 10
-48.46662990455383
 20
13.88397702086778
 30
0.0
 10
-48.42051471610211
 20
13.89323391681348
 30
0.0
 10
-48.29967173364997
 20
13.91509515638382
 30
0.0
 10
-48.22485643062038
 20
13.92766978114066
 30
0.0
 10
-48.05331922863041
 20
13.95213290124213
 30
0.0
 10
-47.95659118722909
 20
13.96396515429786
 30
0.0
 10
-47.7519242400171
 20
13.98322812211828
 30
0.0
 10
-47.63676848490928
 20
13.991388610799
 30
0.0
 10
-47.38706763111367
 20
14.00054740371781
 30
0.0
 10
-47.25252913494109
 20
14.00150010003018
 30
0.0
 10
-46.97293459996553
 20
13.99314303023827
 30
0.0
 10
-46.82763643763104
 20
13.9837935687728
 30
0.0
 10
-46.53650128459839
 20
13.95404447294184
 30
0.0
 10
-46.39066239266907
 20
13.93363101716961
 30
0.0
 10
-46.10954263440254
 20
13.88406201897696
 30
0.0
 10
-45.96551709076397
 20
13.85336455401077
 30
0.0
 10
-45.68176474578803
 20
13.78174547307081
 30
0.0
 10
-45.54203143067792
 20
13.7408361947116
 30
0.0
 10
-45.27644022314149
 20
13.65306230860109
 30
0.0
 10
-45.15034123240577
 20
13.60615219116273
 30
0.0
 10
-44.9188316743568
 20
13.5121430192379
 30
0.0
 10
-44.81341171254911
 20
13.46508908037584
 30
0.0
 10
-44.62767601555021
 20
13.37698759304113
 30
0.0
 10
-44.54082825770814
 20
13.33278597357367
 30
0.0
 10
-44.38800289465138
 20
13.25112898172262
 30
0.0
 10
-44.3220002814341
 20
13.21372435896434
 30
0.0
 10
-44.21592200684125
 20
13.1518507792807
 30
0.0
 10
-44.17575394942509
 20
13.12737981910536
 30
0.0
 10
-44.12294489756454
 20
13.0949096072539
 30
0.0
 10
-44.11031712088465
 20
13.08693892622637
 30
0.0
 10
-44.11031712088465
 20
13.08693892622637
 30
0.0
  0
SPLINE
  5
186EA
330
1F
100
AcDbEntity
  8
AM_0
100
AcDbSpline
210
0.0
220
0.0
230
1.0
 70
     8
 71
     3
 72
    34
 73
    30
 74
     0
 42
0.0000000001
 43
0.0000000001
 40
3.295329461727505
 40
3.295329461727505
 40
3.295329461727505
 40
3.295329461727505
 40
3.97149285636488
 40
3.97149285636488
 40
4.979524734228132
 40
4.979524734228132
 40
5.396215247349039
 40
5.396215247349039
 40
5.812905760469945
 40
5.812905760469945
 40
6.22959627359085
 40
6.22959627359085
 40
6.646286786711757
 40
6.646286786711757
 40
7.062977299832664
 40
7.062977299832664
 40
7.47966781295357
 40
7.47966781295357
 40
7.896358326074477
 40
7.896358326074477
 40
8.313048839195384
 40
8.313048839195384
 40
9.321080717058635
 40
9.321080717058635
 40
10.32911259492189
 40
10.32911259492189
 40
11.33714447278514
 40
11.33714447278514
 40
12.34517635064839
 40
12.34517635064839
 40
12.34517635064839
 40
12.34517635064839
 10
-41.79199157953752
 20
6.322949016875191
 30
0.0
 10
-41.82762985132337
 20
6.206070939348115
 30
0.0
 10
-41.87167729274637
 20
6.074924235841571
 30
0.0
 10
-42.0081473819418
 20
5.720722588835264
 30
0.0
 10
-42.11380750169013
 20
5.484152221043565
 30
0.0
 10
-42.30671903688989
 20
5.132365634347173
 30
0.0
 10
-42.37095444706455
 20
5.022800721649765
 30
0.0
 10
-42.51442702754838
 20
4.797626043396725
 30
0.0
 10
-42.593690694342
 20
4.682030316662099
 30
0.0
 10
-42.76445369175843
 20
4.452556444858181
 30
0.0
 10
-42.85606983896122
 20
4.338555071294429
 30
0.0
 10
-43.046513533108
 20
4.119343249586088
 30
0.0
 10
-43.14534493169771
 20
4.014135738702983
 30
0.0
 10
-43.34263388825292
 20
3.818568886395816
 30
0.0
 10
-43.44870380466881
 20
3.720663633600147
 30
0.0
 10
-43.66957680995341
 20
3.532149074604213
 30
0.0
 10
-43.78437699544105
 20
3.441535891155219
 30
0.0
 10
-44.01533911700943
 20
3.272791239305469
 30
0.0
 10
-44.13162530097287
 20
3.194544039150465
 30
0.0
 10
-44.35804914083082
 20
3.053051064692319
 30
0.0
 10
-44.46817299073695
 20
2.989778671845592
 30
0.0
 10
-44.82163730152541
 20
2.799958641312664
 30
0.0
 10
-45.05912489350266
 20
2.696376579742328
 30
0.0
 10
-45.48453739771998
 20
2.536738667238559
 30
0.0
 10
-45.67227622271452
 20
2.480578126124932
 30
0.0
 10
-45.97799830433172
 20
2.399918572798846
 30
0.0
 10
-46.09609808468071
 20
2.375172240616827
 30
0.0
 10
-46.25241393174605
 20
2.344195296157302
 30
0.0
 10
-46.29055517829733
 20
2.337878036083033
 30
0.0
 10
-46.29055517829733
 20
2.337878036083033
 30
0.0
  0
ARC
  5
186EB
330
1F
100
AcDbEntity
  8
AM_0
100
AcDbCircle
 10
-41.79199157953752
 20
2.451568615782612
 30
0.0
 40
4.500000000000001
100
AcDbArc
 50
89.99999999999672
 51
186.3943405696541
  0
SPLINE
  5
186EC
330
1F
100
AcDbEntity
  8
AM_0
100
AcDbSpline
210
0.0
220
0.0
230
1.0
 70
     8
 71
     3
 72
    32
 73
    28
 74
     0
 42
0.0000000001
 43
0.0000000001
 40
0.9478057420834571
 40
0.9478057420834571
 40
0.9478057420834571
 40
0.9478057420834571
 40
1.910419763786555
 40
1.910419763786555
 40
2.873033785489653
 40
2.873033785489653
 40
3.835647807192752
 40
3.835647807192752
 40
4.79826182889585
 40
4.79826182889585
 40
5.188797093619547
 40
5.188797093619547
 40
5.579332358343244
 40
5.579332358343244
 40
5.969867623066941
 40
5.969867623066941
 40
6.360402887790637
 40
6.360402887790637
 40
6.750938152514333
 40
6.750938152514333
 40
7.14147341723803
 40
7.14147341723803
 40
7.532008681961727
 40
7.532008681961727
 40
7.922543946685424
 40
7.922543946685424
 40
8.121273903377482
 40
8.121273903377482
 40
8.121273903377482
 40
8.121273903377482
 10
-45.79090162102438
 20
13.55060617738742
 30
0.0
 10
-45.79090162102438
 20
13.55060617738742
 30
0.0
 10
-45.75615377083312
 20
13.54159083233905
 30
0.0
 10
-45.61339604617405
 20
13.50003125363205
 30
0.0
 10
-45.50546153038164
 20
13.4674310686915
 30
0.0
 10
-45.22599026331358
 20
13.36806624702982
 30
0.0
 10
-45.05438258098678
 20
13.30109396837927
 30
0.0
 10
-44.6657222023677
 20
13.1196875352413
 30
0.0
 10
-44.44885317363497
 20
13.0051948204004
 30
0.0
 10
-44.1279715074599
 20
12.8024449800503
 30
0.0
 10
-44.02939712775839
 20
12.73640772182734
 30
0.0
 10
-43.82692911616704
 20
12.59036194575018
 30
0.0
 10
-43.7230486103694
 20
12.51032972951047
 30
0.0
 10
-43.5169703435642
 20
12.33931375221355
 30
0.0
 10
-43.41466303197302
 20
12.24821507716445
 30
0.0
 10
-43.21808976823326
 20
12.06009015195477
 30
0.0
 10
-43.12382668608728
 20
11.96306041367692
 30
0.0
 10
-42.9487440718014
 20
11.77036437337143
 30
0.0
 10
-42.86116652334857
 20
11.6672601941499
 30
0.0
 10
-42.69268782685157
 20
11.45360869209788
 30
0.0
 10
-42.61178293238612
 20
11.34306389279787
 30
0.0
 10
-42.46124321380302
 20
11.12158588109208
 30
0.0
 10
-42.39150447066157
 20
11.01053263788834
 30
0.0
 10
-42.26547566402797
 20
10.79503460001746
 30
0.0
 10
-42.20916075623376
 20
10.69060060666636
 30
0.0
 10
-42.13462570001929
 20
10.5430660083685
 30
0.0
 10
-42.11070230615025
 20
10.49391415327506
 30
0.0
 10
-42.08793265844764
 20
10.44545920960156
 30
0.0
  0
ARC
  5
186ED
330
1F
100
AcDbEntity
  8
AM_0
100
AcDbCircle
 10
-41.29199157953752
 20
13.45156861578264
 30
0.0
 40
4.500000000000001
100
AcDbArc
 50
205.3391158533174
 51
237.0101590174718
  0
LINE
  5
186EE
330
1F
100
AcDbEntity
  8
AM_0
100
AcDbLine
 10
-49.533250518486
 20
9.895962953797074
 30
0.0
 11
-50.41790863507782
 21
1.095071501796674
 31
0.0
  0
LINE
  5
186EF
330
1F
100
AcDbEntity
  8
AM_0
100
AcDbLine
 10
-47.24822920378477
 20
0.4149630962399797
 30
0.0
 11
-46.28809995153569
 21
9.966668066165205
 31
0.0
  0
LINE
  5
186F0
330
1F
100
AcDbEntity
  8
AM_0
100
AcDbLine
 10
-50.3950367703988
 20
1.322608891178767
 30
0.0
 11
-49.49962345162311
 21
10.23049689381288
 31
0.0
  0
ARC
  5
186F1
330
1F
100
AcDbEntity
  8
AM_0
100
AcDbCircle
 10
-47.29199157953752
 20
8.000000000000036
 30
0.0
 40
7.25
100
AcDbArc
 50
185.9377724516052
 51
244.7637611536095
  0
LINE
  5
186F2
330
1F
100
AcDbEntity
  8
AM_0
100
AcDbLine
 10
-49.32379143203826
 20
0.6121397100336949
 30
0.0
 11
-47.32743723280936
 21
0.0001194746097113
 31
0.0
  0
LINE
  5
186F3
330
1F
100
AcDbEntity
  8
AM_0
100
AcDbLine
 10
-50.41790863507782
 20
1.095071501796731
 30
0.0
 11
-50.43382886295939
 21
1.466137552373802
 31
0.0
  0
LINE
  5
186F4
330
1F
100
AcDbEntity
  8
AM_0
100
AcDbLine
 10
-49.32379143170959
 20
0.6121397098886021
 30
0.0
 11
-50.41790863507782
 21
1.095071501796731
 31
0.0
  0
ELLIPSE
  5
186F5
330
1F
100
AcDbEntity
  8
AM_0
100
AcDbEllipse
 10
-47.28503287520238
 20
0.3978077514492853
 30
0.0
 11
0.04182099614467716
 21
0.3978077478901925
 31
0.0
210
0.0
220
0.0
230
0.9999999999999999
 40
0.0871399605893628
 41
3.124588863781943
 42
4.764685911013207
  0
SPLINE
  5
186F6
330
1F
100
AcDbEntity
  8
AM_0
100
AcDbSpline
210
0.0
220
0.0
230
1.0
 70
     8
 71
     3
 72
     8
 73
     4
 74
     0
 42
0.0000000001
 43
0.0000000001
 40
17.90180091936454
 40
17.90180091936454
 40
17.90180091936454
 40
17.90180091936454
 40
18.52501095656811
 40
18.52501095656811
 40
18.52501095656811
 40
18.52501095656811
 10
-47.17311832965976
 20
1.162192605018966
 30
0.0
 10
-47.07872971138573
 20
1.269296107686309
 30
0.0
 10
-46.97772586794571
 20
1.370436544630287
 30
0.0
 10
-46.87047369032911
 20
1.464939001411644
 30
0.0
  0
ELLIPSE
  5
186F7
330
1F
100
AcDbEntity
  8
AM_0
100
AcDbEllipse
 10
-48.05233664555152
 20
-7.299999999999947
 30
0.0
 11
-4.278909710015418
 21
-9.877856821866509
 31
0.0
210
0.0
220
0.0
230
1.0
 40
0.3641549892930422
 41
3.687704216673207
 42
3.800314872565307
  0
ARC
  5
186F8
330
1F
100
AcDbEntity
  8
AM_0
100
AcDbCircle
 10
-47.29199157953752
 20
6.500000000000035
 30
0.0
 40
7.25
100
AcDbArc
 50
137.6483052611878
 51
174.0622275483947
  0
SPLINE
  5
186F9
330
1F
100
AcDbEntity
  8
AM_0
100
AcDbSpline
210
0.0
220
0.0
230
1.0
 70
     8
 71
     3
 72
    12
 73
     8
 74
     0
 42
0.0000000001
 43
0.0000000001
 40
5.30401762689339
 40
5.30401762689339
 40
5.30401762689339
 40
5.30401762689339
 40
5.834336246707146
 40
5.834336246707146
 40
6.460128205226086
 40
6.460128205226086
 40
6.717945060765513
 40
6.717945060765513
 40
6.717945060765513
 40
6.717945060765513
 10
-46.29216721948279
 20
5.314415002091528
 30
0.0
 10
-46.35395996287519
 20
5.138030900218303
 30
0.0
 10
-46.42861909868628
 20
4.964286821863488
 30
0.0
 10
-46.5880924836751
 20
4.63317501074929
 30
0.0
 10
-46.68505055782924
 20
4.457695019142171
 30
0.0
 10
-46.81430618107601
 20
4.248908569888392
 30
0.0
 10
-46.85105523593853
 20
4.192673361946482
 30
0.0
 10
-46.88619054840143
 20
4.141668219786091
 30
0.0
  0
SPLINE
  5
186FA
330
1F
100
AcDbEntity
  8
AM_0
100
AcDbSpline
210
0.0
220
0.0
230
1.0
 70
     8
 71
     3
 72
    12
 73
     8
 74
     0
 42
0.0000000001
 43
0.0000000001
 40
3.126492097424567
 40
3.126492097424567
 40
3.126492097424567
 40
3.126492097424567
 40
3.535329285491494
 40
3.535329285491494
 40
3.826796849520467
 40
3.826796849520467
 40
4.097168923251178
 40
4.097168923251178
 40
4.097168923251178
 40
4.097168923251178
 10
-46.34987102607619
 20
6.739516521248766
 30
0.0
 10
-46.30652036606324
 20
6.727961192051772
 30
0.0
 10
-46.26696136035133
 20
6.698688673488397
 30
0.0
 10
-46.21079592757229
 20
6.624873578543748
 30
0.0
 10
-46.1891859461162
 20
6.58502481875525
 30
0.0
 10
-46.15475626464416
 20
6.490640063409763
 30
0.0
 10
-46.14142164959634
 20
6.437388982771956
 30
0.0
 10
-46.13247586659389
 20
6.377394687520229
 30
0.0
  0
ELLIPSE
  5
186FB
330
1F
100
AcDbEntity
  8
AM_0
100
AcDbEllipse
 10
-36.97667454901892
 20
6.019722549120336
 30
0.0
 11
9.963986031941829
 21
-0.9863756958181992
 31
0.0
210
0.0
220
0.0
230
1.0
 40
0.0599756715792149
 41
3.403112164635607
 42
3.49366501070344
  0
ELLIPSE
  5
186FC
330
1F
100
AcDbEntity
  8
AM_0
100
AcDbEllipse
 10
-46.95717527039886
 20
5.297157414667658
 30
0.0
 11
-0.6198736547275312
 21
-1.431770022651241
 31
0.0
210
0.0
220
0.0
230
1.0
 40
0.3931395217128362
 41
1.751270071800664
 42
2.578095086526532
  0
LINE
  5
186FD
330
1F
100
AcDbEntity
  8
AM_0
100
AcDbLine
 10
-48.36366217943777
 20
10.1638446800393
 30
0.0
 11
-49.533250518486
 21
9.895962953797074
 31
0.0
  0
LINE
  5
186FE
330
1F
100
AcDbEntity
  8
AM_0
100
AcDbLine
 10
-49.49962345162311
 20
10.23049689381285
 30
0.0
 11
-47.96987831300561
 21
10.25403667185757
 31
0.0
  0
LINE
  5
186FF
330
1F
100
AcDbEntity
  8
AM_0
100
AcDbLine
 10
-46.19679687632441
 20
11.00000000000004
 30
0.0
 11
-52.64991248319274
 21
11.3841768590188
 31
0.0
  0
ARC
  5
18700
330
1F
100
AcDbEntity
  8
AM_0
100
AcDbCircle
 10
-47.29199157953752
 20
8.000000000000036
 30
0.0
 40
6.0
100
AcDbArc
 50
102.0243128370406
 51
127.3316239817983
  0
ARC
  5
18701
330
1F
100
AcDbEntity
  8
AM_0
100
AcDbCircle
 10
-47.29199157953752
 20
6.500000000000035
 30
0.0
 40
7.25
100
AcDbArc
 50
90.0
 51
137.6483052611878
  0
LINE
  5
18702
330
1F
100
AcDbEntity
  8
AM_0
100
AcDbLine
 10
-48.36366217941117
 20
10.1638446799922
 30
0.0
 11
-46.28367807963679
 21
10.34732492538272
 31
0.0
  0
ELLIPSE
  5
18703
330
1F
100
AcDbEntity
  8
AM_0
100
AcDbEllipse
 10
-46.32490362295329
 20
9.949512721374425
 30
0.0
 11
0.04182099614467716
 21
0.3978077478901925
 31
0.0
210
0.0
220
0.0
230
0.9999999999999999
 40
0.0871399605893628
 41
4.76468591101342
 42
6.300189096987289
  0
LINE
  5
18704
330
1F
100
AcDbEntity
  8
AM_0
100
AcDbLine
 10
-47.9698783130055
 20
10.2540366718576
 30
0.0
 11
-47.98363502253091
 21
10.19736776125374
 31
0.0
  0
LINE
  5
18705
330
1F
100
AcDbEntity
  8
AM_0
100
AcDbLine
 10
-47.9698783130055
 20
10.2540366718576
 30
0.0
 11
-46.21890144686921
 21
10.65507923516876
 31
0.0
  0
LINE
  5
18706
330
1F
100
AcDbEntity
  8
AM_0
100
AcDbLine
 10
-46.21890144686921
 20
10.65507923516874
 30
0.0
 11
-46.29382795578152
 21
10.34642958115104
 31
0.0
  0
LINE
  5
18707
330
1F
100
AcDbEntity
  8
AM_0
100
AcDbLine
 10
-46.21890144686921
 20
10.65507923516876
 30
0.0
 11
-46.19679687632441
 21
11.00000000000001
 31
0.0
  0
LINE
  5
18708
330
1F
100
AcDbEntity
  8
AM_0
100
AcDbLine
 10
-46.21963933272554
 20
11.48381269241691
 30
0.0
 11
-46.19679687632441
 21
11.00000000000001
 31
0.0
  0
ARC
  5
18709
330
1F
100
AcDbEntity
  8
AM_0
100
AcDbCircle
 10
-47.29199157953752
 20
8.000000000000036
 30
0.0
 40
5.75
100
AcDbArc
 50
74.86708395626224
 51
90.0
  0
SPLINE
  5
1870A
330
1F
100
AcDbEntity
  8
AM_0
100
AcDbSpline
210
0.0
220
0.0
230
1.0
 70
    28
 71
     2
 72
     6
 73
     3
 74
     0
 42
0.0000000001
 43
0.0000000001
 40
0.0454349538280617
 40
0.0454349538280617
 40
0.0454349538280617
 40
0.3684419925851867
 40
0.3684419925851867
 40
0.3684419925851867
 10
-48.58326081562511
 20
13.6340818442136
 30
0.0
 41
1.000057380581418
 10
-48.56299186189591
 20
13.74903279300822
 30
0.0
 41
1.00023265585163
 10
-48.54195200943963
 20
13.86835572572753
 30
0.0
 41
1.0
  0
ELLIPSE
  5
1870B
330
1F
100
AcDbEntity
  8
AM_0
100
AcDbEllipse
 10
-36.13323058540817
 20
11.63407663214819
 30
0.0
 11
-10.08915179358822
 21
-0.04384109700529999
 31
0.0
210
0.0
220
0.0
230
1.0
 40
0.4961774720074063
 41
5.982509877711088
 42
6.304447904789424
  0
SPLINE
  5
1870C
330
1F
100
AcDbEntity
  8
AM_0
100
AcDbSpline
210
0.0
220
0.0
230
1.0
 70
     8
 71
     3
 72
    14
 73
    10
 74
     0
 42
0.0000000001
 43
0.0000000001
 40
4.235985853635321
 40
4.235985853635321
 40
4.235985853635321
 40
4.235985853635321
 40
4.791353658695857
 40
4.791353658695857
 40
5.989192073369821
 40
5.989192073369821
 40
7.187030488043785
 40
7.187030488043785
 40
7.722212935958389
 40
7.722212935958389
 40
7.722212935958389
 40
7.722212935958389
 10
-45.35904919673277
 20
11.5256811999627
 30
0.0
 10
-45.39772087231432
 20
11.60734741339332
 30
0.0
 10
-45.43350739522265
 20
11.6892774990887
 30
0.0
 10
-45.53775882323811
 20
11.94828939583872
 30
0.0
 10
-45.59582325145101
 20
12.12478565755777
 30
0.0
 10
-45.68914552496148
 20
12.47773224719902
 30
0.0
 10
-45.72443591274936
 20
12.65399027191987
 30
0.0
 10
-45.76039036839592
 20
12.91310902551158
 30
0.0
 10
-45.76934356820215
 20
12.99330038257842
 30
0.0
 10
-45.77619188971943
 20
13.07480930512978
 30
0.0
  0
ARC
  5
1870D
330
1F
100
AcDbEntity
  8
AM_0
100
AcDbCircle
 10
-41.29199157953752
 20
13.45156861578264
 30
0.0
 40
4.5
100
AcDbArc
 50
178.7389127826222
 51
184.802670641531
  0
LINE
  5
1870E
330
1F
100
AcDbEntity
  8
AM_0
100
AcDbLine
 10
25.24999999999994
 20
-57.89678342114203
 30
0.0
 11
25.24999999999994
 21
-46.89678342114198
 31
0.0
  0
LINE
  5
1870F
330
1F
100
AcDbEntity
  8
AM_0
100
AcDbLine
 10
24.99999999999994
 20
-57.89678342114203
 30
0.0
 11
24.99999999999994
 21
-46.89678342114198
 31
0.0
  0
SPLINE
  5
18710
330
1F
100
AcDbEntity
  8
AM_0
100
AcDbSpline
210
0.0
220
0.0
230
1.0
 70
     8
 71
     3
 72
    34
 73
    30
 74
     0
 42
0.0000000001
 43
0.0000000001
 40
3.295329461727505
 40
3.295329461727505
 40
3.295329461727505
 40
3.295329461727505
 40
3.97149285636488
 40
3.97149285636488
 40
4.979524734228132
 40
4.979524734228132
 40
5.396215247349039
 40
5.396215247349039
 40
5.812905760469945
 40
5.812905760469945
 40
6.22959627359085
 40
6.22959627359085
 40
6.646286786711757
 40
6.646286786711757
 40
7.062977299832664
 40
7.062977299832664
 40
7.47966781295357
 40
7.47966781295357
 40
7.896358326074477
 40
7.896358326074477
 40
8.313048839195384
 40
8.313048839195384
 40
9.321080717058635
 40
9.321080717058635
 40
10.32911259492189
 40
10.32911259492189
 40
11.33714447278514
 40
11.33714447278514
 40
12.34517635064839
 40
12.34517635064839
 40
12.34517635064839
 40
12.34517635064839
 10
22.2584618432432
 20
-46.89678342114198
 30
0.0
 10
22.45570702785409
 20
-46.93242169292788
 30
0.0
 10
22.64168147809988
 20
-46.97646913435088
 30
0.0
 10
23.06812074421259
 20
-47.11293922354642
 30
0.0
 10
23.29054159761347
 20
-47.21859934329464
 30
0.0
 10
23.54464479721679
 20
-47.41151087849445
 30
0.0
 10
23.61484095997423
 20
-47.47574628866917
 30
0.0
 10
23.73882311506708
 20
-47.619218869153
 30
0.0
 10
23.79260394082473
 20
-47.69848253594651
 30
0.0
 10
23.8788862929672
 20
-47.86924553336289
 30
0.0
 10
23.91143423113977
 20
-47.96086168056579
 30
0.0
 10
23.95398240429745
 20
-48.15130537471251
 30
0.0
 10
23.96398053234799
 20
-48.2501367733023
 30
0.0
 10
23.96398053234799
 20
-48.44742572985754
 30
0.0
 10
23.95398240429745
 20
-48.55349564627326
 30
0.0
 10
23.91143423113977
 20
-48.77436865155798
 30
0.0
 10
23.8788862929672
 20
-48.8891688370455
 30
0.0
 10
23.79260394082473
 20
-49.120130958614
 30
0.0
 10
23.73882311506708
 20
-49.23641714257738
 30
0.0
 10
23.61484095997423
 20
-49.46284098243538
 30
0.0
 10
23.54464479721679
 20
-49.57296483234151
 30
0.0
 10
23.29054159761347
 20
-49.92642914312989
 30
0.0
 10
23.06812074421259
 20
-50.16391673510714
 30
0.0
 10
22.55765217654351
 20
-50.58932923932454
 30
0.0
 10
22.26948215076368
 20
-50.77706806431905
 30
0.0
 10
21.65124667518501
 20
-51.08279014593629
 30
0.0
 10
21.32064263338185
 20
-51.20088992628521
 30
0.0
 10
20.64526461981706
 20
-51.3572057733505
 30
0.0
 10
20.30047731008409
 20
-51.39534701990189
 30
0.0
 10
19.96446668412972
 20
-51.39534701990189
 30
0.0
  0
ELLIPSE
  5
18711
330
1F
100
AcDbEntity
  8
AM_0
100
AcDbEllipse
 10
23.36339378385748
 20
-46.89678342114198
 30
0.0
 11
11.34630803852426
 21
4.290661146984242
 31
0.0
210
0.0
220
0.0
230
1.0
 40
0.1195586823406185
 41
1.877015100236848
 42
3.55941372346609
  0
ELLIPSE
  5
18712
330
1F
100
AcDbEntity
  8
AM_0
100
AcDbEllipse
 10
12.80734514941577
 20
-47.20931686823485
 30
0.0
 11
4.056298083425956
 21
1.711704627746534
 31
0.0
210
0.0
220
0.0
230
1.0
 40
0.3200107055662957
 41
4.494292823736707
 42
5.368931927321553
  0
SPLINE
  5
18713
330
1F
100
AcDbEntity
  8
AM_0
100
AcDbSpline
210
0.0
220
0.0
230
1.0
 70
     8
 71
     3
 72
    12
 73
     8
 74
     0
 42
0.0000000001
 43
0.0000000001
 40
34.68553240501407
 40
34.68553240501407
 40
34.68553240501407
 40
34.68553240501407
 40
35.97540542590976
 40
35.97540542590976
 40
37.67375468524779
 40
37.67375468524779
 40
38.74882144836005
 40
38.74882144836005
 40
38.74882144836005
 40
38.74882144836005
 10
11.07066368669342
 20
-52.58766801608019
 30
0.0
 10
10.6268197067651
 20
-52.70474827729575
 30
0.0
 10
10.175548351597
 20
-52.79482191164075
 30
0.0
 10
9.133563666283351
 20
-52.94305704478873
 30
0.0
 10
8.543889968221606
 20
-52.98180023451371
 30
0.0
 10
7.61941796073819
 20
-52.98180023451371
 30
0.0
 10
7.252205710074861
 20
-52.96641142241455
 30
0.0
 10
6.880562948786178
 20
-52.93397702397994
 30
0.0
  0
LINE
  5
18714
330
1F
100
AcDbEntity
  8
AM_0
100
AcDbLine
 10
3.526699380528669
 20
-59.60788597206995
 30
0.0
 11
15.49999999999994
 21
-59.60788597206997
 31
0.0
  0
ELLIPSE
  5
18715
330
1F
100
AcDbEntity
  8
AM_0
100
AcDbEllipse
 10
14.99163946829134
 20
-46.39678342114198
 30
0.0
 11
11.34630803852426
 21
4.290661146984242
 31
0.0
210
0.0
220
0.0
230
1.0
 40
0.1195586823406185
 41
3.890062428216452
 42
4.442826408972186
  0
ELLIPSE
  5
18716
330
1F
100
AcDbEntity
  8
AM_0
100
AcDbEllipse
 10
3.409434899968915
 20
-52.16508556114198
 30
0.0
 11
-1.494231419791237
 21
0.13142474694161
 31
0.0
210
0.0
220
0.0
230
0.9999999999999999
 40
0.1041547809193259
 41
0.701270129771822
 42
6.984455436951406
  0
LINE
  5
18717
330
1F
100
AcDbEntity
  8
AM_0
100
AcDbLine
 10
0.3580501412785679
 20
-55.52270047668236
 30
0.0
 11
2.731745648755179
 21
-55.60224159137479
 31
0.0
  0
LINE
  5
18718
330
1F
100
AcDbEntity
  8
AM_0
100
AcDbLine
 10
5.801399546210632
 20
-52.61781167400014
 30
0.0
 11
0.5794062024911568
 21
-52.44282580484907
 31
0.0
  0
LINE
  5
18719
330
1F
100
AcDbEntity
  8
AM_0
100
AcDbLine
 10
1.116067948932823
 20
-51.41349804793336
 30
0.0
 11
7.788156023262104
 21
-52.44860809418529
 31
0.0
  0
SPLINE
  5
1871A
330
1F
100
AcDbEntity
  8
AM_0
100
AcDbSpline
210
0.0
220
0.0
230
1.0
 70
     8
 71
     3
 72
    52
 73
    48
 74
     0
 42
0.0000000001
 43
0.0000000001
 40
0.7860347365527903
 40
0.7860347365527903
 40
0.7860347365527903
 40
0.7860347365527903
 40
0.8501697661481331
 40
0.8501697661481331
 40
1.133559688197511
 40
1.133559688197511
 40
1.427109248280925
 40
1.427109248280925
 40
1.72065880836434
 40
1.72065880836434
 40
2.014208368447755
 40
2.014208368447755
 40
2.30775792853117
 40
2.30775792853117
 40
2.93708443926056
 40
2.93708443926056
 40
3.566410949989951
 40
3.566410949989951
 40
4.168162331202281
 40
4.168162331202281
 40
4.469038021808446
 40
4.469038021808446
 40
4.769913712414612
 40
4.769913712414612
 40
5.050353374166669
 40
5.050353374166669
 40
5.330793035918726
 40
5.330793035918726
 40
5.611232697670783
 40
5.611232697670783
 40
5.89167235942284
 40
5.89167235942284
 40
6.527463565151139
 40
6.527463565151139
 40
7.16325477087944
 40
7.16325477087944
 40
7.463728679575398
 40
7.463728679575398
 40
7.764202588271358
 40
7.764202588271358
 40
8.064676496967316
 40
8.064676496967316
 40
8.365150405663275
 40
8.365150405663275
 40
8.648334946360649
 40
8.648334946360649
 40
8.706571174240319
 40
8.706571174240319
 40
8.706571174240319
 40
8.706571174240319
 10
1.959354455589221
 20
-59.60788597206995
 30
0.0
 10
1.940312365897114
 20
-59.60664952910203
 30
0.0
 10
1.921593966493447
 20
-59.60534060615377
 30
0.0
 10
1.822082987585134
 20
-59.59783894093512
 30
0.0
 10
1.747922974027119
 20
-59.59021427398632
 30
0.0
 10
1.615145392952968
 20
-59.57152025375628
 30
0.0
 10
1.552816561827967
 20
-59.55973755750621
 30
0.0
 10
1.445146683597443
 20
-59.53075674039387
 30
0.0
 10
1.399798701139332
 20
-59.51353778471973
 30
0.0
 10
1.329331357011881
 20
-59.47366223988705
 30
0.0
 10
1.304139624015988
 20
-59.45095515560881
 30
0.0
 10
1.273876409583579
 20
-59.40123891460827
 30
0.0
 10
1.268798536195504
 20
-59.37422637908038
 30
0.0
 10
1.279113310268372
 20
-59.28663935301707
 30
0.0
 10
1.326877337043754
 20
-59.21380716809041
 30
0.0
 10
1.497818009686796
 20
-59.06124897253035
 30
0.0
 10
1.62079719756531
 20
-58.98184079860734
 30
0.0
 10
1.894922184615268
 20
-58.84800915428589
 30
0.0
 10
2.064575052658427
 20
-58.78299670347458
 30
0.0
 10
2.347998788810344
 20
-58.7134946898188
 30
0.0
 10
2.447261169227772
 20
-58.69492644658887
 30
0.0
 10
2.648936871252829
 20
-58.66998087866195
 30
0.0
 10
2.751358717869437
 20
-58.66363321837387
 30
0.0
 10
2.945130501988899
 20
-58.66363321837387
 30
0.0
 10
3.040956989554786
 20
-58.66916575354456
 30
0.0
 10
3.229508871951168
 20
-58.69176836462238
 30
0.0
 10
3.322238720655491
 20
-58.70882062581573
 30
0.0
 10
3.497930200109465
 20
-58.75207488814148
 30
0.0
 10
3.581105993466395
 20
-58.77829260363505
 30
0.0
 10
3.733267988322552
 20
-58.83588008902048
 30
0.0
 10
3.802264273324965
 20
-58.86722226564667
 30
0.0
 10
3.999968978405093
 20
-58.97020385838916
 30
0.0
 10
4.113241714131448
 20
-59.05333153830237
 30
0.0
 10
4.258655533452668
 20
-59.21140009967341
 30
0.0
 10
4.290640903711619
 20
-59.28602581082298
 30
0.0
 10
4.280176483370667
 20
-59.37488354543412
 30
0.0
 10
4.268158975909842
 20
-59.40233058513114
 30
0.0
 10
4.224345058764243
 20
-59.45258294157948
 30
0.0
 10
4.192546077633949
 20
-59.47539367830656
 30
0.0
 10
4.109837469184583
 20
-59.51529665796734
 30
0.0
 10
4.058854580796549
 20
-59.5324349953146
 30
0.0
 10
3.941208508490661
 20
-59.56119330859092
 30
0.0
 10
3.874536160519313
 20
-59.572833658812
 30
0.0
 10
3.736147737060719
 20
-59.59104418836681
 30
0.0
 10
3.660500554495513
 20
-59.59843493918329
 30
0.0
 10
3.56133552774935
 20
-59.60561330641524
 30
0.0
 10
3.544144728314507
 20
-59.60677836981164
 30
0.0
 10
3.526699380528669
 20
-59.60788597206995
 30
0.0
  0
ELLIPSE
  5
1871B
330
1F
100
AcDbEntity
  8
AM_0
100
AcDbEllipse
 10
-27.07826312885055
 20
-52.39678342114198
 30
0.0
 11
82.88297664988029
 21
-7.21086176816803
 31
0.0
210
0.0
220
0.0
230
1.0
 40
0.0090767912628434
 41
5.056648999664438
 42
5.080999537175449
  0
LINE
  5
1871C
330
1F
100
AcDbEntity
  8
AM_0
100
AcDbLine
 10
0.5372065353288917
 20
-51.32369328847366
 30
0.0
 11
2.337554826239739
 21
-51.60299994358877
 31
0.0
  0
SPLINE
  5
1871D
330
1F
100
AcDbEntity
  8
AM_0
100
AcDbSpline
210
0.0
220
0.0
230
1.0
 70
     8
 71
     3
 72
    17
 73
    13
 74
     0
 42
0.0000000001
 43
0.0000000001
 40
-0.7863607680187054
 40
-0.7863607680187054
 40
-0.7863607680187054
 40
-0.7863607680187054
 40
-0.5663424945402777
 40
-0.5663424945402777
 40
-0.2831712472701398
 40
-0.2831712472701398
 40
0.0
 40
0.0
 40
0.0
 40
0.5668904865987717
 40
0.5668904865987717
 40
0.7870174136825566
 40
0.7870174136825566
 40
0.7870174136825566
 40
0.7870174136825566
 10
3.526699380528669
 20
-59.60788597206995
 30
0.0
 10
3.460612966176825
 20
-59.60373506065771
 30
0.0
 10
3.390869810576305
 20
-59.59974845167342
 30
0.0
 10
3.226174807196117
 20
-59.59174096197025
 30
0.0
 10
3.129557427087377
 20
-59.58805013283536
 30
0.0
 10
2.935313630004032
 20
-59.58313641347742
 30
0.0
 10
2.837685889565023
 20
-59.58191767482579
 30
0.0
 10
2.743295473808303
 20
-59.58191767482579
 30
0.0
 10
2.554331978275343
 20
-59.58191767482579
 30
0.0
 10
2.352724212720773
 20
-59.58723968322657
 30
0.0
 10
2.09517879404217
 20
-59.59975133479965
 30
0.0
 10
2.025430917154722
 20
-59.60373519629358
 30
0.0
 10
1.959354455589221
 20
-59.60788597206995
 30
0.0
  0
ELLIPSE
  5
1871E
330
1F
100
AcDbEntity
  8
AM_0
100
AcDbEllipse
 10
1.646984162395086
 20
-41.23802242701274
 30
0.0
 11
-0.2188593717318798
 21
-10.0874222390558
 31
0.0
210
0.0
220
0.0
230
1.0
 40
0.8593110488339567
 41
6.278408317542907
 42
6.600346344621244
  0
LINE
  5
1871F
330
1F
100
AcDbEntity
  8
AM_0
100
AcDbLine
 10
0.2191599377698026
 20
-54.42858327326604
 30
0.0
 11
0.0000249794083516
 21
-52.35563020286941
 31
0.0
  0
LINE
  5
18720
330
1F
100
AcDbEntity
  8
AM_0
100
AcDbLine
 10
0.2191599377678699
 20
-54.42858327331405
 30
0.0
 11
0.3580501412786248
 21
-55.52270047668236
 31
0.0
  0
ELLIPSE
  5
18721
330
1F
100
AcDbEntity
  8
AM_0
100
AcDbEllipse
 10
0.4703956389202517
 20
-52.39678342114198
 30
0.0
 11
0.7234273916491613
 21
-7.249862211111465
 31
0.0
210
0.0
220
0.0
230
0.9999999999999999
 40
0.0617865701077246
 41
5.152079328438318
 42
6.173386333813551
  0
LINE
  5
18722
330
1F
100
AcDbEntity
  8
AM_0
100
AcDbLine
 10
1.14038161771424
 20
-59.60788597206995
 30
0.0
 11
1.959354455589221
 21
-59.60788597206995
 31
0.0
  0
LINE
  5
18723
330
1F
100
AcDbEntity
  8
AM_0
100
AcDbLine
 10
0.0005447888872254
 20
-52.35302104538937
 30
0.0
 11
0.5011284347277751
 21
-51.39289179314025
 31
0.0
  0
ELLIPSE
  5
18724
330
1F
100
AcDbEntity
  8
AM_0
100
AcDbEllipse
 10
0.3984784314902186
 20
-52.38982471680694
 30
0.0
 11
-0.3984617119443303
 21
0.03504659918442506
 31
0.0
210
0.0
220
0.0
230
1.0
 40
0.1041547809193259
 41
6.24004902772677
 42
8.334444130119794
  0
ELLIPSE
  5
18725
330
1F
100
AcDbEntity
  8
AM_0
100
AcDbEllipse
 10
0.8990620773308251
 20
-51.42969546455785
 30
0.0
 11
-0.3984617119443303
 21
0.03504659918442506
 31
0.0
210
0.0
220
0.0
230
1.0
 40
0.1041547809193259
 41
4.145653925333587
 42
6.240049027726556
  0
LINE
  5
18726
330
1F
100
AcDbEntity
  8
AM_0
100
AcDbLine
 10
0.5420044514985989
 20
-51.38006750014924
 30
0.0
 11
0.5372065353288917
 21
-51.32369328847366
 31
0.0
  0
LINE
  5
18727
330
1F
100
AcDbEntity
  8
AM_0
100
AcDbLine
 10
0.5372065353288917
 20
-51.32369328847366
 30
0.0
 11
0.5487312196223115
 21
-51.30158871792898
 31
0.0
  0
LINE
  5
18728
330
1F
100
AcDbEntity
  8
AM_0
100
AcDbLine
 10
1.38671938423505
 20
-51.32443117433004
 30
0.0
 11
0.5487312196222547
 21
-51.30158871792898
 31
0.0
  0
ELLIPSE
  5
18729
330
1F
100
AcDbEntity
  8
AM_0
100
AcDbEllipse
 10
3.308555125057239
 20
-52.39678342114198
 30
0.0
 11
0.6717630806057674
 21
7.249943136736713
 31
0.0
210
0.0
220
0.0
230
1.0
 40
0.0427447624145483
 41
1.601761962250391
 42
2.047321723623121
  0
ELLIPSE
  5
1872A
330
1F
100
AcDbEntity
  8
AM_0
100
AcDbEllipse
 10
7.551910451390597
 20
-42.96800426795269
 30
0.0
 11
-5.69124554276599
 21
-8.395165065773515
 31
0.0
210
0.0
220
0.0
230
1.0
 40
0.8376788922943848
 41
0.485653867405283
 42
0.7191408763559573
  0
ELLIPSE
  5
1872B
330
1F
100
AcDbEntity
  8
AM_0
100
AcDbEllipse
 10
9.414753146258306
 20
-52.39678342114198
 30
0.0
 11
82.88297664988126
 21
-7.210861768168032
 31
0.0
210
0.0
220
0.0
230
0.9999999999999999
 40
0.0090767912628434
 41
4.635439775802843
 42
4.682598388241562
  0
ELLIPSE
  5
1872C
330
1F
100
AcDbEntity
  8
AM_0
100
AcDbEllipse
 10
1.450923506885431
 20
-41.18058201926598
 30
0.0
 11
16.4954986681734
 21
-4.817028936049785
 31
0.0
210
0.0
220
0.0
230
1.0
 40
0.5819210861218505
 41
4.933729150135872
 42
5.20107835152994
  0
SPLINE
  5
1872D
330
1F
100
AcDbEntity
  8
AM_0
100
AcDbSpline
210
0.0
220
0.0
230
1.0
 70
     8
 71
     3
 72
    14
 73
    10
 74
     0
 42
0.0000000001
 43
0.0000000001
 40
4.235985853635321
 40
4.235985853635321
 40
4.235985853635321
 40
4.235985853635321
 40
4.791353658695857
 40
4.791353658695857
 40
5.989192073369821
 40
5.989192073369821
 40
7.187030488043785
 40
7.187030488043785
 40
7.722212935958389
 40
7.722212935958389
 40
7.722212935958389
 40
7.722212935958389
 10
7.026943234424266
 20
-50.46384103833728
 30
0.0
 10
6.864351037802464
 20
-50.50251271391883
 30
0.0
 10
6.702303494626733
 20
-50.53829923682716
 30
0.0
 10
6.193808563424398
 20
-50.64255066484262
 30
0.0
 10
5.852657274545493
 20
-50.70061509305546
 30
0.0
 10
5.18749463540837
 20
-50.7939373665661
 30
0.0
 10
4.86338582938248
 20
-50.82922775435398
 30
0.0
 10
4.41189512939485
 20
-50.86518221000048
 30
0.0
 10
4.275654728899724
 20
-50.8741354098066
 30
0.0
 10
4.142406352123714
 20
-50.88098373132399
 30
0.0
  0
LINE
  5
1872E
330
1F
100
AcDbEntity
  8
AM_0
100
AcDbLine
 10
5.801399546146513
 20
-52.61781167399801
 30
0.0
 11
3.01354177955335
 21
-52.52439223007175
 31
0.0
  0
LINE
  5
1872F
330
1F
100
AcDbEntity
  8
AM_0
100
AcDbLine
 10
3.01354177955335
 20
-52.52439223007175
 30
0.0
 11
2.978008345401008
 21
-52.59254605380534
 31
0.0
  0
LINE
  5
18730
330
1F
100
AcDbEntity
  8
AM_0
100
AcDbLine
 10
6.72002875825865
 20
-51.91752409221633
 30
0.0
 11
6.551676443099325
 21
-52.25678022543514
 31
0.0
  0
SPLINE
  5
18731
330
1F
100
AcDbEntity
  8
AM_0
100
AcDbSpline
210
0.0
220
0.0
230
1.0
 70
     8
 71
     3
 72
    18
 73
    14
 74
     0
 42
0.0000000001
 43
0.0000000001
 40
5.30401762689339
 40
5.30401762689339
 40
5.30401762689339
 40
5.30401762689339
 40
5.834336246707146
 40
5.834336246707146
 40
6.460128205226086
 40
6.460128205226086
 40
7.085920163745025
 40
7.085920163745025
 40
7.383665808014563
 40
7.383665808014563
 40
7.681411452284101
 40
7.681411452284101
 40
7.875351748818688
 40
7.875351748818688
 40
7.875351748818688
 40
7.875351748818688
 10
10.21194380083387
 20
-51.3969590610873
 30
0.0
 10
10.21875065648914
 20
-51.45875180447976
 30
0.0
 10
10.18945357313453
 20
-51.53341094029074
 30
0.0
 10
10.07350792421977
 20
-51.69288432527966
 30
0.0
 10
9.968468115001883
 20
-51.78984239943375
 30
0.0
 10
9.691921783938199
 20
-51.97292597292071
 30
0.0
 10
9.520255863815692
 20
-52.0587835986411
 30
0.0
 10
9.255878519426631
 20
-52.16085038126531
 30
0.0
 10
9.16322780591014
 20
-52.19239153524083
 30
0.0
 10
8.968772720122104
 20
-52.24954108256267
 30
0.0
 10
8.866968987714643
 20
-52.27515267300092
 30
0.0
 10
8.696935372478606
 20
-52.31113929998267
 30
0.0
 10
8.629303611828675
 20
-52.32374658008789
 30
0.0
 10
8.56211842166789
 20
-52.33468710589611
 30
0.0
  0
ELLIPSE
  5
18732
330
1F
100
AcDbEntity
  8
AM_0
100
AcDbEllipse
 10
6.092531318676777
 20
-42.54044611141032
 30
0.0
 11
11.4724772666834
 21
-1.211799030019307
 31
0.0
210
0.0
220
0.0
230
1.0
 40
0.8620806121482662
 41
4.960969192480735
 42
5.019249077303126
  0
SPLINE
  5
18733
330
1F
100
AcDbEntity
  8
AM_0
100
AcDbSpline
210
0.0
220
0.0
230
1.0
 70
     8
 71
     3
 72
    12
 73
     8
 74
     0
 42
0.0000000001
 43
0.0000000001
 40
3.126492097424567
 40
3.126492097424567
 40
3.126492097424567
 40
3.126492097424567
 40
3.535329285491494
 40
3.535329285491494
 40
3.826796849520467
 40
3.826796849520467
 40
4.097168923251178
 40
4.097168923251178
 40
4.097168923251178
 40
4.097168923251178
 10
8.769388877111908
 20
-51.45466286768073
 30
0.0
 10
8.906730276712437
 20
-51.41131220766772
 30
0.0
 10
9.041748532441204
 20
-51.3717532019559
 30
0.0
 10
9.255964863668339
 20
-51.31558776917683
 30
0.0
 10
9.34634304234811
 20
-51.29397778772071
 30
0.0
 10
9.51492531579089
 20
-51.25954810624867
 30
0.0
 10
9.593549932563349
 20
-51.24621349120091
 30
0.0
 10
9.666871219444147
 20
-51.23726770819849
 30
0.0
  0
ELLIPSE
  5
18734
330
1F
100
AcDbEntity
  8
AM_0
100
AcDbEllipse
 10
4.525901337221114
 20
-42.08146639062341
 30
0.0
 11
11.47247726668322
 21
-1.211799030019164
 31
0.0
210
0.0
220
0.0
230
1.0
 40
0.8620806121482799
 41
4.994831384931701
 42
5.18044172806455
  0
ELLIPSE
  5
18735
330
1F
100
AcDbEntity
  8
AM_0
100
AcDbEllipse
 10
8.65103951279059
 20
-52.06196711200332
 30
0.0
 11
1.548606984083275
 21
0.710145471420804
 31
0.0
210
0.0
220
0.0
230
1.0
 40
0.2864478945564589
 41
6.188466103671373
 42
7.01529111839724
  0
LINE
  5
18736
330
1F
100
AcDbEntity
  8
AM_0
100
AcDbLine
 10
16.99999999999989
 20
-57.89678342114198
 30
0.0
 11
24.99999999999994
 21
-57.89678342114198
 31
0.0
  0
SPLINE
  5
18737
330
1F
100
AcDbEntity
  8
AM_0
100
AcDbSpline
210
0.0
220
0.0
230
1.0
 70
     8
 71
     3
 72
    29
 73
    25
 74
     0
 42
0.0000000001
 43
0.0000000001
 40
-1.021843250592135
 40
-1.021843250592135
 40
-1.021843250592135
 40
-1.021843250592135
 40
-0.7721424576887905
 40
-0.7721424576887905
 40
-0.3860712288443953
 40
-0.3860712288443953
 40
0.0
 40
0.0
 40
0.0
 40
0.3860712288443952
 40
0.3860712288443952
 40
0.7721424576887903
 40
0.7721424576887903
 40
1.158213686533185
 40
1.158213686533185
 40
1.544284915377581
 40
1.544284915377581
 40
1.959757140636426
 40
1.959757140636426
 40
2.375229365895271
 40
2.375229365895271
 40
3.159097925033979
 40
3.159097925033979
 40
3.942966484172688
 40
3.942966484172688
 40
3.942966484172688
 40
3.942966484172688
 10
19.66670338842181
 20
-51.39534701993571
 30
0.0
 10
19.71356720980248
 20
-51.4686610059087
 30
0.0
 10
19.75592224178314
 20
-51.54537323605251
 30
0.0
 10
19.84983732754625
 20
-51.74691424876505
 30
0.0
 10
19.89379783652834
 20
-51.87546831286142
 30
0.0
 10
19.95191357596224
 20
-52.13605592111347
 30
0.0
 10
19.96605798999275
 20
-52.26809301152716
 30
0.0
 10
19.96605798999275
 20
-52.39678342114198
 30
0.0
 10
19.96605798999275
 20
-52.5254738307568
 30
0.0
 10
19.95191357596224
 20
-52.65751092117048
 30
0.0
 10
19.89379783652834
 20
-52.91809852942254
 30
0.0
 10
19.84983732754625
 20
-53.0466525935189
 30
0.0
 10
19.73577784921969
 20
-53.29142330936946
 30
0.0
 10
19.66557227941348
 20
-53.40789962706052
 30
0.0
 10
19.50664437754068
 20
-53.62247172619723
 30
0.0
 10
19.4179333009605
 20
-53.72058330896888
 30
0.0
 10
19.22659246887491
 20
-53.90136167986529
 30
0.0
 10
19.10955949134819
 20
-53.99457761198863
 30
0.0
 10
18.86059264679039
 20
-54.1596005934812
 30
0.0
 10
18.72873939048913
 20
-54.23156107741599
 30
0.0
 10
18.37029021136328
 20
-54.39872262810198
 30
0.0
 10
18.10084338367528
 20
-54.48725027757936
 30
0.0
 10
17.54631734887011
 20
-54.60107774092393
 30
0.0
 10
17.26128951971288
 20
-54.62669373323979
 30
0.0
 10
16.99999999999994
 20
-54.62669373323979
 30
0.0
  0
SPLINE
  5
18738
330
1F
100
AcDbEntity
  8
AM_0
100
AcDbSpline
210
0.0
220
0.0
230
1.0
 70
     8
 71
     3
 72
    16
 73
    12
 74
     0
 42
0.0000000001
 43
0.0000000001
 40
1.315381253479997
 40
1.315381253479997
 40
1.315381253479997
 40
1.315381253479997
 40
1.923455487925778
 40
1.923455487925778
 40
2.885183231888667
 40
2.885183231888667
 40
3.846910975851555
 40
3.846910975851555
 40
5.740298629966061
 40
5.740298629966061
 40
7.619300967173281
 40
7.619300967173281
 40
7.619300967173281
 40
7.619300967173281
 10
19.66670338842181
 20
-51.39534701993571
 30
0.0
 10
19.45564475264592
 20
-51.396822886281
 30
0.0
 10
19.24092283532968
 20
-51.39700415909536
 30
0.0
 10
18.68279736668177
 20
-51.39594478695682
 30
0.0
 10
18.33698227426322
 20
-51.39390306810009
 30
0.0
 10
17.65587101596276
 20
-51.39088894511914
 30
0.0
 10
17.32057591465423
 20
-51.38992061550138
 30
0.0
 10
16.36887078196179
 20
-51.38992061550138
 30
0.0
 10
15.71803692281054
 20
-51.39464705359214
 30
0.0
 10
14.43514898003741
 20
-51.39807344642301
 30
0.0
 10
13.80297780980067
 20
-51.39647821678298
 30
0.0
 10
13.20130322620548
 20
-51.36878858244373
 30
0.0
  0
SPLINE
  5
18739
330
1F
100
AcDbEntity
  8
AM_0
100
AcDbSpline
210
0.0
220
0.0
230
1.0
 70
     8
 71
     3
 72
    24
 73
    20
 74
     0
 42
0.0000000001
 43
0.0000000001
 40
12.66414959703507
 40
12.66414959703507
 40
12.66414959703507
 40
12.66414959703507
 40
12.84001537854491
 40
12.84001537854491
 40
13.6461353411042
 40
13.6461353411042
 40
14.45225530366349
 40
14.45225530366349
 40
15.32791458804426
 40
15.32791458804426
 40
16.20357387242503
 40
16.20357387242503
 40
17.09579389604905
 40
17.09579389604905
 40
17.98801391967307
 40
17.98801391967307
 40
18.88023394329709
 40
18.88023394329709
 40
19.58268084929773
 40
19.58268084929773
 40
19.58268084929773
 40
19.58268084929773
 10
15.49999999999994
 20
-57.21968866375909
 30
0.0
 10
15.43815921166339
 20
-57.20915817749224
 30
0.0
 10
15.37647953740265
 20
-57.19792670924323
 30
0.0
 10
15.03344566231363
 20
-57.13128414902829
 30
0.0
 10
14.75685328319474
 20
-57.06158685174398
 30
0.0
 10
14.22897187865493
 20
-56.8938862854267
 30
0.0
 10
13.97769374289231
 20
-56.79581079894317
 30
0.0
 10
13.49311468237039
 20
-56.56859149188759
 30
0.0
 10
13.2285586923378
 20
-56.42018145230711
 30
0.0
 10
12.73692012254998
 20
-56.07621825528455
 30
0.0
 10
12.50990324016459
 20
-55.88027558292546
 30
0.0
 10
12.12673325217884
 20
-55.48118368244198
 30
0.0
 10
11.94608786672717
 20
-55.2529065523876
 30
0.0
 10
11.63023555818239
 20
-54.75209302122298
 30
0.0
 10
11.4949432318835
 20
-54.47954692783944
 30
0.0
 10
11.27915052466119
 20
-53.90741091199894
 30
0.0
 10
11.19831933619469
 20
-53.60724712546673
 30
0.0
 10
11.10365024532979
 20
-53.0651483948607
 30
0.0
 10
11.0791318891911
 20
-52.82441388600623
 30
0.0
 10
11.07066368669342
 20
-52.58766801608019
 30
0.0
  0
LINE
  5
1873A
330
1F
100
AcDbEntity
  8
AM_0
100
AcDbLine
 10
16.99999999999994
 20
-58.14678342114198
 30
0.0
 11
15.65686952044439
 21
-59.48991390069753
 31
0.0
  0
LINE
  5
1873B
330
1F
100
AcDbEntity
  8
AM_0
100
AcDbLine
 10
15.49999999999994
 20
-59.60788597206997
 30
0.0
 11
15.49999999999994
 21
-57.21968866375906
 31
0.0
  0
SPLINE
  5
1873C
330
1F
100
AcDbEntity
  8
AM_0
100
AcDbSpline
210
0.0
220
0.0
230
1.0
 70
     8
 71
     3
 72
    12
 73
     8
 74
     0
 42
0.0000000001
 43
0.0000000001
 40
6.478808859859879
 40
6.478808859859879
 40
6.478808859859879
 40
6.478808859859879
 40
6.653312878120072
 40
6.653312878120072
 40
9.15683989503477
 40
9.15683989503477
 40
9.468789870708481
 40
9.468789870708481
 40
9.468789870708481
 40
9.468789870708481
 10
16.99999999999994
 20
-54.62669373323979
 30
0.0
 10
16.97933156163992
 20
-54.67998893525996
 30
0.0
 10
16.95804159428144
 20
-54.73311125793617
 30
0.0
 10
16.62213206963253
 20
-55.54572426121189
 30
0.0
 10
16.18640292204708
 20
-56.27083464538842
 30
0.0
 10
15.62682846449712
 20
-57.0489077306909
 30
0.0
 10
15.56385330252908
 20
-57.13457479934075
 30
0.0
 10
15.49999999999994
 20
-57.21968866375909
 30
0.0
  0
LINE
  5
1873D
330
1F
100
AcDbEntity
  8
AM_0
100
AcDbLine
 10
16.99999999999994
 20
-58.14678342114198
 30
0.0
 11
16.99999999999994
 21
-57.89678342114198
 31
0.0
  0
SPLINE
  5
1873E
330
1F
100
AcDbEntity
  8
AM_0
100
AcDbSpline
210
0.0
220
0.0
230
1.0
 70
     8
 71
     3
 72
    10
 73
     6
 74
     0
 42
0.0000000001
 43
0.0000000001
 40
5.339839618321395
 40
5.339839618321395
 40
5.339839618321395
 40
5.339839618321395
 40
5.584799806436108
 40
5.584799806436108
 40
6.068573615534375
 40
6.068573615534375
 40
6.068573615534375
 40
6.068573615534375
 10
15.49999999999994
 20
-59.60788597206997
 30
0.0
 10
15.51728675321533
 20
-59.59919597217558
 30
0.0
 10
15.53469973010084
 20
-59.58900455013477
 30
0.0
 10
15.58679115962315
 20
-59.55414320508521
 30
0.0
 10
15.6217546738734
 20
-59.52496685223255
 30
0.0
 10
15.65686952044439
 20
-59.48991390069753
 30
0.0
  0
LINE
  5
1873F
330
1F
100
AcDbEntity
  8
AM_0
100
AcDbLine
 10
16.99999999999994
 20
-57.89678342114198
 30
0.0
 11
16.99999999999994
 21
-54.62669373323979
 31
0.0
  0
SPLINE
  5
18740
330
1F
100
AcDbEntity
  8
AM_0
100
AcDbSpline
210
0.0
220
0.0
230
1.0
 70
     8
 71
     3
 72
    10
 73
     6
 74
     0
 42
0.0000000001
 43
0.0000000001
 40
17.15539678467681
 40
17.15539678467681
 40
17.15539678467681
 40
17.15539678467681
 40
17.44333953986195
 40
17.44333953986195
 40
18.52501095656811
 40
18.52501095656811
 40
18.52501095656811
 40
18.52501095656811
 10
11.07066368669342
 20
-52.58766801608019
 30
0.0
 10
11.1462493133663
 20
-52.55163271497682
 30
0.0
 10
11.22262337920751
 20
-52.51412515370427
 30
0.0
 10
11.5889173260527
 20
-52.32874607431981
 30
0.0
 10
11.88723918314497
 20
-52.16141724320559
 30
0.0
 10
12.18587034849139
 20
-51.97526553193367
 30
0.0
  0
ELLIPSE
  5
18741
330
1F
100
AcDbEntity
  8
AM_0
100
AcDbEllipse
 10
16.99999999999994
 20
-53.15712848715614
 30
0.0
 11
9.896345750028107
 21
4.702619319475593
 31
0.0
210
0.0
220
0.0
230
1.0
 40
0.3053798607224115
 41
1.816344958434164
 42
1.928955614326264
  0
SPLINE
  5
18742
330
1F
100
AcDbEntity
  8
AM_0
100
AcDbSpline
210
0.0
220
0.0
230
1.0
 70
    28
 71
     2
 72
     6
 73
     3
 74
     0
 42
0.0000000001
 43
0.0000000001
 40
0.0
 40
0.0
 40
0.0
 40
0.7632067745941439
 40
0.7632067745941439
 40
0.7632067745941439
 10
24.99999999999994
 20
-57.89678342114198
 30
0.0
 41
1.0
 10
25.102887403024
 20
-57.89678342114189
 30
0.0
 41
1.001887252316623
 10
25.24999999999994
 20
-57.896783421142
 30
0.0
 41
1.0
  0
LINE
  5
18743
330
1F
100
AcDbEntity
  8
AM_0
100
AcDbLine
 10
19.96446668412972
 20
-51.39534701990189
 30
0.0
 11
19.66670338842181
 21
-51.39534701990189
 31
0.0
  0
SPLINE
  5
18744
330
1F
100
AcDbEntity
  8
AM_0
100
AcDbSpline
210
0.0
220
0.0
230
1.0
 70
     8
 71
     3
 72
    12
 73
     8
 74
     0
 42
0.0000000001
 43
0.0000000001
 40
34.68553240501407
 40
34.68553240501407
 40
34.68553240501407
 40
34.68553240501407
 40
35.97540542590976
 40
35.97540542590976
 40
37.67375468524779
 40
37.67375468524779
 40
38.74882144836005
 40
38.74882144836005
 40
38.74882144836005
 40
38.74882144836005
 10
11.07066368669348
 20
0.7525133272166897
 30
0.0
 10
10.62681970676516
 20
0.755596991836768
 30
0.0
 10
10.17554835159706
 20
0.7606508391817499
 30
0.0
 10
9.133563666283408
 20
0.7701167383850986
 30
0.0
 10
8.543889968221663
 20
0.7736416274812257
 30
0.0
 10
7.619417960738247
 20
0.7736416274812257
 30
0.0
 10
7.252205710074918
 20
0.7723391240419346
 30
0.0
 10
6.880562948786235
 20
0.7699292511712201
 30
0.0
  0
LINE
  5
18745
330
1F
100
AcDbEntity
  8
AM_0
100
AcDbLine
 10
5.311870940436791
 20
13.75000000000003
 30
0.0
 11
15.94814735907096
 21
13.75000000000003
 31
0.0
  0
LINE
  5
18746
330
1F
100
AcDbEntity
  8
AM_0
100
AcDbLine
 10
4.966510708956378
 20
13.55060617738741
 30
0.0
 11
12.46446668412978
 21
13.55060617738741
 31
0.0
  0
ELLIPSE
  5
18747
330
1F
100
AcDbEntity
  8
AM_0
100
AcDbEllipse
 10
14.9916394682914
 20
13.45156861578263
 30
0.0
 11
11.33920552560111
 21
-1.78870733238655
 31
0.0
210
0.0
220
0.0
230
1.0
 40
0.3641549892930419
 41
3.992624062460191
 42
4.545388043215925
  0
LINE
  5
18748
330
1F
100
AcDbEntity
  8
AM_0
100
AcDbLine
 10
0.0005447888872823
 20
0.4149797847863397
 30
0.0
 11
0.501128434727832
 21
9.966684754711565
 31
0.0
  0
LINE
  5
1874A
330
1F
100
AcDbEntity
  8
AM_0
100
AcDbLine
 10
9.111691962086638
 20
4.463848054603403
 30
0.0
 11
0.5794062024912137
 21
0.0450411830984194
 31
0.0
  0
SPLINE
  5
1874B
330
1F
100
AcDbEntity
  8
AM_0
100
AcDbSpline
210
0.0
220
0.0
230
1.0
 70
     8
 71
     3
 72
    18
 73
    14
 74
     0
 42
0.0000000001
 43
0.0000000001
 40
5.30401762689339
 40
5.30401762689339
 40
5.30401762689339
 40
5.30401762689339
 40
5.834336246707146
 40
5.834336246707146
 40
6.460128205226086
 40
6.460128205226086
 40
7.085920163745025
 40
7.085920163745025
 40
7.383665808014563
 40
7.383665808014563
 40
7.681411452284101
 40
7.681411452284101
 40
7.875351748818688
 40
7.875351748818688
 40
7.875351748818688
 40
7.875351748818688
 10
10.21194380083392
 20
5.189415002091464
 30
0.0
 10
10.21875065648919
 20
5.013030900218239
 30
0.0
 10
10.18945357313459
 20
4.839286821863424
 30
0.0
 10
10.07350792421983
 20
4.508175010749226
 30
0.0
 10
9.96846811500194
 20
4.332695019142107
 30
0.0
 10
9.691921783938255
 20
4.036960348070551
 30
0.0
 10
9.520255863815748
 20
3.916688971582119
 30
0.0
 10
9.255878519426688
 20
3.796455574164639
 30
0.0
 10
9.163227805910196
 20
3.763540770803672
 30
0.0
 10
8.968772720122161
 20
3.71490305527081
 30
0.0
 10
8.866968987714699
 20
3.699181341562735
 30
0.0
 10
8.696935372478663
 20
3.689604479824538
 30
0.0
 10
8.629303611828732
 20
3.690003154659422
 30
0.0
 10
8.562118421667947
 20
3.694623913617079
 30
0.0
  0
ELLIPSE
  5
1874C
330
1F
100
AcDbEntity
  8
AM_0
100
AcDbEllipse
 10
6.092531318676834
 20
2.839540722463198
 30
0.0
 11
11.51983357941282
 21
-0.5769215098275028
 31
0.0
210
0.0
220
0.0
230
0.9999999999999999
 40
0.0866860843573341
 41
1.359085735760142
 42
1.417365620582533
  0
ELLIPSE
  5
1874D
330
1F
100
AcDbEntity
  8
AM_0
100
AcDbEllipse
 10
7.551910451390654
 20
-0.0064846040321811
 30
0.0
 11
-8.927495737834683
 21
-4.505938203938579
 31
0.0
210
0.0
220
0.0
230
1.0
 40
0.3250704531752306
 41
4.511001375485971
 42
4.744488384436645
  0
ELLIPSE
  5
1874E
330
1F
100
AcDbEntity
  8
AM_0
100
AcDbEllipse
 10
0.3984784314902754
 20
0.3978244399956452
 30
0.0
 11
0.3067891574442369
 21
0.2566717999209406
 31
0.0
210
0.0
220
0.0
230
1.0
 40
0.9907362963372902
 41
2.397186244370747
 42
4.491581346763771
  0
ELLIPSE
  5
1874F
330
1F
100
AcDbEntity
  8
AM_0
100
AcDbEllipse
 10
9.414753146258363
 20
8.000000000000028
 30
0.0
 11
82.88297586451361
 21
0.7637850221843167
 31
0.0
210
0.0
220
0.0
230
0.9999999999999999
 40
0.0869859633486449
 41
4.633848495649824
 42
4.681007108088543
  0
LINE
  5
18750
330
1F
100
AcDbEntity
  8
AM_0
100
AcDbLine
 10
5.80139954614657
 20
2.749472412906641
 30
0.0
 11
3.013541779553407
 21
1.305661762056559
 31
0.0
  0
LINE
  5
18751
330
1F
100
AcDbEntity
  8
AM_0
100
AcDbLine
 10
3.006808042778175
 20
1.302174410229412
 30
0.0
 11
2.978008345401065
 21
0.7526434480113835
 31
0.0
  0
ELLIPSE
  5
18752
330
1F
100
AcDbEntity
  8
AM_0
100
AcDbEllipse
 10
3.308555125057296
 20
8.000000000000028
 30
0.0
 11
-0.315244235928625
 21
-7.249941593346289
 31
0.0
210
0.0
220
0.0
230
1.0
 40
0.0923139075166453
 41
5.93801002502463
 42
6.260194283274434
  0
LINE
  5
18753
330
1F
100
AcDbEntity
  8
AM_0
100
AcDbLine
 10
-41.79199157953752
 20
9.677050983124877
 30
0.0
 11
-41.79199157953752
 21
6.951568615782612
 31
0.0
  0
ELLIPSE
  5
18754
330
1F
100
AcDbEntity
  8
AM_0
100
AcDbEllipse
 10
-42.10452502663037
 20
13.74945597896624
 30
0.0
 11
1.515452573094372
 21
4.133629201193019
 31
0.0
210
0.0
220
0.0
230
1.0
 40
0.3683431832321431
 41
3.057724826500132
 42
3.932363930084977
  0
SPLINE
  5
18755
330
1F
100
AcDbEntity
  8
AM_0
100
AcDbSpline
210
0.0
220
0.0
230
1.0
 70
    28
 71
     2
 72
     6
 73
     3
 74
     0
 42
0.0000000001
 43
0.0000000001
 40
0.0
 40
0.0
 40
0.0
 40
0.7632067745941296
 40
0.7632067745941296
 40
0.7632067745941296
 10
-41.79199157953752
 20
6.322949016875191
 30
0.0
 41
1.0
 10
-41.79199157953751
 20
5.970185401849142
 30
0.0
 41
1.001887252317323
 10
-41.79199157953752
 20
5.602084238343685
 30
0.0
 41
1.0
  0
LINE
  5
18756
330
1F
100
AcDbEntity
  8
AM_0
100
AcDbLine
 10
-41.79199157953752
 20
6.951568615782612
 30
0.0
 11
-41.79199157953752
 21
6.322949016875191
 31
0.0
  0
ARC
  5
18757
330
1F
100
AcDbEntity
  8
AM_0
100
AcDbCircle
 10
-47.29199157953752
 20
8.000000000000036
 30
0.0
 40
6.0
100
AcDbArc
 50
23.55646430910065
 51
57.97568716295761
  0
SPLINE
  5
18758
330
1F
100
AcDbEntity
  8
AM_0
100
AcDbSpline
210
0.0
220
0.0
230
1.0
 70
    28
 71
     2
 72
     6
 73
     3
 74
     0
 42
0.0000000001
 43
0.0000000001
 40
0.0
 40
0.0
 40
0.0
 40
0.7632067745941296
 40
0.7632067745941296
 40
0.7632067745941296
 10
-41.79199157953752
 20
10.39791576165638
 30
0.0
 41
1.0
 10
-41.79199157953751
 20
10.02981459815093
 30
0.0
 41
1.001887252317323
 10
-41.79199157953752
 20
9.677050983124877
 30
0.0
 41
1.0
  0
SPLINE
  5
18759
330
1F
100
AcDbEntity
  8
AM_0
100
AcDbSpline
210
0.0
220
0.0
230
1.0
 70
    28
 71
     2
 72
     6
 73
     3
 74
     0
 42
0.0000000001
 43
0.0000000001
 40
0.0
 40
0.0
 40
0.0
 40
0.3684419925851874
 40
0.3684419925851874
 40
0.3684419925851874
 10
-44.11031712088465
 20
13.08693892622637
 30
0.0
 41
1.0
 10
-44.13431570484539
 20
12.95083619331326
 30
0.0
 41
1.000265381785948
 10
-44.15731434780747
 20
12.82040440760671
 30
0.0
 41
1.0
  0
ARC
  5
1875A
330
1F
100
AcDbEntity
  8
AM_0
100
AcDbCircle
 10
-47.29199157953752
 20
8.000000000000036
 30
0.0
 40
5.749999999999999
100
AcDbArc
 50
16.95742629417274
 51
25.16948006003155
  0
LINE
  5
1875B
330
1F
100
AcDbEntity
  8
AM_0
100
AcDbLine
 10
1.11606794893288
 20
10.28515732202718
 30
0.0
 11
9.147770062687755
 21
5.152259223607018
 31
0.0
  0
LINE
  5
1875C
330
1F
100
AcDbEntity
  8
AM_0
100
AcDbLine
 10
0.5372065353289486
 20
10.6550959237151
 30
0.0
 11
2.337554826239796
 21
9.504529806094212
 31
0.0
  0
LINE
  5
1875D
330
1F
100
AcDbEntity
  8
AM_0
100
AcDbLine
 10
4.142406352123771
 20
13.07480930512978
 30
0.0
 11
1.386719384244373
 21
11.48381269242228
 31
0.0
  0
ELLIPSE
  5
1875E
330
1F
100
AcDbEntity
  8
AM_0
100
AcDbEllipse
 10
0.899062077330882
 20
9.949529409920785
 30
0.0
 11
0.3067891574442369
 21
0.2566717999209406
 31
0.0
210
0.0
220
0.0
230
1.0
 40
0.9907362963372902
 41
0.3027911419775632
 42
2.397186244370533
  0
LINE
  5
1875F
330
1F
100
AcDbEntity
  8
AM_0
100
AcDbLine
 10
0.6773209009432435
 20
10.27802716587081
 30
0.0
 11
0.5372065353289486
 21
10.65509592371512
 31
0.0
  0
LINE
  5
18761
330
1F
100
AcDbEntity
  8
AM_0
100
AcDbLine
 10
1.386719384235107
 20
11.48381269241691
 30
0.0
 11
0.5554865937480145
 21
11.00390021706997
 31
0.0
  0
ELLIPSE
  5
18762
330
1F
100
AcDbEntity
  8
AM_0
100
AcDbEllipse
 10
1.450923506885488
 20
11.8914266182494
 30
0.0
 11
16.71129002810775
 21
-10.86654261978988
 31
0.0
210
0.0
220
0.0
230
1.0
 40
0.0765420427710456
 41
4.815134591334529
 42
5.082483792728597
  0
ELLIPSE
  5
18766
330
1F
100
AcDbEntity
  8
AM_0
100
AcDbEllipse
 10
8.9307641910857
 20
4.8166313115006
 30
0.0
 11
0.3067891574442369
 21
0.2566717999209406
 31
0.0
210
0.0
220
0.0
230
0.9999999999999998
 40
0.9907362963372904
 41
4.491581346763804
 42
6.585976449157029
  0
LINE
  5
18767
330
1F
100
AcDbEntity
  8
AM_0
100
AcDbLine
 10
6.720028758258707
 20
6.768445350287492
 30
0.0
 11
6.551676443099382
 21
6.811370058965962
 31
0.0
  0
LINE
  5
18768
330
1F
100
AcDbEntity
  8
AM_0
100
AcDbLine
 10
7.902524478027033
 20
3.738248322078078
 30
0.0
 11
7.77393625895138
 21
3.771034398337747
 31
0.0
  0
ELLIPSE
  5
18769
330
1F
100
AcDbEntity
  8
AM_0
100
AcDbEllipse
 10
8.326296880228483
 20
5.560308815252539
 30
0.0
 11
-1.150459340415877
 21
-0.9625192497035037
 31
0.0
210
0.0
220
0.0
230
1.0
 40
0.9907362963372904
 41
0.8939538372137983
 42
2.933840493783089
  0
SPLINE
  5
1876A
330
1F
100
AcDbEntity
  8
AM_0
100
AcDbSpline
210
0.0
220
0.0
230
1.0
 70
     8
 71
     3
 72
    12
 73
     8
 74
     0
 42
0.0000000001
 43
0.0000000001
 40
3.126492097424567
 40
3.126492097424567
 40
3.126492097424567
 40
3.126492097424567
 40
3.535329285491494
 40
3.535329285491494
 40
3.826796849520467
 40
3.826796849520467
 40
4.097168923251178
 40
4.097168923251178
 40
4.097168923251178
 40
4.097168923251178
 10
8.769388877111965
 20
6.614516521248702
 30
0.0
 10
8.906730276712494
 20
6.602961192051708
 30
0.0
 10
9.041748532441261
 20
6.573688673488333
 30
0.0
 10
9.255964863668396
 20
6.499873578543684
 30
0.0
 10
9.346343042348167
 20
6.460024818755186
 30
0.0
 10
9.514925315790947
 20
6.365640063409699
 30
0.0
 10
9.593549932563406
 20
6.312388982771892
 30
0.0
 10
9.666871219444204
 20
6.252394687520165
 30
0.0
  0
ELLIPSE
  5
1876B
330
1F
100
AcDbEntity
  8
AM_0
100
AcDbEllipse
 10
4.525901337221171
 20
5.894722549120275
 30
0.0
 11
11.51983357941264
 21
-0.5769215098271405
 31
0.0
210
0.0
220
0.0
230
1.0
 40
0.0866860843573381
 41
1.197893084998705
 42
1.383503428131554
  0
ELLIPSE
  5
1876C
330
1F
100
AcDbEntity
  8
AM_0
100
AcDbEllipse
 10
8.651039512790646
 20
5.172157414667594
 30
0.0
 11
1.544899403353497
 21
-0.2481871965414982
 31
0.0
210
0.0
220
0.0
230
1.0
 40
0.9262729212027733
 41
0.1836108206773226
 42
1.01043583540319
  0
SPLINE
  5
1876D
330
1F
100
AcDbEntity
  8
AM_0
100
AcDbSpline
210
0.0
220
0.0
230
1.0
 70
     8
 71
     3
 72
    14
 73
    10
 74
     0
 42
0.0000000001
 43
0.0000000001
 40
4.235985853635321
 40
4.235985853635321
 40
4.235985853635321
 40
4.235985853635321
 40
4.791353658695857
 40
4.791353658695857
 40
5.989192073369821
 40
5.989192073369821
 40
7.187030488043785
 40
7.187030488043785
 40
7.722212935958389
 40
7.722212935958389
 40
7.722212935958389
 40
7.722212935958389
 10
7.026943234424323
 20
11.52568119996269
 30
0.0
 10
6.864351037802521
 20
11.60734741339331
 30
0.0
 10
6.70230349462679
 20
11.68927749908869
 30
0.0
 10
6.193808563424454
 20
11.94828939583871
 30
0.0
 10
5.85265727454555
 20
12.12478565755777
 30
0.0
 10
5.187494635408427
 20
12.47773224719902
 30
0.0
 10
4.863385829382537
 20
12.65399027191987
 30
0.0
 10
4.411895129394907
 20
12.91310902551157
 30
0.0
 10
4.275654728899781
 20
12.99330038257841
 30
0.0
 10
4.142406352123771
 20
13.07480930512978
 30
0.0
  0
LINE
  5
1876E
330
1F
100
AcDbEntity
  8
AM_0
100
AcDbLine
 10
4.966510708956378
 20
13.55060617738741
 30
0.0
 11
5.311870940436791
 21
13.75000000000003
 31
0.0
  0
LINE
  5
1876F
330
1F
100
AcDbEntity
  8
AM_0
100
AcDbLine
 10
4.142406352123771
 20
13.07480930512978
 30
0.0
 11
4.966510708956378
 21
13.55060617738741
 31
0.0
  0
LINE
  5
18770
330
1F
100
AcDbEntity
  8
AM_0
100
AcDbLine
 10
25.25
 20
2.000000000000025
 30
0.0
 11
25.25
 21
5.602084238343675
 31
0.0
  0
LINE
  5
18771
330
1F
100
AcDbEntity
  8
AM_0
100
AcDbLine
 10
25.0
 20
2.250000000000025
 30
0.0
 11
25.0
 21
6.322949016875183
 31
0.0
  0
SPLINE
  5
18772
330
1F
100
AcDbEntity
  8
AM_0
100
AcDbSpline
210
0.0
220
0.0
230
1.0
 70
     8
 71
     3
 72
    34
 73
    30
 74
     0
 42
0.0000000001
 43
0.0000000001
 40
3.295329461727505
 40
3.295329461727505
 40
3.295329461727505
 40
3.295329461727505
 40
3.97149285636488
 40
3.97149285636488
 40
4.979524734228132
 40
4.979524734228132
 40
5.396215247349039
 40
5.396215247349039
 40
5.812905760469945
 40
5.812905760469945
 40
6.22959627359085
 40
6.22959627359085
 40
6.646286786711757
 40
6.646286786711757
 40
7.062977299832664
 40
7.062977299832664
 40
7.47966781295357
 40
7.47966781295357
 40
7.896358326074477
 40
7.896358326074477
 40
8.313048839195384
 40
8.313048839195384
 40
9.321080717058635
 40
9.321080717058635
 40
10.32911259492189
 40
10.32911259492189
 40
11.33714447278514
 40
11.33714447278514
 40
12.34517635064839
 40
12.34517635064839
 40
12.34517635064839
 40
12.34517635064839
 10
22.25846184324325
 20
6.322949016875183
 30
0.0
 10
22.45570702785415
 20
6.206070939348106
 30
0.0
 10
22.64168147809994
 20
6.074924235841562
 30
0.0
 10
23.06812074421265
 20
5.720722588835256
 30
0.0
 10
23.29054159761353
 20
5.484152221043556
 30
0.0
 10
23.54464479721685
 20
5.132365634347164
 30
0.0
 10
23.61484095997429
 20
5.022800721649756
 30
0.0
 10
23.73882311506713
 20
4.797626043396716
 30
0.0
 10
23.79260394082479
 20
4.682030316662091
 30
0.0
 10
23.87888629296725
 20
4.452556444858172
 30
0.0
 10
23.91143423113982
 20
4.33855507129442
 30
0.0
 10
23.95398240429751
 20
4.119343249586077
 30
0.0
 10
23.96398053234805
 20
4.014135738702972
 30
0.0
 10
23.96398053234805
 20
3.818568886395806
 30
0.0
 10
23.95398240429751
 20
3.720663633600136
 30
0.0
 10
23.91143423113982
 20
3.532149074604202
 30
0.0
 10
23.87888629296725
 20
3.441535891155208
 30
0.0
 10
23.79260394082479
 20
3.272791239305459
 30
0.0
 10
23.73882311506713
 20
3.194544039150454
 30
0.0
 10
23.61484095997429
 20
3.053051064692308
 30
0.0
 10
23.54464479721685
 20
2.989778671845581
 30
0.0
 10
23.29054159761353
 20
2.799958641312653
 30
0.0
 10
23.06812074421265
 20
2.696376579742317
 30
0.0
 10
22.55765217654357
 20
2.536738667238549
 30
0.0
 10
22.26948215076374
 20
2.480578126124922
 30
0.0
 10
21.65124667518506
 20
2.399918572798836
 30
0.0
 10
21.32064263338191
 20
2.375172240616816
 30
0.0
 10
20.64526461981711
 20
2.344195296157292
 30
0.0
 10
20.30047731008415
 20
2.337878036083023
 30
0.0
 10
19.96446668412978
 20
2.337878036083023
 30
0.0
  0
ELLIPSE
  5
18773
330
1F
100
AcDbEntity
  8
AM_0
100
AcDbEllipse
 10
23.36339378385753
 20
2.451568615782602
 30
0.0
 11
11.33920552560111
 21
-1.78870733238655
 31
0.0
210
0.0
220
0.0
230
1.0
 40
0.3641549892930419
 41
1.979576734480586
 42
3.661975357709828
  0
LINE
  5
18774
330
1F
100
AcDbEntity
  8
AM_0
100
AcDbLine
 10
17.08600949744124
 20
-46.89678342114198
 30
0.0
 11
19.4538652772834
 21
-46.89678342114198
 31
0.0
  0
ELLIPSE
  5
18775
330
1F
100
AcDbEntity
  8
AM_0
100
AcDbEllipse
 10
5.509424597564873
 20
-52.39678342114198
 30
0.0
 11
14.49806027144766
 21
5.482511465590972
 31
0.0
210
0.0
220
0.0
230
1.0
 40
0.1195586823406185
 41
0.6021816949395473
 42
0.7455090715045926
  0
LINE
  5
18776
330
1F
100
AcDbEntity
  8
AM_0
100
AcDbLine
 10
22.2584618432432
 20
-46.89678342114198
 30
0.0
 11
24.99999999999994
 21
-46.89678342114198
 31
0.0
  0
LINE
  5
18777
330
1F
100
AcDbEntity
  8
AM_0
100
AcDbLine
 10
19.4538652772834
 20
-46.89678342114198
 30
0.0
 11
19.96446668412972
 21
-46.89678342114198
 31
0.0
  0
LINE
  5
18778
330
1F
100
AcDbEntity
  8
AM_0
100
AcDbLine
 10
19.96446668412972
 20
-46.89678342114198
 30
0.0
 11
22.2584618432432
 21
-46.89678342114198
 31
0.0
  0
SPLINE
  5
18779
330
1F
100
AcDbEntity
  8
AM_0
100
AcDbSpline
210
0.0
220
0.0
230
1.0
 70
    28
 71
     2
 72
     6
 73
     3
 74
     0
 42
0.0000000001
 43
0.0000000001
 40
0.0
 40
0.0
 40
0.0
 40
0.7632067745941296
 40
0.7632067745941296
 40
0.7632067745941296
 10
24.99999999999994
 20
-46.89678342114198
 30
0.0
 41
1.0
 10
25.10288740302399
 20
-46.89678342114196
 30
0.0
 41
1.001887252317323
 10
25.24999999999994
 20
-46.89678342114198
 30
0.0
 41
1.0
  0
SPLINE
  5
1877A
330
1F
100
AcDbEntity
  8
AM_0
100
AcDbSpline
210
0.0
220
0.0
230
1.0
 70
     8
 71
     3
 72
    16
 73
    12
 74
     0
 42
0.0000000001
 43
0.0000000001
 40
1.315381253479997
 40
1.315381253479997
 40
1.315381253479997
 40
1.315381253479997
 40
1.923455487925778
 40
1.923455487925778
 40
2.885183231888667
 40
2.885183231888667
 40
3.846910975851555
 40
3.846910975851555
 40
5.740298629966061
 40
5.740298629966061
 40
7.619300967173281
 40
7.619300967173281
 40
7.619300967173281
 40
7.619300967173281
 10
19.66670338842187
 20
2.337878036071881
 30
0.0
 10
19.45564475264598
 20
2.396275826236145
 30
0.0
 10
19.24092283532974
 20
2.448179456310328
 30
0.0
 10
18.68279736668183
 20
2.563574813171584
 30
0.0
 10
18.33698227426328
 20
2.616129264495953
 30
0.0
 10
17.65587101596282
 20
2.68433645275897
 30
0.0
 10
17.32057591465429
 20
2.700000000000046
 30
0.0
 10
16.36887078196185
 20
2.700000000000046
 30
0.0
 10
15.7180369228106
 20
2.639171706544346
 30
0.0
 10
14.43514898003747
 20
2.387393101285454
 30
0.0
 10
13.80297780980072
 20
2.197479109489819
 30
0.0
 10
13.20130322620554
 20
1.950400143818882
 30
0.0
  0
SPLINE
  5
1877B
330
1F
100
AcDbEntity
  8
AM_0
100
AcDbSpline
210
0.0
220
0.0
230
1.0
 70
     8
 71
     3
 72
    10
 73
     6
 74
     0
 42
0.0000000001
 43
0.0000000001
 40
17.15539678467681
 40
17.15539678467681
 40
17.15539678467681
 40
17.15539678467681
 40
17.44333953986195
 40
17.44333953986195
 40
18.52501095656811
 40
18.52501095656811
 40
18.52501095656811
 40
18.52501095656811
 10
11.07066368669348
 20
0.7525133272166897
 30
0.0
 10
11.14624931336635
 20
0.8081695655591545
 30
0.0
 10
11.22262337920756
 20
0.8627632716463722
 30
0.0
 10
11.58891732605275
 20
1.116896884038681
 30
0.0
 10
11.88723918314503
 20
1.300916280006817
 30
0.0
 10
12.18587034849145
 20
1.464939001411636
 30
0.0
  0
ARC
  5
1877C
330
1F
100
AcDbEntity
  8
AM_0
100
AcDbCircle
 10
17.0
 20
-7.299999999999955
 30
0.0
 40
10.0
100
AcDbArc
 50
112.325610410063
 51
118.7777257208825
  0
LINE
  5
1877D
330
1F
100
AcDbEntity
  8
AM_0
100
AcDbLine
 10
19.96605798999281
 20
2.250000000000025
 30
0.0
 11
25.0
 21
2.250000000000025
 31
0.0
  0
SPLINE
  5
1877E
330
1F
100
AcDbEntity
  8
AM_0
100
AcDbSpline
210
0.0
220
0.0
230
1.0
 70
     8
 71
     3
 72
    12
 73
     8
 74
     0
 42
0.0000000001
 43
0.0000000001
 40
-1.021843250592135
 40
-1.021843250592135
 40
-1.021843250592135
 40
-1.021843250592135
 40
-0.7721424576887905
 40
-0.7721424576887905
 40
-0.3860712288443953
 40
-0.3860712288443953
 40
0.0
 40
0.0
 40
0.0
 40
0.0
 10
19.66670338840663
 20
2.337878036075207
 30
0.0
 10
19.71356720980253
 20
2.324911290611677
 30
0.0
 10
19.7559222417832
 20
2.312823176222221
 30
0.0
 10
19.84983732754631
 20
2.285507440605411
 30
0.0
 10
19.89379783652839
 20
2.272191876405568
 30
0.0
 10
19.95191357596229
 20
2.254429834756049
 30
0.0
 10
19.96605798999281
 20
2.250000000000025
 30
0.0
 10
19.96605798999281
 20
2.250000000000025
 30
0.0
  0
LINE
  5
1877F
330
1F
100
AcDbEntity
  8
AM_0
100
AcDbLine
 10
19.96446668412978
 20
2.337878036083023
 30
0.0
 11
19.66670338842187
 21
2.337878036083023
 31
0.0
  0
LINE
  5
18780
330
1F
100
AcDbEntity
  8
AM_0
100
AcDbLine
 10
25.0
 20
2.250000000000025
 30
0.0
 11
25.25
 21
2.000000000000025
 31
0.0
  0
LINE
  5
18781
330
1F
100
AcDbEntity
  8
AM_0
100
AcDbLine
 10
41.96446668828622
 20
13.08693892622634
 30
0.0
 11
25.25
 21
13.08693892622634
 31
0.0
  0
LINE
  5
18782
330
1F
100
AcDbEntity
  8
AM_0
100
AcDbLine
 10
25.25
 20
13.86835572572752
 30
0.0
 11
41.96446668828622
 21
13.86835572572752
 31
0.0
  0
LINE
  5
18783
330
1F
100
AcDbEntity
  8
AM_0
100
AcDbLine
 10
25.0
 20
9.677050983124868
 30
0.0
 11
17.0860094974413
 21
9.67705098312487
 31
0.0
  0
LINE
  5
18784
330
1F
100
AcDbEntity
  8
AM_0
100
AcDbLine
 10
25.0
 20
12.8204044076067
 30
0.0
 11
17.96446668828622
 21
12.8204044076067
 31
0.0
  0
LINE
  5
18785
330
1F
100
AcDbEntity
  8
AM_0
100
AcDbLine
 10
17.96446668828622
 20
13.60182120710786
 30
0.0
 11
25.0
 21
13.60182120710786
 31
0.0
  0
LINE
  5
18786
330
1F
100
AcDbEntity
  8
AM_0
100
AcDbLine
 10
17.0860094974413
 20
9.67705098312487
 30
0.0
 11
19.45386527728346
 21
6.951568615782603
 31
0.0
  0
ELLIPSE
  5
18787
330
1F
100
AcDbEntity
  8
AM_0
100
AcDbEllipse
 10
12.80734514941582
 20
13.74945597896624
 30
0.0
 11
-2.887458577575806
 21
3.323562822790911
 31
0.0
210
0.0
220
0.0
230
1.0
 40
0.8728782547923699
 41
2.274677368242724
 42
3.149316471827569
  0
SPLINE
  5
18788
330
1F
100
AcDbEntity
  8
AM_0
100
AcDbSpline
210
0.0
220
0.0
230
1.0
 70
     8
 71
     3
 72
    32
 73
    28
 74
     0
 42
0.0000000001
 43
0.0000000001
 40
0.9478057420834571
 40
0.9478057420834571
 40
0.9478057420834571
 40
0.9478057420834571
 40
1.910419763786555
 40
1.910419763786555
 40
2.873033785489653
 40
2.873033785489653
 40
3.835647807192752
 40
3.835647807192752
 40
4.79826182889585
 40
4.79826182889585
 40
5.188797093619547
 40
5.188797093619547
 40
5.579332358343244
 40
5.579332358343244
 40
5.969867623066941
 40
5.969867623066941
 40
6.360402887790637
 40
6.360402887790637
 40
6.750938152514333
 40
6.750938152514333
 40
7.14147341723803
 40
7.14147341723803
 40
7.532008681961727
 40
7.532008681961727
 40
7.922543946685424
 40
7.922543946685424
 40
8.121273903377482
 40
8.121273903377482
 40
8.121273903377482
 40
8.121273903377482
 10
12.46446668412978
 20
13.55060617738741
 30
0.0
 10
12.78533802469747
 20
13.55060617738741
 30
0.0
 10
13.11505672324114
 20
13.54159083233904
 30
0.0
 10
13.76186033184172
 20
13.50003125363205
 30
0.0
 10
14.07895827595769
 20
13.4674310686915
 30
0.0
 10
14.67282477434583
 20
13.36806624702981
 30
0.0
 10
14.95006550284666
 20
13.30109396837926
 30
0.0
 10
15.44175182127435
 20
13.1196875352413
 30
0.0
 10
15.65632096145919
 20
13.00519482040039
 30
0.0
 10
15.89998742710287
 20
12.8024449800503
 30
0.0
 10
15.96649350536552
 20
12.73640772182733
 30
0.0
 10
16.08405932049175
 20
12.59036194575017
 30
0.0
 10
16.13511222177573
 20
12.51032972951046
 30
0.0
 10
16.21706128111538
 20
12.33931375221354
 30
0.0
 10
16.24799985224206
 20
12.24821507716444
 30
0.0
 10
16.28845027723025
 20
12.06009015195477
 30
0.0
 10
16.29795985565352
 20
11.96306041367691
 30
0.0
 10
16.29795985565352
 20
11.77036437337142
 30
0.0
 10
16.28845027723025
 20
11.66726019414989
 30
0.0
 10
16.24799985224206
 20
11.45360869209787
 30
0.0
 10
16.21706128111538
 20
11.34306389279786
 30
0.0
 10
16.13511222177573
 20
11.12158588109207
 30
0.0
 10
16.08405932049175
 20
11.01053263788833
 30
0.0
 10
15.96649350536552
 20
10.79503460001746
 30
0.0
 10
15.89998742710287
 20
10.69060060666635
 30
0.0
 10
15.79387631632642
 20
10.5430660083685
 30
0.0
 10
15.75633493930178
 20
10.49391415327506
 30
0.0
 10
15.71712467982701
 20
10.44545920960155
 30
0.0
  0
SPLINE
  5
18789
330
1F
100
AcDbEntity
  8
AM_0
100
AcDbSpline
210
0.0
220
0.0
230
1.0
 70
     8
 71
     3
 72
    14
 73
    10
 74
     0
 42
0.0000000001
 43
0.0000000001
 40
4.404199337354758
 40
4.404199337354758
 40
4.404199337354758
 40
4.404199337354758
 40
4.69411564627372
 40
4.69411564627372
 40
5.123102777823481
 40
5.123102777823481
 40
5.550293528366088
 40
5.550293528366088
 40
5.850829320853233
 40
5.850829320853233
 40
5.850829320853233
 40
5.850829320853233
 10
15.94814735907096
 20
13.75000000000003
 30
0.0
 10
15.993063914777
 20
13.75000000000003
 30
0.0
 10
16.04396019179183
 20
13.74823202237883
 30
0.0
 10
16.18241513605949
 20
13.74055091250537
 30
0.0
 10
16.27595135475553
 20
13.73305936395914
 30
0.0
 10
16.47457319902657
 20
13.71586795217604
 30
0.0
 10
16.58656365506488
 20
13.70553676355305
 30
0.0
 10
16.79456502718625
 20
13.68753882592662
 30
0.0
 10
16.88544710704605
 20
13.68000798256335
 30
0.0
 10
16.97993866300391
 20
13.67296405574669
 30
0.0
  0
SPLINE
  5
1878A
330
1F
100
AcDbEntity
  8
AM_0
100
AcDbSpline
210
0.0
220
0.0
230
1.0
 70
     8
 71
     3
 72
     8
 73
     4
 74
     0
 42
0.0000000001
 43
0.0000000001
 40
1.776191205741668
 40
1.776191205741668
 40
1.776191205741668
 40
1.776191205741668
 40
1.80791040360386
 40
1.80791040360386
 40
1.80791040360386
 40
1.80791040360386
 10
16.97993866300391
 20
13.67296405574669
 30
0.0
 10
16.98662321750754
 20
13.66530026601842
 30
0.0
 10
16.99331121769785
 20
13.65763075510952
 30
0.0
 10
17.0
 20
13.64995875018803
 30
0.0
  0
SPLINE
  5
1878B
330
1F
100
AcDbEntity
  8
AM_0
100
AcDbSpline
210
0.0
220
0.0
230
1.0
 70
     8
 71
     3
 72
    12
 73
     8
 74
     0
 42
0.0000000001
 43
0.0000000001
 40
5.898951551010228
 40
5.898951551010228
 40
5.898951551010228
 40
5.898951551010228
 40
6.002661563498452
 40
6.002661563498452
 40
6.431648580476676
 40
6.431648580476676
 40
6.8606355974549
 40
6.8606355974549
 40
6.8606355974549
 40
6.8606355974549
 10
17.0
 20
13.64995875018803
 30
0.0
 10
17.03267218611177
 20
13.64688098983683
 30
0.0
 10
17.06575881081409
 20
13.64388055119724
 30
0.0
 10
17.23751283617696
 20
13.62900954223679
 30
0.0
 10
17.38218072586824
 20
13.61889224123621
 30
0.0
 10
17.67415680860097
 20
13.60528567049016
 30
0.0
 10
17.82147101596013
 20
13.60182120710786
 30
0.0
 10
17.96446668828622
 20
13.60182120710786
 30
0.0
  0
SPLINE
  5
1878C
330
1F
100
AcDbEntity
  8
AM_0
100
AcDbSpline
210
0.0
220
0.0
230
1.0
 70
     8
 71
     3
 72
    28
 73
    24
 74
     0
 42
0.0000000001
 43
0.0000000001
 40
0.0
 40
0.0
 40
0.0
 40
0.0
 40
0.4289870169782309
 40
0.4289870169782309
 40
0.8579740339564618
 40
0.8579740339564618
 40
1.286961050934693
 40
1.286961050934693
 40
1.715948067912924
 40
1.715948067912924
 40
2.144540500616559
 40
2.144540500616559
 40
2.573132933320193
 40
2.573132933320193
 40
3.001725366023829
 40
3.001725366023829
 40
3.430317798727463
 40
3.430317798727463
 40
3.858910231431099
 40
3.858910231431099
 40
4.287502664134734
 40
4.287502664134734
 40
4.42718662241838
 40
4.42718662241838
 40
4.42718662241838
 40
4.42718662241838
 10
17.96446668828622
 20
12.82040440760667
 30
0.0
 10
17.82147101596013
 20
12.82040440760667
 30
0.0
 10
17.67415680860097
 20
12.82867903863152
 30
0.0
 10
17.38218072586824
 20
12.86232897180682
 30
0.0
 10
17.23751283617696
 20
12.88767300878882
 30
0.0
 10
16.96088186991
 20
12.95164867236482
 30
0.0
 10
16.82866942430621
 20
12.99028076449386
 30
0.0
 10
16.58450790731558
 20
13.07447842213364
 30
0.0
 10
16.47255688032277
 20
13.11999106648423
 30
0.0
 10
16.27448711557355
 20
13.21055040496759
 30
0.0
 10
16.18134383387934
 20
13.25884919098638
 30
0.0
 10
16.01667422864574
 20
13.35516929870556
 30
0.0
 10
15.94513526938187
 20
13.4031442703139
 30
0.0
 10
15.82983771761911
 20
13.49269085933889
 30
0.0
 10
15.78598749608955
 20
13.53430917984124
 30
0.0
 10
15.7282934224931
 20
13.60688841802411
 30
0.0
 10
15.71446668828622
 20
13.63783648151997
 30
0.0
 10
15.71446668828622
 20
13.68745267812051
 30
0.0
 10
15.7282934224931
 20
13.70765045568603
 30
0.0
 10
15.78598749608955
 20
13.73648108890967
 30
0.0
 10
15.82983771761917
 20
13.7451283387102
 30
0.0
 10
15.90627499416189
 20
13.74948600063939
 30
0.0
 10
15.92652335817047
 20
13.75000000000003
 30
0.0
 10
15.94814735907096
 20
13.75000000000003
 30
0.0
  0
ELLIPSE
  5
1878D
330
1F
100
AcDbEntity
  8
AM_0
100
AcDbEllipse
 10
5.50942459756493
 20
8.000000000000028
 30
0.0
 11
14.4889848382681
 21
-2.285570480271703
 31
0.0
210
0.0
220
0.0
230
1.0
 40
0.364154989293042
 41
0.7047433291832767
 42
0.8480707057483219
  0
LINE
  5
1878E
330
1F
100
AcDbEntity
  8
AM_0
100
AcDbLine
 10
22.25846184324325
 20
6.322949016875183
 30
0.0
 11
25.0
 21
6.322949016875183
 31
0.0
  0
LINE
  5
1878F
330
1F
100
AcDbEntity
  8
AM_0
100
AcDbLine
 10
19.45386527728346
 20
6.951568615782603
 30
0.0
 11
19.96446668412978
 21
6.951568615782603
 31
0.0
  0
ARC
  5
18790
330
1F
100
AcDbEntity
  8
AM_0
100
AcDbCircle
 10
19.96446668412978
 20
2.451568615782604
 30
0.0
 40
4.5
100
AcDbArc
 50
59.35104287787551
 51
90.0
  0
SPLINE
  5
18791
330
1F
100
AcDbEntity
  8
AM_0
100
AcDbSpline
210
0.0
220
0.0
230
1.0
 70
    12
 71
     2
 72
     6
 73
     3
 74
     0
 42
0.0000000001
 43
0.0000000001
 40
0.0
 40
0.0
 40
0.0
 40
0.7632067745941296
 40
0.7632067745941296
 40
0.7632067745941296
 10
25.0
 20
6.322949016875183
 30
0.0
 41
1.0
 10
25.10288740302416
 20
5.970185401849133
 30
0.0
 41
1.001887252317323
 10
25.25
 20
5.602084238343676
 30
0.0
 41
1.0
  0
LINE
  5
18792
330
1F
100
AcDbEntity
  8
AM_0
100
AcDbLine
 10
25.25
 20
10.39791576165638
 30
0.0
 11
25.25
 21
13.08693892622636
 31
0.0
  0
SPLINE
  5
18793
330
1F
100
AcDbEntity
  8
AM_0
100
AcDbSpline
210
0.0
220
0.0
230
1.0
 70
    12
 71
     2
 72
     6
 73
     3
 74
     0
 42
0.0000000001
 43
0.0000000001
 40
0.0
 40
0.0
 40
0.0
 40
0.7632067745941296
 40
0.7632067745941296
 40
0.7632067745941296
 10
25.25
 20
10.39791576165638
 30
0.0
 41
1.0
 10
25.10288740302416
 20
10.02981459815092
 30
0.0
 41
1.001887252317323
 10
25.0
 20
9.677050983124868
 30
0.0
 41
1.0
  0
LINE
  5
18794
330
1F
100
AcDbEntity
  8
AM_0
100
AcDbLine
 10
25.0
 20
9.677050983124868
 30
0.0
 11
25.0
 21
12.8204044076067
 31
0.0
  0
SPLINE
  5
18795
330
1F
100
AcDbEntity
  8
AM_0
100
AcDbSpline
210
0.0
220
0.0
230
1.0
 70
    12
 71
     2
 72
     6
 73
     3
 74
     0
 42
0.0000000001
 43
0.0000000001
 40
0.0
 40
0.0
 40
0.0
 40
0.3684419925851874
 40
0.3684419925851874
 40
0.3684419925851874
 10
25.25
 20
13.08693892622636
 30
0.0
 41
1.0
 10
25.12188300472386
 20
12.95083619331322
 30
0.0
 41
1.000265381785948
 10
25.0
 20
12.8204044076067
 30
0.0
 41
1.0
  0
SPLINE
  5
18796
330
1F
100
AcDbEntity
  8
AM_0
100
AcDbSpline
210
0.0
220
0.0
230
1.0
 70
    12
 71
     2
 72
     6
 73
     3
 74
     0
 42
0.0000000001
 43
0.0000000001
 40
0.0
 40
0.0
 40
0.0
 40
0.3684419925851867
 40
0.3684419925851867
 40
0.3684419925851867
 10
25.0
 20
13.60182120710786
 30
0.0
 41
1.0
 10
25.12188300472559
 20
13.7322529928156
 30
0.0
 41
1.000265381788246
 10
25.25
 20
13.86835572572752
 30
0.0
 41
1.0
  0
LINE
  5
187AC
330
1F
100
AcDbEntity
  8
AM_0
100
AcDbLine
 10
43.95870016863557
 20
14.00000000000002
 30
0.0
 11
90.75
 21
14.00000000000002
 31
0.0
  0
LINE
  5
187AD
330
1F
100
AcDbEntity
  8
AM_0
100
AcDbLine
 10
149.9999999999999
 20
-57.39678342114202
 30
0.0
 11
149.9999999999999
 21
-47.39678342114202
 31
0.0
  0
LINE
  5
187AE
330
1F
100
AcDbEntity
  8
AM_0
100
AcDbLine
 10
148.9999999999999
 20
-57.89678342114208
 30
0.0
 11
148.9999999999999
 21
-46.89678342114202
 31
0.0
  0
LINE
  5
187AF
330
1F
100
AcDbEntity
  8
AM_0
100
AcDbLine
 10
149.9999999999999
 20
-57.39678342114202
 30
0.0
 11
149.4999999999999
 21
-57.89678342114202
 31
0.0
  0
SPLINE
  5
187B0
330
1F
100
AcDbEntity
  8
AM_0
100
AcDbSpline
210
0.0
220
0.0
230
1.0
 70
    28
 71
     2
 72
     6
 73
     3
 74
     0
 42
0.0000000001
 43
0.0000000001
 40
0.0
 40
0.0
 40
0.0
 40
2.449489742783129
 40
2.449489742783129
 40
2.449489742783129
 10
148.9999999999999
 20
-57.89678342114205
 30
0.0
 41
1.0
 10
149.4999999999999
 20
-57.896783421142
 30
0.0
 41
1.045454545454552
 10
149.5000000000002
 20
-57.89678342114203
 30
0.0
 41
1.045454545454553
  0
LINE
  5
187B3
330
1F
100
AcDbEntity
  8
AM_0
100
AcDbLine
 10
149.9999999999999
 20
-47.39678342114202
 30
0.0
 11
149.4999999999999
 21
-46.89678342114202
 31
0.0
  0
SPLINE
  5
187B4
330
1F
100
AcDbEntity
  8
AM_0
100
AcDbSpline
210
0.0
220
0.0
230
1.0
 70
    28
 71
     2
 72
     6
 73
     3
 74
     0
 42
0.0000000001
 43
0.0000000001
 40
0.0
 40
0.0
 40
0.0
 40
2.449489742783171
 40
2.449489742783171
 40
2.449489742783171
 10
148.9999999999999
 20
-46.89678342114202
 30
0.0
 41
1.0
 10
149.4999999999999
 20
-46.89678342114205
 30
0.0
 41
1.045454545454551
 10
149.5000000000001
 20
-46.89678342114199
 30
0.0
 41
1.045454545454551
  0
LINE
  5
18AD0
330
1F
100
AcDbEntity
  8
AM_5
100
AcDbLine
 10
-1.112227104857425
 20
0.0
 30
0.0
 11
0.3948281606302544
 21
0.0
 31
0.0
  0
LINE
  5
18AD1
330
1F
100
AcDbEntity
  8
AM_5
100
AcDbLine
 10
0.0
 20
-1.087970580332836
 30
0.0
 11
0.0
 21
0.394180160039781
 31
0.0
  0
SPLINE
  5
18DA6
330
1F
100
AcDbEntity
  8
AM_11
  6
ACJISTGB
 48
0.5
100
AcDbSpline
210
0.0
220
0.0
230
1.0
 70
     8
 71
     3
 72
     9
 73
     5
 74
     3
 42
0.0000000001
 43
0.0000000001
 44
0.0000000001
 40
0.0
 40
0.0
 40
0.0
 40
0.0
 40
3.123523376509487
 40
8.170966633725101
 40
8.170966633725101
 40
8.170966633725101
 40
8.170966633725101
 10
13.20130322620554
 20
-51.36878858244373
 30
0.0
 10
14.15066658015847
 20
-50.93145237930188
 30
0.0
 10
16.6341492865051
 20
-49.78740474691778
 30
0.0
 10
18.71475157535656
 20
-48.00056573991771
 30
0.0
 10
20.00000000000017
 20
-46.89678342114198
 30
0.0
 11
13.20130322620554
 21
-51.36878858244373
 31
0.0
 11
15.99051993035931
 21
-49.96284816376632
 31
0.0
 11
20.00000000000017
 21
-46.89678342114198
 31
0.0
  0
CIRCLE
  5
18EE5
330
1F
100
AcDbEntity
  8
AM_11
  6
ACJISTGB
100
AcDbCircle
 10
-47.29199157953752
 20
8.125000000000092
 30
0.0
 40
8.0
  0
DIMENSION
  5
18EF2
330
1F
100
AcDbEntity
  8
AM_5
100
AcDbDimension
  2
*D5
 10
-40.49430867989136
 20
12.34299800804403
 30
0.0
 11
-79.6324876357578
 21
2.494622426739905
 31
0.0
 70
    35
  1
最小加工径\P<>
 71
     5
 42
16.00000000000008
  3
AM_JIS$3
100
AcDbDiametricDimension
 15
-54.08967447918316
 25
3.907001991956239
 35
0.0
 40
0.0
1001
GENIUS_GENDTOL_13
1000

1000
h7
1000

1040
0.0
1001
ACAD
1000
DSTYLE
1002
{
1070
   271
1070
     0
1070
   288
1070
     1
1070
   289
1070
     3
1070
   172
1070
     1
1070
    74
1070
     1
1002
}
  0
TEXT
  5
19A8F
330
1F
100
AcDbEntity
  8
AM_0
100
AcDbText
 10
27.21063429923657
 20
-100.033522159112
 30
0.0
 40
5.0
  1
XBPT-212R
 41
0.8834717506327637
100
AcDbText
  0
DIMENSION
  5
1A002
330
1F
100
AcDbEntity
  8
AM_5
100
AcDbDimension
  2
*D7
 10
106.7500000000001
 20
-11.54374685508513
 30
0.0
 11
101.2500000000001
 21
-8.143746855085132
 31
0.0
 70
    32
 71
     5
 42
11.0
  3
AM_JIS$0
100
AcDbAlignedDimension
 13
95.75000000000006
 23
5.602084238343639
 33
0.0
 14
106.7500000000001
 24
5.602084238343637
 34
0.0
100
AcDbRotatedDimension
1001
ACAD
1000
DSTYLE
1002
{
1070
   179
1070
     2
1070
   271
1070
     0
1002
}
  0
LINE
  5
1A0B0
330
1F
100
AcDbEntity
  8
AM_0
100
AcDbLine
 10
0.5372065353289486
 20
10.6550959237151
 30
0.0
 11
0.5554865937480145
 21
11.00390021706997
 31
0.0
  0
DIMENSION
  5
1A18E
330
1F
100
AcDbEntity
  8
AM_5
100
AcDbDimension
  2
*D8
 10
-46.28809995153569
 20
9.966668066165205
 30
0.0
 11
-51.81334732112376
 21
-16.80087323274183
 31
0.0
 70
   162
 71
     5
 42
0.1001826346446411
  3
AM_JIS$2
100
AcDb2LineAngularDimension
 13
-47.29199157953752
 23
-2.588845057297441
 33
0.0
 14
-47.29199157953752
 24
18.50552737384309
 34
0.0
 15
-47.24822920378477
 25
0.4149630962399797
 35
0.0
 16
-47.87223911116652
 26
-17.3896329427751
 36
0.0
1001
ACAD
1000
DSTYLE
1002
{
1070
   271
1070
     0
1002
}
  0
DIMENSION
  5
1A228
330
1F
100
AcDbEntity
  8
AM_5
100
AcDbDimension
  2
*D9
 10
-5.794772109523988
 20
8.0
 30
0.0
 11
-5.79477210952399
 21
4.0
 31
0.0
 70
   160
 71
     5
 42
7.999999999999999
  3
AM_JIS$0
100
AcDbAlignedDimension
 13
-1.112227104857425
 23
0.0
 33
0.0
 14
-2.165548451965719
 24
8.0
 34
0.0
 50
90.0
100
AcDbRotatedDimension
1001
ACAD
1000
DSTYLE
1002
{
1070
   179
1070
     0
1070
   271
1070
     0
1002
}
  0
DIMENSION
  5
1A258
330
1F
100
AcDbEntity
  8
AM_5
100
AcDbDimension
  2
*D10
 10
0.501128434727832
 20
9.966684754711565
 30
0.0
 11
-16.66387439634114
 21
17.5377159485247
 31
0.0
 70
    34
 71
     5
 42
1.623156204354726
  3
AM_JIS$2
100
AcDb2LineAngularDimension
 13
-1.112227104857425
 23
0.0
 33
0.0
 14
0.3948281606302544
 24
0.0
 34
0.0
 15
0.0005447888872823
 25
0.4149797847863397
 35
0.0
 16
-9.775633950404249
 26
18.34541572799071
 36
0.0
1001
ACAD
1000
DSTYLE
1002
{
1070
   179
1070
     0
1070
   271
1070
     0
1002
}
  0
DIMENSION
  5
1A299
330
1F
100
AcDbEntity
  8
AM_5
100
AcDbDimension
  2
*D11
 10
99.05252580840191
 20
2.416890904051719
 30
0.0
 11
112.4310666810395
 21
23.61752924348887
 31
0.0
 70
   163
 71
     5
 42
11.99999999999994
  3
AM_JIS$3
100
AcDbDiametricDimension
 15
103.447474191598
 25
13.5831090959482
 35
0.0
 40
0.0
1001
ACAD
1000
DSTYLE
1002
{
1070
   179
1070
     0
1070
   271
1070
     0
1002
}
  0
DIMENSION
  5
1A2D1
330
1F
100
AcDbEntity
  8
AM_5
100
AcDbDimension
  2
*D12
 10
150.0
 20
-28.81555865862369
 30
0.0
 11
75.0
 21
-25.41555865862369
 31
0.0
 70
    32
 71
     5
 42
150.0
  3
AM_JIS$0
100
AcDbAlignedDimension
 13
0.0
 23
0.0
 33
0.0
 14
150.0
 24
3.000000000000011
 34
0.0
100
AcDbRotatedDimension
1001
ACAD
1000
DSTYLE
1002
{
1070
   179
1070
     0
1070
   271
1070
     0
1002
}
  0
ENDSEC
  0
SECTION
  2
OBJECTS
  0
DICTIONARY
  5
C
330
0
100
AcDbDictionary
281
     1
  3
ACAD_COLOR
350
19AFB
  3
ACAD_GROUP
350
D
  3
ACAD_LAYOUT
350
1A
  3
ACAD_MATERIAL
350
19AFA
  3
ACAD_MLINESTYLE
350
17
  3
ACAD_PLOTSETTINGS
350
19
  3
ACAD_PLOTSTYLENAME
350
E
  3
ACAD_TABLESTYLE
350
19AFC
  3
AcAmCatalogState
350
19B63
  3
ACDBHEADERROUNDTRIPXREC
350
1A591
  3
AcDbVariableDictionary
350
30
  3
ACDMSYSVARMGR
350
19B16
  3
ACGREF_MASTER
350
19B0E
  3
ACGREFACAD_MASTER
350
19B36
  3
AcmDictionary
350
4D
  3
ACME_BOM_MANAGER_NAME
350
36
  3
ACME_COMMAND_HISTORY
350
2F
  3
ACME_SCOPE_NAME
350
2E
  3
ACMESTATEMGR
350
3B
  3
AcmeSysVarManager
350
32
  3
AcmSystemVariableManager
350
6A
  3
AD_APPL
350
19B41
  3
ADSYSVARMGR
350
19B40
  3
AmdtNamedDwgMgr
350
19B31
  3
AMG
350
3F
  3
AMGSNAPSETTINGS
350
73
  3
AMI_MASTER
350
19B39
  3
ASE_INDEX_DICTIONARY
350
19C02
  3
AUTOCAD_ASSEMBLIES_PROJECT
350
19B49
  3
Designer_Assemblies_SysVars
350
19B44
  3
DWGPROPS
350
1A594
  3
eng_data
350
2A40
  3
FILENAME
350
2916
  3
GREFAM_MODULE
350
19B3A
  3
line_dic_data
350
2A3E
  3
table_dic_data
350
1688
  3
ZWKSIZE
350
2918
  0
DICTIONARY
  5
19F74
330
2
100
AcDbDictionary
280
     1
281
     1
  3
ACAD_LAYERSTATES
360
19F75
  0
DICTIONARY
  5
165
330
1F
100
AcDbDictionary
280
     1
281
     1
  0
DICTIONARY
  5
19AFB
102
{ACAD_REACTORS
330
C
102
}
330
C
100
AcDbDictionary
281
     1
  0
DICTIONARY
  5
D
102
{ACAD_REACTORS
330
C
102
}
330
C
100
AcDbDictionary
281
     1
  0
DICTIONARY
  5
1A
102
{ACAD_REACTORS
330
C
102
}
330
C
100
AcDbDictionary
281
     1
  3
Model
350
22
  3
ﾚｲｱｳﾄ1
350
1E
  3
ﾚｲｱｳﾄ2
350
26
  0
DICTIONARY
  5
19AFA
102
{ACAD_REACTORS
330
C
102
}
330
C
100
AcDbDictionary
281
     1
  0
DICTIONARY
  5
17
102
{ACAD_REACTORS
330
C
102
}
330
C
100
AcDbDictionary
281
     1
  3
Standard
350
18
  0
DICTIONARY
  5
19
102
{ACAD_REACTORS
330
C
102
}
330
C
100
AcDbDictionary
281
     1
  0
ACDBDICTIONARYWDFLT
  5
E
102
{ACAD_REACTORS
330
C
102
}
330
C
100
AcDbDictionary
281
     1
  3
Normal
350
F
100
AcDbDictionaryWithDefault
340
F
  0
DICTIONARY
  5
19AFC
102
{ACAD_REACTORS
330
C
102
}
330
C
100
AcDbDictionary
281
     1
  3
Standard
350
19AFD
  0
ACAD_PROXY_OBJECT
  5
19B63
102
{ACAD_REACTORS
330
C
102
}
330
C
100
AcDbProxyObject
 90
      499
 91
      571
 95
       25
 70
     0
 93
      664
310
3FFFFFFFE00A02814029F2E2E2816B9B2B93B32B92E483ECB652E4AABC7C0483ECB652E487CC6F6CBB846A445F7AE41BDC1B341A12E4B34482AE76F586C6EDC6F14413BC1B7C0AD94C00A024000C048198CA58
  0
DICTIONARY
  5
1A591
102
{ACAD_REACTORS
330
C
102
}
330
C
100
AcDbDictionary
281
     1
  3
COLORDICT
350
1A592
  3
MATERIALDICT
350
1A593
  0
DICTIONARY
  5
30
102
{ACAD_REACTORS
330
C
102
}
330
C
100
AcDbDictionary
281
     1
  3
CTABLESTYLE
350
19BAB
  3
HIDETEXT
350
1A590
  3
INDEXCTL
350
1A58F
  0
ACAD_PROXY_OBJECT
  5
19B16
102
{ACAD_REACTORS
330
C
102
}
330
C
100
AcDbProxyObject
 90
      499
 91
      507
 95
       25
 70
     0
 93
      240
310
4C51A47A0000000000000000000000000000000000000000000000000000
330
19B17
330
19B18
330
19B19
330
19B1A
330
19B1B
330
19B1C
330
19B1D
330
19B1E
330
19B1F
330
19B20
330
19B21
330
19B22
330
19B23
330
19B24
330
19B25
330
19B26
330
19B27
330
19B28
330
19B29
330
19B2A
330
19B2B
330
19B2C
330
19B2D
330
19B2E
330
19B2F
330
19B30
 94
        0
  0
ACAD_PROXY_OBJECT
  5
19B0E
102
{ACAD_REACTORS
330
C
102
}
330
C
100
AcDbProxyObject
 90
      499
 91
      535
 95
       25
 70
     0
 93
       34
310
0400004280
  0
ACAD_PROXY_OBJECT
  5
19B36
102
{ACAD_REACTORS
330
C
102
}
330
C
100
AcDbProxyObject
 90
      499
 91
      541
 95
       25
 70
     0
 93
      114
310
04000041C080000000000000000000
  0
DICTIONARY
  5
4D
102
{ACAD_REACTORS
330
C
102
}
330
C
100
AcDbDictionary
281
     1
  3
AcmBOMDATA
350
4E
  3
AcmStdDictionary
350
17E
  3
AMDTSECTSYM_ARROWCOLOR
350
19B57
  0
ACAD_PROXY_OBJECT
  5
36
102
{ACAD_REACTORS
330
C
102
}
330
C
100
AcDbProxyObject
 90
      499
 91
      510
 95
       25
 70
     0
 93
       50
310
00010040400000
330
0
330
0
330
37
 94
        0
  0
ACAD_PROXY_OBJECT
  5
2F
102
{ACAD_REACTORS
330
C
102
}
330
C
100
AcDbProxyObject
 90
      499
 91
      505
 95
       25
 70
     0
 93
     6370
310
4780504554E444F8050545524153458050C475249505F53545245544348404052D4D5347202D205050413A2020206465736B746F702E6172782046696C6556657273696F6E3A20392E322E302E34014390535115149154D15511109353D1102014213880B4815539113C05084E202D20554E444F014115539113E014115539
310
113E01415454D05591501014B5354D1C80B481414104E88080819195CDADD1BDC0B985C9E08119A5B1955995C9CDA5BDB8E880E4B8C8B8C0B8D0050E414D4454524553455444424D4F4440805084E202D20554E444F014213880B4815539113C0504554E444F80504554E444F805055055524745805055153415645404052D
310
4D5347202D205050413A2020206465736B746F702E6172782046696C6556657273696F6E3A20392E322E302E34014390535115149154D15511109353D1102014213880B4815539113C05084E202D20554E444F014115539113E014115539113E01415454D05591501014B5354D1C80B481414104E88080819195CDADD1BDC0
310
B985C9E08119A5B1955995C9CDA5BDB8E880E4B8C8B8C0B8D0050E414D4454524553455444424D4F4440805084E202D20554E444F014213880B4815539113C0504554E444F80504554E444F8050644444544495440405184D5347202D20436F6D6D616E642043414E43454C4C45442E01419493D510551150201461354D1C8
310
0B4810DBDB5B585B990810D05390D1531311510B8052D4D5347202D205050413A2020206465736B746F702E6172782046696C6556657273696F6E3A20392E322E302E340142111493D411D153D3601411353D59150101461354D1C80B4810DBDB5B585B990810D05390D1531311510B805045A4F4F4D805055153415645404
310
052D4D5347202D205050413A2020206465736B746F702E6172782046696C6556657273696F6E3A20392E322E302E34014390535115149154D15511109353D1102014213880B4815539113C05084E202D20554E444F014115539113E014115539113E014154155491D1601415454D05591501014B5354D1C80B481414104E88
310
080819195CDADD1BDC0B985C9E08119A5B1955995C9CDA5BDB8E880E4B8C8B8C0B8D00
  0
ACAD_PROXY_OBJECT
  5
2E
102
{ACAD_REACTORS
330
C
102
}
330
C
100
AcDbProxyObject
 90
      499
 91
      504
 95
       25
 70
     0
 93
      586
310
09000046408000000000000000001344E200000000000000000000000000000000000000000000000000000000000000000000000000000000000000000000000000000000AAA406AA80
360
33
360
34
360
35
360
37
360
6B
360
6C
360
19B0F
360
19B10
360
19B11
360
19B12
360
19B13
360
19B14
360
19B17
360
19B18
360
19B19
360
19B1A
360
19B1B
360
19B1C
360
19B1D
360
19B1E
360
19B1F
360
19B20
360
19B21
360
19B22
360
19B23
360
19B24
360
19B25
360
19B26
360
19B27
360
19B28
360
19B29
360
19B2A
360
19B2B
360
19B2C
360
19B2D
360
19B2E
360
19B2F
360
19B30
360
19B3C
360
19B3D
360
19B3E
360
19B3F
360
19B45
360
19B46
360
19B47
360
19B48
360
19B4D
360
19B4E
360
19B4F
360
19B50
360
19B51
360
19B52
 94
        0
  0
ACAD_PROXY_OBJECT
  5
3B
102
{ACAD_REACTORS
330
C
102
}
330
C
100
AcDbProxyObject
 90
      499
 91
      515
 95
       25
 70
     0
 93
       50
310
09000042641280
  0
ACAD_PROXY_OBJECT
  5
32
102
{ACAD_REACTORS
330
C
102
}
330
C
100
AcDbProxyObject
 90
      499
 91
      507
 95
       25
 70
     0
 93
       48
310
903412000000
330
33
330
34
330
35
 94
        0
  0
ACAD_PROXY_OBJECT
  5
6A
102
{ACAD_REACTORS
330
C
102
}
330
C
100
AcDbProxyObject
 90
      499
 91
      507
 95
       25
 70
     0
 93
       40
310
90240E0000
330
6B
330
6C
 94
        0
  0
ACAD_PROXY_OBJECT
  5
19B41
102
{ACAD_REACTORS
330
C
102
}
330
C
100
AcDbProxyObject
 90
      499
 91
      551
 95
       25
 70
     0
 93
       42
310
000900004040
330
19B3C
 94
        0
  0
ACAD_PROXY_OBJECT
  5
19B40
102
{ACAD_REACTORS
330
C
102
}
330
C
100
AcDbProxyObject
 90
      499
 91
      507
 95
       25
 70
     0
 93
        8
310
AA
  0
ACAD_PROXY_OBJECT
  5
19B31
102
{ACAD_REACTORS
330
C
102
}
330
C
100
AcDbProxyObject
 90
      499
 91
      540
 95
       25
 70
     0
 93
       42
310
000100005E80
330
19B0F
 94
        0
  0
DICTIONARY
  5
3F
102
{ACAD_REACTORS
330
C
102
}
330
C
100
AcDbDictionary
281
     1
  3
AcMgSettings
350
40
  3
AMGLAYCFG
350
42
  0
DICTIONARY
  5
73
102
{ACAD_REACTORS
330
C
102
}
330
C
100
AcDbDictionary
281
     1
  3
DIMENSION
350
62F
  3
FEA
350
630
  3
HATCH (1)
350
631
  3
HATCH (2)
350
632
  3
SYMBOLS
350
633
  0
ACAD_PROXY_OBJECT
  5
19B39
102
{ACAD_REACTORS
330
C
102
}
330
C
100
AcDbProxyObject
 90
      499
 91
      544
 95
       25
 70
     0
 93
       34
310
0500004280
  0
DICTIONARY
  5
19C02
102
{ACAD_REACTORS
330
C
102
}
330
C
100
AcDbDictionary
281
     1
  3
ASEBlockHierarchyIndexRecord
350
19C04
1001
DCO15
1040
1562583387.406
  0
ACAD_PROXY_OBJECT
  5
19B49
102
{ACAD_REACTORS
330
C
102
}
330
C
100
AcDbProxyObject
 90
      499
 91
      554
 95
       25
 70
     0
 93
       98
310
0900004E400000000000000000
330
19B50
330
0
330
19B51
330
0
330
0
330
0
330
0
330
0
 94
        0
  0
ACAD_PROXY_OBJECT
  5
19B44
102
{ACAD_REACTORS
330
C
102
}
330
C
100
AcDbProxyObject
 90
      499
 91
      507
 95
       25
 70
     0
 93
       56
310
90441600000000
330
19B45
330
19B46
330
19B47
330
19B48
 94
        0
  0
XRECORD
  5
1A594
102
{ACAD_REACTORS
330
C
102
}
330
C
100
AcDbXrecord
280
     1
  1
DWGPROPS COOKIE
  2

  3

  4

  6

  7

  8

  9

300
AmdtFileType=82
301
=
302
=
303
=
304
=
305
=
306
=
307
=
308
=
309
=
 40
0.0
 41
2451943.235431667
 42
2455482.225311412
  1

 90
        1
  0
DICTIONARY
  5
2A40
102
{ACAD_REACTORS
330
C
102
}
330
C
100
AcDbDictionary
281
     1
  3
eng_id
350
2A41
  0
DICTIONARY
  5
2916
102
{ACAD_REACTORS
330
C
102
}
330
C
100
AcDbDictionary
281
     1
  3
FILENAME
350
2917
  0
ACAD_PROXY_OBJECT
  5
19B3A
102
{ACAD_REACTORS
330
C
102
}
330
C
100
AcDbProxyObject
 90
      499
 91
      545
 95
       25
 70
     0
 93
        8
310
05
  0
DICTIONARY
  5
2A3E
102
{ACAD_REACTORS
330
C
102
}
330
C
100
AcDbDictionary
281
     1
  3
line_data
350
2A3F
  0
DICTIONARY
  5
1688
102
{ACAD_REACTORS
330
C
102
}
330
C
100
AcDbDictionary
281
     1
  3
input_data
350
168A
  3
table_data
350
1689
  0
DICTIONARY
  5
2918
102
{ACAD_REACTORS
330
C
102
}
330
C
100
AcDbDictionary
281
     1
  3
ZWKSIZE
350
2919
  0
DICTIONARY
  5
19F75
102
{ACAD_REACTORS
330
19F74
102
}
330
19F74
100
AcDbDictionary
281
     1
  0
LAYOUT
  5
22
102
{ACAD_REACTORS
330
1A
102
}
330
1A
100
AcDbPlotSettings
  1

  2
SII LP-2150 (D-SCAN C2)
  4
User262
  6
AM_VIEW1
 40
3.174999952316284
 41
3.174999952316284
 42
3.17498779296875
 43
3.17498779296875
 44
296.9259948730469
 45
419.9889831542969
 46
0.0
 47
0.0
 48
0.0
 49
0.0
140
420.0
141
297.0
142
1.0
143
1.022107788374329
 70
 11952
 72
     1
 73
     1
 74
     4
  7
sei_cad.ctb
 75
     0
147
0.9783703943695685
148
0.0
149
0.0
100
AcDbLayout
  1
Model
 70
     1
 71
     0
 10
0.0
 20
0.0
 11
12.0
 21
9.0
 12
0.0
 22
0.0
 32
0.0
 14
0.0
 24
0.0
 34
0.0
 15
0.0
 25
0.0
 35
0.0
146
0.0
 13
0.0
 23
0.0
 33
0.0
 16
1.0
 26
0.0
 36
0.0
 17
0.0
 27
1.0
 37
0.0
 76
     0
330
1F
  0
LAYOUT
  5
1E
102
{ACAD_REACTORS
330
1A
102
}
330
1A
100
AcDbPlotSettings
  1

  2
Canon LASER SHOT LBP-2030
  4

  6

 40
0.0
 41
0.0
 42
0.0
 43
0.0
 44
0.0
 45
0.0
 46
0.0
 47
0.0
 48
0.0
 49
0.0
140
0.0
141
0.0
142
1.0
143
1.0
 70
   688
 72
     0
 73
     0
 74
     5
  7
sei_cad.ctb
 75
    16
147
1.0
148
0.0
149
0.0
100
AcDbLayout
  1
ﾚｲｱｳﾄ1
 70
     1
 71
     1
 10
0.0
 20
0.0
 11
420.0
 21
297.0
 12
0.0
 22
0.0
 32
0.0
 14
1.000000000000000E+20
 24
1.000000000000000E+20
 34
1.000000000000000E+20
 15
-1.000000000000000E+20
 25
-1.000000000000000E+20
 35
-1.000000000000000E+20
146
0.0
 13
0.0
 23
0.0
 33
0.0
 16
1.0
 26
0.0
 36
0.0
 17
0.0
 27
1.0
 37
0.0
 76
     0
330
1B
  0
LAYOUT
  5
26
102
{ACAD_REACTORS
330
1A
102
}
330
1A
100
AcDbPlotSettings
  1

  2
Canon LASER SHOT LBP-2030
  4

  6

 40
0.0
 41
0.0
 42
0.0
 43
0.0
 44
0.0
 45
0.0
 46
0.0
 47
0.0
 48
0.0
 49
0.0
140
0.0
141
0.0
142
1.0
143
1.0
 70
   688
 72
     0
 73
     0
 74
     5
  7
sei_cad.ctb
 75
    16
147
1.0
148
0.0
149
0.0
100
AcDbLayout
  1
ﾚｲｱｳﾄ2
 70
     1
 71
     2
 10
0.0
 20
0.0
 11
12.0
 21
9.0
 12
0.0
 22
0.0
 32
0.0
 14
0.0
 24
0.0
 34
0.0
 15
0.0
 25
0.0
 35
0.0
146
0.0
 13
0.0
 23
0.0
 33
0.0
 16
1.0
 26
0.0
 36
0.0
 17
0.0
 27
1.0
 37
0.0
 76
     0
330
23
  0
MLINESTYLE
  5
18
102
{ACAD_REACTORS
330
17
102
}
330
17
100
AcDbMlineStyle
  2
STANDARD
 70
     0
  3

 62
   256
 51
90.0
 52
90.0
 71
     2
 49
0.5
 62
   256
  6
BYLAYER
 49
-0.5
 62
   256
  6
BYLAYER
  0
ACDBPLACEHOLDER
  5
F
102
{ACAD_REACTORS
330
E
102
}
330
E
  0
TABLESTYLE
  5
19AFD
102
{ACAD_REACTORS
330
19AFC
102
}
330
19AFC
100
AcDbTableStyle
  3
Standard
 70
     0
 71
     8
 40
1.5
 41
1.5
280
     0
281
     0
  7
STANDARD
140
4.5
170
     2
 62
     0
 63
     7
283
     0
274
    -2
284
     1
 64
     0
275
    -2
285
     1
 65
     0
276
    -2
286
     1
 66
     0
277
    -2
287
     1
 67
     0
278
    -2
288
     1
 68
     0
279
    -2
289
     1
 69
     0
  7
STANDARD
140
6.0
170
     5
 62
     0
 63
     7
283
     0
274
    -2
284
     1
 64
     0
275
    -2
285
     1
 65
     0
276
    -2
286
     1
 66
     0
277
    -2
287
     1
 67
     0
278
    -2
288
     1
 68
     0
279
    -2
289
     1
 69
     0
  7
STANDARD
140
4.5
170
     5
 62
     0
 63
     7
283
     0
274
    -2
284
     1
 64
     0
275
    -2
285
     1
 65
     0
276
    -2
286
     1
 66
     0
277
    -2
287
     1
 67
     0
278
    -2
288
     1
 68
     0
279
    -2
289
     1
 69
     0
  0
XRECORD
  5
1A592
102
{ACAD_REACTORS
330
1A591
102
}
330
1A591
100
AcDbXrecord
280
     1
340
19AFB
  0
XRECORD
  5
1A593
102
{ACAD_REACTORS
330
1A591
102
}
330
1A591
100
AcDbXrecord
280
     1
340
19AFA
  0
DICTIONARYVAR
  5
19BAB
102
{ACAD_REACTORS
330
30
102
}
330
30
100
DictionaryVariables
280
     0
  1
STANDARD
  0
DICTIONARYVAR
  5
1A590
102
{ACAD_REACTORS
330
30
102
}
330
30
100
DictionaryVariables
280
     0
  1
0
  0
DICTIONARYVAR
  5
1A58F
102
{ACAD_REACTORS
330
30
102
}
330
30
100
DictionaryVariables
280
     0
  1
1
  0
ACAD_PROXY_OBJECT
  5
4E
102
{ACAD_REACTORS
330
4D
102
}
330
4D
100
AcDbProxyObject
 90
      499
 91
      520
 95
       25
 70
     0
 93
      118
310
405010040CA904C415CD5B075DD0D8
350
4F
 94
        0
  0
DICTIONARY
  5
17E
102
{ACAD_REACTORS
330
4D
102
}
330
4D
100
AcDbDictionary
281
     1
  3
JIS
350
17F
  0
XRECORD
  5
19B57
102
{ACAD_REACTORS
330
4D
102
}
330
4D
100
AcDbXrecord
280
     1
 90
-1023410169
  0
ACAD_PROXY_OBJECT
  5
33
330
2E
100
AcDbProxyObject
 90
      499
 91
      508
 95
       25
 70
     0
 93
      156
310
00010143D050D351505391D5531054925390D490
330
2E
 94
        0
  0
ACAD_PROXY_OBJECT
  5
34
330
2E
100
AcDbProxyObject
 90
      499
 91
      508
 95
       25
 70
     0
 93
      148
310
000101439050D351531253915054925390D490
330
2E
 94
        0
  0
ACAD_PROXY_OBJECT
  5
35
330
2E
100
AcDbProxyObject
 90
      499
 91
      509
 95
       25
 70
     0
 93
      156
310
000101439050D35154D6535093D314D256915080
330
2E
 94
        0
  0
ACAD_PROXY_OBJECT
  5
37
330
2E
100
AcDbProxyObject
 90
      499
 91
      511
 95
       25
 70
     0
 93
       88
310
000101411093D34C402B00
330
2E
330
0
330
0
 94
        0
  0
ACAD_PROXY_OBJECT
  5
6B
330
2E
100
AcDbProxyObject
 90
      499
 91
      509
 95
       25
 70
     0
 93
      108
310
00010142505351D153D35054D4E0
330
2E
 94
        0
  0
ACAD_PROXY_OBJECT
  5
6C
330
2E
100
AcDbProxyObject
 90
      499
 91
      522
 95
       25
 70
     0
 93
      140
310
00010142105350D55494D511005034A49530
330
2E
 94
        0
  0
ACAD_PROXY_OBJECT
  5
19B0F
330
2E
100
AcDbProxyObject
 90
      499
 91
      536
 95
       25
 70
     0
 93
      358
310
0001014124FEA55D00507392E322E302E32014124FEA55D00507392E322E302E3240501000041505391D311658
330
2E
330
19B10
330
19B16
 94
        0
  0
ACAD_PROXY_OBJECT
  5
19B10
330
2E
100
AcDbProxyObject
 90
      499
 91
      537
 95
       25
 70
     0
 93
       56
310
000190240E0000
330
2E
330
19B11
330
19B13
 94
        0
  0
ACAD_PROXY_OBJECT
  5
19B11
330
2E
100
AcDbProxyObject
 90
      499
 91
      538
 95
       25
 70
     0
 93
       48
310
0001AA000000
330
2E
330
1E
330
19B12
330
0
 94
        0
  0
ACAD_PROXY_OBJECT
  5
19B12
330
2E
100
AcDbProxyObject
 90
      499
 91
      539
 95
       25
 70
     0
 93
       28
310
0001AAA0
330
2E
 94
        0
  0
ACAD_PROXY_OBJECT
  5
19B13
330
2E
100
AcDbProxyObject
 90
      499
 91
      538
 95
       25
 70
     0
 93
       48
310
0001AA000000
330
2E
330
26
330
19B14
330
0
 94
        0
  0
ACAD_PROXY_OBJECT
  5
19B14
330
2E
100
AcDbProxyObject
 90
      499
 91
      539
 95
       25
 70
     0
 93
       28
310
0001AAA0
330
2E
 94
        0
  0
ACAD_PROXY_OBJECT
  5
19B17
330
2E
100
AcDbProxyObject
 90
      499
 91
      509
 95
       25
 70
     0
 93
      108
310
000101421053521310D05310D010
330
2E
 94
        0
  0
ACAD_PROXY_OBJECT
  5
19B18
330
2E
100
AcDbProxyObject
 90
      499
 91
      509
 95
       25
 70
     0
 93
      124
310
00010142905354915554D15112535010
330
2E
 94
        0
  0
ACAD_PROXY_OBJECT
  5
19B19
330
2E
100
AcDbProxyObject
 90
      499
 91
      509
 95
       25
 70
     0
 93
      132
310
00010143105354D150D51253D391125360
330
2E
 94
        0
  0
ACAD_PROXY_OBJECT
  5
19B1A
330
2E
100
AcDbProxyObject
 90
      499
 91
      509
 95
       25
 70
     0
 93
      124
310
00010142905355941093D49111549010
330
2E
 94
        0
  0
ACAD_PROXY_OBJECT
  5
19B1B
330
2E
100
AcDbProxyObject
 90
      499
 91
      509
 95
       25
 70
     0
 93
      116
310
0001014290535115D1D0D3D313D4A0
330
2E
 94
        0
  0
ACAD_PROXY_OBJECT
  5
19B1C
330
2E
100
AcDbProxyObject
 90
      499
 91
      509
 95
       25
 70
     0
 93
      148
310
00010143505355925155D49151949154D21010
330
2E
 94
        0
  0
ACAD_PROXY_OBJECT
  5
19B1D
330
2E
100
AcDbProxyObject
 90
      499
 91
      509
 95
       25
 70
     0
 93
      172
310
00010144105350539393D51154149154D15495915010
330
2E
 94
        0
  0
ACAD_PROXY_OBJECT
  5
19B1E
330
2E
100
AcDbProxyObject
 90
      499
 91
      509
 95
       25
 70
     0
 93
      172
310
00010144105350555513D11253505494905391D15010
330
2E
 94
        0
  0
ACAD_PROXY_OBJECT
  5
19B1F
330
2E
100
AcDbProxyObject
 90
      499
 91
      509
 95
       25
 70
     0
 93
      124
310
00010142D05351561514915191125360
330
2E
 94
        0
  0
ACAD_PROXY_OBJECT
  5
19B20
330
2E
100
AcDbProxyObject
 90
      499
 91
      509
 95
       25
 70
     0
 93
      132
310
00010142D05355105410539393D5115010
330
2E
 94
        0
  0
ACAD_PROXY_OBJECT
  5
19B21
330
2E
100
AcDbProxyObject
 90
      499
 91
      509
 95
       25
 70
     0
 93
      108
310
00010142105350555513D0D31010
330
2E
 94
        0
  0
ACAD_PROXY_OBJECT
  5
19B22
330
2E
100
AcDbProxyObject
 90
      499
 91
      509
 95
       25
 70
     0
 93
      108
310
00010142105350D3119150551050
330
2E
 94
        0
  0
ACAD_PROXY_OBJECT
  5
19B23
330
2E
100
AcDbProxyObject
 90
      499
 91
      509
 95
       25
 70
     0
 93
      108
310
00010142105350D315925155D3F0
330
2E
 94
        0
  0
ACAD_PROXY_OBJECT
  5
19B24
330
2E
100
AcDbProxyObject
 90
      499
 91
      509
 95
       25
 70
     0
 93
      148
310
0001014350535212511156915493D112535010
330
2E
 94
        0
  0
ACAD_PROXY_OBJECT
  5
19B25
330
2E
100
AcDbProxyObject
 90
      499
 91
      509
 95
       25
 70
     0
 93
      124
310
00010142905352105510D21254D3D010
330
2E
 94
        0
  0
ACAD_PROXY_OBJECT
  5
19B26
330
2E
100
AcDbProxyObject
 90
      499
 91
      509
 95
       25
 70
     0
 93
      148
310
00010143905354D25391D31152105513105660
330
2E
 94
        0
  0
ACAD_PROXY_OBJECT
  5
19B27
330
2E
100
AcDbProxyObject
 90
      499
 91
      509
 95
       25
 70
     0
 93
      124
310
00010142D0535115D1D193111254D420
330
2E
 94
        0
  0
ACAD_PROXY_OBJECT
  5
19B28
330
2E
100
AcDbProxyObject
 90
      499
 91
      509
 95
       25
 70
     0
 93
      100
310
00010142105350555513D213A0
330
2E
 94
        0
  0
ACAD_PROXY_OBJECT
  5
19B29
330
2E
100
AcDbProxyObject
 90
      499
 91
      509
 95
       25
 70
     0
 93
      116
310
000101425053521390D3D553951010
330
2E
 94
        0
  0
ACAD_PROXY_OBJECT
  5
19B2A
330
2E
100
AcDbProxyObject
 90
      499
 91
      509
 95
       25
 70
     0
 93
      108
310
0001014210535213941493D29010
330
2E
 94
        0
  0
ACAD_PROXY_OBJECT
  5
19B2B
330
2E
100
AcDbProxyObject
 90
      499
 91
      509
 95
       25
 70
     0
 93
      108
310
0001014210535213951654115070
330
2E
 94
        0
  0
ACAD_PROXY_OBJECT
  5
19B2C
330
2E
100
AcDbProxyObject
 90
      499
 91
      509
 95
       25
 70
     0
 93
      108
310
000101421053521395925155D0F0
330
2E
 94
        0
  0
ACAD_PROXY_OBJECT
  5
19B2D
330
2E
100
AcDbProxyObject
 90
      499
 91
      509
 95
       25
 70
     0
 93
      140
310
00010143505354D150D51253D390D3D41660
330
2E
 94
        0
  0
ACAD_PROXY_OBJECT
  5
19B2E
330
2E
100
AcDbProxyObject
 90
      499
 91
      509
 95
       25
 70
     0
 93
      108
310
00010142105350D3141493D29030
330
2E
 94
        0
  0
ACAD_PROXY_OBJECT
  5
19B2F
330
2E
100
AcDbProxyObject
 90
      499
 91
      508
 95
       25
 70
     0
 93
      212
310
00010143905350555513D2105510D21493D500000000000002E400
330
2E
 94
        0
  0
ACAD_PROXY_OBJECT
  5
19B30
330
2E
100
AcDbProxyObject
 90
      499
 91
      509
 95
       25
 70
     0
 93
      156
310
00010143905350555513D2105510D21111551010
330
2E
 94
        0
  0
ACAD_PROXY_OBJECT
  5
19B3C
330
2E
100
AcDbProxyObject
 90
      499
 91
      547
 95
       25
 70
     0
 93
      698
310
0001000000009AA6A9AA4051E4D6F6E204665622030362030383A31353A333720323030362028555443290141CE4B8C8B8C0B8C80518547565204F63742031322031343A32343A323620323031300141CE4B8C8B8C0B8C80
330
2E
330
19B3D
330
19B3E
330
19B40
330
0
 94
        0
  0
ACAD_PROXY_OBJECT
  5
19B3D
330
2E
100
AcDbProxyObject
 90
      499
 91
      548
 95
       25
 70
     0
 93
       70
310
0001AAA80820000000
330
2E
330
19B3D
330
19B3D
 94
        0
  0
ACAD_PROXY_OBJECT
  5
19B3E
330
2E
100
AcDbProxyObject
 90
      499
 91
      549
 95
       25
 70
     0
 93
       48
310
000100000000
330
2E
330
0
330
19B3F
330
0
330
0
 94
        0
  0
ACAD_PROXY_OBJECT
  5
19B3F
330
2E
100
AcDbProxyObject
 90
      499
 91
      550
 95
       25
 70
     0
 93
       40
310
000100AAAA
330
2E
330
0
 94
        0
  0
ACAD_PROXY_OBJECT
  5
19B45
330
2E
100
AcDbProxyObject
 90
      499
 91
      522
 95
       25
 70
     0
 93
      180
310
00010143105050D3D35411119390535140504434F4D500
330
2E
 94
        0
  0
ACAD_PROXY_OBJECT
  5
19B46
330
2E
100
AcDbProxyObject
 90
      499
 91
      522
 95
       25
 70
     0
 93
      212
310
0001014390505193D311115491119390535140506466F6C6465720
330
2E
 94
        0
  0
ACAD_PROXY_OBJECT
  5
19B47
330
2E
100
AcDbProxyObject
 90
      499
 91
      522
 95
       25
 70
     0
 93
      180
310
00010143105050539393D1119390535140504284156290
330
2E
 94
        0
  0
ACAD_PROXY_OBJECT
  5
19B48
330
2E
100
AcDbProxyObject
 90
      499
 91
      522
 95
       25
 70
     0
 93
      436
310
00010143905050D3D35415925155D31254D50052295BD96CA0A90B396CA0A894591A496CA0A8DB691A496CA0A89BA96CA0A95E28F95310
330
2E
 94
        0
  0
ACAD_PROXY_OBJECT
  5
19B4D
330
2E
100
AcDbProxyObject
 90
      499
 91
      555
 95
       25
 70
     0
 93
       32
310
00010000
330
2E
340
19B4A
330
19B4F
330
19B4A
 94
        0
  0
ACAD_PROXY_OBJECT
  5
19B4E
330
2E
100
AcDbProxyObject
 90
      499
 91
      556
 95
       25
 70
     0
 93
       18
310
000180
330
2E
 94
        0
  0
ACAD_PROXY_OBJECT
  5
19B4F
330
2E
100
AcDbProxyObject
 90
      499
 91
      557
 95
       25
 70
     0
 93
      162
310
00010142561094150B4C8C4C949050055401550000
330
2E
330
19B4D
330
19B4E
 94
        0
  0
ACAD_PROXY_OBJECT
  5
19B50
330
2E
100
AcDbProxyObject
 90
      499
 91
      558
 95
       25
 70
     0
 93
      178
310
000100AAAAAA8E072A4E31EC1A52A9278B289F7929B080
330
2E
330
19B4F
 94
        0
  0
ACAD_PROXY_OBJECT
  5
19B51
330
2E
100
AcDbProxyObject
 90
      499
 91
      559
 95
       25
 70
     0
 93
      108
310
000190140A000000000000AAAAA0
330
2E
330
19B52
330
19B52
330
19B52
330
19B52
330
19B52
330
0
 94
        0
  0
ACAD_PROXY_OBJECT
  5
19B52
330
2E
100
AcDbProxyObject
 90
      499
 91
      560
 95
       25
 70
     0
 93
       51
310
00010000AAAA80
330
2E
330
19B51
330
19B4F
 94
        0
  0
DICTIONARY
  5
40
102
{ACAD_REACTORS
330
3F
102
}
330
3F
100
AcDbDictionary
281
     1
  3
DWGSETTINGS
350
41
  3
FEM
350
69
  3
Shaft
350
56
  3
TRANSSETTINGS
350
4C
  0
ACAD_PROXY_OBJECT
  5
42
102
{ACAD_REACTORS
330
3F
102
}
330
3F
100
AcDbProxyObject
 90
      499
 91
      519
 95
       25
 70
     0
 93
    23232
310
41502491013041105357CC201C00030C011E441013141105357CC603800030C011E441013241105357CCA01400030C011E441013341105357CCE01800030C010D9013441105357CD200C00030C010D9013541105357CD600C00030C010D9013641105357CDA00800030C011E9013741105357CDE01000030C010D901384110
310
5357CE200400030C011E9013941105357CE63F400030C0241102324141505357CC4C201C00030C011E902344141505357CC4C600C00030C010D902495041505357CC4CA01C00030C011E40902304E41505357CC13A01C00030C011E902314E41505357CC53A03800030C011E902324E41505357CC93A01400030C011E90233
310
4E41505357CCD3A01800030C010D902344E41505357CD13A00C00030C010D902354E41505357CD53A00C00030C010D902364E41505357CD93A00800030C011E902374E41505357CDD3A01000030C010D902384E41505357CE13A00400030C011E902394E41505357CE53A3F400030C024110332414E41905357CC4C13A01C0
310
0030C011E90334414E41905357CC4C53A00C00030C010D90349504E41905357CC4C93A01C00030C011E409044B4C494E41505357D0D3200400030C011E42504494E464F42105357D410549151A01000030C010D42D055241484D3541905357D093D4A01C00030C011E425045649455742105357D5925155D4E00400030C011
310
E42D06424548494E4441905357D25395A3F400030C0243505545241494C41505357D514A00C00030C010D4250348494441905357D21251201C00030C011E4250356495341905357D59254E01C00030C011E4250650415244494D42505357D41054911253600C00030C010D4250652454644494D42505357D49151911253601
310
000030C010D425774110531514901348070000C300479034110915312501348000000C0003FFFFFFFD034110921395901398000000C0003FFFFFFFE415092139594D06424548494E448000000C0003FFFFFFFE411093125110234418000000C0003FFFFFFFD03411093D05410234418000000C0003FFFFFFFD03411093D48C
310
9055241484D358010000C30047A411093D48CD055241484D358020000C30047A411093D48D5055241484D358000000C0003FFFFFFFE411093D48DD055241484D3581E0000C30047903411094105410234418000000C0003FFFFFFFD03411094115610234418000000C0003FFFFFFFD034110951112501358000000C0003FFF
310
FFFFD034110D0530C901348000000C0003FFFFFFFE4110D0530CD01348020000C30047A4110D0530D501348070000C30047A4110D0530DD013481E0000C30047A4110D15393901378000000C0003FFFFFFFE4110D15395D01378000000C0003FFFFFFFE4110D312539044B4C494E8000000C0003FFFFFFFE4110D3D38C5013
310
08000000C0003FFFFFFFD034110D3D38C901318000000C0003FFFFFFFD034110D3D38CD01328000000C0003FFFFFFFD034110D3D38D101328000000C0003FFFFFFFD034111115494101348000000C0003FFFFFFFD034111115510501348000000C0003FFFFFFFE4111125051D01358000000C0003FFFFFFFE4111125312501
310
358000000C0003FFFFFFFE411112535410650415244494D8000000C0003FFFFFFFE411112535490652454644494D8000000C0003FFFFFFFE411156135410234418000000C0003FFFFFFFD034111915353901388000000C0003FFFFFFFE415191535413901388030000C3004364151915354D410234418000000C0003FFFFFF
310
FE4151915354D510234418030000C300436415191535593901328000000C0003FFFFFFFE415191535595101328030000C3004364111931055101308000000C0003FFFFFFFD03411194905490234418000000C0003FFFFFFFD034111D49312501358000000C0003FFFFFFFD034111D5931250234418000000C0003FFFFFFFD0
310
34112105510D01388000000C0003FFFFFFFD014112125113901338000000C0003FFFFFFFD034112125115D01338000000C0003FFFFFFFD034112131253901348000000C0003FFFFFFFD01411213D0D3901378000000C0003FFFFFFFE411213D0D5D01378000000C0003FFFFFFFE4112539193D04494E464F8000000C0003FF
310
FFFFFE4113105112501348000000C0003FFFFFFFD034113115051101358000000C0003FFFFFFFE419397D0921395902394E8000000C0003FFFFFFFE419397D0D3D38C502304E8000000C0003FFFFFFFD03419397D0D3D38C902314E8000000C0003FFFFFFFD03419397D0D3D38CD02324E8000000C0003FFFFFFFD03419397
310
D0D3D38D102324E8000000C0003FFFFFFFD03419397D0D15393902374E8000000C0003FFFFFFFE419397D0D15395D02374E8000000C0003FFFFFFFE419397D1125312502354E8000000C0003FFFFFFFE419397D2105510D02384E8000000C0003FFFFFFFD01419397D2125113902334E8000000C0003FFFFFFFD03419397D2
310
125115D02334E8000000C0003FFFFFFFD03419397D3115051102354E8000000C0003FFFFFFFE419397D391D25410349504E8000000C0003FFFFFFFE419397D412105390334414E8000000C0003FFFFFFFE419397D510D3D3902304E8000000C0003FFFFFFFD03419397D5121312502344E8000000C0003FFFFFFFD01419397
310
D5131153902304E8000000C0003FFFFFFFD03419397D516150CD02364E8000000C0003FFFFFFFD03419397D594131250332414E8000000C0003FFFFFFFE411391D25410249508000000C0003FFFFFFFE411410530C9055241484D358010000C30047A411410530CD055241484D358020000C30047A411410530D5055241484
310
D358000000C0003FFFFFFFE411410530DD055241484D3581E0000C30047903411412105390234418000000C0003FFFFFFFE411413D4D3901368070000C30047A419413D4D49151901368050000C30047903411413D4D6101368000000C0003FFFFFFFD03411414D150D0234418000000C0003FFFFFFFD03411490D1D390137
310
8000000C0003FFFFFFFE411490D1D5D01378000000C0003FFFFFFFE4114919112501348000000C0003FFFFFFFD034114945514901348070000C30047903411494D093D01348000000C0003FFFFFFFD034114D09492D01348000000C0003FFFFFFFD014114D0D153901378000000C0003FFFFFFFD034114D150D51013480000
310
00C0003FFFFFFFD014114D15313901378000000C0003FFFFFFFD034114D15315D01378000000C0003FFFFFFFD034114D4D654D01308000000C0003FFFFFFFD034114D51312501348070000C300479034114D6508C501358000000C0003FFFFFFFD034114D6508C901358000000C0003FFFFFFFD034114D6508CD0135802000
310
0C30047A4114D6508D501358070000C300479034114D65353901378000000C0003FFFFFFFD034114D65355D01378000000C0003FFFFFFFD03411510D3D3901308000000C0003FFFFFFFD034115121312501348000000C0003FFFFFFFD01411512550C9055241484D358010000C30047A411512550CD055241484D358020000
310
C30047A411512550D5055241484D358000000C0003FFFFFFFE411512550DD055241484D3581E0000C300479034115131153901308000000C0003FFFFFFFD03415514905253105545241494C8000000C0003FFFFFFFE41151492D3901378000000C0003FFFFFFFD0341151492D5D01378000000C0003FFFFFFFD03411514931
310
2501348000000C0003FFFFFFFD01411516150C501368030000C300436411516150C901368030000C300436411516150CD01368000000C0003FFFFFFFE411516150D501368070000C30047A411516150DD013681E0000C30047A4115925155D04564945578000000C0003FFFFFFFE41159151121034849448000000C0003FFF
310
FFFFD0241159151159035649538000000C0003FFFFFFFD02411594131250232418000000C0003FFFFFFFE4116925690501348000000C0003FFFFFFFD01411354D653501358020000C30047AAAA3F400030C01013F90A4391E41D1E4190D4151E4110D40D0D4091E4051E4791E7F6
340
16
340
16
340
16
340
43
340
16
340
16
340
16
340
44
340
16
340
16
340
44
340
45
340
16
340
16
340
16
340
16
340
43
340
16
340
16
340
16
340
44
340
16
340
16
340
44
340
45
340
16
340
46
340
16
340
16
340
16
340
16
340
16
340
43
340
16
340
16
340
16
340
47
340
15
340
15
340
15
340
15
340
15
340
15
340
15
340
15
340
15
340
15
340
15
340
15
340
15
340
15
340
15
340
15
340
48
340
15
340
15
340
15
340
15
340
15
340
15
340
15
340
15
340
15
340
15
340
15
340
15
340
15
340
15
340
15
340
16
340
15
340
15
340
15
340
15
340
15
340
15
340
15
340
15
340
47
340
15
340
15
340
48
340
15
340
15
340
15
340
15
340
15
340
15
340
15
340
15
340
15
340
48
340
15
340
15
340
15
340
47
340
15
340
15
340
15
340
15
340
15
340
15
340
15
340
15
340
15
340
15
340
15
340
15
340
15
340
15
340
15
340
15
340
15
340
15
340
15
340
48
340
15
340
15
340
48
340
15
340
15
340
16
340
15
340
48
340
15
340
15
340
47
340
15
340
15
340
16
340
15
340
48
340
15
340
15
340
15
340
15
340
15
340
15
340
15
340
15
340
15
340
48
340
15
340
15
340
15
340
15
340
15
340
15
340
15
340
15
340
15
340
15
340
15
340
4B
340
16
 94
        0
  0
ACAD_PROXY_OBJECT
  5
62F
102
{ACAD_REACTORS
330
73
102
}
330
73
100
AcDbProxyObject
 90
      499
 91
      523
 95
       25
 70
     0
 93
      253
310
43D1444494D454E53494F4E2C414D44545F2A5F44494D404A9012A404A9012A0
  0
ACAD_PROXY_OBJECT
  5
630
102
{ACAD_REACTORS
330
73
102
}
330
73
100
AcDbProxyObject
 90
      499
 91
      523
 95
       25
 70
     0
 93
      181
310
43D012A42D05357D191504B505357CA9012A404A9012A8
  0
ACAD_PROXY_OBJECT
  5
631
102
{ACAD_REACTORS
330
73
102
}
330
73
100
AcDbProxyObject
 90
      499
 91
      523
 95
       25
 70
     0
 93
      133
310
43D054841544348404A9012A404A9012A8
  0
ACAD_PROXY_OBJECT
  5
632
102
{ACAD_REACTORS
330
73
102
}
330
73
100
AcDbProxyObject
 90
      499
 91
      523
 95
       25
 70
     0
 93
      549
310
43D044C494E4549CE0B0E138B0A8B4E0B0A8B4E138B105357CE0B105357CE138B0A8B505357CE0B0A8B505357CE139012A404A910494E534552542C5354445041525432448
  0
ACAD_PROXY_OBJECT
  5
633
102
{ACAD_REACTORS
330
73
102
}
330
73
100
AcDbProxyObject
 90
      499
 91
      523
 95
       25
 70
     0
 93
      909
310
43D6641434D46434652414D452C41434D444154554D5441524745542C41434D444154554D49442C41434D57454C4453594D2C41434D5355524653594D2C41434D4645415449442C41434D504152545245462C41434D42414C4C4F4F4E2C414D44544544474553594D404A9012A404A9012A8
  0
XRECORD
  5
19C04
102
{ACAD_REACTORS
330
19C02
102
}
330
19C02
100
AcDbXrecord
280
     1
330
0
330
0
330
0
330
0
330
0
330
0
330
0
330
0
330
0
330
0
330
0
330
0
330
0
330
0
330
0
330
0
330
0
330
0
330
0
330
0
330
0
330
0
330
0
330
0
330
0
330
0
330
0
330
0
330
0
330
0
330
0
330
0
330
0
330
0
330
0
330
0
330
0
330
0
330
0
330
0
330
0
330
0
330
0
330
0
330
0
330
0
330
0
330
0
330
0
330
0
330
0
330
0
330
0
330
0
330
0
330
0
330
0
330
0
330
0
330
0
330
0
330
0
330
0
330
0
330
0
330
0
330
0
330
0
330
0
330
0
330
0
330
0
330
0
330
0
330
0
  0
XRECORD
  5
2A41
102
{ACAD_REACTORS
330
2A40
102
}
330
2A40
100
AcDbXrecord
280
     1
  1
LINE
  0

  0
XRECORD
  5
2917
102
{ACAD_REACTORS
330
2916
102
}
330
2916
100
AcDbXrecord
280
     1
  1
25000259__00___
  0

  0
XRECORD
  5
2A3F
102
{ACAD_REACTORS
330
2A3E
102
}
330
2A3E
100
AcDbXrecord
280
     1
  1
110 ^M^J ^M^J ^M^J ^M^J ^M^J ^M^J ^M^J ^M^J ^M^J ^M^J ^M^Jボーリングクイル ^M^J鋼 ^M^J特型 ^M^J直付け ^M^Jストレート ^M^J25 ^M^J2 ^M^J ^M^Jアルミ ^M^J ^M^J
  0

  0
XRECORD
  5
168A
102
{ACAD_REACTORS
330
1688
102
}
330
1688
100
AcDbXrecord
280
     1
  1
1,,,,,,,,,^M^J2,,,,,,,,,^M^J3,,,,,,,,,^M^J4,,,,,,,,,^M^J5,,,,,,,,,^M^J6,,,,,,,,,^M^J7,,,,,,,,,^M^J8,,,,,,,,,^M^J9,,,,,,,,,^M^J10,,,,,,,,,
  0

  0
XRECORD
  5
1689
102
{ACAD_REACTORS
330
1688
102
}
330
1688
100
AcDbXrecord
280
     1
  1
10,10
  0

  0
XRECORD
  5
2919
102
{ACAD_REACTORS
330
2918
102
}
330
2918
100
AcDbXrecord
280
     1
  1
3
  0

  0
ACAD_PROXY_OBJECT
  5
4F
102
{ACAD_REACTORS
330
4E
102
}
330
4E
100
AcDbProxyObject
 90
      499
 91
      521
 95
       25
 70
     0
 93
      157
310
057356C1D77406406AA8FFFFFFFF05DD01009010
330
1F
330
0
330
19B4F
 94
        0
  0
ACAD_PROXY_OBJECT
  5
17F
102
{ACAD_REACTORS
330
17E
102
}
330
17E
100
AcDbProxyObject
 90
      499
 91
      526
 95
       25
 70
     0
 93
     2379
310
5DC33333333333309408000000C00040D29254D01640600800030C0200800030C003333333333330940C8121E8720B1B6A9BAB9332A32BC3A29BA3220480A1282C6DA8C868CA6E8C88120286A0B1B6ABB2B63234B733A9BA3220480A1082C6DA92C8A6E8C88120285A0B1B6A230BA3AB6A9BA3220480A1282C6DA849E9AA6E
310
8C88120286A0B1A0B6B3AA34BA3632A9BA3220480A2082DAC8E888CAE8C2D2D8A6F2DAA6E8C88120288A0B6B23A29B2B1BA34B7B729BCB6A9BA3220480A2282DAC8E886CADCE8CAE498D2DCCAA6E8C88120288A0B6B23A2A343932B0B22634B732A9BA3220480A1682DAC8E89CDEE8CAA6E8C88120285A0B1A0B6B3A630BCA
310
9BA3220480A1682C682DACE88D2DAA6E8C88120288A0B1A0B6B3A437B632A1B430B93A29BA3220480C812020
340
180
360
181
360
182
360
183
360
184
360
185
360
186
360
19B54
360
19B55
360
19B56
360
19B58
360
19B59
360
19B5A
360
19B60
360
19B61
360
19B62
340
0
340
0
 94
        0
  0
ACAD_PROXY_OBJECT
  5
41
102
{ACAD_REACTORS
330
40
102
}
330
40
100
AcDbProxyObject
 90
      499
 91
      518
 95
       25
 70
     0
 93
     2938
310
4050B44574753455454494E4753A0E8482A68AA6A88882A069492A684A1A0A723A0A92920ACA0A811C1A20C868A9C829C8E82A12686AF87260F862666A8321A2A72224A0A50000000000000122020E868A9C889282A682A106260F86460F8666083A1A2A72224A9AA250000000000000042020C868A9C988A9C94000000000
310
000048808321A2A727A323250000000000000122020E868A9C9E8C8C62940000000000000488083A1A2A727A32319250000000000000122021CC6D0C2DACCCAE4C8D2DADADEC8CA9FC84A1A624A720A92920ACA0A809C2108698929C8AA8B2A082A0AB098929C8A84A22BA3AAA9A1A0A622A50A0E9882A6A89E849482A0260
310
8426A0A5A2AB24A2ABA7E8120CA0A68682988A0C00800010652455649534941501304154D0D0531150540CC4E8C5085354414E44415244415034A4953425512535154D510535412835B7D1909E4ADCD050756455253494F4E4150531352E3030441ED115D1D4D15515125391D4D153911F40
  0
ACAD_PROXY_OBJECT
  5
69
102
{ACAD_REACTORS
330
40
102
}
330
40
100
AcDbProxyObject
 90
      499
 91
      518
 95
       25
 70
     0
 93
      411
310
4050346454D21092DCC6E486DECACC942842630BCA3B937BAB820A8320A6AFA322A0A20F688AE8EA68AA8A8929C8EA68A9C88FA0
  0
ACAD_PROXY_OBJECT
  5
56
102
{ACAD_REACTORS
330
40
102
}
330
40
100
AcDbProxyObject
 90
      499
 91
      518
 95
       25
 70
     0
 93
      583
310
40505536861667421292DCE8CAE4E4EAE0E89FA0484A634B3B43A2634B732A7F21A98D2CED0E898D2DCCAACD2CAEE9FC8229B4B232A7E80A20F688AE8EA68AA8A8929C8EA68A9C88FA
  0
ACAD_PROXY_OBJECT
  5
4C
102
{ACAD_REACTORS
330
40
102
}
330
40
100
AcDbProxyObject
 90
      499
 91
      518
 95
       25
 70
     0
 93
      852
310
4050D5452414E5353455454494E4753A2488A482AE929C8EA8A4829CA69882A8929E9C0C00800050D4F524947494E414C4C595F4F4E0600400028529A7AAA921A2A620A723A0A81A52827212AAA0A48AA68AA4AC8A0C0080001107B44574753455454494E4753454E447D0
  0
ACAD_PROXY_OBJECT
  5
181
330
17F
100
AcDbProxyObject
 90
      499
 91
      527
 95
       25
 70
     0
 93
       86
310
5DEA0C80A0280A0280A034
  0
ACAD_PROXY_OBJECT
  5
182
330
17F
100
AcDbProxyObject
 90
      499
 91
      528
 95
       25
 70
     0
 93
      282
310
5DD0E4050140501405014050140501405014050141101405014041000000000000001000
340
187
 94
        0
  0
ACAD_PROXY_OBJECT
  5
183
330
17F
100
AcDbProxyObject
 90
      499
 91
      529
 95
       25
 70
     0
 93
      323
310
5DCC199999999999E99F91740501405014050140501405014050140501405014050140501405014040
340
0
 94
        0
  0
ACAD_PROXY_OBJECT
  5
184
330
17F
100
AcDbProxyObject
 90
      499
 91
      530
 95
       25
 70
     0
 93
       10
310
5DC0
  0
ACAD_PROXY_OBJECT
  5
185
330
17F
100
AcDbProxyObject
 90
      499
 91
      531
 95
       25
 70
     0
 93
      257
310
5DE0C16A22A7D90F49F80000000000001081400000000000004204010000618000
340
188
340
189
 94
        0
  0
ACAD_PROXY_OBJECT
  5
186
330
17F
100
AcDbProxyObject
 90
      499
 91
      532
 95
       25
 70
     0
 93
     5277
310
5DD06411255115350141236025B6901405014069010000000000000910240690120281A8AA2CA0282484A4BE52028120280A032020000000000001220480D202405044E414D454050496BC914F4051C40640A80000000000004E4090193C3D3C4946284953424C414E4B28504152543A4E414D45292C424C4F434B3A4E414D
310
452C504152543A4E414D45293E3C41435F44455343524950544E3E40480A109A82A88AA492829880A091BBD2F7E80A3A80C81D0E27A15AF46E08A81203480901411393D5115014124A363B7D0147501904A0000000000000F902406428F4F1050D7D393D5114F901202832B22A72227A92028366EF6EE06F582028EA0320B4
310
0000000000001F20480C879E9E20A1AFAB27222FA620A122A61F20240506445020000000000000490201C00030C00010180000000000003E400000000000000F901073D3C4954454D3E4050180000000000003E400000000000000F901073D3C4954454D3E40501800000000000034400000000000000D101073D3C4954454
310
D3E40501800000000000034400000000000000D101073D3C4954454D3E405029010000000000000F9000000000000003E4041CF4F125511534F901418F4F1455164F9014060000000000000F9000000000000003E4041CF4F125511534F901800000000000034400000000000000D101073D3C4954454D3E40640400000000
310
0000003E400000000000000F90288800000000000020810000001800120881A068120480A032208521122080D21480D211480A1485214852050000000000003C2FC000000000000F0BF40600800030C0200400030C00CDCCCCCCCCCCEC3F3373333333333B0FC3333333333330940C80D069014090341504901A1999999999
310
9984A040100006180400800061804010000618008098A02808
340
0
340
0
 94
        0
  0
ACAD_PROXY_OBJECT
  5
19B54
330
17F
100
AcDbProxyObject
 90
      499
 91
      561
 95
       25
 70
     0
 93
     3042
310
5DD9740D29254D064A49535F413342929254D7D512551311505134A49535F42525F5265766973696F6E6C6973744190F4134522028323937783231306D6D2941D29254D7D04D1490E41312028353934783834316D6D2941929254D7D04C50E41332028323937783432306D6D2941929254D7D04CD0F41344C2028323130783
310
239376D6D2941D29254D7D04D1310E41322028343230783539346D6D2941929254D7D04C90F4130202838343178313138396D6D2941929254D7D04C10243129254C82557247A25E4C81050A4A49535F5449544C454143129254C82557247A25E4C81090A4A49535F5449544C45424110E979A97F0838A835883675F42525F4
310
4D29254D7D09497D4995D9A5CDA5BDB9B1A5CDD10E979A97F0838A835883675F54525F44D29254D7D51497D4995D9A5CDA5BDB9B1A5CDD10E979A97F0838A835883675F424C5F44D29254D7D09317D4995D9A5CDA5BDB9B1A5CDD10E979A97F0838A835883675F544C5F44D29254D7D51317D4995D9A5CDA5BDB9B1A5CDD00
  0
ACAD_PROXY_OBJECT
  5
19B55
330
17F
100
AcDbProxyObject
 90
      499
 91
      562
 95
       25
 70
     0
 93
      898
310
5DC4000000000000124048CF4F11115510525317D3105091530F880A0F11115510525317D05094D4D0D053114F8A50241C9A9999999999B93F26A666666666724FC000000000000E03F400000000000000400000000000000510000000000000024408070000C300000000000000049000
340
16
340
180
 94
        0
  0
ACAD_PROXY_OBJECT
  5
19B56
330
17F
100
AcDbProxyObject
 90
      499
 91
      563
 95
       25
 70
     0
 93
      823
310
5DC0B00000000000002480959E9E29A2A1AA24A7A72FA620A122A62FA324A929AA1F169E29A2A1AA24A7A72FA620A122A62FA620A9AA1F000000000000048803FFFE01C00030C008140380006180000000000000048800000000000000A2000000000000002480
340
652
340
180
 94
        0
  0
ACAD_PROXY_OBJECT
  5
19B58
330
17F
100
AcDbProxyObject
 90
      499
 91
      564
 95
       25
 70
     0
 93
      152
310
5DE8273108AC1C5A0640A3D0A5723F0BD1F200
  0
ACAD_PROXY_OBJECT
  5
19B59
330
17F
100
AcDbProxyObject
 90
      499
 91
      565
 95
       25
 70
     0
 93
       14
310
5DE0
340
0
 94
        0
  0
ACAD_PROXY_OBJECT
  5
19B5A
330
17F
100
AcDbProxyObject
 90
      499
 91
      566
 95
       25
 70
     0
 93
     6059
310
5DD084050BA4050AA405024050E836583938376838C815B83672031405983D3C486F6C653A6469613E3C696628657175616C28486F6C653A7465726D696E6174696F6E2C223022292C2220905B82B320222C22208368838A838B22293E3C696628657175616C28486F6C653A7465726D696E6174696F6E2C223022292C486F
310
6C653A64657074682C2222293E2C203C486F6C653A63746469613E2082B482AE82E882CC905B82B3203C486F6C653A637464657074683E406901405034050E836583938376838C815B83672031405EF3D3C486F6C653A6374616E676C653E252564202525633C486F6C653A63746469613E208E4D8C8A2C203C69662865717
310
5616C28486F6C653A7461707065642C223022292C22252563222C486F6C653A6E6F6D696E616C202220782022293E3C696628657175616C28486F6C653A7461707065642C223022292C486F6C653A6469612C486F6C653A706974636864657363293E203C696628657175616C28486F6C653A7465726D696E6174696F6E2C2
310
23022292C22905B82B320222C222022293E3C696628657175616C28486F6C653A7465726D696E6174696F6E2C223022292C486F6C653A64657074682C2222293E406901405014050E836583938376838C815B83672031405C73D3C696628657175616C28486F6C653A7461707065642C223022292C22252563222C486F6C65
310
3A6E6F6D696E616C202220782022293E3C696628657175616C28486F6C653A7461707065642C223022292C486F6C653A6469612C486F6C653A706974636864657363293E203C696628657175616C28486F6C653A7465726D696E6174696F6E2C223022292C22905B82B320222C222022293E3C696628657175616C28486F6C
310
653A7465726D696E6174696F6E2C223022292C486F6C653A64657074682C2222293E4069014051E4090E836583938376838C815B83672032405173D3C535444503A444553433E203C535444503A5354443E40690E836583938376838C815B836720314050C3D3C535444503A444553433E40690240515AAABBA120
360
19B5E
330
19B5E
360
19B5F
330
19B5F
360
19B5D
330
19B5D
360
19B5C
360
19B5B
330
19B5C
330
19B5B
 94
        0
  0
ACAD_PROXY_OBJECT
  5
19B60
330
17F
100
AcDbProxyObject
 90
      499
 91
      568
 95
       25
 70
     0
 93
       26
310
5DD02A80
340
42
 94
        0
  0
ACAD_PROXY_OBJECT
  5
19B61
330
17F
100
AcDbProxyObject
 90
      499
 91
      569
 95
       25
 70
     0
 93
      250
310
5DD020000000000000A1000000000000002440408F0F9023C3E409A0DCFFFF80
340
58
340
1B97
340
1B98
340
5F
340
60
340
61
340
62
340
63
340
68
340
0
 94
        0
  0
ACAD_PROXY_OBJECT
  5
19B62
330
17F
100
AcDbProxyObject
 90
      499
 91
      570
 95
       25
 70
     0
 93
    13889
310
5DD1D003FFFFFFFD030300030CCCCCCCCCCCC250200800030C01030300030CCCCCCCCCCCC250200800030C00050C8DC0955782CC838A83588367014ED1D15395149050D3CB1294138B0C0B23702555E0B320E2A0D620D9CB11D15395149055160B095CCB0A11D1539354D1C819D95B991A5B5E880CCC0A78000C0000000000
310
00000000000000000000010CCCCCCCCCCCC250200800030C010CCCCCCCCCCCC250200800030C020143CF4F111959985D5B1D151A5D1B194F8050A8C8A8365815B8375838B014E51D15395149050D3CB1294138B0C0B2322A0D96056E0DD60E2CB11D15395149055160B095CCB0A11D1539354D1C819D95B991A5B5E880CCC4
310
A78000C000000000000000000000000000000010CCCCCCCCCCCC250200800030C010CCCCCCCCCCCC250200800030C020143CF4F111959985D5B1D151A5D1B194F90D44111409034110541D0C4350F4050E44D03449074510F000141232D24D7C053247454E545241434F2C4A504E2C302C8CB4935F2C47454E54524154582C
310
25732C2847454E4D53472067656E64696D7A20312900010104002214000281464500A608E8A9CA8A482869E5894A09C5860591914588E8A9CA8A482A8B0584AE658508E8A9C9AA68E40CECADCC8D2DAF4406452029E9E9E27B934B3B4B71F1E24A31427A91424A9A12620A7259427B934B3B4B7149624A9A12620A7259424B
310
A32B6949496111116111711149F1E24BA32B69F00808200111A000140560052F47454E545241434F2C4A504E2C302C582C47454E54524154582C25732C2847454E4D53472067656E64696D7A20332900010100002054000280AC80A5E8E8A9CA8A482869E5894A09C586058B2588E8A9CA8A482A8B0584AE658508E8A9C9AA
310
68E40CECADCC8D2DAF4406852000202000040E800050152014BD1D15395149050D3CB1294138B0C0B148B11D15395149055160B095CCB0A11D1539354D1C819D95B991A5B5E880D8A400040400008250000A0507A6029823A2A72A2920A1A79625282716181641E99623A2A72A2920AA2C1612B9961423A2A726A9A39033B2
310
B73234B6BD101B948000808180105A000140A0F4C053047454E545241434F2C4A504E2C302C83D32C47454E54524154582C25732C2847454E4D53472067656E64696D7A203829000101010020F400028248704B5F00A668E8A9CA8A482869E5894A09C58605921C12D7C588E8A9CA8A482A8B0584AE658508E8A9C9AA68E40
310
CECADCC8D2DAF440646052000200080043280005048B4B8A69014CD1D15395149050D3CB1294138B0C0B22D2E29A4B11D15395149055160B095CCB0A11D1539354D1C819D95B991A5B5E880C8C4A4000400100086D0000A09196926BE029923A2A72A2920A1A796252827161816465A49AF9623A2A72A2920AA2C1612B9961
310
423A2A726A9A39033B2B73234B6BD10189480A02620202080043E80005048D8096DA014CD1D15395149050D3CB1294138B0C0B236025B68B11D15395149055160B095CCB0A11D1539354D1C819D95B991A5B5E880C4D0A4000404140280D0000A190687072706CD06C5069D06B0029DA3A2A72A2920A1A7962528271618164
310
1A1C1C9C1B341B141A741AC1623A2A72A2920AA2C1612B9961423A2A726A9A39033B2B73234B6BD10189A94800080820050EA000143A322A0D0E0E4E0D9A0D8A0D3A0D60053D47454E545241434F2C4A504E2C302C8C8A8343839383668362834E83582C47454E54524154582C25732C2847454E4D53472067656E64696D7A
310
2031372900010105002274000281464500A628E8A9CA8A482869E5894A09C5860591914588E8A9CA8A482A8B0584AE658508E8A9C9AA68E40CECADCC8D2DAF440626C52000202080044A8000504909497CA014CD1D15395149050D3CB1294138B0C0B242525F28B11D15395149055160B095CCB0A11D1539354D1C819D95B9
310
91A5B5E880C4E4A400040418008A521E000000000000001CA040C00000000000034408080000000000006881010000000000000D102040000000000001A204080000000000003440818000000000000728103000000000000125020600000000004028A040000000000000034408000000000000004881000000000000000D
310
102000000000000001A204000000000000003440818000000000000508143C0000000000000039408180000000000006881030000000000000D102060000000000001A2040C00000000000034408180000000000006881030000000000000E5020600000000000024A040C0000000000805140800000000000000688100000
310
00000000009102000000000000001A2040000000000000034408180000000000006881030000000000000A10284220000000878000002020000008380000020400000081800000208000000828000002028900000000
340
0
340
0
340
0
340
0
340
180
340
180
 94
        0
  0
ACAD_PROXY_OBJECT
  5
19B5E
330
19B5A
100
AcDbProxyObject
 90
      499
 91
      567
 95
       25
 70
     0
 93
     1376
310
5DE0143A0D960E4E0DDA0E32056E0D9C80C405983D3C486F6C653A6469613E3C696628657175616C28486F6C653A7465726D696E6174696F6E2C223022292C2220905B82B320222C22208368838A838B22293E3C696628657175616C28486F6C653A7465726D696E6174696F6E2C223022292C486F6C653A64657074682C22
310
22293E2C203C486F6C653A63746469613E2082B482AE82E882CC905B82B3203C486F6C653A637464657074683E
  0
ACAD_PROXY_OBJECT
  5
19B5F
330
19B5A
100
AcDbProxyObject
 90
      499
 91
      567
 95
       25
 70
     0
 93
     2072
310
5DE0143A0D960E4E0DDA0E32056E0D9C80C405EF3D3C486F6C653A6374616E676C653E252564202525633C486F6C653A63746469613E208E4D8C8A2C203C696628657175616C28486F6C653A7461707065642C223022292C22252563222C486F6C653A6E6F6D696E616C202220782022293E3C696628657175616C28486F6C
310
653A7461707065642C223022292C486F6C653A6469612C486F6C653A706974636864657363293E203C696628657175616C28486F6C653A7465726D696E6174696F6E2C223022292C22905B82B320222C222022293E3C696628657175616C28486F6C653A7465726D696E6174696F6E2C223022292C486F6C653A6465707468
310
2C2222293E
  0
ACAD_PROXY_OBJECT
  5
19B5D
330
19B5A
100
AcDbProxyObject
 90
      499
 91
      567
 95
       25
 70
     0
 93
     1752
310
5DE0143A0D960E4E0DDA0E32056E0D9C80C405C73D3C696628657175616C28486F6C653A7461707065642C223022292C22252563222C486F6C653A6E6F6D696E616C202220782022293E3C696628657175616C28486F6C653A7461707065642C223022292C486F6C653A6469612C486F6C653A706974636864657363293E20
310
3C696628657175616C28486F6C653A7465726D696E6174696F6E2C223022292C22905B82B320222C222022293E3C696628657175616C28486F6C653A7465726D696E6174696F6E2C223022292C486F6C653A64657074682C2222293E
  0
ACAD_PROXY_OBJECT
  5
19B5C
330
19B5A
100
AcDbProxyObject
 90
      499
 91
      567
 95
       25
 70
     0
 93
      344
310
5DE0143A0D960E4E0DDA0E32056E0D9C80C805173D3C535444503A444553433E203C535444503A5354443E
  0
ACAD_PROXY_OBJECT
  5
19B5B
330
19B5A
100
AcDbProxyObject
 90
      499
 91
      567
 95
       25
 70
     0
 93
      256
310
5DE0143A0D960E4E0DDA0E32056E0D9C80C4050C3D3C535444503A444553433E
  0
ENDSEC
  0
EOF
