  0
SECTION
  2
HEADER
  9
$ACADVER
  1
AC1015
  9
$ACADMAINTVER
 70
     6
  9
$DWGCODEPAGE
  3
ANSI_932
  9
$INSBASE
 10
0.0
 20
0.0
 30
0.0
  9
$EXTMIN
 10
-107.3040927840599
 20
-98.3971775427663
 30
0.0
  9
$EXTMAX
 10
155.458812488748
 20
28.81506361968713
 30
0.0
  9
$LIMMIN
 10
0.0
 20
0.0
  9
$LIMMAX
 10
420.0
 20
297.0
  9
$ORTHOMODE
 70
     0
  9
$REGENMODE
 70
     1
  9
$FILLMODE
 70
     1
  9
$QTEXTMODE
 70
     0
  9
$MIRRTEXT
 70
     1
  9
$LTSCALE
 40
1.0
  9
$ATTMODE
 70
     1
  9
$TEXTSIZE
 40
4.0
  9
$TRACEWID
 40
1.0
  9
$TEXTSTYLE
  7
STANDARD
  9
$CLAYER
  8
AM_0
  9
$CELTYPE
  6
ByLayer
  9
$CECOLOR
 62
   256
  9
$CELTSCALE
 40
1.0
  9
$DISPSILH
 70
     0
  9
$DIMSCALE
 40
1.0
  9
$DIMASZ
 40
2.5
  9
$DIMEXO
 40
0.0
  9
$DIMDLI
 40
10.0
  9
$DIMRND
 40
0.0
  9
$DIMDLE
 40
0.0
  9
$DIMEXE
 40
1.0
  9
$DIMTP
 40
0.1
  9
$DIMTM
 40
0.1000000001
  9
$DIMTXT
 40
3.8
  9
$DIMCEN
 40
0.0
  9
$DIMTSZ
 40
0.0
  9
$DIMTOL
 70
     0
  9
$DIMLIM
 70
     0
  9
$DIMTIH
 70
     0
  9
$DIMTOH
 70
     0
  9
$DIMSE1
 70
     0
  9
$DIMSE2
 70
     0
  9
$DIMTAD
 70
     3
  9
$DIMZIN
 70
     1
  9
$DIMBLK
  1
Open30
  9
$DIMASO
 70
     1
  9
$DIMSHO
 70
     1
  9
$DIMPOST
  1

  9
$DIMAPOST
  1
"
  9
$DIMALT
 70
     0
  9
$DIMALTD
 70
     2
  9
$DIMALTF
 40
0.0393701
  9
$DIMLFAC
 40
1.0
  9
$DIMTOFL
 70
     1
  9
$DIMTVP
 40
0.0
  9
$DIMTIX
 70
     0
  9
$DIMSOXD
 70
     0
  9
$DIMSAH
 70
     0
  9
$DIMBLK1
  1

  9
$DIMBLK2
  1

  9
$DIMSTYLE
  2
AM_JIS
  9
$DIMCLRD
 70
   256
  9
$DIMCLRE
 70
   256
  9
$DIMCLRT
 70
     2
  9
$DIMTFAC
 40
0.71
  9
$DIMGAP
 40
1.5
  9
$DIMJUST
 70
     0
  9
$DIMSD1
 70
     0
  9
$DIMSD2
 70
     0
  9
$DIMTOLJ
 70
     0
  9
$DIMTZIN
 70
     8
  9
$DIMALTZ
 70
     0
  9
$DIMALTTZ
 70
     0
  9
$DIMUPT
 70
     0
  9
$DIMDEC
 70
     0
  9
$DIMTDEC
 70
     3
  9
$DIMALTU
 70
     2
  9
$DIMALTTD
 70
     2
  9
$DIMTXSTY
  7
STANDARD
  9
$DIMAUNIT
 70
     1
  9
$DIMADEC
 70
     0
  9
$DIMALTRND
 40
0.0
  9
$DIMAZIN
 70
     2
  9
$DIMDSEP
 70
    46
  9
$DIMATFIT
 70
     3
  9
$DIMFRAC
 70
     0
  9
$DIMLDRBLK
  1
Open30
  9
$DIMLUNIT
 70
     2
  9
$DIMLWD
 70
    -1
  9
$DIMLWE
 70
    -1
  9
$DIMTMOVE
 70
     0
  9
$LUNITS
 70
     2
  9
$LUPREC
 70
     4
  9
$SKETCHINC
 40
1.0
  9
$FILLETRAD
 40
0.4
  9
$AUNITS
 70
     0
  9
$AUPREC
 70
     4
  9
$MENU
  1
.
  9
$ELEVATION
 40
0.0
  9
$PELEVATION
 40
0.0
  9
$THICKNESS
 40
0.0
  9
$LIMCHECK
 70
     0
  9
$CHAMFERA
 40
2.0
  9
$CHAMFERB
 40
2.0
  9
$CHAMFERC
 40
20.0
  9
$CHAMFERD
 40
0.0
  9
$SKPOLY
 70
     0
  9
$TDCREATE
 40
2451943.610431667
  9
$TDUCREATE
 40
2451943.235431667
  9
$TDUPDATE
 40
2455482.600220266
  9
$TDUUPDATE
 40
2455482.225220266
  9
$TDINDWG
 40
1.6427333102
  9
$TDUSRTIMER
 40
1.6427331366
  9
$USRTIMER
 70
     1
  9
$ANGBASE
 50
0.0
  9
$ANGDIR
 70
     0
  9
$PDMODE
 70
     0
  9
$PDSIZE
 40
0.0
  9
$PLINEWID
 40
0.0
  9
$SPLFRAME
 70
     0
  9
$SPLINETYPE
 70
     6
  9
$SPLINESEGS
 70
     8
  9
$HANDSEED
  5
18FBB
  9
$SURFTAB1
 70
     6
  9
$SURFTAB2
 70
     6
  9
$SURFTYPE
 70
     6
  9
$SURFU
 70
     6
  9
$SURFV
 70
     6
  9
$UCSBASE
  2

  9
$UCSNAME
  2

  9
$UCSORG
 10
0.0
 20
0.0
 30
0.0
  9
$UCSXDIR
 10
1.0
 20
0.0
 30
0.0
  9
$UCSYDIR
 10
0.0
 20
1.0
 30
0.0
  9
$UCSORTHOREF
  2

  9
$UCSORTHOVIEW
 70
     0
  9
$UCSORGTOP
 10
0.0
 20
0.0
 30
0.0
  9
$UCSORGBOTTOM
 10
0.0
 20
0.0
 30
0.0
  9
$UCSORGLEFT
 10
0.0
 20
0.0
 30
0.0
  9
$UCSORGRIGHT
 10
0.0
 20
0.0
 30
0.0
  9
$UCSORGFRONT
 10
0.0
 20
0.0
 30
0.0
  9
$UCSORGBACK
 10
0.0
 20
0.0
 30
0.0
  9
$PUCSBASE
  2

  9
$PUCSNAME
  2

  9
$PUCSORG
 10
0.0
 20
0.0
 30
0.0
  9
$PUCSXDIR
 10
1.0
 20
0.0
 30
0.0
  9
$PUCSYDIR
 10
0.0
 20
1.0
 30
0.0
  9
$PUCSORTHOREF
  2

  9
$PUCSORTHOVIEW
 70
     0
  9
$PUCSORGTOP
 10
0.0
 20
0.0
 30
0.0
  9
$PUCSORGBOTTOM
 10
0.0
 20
0.0
 30
0.0
  9
$PUCSORGLEFT
 10
0.0
 20
0.0
 30
0.0
  9
$PUCSORGRIGHT
 10
0.0
 20
0.0
 30
0.0
  9
$PUCSORGFRONT
 10
0.0
 20
0.0
 30
0.0
  9
$PUCSORGBACK
 10
0.0
 20
0.0
 30
0.0
  9
$USERI1
 70
     0
  9
$USERI2
 70
     0
  9
$USERI3
 70
     0
  9
$USERI4
 70
     0
  9
$USERI5
 70
     0
  9
$USERR1
 40
0.0
  9
$USERR2
 40
0.0
  9
$USERR3
 40
0.0
  9
$USERR4
 40
0.0
  9
$USERR5
 40
0.0
  9
$WORLDVIEW
 70
     1
  9
$SHADEDGE
 70
     3
  9
$SHADEDIF
 70
    70
  9
$TILEMODE
 70
     1
  9
$MAXACTVP
 70
    64
  9
$PINSBASE
 10
0.0
 20
0.0
 30
0.0
  9
$PLIMCHECK
 70
     0
  9
$PEXTMIN
 10
1.000000000000000E+20
 20
1.000000000000000E+20
 30
1.000000000000000E+20
  9
$PEXTMAX
 10
-1.000000000000000E+20
 20
-1.000000000000000E+20
 30
-1.000000000000000E+20
  9
$PLIMMIN
 10
0.0
 20
0.0
  9
$PLIMMAX
 10
420.0
 20
297.0
  9
$UNITMODE
 70
     0
  9
$VISRETAIN
 70
     1
  9
$PLINEGEN
 70
     0
  9
$PSLTSCALE
 70
     1
  9
$TREEDEPTH
 70
  3020
  9
$CMLSTYLE
  2
Standard
  9
$CMLJUST
 70
     0
  9
$CMLSCALE
 40
20.0
  9
$PROXYGRAPHICS
 70
     1
  9
$MEASUREMENT
 70
     1
  9
$CELWEIGHT
370
    -1
  9
$ENDCAPS
280
     0
  9
$JOINSTYLE
280
     0
  9
$LWDISPLAY
290
     0
  9
$INSUNITS
 70
     4
  9
$HYPERLINKBASE
  1

  9
$STYLESHEET
  1
sei_cad.ctb
  9
$XEDIT
290
     1
  9
$CEPSNTYPE
380
     0
  9
$PSTYLEMODE
290
     1
  9
$FINGERPRINTGUID
  2
{C77AB3BE-9CA2-11D3-BAF3-006094EB760E}
  9
$VERSIONGUID
  2
{7BC8099F-A52C-4553-8FE4-015F31C5CF78}
  9
$EXTNAMES
290
     1
  9
$PSVPSCALE
 40
0.0
  9
$OLESTARTUP
290
     0
  0
ENDSEC
  0
SECTION
  2
CLASSES
  0
CLASS
  1
ACDBDICTIONARYWDFLT
  2
AcDbDictionaryWithDefault
  3
ObjectDBX Classes
 90
        0
280
     0
281
     0
  0
CLASS
  1
ACDBPLACEHOLDER
  2
AcDbPlaceHolder
  3
ObjectDBX Classes
 90
        0
280
     0
281
     0
  0
CLASS
  1
LAYOUT
  2
AcDbLayout
  3
ObjectDBX Classes
 90
        0
280
     0
281
     0
  0
CLASS
  1
ACME_DOCUMENT
  2
AcMeDbDoc
  3
AcMeServices
 90
        0
280
     1
281
     0
  0
CLASS
  1
ACMESCOPE
  2
AcMeScope
  3
AcMeServices
 90
        0
280
     1
281
     0
  0
CLASS
  1
ACMECOMMANDHISTORY
  2
AcMeCommandHistory
  3
AcMeServices
 90
        0
280
     1
281
     0
  0
CLASS
  1
DICTIONARYVAR
  2
AcDbDictionaryVar
  3
ObjectDBX Classes
 90
        0
280
     0
281
     0
  0
CLASS
  1
ACIMSYSVARMAN
  2
AcImSysVarManager
  3
AcMeServices
 90
        0
280
     1
281
     0
  0
CLASS
  1
ACIMREALSYSVAR
  2
AcImRealSysVar
  3
AcMeServices
 90
        0
280
     1
281
     0
  0
CLASS
  1
ACIMINTSYSVAR
  2
AcImIntSysVar
  3
AcMeServices
 90
        0
280
     1
281
     0
  0
CLASS
  1
ACMEDRAWINGMAN
  2
AcMeDrawingMan
  3
AcMeServices
 90
        0
280
     1
281
     0
  0
CLASS
  1
ACMEVIEW
  2
AcMeView
  3
AcMeServices
 90
        0
280
     1
281
     0
  0
CLASS
  1
ACDBENTITYCACHE
  2
AcMeEntityCache
  3
AcMeServices
 90
        0
280
     1
281
     0
  0
CLASS
  1
GSMANAGER
  2
AcMeGSManager
  3
AcMeServices
 90
        0
280
     1
281
     0
  0
CLASS
  1
AMDTINTERNALREACTOR
  2
AmdtInternalReactor
  3
AcMeServices
 90
        0
280
     1
281
     0
  0
CLASS
  1
ACMESTATEMGR
  2
AcMeStateMgr
  3
AcMeServices
 90
        0
280
     1
281
     0
  0
CLASS
  1
ACME_DATABASE
  2
AcMeDbDatabase
  3
AcMeServices
 90
        0
280
     1
281
     0
  0
CLASS
  1
ACRFINSADJUSTERMGR
  2
AcRfInsAdjusterMgr
  3
AcMeServices
 90
        0
280
     1
281
     0
  0
CLASS
  1
AMGSETTINGSOBJ
  2
AmgSettingsObj
  3
"AcadM|Product Description: AutoCAD Mechanical 2000|Company: Autodesk"
 90
        0
280
     1
281
     0
  0
CLASS
  1
AMGOBJPROPCFG
  2
AmgObjPropCfg
  3
"AmgLay|Product Description: AutoCAD Mechanical 2000|Company: Autodesk"
 90
        1
280
     1
281
     0
  0
CLASS
  1
ACMDATADICTIONARY
  2
AcmDataDictionary
  3
"AcmSymBB|Product Description: AutoCAD Mechanical 2004 DX|Company: Autodesk"
 90
        0
280
     1
281
     0
  0
CLASS
  1
ACMDATAENTRYBLOCK
  2
AcmDataEntryBlock
  3
"AcmSymBB|Product Description: AutoCAD Mechanical 2004 DX|Company: Autodesk"
 90
        0
280
     1
281
     0
  0
CLASS
  1
ACIMSTRSYSVAR
  2
AcImStrSysVar
  3
AcMeServices
 90
        0
280
     1
281
     0
  0
CLASS
  1
ACAMGFILTERDAT
  2
AcAmgFilterDat
  3
"AcadM|Product Description: AutoCAD Mechanical 2000|Company: Autodesk"
 90
        0
280
     1
281
     0
  0
CLASS
  1
LAYER_INDEX
  2
AcDbLayerIndex
  3
ObjectDBX Classes
 90
        0
280
     0
281
     0
  0
CLASS
  1
IDBUFFER
  2
AcDbIdBuffer
  3
ObjectDBX Classes
 90
        0
280
     0
281
     0
  0
CLASS
  1
ACMSTANDARDJIS
  2
AcmStandardJIS
  3
"Amdt_StdImp|Product Description: AutoCAD Mechanical 2004 DX|Company: Autodesk"
 90
        0
280
     1
281
     0
  0
CLASS
  1
ACMSURFSTANDARDJIS
  2
AcmSurfTextStdJIS
  3
"Amdt_StdImp|Product Description: AutoCAD Mechanical 2004 DX|Company: Autodesk"
 90
        0
280
     1
281
     0
  0
CLASS
  1
ACMFCFSTANDARDJIS
  2
AcmFCFStdJIS
  3
"Amdt_StdImp|Product Description: AutoCAD Mechanical 2004 DX|Company: Autodesk"
 90
        0
280
     1
281
     0
  0
CLASS
  1
ACMWELDSTANDARDJIS
  2
AcmWeldingStdJIS
  3
"Amdt_StdImp|Product Description: AutoCAD Mechanical 2004 DX|Company: Autodesk"
 90
        0
280
     1
281
     0
  0
CLASS
  1
ACMIDSTANDARDJIS
  2
AcmIdStdJIS
  3
"Amdt_StdImp|Product Description: AutoCAD Mechanical 2004 DX|Company: Autodesk"
 90
        0
280
     1
281
     0
  0
CLASS
  1
ACMDATUMSTANDARDJIS
  2
AcmDatumStdJIS
  3
"Amdt_StdImp|Product Description: AutoCAD Mechanical 2004 DX|Company: Autodesk"
 90
        0
280
     1
281
     0
  0
CLASS
  1
ACMBOMSTANDARDJIS
  2
AcmBOMStdJIS
  3
"Amdt_StdImp|Product Description: AutoCAD Mechanical 2004 DX|Company: Autodesk"
 90
        0
280
     1
281
     0
  0
CLASS
  1
AMDTNOTE
  2
AmdtNote
  3
"AcmSymBB|Product Description: AutoCAD Mechanical 2004 DX|Company: Autodesk"
 90
     1023
280
     1
281
     1
  0
CLASS
  1
TABLESTYLE
  2
AcDbTableStyle
  3
ObjectDBX Classes
 90
     2047
280
     0
281
     0
  0
CLASS
  1
ACGREFMASTER
  2
AcGrefMaster
  3
AcAttribServices
 90
        0
280
     1
281
     0
  0
CLASS
  1
AM_DRAWING_MGR
  2
AcDmDwgMgr
  3
AcMechDwgViewMgmt
 90
        0
280
     1
281
     0
  0
CLASS
  1
AM_DWG_DOCUMENT
  2
AcDmDwgDocument
  3
AcMechDwgViewMgmt
 90
        0
280
     1
281
     0
  0
CLASS
  1
AM_DWG_SHEET
  2
AcDmSheet
  3
AcMechDwgViewMgmt
 90
        0
280
     1
281
     0
  0
CLASS
  1
AM_VIEWDIMPARMAP
  2
AcDmViewDimParMap
  3
AcMechDwgViewMgmt
 90
        0
280
     1
281
     0
  0
CLASS
  1
AM_DWGMGR_NAME
  2
AcDmDwgMgrName
  3
AcMechDwgViewMgmt
 90
        0
280
     1
281
     0
  0
CLASS
  1
ACGREFACADMASTER
  2
AcGrefacadMaster
  3
AcGrefServices
 90
        0
280
     1
281
     0
  0
CLASS
  1
AMDTMENUSTATEMGR
  2
AmdtMenuStateMgr
  3
McadcomServices
 90
        0
280
     1
281
     0
  0
CLASS
  1
AMDTMCOMMENUSTATE
  2
AmdtMcomMenuState
  3
McadcomServices
 90
        0
280
     1
281
     0
  0
CLASS
  1
AMIMASTER
  2
AmiMaster
  3
AmiServices
 90
        0
280
     1
281
     0
  0
CLASS
  1
MAPIAMMOUDLE
  2
MApiAmModule
  3
MApiAmServices
 90
        0
280
     1
281
     0
  0
CLASS
  1
AMDTADMENUSTATE
  2
AmdtAdMenuState
  3
DesignerServices
 90
        0
280
     1
281
     0
  0
CLASS
  1
ADAPPL
  2
AcAdAppl
  3
DesignerServices
 90
        0
280
     1
281
     0
  0
CLASS
  1
DEPMGR
  2
AcAdDepMgr
  3
DesignerServices
 90
        0
280
     1
281
     0
  0
CLASS
  1
PARAMMGR
  2
AcAdParamMgr
  3
DesignerServices
 90
        0
280
     1
281
     0
  0
CLASS
  1
PARAMSCOPE
  2
AcAdParamScope
  3
DesignerServices
 90
        0
280
     1
281
     0
  0
CLASS
  1
NAMEDAPPL
  2
AcAdNamedAppl
  3
DesignerServices
 90
        0
280
     1
281
     0
  0
CLASS
  1
AMDTDMMENUSTATE
  2
AmdtDmMenuState
  3
AcMechDwgViewMgmt
 90
        0
280
     1
281
     0
  0
CLASS
  1
AMDTAMMENUSTATE
  2
AmdtAmMenuState
  3
DesignerAssemblies
 90
        0
280
     1
281
     0
  0
CLASS
  1
ACAMPROJECT
  2
AcAmProject
  3
DesignerAssemblies
 90
        0
280
     1
281
     0
  0
CLASS
  1
ACAMGRCOMPDEF
  2
AcAmGrCompDef
  3
DesignerAssemblies
 90
        0
280
     1
281
     0
  0
CLASS
  1
ACCMCONTEXT
  2
AcCmContext
  3
DesignerAssemblies
 90
        0
280
     1
281
     0
  0
CLASS
  1
ACAMCOMPDEF
  2
AcAmCompDef
  3
DesignerAssemblies
 90
        0
280
     1
281
     0
  0
CLASS
  1
ACAMCOMPDEFMGR
  2
AcAmCompDefMgr
  3
DesignerAssemblies
 90
        0
280
     1
281
     0
  0
CLASS
  1
AMCONTEXTMGR
  2
AcAmContextMgr
  3
DesignerAssemblies
 90
        0
280
     1
281
     0
  0
CLASS
  1
ACAMCONTEXTMODELER
  2
AcAmContextModeler
  3
DesignerAssemblies
 90
        0
280
     1
281
     0
  0
CLASS
  1
ACAMGTITLESTD
  2
AcAmgTitleStd
  3
"TITLEAPP"
 90
        0
280
     1
281
     0
  0
CLASS
  1
ACMDETAILSTANDARDJIS
  2
AmdtDetailSymStdJIS
  3
"Amdt_StdImp|Product Description: AutoCAD Mechanical 2004 DX|Company: Autodesk"
 90
        0
280
     1
281
     0
  0
CLASS
  1
ACMSECTIONSTANDARDJIS
  2
AmdtSectionSymStdJIS
  3
"Amdt_StdImp|Product Description: AutoCAD Mechanical 2004 DX|Company: Autodesk"
 90
        0
280
     1
281
     0
  0
CLASS
  1
ACMCENTERLINESTANDARDJIS
  2
AmdtCenterLineStdJIS
  3
"Amdt_StdImp|Product Description: AutoCAD Mechanical 2004 DX|Company: Autodesk"
 90
        0
280
     1
281
     0
  0
CLASS
  1
ACMTHREADLINESTANDARDJIS
  2
AmdtThreadLineStdJIS
  3
"Amdt_StdImp|Product Description: AutoCAD Mechanical 2004 DX|Company: Autodesk"
 90
        0
280
     1
281
     0
  0
CLASS
  1
ACMNOTESTANDARDJIS
  2
AmdtNoteStdJIS
  3
"Amdt_StdImp|Product Description: AutoCAD Mechanical 2004 DX|Company: Autodesk"
 90
        0
280
     1
281
     0
  0
CLASS
  1
AMDTNOTETEMPLATEDB
  2
AmdtNoteTemplateDB
  3
AMDT_STDIMP_MODULE_NAME
 90
        0
280
     1
281
     0
  0
CLASS
  1
ACAMGLAYSTD
  2
AcAmgLayStd
  3
"AcAmgLayStd|Product Description: AutoCAD Mechanical 2000|Company: Autodesk"
 90
        0
280
     1
281
     0
  0
CLASS
  1
ACAMGDIMSTD
  2
AcAmgDimStd
  3
"AcAmgDimStd|Product Description: AutoCAD Mechanical 2000|Company: Autodesk"
 90
        0
280
     1
281
     0
  0
CLASS
  1
ACAMGHOLECHARTSTDJIS
  2
AcAmgHoleChartStdJIS
  3
ACMSYMBB_MODULE_NAME
 90
        0
280
     1
281
     0
  0
CLASS
  1
CATALOGSTATE
  2
AcAmCatalogState
  3
DesignerAssemblies
 90
        0
280
     1
281
     0
  0
CLASS
  1
ACAMGRCOMPDEFSET
  2
AcAmGrCompDefSet
  3
DesignerAssemblies
 90
        0
280
     1
281
     0
  0
CLASS
  1
AMDTBROWSERDBTAB
  2
AmdtBrowserDbTab
  3
McadcomServices
 90
        0
280
     1
281
     0
  0
CLASS
  1
CBROWSERAPPOBJECT
  2
CBrowserAppObject
  3
McadcomServices
 90
        0
280
     1
281
     0
  0
CLASS
  1
DM_PLACEHOLDER
  2
AcDmSelsetPlaceholder
  3
AcMechDwgViewMgmt
 90
        0
280
     1
281
     0
  0
CLASS
  1
SORTENTSTABLE
  2
AcDbSortentsTable
  3
ObjectDBX Classes
 90
        0
280
     0
281
     0
  0
ENDSEC
  0
SECTION
  2
TABLES
  0
TABLE
  2
VPORT
  5
8
330
0
100
AcDbSymbolTable
 70
     3
  0
VPORT
  5
18FB3
330
8
100
AcDbSymbolTableRecord
100
AcDbViewportTableRecord
  2
*Active
 70
     0
 10
0.0
 20
0.0
 11
1.0
 21
1.0
 12
46.96552913990654
 22
-34.79690681034718
 13
0.0
 23
0.0
 14
2.5
 24
2.5
 15
10.0
 25
10.0
 16
0.0
 26
0.0
 36
1.0
 17
0.0
 27
0.0
 37
0.0
 40
192.5468334113908
 41
1.610603290676417
 42
50.0
 43
0.0
 44
0.0
 50
0.0
 51
0.0
 71
    16
 72
  2000
 73
     1
 74
     3
 75
     0
 76
     0
 77
     0
 78
     0
281
     0
 65
     1
110
0.0
120
0.0
130
0.0
111
1.0
121
0.0
131
0.0
112
0.0
122
1.0
132
0.0
 79
     0
146
0.0
  0
ENDTAB
  0
TABLE
  2
LTYPE
  5
5
330
0
100
AcDbSymbolTable
 70
    13
  0
LTYPE
  5
14
330
5
100
AcDbSymbolTableRecord
100
AcDbLinetypeTableRecord
  2
ByBlock
 70
     0
  3

 72
    65
 73
     0
 40
0.0
  0
LTYPE
  5
15
330
5
100
AcDbSymbolTableRecord
100
AcDbLinetypeTableRecord
  2
ByLayer
 70
     0
  3

 72
    65
 73
     0
 40
0.0
  0
LTYPE
  5
16
330
5
100
AcDbSymbolTableRecord
100
AcDbLinetypeTableRecord
  2
Continuous
 70
     0
  3
Solid line
 72
    65
 73
     0
 40
0.0
  0
LTYPE
  5
43
330
5
100
AcDbSymbolTableRecord
100
AcDbLinetypeTableRecord
  2
AM_ISO02W050
 70
     0
  3
__ __ __ __ __ __ __ __ __ __ __ __ __ __ __
 72
    65
 73
     2
 40
7.5
 49
6.0
 74
     0
 49
-1.5
 74
     0
  0
LTYPE
  5
44
330
5
100
AcDbSymbolTableRecord
100
AcDbLinetypeTableRecord
  2
AM_ISO08W050
 70
     0
  3
____ . ____ . ____ . ____ . ____ . ____ . ____
 72
    65
 73
     4
 40
18.0
 49
12.0
 74
     0
 49
-1.5
 74
     0
 49
3.0
 74
     0
 49
-1.5
 74
     0
  0
LTYPE
  5
45
330
5
100
AcDbSymbolTableRecord
100
AcDbLinetypeTableRecord
  2
AM_ISO09W050
 70
     0
  3
_____ . . _____ . . _____ . . ____ .. ____
 72
    65
 73
     6
 40
22.5
 49
12.0
 74
     0
 49
-1.5
 74
     0
 49
3.0
 74
     0
 49
-1.5
 74
     0
 49
3.0
 74
     0
 49
-1.5
 74
     0
  0
LTYPE
  5
46
330
5
100
AcDbSymbolTableRecord
100
AcDbLinetypeTableRecord
  2
Amconstr
 70
     0
  3
_______________________
 72
    65
 73
     2
 40
9999.0
 49
9999.0
 74
     0
 49
0.0
 74
     0
  0
LTYPE
  5
47
330
5
100
AcDbSymbolTableRecord
100
AcDbLinetypeTableRecord
  2
AM_ISO02W050x2
 70
     0
  3
 _ _ _ _ _ _ _ _ _ _ _ _
 72
    65
 73
     2
 40
3.75
 49
3.0
 74
     0
 49
-0.75
 74
     0
  0
LTYPE
  5
48
330
5
100
AcDbSymbolTableRecord
100
AcDbLinetypeTableRecord
  2
AM_ISO08W050x2
 70
     0
  3
__ . __ . __ . __ . __ . __
 72
    65
 73
     4
 40
9.0
 49
6.0
 74
     0
 49
-0.75
 74
     0
 49
1.5
 74
     0
 49
-0.75
 74
     0
  0
LTYPE
  5
4B
330
5
100
AcDbSymbolTableRecord
100
AcDbLinetypeTableRecord
  2
Amzigzag
 70
     0
  3
/\/-/\/-/\/-/\/-/\/-/\/
 72
    65
 73
     2
 40
11.0001
 49
0.0001
 74
     4
 75
   135
340
4A
 46
0.04
 50
0.0
 44
0.0
 45
0.0
 49
-11.0
 74
     0
  0
LTYPE
  5
188
330
5
100
AcDbSymbolTableRecord
100
AcDbLinetypeTableRecord
  2
ACJISTGB
 70
     0
  3
__ . . __ . .
 72
    65
 73
     6
 40
9.0
 49
4.0
 74
     0
 49
-1.0
 74
     0
 49
1.0
 74
     0
 49
-1.0
 74
     0
 49
1.0
 74
     0
 49
-1.0
 74
     0
  0
LTYPE
  5
189
330
5
100
AcDbSymbolTableRecord
100
AcDbLinetypeTableRecord
  2
ACJISTGL
 70
     0
  3
_ _ _ _ _
 72
    65
 73
     2
 40
3.0
 49
2.0
 74
     0
 49
-1.0
 74
     0
  0
LTYPE
  5
652
330
5
100
AcDbSymbolTableRecord
100
AcDbLinetypeTableRecord
  2
CENTER
 70
     0
  3
____ _ ____ _ ____ _ ____ _ ____ _ ____ _ ____
 72
    65
 73
     4
 40
17.5
 49
13.0
 74
     0
 49
-1.5
 74
     0
 49
1.5
 74
     0
 49
-1.5
 74
     0
  0
LTYPE
  5
12AB
330
5
100
AcDbSymbolTableRecord
100
AcDbLinetypeTableRecord
  2
HIDDEN
 70
     0
  3
Hidden __ __ __ __ __ __ __ __ __ __ __ __ __ _
 72
    65
 73
     2
 40
0.375
 49
0.25
 74
     0
 49
-0.125
 74
     0
  0
LTYPE
  5
12AC
330
5
100
AcDbSymbolTableRecord
100
AcDbLinetypeTableRecord
  2
PHANTOM2
 70
     0
  3
Phantom (.5x) ___ _ _ ___ _ _ ___ _ _ ___ _ _
 72
    65
 73
     6
 40
1.25
 49
0.625
 74
     0
 49
-0.125
 74
     0
 49
0.125
 74
     0
 49
-0.125
 74
     0
 49
0.125
 74
     0
 49
-0.125
 74
     0
  0
ENDTAB
  0
TABLE
  2
LAYER
  5
2
102
{ACAD_XDICTIONARY
360
18893
102
}
330
0
100
AcDbSymbolTable
 70
     7
  0
LAYER
  5
10
330
2
100
AcDbSymbolTableRecord
100
AcDbLayerTableRecord
  2
0
 70
     0
 62
     7
  6
Continuous
370
    -3
390
F
  0
LAYER
  5
7D
330
2
100
AcDbSymbolTableRecord
100
AcDbLayerTableRecord
  2
AM_5
 70
     0
 62
     3
  6
Continuous
370
    13
390
F
  0
LAYER
  5
7F
330
2
100
AcDbSymbolTableRecord
100
AcDbLayerTableRecord
  2
Defpoints
 70
     0
 62
     7
  6
Continuous
290
     0
370
    -3
390
F
  0
LAYER
  5
12B1
330
2
100
AcDbSymbolTableRecord
100
AcDbLayerTableRecord
  2
AM_0
 70
     0
 62
     7
  6
Continuous
370
    30
390
F
  0
LAYER
  5
1AFF
330
2
100
AcDbSymbolTableRecord
100
AcDbLayerTableRecord
  2
AM_7
 70
     0
 62
     4
  6
AM_ISO08W050
370
    13
390
F
  0
LAYER
  5
361D
330
2
100
AcDbSymbolTableRecord
100
AcDbLayerTableRecord
  2
AM_11
 70
     0
 62
     3
  6
AM_ISO09W050
370
    13
390
F
  0
ENDTAB
  0
TABLE
  2
STYLE
  5
3
330
0
100
AcDbSymbolTable
 70
     4
  0
STYLE
  5
11
330
3
100
AcDbSymbolTableRecord
100
AcDbTextStyleTableRecord
  2
STANDARD
 70
     0
 40
0.0
 41
1.0
 50
0.0
 71
     0
 42
4.0
  3
ISOCP.SHX
  4
EXTFONT.SHX
  0
STYLE
  5
4A
330
3
100
AcDbSymbolTableRecord
100
AcDbTextStyleTableRecord
  2

 70
     1
 40
0.0
 41
1.0
 50
0.0
 71
     0
 42
2.5
  3
ltypeshp.shx
  4

  0
STYLE
  5
180
330
3
100
AcDbSymbolTableRecord
100
AcDbTextStyleTableRecord
  2
ACJISTS
 70
     0
 40
1.0
 41
1.0
 50
0.0
 71
     0
 42
2.5
  3
isocp.shx
  4
bigfont.shx
  0
STYLE
  5
187
330
3
100
AcDbSymbolTableRecord
100
AcDbTextStyleTableRecord
  2
ACJISGDT
 70
     0
 40
0.0
 41
1.0
 50
0.0
 71
     0
 42
2.5
  3
amgdt.shx
  4

  0
ENDTAB
  0
TABLE
  2
VIEW
  5
6
330
0
100
AcDbSymbolTable
 70
     6
  0
VIEW
  5
A30
330
6
100
AcDbSymbolTableRecord
100
AcDbViewTableRecord
  2
AM_VIEW1
 70
     0
 40
148.5
 10
108.6929657794677
 20
222.75
 41
217.3859315589354
 11
0.0
 21
0.0
 31
1.0
 12
0.0
 22
0.0
 32
0.0
 42
50.0
 43
0.0
 44
0.0
 50
0.0
 71
    16
281
     0
 72
     0
  0
VIEW
  5
A31
330
6
100
AcDbSymbolTableRecord
100
AcDbViewTableRecord
  2
AM_VIEW2
 70
     0
 40
148.5
 10
311.3070342205323
 20
222.75
 41
217.3859315589354
 11
0.0
 21
0.0
 31
1.0
 12
0.0
 22
0.0
 32
0.0
 42
50.0
 43
0.0
 44
0.0
 50
0.0
 71
    16
281
     0
 72
     0
  0
VIEW
  5
A32
330
6
100
AcDbSymbolTableRecord
100
AcDbViewTableRecord
  2
AM_VIEW3
 70
     0
 40
148.5
 10
108.6929657794677
 20
74.25
 41
217.3859315589354
 11
0.0
 21
0.0
 31
1.0
 12
0.0
 22
0.0
 32
0.0
 42
50.0
 43
0.0
 44
0.0
 50
0.0
 71
    16
281
     0
 72
     0
  0
VIEW
  5
A33
330
6
100
AcDbSymbolTableRecord
100
AcDbViewTableRecord
  2
AM_VIEW4
 70
     0
 40
148.5
 10
311.3070342205323
 20
74.25
 41
217.3859315589354
 11
0.0
 21
0.0
 31
1.0
 12
0.0
 22
0.0
 32
0.0
 42
50.0
 43
0.0
 44
0.0
 50
0.0
 71
    16
281
     0
 72
     0
  0
VIEW
  5
A34
330
6
100
AcDbSymbolTableRecord
100
AcDbViewTableRecord
  2
AM_VIEW5
 70
     0
 40
148.5
 10
210.0
 20
148.5
 41
217.3859315589353
 11
0.0
 21
0.0
 31
1.0
 12
0.0
 22
0.0
 32
0.0
 42
50.0
 43
0.0
 44
0.0
 50
0.0
 71
    16
281
     0
 72
     0
  0
VIEW
  5
A35
330
6
100
AcDbSymbolTableRecord
100
AcDbViewTableRecord
  2
AM_VIEW6
 70
     0
 40
296.99703
 10
210.0
 20
148.5
 41
434.7675153992395
 11
0.0
 21
0.0
 31
1.0
 12
0.0
 22
0.0
 32
0.0
 42
50.0
 43
0.0
 44
0.0
 50
0.0
 71
    16
281
     0
 72
     0
  0
ENDTAB
  0
TABLE
  2
UCS
  5
7
330
0
100
AcDbSymbolTable
 70
     0
  0
ENDTAB
  0
TABLE
  2
APPID
  5
9
330
0
100
AcDbSymbolTable
 70
    42
  0
APPID
  5
12
330
9
100
AcDbSymbolTableRecord
100
AcDbRegAppTableRecord
  2
ACAD
 70
     0
  0
APPID
  5
2C
330
9
100
AcDbSymbolTableRecord
100
AcDbRegAppTableRecord
  2
MCAD_NO_VIS
 70
     0
  0
APPID
  5
2D
330
9
100
AcDbSymbolTableRecord
100
AcDbRegAppTableRecord
  2
ACAD_TEMP_GRAPHIC
 70
     0
  0
APPID
  5
B9
330
9
100
AcDbSymbolTableRecord
100
AcDbRegAppTableRecord
  2
GENIUS_GENDTOL_13
 70
     0
  0
APPID
  5
359
330
9
100
AcDbSymbolTableRecord
100
AcDbRegAppTableRecord
  2
GENIUS_GENREC_14
 70
     0
  0
APPID
  5
35A
330
9
100
AcDbSymbolTableRecord
100
AcDbRegAppTableRecord
  2
GENIUS_GENODEF_13
 70
     0
  0
APPID
  5
35B
330
9
100
AcDbSymbolTableRecord
100
AcDbRegAppTableRecord
  2
GENIUS_GENOBJ-N-REC_13
 70
     0
  0
APPID
  5
667
330
9
100
AcDbSymbolTableRecord
100
AcDbRegAppTableRecord
  2
GENIUS_GENCFG_13
 70
     0
  0
APPID
  5
668
330
9
100
AcDbSymbolTableRecord
100
AcDbRegAppTableRecord
  2
GENIUS_GENCFG0_13
 70
     0
  0
APPID
  5
669
330
9
100
AcDbSymbolTableRecord
100
AcDbRegAppTableRecord
  2
GENIUS_GENCFG1_13
 70
     0
  0
APPID
  5
66A
330
9
100
AcDbSymbolTableRecord
100
AcDbRegAppTableRecord
  2
GENIUS_GENCFG2_13
 70
     0
  0
APPID
  5
66B
330
9
100
AcDbSymbolTableRecord
100
AcDbRegAppTableRecord
  2
GENIUS_GENCFG3_13
 70
     0
  0
APPID
  5
66C
330
9
100
AcDbSymbolTableRecord
100
AcDbRegAppTableRecord
  2
GENIUS_GENCFG4_13
 70
     0
  0
APPID
  5
A76
330
9
100
AcDbSymbolTableRecord
100
AcDbRegAppTableRecord
  2
GENIUS_GENBLLY_14
 70
     0
  0
APPID
  5
A77
330
9
100
AcDbSymbolTableRecord
100
AcDbRegAppTableRecord
  2
GENIUS_GENOBJ-N-CEN_13
 70
     0
  0
APPID
  5
A83
330
9
100
AcDbSymbolTableRecord
100
AcDbRegAppTableRecord
  2
GENIUS_GENTRA_14
 70
     0
  0
APPID
  5
A8D
330
9
100
AcDbSymbolTableRecord
100
AcDbRegAppTableRecord
  2
GENIUS_GENOBJ-N-TIT_13
 70
     0
  0
APPID
  5
A8E
330
9
100
AcDbSymbolTableRecord
100
AcDbRegAppTableRecord
  2
GENIUS_GENTITLE_13
 70
     0
  0
APPID
  5
A8F
330
9
100
AcDbSymbolTableRecord
100
AcDbRegAppTableRecord
  2
GENIUS_GENOENT_13
 70
     0
  0
APPID
  5
A90
330
9
100
AcDbSymbolTableRecord
100
AcDbRegAppTableRecord
  2
GENIUS_GENOREF_13
 70
     0
  0
APPID
  5
A91
330
9
100
AcDbSymbolTableRecord
100
AcDbRegAppTableRecord
  2
GENIUS_GENOLIS_13
 70
     0
  0
APPID
  5
A92
330
9
100
AcDbSymbolTableRecord
100
AcDbRegAppTableRecord
  2
GENIUS_GENZVEED_13
 70
     0
  0
APPID
  5
A93
330
9
100
AcDbSymbolTableRecord
100
AcDbRegAppTableRecord
  2
GENIUS_GENSCREG_15
 70
     0
  0
APPID
  5
A94
330
9
100
AcDbSymbolTableRecord
100
AcDbRegAppTableRecord
  2
GENIUS_GENOBJ-N-SDF_13
 70
     0
  0
APPID
  5
12B5
330
9
100
AcDbSymbolTableRecord
100
AcDbRegAppTableRecord
  2
GENIUS_GENOBJ-N-RSBK_13
 70
     0
  0
APPID
  5
12B6
330
9
100
AcDbSymbolTableRecord
100
AcDbRegAppTableRecord
  2
GENIUS_GENOBJ-N-LIB_13
 70
     0
  0
APPID
  5
12B7
330
9
100
AcDbSymbolTableRecord
100
AcDbRegAppTableRecord
  2
GENIUS_GENSCALE_13
 70
     0
  0
APPID
  5
12B8
330
9
100
AcDbSymbolTableRecord
100
AcDbRegAppTableRecord
  2
GENIUS_GENOBJ-N-HTC_13
 70
     0
  0
APPID
  5
12B9
330
9
100
AcDbSymbolTableRecord
100
AcDbRegAppTableRecord
  2
GENIUS_GENHATCH_13
 70
     0
  0
APPID
  5
1687
330
9
100
AcDbSymbolTableRecord
100
AcDbRegAppTableRecord
  2
BASE_TYPE
 70
     0
  0
APPID
  5
1ABF
330
9
100
AcDbSymbolTableRecord
100
AcDbRegAppTableRecord
  2
GENIUS_GENFIL_13
 70
     0
  0
APPID
  5
1AC0
330
9
100
AcDbSymbolTableRecord
100
AcDbRegAppTableRecord
  2
GENIUS_GENOBJ-N-CHA_13
 70
     0
  0
APPID
  5
1AE7
330
9
100
AcDbSymbolTableRecord
100
AcDbRegAppTableRecord
  2
GENIUS_GENOBJ-N-FIL_13
 70
     0
  0
APPID
  5
20E9
330
9
100
AcDbSymbolTableRecord
100
AcDbRegAppTableRecord
  2
GENIUS_GENDIMSH_14
 70
     0
  0
APPID
  5
183D2
330
9
100
AcDbSymbolTableRecord
100
AcDbRegAppTableRecord
  2
AD_DRAW
 70
     0
  0
APPID
  5
183D5
330
9
100
AcDbSymbolTableRecord
100
AcDbRegAppTableRecord
  2
ACATTRIBSERVICES
 70
     0
  0
APPID
  5
183F3
330
9
100
AcDbSymbolTableRecord
100
AcDbRegAppTableRecord
  2
DESIGNERASSEMBLIES
 70
     0
  0
APPID
  5
18406
330
9
100
AcDbSymbolTableRecord
100
AcDbRegAppTableRecord
  2
ACADM_DIM_EDIT
 70
     0
  0
APPID
  5
18407
330
9
100
AcDbSymbolTableRecord
100
AcDbRegAppTableRecord
  2
AMDT_DM_ADJ
 70
     0
  0
APPID
  5
184E5
330
9
100
AcDbSymbolTableRecord
100
AcDbRegAppTableRecord
  2
DCO15
 70
     0
  0
APPID
  5
186D8
330
9
100
AcDbSymbolTableRecord
100
AcDbRegAppTableRecord
  2
ACAD_DSTYLE_DIMTEXT_FILL
 70
     0
  0
APPID
  5
186D9
330
9
100
AcDbSymbolTableRecord
100
AcDbRegAppTableRecord
  2
ACAD_PSEXT
 70
     0
  0
ENDTAB
  0
TABLE
  2
DIMSTYLE
  5
A
330
0
100
AcDbSymbolTable
 70
    10
100
AcDbDimStyleTable
  0
DIMSTYLE
105
58
330
A
100
AcDbSymbolTableRecord
100
AcDbDimStyleTableRecord
  2
AM_JIS
 70
     0
  4
"
 41
2.5
 42
0.0
 43
10.0
 44
1.0
 47
0.1
 48
0.1000000001
 73
     0
 74
     0
 77
     3
 78
     1
 79
     2
140
3.8
141
0.0
143
0.0393701
146
0.71
147
1.5
172
     1
176
   256
177
   256
178
     2
179
     2
271
     3
272
     3
275
     1
283
     0
284
     8
340
11
341
59
342
59
371
    -1
372
    -1
  0
DIMSTYLE
105
5F
102
{ACAD_REACTORS
330
17032
330
18C4C
102
}
330
A
100
AcDbSymbolTableRecord
100
AcDbDimStyleTableRecord
  2
AM_JIS$3
 70
     0
  4
"
 41
2.5
 42
0.0
 43
10.0
 44
1.0
 47
0.1
 48
0.1000000001
 73
     0
 77
     3
 78
     1
 79
     2
140
3.8
141
0.0
143
0.0393701
146
0.71
147
1.5
172
     1
176
   256
177
   256
178
     2
179
     2
271
     3
272
     3
275
     1
283
     0
284
     8
288
     1
289
     0
340
11
341
59
342
59
371
    -1
372
    -1
  0
DIMSTYLE
105
60
330
A
100
AcDbSymbolTableRecord
100
AcDbDimStyleTableRecord
  2
AM_JIS$4
 70
     0
  4
"
 41
2.5
 42
0.0
 43
10.0
 44
1.0
 47
0.1
 48
0.1000000001
 73
     0
 77
     3
 78
     1
 79
     2
140
3.8
141
0.0
143
0.0393701
146
0.71
147
1.5
172
     1
176
   256
177
   256
178
     2
179
     2
271
     3
272
     3
275
     1
283
     0
284
     8
288
     1
289
     0
340
11
341
59
342
59
371
    -1
372
    -1
  0
DIMSTYLE
105
61
330
A
100
AcDbSymbolTableRecord
100
AcDbDimStyleTableRecord
  2
AM_JIS$6
 70
     0
  4
"
 41
2.5
 42
0.0
 43
10.0
 44
1.0
 47
0.1
 48
0.1000000001
 73
     0
 74
     0
 78
     1
 79
     2
140
3.8
141
0.0
143
0.0393701
146
0.71
147
1.5
172
     1
176
   256
177
   256
178
     2
179
     2
271
     3
272
     3
275
     1
283
     0
284
     8
340
11
341
59
342
59
371
    -1
372
    -1
  0
DIMSTYLE
105
62
330
A
100
AcDbSymbolTableRecord
100
AcDbDimStyleTableRecord
  2
AM_JIS$7
 70
     0
  4
"
 41
2.5
 42
0.0
 43
10.0
 44
1.0
 47
0.1
 48
0.1000000001
 73
     0
 74
     0
 77
     3
 78
     1
 79
     2
140
5.0
141
0.0
143
0.0393701
146
0.71
147
1.5
172
     1
176
   256
177
   256
178
     2
179
     2
271
     3
272
     3
275
     1
283
     0
284
     8
340
11
341
59
342
59
371
    -1
372
    -1
  0
DIMSTYLE
105
63
330
A
100
AcDbSymbolTableRecord
100
AcDbDimStyleTableRecord
  2
AM_JIS$SF
 70
     0
  4
"
 41
2.5
 42
1.0
 43
10.0
 44
1.0
 47
0.1
 48
0.1
 73
     0
 74
     0
 75
     1
 76
     1
 77
     3
 78
     8
 79
     2
140
3.5
141
0.0
143
0.0393701
146
0.71
147
1.5
176
   256
177
   256
178
     2
271
     2
272
     3
274
     4
340
11
341
59
342
59
343
59
344
59
371
    -1
372
    -1
  0
DIMSTYLE
105
68
330
A
100
AcDbSymbolTableRecord
100
AcDbDimStyleTableRecord
  2
AM_JIS$SH
 70
     0
  4
"
 41
2.5
 42
1.0
 43
10.0
 44
1.0
 47
0.1
 48
0.1
 73
     0
 74
     0
 75
     1
 76
     1
 77
     3
 78
     8
 79
     2
140
3.5
141
0.0
143
0.0393701
144
2.0
146
0.71
147
1.5
173
     1
176
   256
177
   256
178
     2
271
     2
272
     3
274
     4
340
11
341
59
342
59
343
64
344
59
371
    -1
372
    -1
  0
DIMSTYLE
105
65F
330
A
100
AcDbSymbolTableRecord
100
AcDbDimStyleTableRecord
  2
STANDARD
 70
     0
340
11
  0
DIMSTYLE
105
1B97
102
{ACAD_REACTORS
330
1748D
330
18962
330
18AC1
330
18BEC
102
}
330
A
100
AcDbSymbolTableRecord
100
AcDbDimStyleTableRecord
  2
AM_JIS$0
 70
     0
  4
"
 41
2.5
 42
0.0
 43
10.0
 44
1.0
 47
0.1
 48
0.1000000001
 73
     0
 74
     0
 77
     3
 78
     1
 79
     2
140
3.8
141
0.0
143
0.0393701
146
0.71
147
1.5
172
     1
176
     3
177
     3
178
     2
271
     3
272
     3
275
     1
283
     0
284
     8
289
     0
340
11
341
59
342
59
371
    13
372
    13
  0
DIMSTYLE
105
1B98
102
{ACAD_REACTORS
330
16E08
330
18AF5
330
18D14
102
}
330
A
100
AcDbSymbolTableRecord
100
AcDbDimStyleTableRecord
  2
AM_JIS$2
 70
     0
  4
"
 41
2.5
 42
0.0
 43
10.0
 44
1.0
 47
0.1
 48
0.1000000001
 73
     0
 74
     0
 77
     3
 78
     1
 79
     2
140
3.8
141
0.0
143
0.0393701
146
0.71
147
1.5
172
     1
176
     3
177
     3
178
     2
271
     3
272
     3
275
     1
283
     0
284
     8
289
     0
340
11
341
59
342
59
371
    13
372
    13
  0
ENDTAB
  0
TABLE
  2
BLOCK_RECORD
  5
1
330
0
100
AcDbSymbolTable
 70
    13
  0
BLOCK_RECORD
  5
1F
102
{ACAD_XDICTIONARY
360
165
102
}
330
1
100
AcDbSymbolTableRecord
100
AcDbBlockTableRecord
  2
*Model_Space
340
22
  0
BLOCK_RECORD
  5
1B
330
1
100
AcDbSymbolTableRecord
100
AcDbBlockTableRecord
  2
*Paper_Space
340
1E
  0
BLOCK_RECORD
  5
23
330
1
100
AcDbSymbolTableRecord
100
AcDbBlockTableRecord
  2
*Paper_Space0
340
26
  0
BLOCK_RECORD
  5
59
330
1
100
AcDbSymbolTableRecord
100
AcDbBlockTableRecord
  2
_Open30
340
0
102
{BLKREFS
331
18F39
331
18F3A
331
18F46
331
18F47
331
18F4D
331
18F4E
331
18F56
331
18F57
331
18F61
331
18F62
331
18F6A
331
18F6B
331
18F75
331
18F76
331
18F7F
331
18F80
331
18F8B
331
18F8C
102
}
  0
BLOCK_RECORD
  5
64
330
1
100
AcDbSymbolTableRecord
100
AcDbBlockTableRecord
  2
GENAXEH
340
0
  0
BLOCK_RECORD
  5
16E09
330
1
100
AcDbSymbolTableRecord
100
AcDbBlockTableRecord
  2
*D3
340
0
  0
BLOCK_RECORD
  5
17033
330
1
100
AcDbSymbolTableRecord
100
AcDbBlockTableRecord
  2
*D4
340
0
  0
BLOCK_RECORD
  5
1748E
330
1
100
AcDbSymbolTableRecord
100
AcDbBlockTableRecord
  2
*D5
340
0
  0
BLOCK_RECORD
  5
183EA
330
1
100
AcDbSymbolTableRecord
100
AcDbBlockTableRecord
  2
*U6
340
0
  0
BLOCK_RECORD
  5
18963
330
1
100
AcDbSymbolTableRecord
100
AcDbBlockTableRecord
  2
*D7
340
0
  0
BLOCK_RECORD
  5
18AC2
330
1
100
AcDbSymbolTableRecord
100
AcDbBlockTableRecord
  2
*D8
340
0
  0
BLOCK_RECORD
  5
18AF6
330
1
100
AcDbSymbolTableRecord
100
AcDbBlockTableRecord
  2
*D9
340
0
  0
BLOCK_RECORD
  5
18BED
330
1
100
AcDbSymbolTableRecord
100
AcDbBlockTableRecord
  2
*D10
340
0
  0
BLOCK_RECORD
  5
18C4D
330
1
100
AcDbSymbolTableRecord
100
AcDbBlockTableRecord
  2
*D11
340
0
  0
BLOCK_RECORD
  5
18D15
330
1
100
AcDbSymbolTableRecord
100
AcDbBlockTableRecord
  2
*D12
340
0
  0
ENDTAB
  0
ENDSEC
  0
SECTION
  2
BLOCKS
  0
BLOCK
  5
20
330
1F
100
AcDbEntity
  8
0
100
AcDbBlockBegin
  2
*Model_Space
 70
     0
 71
     0
 10
0.0
 20
0.0
 30
0.0
  3
*Model_Space
  1

  0
ENDBLK
  5
21
330
1F
100
AcDbEntity
  8
0
100
AcDbBlockEnd
  0
BLOCK
  5
1C
330
1B
100
AcDbEntity
 67
     1
  8
0
100
AcDbBlockBegin
  2
*Paper_Space
 70
     0
 71
     0
 10
0.0
 20
0.0
 30
0.0
  3
*Paper_Space
  1

  0
ENDBLK
  5
1D
330
1B
100
AcDbEntity
 67
     1
  8
0
100
AcDbBlockEnd
  0
BLOCK
  5
24
330
23
100
AcDbEntity
  8
0
100
AcDbBlockBegin
  2
*Paper_Space0
 70
     0
 71
     0
 10
0.0
 20
0.0
 30
0.0
  3
*Paper_Space0
  1

  0
ENDBLK
  5
25
330
23
100
AcDbEntity
  8
0
100
AcDbBlockEnd
  0
BLOCK
  5
5D
330
59
100
AcDbEntity
  8
0
100
AcDbBlockBegin
  2
_Open30
 70
     0
 71
     0
 10
0.0
 20
0.0
 30
0.0
  3
_Open30
  1

  0
LINE
  5
5A
330
59
100
AcDbEntity
  8
0
 62
     0
370
    -2
100
AcDbLine
 10
-1.0
 20
0.26794919
 30
0.0
 11
0.0
 21
0.0
 31
0.0
  0
LINE
  5
5B
330
59
100
AcDbEntity
  8
0
 62
     0
370
    -2
100
AcDbLine
 10
0.0
 20
0.0
 30
0.0
 11
-1.0
 21
-0.26794919
 31
0.0
  0
LINE
  5
5C
330
59
100
AcDbEntity
  8
0
 62
     0
370
    -2
100
AcDbLine
 10
0.0
 20
0.0
 30
0.0
 11
-1.0
 21
0.0
 31
0.0
  0
ENDBLK
  5
5E
330
59
100
AcDbEntity
  8
0
100
AcDbBlockEnd
  0
BLOCK
  5
66
330
64
100
AcDbEntity
  8
0
100
AcDbBlockBegin
  2
GENAXEH
 70
     0
 71
     0
 10
0.0
 20
0.0
 30
0.0
  3
GENAXEH
  1

  0
LINE
  5
65
330
64
100
AcDbEntity
  8
0
100
AcDbLine
 10
-1.0
 20
0.0
 30
0.0
 11
1.0
 21
0.0
 31
0.0
  0
ENDBLK
  5
67
330
64
100
AcDbEntity
  8
0
100
AcDbBlockEnd
  0
BLOCK
  5
16E18
330
16E09
100
AcDbEntity
  8
0
100
AcDbBlockBegin
  2
*D3
 70
     1
 71
     0
 10
0.0
 20
0.0
 30
0.0
  3
*D3
  1

  0
LINE
  5
18F34
330
16E09
100
AcDbEntity
  8
AM_5
 62
     3
370
    13
100
AcDbLine
 10
-8.676960639923665
 20
-55.20699341643638
 30
0.0
 11
-14.76112935534911
 21
-54.67469762685761
 31
0.0
  0
LINE
  5
18F35
330
16E09
100
AcDbEntity
  8
AM_5
 62
     3
370
    13
100
AcDbLine
 10
-2.550096829471386
 20
-55.85676827688292
 30
0.0
 11
-14.81273967451369
 21
-55.8567682768829
 31
0.0
  0
ARC
  5
18F36
330
16E09
100
AcDbEntity
  8
AM_5
 62
     3
370
    13
100
AcDbCircle
 10
-1.249999999999854
 20
-55.85676827688291
 30
0.0
 40
12.56273967451383
100
AcDbArc
 50
152.1583483219188
 51
163.5791741609596
  0
ARC
  5
18F37
330
16E09
100
AcDbEntity
  8
AM_5
 62
     3
370
    13
100
AcDbCircle
 10
-1.249999999999854
 20
-55.85676827688291
 30
0.0
 40
12.56273967451383
100
AcDbArc
 50
191.4208258390407
 51
202.8416516780815
  0
ARC
  5
18F38
330
16E09
100
AcDbEntity
  8
AM_5
 62
     3
370
    13
100
AcDbCircle
 10
-1.249999999999854
 20
-55.85676827688291
 30
0.0
 40
12.56273967451383
100
AcDbArc
 50
175.0000000000003
 51
180.0
  0
INSERT
  5
18F39
330
16E09
100
AcDbEntity
  8
AM_5
 62
     3
370
    13
100
AcDbBlockReference
  2
_Open30
 10
-13.76493465725736
 20
-54.76185336960526
 30
0.0
 41
2.5
 42
2.5
 43
2.5
 50
259.28958708048
  0
INSERT
  5
18F3A
330
16E09
100
AcDbEntity
  8
AM_5
 62
     3
370
    13
100
AcDbBlockReference
  2
_Open30
 10
-13.81273967451369
 20
-55.85676827688291
 30
0.0
 41
2.5
 42
2.5
 43
2.5
 50
95.71041291952037
  0
MTEXT
  5
18F3B
330
16E09
100
AcDbEntity
  8
AM_5
 62
     2
100
AcDbMText
 10
-16.87227822098726
 20
-52.57751819456829
 30
0.0
 40
3.8
 41
0.0
 71
     5
 72
     1
  1
5°
 11
0.2054315330062231
 21
0.9786714899529428
 31
0.0
 73
     1
 44
1.0
  0
POINT
  5
18F3C
330
16E09
100
AcDbEntity
  8
Defpoints
 62
     0
100
AcDbPoint
 10
-13.80742500852705
 20
-55.49138452680678
 30
0.0
  0
POINT
  5
18F3D
330
16E09
100
AcDbEntity
  8
Defpoints
 62
     0
100
AcDbPoint
 10
154.2088124887482
 20
-55.85676827688293
 30
0.0
  0
POINT
  5
18F3E
330
16E09
100
AcDbEntity
  8
Defpoints
 62
     0
100
AcDbPoint
 10
-1.249999999999886
 20
-55.85676827688292
 30
0.0
  0
POINT
  5
18F3F
330
16E09
100
AcDbEntity
  8
Defpoints
 62
     0
100
AcDbPoint
 10
-8.676960639923665
 20
-55.20699341643638
 30
0.0
  0
POINT
  5
18F40
330
16E09
100
AcDbEntity
  8
Defpoints
 62
     0
100
AcDbPoint
 10
-2.550096829471386
 20
-55.85676827688292
 30
0.0
  0
ENDBLK
  5
16E19
330
16E09
100
AcDbEntity
  8
0
100
AcDbBlockEnd
  0
BLOCK
  5
17039
330
17033
100
AcDbEntity
  8
0
100
AcDbBlockBegin
  2
*D4
 70
     1
 71
     0
 10
0.0
 20
0.0
 30
0.0
  3
*D4
  1

  0
LINE
  5
18F41
330
17033
100
AcDbEntity
  8
AM_5
100
AcDbLine
 10
-107.3040927840599
 20
17.18173028635381
 30
0.0
 11
-83.43636677457073
 21
17.1817302863538
 31
0.0
  0
LINE
  5
18F42
330
17033
100
AcDbEntity
  8
AM_5
100
AcDbLine
 10
-83.43636677457073
 20
17.1817302863538
 30
0.0
 11
-75.26267867806865
 21
12.12389320646341
 31
0.0
  0
LINE
  5
18F43
330
17033
100
AcDbEntity
  8
AM_5
100
AcDbLine
 10
-59.10581429040056
 20
2.126106793536845
 30
0.0
 11
-56.97991108149687
 21
0.8106085813096584
 31
0.0
  0
MTEXT
  5
18F44
330
17033
100
AcDbEntity
  8
AM_5
 62
     2
100
AcDbMText
 10
-96.12022977931531
 20
23.74839695302046
 30
0.0
 40
3.8
 41
0.0
 71
     5
 72
     1
  1
最小加工径\P\U+220514
 73
     1
 44
1.0
  0
LINE
  5
18F45
330
17033
100
AcDbEntity
  8
AM_5
100
AcDbLine
 10
-61.23171749930427
 20
3.441605005764032
 30
0.0
 11
-73.13677546916495
 21
10.80839499423623
 31
0.0
  0
INSERT
  5
18F46
330
17033
100
AcDbEntity
  8
AM_5
100
AcDbBlockReference
  2
_Open30
 10
-61.23171749930427
 20
3.441605005764032
 30
0.0
 41
2.5
 42
2.5
 43
2.5
 50
148.2509863380494
  0
INSERT
  5
18F47
330
17033
100
AcDbEntity
  8
AM_5
100
AcDbBlockReference
  2
_Open30
 10
-73.13677546916495
 20
10.80839499423623
 30
0.0
 41
2.5
 42
2.5
 43
2.5
 50
328.2509863380494
  0
POINT
  5
18F48
330
17033
100
AcDbEntity
  8
Defpoints
 62
     0
100
AcDbPoint
 10
-73.13677546916495
 20
10.80839499423623
 30
0.0
  0
POINT
  5
18F49
330
17033
100
AcDbEntity
  8
Defpoints
 62
     0
100
AcDbPoint
 10
-61.23171749930427
 20
3.441605005764032
 30
0.0
  0
ENDBLK
  5
1703A
330
17033
100
AcDbEntity
  8
0
100
AcDbBlockEnd
  0
BLOCK
  5
17498
330
1748E
100
AcDbEntity
  8
0
100
AcDbBlockBegin
  2
*D5
 70
     1
 71
     0
 10
0.0
 20
0.0
 30
0.0
  3
*D5
  1

  0
LINE
  5
18F4A
330
1748E
100
AcDbEntity
  8
AM_5
 62
     3
370
    13
100
AcDbLine
 10
0.0
 20
-55.85676827688292
 30
0.0
 11
-0.0000000000000013
 21
-77.36191154418113
 31
0.0
  0
LINE
  5
18F4B
330
1748E
100
AcDbEntity
  8
AM_5
 62
     3
370
    13
100
AcDbLine
 10
16.99999999999972
 20
-61.35676827688292
 30
0.0
 11
16.99999999999972
 21
-77.36191154418113
 31
0.0
  0
LINE
  5
18F4C
330
1748E
100
AcDbEntity
  8
AM_5
 62
     3
370
    13
100
AcDbLine
 10
2.499999999999999
 20
-76.36191154418113
 30
0.0
 11
14.49999999999972
 21
-76.36191154418113
 31
0.0
  0
INSERT
  5
18F4D
330
1748E
100
AcDbEntity
  8
AM_5
 62
     3
370
    13
100
AcDbBlockReference
  2
_Open30
 10
-0.0000000000000013
 20
-76.36191154418113
 30
0.0
 41
2.5
 42
2.5
 43
2.5
 50
180.0
  0
INSERT
  5
18F4E
330
1748E
100
AcDbEntity
  8
AM_5
 62
     3
370
    13
100
AcDbBlockReference
  2
_Open30
 10
16.99999999999972
 20
-76.36191154418113
 30
0.0
 41
2.5
 42
2.5
 43
2.5
  0
MTEXT
  5
18F4F
330
1748E
100
AcDbEntity
  8
AM_5
 62
     2
100
AcDbMText
 10
8.499999999999858
 20
-72.96191154418112
 30
0.0
 40
3.8
 41
0.0
 71
     5
 72
     1
  1
17
 73
     1
 44
1.0
  0
POINT
  5
18F50
330
1748E
100
AcDbEntity
  8
Defpoints
 62
     0
100
AcDbPoint
 10
0.0
 20
-55.85676827688292
 30
0.0
  0
POINT
  5
18F51
330
1748E
100
AcDbEntity
  8
Defpoints
 62
     0
100
AcDbPoint
 10
16.99999999999972
 20
-61.35676827688292
 30
0.0
  0
POINT
  5
18F52
330
1748E
100
AcDbEntity
  8
Defpoints
 62
     0
100
AcDbPoint
 10
16.99999999999972
 20
-76.36191154418113
 30
0.0
  0
ENDBLK
  5
17499
330
1748E
100
AcDbEntity
  8
0
100
AcDbBlockEnd
  0
BLOCK
  5
183EB
330
183EA
100
AcDbEntity
  8
0
100
AcDbBlockBegin
  2
*U6
 70
     1
 71
     0
 10
0.0
 20
0.0
 30
0.0
  3
*U6
  1

  0
ENDBLK
  5
183EC
330
183EA
100
AcDbEntity
  8
0
100
AcDbBlockEnd
  0
BLOCK
  5
18990
330
18963
100
AcDbEntity
  8
0
100
AcDbBlockBegin
  2
*D7
 70
     1
 71
     0
 10
0.0
 20
0.0
 30
0.0
  3
*D7
  1

  0
LINE
  5
18F53
330
18963
100
AcDbEntity
  8
AM_5
 62
     3
370
    13
100
AcDbLine
 10
95.74999999999983
 20
4.602084238343643
 30
0.0
 11
95.74999999999983
 21
-13.66716290887062
 31
0.0
  0
LINE
  5
18F54
330
18963
100
AcDbEntity
  8
AM_5
 62
     3
370
    13
100
AcDbLine
 10
106.7499999999998
 20
4.602084238343636
 30
0.0
 11
106.7499999999998
 21
-13.66716290887062
 31
0.0
  0
LINE
  5
18F55
330
18963
100
AcDbEntity
  8
AM_5
 62
     3
370
    13
100
AcDbLine
 10
98.24999999999983
 20
-12.66716290887062
 30
0.0
 11
104.2499999999998
 21
-12.66716290887062
 31
0.0
  0
INSERT
  5
18F56
330
18963
100
AcDbEntity
  8
AM_5
 62
     3
370
    13
100
AcDbBlockReference
  2
_Open30
 10
95.74999999999983
 20
-12.66716290887062
 30
0.0
 41
2.5
 42
2.5
 43
2.5
 50
180.0
  0
INSERT
  5
18F57
330
18963
100
AcDbEntity
  8
AM_5
 62
     3
370
    13
100
AcDbBlockReference
  2
_Open30
 10
106.7499999999998
 20
-12.66716290887062
 30
0.0
 41
2.5
 42
2.5
 43
2.5
  0
MTEXT
  5
18F58
330
18963
100
AcDbEntity
  8
AM_5
 62
     2
100
AcDbMText
 10
101.2499999999998
 20
-9.267162908870622
 30
0.0
 40
3.8
 41
0.0
 71
     5
 72
     1
  1
11
 73
     1
 44
1.0
  0
POINT
  5
18F59
330
18963
100
AcDbEntity
  8
Defpoints
 62
     0
100
AcDbPoint
 10
95.74999999999983
 20
4.602084238343643
 30
0.0
  0
POINT
  5
18F5A
330
18963
100
AcDbEntity
  8
Defpoints
 62
     0
100
AcDbPoint
 10
106.7499999999998
 20
4.602084238343636
 30
0.0
  0
POINT
  5
18F5B
330
18963
100
AcDbEntity
  8
Defpoints
 62
     0
100
AcDbPoint
 10
106.7499999999998
 20
-12.66716290887062
 30
0.0
  0
ENDBLK
  5
18991
330
18963
100
AcDbEntity
  8
0
100
AcDbBlockEnd
  0
BLOCK
  5
18AE7
330
18AC2
100
AcDbEntity
  8
0
100
AcDbBlockBegin
  2
*D8
 70
     1
 71
     0
 10
0.0
 20
0.0
 30
0.0
  3
*D8
  1

  0
LINE
  5
18F5C
330
18AC2
100
AcDbEntity
  8
AM_5
 62
     3
370
    13
100
AcDbLine
 10
-2.165548451965947
 20
7.0
 30
0.0
 11
-8.431292759775714
 21
7.000000000000001
 31
0.0
  0
LINE
  5
18F5D
330
18AC2
100
AcDbEntity
  8
AM_5
 62
     3
370
    13
100
AcDbLine
 10
-2.165548451965947
 20
-0.0000000000000284
 30
0.0
 11
-8.431292759775715
 21
-0.0000000000000266
 31
0.0
  0
LINE
  5
18F5E
330
18AC2
100
AcDbEntity
  8
AM_5
 62
     3
370
    13
100
AcDbLine
 10
-7.431292759775714
 20
9.500000000000002
 30
0.0
 11
-7.431292759775713
 21
12.0
 31
0.0
  0
LINE
  5
18F5F
330
18AC2
100
AcDbEntity
  8
AM_5
 62
     3
370
    13
100
AcDbLine
 10
-7.431292759775716
 20
-2.500000000000027
 30
0.0
 11
-7.431292759775716
 21
-5.000000000000027
 31
0.0
  0
LINE
  5
18F60
330
18AC2
100
AcDbEntity
  8
AM_5
 62
     3
370
    13
100
AcDbLine
 10
-7.431292759775714
 20
7.000000000000001
 30
0.0
 11
-7.431292759775715
 21
-0.0000000000000269
 31
0.0
  0
INSERT
  5
18F61
330
18AC2
100
AcDbEntity
  8
AM_5
 62
     3
370
    13
100
AcDbBlockReference
  2
_Open30
 10
-7.431292759775714
 20
7.000000000000001
 30
0.0
 41
2.5
 42
2.5
 43
2.5
 50
270.0
  0
INSERT
  5
18F62
330
18AC2
100
AcDbEntity
  8
AM_5
 62
     3
370
    13
100
AcDbBlockReference
  2
_Open30
 10
-7.431292759775715
 20
-0.0000000000000269
 30
0.0
 41
2.5
 42
2.5
 43
2.5
 50
90.0
  0
MTEXT
  5
18F63
330
18AC2
100
AcDbEntity
  8
AM_5
 62
     2
100
AcDbMText
 10
-10.83129275977572
 20
3.499999999999986
 30
0.0
 40
3.8
 41
0.0
 71
     5
 72
     1
  1
7
 11
6.123031769111886E-17
 21
1.0
 31
0.0
 73
     1
 44
1.0
  0
POINT
  5
18F64
330
18AC2
100
AcDbEntity
  8
Defpoints
 62
     0
100
AcDbPoint
 10
-2.165548451965947
 20
7.0
 30
0.0
  0
POINT
  5
18F65
330
18AC2
100
AcDbEntity
  8
Defpoints
 62
     0
100
AcDbPoint
 10
-2.165548451965947
 20
-0.0000000000000284
 30
0.0
  0
POINT
  5
18F66
330
18AC2
100
AcDbEntity
  8
Defpoints
 62
     0
100
AcDbPoint
 10
-7.431292759775715
 20
-0.0000000000000269
 30
0.0
  0
ENDBLK
  5
18AE8
330
18AC2
100
AcDbEntity
  8
0
100
AcDbBlockEnd
  0
BLOCK
  5
18B45
330
18AF6
100
AcDbEntity
  8
0
100
AcDbBlockBegin
  2
*D9
 70
     1
 71
     0
 10
0.0
 20
0.0
 30
0.0
  3
*D9
  1

  0
LINE
  5
18F67
330
18AF6
100
AcDbEntity
  8
AM_5
 62
     3
370
    13
100
AcDbLine
 10
0.5001734868569079
 20
9.947032732212279
 30
0.0
 11
1.163771166599959
 21
22.6092307650516
 31
0.0
  0
LINE
  5
18F68
330
18AF6
100
AcDbEntity
  8
AM_5
 62
     3
370
    13
100
AcDbLine
 10
-3.164435796722273
 20
-0.0000000000000002
 30
0.0
 11
-22.661386861502
 21
0.000000000000032
 31
0.0
  0
ARC
  5
18F69
330
18AF6
100
AcDbEntity
  8
AM_5
 62
     3
370
    13
100
AcDbCircle
 10
-0.0211284090939258
 20
0.0000000000000001
 30
0.0
 40
21.64025845240808
100
AcDbArc
 50
93.62280548714095
 51
173.3771945128597
  0
INSERT
  5
18F6A
330
18AF6
100
AcDbEntity
  8
AM_5
 62
     3
370
    13
100
AcDbBlockReference
  2
_Open30
 10
1.111435210357028
 20
21.61060123029703
 30
0.0
 41
2.5
 42
2.5
 43
2.5
 50
0.3114027435708389
  0
INSERT
  5
18F6B
330
18AF6
100
AcDbEntity
  8
AM_5
 62
     3
370
    13
100
AcDbBlockReference
  2
_Open30
 10
-21.661386861502
 20
0.000000000000032
 30
0.0
 41
2.5
 42
2.5
 43
2.5
 50
266.6885972564298
  0
MTEXT
  5
18F6C
330
18AF6
100
AcDbEntity
  8
AM_5
 62
     2
100
AcDbMText
 10
-17.25770489136333
 20
18.16356172490052
 30
0.0
 40
3.8
 41
0.0
 71
     5
 72
     1
  1
93°
 11
0.7253743710122828
 21
0.6883545756937591
 31
0.0
 73
     1
 44
1.0
  0
POINT
  5
18F6D
330
18AF6
100
AcDbEntity
  8
Defpoints
 62
     0
100
AcDbPoint
 10
-10.18061436383668
 20
19.10721410939868
 30
0.0
  0
POINT
  5
18F6E
330
18AF6
100
AcDbEntity
  8
Defpoints
 62
     0
100
AcDbPoint
 10
0.0005427158263842
 20
0.4135096967813752
 30
0.0
  0
POINT
  5
18F6F
330
18AF6
100
AcDbEntity
  8
Defpoints
 62
     0
100
AcDbPoint
 10
-3.164435796722273
 20
-0.0000000000000002
 30
0.0
  0
POINT
  5
18F70
330
18AF6
100
AcDbEntity
  8
Defpoints
 62
     0
100
AcDbPoint
 10
0.3942132612426121
 20
0.0
 30
0.0
  0
POINT
  5
18F71
330
18AF6
100
AcDbEntity
  8
Defpoints
 62
     0
100
AcDbPoint
 10
0.5001734868569079
 20
9.947032732212279
 30
0.0
  0
ENDBLK
  5
18B46
330
18AF6
100
AcDbEntity
  8
0
100
AcDbBlockEnd
  0
BLOCK
  5
18C03
330
18BED
100
AcDbEntity
  8
0
100
AcDbBlockBegin
  2
*D10
 70
     1
 71
     0
 10
0.0
 20
0.0
 30
0.0
  3
*D10
  1

  0
LINE
  5
18F72
330
18BED
100
AcDbEntity
  8
AM_5
 62
     3
370
    13
100
AcDbLine
 10
0.0
 20
0.0
 30
0.0
 11
-0.0000000000000019
 21
-31.1189667141323
 31
0.0
  0
LINE
  5
18F73
330
18BED
100
AcDbEntity
  8
AM_5
 62
     3
370
    13
100
AcDbLine
 10
150.0
 20
2.000000000000043
 30
0.0
 11
150.0
 21
-31.1189667141323
 31
0.0
  0
LINE
  5
18F74
330
18BED
100
AcDbEntity
  8
AM_5
 62
     3
370
    13
100
AcDbLine
 10
2.499999999999998
 20
-30.1189667141323
 30
0.0
 11
147.5
 21
-30.1189667141323
 31
0.0
  0
INSERT
  5
18F75
330
18BED
100
AcDbEntity
  8
AM_5
 62
     3
370
    13
100
AcDbBlockReference
  2
_Open30
 10
-0.0000000000000018
 20
-30.1189667141323
 30
0.0
 41
2.5
 42
2.5
 43
2.5
 50
180.0
  0
INSERT
  5
18F76
330
18BED
100
AcDbEntity
  8
AM_5
 62
     3
370
    13
100
AcDbBlockReference
  2
_Open30
 10
150.0
 20
-30.1189667141323
 30
0.0
 41
2.5
 42
2.5
 43
2.5
  0
MTEXT
  5
18F77
330
18BED
100
AcDbEntity
  8
AM_5
 62
     2
100
AcDbMText
 10
74.22705657535676
 20
-26.7189667141323
 30
0.0
 40
3.8
 41
0.0
 71
     5
 72
     1
  1
150
 73
     1
 44
1.0
  0
POINT
  5
18F78
330
18BED
100
AcDbEntity
  8
Defpoints
 62
     0
100
AcDbPoint
 10
0.0
 20
0.0
 30
0.0
  0
POINT
  5
18F79
330
18BED
100
AcDbEntity
  8
Defpoints
 62
     0
100
AcDbPoint
 10
150.0
 20
2.000000000000043
 30
0.0
  0
POINT
  5
18F7A
330
18BED
100
AcDbEntity
  8
Defpoints
 62
     0
100
AcDbPoint
 10
150.0
 20
-30.1189667141323
 30
0.0
  0
ENDBLK
  5
18C04
330
18BED
100
AcDbEntity
  8
0
100
AcDbBlockEnd
  0
BLOCK
  5
18C6A
330
18C4D
100
AcDbEntity
  8
0
100
AcDbBlockBegin
  2
*D11
 70
     1
 71
     0
 10
0.0
 20
0.0
 30
0.0
  3
*D11
  1

  0
LINE
  5
18F7B
330
18C4D
100
AcDbEntity
  8
AM_5
100
AcDbLine
 10
97.96019302241095
 20
-0.8375487271343971
 30
0.0
 11
96.9926027348848
 21
-3.14271011746807
 31
0.0
  0
LINE
  5
18F7C
330
18C4D
100
AcDbEntity
  8
AM_5
100
AcDbLine
 10
104.5398069775888
 20
14.83754872713465
 30
0.0
 11
107.3049275263116
 21
21.42509844803016
 31
0.0
  0
LINE
  5
18F7D
330
18C4D
100
AcDbEntity
  8
AM_5
100
AcDbLine
 10
107.3049275263116
 20
21.42509844803016
 30
0.0
 11
115.8731519357604
 21
21.42509844803015
 31
0.0
  0
LINE
  5
18F7E
330
18C4D
100
AcDbEntity
  8
AM_5
100
AcDbLine
 10
98.9277833099371
 20
1.467612663199276
 30
0.0
 11
103.5722166900627
 21
12.53238733680097
 31
0.0
  0
INSERT
  5
18F7F
330
18C4D
100
AcDbEntity
  8
AM_5
100
AcDbBlockReference
  2
_Open30
 10
98.9277833099371
 20
1.467612663199276
 30
0.0
 41
2.5
 42
2.5
 43
2.5
 50
67.22979692671142
  0
INSERT
  5
18F80
330
18C4D
100
AcDbEntity
  8
AM_5
100
AcDbBlockReference
  2
_Open30
 10
103.5722166900627
 20
12.53238733680097
 30
0.0
 41
2.5
 42
2.5
 43
2.5
 50
247.2297969267114
  0
MTEXT
  5
18F81
330
18C4D
100
AcDbEntity
  8
AM_5
 62
     2
100
AcDbMText
 10
112.339039731036
 20
24.82547246377819
 30
0.0
 40
3.8
 41
0.0
 71
     5
 72
     1
  1
\U+220512
 73
     1
 44
1.0
  0
POINT
  5
18F82
330
18C4D
100
AcDbEntity
  8
Defpoints
 62
     0
100
AcDbPoint
 10
103.5722166900627
 20
12.53238733680097
 30
0.0
  0
POINT
  5
18F83
330
18C4D
100
AcDbEntity
  8
Defpoints
 62
     0
100
AcDbPoint
 10
98.9277833099371
 20
1.467612663199276
 30
0.0
  0
ENDBLK
  5
18C6B
330
18C4D
100
AcDbEntity
  8
0
100
AcDbBlockEnd
  0
BLOCK
  5
18D42
330
18D15
100
AcDbEntity
  8
0
100
AcDbBlockBegin
  2
*D12
 70
     1
 71
     0
 10
0.0
 20
0.0
 30
0.0
  3
*D12
  1

  0
LINE
  5
18F84
330
18D15
100
AcDbEntity
  8
AM_5
 62
     3
370
    13
100
AcDbLine
 10
-67.18424648423469
 20
-0.0180761170278232
 30
0.0
 11
-69.65200712303478
 21
-20.89600854989249
 31
0.0
  0
LINE
  5
18F85
330
18D15
100
AcDbEntity
  8
AM_5
 62
     3
370
    13
100
AcDbLine
 10
-67.18424648423469
 20
-3.588845057297462
 30
0.0
 11
-67.18424648423472
 21
-21.04134668184892
 31
0.0
  0
ARC
  5
18F86
330
18D15
100
AcDbEntity
  8
AM_5
 62
     3
370
    13
100
AcDbCircle
 10
-67.18424648423469
 20
-0.0180761170278232
 30
0.0
 40
20.0232705648211
100
AcDbArc
 50
248.9142130416495
 51
263.2589462156112
  0
LINE
  5
18F87
330
18D15
100
AcDbEntity
  8
AM_5
 62
     3
370
    13
100
AcDbLine
 10
-74.38792571770851
 20
-18.70064472022714
 30
0.0
 11
-83.39178881975435
 21
-15.22890895268703
 31
0.0
  0
ARC
  5
18F88
330
18D15
100
AcDbEntity
  8
AM_5
 62
     3
370
    13
100
AcDbCircle
 10
-67.18424648423469
 20
-0.0180761170278232
 30
0.0
 40
20.0232705648211
100
AcDbArc
 50
248.9423389380581
 51
256.1006425768347
  0
ARC
  5
18F89
330
18D15
100
AcDbEntity
  8
AM_5
 62
     3
370
    13
100
AcDbCircle
 10
-67.18424648423469
 20
-0.0180761170278232
 30
0.0
 40
20.0232705648211
100
AcDbArc
 50
277.1583036387765
 51
284.316607277553
  0
ARC
  5
18F8A
330
18D15
100
AcDbEntity
  8
AM_5
 62
     3
370
    13
100
AcDbCircle
 10
-67.18424648423469
 20
-0.0180761170278232
 30
0.0
 40
20.0232705648211
100
AcDbArc
 50
263.2589462156112
 51
269.9999999999999
  0
INSERT
  5
18F8B
330
18D15
100
AcDbEntity
  8
AM_5
 62
     3
370
    13
100
AcDbBlockReference
  2
_Open30
 10
-69.5346247856296
 20
-19.902921752646
 30
0.0
 41
2.5
 42
2.5
 43
2.5
 50
349.6797943962229
  0
INSERT
  5
18F8C
330
18D15
100
AcDbEntity
  8
AM_5
 62
     3
370
    13
100
AcDbBlockReference
  2
_Open30
 10
-67.18424648423472
 20
-20.04134668184892
 30
0.0
 41
2.5
 42
2.5
 43
2.5
 50
183.5791518193882
  0
MTEXT
  5
18F8D
330
18D15
100
AcDbEntity
  8
AM_5
 62
     2
100
AcDbMText
 10
-77.66665502939088
 20
-13.79243128754974
 30
0.0
 40
3.8
 41
0.0
 71
     5
 72
     1
  1
7°
 11
0.9330428085021612
 21
-0.3597653645119265
 31
0.0
 73
     1
 44
1.0
  0
POINT
  5
18F8E
330
18D15
100
AcDbEntity
  8
Defpoints
 62
     0
100
AcDbPoint
 10
-67.96931504928381
 20
-20.02595035344291
 30
0.0
  0
POINT
  5
18F8F
330
18D15
100
AcDbEntity
  8
Defpoints
 62
     0
100
AcDbPoint
 10
-67.18424648423469
 20
-3.588845057297462
 30
0.0
  0
POINT
  5
18F90
330
18D15
100
AcDbEntity
  8
Defpoints
 62
     0
100
AcDbPoint
 10
-67.13325128234978
 20
0.4133572896866236
 30
0.0
  0
POINT
  5
18F91
330
18D15
100
AcDbEntity
  8
Defpoints
 62
     0
100
AcDbPoint
 10
-66.00639387098579
 20
9.946880325117528
 30
0.0
  0
POINT
  5
18F92
330
18D15
100
AcDbEntity
  8
Defpoints
 62
     0
100
AcDbPoint
 10
-67.18424648423468
 20
17.50552737384306
 30
0.0
  0
ENDBLK
  5
18D43
330
18D15
100
AcDbEntity
  8
0
100
AcDbBlockEnd
  0
ENDSEC
  0
SECTION
  2
ENTITIES
  0
LINE
  5
EF21
330
1F
100
AcDbEntity
  8
AM_7
100
AcDbLine
 10
153.4412382185363
 20
6.999999999999986
 30
0.0
 11
-2.165548451965947
 21
7.0
 31
0.0
1001
GENIUS_GENODEF_13
1002
{
1000
HIER
1070
     0
1002
}
1002
{
1000
MANEDIT
1070
     0
1002
}
1002
{
1000
NOSEL
1070
     0
1002
}
1002
{
1000
BEHIND
1070
     0
1002
}
1002
{
1000
REACTOR
1002
}
1001
GENIUS_GENOBJ-N-CEN_13
1002
{
1000
OWNER
1000
GEN
1002
}
  0
LINE
  5
EF61
330
1F
100
AcDbEntity
  8
AM_7
  6
AM_ISO08W050x2
100
AcDbLine
 10
101.2499999999998
 20
16.03221612705251
 30
0.0
 11
101.2499999999998
 21
-1.918746482979017
 31
0.0
1001
GENIUS_GENODEF_13
1002
{
1000
HIER
1070
     0
1002
}
1002
{
1000
MANEDIT
1070
     0
1002
}
1002
{
1000
NOSEL
1070
     0
1002
}
1002
{
1000
BEHIND
1070
     0
1002
}
1002
{
1000
REACTOR
1002
}
1001
GENIUS_GENOBJ-N-CEN_13
1002
{
1000
OWNER
1000
GEN
1002
}
  0
ARC
  5
EFB8
330
1F
100
AcDbEntity
  8
AM_0
100
AcDbCircle
 10
4.41355987161154
 20
5.629539545534051
 30
0.0
 40
0.2499999999998634
100
AcDbArc
 50
316.9722150900681
 51
103.0277849099401
  0
ARC
  5
EFB9
330
1F
100
AcDbEntity
  8
AM_0
100
AcDbCircle
 10
4.41355987161154
 20
4.46953954553431
 30
0.0
 40
0.2499999999998634
100
AcDbArc
 50
256.9722150900631
 51
43.02778490993659
  0
CIRCLE
  5
EFBA
330
1F
100
AcDbEntity
  8
AM_0
100
AcDbCircle
 10
3.408970403221758
 20
5.049539545534124
 30
0.0
 40
2.15
  0
CIRCLE
  5
EFBC
330
1F
100
AcDbEntity
  8
AM_0
100
AcDbCircle
 10
3.408970403221758
 20
5.049539545534124
 30
0.0
 40
1.803589838486232
  0
ARC
  5
EFBD
330
1F
100
AcDbEntity
  8
AM_0
100
AcDbCircle
 10
5.034929326927738
 20
5.049539545534124
 30
0.0
 40
0.6
100
AcDbArc
 50
136.9722150900634
 51
223.0277849099365
  0
ARC
  5
EFBE
330
1F
100
AcDbEntity
  8
AM_0
100
AcDbCircle
 10
3.408970403221758
 20
6.334539545534206
 30
0.0
 40
0.2499999999998634
100
AcDbArc
 50
16.97221509006815
 51
163.0277849099318
  0
ARC
  5
EFBF
330
1F
100
AcDbEntity
  8
AM_0
100
AcDbCircle
 10
2.404380934832091
 20
5.629539545534051
 30
0.0
 40
0.2499999999998634
100
AcDbArc
 50
76.97221509006826
 51
223.0277849099411
  0
ARC
  5
EFC0
330
1F
100
AcDbEntity
  8
AM_0
100
AcDbCircle
 10
2.595990941368825
 20
6.457661278973554
 30
0.0
 40
0.6
100
AcDbArc
 50
256.9722150900631
 51
343.0277849099371
  0
ARC
  5
EFC1
330
1F
100
AcDbEntity
  8
AM_0
100
AcDbCircle
 10
2.404380934832091
 20
4.46953954553431
 30
0.0
 40
0.2499999999998634
100
AcDbArc
 50
136.9722150900634
 51
283.0277849099369
  0
ARC
  5
EFC2
330
1F
100
AcDbEntity
  8
AM_0
100
AcDbCircle
 10
3.408970403221758
 20
3.889539545534383
 30
0.0
 40
0.2499999999998634
100
AcDbArc
 50
196.9722150900682
 51
343.0277849099334
  0
ARC
  5
EFC3
330
1F
100
AcDbEntity
  8
AM_0
100
AcDbCircle
 10
2.595990941368825
 20
3.641417812094808
 30
0.0
 40
0.6
100
AcDbArc
 50
16.97221509006296
 51
103.0277849099349
  0
ARC
  5
EFC4
330
1F
100
AcDbEntity
  8
AM_0
100
AcDbCircle
 10
1.783011479515892
 20
5.049539545534124
 30
0.0
 40
0.6
100
AcDbArc
 50
316.9722150900635
 51
43.02778490993659
  0
ARC
  5
EFC5
330
1F
100
AcDbEntity
  8
AM_0
100
AcDbCircle
 10
4.221949865074805
 20
3.641417812094808
 30
0.0
 40
0.6
100
AcDbArc
 50
76.97221509006315
 51
163.0277849099371
  0
ARC
  5
EFC6
330
1F
100
AcDbEntity
  8
AM_0
100
AcDbCircle
 10
4.221949865074805
 20
6.45766127897344
 30
0.0
 40
0.6
100
AcDbArc
 50
196.972215090063
 51
283.027784909935
  0
LINE
  5
EFDE
330
1F
100
AcDbEntity
  8
AM_7
  6
AM_ISO08W050x2
100
AcDbLine
 10
3.408970403221758
 20
1.083203270467891
 30
0.0
 11
3.408970403221758
 21
9.333814905862255
 31
0.0
1001
GENIUS_GENODEF_13
1002
{
1000
HIER
1070
     0
1002
}
1002
{
1000
MANEDIT
1070
     0
1002
}
1002
{
1000
NOSEL
1070
     0
1002
}
1002
{
1000
BEHIND
1070
     0
1002
}
1002
{
1000
REACTOR
1002
}
1001
GENIUS_GENOBJ-N-CEN_13
1002
{
1000
OWNER
1000
GEN
1002
}
  0
LINE
  5
EFE4
330
1F
100
AcDbEntity
  8
AM_7
  6
AM_ISO08W050x2
100
AcDbLine
 10
6.41523063223093
 20
5.049539545534117
 30
0.0
 11
-0.5016387533483453
 21
5.049539545534117
 31
0.0
1001
GENIUS_GENODEF_13
1002
{
1000
HIER
1070
     0
1002
}
1002
{
1000
MANEDIT
1070
     0
1002
}
1002
{
1000
NOSEL
1070
     0
1002
}
1002
{
1000
BEHIND
1070
     0
1002
}
1002
{
1000
REACTOR
1002
}
1001
GENIUS_GENOBJ-N-CEN_13
1002
{
1000
OWNER
1000
GEN
1002
}
  0
LINE
  5
15C91
330
1F
100
AcDbEntity
  8
AM_0
100
AcDbLine
 10
25.24999999999983
 20
-61.35676827688292
 30
0.0
 11
149.4999999999999
 21
-61.35676827688293
 31
0.0
  0
LINE
  5
15C92
330
1F
100
AcDbEntity
  8
AM_0
100
AcDbLine
 10
25.24999999999983
 20
1.000000000000057
 30
0.0
 11
90.74999999999983
 21
1.00000000000005
 31
0.0
  0
LINE
  5
15C93
330
1F
100
AcDbEntity
  8
AM_0
100
AcDbLine
 10
43.95876677123653
 20
13.0
 30
0.0
 11
90.74999999999983
 21
12.99999999999999
 31
0.0
  0
LINE
  5
15C94
330
1F
100
AcDbEntity
  8
AM_0
100
AcDbLine
 10
25.24999999999966
 20
4.602084238343707
 30
0.0
 11
90.74999999999983
 21
4.6020842383437
 31
0.0
  0
LINE
  5
15C95
330
1F
100
AcDbEntity
  8
AM_0
100
AcDbLine
 10
149.0
 20
9.397915761656364
 30
0.0
 11
111.7499999999998
 21
9.397915761656336
 31
0.0
  0
ELLIPSE
  5
15C96
330
1F
100
AcDbEntity
  8
AM_0
100
AcDbEllipse
 10
3.408970403221758
 20
-55.53679734882587
 30
0.0
 11
-1.494207375492318
 21
0.1316978322690129
 31
0.0
210
0.0
220
0.0
230
1.0
 40
0.1214388637169113
 41
0.6278248067315924
 42
6.911010113911176
  0
LINE
  5
15C97
330
1F
100
AcDbEntity
  8
AM_0
100
AcDbLine
 10
5.429168577849907
 20
-56.02062223502981
 30
0.0
 11
0.579441115523025
 21
-55.90202520682658
 31
0.0
  0
LINE
  5
15C98
330
1F
100
AcDbEntity
  8
AM_0
100
AcDbLine
 10
1.115081311492929
 20
-54.69395284689585
 30
0.0
 11
7.655886216083502
 21
-55.78147773256023
 31
0.0
  0
SPLINE
  5
15C99
330
1F
100
AcDbEntity
  8
AM_0
100
AcDbSpline
210
0.0
220
0.0
230
1.0
 70
     8
 71
     3
 72
    29
 73
    25
 74
     0
 42
0.0000000001
 43
0.0000000001
 40
-1.662586161557859
 40
-1.662586161557859
 40
-1.662586161557859
 40
-1.662586161557859
 40
-1.416571919703665
 40
-1.416571919703665
 40
-1.132418994118487
 40
-1.132418994118487
 40
-0.8493142455888645
 40
-0.8493142455888645
 40
-0.5662094970592424
 40
-0.5662094970592424
 40
-0.2831047485296221
 40
-0.2831047485296221
 40
0.0
 40
0.0
 40
0.0
 40
0.2852021210878449
 40
0.2852021210878449
 40
0.5704042421756898
 40
0.5704042421756898
 40
1.14080848435138
 40
1.14080848435138
 40
1.423180737699474
 40
1.423180737699474
 40
1.664923952642395
 40
1.664923952642395
 40
1.664923952642395
 40
1.664923952642395
 10
4.178051766867668
 20
-62.3459419530916
 30
0.0
 10
4.14224787960967
 20
-62.34136378256756
 30
0.0
 10
4.099622899042458
 20
-62.33549952853377
 30
0.0
 10
3.995886307835974
 20
-62.3213125842168
 30
0.0
 10
3.932894508857373
 20
-62.31276362231165
 30
0.0
 10
3.798965659534645
 20
-62.29583559890534
 30
0.0
 10
3.723507488291546
 20
-62.28686328241054
 30
0.0
 10
3.559251335466172
 20
-62.26978461665738
 30
0.0
 10
3.470456926657391
 20
-62.26170016048638
 30
0.0
 10
3.285257819477977
 20
-62.24818774234313
 30
0.0
 10
3.188703307710682
 20
-62.24276387262154
 30
0.0
 10
2.994552536587605
 20
-62.23557054244554
 30
0.0
 10
2.896954949096596
 20
-62.23380603868128
 30
0.0
 10
2.802586699586811
 20
-62.23380603868128
 30
0.0
 10
2.707519325890814
 20
-62.23380603868128
 30
0.0
 10
2.609222503263311
 20
-62.23559656015129
 30
0.0
 10
2.41370387719104
 20
-62.24286667955948
 30
0.0
 10
2.316479985406488
 20
-62.24834038903566
 30
0.0
 10
2.036778180339582
 20
-62.26876178642567
 30
0.0
 10
1.866564774356959
 20
-62.28779754591682
 30
0.0
 10
1.66590630941738
 20
-62.31320839683042
 30
0.0
 10
1.603618468430852
 20
-62.32168817059358
 30
0.0
 10
1.502127459852943
 20
-62.33568006169298
 30
0.0
 10
1.460863638564149
 20
-62.34143380418306
 30
0.0
 10
1.426488340431035
 20
-62.3459419530916
 30
0.0
  0
LINE
  5
15C9A
330
1F
100
AcDbEntity
  8
AM_0
100
AcDbLine
 10
5.42916857786912
 20
-56.02062223503026
 30
0.0
 11
3.210324854974999
 21
-55.96636181037201
 31
0.0
  0
ELLIPSE
  5
15C9B
330
1F
100
AcDbEntity
  8
AM_0
100
AcDbEllipse
 10
0.7514541162709634
 20
-44.31842930236275
 30
0.0
 11
16.46707410899589
 21
-5.095250783897394
 31
0.0
210
0.0
220
0.0
230
1.0
 40
0.5799901139601642
 41
4.942957024661749
 42
5.258956631384862
  0
ELLIPSE
  5
15C9C
330
1F
100
AcDbEntity
  8
AM_0
100
AcDbEllipse
 10
9.582990519068801
 20
-55.85676827688292
 30
0.0
 11
74.30131551108619
 21
-6.452248959329448
 31
0.0
210
0.0
220
0.0
230
1.0
 40
0.0105844308312522
 41
4.627437053593427
 42
4.672364261964876
  0
SPLINE
  5
15C9D
330
1F
100
AcDbEntity
  8
AM_0
100
AcDbSpline
210
0.0
220
0.0
230
1.0
 70
     8
 71
     3
 72
    40
 73
    36
 74
     0
 42
0.0000000001
 43
0.0000000001
 40
1.66400425410859
 40
1.66400425410859
 40
1.66400425410859
 40
1.66400425410859
 40
1.706132171298356
 40
1.706132171298356
 40
1.992916009709344
 40
1.992916009709344
 40
2.279699848120332
 40
2.279699848120332
 40
2.882771818154704
 40
2.882771818154704
 40
3.485843788189076
 40
3.485843788189076
 40
4.07603957785658
 40
4.07603957785658
 40
4.371137472690332
 40
4.371137472690332
 40
4.666235367524084
 40
4.666235367524084
 40
4.947345489481269
 40
4.947345489481269
 40
5.228455611438454
 40
5.228455611438454
 40
5.509565733395639
 40
5.509565733395639
 40
5.790675855352824
 40
5.790675855352824
 40
6.394317946821967
 40
6.394317946821967
 40
6.99796003829111
 40
6.99796003829111
 40
7.287650839236525
 40
7.287650839236525
 40
7.577341640181939
 40
7.577341640181939
 40
7.616862908635685
 40
7.616862908635685
 40
7.616862908635685
 40
7.616862908635685
 10
1.426488340431035
 20
-62.3459419530916
 30
0.0
 10
1.420690124134978
 20
-62.34515228886471
 30
0.0
 10
1.415099186248938
 20
-62.34431418197562
 30
0.0
 10
1.373095625167309
 20
-62.33738484030096
 30
0.0
 10
1.346315216213668
 20
-62.32898607647906
 30
0.0
 10
1.313088007855924
 20
-62.30753035558257
 30
0.0
 10
1.306639835917338
 20
-62.29446828694017
 30
0.0
 10
1.31371518529312
 20
-62.24897111780609
 30
0.0
 10
1.359154097202747
 20
-62.20626433673976
 30
0.0
 10
1.526109373419729
 20
-62.10943821540349
 30
0.0
 10
1.647447040614054
 20
-62.05571443799113
 30
0.0
 10
1.920113235233032
 20
-61.96218764287409
 30
0.0
 10
2.090446614110249
 20
-61.91539327299813
 30
0.0
 10
2.372946368084115
 20
-61.86542379015134
 30
0.0
 10
2.471567489371694
 20
-61.85209197167166
 30
0.0
 10
2.671123846017338
 20
-61.83425414725912
 30
0.0
 10
2.772065225909898
 20
-61.82976910121312
 30
0.0
 10
2.964134564840208
 20
-61.82976910121312
 30
0.0
 10
3.060511140326696
 20
-61.83384743811075
 30
0.0
 10
3.250858926372132
 20
-61.85055944765026
 30
0.0
 10
3.344833199421771
 20
-61.86318021876673
 30
0.0
 10
3.523587796855679
 20
-61.89513179904941
 30
0.0
 10
3.608563180248268
 20
-61.91446812692072
 30
0.0
 10
3.764535527003488
 20
-61.95667952675922
 30
0.0
 10
3.835538577450336
 20
-61.97952717251752
 30
0.0
 10
4.032043471964187
 20
-62.05115874797593
 30
0.0
 10
4.144888420261452
 20
-62.10666816749438
 30
0.0
 10
4.291495376159844
 20
-62.20575362652011
 30
0.0
 10
4.325177381726292
 20
-62.24894196823925
 30
0.0
 10
4.318074385642319
 20
-62.29461691615052
 30
0.0
 10
4.307079854381129
 20
-62.30774021587752
 30
0.0
 10
4.265477698491907
 20
-62.32923059752477
 30
0.0
 10
4.234870508912138
 20
-62.33760380248111
 30
0.0
 10
4.189468315976512
 20
-62.34443059075704
 30
0.0
 10
4.183844949616798
 20
-62.34520727839856
 30
0.0
 10
4.178051766867668
 20
-62.3459419530916
 30
0.0
  0
SPLINE
  5
15C9E
330
1F
100
AcDbEntity
  8
AM_0
100
AcDbSpline
210
0.0
220
0.0
230
1.0
 70
     8
 71
     3
 72
    12
 73
     8
 74
     0
 42
0.0000000001
 43
0.0000000001
 40
3.349680994984138
 40
3.349680994984138
 40
3.349680994984138
 40
3.349680994984138
 40
5.000594304755719
 40
5.000594304755719
 40
7.500891457133578
 40
7.500891457133578
 40
7.885021767805957
 40
7.885021767805957
 40
7.885021767805957
 40
7.885021767805957
 10
7.093641429664842
 20
-53.85944694287662
 30
0.0
 10
6.588982657455119
 20
-53.98176811837749
 30
0.0
 10
6.079560403544235
 20
-54.07884067888233
 30
0.0
 10
4.806212157388984
 20
-54.26618773678473
 30
0.0
 10
4.032744644155685
 20
-54.32834394943097
 30
0.0
 10
3.18069708504828
 20
-54.35193888302416
 30
0.0
 10
3.06765089741856
 20
-54.35412974139911
 30
0.0
 10
2.955241822405071
 20
-54.35540784488075
 30
0.0
  0
LINE
  5
15CA1
330
1F
100
AcDbEntity
  8
AM_0
100
AcDbLine
 10
9.111287182345961
 20
4.469231025237832
 30
0.0
 11
0.579441115523025
 21
0.0452541198419567
 31
0.0
  0
LINE
  5
15CA2
330
1F
100
AcDbEntity
  8
AM_0
100
AcDbLine
 10
1.115081311492929
 20
10.2658779145832
 30
0.0
 11
9.147296607285114
 21
5.156331784548229
 31
0.0
  0
ELLIPSE
  5
15CA4
330
1F
100
AcDbEntity
  8
AM_0
100
AcDbEllipse
 10
0.7514541162709634
 20
12.13737605713186
 30
0.0
 11
16.7134525868304
 21
-10.79189820515322
 31
0.0
210
0.0
220
0.0
230
1.0
 40
0.0692310771998823
 41
4.810059223281318
 42
5.126058830004431
  0
ELLIPSE
  5
15CA6
330
1F
100
AcDbEntity
  8
AM_0
100
AcDbEllipse
 10
9.582990519068801
 20
7.0
 30
0.0
 11
74.30131456486291
 21
0.7983855622697709
 31
0.0
210
0.0
220
0.0
230
1.0
 40
0.0868192093785678
 41
4.625585019794077
 42
4.670512228165525
  0
SPLINE
  5
15CA8
330
1F
100
AcDbEntity
  8
AM_0
100
AcDbSpline
210
0.0
220
0.0
230
1.0
 70
     8
 71
     3
 72
    12
 73
     8
 74
     0
 42
0.0000000001
 43
0.0000000001
 40
3.349680994984138
 40
3.349680994984138
 40
3.349680994984138
 40
3.349680994984138
 40
5.000594304755719
 40
5.000594304755719
 40
7.500891457133578
 40
7.500891457133578
 40
7.885021767805957
 40
7.885021767805957
 40
7.885021767805957
 40
7.885021767805957
 10
7.093641429664842
 20
10.44365287541268
 30
0.0
 10
6.588982657455119
 20
10.68175098332563
 30
0.0
 10
6.079560403544235
 20
10.92300004154561
 30
0.0
 10
4.806212157388984
 20
11.52475093001647
 30
0.0
 10
4.032744644155685
 20
11.88912063452204
 30
0.0
 10
3.18069708504828
 20
12.28498570337501
 30
0.0
 10
3.06765089741856
 20
12.33739013063746
 30
0.0
 10
2.955241822405071
 20
12.38935625980525
 30
0.0
  0
LINE
  5
15CA9
330
1F
100
AcDbEntity
  8
AM_0
100
AcDbLine
 10
3.234910874401351
 20
12.55082326225931
 30
0.0
 11
12.46453329077195
 21
12.55082326225931
 31
0.0
  0
LINE
  5
15CAA
330
1F
100
AcDbEntity
  8
AM_0
100
AcDbLine
 10
3.579895103854199
 20
12.75
 30
0.0
 11
15.94821396167191
 21
12.75
 31
0.0
  0
LINE
  5
15CAB
330
1F
100
AcDbEntity
  8
AM_0
100
AcDbLine
 10
0.2191415429390986
 20
-57.87757302591933
 30
0.0
 11
0.0000340891696737
 21
-55.80891075384693
 31
0.0
  0
LINE
  5
15CAC
330
1F
100
AcDbEntity
  8
AM_0
100
AcDbLine
 10
3.063855607625385
 20
-57.58280509223181
 30
0.0
 11
3.210324854974999
 21
-55.96636181037201
 31
0.0
  0
ELLIPSE
  5
15CAD
330
1F
100
AcDbEntity
  8
AM_0
100
AcDbEllipse
 10
3.160667334862239
 20
-55.85676827688292
 30
0.0
 11
-0.5643256411740111
 21
-6.499997171568056
 31
0.0
210
0.0
220
0.0
230
1.0
 40
0.0107452051714573
 41
1.036256411686385
 42
1.535393665798597
  0
LINE
  5
15CAE
330
1F
100
AcDbEntity
  8
AM_0
100
AcDbLine
 10
0.357985395354433
 20
-58.96308572272028
 30
0.0
 11
2.936641168342305
 21
-59.02614512426624
 31
0.0
  0
LINE
  5
15CAF
330
1F
100
AcDbEntity
  8
AM_0
100
AcDbLine
 10
0.2191415429371659
 20
-57.87757302596913
 30
0.0
 11
0.357985395354433
 21
-58.96308572272034
 31
0.0
  0
LINE
  5
15CB0
330
1F
100
AcDbEntity
  8
AM_0
100
AcDbLine
 10
1.033122995830297
 20
-62.3459419530916
 30
0.0
 11
1.426488340431035
 21
-62.3459419530916
 31
0.0
  0
ELLIPSE
  5
15CB1
330
1F
100
AcDbEntity
  8
AM_0
100
AcDbEllipse
 10
0.419262132442725
 20
-55.85676827688292
 30
0.0
 11
0.6415270993301387
 21
-6.499872701186042
 31
0.0
210
0.0
220
0.0
230
0.9999999999999999
 40
0.0634113095143836
 41
5.204391748929456
 42
6.219202433892276
  0
ELLIPSE
  5
15CB2
330
1F
100
AcDbEntity
  8
AM_0
100
AcDbEllipse
 10
-26.90634519451129
 20
-55.8567682768829
 30
0.0
 11
74.30131551108518
 21
-6.452248959329449
 31
0.0
210
0.0
220
0.0
230
1.0
 40
0.0105844308312523
 41
5.089497009962796
 42
5.12657430770543
  0
LINE
  5
15CB3
330
1F
100
AcDbEntity
  8
AM_0
100
AcDbLine
 10
2.933275161776635
 20
-59.17337847796119
 30
0.0
 11
2.933132482293843
 21
-59.06595371094841
 31
0.0
  0
LINE
  5
15CB4
330
1F
100
AcDbEntity
  8
AM_0
100
AcDbLine
 10
2.933132482293843
 20
-59.06595371094841
 30
0.0
 11
3.063855607625385
 21
-57.58280509223181
 31
0.0
  0
ELLIPSE
  5
15CB5
330
1F
100
AcDbEntity
  8
AM_0
100
AcDbEllipse
 10
0.3984781239371955
 20
-55.84286951336151
 30
0.0
 11
-0.3984553001312856
 21
0.03511942193839844
 31
0.0
210
0.0
220
0.0
230
1.0
 40
0.1214388637169112
 41
6.241691057689658
 42
8.336086160082964
  0
LINE
  5
15CB6
330
1F
100
AcDbEntity
  8
AM_0
100
AcDbLine
 10
0.0005427158263842
 20
-55.805773074998
 30
0.0
 11
0.5001734868569088
 21
-54.67891566363409
 31
0.0
  0
ELLIPSE
  5
15CB7
330
1F
100
AcDbEntity
  8
AM_0
100
AcDbEllipse
 10
0.8981088949678338
 20
-54.71601210199754
 30
0.0
 11
-0.3984553001312856
 21
0.03511942193839845
 31
0.0
210
0.0
220
0.0
230
1.0
 40
0.1214388637169112
 41
4.147295955296544
 42
6.241691057689729
  0
LINE
  5
15CB8
330
1F
100
AcDbEntity
  8
AM_0
100
AcDbLine
 10
0.5417420769675232
 20
-54.66325197543949
 30
0.0
 11
0.5361829117958337
 21
-54.59770071506773
 31
0.0
  0
LINE
  5
15CB9
330
1F
100
AcDbEntity
  8
AM_0
100
AcDbLine
 10
1.637693010392979
 20
-54.78084631587819
 30
0.0
 11
0.5361829117958337
 21
-54.59770071506773
 31
0.0
  0
LINE
  5
15CBA
330
1F
100
AcDbEntity
  8
AM_0
100
AcDbLine
 10
0.5361829117958337
 20
-54.59770071506773
 30
0.0
 11
0.5488061906087864
 21
-54.56923042038045
 31
0.0
  0
LINE
  5
15CBB
330
1F
100
AcDbEntity
  8
AM_0
100
AcDbLine
 10
3.210324854974999
 20
-55.96636181037241
 30
0.0
 11
3.210492917082604
 21
-56.09289740190479
 31
0.0
  0
ELLIPSE
  5
15CBC
330
1F
100
AcDbEntity
  8
AM_0
100
AcDbEllipse
 10
1.205590576211364
 20
-44.46692754190576
 30
0.0
 11
-0.2356792292816414
 21
-10.10942089195735
 31
0.0
210
0.0
220
0.0
230
0.9999999999999998
 40
0.8573497867863595
 41
0.0052133585640906
 42
0.2303735493588241
  0
LINE
  5
15CBD
330
1F
100
AcDbEntity
  8
AM_0
100
AcDbLine
 10
0.5488061906087864
 20
-54.56923042038045
 30
0.0
 11
1.015100139029585
 21
-54.57726445557358
 31
0.0
  0
LINE
  5
15CED
330
1F
100
AcDbEntity
  8
AM_0
100
AcDbLine
 10
0.0005427158263842
 20
0.4135096967813752
 30
0.0
 11
0.5001734868569088
 21
9.947032732212279
 31
0.0
  0
ELLIPSE
  5
15CF3
330
1F
100
AcDbEntity
  8
AM_0
100
AcDbEllipse
 10
0.3984781239371955
 20
0.3970395652585239
 30
0.0
 11
0.3249778227751179
 21
0.2332153826494817
 31
0.0
210
0.0
220
0.0
230
1.0
 40
0.9887657446192052
 41
2.472273597372902
 42
4.566668699766209
  0
LINE
  5
15CF4
330
1F
100
AcDbEntity
  8
AM_0
100
AcDbLine
 10
3.210345246302836
 20
1.409444123238814
 30
0.0
 11
3.210492917082604
 21
0.5042904131792056
 31
0.0
  0
ELLIPSE
  5
15CF5
330
1F
100
AcDbEntity
  8
AM_0
100
AcDbEllipse
 10
3.160667334862239
 20
7.0
 30
0.0
 11
-0.07090445807499105
 21
6.499997086376434
 31
0.0
210
0.0
220
0.0
230
1.0
 40
0.0867990168908958
 41
2.646656576874005
 42
3.104310264308674
  0
ELLIPSE
  5
15CF8
330
1F
100
AcDbEntity
  8
AM_0
100
AcDbEllipse
 10
0.8981088949678338
 20
9.930562600689427
 30
0.0
 11
0.3249778227751179
 21
0.2332153826494817
 31
0.0
210
0.0
220
0.0
230
1.0
 40
0.9887657446192052
 41
0.3778784949797886
 42
2.472273597372973
  0
LINE
  5
15CF9
330
1F
100
AcDbEntity
  8
AM_0
100
AcDbLine
 10
0.6814563876213811
 20
10.26146033396992
 30
0.0
 11
0.5298432912131261
 21
10.63816632463585
 31
0.0
  0
LINE
  5
15CFA
330
1F
100
AcDbEntity
  8
AM_0
100
AcDbLine
 10
1.581084110095389
 20
9.969438799283125
 30
0.0
 11
0.529843291213183
 21
10.63816632463579
 31
0.0
  0
LINE
  5
15CFB
330
1F
100
AcDbEntity
  8
AM_0
100
AcDbLine
 10
0.529843291213183
 20
10.63816632463579
 30
0.0
 11
0.5488061906087864
 21
11.00000000000011
 31
0.0
  0
LINE
  5
15CFC
330
1F
100
AcDbEntity
  8
AM_0
100
AcDbLine
 10
1.015100139027993
 20
11.26921493664145
 30
0.0
 11
2.955241822405071
 21
12.38935625980525
 31
0.0
  0
LINE
  5
15CFD
330
1F
100
AcDbEntity
  8
AM_0
100
AcDbLine
 10
0.5488061906087864
 20
11.00000000000011
 30
0.0
 11
1.015100139029585
 21
11.26921493664236
 31
0.0
  0
LINE
  5
15CFE
330
1F
100
AcDbEntity
  8
AM_0
100
AcDbLine
 10
2.955241822405185
 20
12.38935625980525
 30
0.0
 11
3.234910874401351
 21
12.55082326225931
 31
0.0
  0
LINE
  5
15CFF
330
1F
100
AcDbEntity
  8
AM_0
100
AcDbLine
 10
3.234910874401351
 20
12.55082326225931
 30
0.0
 11
3.579895103854199
 21
12.75
 31
0.0
  0
LINE
  5
15D00
330
1F
100
AcDbEntity
  8
AM_0
100
AcDbLine
 10
16.99999999999972
 20
-61.35676827688292
 30
0.0
 11
24.99999999999972
 21
-61.35676827688292
 31
0.0
  0
LINE
  5
15D03
330
1F
100
AcDbEntity
  8
AM_0
100
AcDbLine
 10
19.38384813760712
 20
-50.35676827688292
 30
0.0
 11
22.46453329077195
 21
-50.35676827688292
 31
0.0
  0
ELLIPSE
  5
15D04
330
1F
100
AcDbEntity
  8
AM_0
100
AcDbEllipse
 10
23.47908384361296
 20
-50.35676827688292
 30
0.0
 11
11.34555704628461
 21
4.26913661369609
 31
0.0
210
0.0
220
0.0
230
1.0
 40
0.1254094100849947
 41
1.892503469098367
 42
3.445269057061431
  0
ELLIPSE
  5
15D05
330
1F
100
AcDbEntity
  8
AM_0
100
AcDbEllipse
 10
12.76044620600698
 20
-50.55342705196034
 30
0.0
 11
4.075306574402688
 21
1.731028004023565
 31
0.0
210
0.0
220
0.0
230
1.0
 40
0.3352043512074567
 41
4.499009859855654
 42
5.344332619102244
  0
LINE
  5
15D06
330
1F
100
AcDbEntity
  8
AM_0
100
AcDbLine
 10
4.178051766867668
 20
-62.3459419530916
 30
0.0
 11
16.24999999999983
 21
-62.3459419530916
 31
0.0
  0
SPLINE
  5
15D07
330
1F
100
AcDbEntity
  8
AM_0
100
AcDbSpline
210
0.0
220
0.0
230
1.0
 70
     8
 71
     3
 72
    26
 73
    22
 74
     0
 42
0.0000000001
 43
0.0000000001
 40
9.174451604544069
 40
9.174451604544069
 40
9.174451604544069
 40
9.174451604544069
 40
9.27259562537742
 40
9.27259562537742
 40
10.09832614555448
 40
10.09832614555448
 40
10.92405666573155
 40
10.92405666573155
 40
11.74978718590861
 40
11.74978718590861
 40
12.61770703576739
 40
12.61770703576739
 40
13.48562688562617
 40
13.48562688562617
 40
14.3376527168198
 40
14.3376527168198
 40
15.18967854801344
 40
15.18967854801344
 40
16.04170437920708
 40
16.04170437920708
 40
16.78879762526805
 40
16.78879762526805
 40
16.78879762526805
 40
16.78879762526805
 10
16.24999999999972
 20
-60.51999943028903
 30
0.0
 10
16.21554146807949
 20
-60.51748280704743
 30
0.0
 10
16.18102004471217
 20
-60.51478295431207
 30
0.0
 10
15.85559947574524
 20
-60.4876154179322
 30
0.0
 10
15.56135396382007
 20
-60.4500545849769
 30
0.0
 10
14.98305695822847
 20
-60.34617536362214
 30
0.0
 10
14.69882057447154
 20
-60.27977364826927
 30
0.0
 10
14.15585264247778
 20
-60.1187734983281
 30
0.0
 10
13.89713369392467
 20
-60.02409216654519
 30
0.0
 10
13.40615128473877
 20
-59.80651785501777
 30
0.0
 10
13.14161809200942
 20
-59.66626079890352
 30
0.0
 10
12.64875533088031
 20
-59.33877848296481
 30
0.0
 10
12.42052307592627
 20
-59.151091542198
 30
0.0
 10
12.04186999944142
 20
-58.77284834409153
 30
0.0
 10
11.86564150247301
 20
-58.55973777708823
 30
0.0
 10
11.55638172640403
 20
-58.09019914631347
 30
0.0
 10
11.42327786952336
 20
-57.83375083976955
 30
0.0
 10
11.21041327542827
 20
-57.29350306829838
 30
0.0
 10
11.1303107457025
 20
-57.00911760259629
 30
0.0
 10
11.03159788772115
 20
-56.4682451842574
 30
0.0
 10
11.00655077925234
 20
-56.21263946643001
 30
0.0
 10
11.00113691401526
 20
-55.96204193936171
 30
0.0
  0
ELLIPSE
  5
15D08
330
1F
100
AcDbEntity
  8
AM_0
100
AcDbEllipse
 10
16.99999999999972
 20
-56.58781138749419
 30
0.0
 11
-9.881383235106345
 21
-4.79083552185059
 31
0.0
210
0.0
220
0.0
230
1.0
 40
0.3205420979009038
 41
4.990252571201983
 42
5.093637852409574
  0
ELLIPSE
  5
15D09
330
1F
100
AcDbEntity
  8
AM_0
100
AcDbEllipse
 10
14.64564246406991
 20
-49.85676827688292
 30
0.0
 11
11.34555704628461
 21
4.26913661369609
 31
0.0
210
0.0
220
0.0
230
1.0
 40
0.1254094100849947
 41
3.937881059295358
 42
4.472004578506222
  0
ELLIPSE
  5
15D0A
330
1F
100
AcDbEntity
  8
AM_0
100
AcDbEllipse
 10
4.044452518234664
 20
-45.39520799917523
 30
0.0
 11
11.47017275802616
 21
-1.23575169437374
 31
0.0
210
0.0
220
0.0
230
1.0
 40
0.8603529575614458
 41
5.045088925811802
 42
5.229196410099203
  0
ELLIPSE
  5
15D0B
330
1F
100
AcDbEntity
  8
AM_0
100
AcDbEllipse
 10
5.610991229996159
 20
-45.90745103930277
 30
0.0
 11
11.47017275802632
 21
-1.235751694373898
 31
0.0
210
0.0
220
0.0
230
1.0
 40
0.8603529575614315
 41
5.010133281903446
 42
5.064928674307003
  0
SPLINE
  5
15D0C
330
1F
100
AcDbEntity
  8
AM_0
100
AcDbSpline
210
0.0
220
0.0
230
1.0
 70
     8
 71
     3
 72
    14
 73
    10
 74
     0
 42
0.0000000001
 43
0.0000000001
 40
20.23759124194095
 40
20.23759124194095
 40
20.23759124194095
 40
20.23759124194095
 40
20.2579725557655
 40
20.2579725557655
 40
21.86889787528931
 40
21.86889787528931
 40
23.47982319481312
 40
23.47982319481312
 40
24.58198893422719
 40
24.58198893422719
 40
24.58198893422719
 40
24.58198893422719
 10
11.00113691401526
 20
-55.96204193936171
 30
0.0
 10
10.99416662823995
 20
-55.96407979821754
 30
0.0
 10
10.98719390004936
 20
-55.96611084057372
 30
0.0
 10
10.42890861437383
 20
-56.12812772858763
 30
0.0
 10
9.862311080523057
 20
-56.24527433341723
 30
0.0
 10
8.735962655862579
 20
-56.39738635618494
 30
0.0
 10
8.176196343563163
 20
-56.43223545656031
 30
0.0
 10
7.271832657250627
 20
-56.43223545656031
 30
0.0
 10
6.905551939936515
 20
-56.4161507749626
 30
0.0
 10
6.541656553594578
 20
-56.38439506663315
 30
0.0
  0
LINE
  5
15D0D
330
1F
100
AcDbEntity
  8
AM_0
100
AcDbLine
 10
6.785684346082519
 20
-55.12605330622773
 30
0.0
 11
6.551037111447442
 21
-55.5977769627433
 31
0.0
  0
ELLIPSE
  5
15D0E
330
1F
100
AcDbEntity
  8
AM_0
100
AcDbEllipse
 10
7.179766709522312
 20
-46.42042548090228
 30
0.0
 11
5.871640623078585
 21
8.264741347338822
 31
0.0
210
0.0
220
0.0
230
1.0
 40
0.8326918709774634
 41
3.653194687834636
 42
3.934238650649384
  0
SPLINE
  5
15D0F
330
1F
100
AcDbEntity
  8
AM_0
100
AcDbSpline
210
0.0
220
0.0
230
1.0
 70
     8
 71
     3
 72
     8
 73
     4
 74
     0
 42
0.0000000001
 43
0.0000000001
 40
1.327011630901579
 40
1.327011630901579
 40
1.327011630901579
 40
1.327011630901579
 40
1.588882119816186
 40
1.588882119816186
 40
1.588882119816186
 40
1.588882119816186
 10
9.043702602454744
 20
-54.49709812639657
 30
0.0
 10
8.960304785862661
 20
-54.524267996486
 30
0.0
 10
8.874324841469445
 20
-54.5539940618786
 30
0.0
 10
8.787613467448807
 20
-54.58539665666478
 30
0.0
  0
SPLINE
  5
15D10
330
1F
100
AcDbEntity
  8
AM_0
100
AcDbSpline
210
0.0
220
0.0
230
1.0
 70
     8
 71
     3
 72
    16
 73
    12
 74
     0
 42
0.0000000001
 43
0.0000000001
 40
-3.21706260663352
 40
-3.21706260663352
 40
-3.21706260663352
 40
-3.21706260663352
 40
-3.013527064357746
 40
-3.013527064357746
 40
-2.715006205642659
 40
-2.715006205642659
 40
-2.416485346927574
 40
-2.416485346927574
 40
-1.795563529742493
 40
-1.795563529742493
 40
-1.328462959426317
 40
-1.328462959426317
 40
-1.328462959426317
 40
-1.328462959426317
 10
8.573644568713746
 20
-55.59561345202428
 30
0.0
 10
8.643646550742062
 20
-55.58147933755913
 30
0.0
 10
8.714100199475354
 20
-55.56533181229372
 30
0.0
 10
8.88618363004872
 20
-55.52089099135424
 30
0.0
 10
8.987176431540604
 20
-55.49036290734455
 30
0.0
 10
9.17984875268877
 20
-55.42322787964451
 30
0.0
 10
9.271528080319001
 20
-55.38661849068427
 30
0.0
 10
9.531116872633504
 20
-55.27011746742721
 30
0.0
 10
9.6998669633536
 20
-55.17383566669878
 30
0.0
 10
9.940469671859489
 20
-54.99504453362636
 30
0.0
 10
10.0264500817089
 20
-54.91516619944014
 30
0.0
 10
10.09027950630679
 20
-54.8393186734736
 30
0.0
  0
ELLIPSE
  5
15D11
330
1F
100
AcDbEntity
  8
AM_0
100
AcDbEllipse
 10
8.671647227345432
 20
-55.19240998118607
 30
0.0
 11
1.547106270908793
 21
0.7160829801005516
 31
0.0
210
0.0
220
0.0
230
1.0
 40
0.2996533946399089
 41
5.713689298319104
 42
7.475648615782793
  0
SPLINE
  5
15D12
330
1F
100
AcDbEntity
  8
AM_0
100
AcDbSpline
210
0.0
220
0.0
230
1.0
 70
     8
 71
     3
 72
    10
 73
     6
 74
     0
 42
0.0000000001
 43
0.0000000001
 40
35.66404045851092
 40
35.66404045851092
 40
35.66404045851092
 40
35.66404045851092
 40
36.06219674417969
 40
36.06219674417969
 40
36.79662507680046
 40
36.79662507680046
 40
36.79662507680046
 40
36.79662507680046
 10
11.89793048697044
 20
-55.4304030985648
 30
0.0
 10
11.79398773851455
 20
-55.49838944784358
 30
0.0
 10
11.68919659736713
 20
-55.56463571176653
 30
0.0
 10
11.39003885472567
 20
-55.74729600583891
 30
0.0
 10
11.19475433778683
 20
-55.8587965827345
 30
0.0
 10
11.00113691401526
 20
-55.96204193936171
 30
0.0
  0
LINE
  5
15D13
330
1F
100
AcDbEntity
  8
AM_0
100
AcDbLine
 10
16.99999999999972
 20
-61.60676827688292
 30
0.0
 11
16.29341421492728
 21
-62.31335406195541
 31
0.0
  0
SPLINE
  5
15D14
330
1F
100
AcDbEntity
  8
AM_0
100
AcDbSpline
210
0.0
220
0.0
230
1.0
 70
     8
 71
     3
 72
    10
 73
     6
 74
     0
 42
0.0000000001
 43
0.0000000001
 40
11.18663947952806
 40
11.18663947952806
 40
11.18663947952806
 40
11.18663947952806
 40
11.76202634912363
 40
11.76202634912363
 40
12.45969403619164
 40
12.45969403619164
 40
12.45969403619164
 40
12.45969403619164
 10
16.99999999999972
 20
-59.43622354270201
 30
0.0
 10
16.89603190631084
 20
-59.60323681548118
 30
0.0
 10
16.78738565195346
 20
-59.76858117282251
 30
0.0
 10
16.53845769372543
 20
-60.13069144607005
 30
0.0
 10
16.39638465574575
 20
-60.32664727114951
 30
0.0
 10
16.24999999999972
 20
-60.51999943028903
 30
0.0
  0
SPLINE
  5
15D15
330
1F
100
AcDbEntity
  8
AM_0
100
AcDbSpline
210
0.0
220
0.0
230
1.0
 70
     8
 71
     3
 72
     8
 73
     4
 74
     0
 42
0.0000000001
 43
0.0000000001
 40
-9.450127264074602
 40
-9.450127264074602
 40
-9.450127264074602
 40
-9.450127264074602
 40
-9.074546101869238
 40
-9.074546101869238
 40
-9.074546101869238
 40
-9.074546101869238
 10
16.24999999999972
 20
-62.3459419530916
 30
0.0
 10
16.2645759638288
 20
-62.3386418121479
 30
0.0
 10
16.2790639963626
 20
-62.32770428052004
 30
0.0
 10
16.29341421492728
 20
-62.31335406195541
 30
0.0
  0
LINE
  5
15D16
330
1F
100
AcDbEntity
  8
AM_0
100
AcDbLine
 10
16.24999999999972
 20
-62.3459419530916
 30
0.0
 11
16.24999999999972
 21
-60.51999943028903
 31
0.0
  0
LINE
  5
15D17
330
1F
100
AcDbEntity
  8
AM_0
100
AcDbLine
 10
16.99999999999972
 20
-61.60676827688292
 30
0.0
 11
16.99999999999972
 21
-61.35676827688292
 31
0.0
  0
LINE
  5
15D18
330
1F
100
AcDbEntity
  8
AM_0
100
AcDbLine
 10
16.99999999999972
 20
-61.35676827688292
 30
0.0
 11
16.99999999999972
 21
-59.43622354270201
 31
0.0
  0
ELLIPSE
  5
15D19
330
1F
100
AcDbEntity
  8
AM_0
100
AcDbEllipse
 10
5.525313060864448
 20
-55.85676827688292
 30
0.0
 11
-14.49710067025255
 21
-5.455007895278335
 31
0.0
210
0.0
220
0.0
230
1.0
 40
0.1254094100849947
 41
3.759262717390849
 42
3.894515206108534
  0
LINE
  5
15D1A
330
1F
100
AcDbEntity
  8
AM_0
100
AcDbLine
 10
16.94759152140915
 20
-50.35676827688292
 30
0.0
 11
19.38384813760712
 21
-50.35676827688292
 31
0.0
  0
SPLINE
  5
15D1E
330
1F
100
AcDbEntity
  8
AM_0
100
AcDbSpline
210
0.0
220
0.0
230
1.0
 70
    28
 71
     2
 72
     6
 73
     3
 74
     0
 42
0.0000000001
 43
0.0000000001
 40
0.0
 40
0.0
 40
0.0
 40
0.7632067745941296
 40
0.7632067745941296
 40
0.7632067745941296
 10
24.99999999999972
 20
-61.35676827688292
 30
0.0
 41
1.0
 10
25.10288740302402
 20
-61.35676827688295
 30
0.0
 41
1.001887252317323
 10
25.24999999999972
 20
-61.35676827688292
 30
0.0
 41
1.0
  0
LINE
  5
15D22
330
1F
100
AcDbEntity
  8
AM_0
100
AcDbLine
 10
22.46453329077195
 20
-50.35676827688292
 30
0.0
 11
149.5
 21
-50.35676827688293
 31
0.0
  0
LINE
  5
15D29
330
1F
100
AcDbEntity
  8
AM_0
100
AcDbLine
 10
25.24999999999983
 20
12.8683557257275
 30
0.0
 11
41.96453329088723
 21
12.8683557257275
 31
0.0
  0
LINE
  5
15D2A
330
1F
100
AcDbEntity
  8
AM_0
100
AcDbLine
 10
41.96453329088723
 20
12.08693892622637
 30
0.0
 11
25.24999999999983
 21
12.08693892622637
 31
0.0
  0
LINE
  5
15D2D
330
1F
100
AcDbEntity
  8
AM_0
100
AcDbLine
 10
24.99999999999972
 20
8.6770509831249
 30
0.0
 11
16.94759152140915
 21
8.6770509831249
 31
0.0
  0
LINE
  5
15D2E
330
1F
100
AcDbEntity
  8
AM_0
100
AcDbLine
 10
17.96453329088723
 20
12.60182120710783
 30
0.0
 11
24.99999999999972
 21
12.60182120710783
 31
0.0
  0
LINE
  5
15D2F
330
1F
100
AcDbEntity
  8
AM_0
100
AcDbLine
 10
24.99999999999972
 20
11.8204044076067
 30
0.0
 11
17.96453329088723
 21
11.8204044076067
 31
0.0
  0
SPLINE
  5
15D33
330
1F
100
AcDbEntity
  8
AM_0
100
AcDbSpline
210
0.0
220
0.0
230
1.0
 70
     8
 71
     3
 72
    14
 73
    10
 74
     0
 42
0.0000000001
 43
0.0000000001
 40
20.23759124194095
 40
20.23759124194095
 40
20.23759124194095
 40
20.23759124194095
 40
20.2579725557655
 40
20.2579725557655
 40
21.86889787528931
 40
21.86889787528931
 40
23.47982319481312
 40
23.47982319481312
 40
24.58198893422719
 40
24.58198893422719
 40
24.58198893422719
 40
24.58198893422719
 10
11.00113691401526
 20
0.5008525592970727
 30
0.0
 10
10.99416662823995
 20
0.5008855686828611
 30
0.0
 10
10.98719390004936
 20
0.5009194248136737
 30
0.0
 10
10.42890861437383
 20
0.5036958496326633
 30
0.0
 10
9.862311080523057
 20
0.5111728898780257
 30
0.0
 10
8.735962655862579
 20
0.522072375794437
 30
0.0
 10
8.176196343563163
 20
0.5255241505498134
 30
0.0
 10
7.271832657250627
 20
0.5255241505498134
 30
0.0
 10
6.905551939936515
 20
0.5240362621033228
 30
0.0
 10
6.541656553594578
 20
0.5214500101691328
 30
0.0
  0
ELLIPSE
  5
15D35
330
1F
100
AcDbEntity
  8
AM_0
100
AcDbEllipse
 10
4.044452518234664
 20
5.733320787874504
 30
0.0
 11
11.5191941957143
 21
-0.5718458482327559
 31
0.0
210
0.0
220
0.0
230
0.9999999999999999
 40
0.1017491545840128
 41
1.15146695159565
 42
1.33557443588305
  0
ELLIPSE
  5
15D36
330
1F
100
AcDbEntity
  8
AM_0
100
AcDbEllipse
 10
5.610991229996159
 20
2.686796232754773
 30
0.0
 11
11.51919419571448
 21
-0.5718458482331137
 31
0.0
210
0.0
220
0.0
230
1.0
 40
0.1017491545840086
 41
1.31573468738785
 42
1.370530079791407
  0
LINE
  5
15D37
330
1F
100
AcDbEntity
  8
AM_0
100
AcDbLine
 10
7.959529496201583
 20
3.721681689323191
 30
0.0
 11
7.773600417539626
 21
3.775606772314518
 31
0.0
  0
LINE
  5
15D38
330
1F
100
AcDbEntity
  8
AM_0
100
AcDbLine
 10
6.785684346082519
 20
6.739839715421567
 30
0.0
 11
6.551037111447783
 21
6.80789454413582
 31
0.0
  0
ELLIPSE
  5
15D39
330
1F
100
AcDbEntity
  8
AM_0
100
AcDbEllipse
 10
7.179766709522312
 20
-0.364078274183953
 30
0.0
 11
8.914167239366908
 21
4.532051298811229
 31
0.0
210
0.0
220
0.0
230
1.0
 40
0.3400794815178527
 41
1.313286433927247
 42
1.594330396741995
  0
ELLIPSE
  5
15D3A
330
1F
100
AcDbEntity
  8
AM_0
100
AcDbEllipse
 10
8.930324190760132
 20
4.821016470654399
 30
0.0
 11
0.3249778227751179
 21
0.2332153826494817
 31
0.0
210
0.0
220
0.0
230
1.0
 40
0.9887657446192052
 41
4.566668699766114
 42
6.661063802159474
  0
SPLINE
  5
15D3B
330
1F
100
AcDbEntity
  8
AM_0
100
AcDbSpline
210
0.0
220
0.0
230
1.0
 70
     8
 71
     3
 72
     8
 73
     4
 74
     0
 42
0.0000000001
 43
0.0000000001
 40
1.327011630901579
 40
1.327011630901579
 40
1.327011630901579
 40
1.327011630901579
 40
1.588882119816186
 40
1.588882119816186
 40
1.588882119816186
 40
1.588882119816186
 10
9.043702602454744
 20
6.526273407043107
 30
0.0
 10
8.960304785862661
 20
6.547626703134938
 30
0.0
 10
8.874324841469445
 20
6.562761603366255
 30
0.0
 10
8.787613467448807
 20
6.571017724113801
 30
0.0
  0
SPLINE
  5
15D3C
330
1F
100
AcDbEntity
  8
AM_0
100
AcDbSpline
210
0.0
220
0.0
230
1.0
 70
     8
 71
     3
 72
    16
 73
    12
 74
     0
 42
0.0000000001
 43
0.0000000001
 40
-3.21706260663352
 40
-3.21706260663352
 40
-3.21706260663352
 40
-3.21706260663352
 40
-3.013527064357746
 40
-3.013527064357746
 40
-2.715006205642659
 40
-2.715006205642659
 40
-2.416485346927574
 40
-2.416485346927574
 40
-1.795563529742493
 40
-1.795563529742493
 40
-1.328462959426317
 40
-1.328462959426317
 40
-1.328462959426317
 40
-1.328462959426317
 10
8.573644568713746
 20
3.676665854958458
 30
0.0
 10
8.643646550742062
 20
3.671326561634942
 30
0.0
 10
8.714100199475354
 20
3.670493446830392
 30
0.0
 10
8.88618363004872
 20
3.67938506482983
 30
0.0
 10
8.987176431540604
 20
3.694287199938742
 30
0.0
 10
9.17984875268877
 20
3.740612880494439
 30
0.0
 10
9.271528080319001
 20
3.77203368084372
 30
0.0
 10
9.531116872633504
 20
3.885927085505671
 30
0.0
 10
9.6998669633536
 20
3.999417239798163
 30
0.0
 10
9.940469671859489
 20
4.24473671582723
 30
0.0
 10
10.0264500817089
 20
4.364867677311167
 30
0.0
 10
10.09027950630679
 20
4.490944045267497
 30
0.0
  0
ELLIPSE
  5
15D3D
330
1F
100
AcDbEntity
  8
AM_0
100
AcDbEllipse
 10
8.671647227345432
 20
5.136357614027588
 30
0.0
 11
-1.537630763556232
 21
0.2987914728171977
 31
0.0
210
0.0
220
0.0
230
0.9999999999999999
 40
0.9182274662968236
 41
2.886484160524517
 42
4.648443477988206
  0
ELLIPSE
  5
15D3E
330
1F
100
AcDbEntity
  8
AM_0
100
AcDbEllipse
 10
8.32578773447591
 20
5.618301230704731
 30
0.0
 11
1.218666835406693
 21
0.8745576849355565
 31
0.0
210
0.0
220
0.0
230
1.0
 40
0.9887657446192052
 41
4.194005145982363
 42
6.040442489495566
  0
ELLIPSE
  5
15D3F
330
1F
100
AcDbEntity
  8
AM_0
100
AcDbEllipse
 10
14.64564246406991
 20
12.50000000000006
 30
0.0
 11
11.33812066901618
 21
-1.868985322848924
 31
0.0
210
0.0
220
0.0
230
1.0
 40
0.3610403027276593
 41
4.044479537395272
 42
4.578603056606136
  0
ELLIPSE
  5
15D40
330
1F
100
AcDbEntity
  8
AM_0
100
AcDbEllipse
 10
5.525313060864448
 20
7.0
 30
0.0
 11
-14.48759863263179
 21
2.388147912529181
 31
0.0
210
0.0
220
0.0
230
1.0
 40
0.3610403027276593
 41
3.86586119549076
 42
4.001113684208445
  0
SPLINE
  5
15D41
330
1F
100
AcDbEntity
  8
AM_0
100
AcDbSpline
210
0.0
220
0.0
230
1.0
 70
     8
 71
     3
 72
    28
 73
    24
 74
     0
 42
0.0000000001
 43
0.0000000001
 40
-6.860635597454901
 40
-6.860635597454901
 40
-6.860635597454901
 40
-6.860635597454901
 40
-6.43164858047667
 40
-6.43164858047667
 40
-6.002661563498439
 40
-6.002661563498439
 40
-5.573674546520207
 40
-5.573674546520207
 40
-5.144687529541976
 40
-5.144687529541976
 40
-4.716095096838339
 40
-4.716095096838339
 40
-4.287502664134705
 40
-4.287502664134705
 40
-3.85891023143107
 40
-3.85891023143107
 40
-3.430317798727435
 40
-3.430317798727435
 40
-3.0017253660238
 40
-3.0017253660238
 40
-2.573132933320165
 40
-2.573132933320165
 40
-2.433448975036669
 40
-2.433448975036669
 40
-2.433448975036669
 40
-2.433448975036669
 10
17.96453329088723
 20
11.8204044076067
 30
0.0
 10
17.82153761856108
 20
11.8204044076067
 30
0.0
 10
17.67422341120192
 20
11.82867903863155
 30
0.0
 10
17.38224732846919
 20
11.86232897180685
 30
0.0
 10
17.23757943877791
 20
11.88767300878885
 30
0.0
 10
16.96094847251089
 20
11.95164867236485
 30
0.0
 10
16.82873602690717
 20
11.99028076449383
 30
0.0
 10
16.58457450991654
 20
12.07447842213367
 30
0.0
 10
16.47262348292367
 20
12.1199910664842
 30
0.0
 10
16.27455371817445
 20
12.21055040496759
 30
0.0
 10
16.18141043648035
 20
12.25884919098638
 30
0.0
 10
16.01674083124664
 20
12.35516929870556
 30
0.0
 10
15.94520187198287
 20
12.40314427031387
 30
0.0
 10
15.82990432022012
 20
12.49269085933889
 30
0.0
 10
15.7860540986905
 20
12.53430917984122
 30
0.0
 10
15.72836002509399
 20
12.60688841802414
 30
0.0
 10
15.71453329088723
 20
12.63783648151997
 30
0.0
 10
15.71453329088723
 20
12.68745267812051
 30
0.0
 10
15.72836002509399
 20
12.70765045568601
 30
0.0
 10
15.7860540986905
 20
12.73648108890967
 30
0.0
 10
15.82990432022012
 20
12.74512833871017
 30
0.0
 10
15.90634159676284
 20
12.74948600063942
 30
0.0
 10
15.92658996077131
 20
12.75
 30
0.0
 10
15.9482139616718
 20
12.75
 30
0.0
  0
SPLINE
  5
15D42
330
1F
100
AcDbEntity
  8
AM_0
100
AcDbSpline
210
0.0
220
0.0
230
1.0
 70
     8
 71
     3
 72
    14
 73
    10
 74
     0
 42
0.0000000001
 43
0.0000000001
 40
11.25562428249757
 40
11.25562428249757
 40
11.25562428249757
 40
11.25562428249757
 40
11.54516868203251
 40
11.54516868203251
 40
11.97398040636215
 40
11.97398040636215
 40
12.40191958407273
 40
12.40191958407273
 40
12.71307023483169
 40
12.71307023483169
 40
12.71307023483169
 40
12.71307023483169
 10
15.9482139616718
 20
12.75
 30
0.0
 10
15.99305851717287
 20
12.75
 30
0.0
 10
16.04385547577857
 20
12.74803437821686
 30
0.0
 10
16.1820608056268
 20
12.73948177307057
 30
0.0
 10
16.27542918420687
 20
12.73112952284293
 30
0.0
 10
16.4738114491351
 20
12.71191772781225
 30
0.0
 10
16.58578223331909
 20
12.70034357431706
 30
0.0
 10
16.79664289737633
 20
12.67986744850282
 30
0.0
 10
16.89074166760821
 20
12.67111997602211
 30
0.0
 10
16.9886595642509
 20
12.66297092226984
 30
0.0
  0
ELLIPSE
  5
15D43
330
1F
100
AcDbEntity
  8
AM_0
100
AcDbEllipse
 10
12.76044620600698
 20
12.76929625251978
 30
0.0
 11
-2.980120882708895
 21
3.274669624637873
 31
0.0
210
0.0
220
0.0
230
1.0
 40
0.8671604247285816
 41
2.260116518632678
 42
3.105439277879267
  0
SPLINE
  5
15D44
330
1F
100
AcDbEntity
  8
AM_0
100
AcDbSpline
210
0.0
220
0.0
230
1.0
 70
     8
 71
     3
 72
    32
 73
    28
 74
     0
 42
0.0000000001
 43
0.0000000001
 40
0.9478659275413041
 40
0.9478659275413041
 40
0.9478659275413041
 40
0.9478659275413041
 40
1.905011301595584
 40
1.905011301595584
 40
2.862156675649864
 40
2.862156675649864
 40
3.819302049704143
 40
3.819302049704143
 40
4.776447423758423
 40
4.776447423758423
 40
5.163971836667514
 40
5.163971836667514
 40
5.551496249576604
 40
5.551496249576604
 40
5.939020662485694
 40
5.939020662485694
 40
6.326545075394785
 40
6.326545075394785
 40
6.714069488303876
 40
6.714069488303876
 40
7.101593901212967
 40
7.101593901212967
 40
7.489118314122058
 40
7.489118314122058
 40
7.876642727031148
 40
7.876642727031148
 40
8.180631293058717
 40
8.180631293058717
 40
8.180631293058717
 40
8.180631293058717
 10
12.46453329077195
 20
12.55082326225931
 30
0.0
 10
12.78358174879014
 20
12.55082326225931
 30
0.0
 10
13.11147622762638
 20
12.54188888805487
 30
0.0
 10
13.75480185095279
 20
12.50071353260603
 30
0.0
 10
14.07024599745688
 20
12.46841899627668
 30
0.0
 10
14.66111129219809
 20
12.37002410146425
 30
0.0
 10
14.93699724958759
 20
12.30372138226971
 30
0.0
 10
15.42634453458862
 20
12.12413818759728
 30
0.0
 10
15.63992954743623
 20
12.01080230223369
 30
0.0
 10
15.88232097306451
 20
11.81013845792768
 30
0.0
 10
15.94839175845067
 20
11.74487887560059
 30
0.0
 10
16.06519908893262
 20
11.60055582205854
 30
0.0
 10
16.11592863224638
 20
11.52146884719718
 30
0.0
 10
16.19736335952899
 20
11.35247013591402
 30
0.0
 10
16.22811050499837
 20
11.26244479957256
 30
0.0
 10
16.26831131514456
 20
11.07653064545718
 30
0.0
 10
16.27776268691031
 20
10.98063835577636
 30
0.0
 10
16.27776268691031
 20
10.79019487217317
 30
0.0
 10
16.26831131514456
 20
10.68829241545149
 30
0.0
 10
16.22811050499837
 20
10.47712277491013
 30
0.0
 10
16.19736335952899
 20
10.36785810536139
 30
0.0
 10
16.11592863224638
 20
10.1489373794513
 30
0.0
 10
16.06519908893262
 20
10.03916278354461
 30
0.0
 10
15.94839175845067
 20
9.8261395935358
 30
0.0
 10
15.88232097306451
 20
9.722901703107539
 30
0.0
 10
15.75766820074085
 20
9.550415486075508
 30
0.0
 10
15.69873429834587
 20
9.47600982744757
 30
0.0
 10
15.63597861988211
 20
9.403357747928908
 30
0.0
  0
SPLINE
  5
15D45
330
1F
100
AcDbEntity
  8
AM_0
100
AcDbSpline
210
0.0
220
0.0
230
1.0
 70
     8
 71
     3
 72
     8
 73
     4
 74
     0
 42
0.0000000001
 43
0.0000000001
 40
1.789821052910247
 40
1.789821052910247
 40
1.789821052910247
 40
1.789821052910247
 40
1.807749055406827
 40
1.807749055406827
 40
1.807749055406827
 40
1.807749055406827
 10
16.9886595642509
 20
12.66297092226984
 30
0.0
 10
16.99243887727954
 20
12.6586371085566
 30
0.0
 10
16.99621943365327
 20
12.65430132738635
 30
0.0
 10
16.99999999999972
 20
12.64996502439635
 30
0.0
  0
SPLINE
  5
15D46
330
1F
100
AcDbEntity
  8
AM_0
100
AcDbSpline
210
0.0
220
0.0
230
1.0
 70
     8
 71
     3
 72
    12
 73
     8
 74
     0
 42
0.0000000001
 43
0.0000000001
 40
-0.9617545177664965
 40
-0.9617545177664965
 40
-0.9617545177664965
 40
-0.9617545177664965
 40
-0.857974033956447
 40
-0.857974033956447
 40
-0.4289870169782244
 40
-0.4289870169782244
 40
0.0
 40
0.0
 40
0.0
 40
0.0
 10
16.99999999999972
 20
12.64996502439635
 30
0.0
 10
17.03269382400521
 20
12.64688506774564
 30
0.0
 10
17.06580269180682
 20
12.64388251850625
 30
0.0
 10
17.23757943877791
 20
12.62900954223676
 30
0.0
 10
17.38224732846908
 20
12.61889224123621
 30
0.0
 10
17.67422341120192
 20
12.60528567049016
 30
0.0
 10
17.82153761856108
 20
12.60182120710783
 30
0.0
 10
17.96453329088723
 20
12.60182120710783
 30
0.0
  0
SPLINE
  5
15D57
330
1F
100
AcDbEntity
  8
AM_0
100
AcDbSpline
210
0.0
220
0.0
230
1.0
 70
    12
 71
     2
 72
     6
 73
     3
 74
     0
 42
0.0000000001
 43
0.0000000001
 40
0.0
 40
0.0
 40
0.0
 40
0.7632067745941296
 40
0.7632067745941296
 40
0.7632067745941296
 10
25.24999999999972
 20
9.39791576165635
 30
0.0
 41
1.0
 10
25.10288740302382
 20
9.029814598150889
 30
0.0
 41
1.001887252317323
 10
24.99999999999972
 20
8.6770509831249
 30
0.0
 41
1.0
  0
LINE
  5
15D58
330
1F
100
AcDbEntity
  8
AM_0
100
AcDbLine
 10
24.99999999999972
 20
8.6770509831249
 30
0.0
 11
24.99999999999972
 21
11.8204044076067
 31
0.0
  0
LINE
  5
15D59
330
1F
100
AcDbEntity
  8
AM_0
100
AcDbLine
 10
25.24999999999972
 20
9.39791576165635
 30
0.0
 11
25.24999999999972
 21
12.08693892622637
 31
0.0
  0
SPLINE
  5
15D5A
330
1F
100
AcDbEntity
  8
AM_0
100
AcDbSpline
210
0.0
220
0.0
230
1.0
 70
    12
 71
     2
 72
     6
 73
     3
 74
     0
 42
0.0000000001
 43
0.0000000001
 40
0.0
 40
0.0
 40
0.0
 40
0.3684419925851877
 40
0.3684419925851877
 40
0.3684419925851877
 10
24.99999999999972
 20
12.60182120710783
 30
0.0
 41
1.0
 10
25.12188300472696
 20
12.73225299281732
 30
0.0
 41
1.000265381806608
 10
25.24999999999972
 20
12.8683557257275
 30
0.0
 41
1.0
  0
SPLINE
  5
15D5B
330
1F
100
AcDbEntity
  8
AM_0
100
AcDbSpline
210
0.0
220
0.0
230
1.0
 70
    12
 71
     2
 72
     6
 73
     3
 74
     0
 42
0.0000000001
 43
0.0000000001
 40
0.0
 40
0.0
 40
0.0
 40
0.3684419925851877
 40
0.3684419925851877
 40
0.3684419925851877
 10
25.24999999999972
 20
12.08693892622637
 30
0.0
 41
1.0
 10
25.12188300472548
 20
11.95083619331453
 30
0.0
 41
1.000265381787965
 10
24.99999999999972
 20
11.8204044076067
 30
0.0
 41
1.0
  0
SPLINE
  5
15D5C
330
1F
100
AcDbEntity
  8
AM_0
100
AcDbSpline
210
0.0
220
0.0
230
1.0
 70
     8
 71
     3
 72
    22
 73
    18
 74
     0
 42
0.0000000001
 43
0.0000000001
 40
3.426790370566058
 40
3.426790370566058
 40
3.426790370566058
 40
3.426790370566058
 40
3.854975096072203
 40
3.854975096072203
 40
4.283159821578348
 40
4.283159821578348
 40
4.711344547084494
 40
4.711344547084494
 40
5.139529272590639
 40
5.139529272590639
 40
5.568042139726009
 40
5.568042139726009
 40
5.996555006861378
 40
5.996555006861378
 40
6.425067873996747
 40
6.425067873996747
 40
6.853580741132117
 40
6.853580741132117
 40
6.853580741132117
 40
6.853580741132117
 10
44.21453329088723
 20
12.90884651807329
 30
0.0
 10
44.21453329088723
 20
12.88406201897692
 30
0.0
 10
44.20073288859584
 20
12.8533645540108
 30
0.0
 10
44.14310326861988
 20
12.78174547307077
 30
0.0
 10
44.0992907924703
 20
12.74083619471162
 30
0.0
 10
43.98403597773091
 20
12.65306230860108
 30
0.0
 10
43.91250207156423
 20
12.60615219116272
 30
0.0
 10
43.74778630166742
 20
12.5121430192379
 30
0.0
 10
43.65459189635129
 20
12.46508908037583
 30
0.0
 10
43.45637927921013
 20
12.37698759304112
 30
0.0
 10
43.3443537881372
 20
12.33278597357366
 30
0.0
 10
43.1000562253484
 20
12.25112898172262
 30
0.0
 10
42.9677828380074
 20
12.21372435896433
 30
0.0
 10
42.69109690383715
 20
12.15185077928066
 30
0.0
 10
42.54643739868124
 20
12.12737981910539
 30
0.0
 10
42.25457718804552
 20
12.0949096072539
 30
0.0
 10
42.10737091326558
 20
12.08693892622637
 30
0.0
 10
41.96453329088723
 20
12.08693892622637
 30
0.0
  0
SPLINE
  5
15D5D
330
1F
100
AcDbEntity
  8
AM_0
100
AcDbSpline
210
0.0
220
0.0
230
1.0
 70
     8
 71
     3
 72
    22
 73
    18
 74
     0
 42
0.0000000001
 43
0.0000000001
 40
0.0
 40
0.0
 40
0.0
 40
0.0
 40
0.4285128671353693
 40
0.4285128671353693
 40
0.8570257342707386
 40
0.8570257342707386
 40
1.285538601406108
 40
1.285538601406108
 40
1.714051468541477
 40
1.714051468541477
 40
2.142236194047622
 40
2.142236194047622
 40
2.570420919553768
 40
2.570420919553768
 40
2.998605645059913
 40
2.998605645059913
 40
3.426790370566058
 40
3.426790370566058
 40
3.426790370566058
 40
3.426790370566058
 10
41.96453329088723
 20
12.8683557257275
 30
0.0
 10
42.10737091326558
 20
12.8683557257275
 30
0.0
 10
42.25457718804552
 20
12.8715267618818
 30
0.0
 10
42.54643739868124
 20
12.88397702086775
 30
0.0
 10
42.69109690383704
 20
12.89323391681342
 30
0.0
 10
42.9677828380074
 20
12.91509515638381
 30
0.0
 10
43.1000562253484
 20
12.92766978114059
 30
0.0
 10
43.3443537881372
 20
12.95213290124212
 30
0.0
 10
43.45637927921013
 20
12.96396515429785
 30
0.0
 10
43.65459189635129
 20
12.98322812211825
 30
0.0
 10
43.74778630166742
 20
12.99138861079899
 30
0.0
 10
43.91250207156423
 20
13.0005474037178
 30
0.0
 10
43.98403597773091
 20
13.00150010003017
 30
0.0
 10
44.0992907924703
 20
12.99314303023823
 30
0.0
 10
44.14310326861988
 20
12.98379356877274
 30
0.0
 10
44.20073288859584
 20
12.95404447294186
 30
0.0
 10
44.21453329088723
 20
12.9336310171696
 30
0.0
 10
44.21453329088723
 20
12.90884651807329
 30
0.0
  0
LINE
  5
15D5E
330
1F
100
AcDbEntity
  8
AM_0
100
AcDbLine
 10
150.0
 20
-60.85676827688293
 30
0.0
 11
150.0
 21
-50.85676827688293
 31
0.0
  0
LINE
  5
15D5F
330
1F
100
AcDbEntity
  8
AM_0
100
AcDbLine
 10
149.0
 20
-61.35676827688299
 30
0.0
 11
149.0
 21
-50.35676827688293
 31
0.0
  0
LINE
  5
15D60
330
1F
100
AcDbEntity
  8
AM_0
100
AcDbLine
 10
150.0
 20
-60.85676827688293
 30
0.0
 11
149.4999999999999
 21
-61.35676827688293
 31
0.0
  0
SPLINE
  5
15D61
330
1F
100
AcDbEntity
  8
AM_0
100
AcDbSpline
210
0.0
220
0.0
230
1.0
 70
    28
 71
     2
 72
     6
 73
     3
 74
     0
 42
0.0000000001
 43
0.0000000001
 40
0.0
 40
0.0
 40
0.0
 40
2.449489742783073
 40
2.449489742783073
 40
2.449489742783073
 10
149.0
 20
-61.35676827688293
 30
0.0
 41
1.0
 10
149.4999999999998
 20
-61.35676827688297
 30
0.0
 41
1.045454545454537
 10
149.5
 20
-61.35676827688295
 30
0.0
 41
1.045454545454537
  0
LINE
  5
15D62
330
1F
100
AcDbEntity
  8
AM_0
100
AcDbLine
 10
150.0
 20
-50.85676827688293
 30
0.0
 11
149.5
 21
-50.35676827688293
 31
0.0
  0
SPLINE
  5
15D63
330
1F
100
AcDbEntity
  8
AM_0
100
AcDbSpline
210
0.0
220
0.0
230
1.0
 70
    28
 71
     2
 72
     6
 73
     3
 74
     0
 42
0.0000000001
 43
0.0000000001
 40
0.0
 40
0.0
 40
0.0
 40
2.449489742783103
 40
2.449489742783103
 40
2.449489742783103
 10
149.0
 20
-50.35676827688293
 30
0.0
 41
1.0
 10
149.4999999999997
 20
-50.35676827688288
 30
0.0
 41
1.045454545454537
 10
149.4999999999997
 20
-50.35676827688288
 30
0.0
 41
1.045454545454537
  0
LINE
  5
15D64
330
1F
100
AcDbEntity
  8
AM_0
100
AcDbLine
 10
150.0
 20
2.000000000000043
 30
0.0
 11
150.0
 21
11.99999999999999
 31
0.0
  0
SPLINE
  5
15D65
330
1F
100
AcDbEntity
  8
AM_0
100
AcDbSpline
210
0.0
220
0.0
230
1.0
 70
    12
 71
     2
 72
     6
 73
     3
 74
     0
 42
0.0000000001
 43
0.0000000001
 40
0.0
 40
0.0
 40
0.0
 40
4.898979485566207
 40
4.898979485566207
 40
4.898979485566207
 10
149.0
 20
4.60208423834375
 30
0.0
 41
1.0
 10
149.9583333333331
 20
6.999999999999988
 30
0.0
 41
1.090909090909074
 10
149.0
 20
9.397915761656336
 30
0.0
 41
1.0
  0
LINE
  5
15D66
330
1F
100
AcDbEntity
  8
AM_0
100
AcDbLine
 10
149.0
 20
1.000000000000043
 30
0.0
 11
149.0
 21
4.60208423834375
 31
0.0
  0
LINE
  5
15D67
330
1F
100
AcDbEntity
  8
AM_0
100
AcDbLine
 10
150.0
 20
2.000000000000043
 30
0.0
 11
149.0
 21
1.000000000000043
 31
0.0
  0
LINE
  5
15D68
330
1F
100
AcDbEntity
  8
AM_0
100
AcDbLine
 10
150.0
 20
11.99999999999999
 30
0.0
 11
149.0
 21
12.99999999999999
 31
0.0
  0
LINE
  5
15D69
330
1F
100
AcDbEntity
  8
AM_0
100
AcDbLine
 10
149.0
 20
9.397915761656336
 30
0.0
 11
149.0
 21
12.99999999999999
 31
0.0
  0
LINE
  5
166A2
330
1F
100
AcDbEntity
  8
AM_7
100
AcDbLine
 10
155.458812488748
 20
-55.85676827688293
 30
0.0
 11
-1.300096829471499
 21
-55.85676827688292
 31
0.0
1001
GENIUS_GENODEF_13
1002
{
1000
HIER
1070
     0
1002
}
1002
{
1000
MANEDIT
1070
     0
1002
}
1002
{
1000
NOSEL
1070
     0
1002
}
1002
{
1000
BEHIND
1070
     0
1002
}
1002
{
1000
REACTOR
1002
}
1001
GENIUS_GENOBJ-N-CEN_13
1002
{
1000
OWNER
1000
GEN
1002
}
  0
ARC
  5
1679D
330
1F
100
AcDbEntity
  8
AM_0
100
AcDbCircle
 10
101.2499999999998
 20
6.999999999999993
 30
0.0
 40
6.0
100
AcDbArc
 50
203.5564643091012
 51
336.4435356908988
  0
ARC
  5
167AF
330
1F
100
AcDbEntity
  8
AM_0
100
AcDbCircle
 10
101.2499999999998
 20
6.999999999999993
 30
0.0
 40
6.0
100
AcDbArc
 50
23.55646430910121
 51
156.4435356908989
  0
LINE
  5
167C9
330
1F
100
AcDbEntity
  8
AM_0
100
AcDbLine
 10
111.7499999999998
 20
12.99999999999999
 30
0.0
 11
149.0
 21
12.99999999999999
 31
0.0
  0
LINE
  5
167CA
330
1F
100
AcDbEntity
  8
AM_0
100
AcDbLine
 10
90.74999999999983
 20
9.397915761656343
 30
0.0
 11
25.24999999999983
 21
9.39791576165635
 31
0.0
  0
LINE
  5
167CB
330
1F
100
AcDbEntity
  8
AM_0
100
AcDbLine
 10
111.7499999999998
 20
4.602084238343693
 30
0.0
 11
149.0000000000001
 21
4.602084238343721
 31
0.0
  0
LINE
  5
167CC
330
1F
100
AcDbEntity
  8
AM_0
100
AcDbLine
 10
111.7499999999998
 20
1.000000000000043
 30
0.0
 11
149.0000000000001
 21
1.000000000000043
 31
0.0
  0
LINE
  5
167CD
330
1F
100
AcDbEntity
  8
AM_0
100
AcDbLine
 10
106.7499999999998
 20
9.397915761656336
 30
0.0
 11
106.7499999999998
 21
4.602084238343636
 31
0.0
  0
LINE
  5
167CE
330
1F
100
AcDbEntity
  8
AM_0
100
AcDbLine
 10
95.74999999999983
 20
9.397915761656343
 30
0.0
 11
95.74999999999983
 21
4.602084238343643
 31
0.0
  0
LINE
  5
16820
330
1F
100
AcDbEntity
  8
AM_7
  6
AM_ISO08W050x2
100
AcDbLine
 10
-58.09827857766516
 20
7.000000000000007
 30
0.0
 11
-77.0862068391308
 21
7.000000000000014
 31
0.0
1001
GENIUS_GENODEF_13
1002
{
1000
HIER
1070
     0
1002
}
1002
{
1000
MANEDIT
1070
     0
1002
}
1002
{
1000
NOSEL
1070
     0
1002
}
1002
{
1000
BEHIND
1070
     0
1002
}
1002
{
1000
REACTOR
1002
}
1001
GENIUS_GENOBJ-N-CEN_13
1002
{
1000
OWNER
1000
GEN
1002
}
  0
LINE
  5
1682C
330
1F
100
AcDbEntity
  8
AM_7
  6
AM_ISO08W050x2
100
AcDbLine
 10
-67.18424648423468
 20
-3.588845057297462
 30
0.0
 11
-67.18424648423468
 21
17.50552737384306
 31
0.0
1001
GENIUS_GENODEF_13
1002
{
1000
HIER
1070
     0
1002
}
1002
{
1000
MANEDIT
1070
     0
1002
}
1002
{
1000
NOSEL
1070
     0
1002
}
1002
{
1000
BEHIND
1070
     0
1002
}
1002
{
1000
REACTOR
1002
}
1001
GENIUS_GENOBJ-N-CEN_13
1002
{
1000
OWNER
1000
GEN
1002
}
  0
CIRCLE
  5
1683F
330
1F
100
AcDbEntity
  8
AM_11
  6
ACJISTGB
100
AcDbCircle
 10
-67.18424648423468
 20
7.125000000000014
 30
0.0
 40
7.0
  0
LINE
  5
16867
330
1F
100
AcDbEntity
  8
AM_5
100
AcDbLine
 10
0.0
 20
-3.928640456847575
 30
0.0
 11
0.0
 21
0.5177900992820241
 31
0.0
  0
LINE
  5
16868
330
1F
100
AcDbEntity
  8
AM_5
100
AcDbLine
 10
-3.164435796722273
 20
0.0
 30
0.0
 11
0.3942132612426121
 21
0.0
 31
0.0
  0
LINE
  5
16A81
330
1F
100
AcDbEntity
  8
AM_11
  6
ACJISTGB
 48
0.5
100
AcDbLine
 10
12.81275668547971
 20
-54.85603680472542
 30
0.0
 11
20.0
 21
-50.35676827688292
 31
0.0
  0
LINE
  5
16DE6
330
1F
100
AcDbEntity
  8
AM_5
100
AcDbLine
 10
0.0
 20
-55.85676827688292
 30
0.0
 11
-7.426960639923891
 21
-55.20699341643638
 31
0.0
  0
DIMENSION
  5
16E08
330
1F
100
AcDbEntity
  8
AM_5
100
AcDbDimension
  2
*D3
 10
-2.550096829471386
 20
-55.85676827688292
 30
0.0
 11
-13.54479515514726
 21
-53.27598540678945
 31
0.0
 70
   162
  1
<>
 71
     5
 42
0.0872664625997104
  3
AM_JIS$2
100
AcDb2LineAngularDimension
 13
-1.249999999999886
 23
-55.85676827688292
 33
0.0
 14
-8.676960639923664
 24
-55.20699341643638
 34
0.0
 15
154.2088124887482
 25
-55.85676827688293
 35
0.0
 16
-13.80742500852705
 26
-55.49138452680678
 36
0.0
1001
GENIUS_GENDTOL_13
1000

1000
h7
1000

1040
0.0
  0
DIMENSION
  5
17032
330
1F
100
AcDbEntity
  8
AM_5
100
AcDbDimension
  2
*D4
 10
-61.23171749930427
 20
3.441605005764032
 30
0.0
 11
-96.12022977931531
 21
17.18173028635379
 31
0.0
 70
   163
  1
最小加工径\P<>
 71
     5
 42
13.99999999999991
  3
AM_JIS$3
100
AcDbDiametricDimension
 15
-73.13677546916495
 25
10.80839499423623
 35
0.0
 40
0.0
1001
GENIUS_GENDTOL_13
1000

1000
h7
1000

1040
0.0
1001
ACAD
1000
DSTYLE
1002
{
1070
   271
1070
     0
1070
   289
1070
     3
1002
}
  0
DIMENSION
  5
1748D
330
1F
100
AcDbEntity
  8
AM_5
100
AcDbDimension
  2
*D5
 10
16.99999999999972
 20
-76.36191154418113
 30
0.0
 11
8.499999999999858
 21
-72.96191154418112
 31
0.0
 70
    32
  1
<>
 71
     5
 42
16.99999999999972
  3
AM_JIS$0
100
AcDbAlignedDimension
 13
0.0
 23
-55.85676827688292
 33
0.0
 14
16.99999999999972
 24
-61.35676827688292
 34
0.0
100
AcDbRotatedDimension
1001
GENIUS_GENDTOL_13
1000

1000
h7
1000

1040
0.0
1001
ACAD
1000
DSTYLE
1002
{
1070
   271
1070
     0
1002
}
  0
ARC
  5
17C89
330
1F
100
AcDbEntity
  8
AM_0
100
AcDbCircle
 10
-67.18424648423468
 20
7.000000000000014
 30
0.0
 40
6.0
100
AcDbArc
 50
273.1442707257229
 51
336.4435356908993
  0
ARC
  5
17C8A
330
1F
100
AcDbEntity
  8
AM_0
100
AcDbCircle
 10
-61.68424648423468
 20
1.500000000000043
 30
0.0
 40
4.5
100
AcDbArc
 50
90.0
 51
178.9669147634319
  0
SPLINE
  5
17C8B
330
1F
100
AcDbEntity
  8
AM_0
100
AcDbSpline
210
0.0
220
0.0
230
1.0
 70
     8
 71
     3
 72
    32
 73
    28
 74
     0
 42
0.0000000001
 43
0.0000000001
 40
3.386867410655446
 40
3.386867410655446
 40
3.386867410655446
 40
3.386867410655446
 40
3.986060856630277
 40
3.986060856630277
 40
4.998960010543327
 40
4.998960010543327
 40
5.418593789869783
 40
5.418593789869783
 40
5.838227569196239
 40
5.838227569196239
 40
6.257861348522695
 40
6.257861348522695
 40
6.677495127849152
 40
6.677495127849152
 40
7.097128907175609
 40
7.097128907175609
 40
7.516762686502066
 40
7.516762686502066
 40
7.936396465828523
 40
7.936396465828523
 40
8.35603024515498
 40
8.35603024515498
 40
9.36892939906803
 40
9.36892939906803
 40
10.38182855298108
 40
10.38182855298108
 40
10.81132309243601
 40
10.81132309243601
 40
10.81132309243601
 40
10.81132309243601
 10
-61.68424648423468
 20
5.322949016875164
 30
0.0
 10
-61.71685965409517
 20
5.215991961879276
 30
0.0
 10
-61.75620492737698
 20
5.098118860563496
 30
0.0
 10
-61.88455133027935
 20
4.757682475716628
 30
0.0
 10
-61.98919446830951
 20
4.518998222706792
 30
0.0
 10
-62.18096122225416
 20
4.163873448996306
 30
0.0
 10
-62.24498438167404
 20
4.053090662183543
 30
0.0
 10
-62.38815270193936
 20
3.825402513904244
 30
0.0
 10
-62.46732467173115
 20
3.708511298537793
 30
0.0
 10
-62.63805356247394
 20
3.47645345431409
 30
0.0
 10
-62.72972750290842
 20
3.361162077981824
 30
0.0
 10
-62.92043570788269
 20
3.139456198410393
 30
0.0
 10
-63.01947386208644
 20
3.033044638502936
 30
0.0
 10
-63.21729112273749
 20
2.835227377851801
 30
0.0
 10
-63.32370268264504
 20
2.736189223648047
 30
0.0
 10
-63.54540856221649
 20
2.545481018673804
 30
0.0
 10
-63.66069993854865
 20
2.453807078239358
 30
0.0
 10
-63.89275778277238
 20
2.283078187496479
 30
0.0
 10
-64.00964899813891
 20
2.203906217704777
 30
0.0
 10
-64.23733714641821
 20
2.060737897439459
 30
0.0
 10
-64.34811993323092
 20
1.99671473801957
 30
0.0
 10
-64.70324470694141
 20
1.804947984074865
 30
0.0
 10
-64.94192895995127
 20
1.700304846044681
 30
0.0
 10
-65.36973034827918
 20
1.539021352879821
 30
0.0
 10
-65.55866032707479
 20
1.482272814604166
 30
0.0
 10
-65.77779776582065
 20
1.424252778222872
 30
0.0
 10
-65.83684777646806
 20
1.409839096764991
 30
0.0
 10
-65.88915444346617
 20
1.397747184753435
 30
0.0
  0
ELLIPSE
  5
17C8C
330
1F
100
AcDbEntity
  8
AM_0
100
AcDbEllipse
 10
-61.88090525931204
 20
12.76929625251976
 30
0.0
 11
1.596426228464782
 21
4.129891635763983
 31
0.0
210
0.0
220
0.0
230
1.0
 40
0.3683352287198906
 41
3.069644392020959
 42
3.914967151267548
  0
SPLINE
  5
17C8D
330
1F
100
AcDbEntity
  8
AM_0
100
AcDbSpline
210
0.0
220
0.0
230
1.0
 70
     8
 71
     3
 72
    32
 73
    28
 74
     0
 42
0.0000000001
 43
0.0000000001
 40
0.9478659275413041
 40
0.9478659275413041
 40
0.9478659275413041
 40
0.9478659275413041
 40
1.905011301595584
 40
1.905011301595584
 40
2.862156675649864
 40
2.862156675649864
 40
3.819302049704143
 40
3.819302049704143
 40
4.776447423758423
 40
4.776447423758423
 40
5.163971836667514
 40
5.163971836667514
 40
5.551496249576604
 40
5.551496249576604
 40
5.939020662485694
 40
5.939020662485694
 40
6.326545075394785
 40
6.326545075394785
 40
6.714069488303876
 40
6.714069488303876
 40
7.101593901212967
 40
7.101593901212967
 40
7.489118314122058
 40
7.489118314122058
 40
7.876642727031148
 40
7.876642727031148
 40
8.180631293058717
 40
8.180631293058717
 40
8.180631293058717
 40
8.180631293058717
 10
-65.68395947463898
 20
12.55082326225926
 30
0.0
 10
-65.68395947463898
 20
12.55082326225926
 30
0.0
 10
-65.64951394947161
 20
12.54188888805485
 30
0.0
 10
-65.5079150552599
 20
12.50071353260598
 30
0.0
 10
-65.40083634662369
 20
12.46841899627669
 30
0.0
 10
-65.1234205186305
 20
12.37002410146423
 30
0.0
 10
-64.95301501527194
 20
12.30372138226972
 30
0.0
 10
-64.56679310149445
 20
12.12413818759729
 30
0.0
 10
-64.3511591992027
 20
12.01080230223366
 30
0.0
 10
-64.03196566659892
 20
11.81013845792769
 30
0.0
 10
-63.93402221747033
 20
11.74487887560057
 30
0.0
 10
-63.73276572080033
 20
11.60055582205852
 30
0.0
 10
-63.62946546514331
 20
11.52146884719716
 30
0.0
 10
-63.4244388666333
 20
11.35247013591397
 30
0.0
 10
-63.32260343218411
 20
11.26244479957251
 30
0.0
 10
-63.12683097309775
 20
11.07653064545716
 30
0.0
 10
-63.03289677473185
 20
10.98063835577637
 30
0.0
 10
-62.85832358142898
 20
10.79019487217315
 30
0.0
 10
-62.77094592892581
 20
10.68829241545146
 30
0.0
 10
-62.60272490957698
 20
10.47712277491011
 30
0.0
 10
-62.52187783862667
 20
10.36785810536134
 30
0.0
 10
-62.37131161970956
 20
10.14893737945128
 30
0.0
 10
-62.30148876882925
 20
10.03916278354459
 30
0.0
 10
-62.17517787557756
 20
9.826139593535778
 30
0.0
 10
-62.11866530801376
 20
9.722901703107517
 30
0.0
 10
-62.03010778018779
 20
9.550415486075487
 30
0.0
 10
-61.99403733587712
 20
9.47600982744752
 30
0.0
 10
-61.96061063020818
 20
9.403357747928858
 30
0.0
  0
ARC
  5
17C8E
330
1F
100
AcDbEntity
  8
AM_0
100
AcDbCircle
 10
-67.18424648423468
 20
7.000000000000014
 30
0.0
 40
6.0
100
AcDbArc
 50
23.55646430910073
 51
57.97568716295801
  0
LINE
  5
17C8F
330
1F
100
AcDbEntity
  8
AM_0
100
AcDbLine
 10
-67.13325128234976
 20
0.4133572896866227
 30
0.0
 11
-66.00639387098579
 21
9.946880325117526
 31
0.0
  0
LINE
  5
17C90
330
1F
100
AcDbEntity
  8
AM_0
100
AcDbLine
 10
-69.25228335183783
 20
9.932912069327088
 30
0.0
 11
-70.29056393007204
 21
1.148773357531198
 31
0.0
  0
ARC
  5
17C91
330
1F
100
AcDbEntity
  8
AM_0
100
AcDbCircle
 10
-67.18424648423468
 20
6.250000000000014
 30
0.0
 40
6.5
100
AcDbArc
 50
128.7973972407193
 51
176.6926378203285
  0
LINE
  5
17C92
330
1F
100
AcDbEntity
  8
AM_0
100
AcDbLine
 10
-70.28874654695858
 20
1.164148917563537
 30
0.0
 11
-69.21281688476779
 21
10.26680921473796
 31
0.0
  0
ARC
  5
17C93
330
1F
100
AcDbEntity
  8
AM_0
100
AcDbCircle
 10
-67.18424648423468
 20
7.000000000000014
 30
0.0
 40
6.5
100
AcDbArc
 50
183.3073621796699
 51
241.6096146960092
  0
ELLIPSE
  5
17C94
330
1F
100
AcDbEntity
  8
AM_0
100
AcDbEllipse
 10
-67.91528959484595
 20
-7.499999999999986
 30
0.0
 11
4.504923693723856
 21
9.866845041617909
 31
0.0
210
0.0
220
0.0
230
1.0
 40
0.3610403027276593
 41
0.5954117905895502
 42
0.6987970717971412
  0
SPLINE
  5
17C95
330
1F
100
AcDbEntity
  8
AM_0
100
AcDbSpline
210
0.0
220
0.0
230
1.0
 70
     8
 71
     3
 72
    12
 73
     8
 74
     0
 42
0.0000000001
 43
0.0000000001
 40
-1.299345701639491
 40
-1.299345701639491
 40
-1.299345701639491
 40
-1.299345701639491
 40
-1.274032593939324
 40
-1.274032593939324
 40
-0.6370162969696622
 40
-0.6370162969696622
 40
-0.6283201287880809
 40
-0.6283201287880809
 40
-0.6283201287880809
 40
-0.6283201287880809
 10
-65.88915444346617
 20
1.397747184753435
 30
0.0
 10
-65.89709378259965
 20
1.395911820434868
 30
0.0
 10
-65.9050495391399
 20
1.394090457783314
 30
0.0
 10
-66.11363380834644
 20
1.346805592593462
 30
0.0
 10
-66.32499989580356
 20
1.310463917298627
 30
0.0
 10
-66.54249709239286
 20
1.285923836050451
 30
0.0
 10
-66.54542684490912
 20
1.285595608205632
 30
0.0
 10
-66.54835712296801
 20
1.285269497147944
 30
0.0
  0
LINE
  5
17C96
330
1F
100
AcDbEntity
  8
AM_0
100
AcDbLine
 10
-69.20505123364706
 20
0.6467866757756013
 30
0.0
 11
-67.21969009097836
 21
0.0000000000000071
 31
0.0
  0
LINE
  5
17C97
330
1F
100
AcDbEntity
  8
AM_0
100
AcDbLine
 10
-70.29056393007204
 20
1.148773357531198
 30
0.0
 11
-70.29135600129962
 21
1.290720671664033
 31
0.0
  0
ELLIPSE
  5
17C98
330
1F
100
AcDbEntity
  8
AM_0
100
AcDbEllipse
 10
-67.17034772071327
 20
0.3968871581637146
 30
0.0
 11
0.04876106623551477
 21
0.3970168238495392
 31
0.0
210
0.0
220
0.0
230
1.0
 40
0.0871487501159606
 41
3.124587135372703
 42
4.764586312089743
  0
LINE
  5
17C99
330
1F
100
AcDbEntity
  8
AM_0
100
AcDbLine
 10
-69.20505123332089
 20
0.6467866756248242
 30
0.0
 11
-70.29056393007204
 21
1.148773357531169
 31
0.0
  0
SPLINE
  5
17C9A
330
1F
100
AcDbEntity
  8
AM_0
100
AcDbSpline
210
0.0
220
0.0
230
1.0
 70
     8
 71
     3
 72
    10
 73
     6
 74
     0
 42
0.0000000001
 43
0.0000000001
 40
35.66404045851092
 40
35.66404045851092
 40
35.66404045851092
 40
35.66404045851092
 40
36.06219674417969
 40
36.06219674417969
 40
36.35151230931469
 40
36.35151230931469
 40
36.35151230931469
 40
36.35151230931469
 10
-66.75788130591661
 20
1.100516652167848
 30
0.0
 10
-66.82586765519523
 20
1.038854876550722
 30
0.0
 10
-66.89211391911829
 20
0.9741382119663129
 30
0.0
 10
-67.00298758666293
 20
0.8571474009490103
 30
0.0
 10
-67.04856972699042
 20
0.8062997403907346
 30
0.0
 10
-67.09300132750332
 20
0.753882956645306
 30
0.0
  0
SPLINE
  5
17C9B
330
1F
100
AcDbEntity
  8
AM_0
100
AcDbSpline
210
0.0
220
0.0
230
1.0
 70
     8
 71
     3
 72
    14
 73
    10
 74
     0
 42
0.0000000001
 43
0.0000000001
 40
4.398741584532346
 40
4.398741584532346
 40
4.398741584532346
 40
4.398741584532346
 40
4.781970903975992
 40
4.781970903975992
 40
5.338226633150732
 40
5.338226633150732
 40
5.894482362325473
 40
5.894482362325473
 40
6.064660701679938
 40
6.064660701679938
 40
6.064660701679938
 40
6.064660701679938
 10
-65.88915444346617
 20
1.397747184753435
 30
0.0
 10
-65.93438199556408
 20
1.456799532684876
 30
0.0
 10
-65.97432986801903
 20
1.515012625592796
 30
0.0
 10
-66.05771988764002
 20
1.653181775251717
 30
0.0
 10
-66.09455188157733
 20
1.731112774294196
 30
0.0
 10
-66.14248897961454
 20
1.874518406379117
 30
0.0
 10
-66.15359605201149
 20
1.939992409130163
 30
0.0
 10
-66.15359605201149
 20
2.015749105052585
 30
0.0
 10
-66.15257119850696
 20
2.033268010153741
 30
0.0
 10
-66.15045057990085
 20
2.05047341066939
 30
0.0
  0
SPLINE
  5
17C9C
330
1F
100
AcDbEntity
  8
AM_0
100
AcDbSpline
210
0.0
220
0.0
230
1.0
 70
     8
 71
     3
 72
    12
 73
     8
 74
     0
 42
0.0000000001
 43
0.0000000001
 40
-2.539102670732159
 40
-2.539102670732159
 40
-2.539102670732159
 40
-2.539102670732159
 40
-2.416485346927574
 40
-2.416485346927574
 40
-1.795563529742493
 40
-1.795563529742493
 40
-1.328462959426317
 40
-1.328462959426317
 40
-1.328462959426317
 40
-1.328462959426317
 10
-66.72214398836138
 20
3.891437850498427
 30
0.0
 10
-66.7071397882662
 20
3.904572020754564
 30
0.0
 10
-66.69180825923638
 20
3.918823242072826
 30
0.0
 10
-66.59759567477897
 20
4.010927085505877
 30
0.0
 10
-66.50131387405054
 20
4.124417239798397
 30
0.0
 10
-66.32252274097812
 20
4.369736715827465
 30
0.0
 10
-66.2426444067919
 20
4.489867677311345
 30
0.0
 10
-66.16679688082536
 20
4.615944045267732
 30
0.0
  0
SPLINE
  5
17C9D
330
1F
100
AcDbEntity
  8
AM_0
100
AcDbSpline
210
0.0
220
0.0
230
1.0
 70
     8
 71
     3
 72
     8
 73
     4
 74
     0
 42
0.0000000001
 43
0.0000000001
 40
1.327011630901579
 40
1.327011630901579
 40
1.327011630901579
 40
1.327011630901579
 40
1.588882119816186
 40
1.588882119816186
 40
1.588882119816186
 40
1.588882119816186
 10
-65.82457633374827
 20
6.651273407043313
 30
0.0
 10
-65.85174620383771
 20
6.672626703135144
 30
0.0
 10
-65.88147226923036
 20
6.687761603366461
 30
0.0
 10
-65.91287486401654
 20
6.696017724114007
 30
0.0
  0
ELLIPSE
  5
17C9E
330
1F
100
AcDbEntity
  8
AM_0
100
AcDbEllipse
 10
-56.72268620652699
 20
5.858320787874682
 30
0.0
 11
-9.945225924261164
 21
1.160330457067213
 31
0.0
210
0.0
220
0.0
230
1.0
 40
0.0598581063003312
 41
0.25069696343429
 42
0.3992163891201919
  0
ELLIPSE
  5
17C9F
330
1F
100
AcDbEntity
  8
AM_0
100
AcDbEllipse
 10
-66.51988818853783
 20
5.261357614027766
 30
0.0
 11
0.6447764369200258
 21
1.42072877014746
 31
0.0
210
0.0
220
0.0
230
1.0
 40
0.3931313310792858
 41
4.425291916250934
 42
6.187251233714624
  0
LINE
  5
17CA0
330
1F
100
AcDbEntity
  8
AM_0
100
AcDbLine
 10
-65.89670862773221
 20
11.00000000000009
 30
0.0
 11
-71.25694113591715
 21
11.31588178643729
 31
0.0
  0
ARC
  5
17CA1
330
1F
100
AcDbEntity
  8
AM_0
100
AcDbCircle
 10
-67.18424648423468
 20
6.250000000000014
 30
0.0
 40
6.500000000000001
100
AcDbArc
 50
89.99999999999672
 51
128.7973972407193
  0
ARC
  5
17CA2
330
1F
100
AcDbEntity
  8
AM_0
100
AcDbCircle
 10
-67.18424648423468
 20
7.000000000000014
 30
0.0
 40
6.0
100
AcDbArc
 50
102.0243128370406
 51
140.8062737407334
  0
LINE
  5
17CA3
330
1F
100
AcDbEntity
  8
AM_0
100
AcDbLine
 10
-68.07819382190462
 20
10.18030971123331
 30
0.0
 11
-65.99532464790173
 21
10.32744187353465
 31
0.0
  0
LINE
  5
17CA4
330
1F
100
AcDbEntity
  8
AM_0
100
AcDbLine
 10
-67.68289446814595
 20
10.26360500137668
 30
0.0
 11
-65.92517892241949
 21
10.63398108442775
 31
0.0
  0
ARC
  5
17CA5
330
1F
100
AcDbEntity
  8
AM_0
100
AcDbCircle
 10
-67.18424648423468
 20
7.000000000000014
 30
0.0
 40
5.75
100
AcDbArc
 50
74.87537218334114
 51
89.99999999999672
  0
SPLINE
  5
17CA6
330
1F
100
AcDbEntity
  8
AM_0
100
AcDbSpline
210
0.0
220
0.0
230
1.0
 70
     8
 71
     3
 72
    22
 73
    18
 74
     0
 42
0.0000000001
 43
0.0000000001
 40
0.0
 40
0.0
 40
0.0
 40
0.0
 40
0.4285128671353693
 40
0.4285128671353693
 40
0.8570257342707386
 40
0.8570257342707386
 40
1.285538601406108
 40
1.285538601406108
 40
1.714051468541477
 40
1.714051468541477
 40
2.142236194047622
 40
2.142236194047622
 40
2.570420919553768
 40
2.570420919553768
 40
2.998605645059913
 40
2.998605645059913
 40
3.426790370566058
 40
3.426790370566058
 40
3.426790370566058
 40
3.426790370566058
 10
-68.43420691413678
 20
12.86835572572751
 30
0.0
 10
-68.43420691413678
 20
12.86835572572751
 30
0.0
 10
-68.41961455210628
 20
12.87152676188178
 30
0.0
 10
-68.35888480925109
 20
12.88397702086773
 30
0.0
 10
-68.31276962079926
 20
12.89323391681343
 30
0.0
 10
-68.19192663834724
 20
12.91509515638377
 30
0.0
 10
-68.11711133531765
 20
12.92766978114061
 30
0.0
 10
-67.94557413332768
 20
12.95213290124211
 30
0.0
 10
-67.84884609192625
 20
12.9639651542978
 30
0.0
 10
-67.64417914471449
 20
12.98322812211826
 30
0.0
 10
-67.52902338960655
 20
12.99138861079897
 30
0.0
 10
-67.27932253581093
 20
13.00054740371778
 30
0.0
 10
-67.14478403963835
 20
13.00150010003015
 30
0.0
 10
-66.86518950466291
 20
12.99314303023821
 30
0.0
 10
-66.71989134232831
 20
12.98379356877275
 30
0.0
 10
-66.42875618929566
 20
12.95404447294181
 30
0.0
 10
-66.28291729736634
 20
12.93363101716958
 30
0.0
 10
-66.14235741823313
 20
12.90884651807327
 30
0.0
  0
LINE
  5
17CA7
330
1F
100
AcDbEntity
  8
AM_0
100
AcDbLine
 10
-68.07819382193031
 20
10.18030971128094
 30
0.0
 11
-69.25228335183783
 21
9.932912069327088
 31
0.0
  0
LINE
  5
17CA8
330
1F
100
AcDbEntity
  8
AM_0
100
AcDbLine
 10
-69.21281688476779
 20
10.26680921473796
 30
0.0
 11
-67.68289446814595
 21
10.26360500137665
 31
0.0
  0
LINE
  5
17CA9
330
1F
100
AcDbEntity
  8
AM_0
100
AcDbLine
 10
-67.68289446814606
 20
10.26360500137668
 30
0.0
 11
-67.69763937554978
 21
10.20719176377143
 31
0.0
  0
SPLINE
  5
17CAA
330
1F
100
AcDbEntity
  8
AM_0
100
AcDbSpline
210
0.0
220
0.0
230
1.0
 70
    28
 71
     2
 72
     6
 73
     3
 74
     0
 42
0.0000000001
 43
0.0000000001
 40
0.0255517539552694
 40
0.0255517539552694
 40
0.0255517539552694
 40
0.3684419925851877
 40
0.3684419925851877
 40
0.3684419925851877
 10
-68.4780087039728
 20
12.61994343136374
 30
0.0
 41
1.000034256164535
 10
-68.45654158759167
 20
12.74168949821528
 30
0.0
 41
1.000246977360961
 10
-68.43420691413678
 20
12.86835572572751
 30
0.0
 41
1.0
  0
ELLIPSE
  5
17CAB
330
1F
100
AcDbEntity
  8
AM_0
100
AcDbEllipse
 10
-66.0434903093493
 20
9.930410193594646
 30
0.0
 11
0.04876106623551479
 21
0.3970168238495391
 31
0.0
210
0.0
220
0.0
230
1.0
 40
0.0871487501159606
 41
4.764586312089669
 42
6.300190825396522
  0
LINE
  5
17CAC
330
1F
100
AcDbEntity
  8
AM_0
100
AcDbLine
 10
-66.00548769349382
 20
10.32672396436772
 30
0.0
 11
-65.92517892241949
 21
10.63398108442775
 31
0.0
  0
LINE
  5
17CAD
330
1F
100
AcDbEntity
  8
AM_0
100
AcDbLine
 10
-65.92517892241949
 20
10.63398108442775
 30
0.0
 11
-65.89670862773221
 21
11.00000000000009
 31
0.0
  0
ELLIPSE
  5
17CAE
330
1F
100
AcDbEntity
  8
AM_0
100
AcDbEllipse
 10
-55.79440574925752
 20
11.37919464182728
 30
0.0
 11
-10.11141237019553
 21
-0.04774627267476918
 31
0.0
210
0.0
220
0.0
230
1.0
 40
0.4950540463012268
 41
6.070458698366987
 42
6.29561888916172
  0
LINE
  5
17CAF
330
1F
100
AcDbEntity
  8
AM_0
100
AcDbLine
 10
-65.89670862773221
 20
11.00000000000009
 30
0.0
 11
-65.90474266292529
 21
11.26921493664234
 31
0.0
  0
ARC
  5
17CB0
330
1F
100
AcDbEntity
  8
AM_0
100
AcDbCircle
 10
-61.18424648423468
 20
12.50000000000004
 30
0.0
 40
4.5
100
AcDbArc
 50
207.191503428926
 51
237.7945268183828
  0
SPLINE
  5
17CB1
330
1F
100
AcDbEntity
  8
AM_0
100
AcDbSpline
210
0.0
220
0.0
230
1.0
 70
     8
 71
     3
 72
    12
 73
     8
 74
     0
 42
0.0000000001
 43
0.0000000001
 40
3.349680994984138
 40
3.349680994984138
 40
3.349680994984138
 40
3.349680994984138
 40
5.000594304755719
 40
5.000594304755719
 40
7.500891457133578
 40
7.500891457133578
 40
7.885021767805957
 40
7.885021767805957
 40
7.885021767805957
 40
7.885021767805957
 10
-65.18692515022838
 20
10.44365287541263
 30
0.0
 10
-65.30924632572919
 20
10.68175098332564
 30
0.0
 10
-65.40631888623409
 20
10.92300004154556
 30
0.0
 10
-65.59366594413643
 20
11.52475093001642
 30
0.0
 10
-65.65582215678273
 20
11.88912063452202
 30
0.0
 10
-65.67941709037586
 20
12.28498570337499
 30
0.0
 10
-65.68160794875087
 20
12.33739013063747
 30
0.0
 10
-65.68288605223245
 20
12.3893562598052
 30
0.0
  0
ARC
  5
17CB2
330
1F
100
AcDbEntity
  8
AM_0
100
AcDbCircle
 10
-61.18424648423468
 20
12.50000000000004
 30
0.0
 40
4.5
100
AcDbArc
 50
179.3528843692744
 51
181.408901835696
  0
SPLINE
  5
17CB3
330
1F
100
AcDbEntity
  8
AM_0
100
AcDbSpline
210
0.0
220
0.0
230
1.0
 70
    28
 71
     2
 72
     6
 73
     3
 74
     0
 42
0.0000000001
 43
0.0000000001
 40
0.0
 40
0.0
 40
0.0
 40
0.3684419925851877
 40
0.3684419925851877
 40
0.3684419925851877
 10
-64.00257202558191
 20
12.08693892622635
 30
0.0
 41
1.0
 10
-64.02657060954245
 20
11.95083619331454
 30
0.0
 41
1.000265381787965
 10
-64.04956925250474
 20
11.82040440760668
 30
0.0
 41
1.0
  0
SPLINE
  5
17CB4
330
1F
100
AcDbEntity
  8
AM_0
100
AcDbSpline
210
0.0
220
0.0
230
1.0
 70
     8
 71
     3
 72
    22
 73
    18
 74
     0
 42
0.0000000001
 43
0.0000000001
 40
3.426790370566058
 40
3.426790370566058
 40
3.426790370566058
 40
3.426790370566058
 40
3.854975096072203
 40
3.854975096072203
 40
4.283159821578348
 40
4.283159821578348
 40
4.711344547084494
 40
4.711344547084494
 40
5.139529272590639
 40
5.139529272590639
 40
5.568042139726009
 40
5.568042139726009
 40
5.996555006861378
 40
5.996555006861378
 40
6.425067873996747
 40
6.425067873996747
 40
6.853580741132117
 40
6.853580741132117
 40
6.853580741132117
 40
6.853580741132117
 10
-66.14235741823313
 20
12.90884651807327
 30
0.0
 10
-66.00179753909981
 20
12.88406201897693
 30
0.0
 10
-65.85777199546135
 20
12.85336455401075
 30
0.0
 10
-65.57401965048518
 20
12.78174547307075
 30
0.0
 10
-65.43428633537519
 20
12.74083619471157
 30
0.0
 10
-65.16869512783876
 20
12.65306230860106
 30
0.0
 10
-65.04259613710303
 20
12.6061521911627
 30
0.0
 10
-64.81108657905406
 20
12.51214301923788
 30
0.0
 10
-64.70566661724638
 20
12.46508908037581
 30
0.0
 10
-64.51993092024748
 20
12.37698759304107
 30
0.0
 10
-64.43308316240541
 20
12.33278597357364
 30
0.0
 10
-64.28025779934853
 20
12.25112898172259
 30
0.0
 10
-64.21425518613137
 20
12.21372435896431
 30
0.0
 10
-64.10817691153852
 20
12.15185077928064
 30
0.0
 10
-64.06800885412224
 20
12.12737981910534
 30
0.0
 10
-64.01519980226181
 20
12.09490960725388
 30
0.0
 10
-64.00257202558191
 20
12.08693892622632
 30
0.0
 10
-64.00257202558191
 20
12.08693892622632
 30
0.0
  0
LINE
  5
17CB5
330
1F
100
AcDbEntity
  8
AM_0
100
AcDbLine
 10
-61.68424648423468
 20
8.67705098312485
 30
0.0
 11
-61.68424648423468
 21
6.000000000000036
 31
0.0
  0
SPLINE
  5
17CB7
330
1F
100
AcDbEntity
  8
AM_0
100
AcDbSpline
210
0.0
220
0.0
230
1.0
 70
    28
 71
     2
 72
     6
 73
     3
 74
     0
 42
0.0000000001
 43
0.0000000001
 40
0.0
 40
0.0
 40
0.0
 40
0.7632067745941296
 40
0.7632067745941296
 40
0.7632067745941296
 10
-61.68424648423468
 20
5.322949016875164
 30
0.0
 41
1.0
 10
-61.68424648423468
 20
4.970185401849086
 30
0.0
 41
1.001887252317323
 10
-61.68424648423468
 20
4.602084238343657
 30
0.0
 41
1.0
  0
LINE
  5
17CB8
330
1F
100
AcDbEntity
  8
AM_0
100
AcDbLine
 10
-61.68424648423468
 20
6.000000000000036
 30
0.0
 11
-61.68424648423468
 21
5.322949016875164
 31
0.0
  0
ARC
  5
17CBC
330
1F
100
AcDbEntity
  8
AM_0
100
AcDbCircle
 10
-67.18424648423468
 20
7.000000000000014
 30
0.0
 40
5.75
100
AcDbArc
 50
16.95742629417274
 51
24.70682306633651
  0
SPLINE
  5
17CBD
330
1F
100
AcDbEntity
  8
AM_0
100
AcDbSpline
210
0.0
220
0.0
230
1.0
 70
    28
 71
     2
 72
     6
 73
     3
 74
     0
 42
0.0000000001
 43
0.0000000001
 40
0.0
 40
0.0
 40
0.0
 40
0.7632067745941296
 40
0.7632067745941296
 40
0.7632067745941296
 10
-61.68424648423468
 20
9.397915761656357
 30
0.0
 41
1.0
 10
-61.68424648423468
 20
9.029814598150896
 30
0.0
 41
1.001887252317323
 10
-61.68424648423468
 20
8.67705098312485
 30
0.0
 41
1.0
  0
SPLINE
  5
17CC7
330
1F
100
AcDbEntity
  8
AM_0
100
AcDbSpline
210
0.0
220
0.0
230
1.0
 70
     8
 71
     3
 72
    33
 73
    29
 74
     0
 42
0.0000000001
 43
0.0000000001
 40
-1.299345701639491
 40
-1.299345701639491
 40
-1.299345701639491
 40
-1.299345701639491
 40
-1.274032593939324
 40
-1.274032593939324
 40
-0.6370162969696622
 40
-0.6370162969696622
 40
0.0
 40
0.0
 40
0.0
 40
0.6370162969696619
 40
0.6370162969696619
 40
1.274032593939324
 40
1.274032593939324
 40
1.911048890908986
 40
1.911048890908986
 40
2.548065187878648
 40
2.548065187878648
 40
3.229064623841093
 40
3.229064623841093
 40
3.910064059803538
 40
3.910064059803538
 40
4.567072840859305
 40
4.567072840859305
 40
5.224081621915071
 40
5.224081621915071
 40
5.881090402970838
 40
5.881090402970838
 40
6.538099184026605
 40
6.538099184026605
 40
6.538099184026605
 40
6.538099184026605
 10
21.563999894414
 20
-54.56167623611441
 30
0.0
 10
21.56757802940001
 20
-54.56961557524789
 30
0.0
 10
21.57112357417316
 20
-54.57757133178814
 30
0.0
 10
21.66303642282912
 20
-54.7861556009947
 30
0.0
 10
21.73057036840237
 20
-54.99752168845186
 30
0.0
 10
21.81966205430467
 20
-55.42665777068675
 30
0.0
 10
21.84122918275909
 20
-55.64442951122638
 30
0.0
 10
21.84122918275909
 20
-55.85676827688292
 30
0.0
 10
21.84122918275909
 20
-56.06910704253946
 30
0.0
 10
21.81966205430467
 20
-56.28687878307909
 30
0.0
 10
21.73057036840237
 20
-56.71601486531398
 30
0.0
 10
21.66303642282912
 20
-56.92738095277113
 30
0.0
 10
21.48623623222341
 20
-57.32860601643057
 30
0.0
 10
21.37674060643951
 20
-57.51891286644761
 30
0.0
 10
21.12642289751932
 20
-57.86775691242792
 30
0.0
 10
20.98558956339696
 20
-58.02632095167331
 30
0.0
 10
20.68029747552112
 20
-58.31565468954273
 30
0.0
 10
20.49323621878432
 20
-58.46289882058437
 30
0.0
 10
20.09306622195459
 20
-58.72098206100594
 30
0.0
 10
19.88007599052014
 20
-58.83215839715237
 30
0.0
 10
19.48465777845092
 20
-59.0067300179752
 30
0.0
 10
19.27559734113777
 20
-59.08372939923348
 30
0.0
 10
18.83834166752718
 20
-59.21530268529125
 30
0.0
 10
18.61015537842411
 20
-59.26992749210208
 30
0.0
 10
18.14700393721989
 20
-59.3556462018596
 30
0.0
 10
17.91191449507744
 20
-59.38679299665134
 30
0.0
 10
17.44791371344741
 20
-59.42708047467903
 30
0.0
 10
17.21900292701832
 20
-59.43622354270201
 30
0.0
 10
16.99999999999977
 20
-59.43622354270201
 30
0.0
  0
SPLINE
  5
17CC8
330
1F
100
AcDbEntity
  8
AM_0
100
AcDbSpline
210
0.0
220
0.0
230
1.0
 70
     8
 71
     3
 72
    14
 73
    10
 74
     0
 42
0.0000000001
 43
0.0000000001
 40
4.398741584532346
 40
4.398741584532346
 40
4.398741584532346
 40
4.398741584532346
 40
4.781970903975992
 40
4.781970903975992
 40
5.338226633150732
 40
5.338226633150732
 40
5.894482362325473
 40
5.894482362325473
 40
6.064660701679938
 40
6.064660701679938
 40
6.064660701679938
 40
6.064660701679938
 10
21.563999894414
 20
-54.56167623611441
 30
0.0
 10
21.44887437409932
 20
-54.60690378821229
 30
0.0
 10
21.32983645668764
 20
-54.64685166066732
 30
0.0
 10
21.03200356874356
 20
-54.73024168028832
 30
0.0
 10
20.85029356424991
 20
-54.7670736742256
 30
0.0
 10
20.48663279279856
 20
-54.81501077226275
 30
0.0
 10
20.30468203675252
 20
-54.82611784465973
 30
0.0
 10
20.07469296379315
 20
-54.82611784465973
 30
0.0
 10
20.01996181999664
 20
-54.82509299115526
 30
0.0
 10
19.96453329077201
 20
-54.82297237254917
 30
0.0
  0
SPLINE
  5
17CDF
330
1F
100
AcDbEntity
  8
AM_0
100
AcDbSpline
210
0.0
220
0.0
230
1.0
 70
     8
 71
     3
 72
    18
 73
    14
 74
     0
 42
0.0000000001
 43
0.0000000001
 40
1.026443429749797
 40
1.026443429749797
 40
1.026443429749797
 40
1.026443429749797
 40
1.923815279515564
 40
1.923815279515564
 40
2.885722919273347
 40
2.885722919273347
 40
3.847630559031129
 40
3.847630559031129
 40
5.741945949029734
 40
5.741945949029734
 40
7.636261339028341
 40
7.636261339028341
 40
8.021561314351894
 40
8.021561314351894
 40
8.021561314351894
 40
8.021561314351894
 10
19.96453329077201
 20
-54.82297237254917
 30
0.0
 10
19.65893360130872
 20
-54.81128055253242
 30
0.0
 10
19.34327187705492
 20
-54.79815453059786
 30
0.0
 10
18.68257565521765
 20
-54.77370544152623
 30
0.0
 10
18.33688421890099
 20
-54.76266253307637
 30
0.0
 10
17.65591395242495
 20
-54.74793086249389
 30
0.0
 10
17.320635879919
 20
-54.74425047057898
 30
0.0
 10
16.3685615366669
 20
-54.74425047057898
 30
0.0
 10
15.71793303192817
 20
-54.75954666906358
 30
0.0
 10
14.42901776522228
 20
-54.80601035625645
 30
0.0
 10
13.79069883915656
 20
-54.83668156530732
 30
0.0
 10
13.05714330824867
 20
-54.85301174606184
 30
0.0
 10
12.93429539207193
 20
-54.85502624190423
 30
0.0
 10
12.81275668547346
 20
-54.85603680472914
 30
0.0
  0
LINE
  5
17CE3
330
1F
100
AcDbEntity
  8
AM_0
100
AcDbLine
 10
25.24999999999977
 20
-61.35676827688295
 30
0.0
 11
25.24999999999977
 21
-50.35676827688289
 31
0.0
  0
LINE
  5
17CE4
330
1F
100
AcDbEntity
  8
AM_0
100
AcDbLine
 10
24.99999999999977
 20
-61.35676827688295
 30
0.0
 11
24.99999999999977
 21
-50.35676827688292
 31
0.0
  0
SPLINE
  5
17CE5
330
1F
100
AcDbEntity
  8
AM_0
100
AcDbSpline
210
0.0
220
0.0
230
1.0
 70
     8
 71
     3
 72
    32
 73
    28
 74
     0
 42
0.0000000001
 43
0.0000000001
 40
3.386867410655446
 40
3.386867410655446
 40
3.386867410655446
 40
3.386867410655446
 40
3.986060856630277
 40
3.986060856630277
 40
4.998960010543327
 40
4.998960010543327
 40
5.418593789869783
 40
5.418593789869783
 40
5.838227569196239
 40
5.838227569196239
 40
6.257861348522695
 40
6.257861348522695
 40
6.677495127849152
 40
6.677495127849152
 40
7.097128907175609
 40
7.097128907175609
 40
7.516762686502066
 40
7.516762686502066
 40
7.936396465828523
 40
7.936396465828523
 40
8.35603024515498
 40
8.35603024515498
 40
9.36892939906803
 40
9.36892939906803
 40
10.38182855298108
 40
10.38182855298108
 40
10.81132309243601
 40
10.81132309243601
 40
10.81132309243601
 40
10.81132309243601
 10
22.33836159424584
 20
-50.35676827688292
 30
0.0
 10
22.51061135959162
 20
-50.38938144674347
 30
0.0
 10
22.67370657617164
 20
-50.42872672002525
 30
0.0
 10
23.08146747407602
 20
-50.55707312292756
 30
0.0
 10
23.30469085227048
 20
-50.66171626095775
 30
0.0
 10
23.5598939890989
 20
-50.85348301490245
 30
0.0
 10
23.63049460526963
 20
-50.91750617432237
 30
0.0
 10
23.75517841572776
 20
-51.06067449458766
 30
0.0
 10
23.80925665726056
 20
-51.13984646437936
 30
0.0
 10
23.89601076988276
 20
-51.31057535512224
 30
0.0
 10
23.92873351062349
 20
-51.40224929555669
 30
0.0
 10
23.97150943255588
 20
-51.59295750053096
 30
0.0
 10
23.98156052743582
 20
-51.69199565473471
 30
0.0
 10
23.98156052743582
 20
-51.88981291538582
 30
0.0
 10
23.97150943255588
 20
-51.99622447529328
 30
0.0
 10
23.92873351062349
 20
-52.21793035486471
 30
0.0
 10
23.89601076988276
 20
-52.33322173119697
 30
0.0
 10
23.80925665726056
 20
-52.56527957542068
 30
0.0
 10
23.75517841572776
 20
-52.68217079078715
 30
0.0
 10
23.63049460526963
 20
-52.90985893906645
 30
0.0
 10
23.5598939890989
 20
-53.02064172587919
 30
0.0
 10
23.30469085227048
 20
-53.37576649958967
 30
0.0
 10
23.08146747407602
 20
-53.61445075259951
 30
0.0
 10
22.56906431743983
 20
-54.04225214092745
 30
0.0
 10
22.27976236517873
 20
-54.23118211972309
 30
0.0
 10
21.8377600369538
 20
-54.45031955846898
 30
0.0
 10
21.70228421490094
 20
-54.5093695691163
 30
0.0
 10
21.563999894414
 20
-54.56167623611441
 30
0.0
  0
SPLINE
  5
17CEB
330
1F
100
AcDbEntity
  8
AM_0
100
AcDbSpline
210
0.0
220
0.0
230
1.0
 70
     8
 71
     3
 72
    14
 73
    10
 74
     0
 42
0.0000000001
 43
0.0000000001
 40
4.398741584532346
 40
4.398741584532346
 40
4.398741584532346
 40
4.398741584532346
 40
4.781970903975992
 40
4.781970903975992
 40
5.338226633150732
 40
5.338226633150732
 40
5.894482362325473
 40
5.894482362325473
 40
6.064660701679938
 40
6.064660701679938
 40
6.064660701679938
 40
6.064660701679938
 10
21.56399989441388
 20
1.397747184753484
 30
0.0
 10
21.44887437409921
 20
1.456799532684926
 30
0.0
 10
21.32983645668753
 20
1.515012625592846
 30
0.0
 10
21.03200356874345
 20
1.653181775251767
 30
0.0
 10
20.8502935642498
 20
1.731112774294246
 30
0.0
 10
20.48663279279845
 20
1.874518406379167
 30
0.0
 10
20.30468203675241
 20
1.939992409130213
 30
0.0
 10
20.07469296379304
 20
2.015749105052635
 30
0.0
 10
20.01996181999652
 20
2.03326801015379
 30
0.0
 10
19.9645332907719
 20
2.05047341066944
 30
0.0
  0
ARC
  5
17CEC
330
1F
100
AcDbEntity
  8
AM_0
100
AcDbCircle
 10
19.9645332907719
 20
1.500000000000085
 30
0.0
 40
4.5
100
AcDbArc
 50
58.16213144425019
 51
90.0
  0
LINE
  5
17CF0
330
1F
100
AcDbEntity
  8
AM_0
100
AcDbLine
 10
16.9475915214091
 20
8.6770509831249
 30
0.0
 11
19.38384813760706
 21
6.000000000000085
 31
0.0
  0
ARC
  5
17CF1
330
1F
100
AcDbEntity
  8
AM_0
100
AcDbCircle
 10
16.99999999999966
 20
-7.499999999999943
 30
0.0
 40
10.0
100
AcDbArc
 50
114.7540753699576
 51
120.6776156469223
  0
ELLIPSE
  5
17CF2
330
1F
100
AcDbEntity
  8
AM_0
100
AcDbEllipse
 10
23.4790838436129
 20
1.500000000000085
 30
0.0
 11
11.33812066901618
 21
-1.868985322848924
 31
0.0
210
0.0
220
0.0
230
1.0
 40
0.3610403027276591
 41
1.999101947198284
 42
3.551867535161348
  0
SPLINE
  5
17CF4
330
1F
100
AcDbEntity
  8
AM_0
100
AcDbSpline
210
0.0
220
0.0
230
1.0
 70
     8
 71
     3
 72
    10
 73
     6
 74
     0
 42
0.0000000001
 43
0.0000000001
 40
35.66404045851092
 40
35.66404045851092
 40
35.66404045851092
 40
35.66404045851092
 40
36.06219674417969
 40
36.06219674417969
 40
36.79662507680046
 40
36.79662507680046
 40
36.79662507680046
 40
36.79662507680046
 10
11.89793048697038
 20
1.100516652167897
 30
0.0
 10
11.79398773851449
 20
1.038854876550772
 30
0.0
 10
11.68919659736707
 20
0.9741382119663626
 30
0.0
 10
11.39003885472562
 20
0.7814001487503788
 30
0.0
 10
11.19475433778678
 20
0.6460226405676224
 30
0.0
 10
11.00113691401521
 20
0.5008525592970727
 30
0.0
  0
SPLINE
  5
17CFF
330
1F
100
AcDbEntity
  8
AM_0
100
AcDbSpline
210
0.0
220
0.0
230
1.0
 70
     8
 71
     3
 72
    18
 73
    14
 74
     0
 42
0.0000000001
 43
0.0000000001
 40
1.026443429749797
 40
1.026443429749797
 40
1.026443429749797
 40
1.026443429749797
 40
1.923815279515564
 40
1.923815279515564
 40
2.885722919273347
 40
2.885722919273347
 40
3.847630559031129
 40
3.847630559031129
 40
5.741945949029734
 40
5.741945949029734
 40
7.636261339028341
 40
7.636261339028341
 40
8.021561314351894
 40
8.021561314351894
 40
8.021561314351894
 40
8.021561314351894
 10
19.9645332907719
 20
2.05047341066944
 30
0.0
 10
19.6589336013086
 20
2.145333677182691
 30
0.0
 10
19.3432718770548
 20
2.227029771515817
 30
0.0
 10
18.68257565521753
 20
2.36360829809442
 30
0.0
 10
18.33688421890088
 20
2.416140036383069
 30
0.0
 10
17.65591395242484
 20
2.484331200458598
 30
0.0
 10
17.32063587991888
 20
2.500000000000057
 30
0.0
 10
16.36856153666679
 20
2.500000000000057
 30
0.0
 10
15.71793303192806
 20
2.439197092265886
 30
0.0
 10
14.42901776522217
 20
2.186143970768598
 30
0.0
 10
13.79069883915645
 20
1.993966709978707
 30
0.0
 10
13.05714330824856
 20
1.690858399625256
 30
0.0
 10
12.93429539207182
 20
1.637174522050941
 30
0.0
 10
12.81275668547335
 20
1.581133928367962
 30
0.0
  0
LINE
  5
17D00
330
1F
100
AcDbEntity
  8
AM_0
100
AcDbLine
 10
19.38384813760706
 20
6.000000000000085
 30
0.0
 11
19.9645332907719
 21
6.000000000000085
 31
0.0
  0
LINE
  5
17D09
330
1F
100
AcDbEntity
  8
AM_0
100
AcDbLine
 10
25.24999999999966
 20
1.000000000000057
 30
0.0
 11
25.24999999999966
 21
4.602084238343707
 31
0.0
  0
LINE
  5
17D0A
330
1F
100
AcDbEntity
  8
AM_0
100
AcDbLine
 10
24.99999999999966
 20
1.250000000000057
 30
0.0
 11
24.99999999999966
 21
5.322949016875214
 31
0.0
  0
SPLINE
  5
17D0B
330
1F
100
AcDbEntity
  8
AM_0
100
AcDbSpline
210
0.0
220
0.0
230
1.0
 70
     8
 71
     3
 72
    32
 73
    28
 74
     0
 42
0.0000000001
 43
0.0000000001
 40
3.386867410655446
 40
3.386867410655446
 40
3.386867410655446
 40
3.386867410655446
 40
3.986060856630277
 40
3.986060856630277
 40
4.998960010543327
 40
4.998960010543327
 40
5.418593789869783
 40
5.418593789869783
 40
5.838227569196239
 40
5.838227569196239
 40
6.257861348522695
 40
6.257861348522695
 40
6.677495127849152
 40
6.677495127849152
 40
7.097128907175609
 40
7.097128907175609
 40
7.516762686502066
 40
7.516762686502066
 40
7.936396465828523
 40
7.936396465828523
 40
8.35603024515498
 40
8.35603024515498
 40
9.36892939906803
 40
9.36892939906803
 40
10.38182855298108
 40
10.38182855298108
 40
10.81132309243601
 40
10.81132309243601
 40
10.81132309243601
 40
10.81132309243601
 10
22.33836159424573
 20
5.322949016875214
 30
0.0
 10
22.51061135959151
 20
5.215991961879325
 30
0.0
 10
22.67370657617153
 20
5.098118860563545
 30
0.0
 10
23.08146747407591
 20
4.757682475716678
 30
0.0
 10
23.30469085227037
 20
4.518998222706841
 30
0.0
 10
23.55989398909878
 20
4.163873448996355
 30
0.0
 10
23.63049460526952
 20
4.053090662183593
 30
0.0
 10
23.75517841572764
 20
3.825402513904294
 30
0.0
 10
23.80925665726045
 20
3.708511298537843
 30
0.0
 10
23.89601076988265
 20
3.476453454314139
 30
0.0
 10
23.92873351062337
 20
3.361162077981874
 30
0.0
 10
23.97150943255576
 20
3.139456198410443
 30
0.0
 10
23.9815605274357
 20
3.033044638502986
 30
0.0
 10
23.9815605274357
 20
2.835227377851851
 30
0.0
 10
23.97150943255576
 20
2.736189223648097
 30
0.0
 10
23.92873351062337
 20
2.545481018673854
 30
0.0
 10
23.89601076988265
 20
2.453807078239407
 30
0.0
 10
23.80925665726045
 20
2.283078187496528
 30
0.0
 10
23.75517841572764
 20
2.203906217704827
 30
0.0
 10
23.63049460526952
 20
2.060737897439509
 30
0.0
 10
23.55989398909878
 20
1.99671473801962
 30
0.0
 10
23.30469085227037
 20
1.804947984074914
 30
0.0
 10
23.08146747407591
 20
1.70030484604473
 30
0.0
 10
22.56906431743971
 20
1.539021352879871
 30
0.0
 10
22.27976236517861
 20
1.482272814604215
 30
0.0
 10
21.83776003695368
 20
1.424252778222922
 30
0.0
 10
21.70228421490083
 20
1.40983909676504
 30
0.0
 10
21.56399989441388
 20
1.397747184753484
 30
0.0
  0
LINE
  5
17D0C
330
1F
100
AcDbEntity
  8
AM_0
100
AcDbLine
 10
21.84122918275898
 20
1.250000000000057
 30
0.0
 11
24.99999999999966
 21
1.250000000000057
 31
0.0
  0
SPLINE
  5
17D0D
330
1F
100
AcDbEntity
  8
AM_0
100
AcDbSpline
210
0.0
220
0.0
230
1.0
 70
     8
 71
     3
 72
    12
 73
     8
 74
     0
 42
0.0000000001
 43
0.0000000001
 40
-1.299345701639491
 40
-1.299345701639491
 40
-1.299345701639491
 40
-1.299345701639491
 40
-1.274032593939324
 40
-1.274032593939324
 40
-0.6370162969696622
 40
-0.6370162969696622
 40
0.0
 40
0.0
 40
0.0
 40
0.0
 10
21.56399989441388
 20
1.397747184753484
 30
0.0
 10
21.5675780293999
 20
1.395911820434918
 30
0.0
 10
21.57112357417304
 20
1.394090457783364
 30
0.0
 10
21.66303642282901
 20
1.346805592593512
 30
0.0
 10
21.73057036840226
 20
1.310463917298677
 30
0.0
 10
21.81966205430456
 20
1.262044744593368
 30
0.0
 10
21.84122918275898
 20
1.250000000000057
 30
0.0
 10
21.84122918275898
 20
1.250000000000057
 30
0.0
  0
LINE
  5
17D0E
330
1F
100
AcDbEntity
  8
AM_0
100
AcDbLine
 10
24.99999999999966
 20
1.250000000000057
 30
0.0
 11
25.24999999999966
 21
1.000000000000057
 31
0.0
  0
LINE
  5
17D0F
330
1F
100
AcDbEntity
  8
AM_0
100
AcDbLine
 10
22.33836159424573
 20
5.322949016875214
 30
0.0
 11
24.99999999999966
 21
5.322949016875214
 31
0.0
  0
SPLINE
  5
17D10
330
1F
100
AcDbEntity
  8
AM_0
100
AcDbSpline
210
0.0
220
0.0
230
1.0
 70
    12
 71
     2
 72
     6
 73
     3
 74
     0
 42
0.0000000001
 43
0.0000000001
 40
0.0
 40
0.0
 40
0.0
 40
0.7632067745941296
 40
0.7632067745941296
 40
0.7632067745941296
 10
24.99999999999966
 20
5.322949016875214
 30
0.0
 41
1.0
 10
25.10288740302371
 20
4.970185401849136
 30
0.0
 41
1.001887252317323
 10
25.24999999999966
 20
4.602084238343707
 30
0.0
 41
1.0
  0
TEXT
  5
1831E
330
1F
100
AcDbEntity
  8
AM_0
100
AcDbText
 10
16.94590904203494
 20
-98.6471775427663
 30
0.0
 40
5.0
  1
XBPT-212R14
 41
0.8834717506327637
100
AcDbText
  0
DIMENSION
  5
18962
330
1F
100
AcDbEntity
  8
AM_5
100
AcDbDimension
  2
*D7
 10
106.7499999999998
 20
-12.66716290887062
 30
0.0
 11
101.2499999999998
 21
-9.267162908870622
 31
0.0
 70
    32
 71
     5
 42
11.0
  3
AM_JIS$0
100
AcDbAlignedDimension
 13
95.74999999999983
 23
4.602084238343643
 33
0.0
 14
106.7499999999998
 24
4.602084238343636
 34
0.0
100
AcDbRotatedDimension
1001
ACAD
1000
DSTYLE
1002
{
1070
   179
1070
     2
1070
   271
1070
     0
1002
}
  0
DIMENSION
  5
18AC1
330
1F
100
AcDbEntity
  8
AM_5
100
AcDbDimension
  2
*D8
 10
-7.431292759775715
 20
-0.0000000000000269
 30
0.0
 11
-7.431292759775715
 21
3.499999999999986
 31
0.0
 70
   160
 71
     5
 42
7.000000000000028
  3
AM_JIS$0
100
AcDbAlignedDimension
 13
-2.165548451965947
 23
7.0
 33
0.0
 14
-2.165548451965947
 24
-0.0000000000000284
 34
0.0
 50
90.0
100
AcDbRotatedDimension
1001
ACAD
1000
DSTYLE
1002
{
1070
   179
1070
     2
1070
   271
1070
     0
1002
}
  0
DIMENSION
  5
18AF5
330
1F
100
AcDbEntity
  8
AM_5
100
AcDbDimension
  2
*D9
 10
0.5001734868569088
 20
9.947032732212279
 30
0.0
 11
-17.25770489136333
 21
18.16356172490053
 31
0.0
 70
    34
 71
     5
 42
1.623156204354713
  3
AM_JIS$2
100
AcDb2LineAngularDimension
 13
-3.164435796722273
 23
0.0
 33
0.0
 14
0.3942132612426121
 24
0.0
 34
0.0
 15
0.0005427158263842
 25
0.4135096967813752
 35
0.0
 16
-10.18061436383668
 26
19.10721410939868
 36
0.0
1001
ACAD
1000
DSTYLE
1002
{
1070
   271
1070
     0
1002
}
  0
DIMENSION
  5
18BEC
330
1F
100
AcDbEntity
  8
AM_5
100
AcDbDimension
  2
*D10
 10
150.0
 20
-30.1189667141323
 30
0.0
 11
74.22705657535676
 21
-30.1189667141323
 31
0.0
 70
   160
 71
     5
 42
150.0
  3
AM_JIS$0
100
AcDbAlignedDimension
 13
0.0
 23
0.0
 33
0.0
 14
150.0
 24
2.000000000000043
 34
0.0
100
AcDbRotatedDimension
1001
ACAD
1000
DSTYLE
1002
{
1070
   179
1070
     0
1070
   271
1070
     0
1002
}
  0
DIMENSION
  5
18C4C
330
1F
100
AcDbEntity
  8
AM_5
100
AcDbDimension
  2
*D11
 10
98.9277833099371
 20
1.467612663199276
 30
0.0
 11
112.339039731036
 21
21.42509844803016
 31
0.0
 70
   163
 71
     5
 42
12.00000000000006
  3
AM_JIS$3
100
AcDbDiametricDimension
 15
103.5722166900627
 25
12.53238733680097
 35
0.0
 40
0.0
1001
ACAD
1000
DSTYLE
1002
{
1070
   179
1070
     0
1070
   271
1070
     0
1002
}
  0
DIMENSION
  5
18D14
330
1F
100
AcDbEntity
  8
AM_5
100
AcDbDimension
  2
*D12
 10
-67.18424648423468
 20
17.50552737384306
 30
0.0
 11
-77.66665502939088
 21
-13.79243128754975
 31
0.0
 70
    34
 71
     5
 42
0.1176535835916077
  3
AM_JIS$2
100
AcDb2LineAngularDimension
 13
-67.13325128234976
 23
0.4133572896866227
 33
0.0
 14
-66.00639387098579
 24
9.946880325117526
 34
0.0
 15
-67.18424648423468
 25
-3.588845057297462
 35
0.0
 16
-67.96931504928381
 26
-20.02595035344291
 36
0.0
1001
ACAD
1000
DSTYLE
1002
{
1070
   179
1070
     0
1070
   271
1070
     0
1002
}
  0
ENDSEC
  0
SECTION
  2
OBJECTS
  0
DICTIONARY
  5
C
330
0
100
AcDbDictionary
281
     1
  3
ACAD_COLOR
350
1839B
  3
ACAD_GROUP
350
D
  3
ACAD_LAYOUT
350
1A
  3
ACAD_MATERIAL
350
1839A
  3
ACAD_MLINESTYLE
350
17
  3
ACAD_PLOTSETTINGS
350
19
  3
ACAD_PLOTSTYLENAME
350
E
  3
ACAD_TABLESTYLE
350
1839C
  3
AcAmCatalogState
350
18403
  3
ACDBHEADERROUNDTRIPXREC
350
18FB7
  3
AcDbVariableDictionary
350
30
  3
ACDMSYSVARMGR
350
183B6
  3
ACGREF_MASTER
350
183AE
  3
ACGREFACAD_MASTER
350
183D6
  3
AcmDictionary
350
4D
  3
ACME_BOM_MANAGER_NAME
350
36
  3
ACME_COMMAND_HISTORY
350
2F
  3
ACME_SCOPE_NAME
350
2E
  3
ACMESTATEMGR
350
3B
  3
AcmeSysVarManager
350
32
  3
AcmSystemVariableManager
350
6A
  3
AD_APPL
350
183E1
  3
ADSYSVARMGR
350
183E0
  3
AmdtNamedDwgMgr
350
183D1
  3
AMG
350
3F
  3
AMGSNAPSETTINGS
350
73
  3
AMI_MASTER
350
183D9
  3
ASE_INDEX_DICTIONARY
350
184E4
  3
AUTOCAD_ASSEMBLIES_PROJECT
350
183E9
  3
Designer_Assemblies_SysVars
350
183E4
  3
DWGPROPS
350
18FBA
  3
eng_data
350
2A40
  3
FILENAME
350
2916
  3
GREFAM_MODULE
350
183DA
  3
line_dic_data
350
2A3E
  3
table_dic_data
350
1688
  3
ZWKSIZE
350
2918
  0
DICTIONARY
  5
18893
330
2
100
AcDbDictionary
280
     1
281
     1
  3
ACAD_LAYERSTATES
360
18894
  0
DICTIONARY
  5
165
330
1F
100
AcDbDictionary
280
     1
281
     1
  3
ACAD_SORTENTS
360
18530
  0
DICTIONARY
  5
1839B
102
{ACAD_REACTORS
330
C
102
}
330
C
100
AcDbDictionary
281
     1
  0
DICTIONARY
  5
D
102
{ACAD_REACTORS
330
C
102
}
330
C
100
AcDbDictionary
281
     1
  0
DICTIONARY
  5
1A
102
{ACAD_REACTORS
330
C
102
}
330
C
100
AcDbDictionary
281
     1
  3
Model
350
22
  3
ﾚｲｱｳﾄ1
350
1E
  3
ﾚｲｱｳﾄ2
350
26
  0
DICTIONARY
  5
1839A
102
{ACAD_REACTORS
330
C
102
}
330
C
100
AcDbDictionary
281
     1
  0
DICTIONARY
  5
17
102
{ACAD_REACTORS
330
C
102
}
330
C
100
AcDbDictionary
281
     1
  3
Standard
350
18
  0
DICTIONARY
  5
19
102
{ACAD_REACTORS
330
C
102
}
330
C
100
AcDbDictionary
281
     1
  0
ACDBDICTIONARYWDFLT
  5
E
102
{ACAD_REACTORS
330
C
102
}
330
C
100
AcDbDictionary
281
     1
  3
Normal
350
F
100
AcDbDictionaryWithDefault
340
F
  0
DICTIONARY
  5
1839C
102
{ACAD_REACTORS
330
C
102
}
330
C
100
AcDbDictionary
281
     1
  3
Standard
350
1839D
  0
ACAD_PROXY_OBJECT
  5
18403
102
{ACAD_REACTORS
330
C
102
}
330
C
100
AcDbProxyObject
 90
      499
 91
      571
 95
       25
 70
     0
 93
      664
310
3FFFFFFFE00A02814029F2E2E2816B9B2B93B32B92E483ECB652E4AABC7C0483ECB652E487CC6F6CBB846A445F7AE41BDC1B341A12E4B34482AE76F586C6EDC6F14413BC1B7C0AD94C00800003E000E380D5FA
  0
DICTIONARY
  5
18FB7
102
{ACAD_REACTORS
330
C
102
}
330
C
100
AcDbDictionary
281
     1
  3
COLORDICT
350
18FB8
  3
MATERIALDICT
350
18FB9
  0
DICTIONARY
  5
30
102
{ACAD_REACTORS
330
C
102
}
330
C
100
AcDbDictionary
281
     1
  3
CTABLESTYLE
350
18425
  3
HIDETEXT
350
18FB6
  3
INDEXCTL
350
18FB5
  0
ACAD_PROXY_OBJECT
  5
183B6
102
{ACAD_REACTORS
330
C
102
}
330
C
100
AcDbProxyObject
 90
      499
 91
      507
 95
       25
 70
     0
 93
      240
310
4C51A47A0000000000000000000000000000000000000000000000000000
330
183B7
330
183B8
330
183B9
330
183BA
330
183BB
330
183BC
330
183BD
330
183BE
330
183BF
330
183C0
330
183C1
330
183C2
330
183C3
330
183C4
330
183C5
330
183C6
330
183C7
330
183C8
330
183C9
330
183CA
330
183CB
330
183CC
330
183CD
330
183CE
330
183CF
330
183D0
 94
        0
  0
ACAD_PROXY_OBJECT
  5
183AE
102
{ACAD_REACTORS
330
C
102
}
330
C
100
AcDbProxyObject
 90
      499
 91
      535
 95
       25
 70
     0
 93
       34
310
0400004280
  0
ACAD_PROXY_OBJECT
  5
183D6
102
{ACAD_REACTORS
330
C
102
}
330
C
100
AcDbProxyObject
 90
      499
 91
      541
 95
       25
 70
     0
 93
      114
310
04000041C080000000000000000000
  0
DICTIONARY
  5
4D
102
{ACAD_REACTORS
330
C
102
}
330
C
100
AcDbDictionary
281
     1
  3
AcmBOMDATA
350
4E
  3
AcmStdDictionary
350
17E
  3
AMDTSECTSYM_ARROWCOLOR
350
183F7
  0
ACAD_PROXY_OBJECT
  5
36
102
{ACAD_REACTORS
330
C
102
}
330
C
100
AcDbProxyObject
 90
      499
 91
      510
 95
       25
 70
     0
 93
       50
310
00010040400000
330
0
330
0
330
37
 94
        0
  0
ACAD_PROXY_OBJECT
  5
2F
102
{ACAD_REACTORS
330
C
102
}
330
C
100
AcDbProxyObject
 90
      499
 91
      505
 95
       25
 70
     0
 93
     6172
310
478050653454C454354404052D4D5347202D205050413A2020206465736B746F702E6172782046696C6556657273696F6E3A20392E322E302E34014390535115149154D15511109353D1102014213880B4815539113C05084E202D20554E444F014115539113E014115539113E014154155491D1601415454D05591501014B
310
5354D1C80B481414104E88080819195CDADD1BDC0B985C9E08119A5B1955995C9CDA5BDB8E880E4B8C8B8C0B8D0050E414D4454524553455444424D4F4440805084E202D20554E444F014213880B4815539113C0504554E444F80504554E444F805055153415645404052D4D5347202D205050413A2020206465736B746F70
310
2E6172782046696C6556657273696F6E3A20392E322E302E34014390535115149154D15511109353D1102014213880B4815539113C05084E202D20554E444F014115539113E014115539113E014311D4925417D4D514915510D22014194D1531150D5201419493D510551160142111493D411D153D36014311D4925417D4D5
310
14915510D22014194D1531150D5201411353D591501014B5354D1C80B481414104E88080819195CDADD1BDC0B985C9E08119A5B1955995C9CDA5BDB8E880E4B8C8B8C0B8D005045A4F4F4D805055153415645404052D4D5347202D205050413A2020206465736B746F702E6172782046696C6556657273696F6E3A20392E32
310
2E302E3401415454D05591501014B5354D1C80B481414104E88080819195CDADD1BDC0B985C9E08119A5B1955995C9CDA5BDB8E880E4B8C8B8C0B8D005044C494E4540405184D5347202D20436F6D6D616E642043414E43454C4C45442E01415454D05591501014B5354D1C80B481414104E88080819195CDADD1BDC0B985C
310
9E08119A5B1955995C9CDA5BDB8E880E4B8C8B8C0B8D0050E414D4454524553455444424D4F4440805084E202D20554E444F014213880B4815539113C0504554E444F80504554E444F805055055524745805055153415645404052D4D5347202D205050413A2020206465736B746F702E6172782046696C6556657273696F6
310
E3A20392E322E302E340
  0
ACAD_PROXY_OBJECT
  5
2E
102
{ACAD_REACTORS
330
C
102
}
330
C
100
AcDbProxyObject
 90
      499
 91
      504
 95
       25
 70
     0
 93
      586
310
09000046408000000000000000001344E200000000000000000000000000000000000000000000000000000000000000000000000000000000000000000000000000000000AAA406AA80
360
33
360
34
360
35
360
37
360
6B
360
6C
360
183AF
360
183B0
360
183B1
360
183B2
360
183B3
360
183B4
360
183B7
360
183B8
360
183B9
360
183BA
360
183BB
360
183BC
360
183BD
360
183BE
360
183BF
360
183C0
360
183C1
360
183C2
360
183C3
360
183C4
360
183C5
360
183C6
360
183C7
360
183C8
360
183C9
360
183CA
360
183CB
360
183CC
360
183CD
360
183CE
360
183CF
360
183D0
360
183DC
360
183DD
360
183DE
360
183DF
360
183E5
360
183E6
360
183E7
360
183E8
360
183ED
360
183EE
360
183EF
360
183F0
360
183F1
360
183F2
 94
        0
  0
ACAD_PROXY_OBJECT
  5
3B
102
{ACAD_REACTORS
330
C
102
}
330
C
100
AcDbProxyObject
 90
      499
 91
      515
 95
       25
 70
     0
 93
       50
310
09000042641280
  0
ACAD_PROXY_OBJECT
  5
32
102
{ACAD_REACTORS
330
C
102
}
330
C
100
AcDbProxyObject
 90
      499
 91
      507
 95
       25
 70
     0
 93
       48
310
903412000000
330
33
330
34
330
35
 94
        0
  0
ACAD_PROXY_OBJECT
  5
6A
102
{ACAD_REACTORS
330
C
102
}
330
C
100
AcDbProxyObject
 90
      499
 91
      507
 95
       25
 70
     0
 93
       40
310
90240E0000
330
6B
330
6C
 94
        0
  0
ACAD_PROXY_OBJECT
  5
183E1
102
{ACAD_REACTORS
330
C
102
}
330
C
100
AcDbProxyObject
 90
      499
 91
      551
 95
       25
 70
     0
 93
       42
310
000900004040
330
183DC
 94
        0
  0
ACAD_PROXY_OBJECT
  5
183E0
102
{ACAD_REACTORS
330
C
102
}
330
C
100
AcDbProxyObject
 90
      499
 91
      507
 95
       25
 70
     0
 93
        8
310
AA
  0
ACAD_PROXY_OBJECT
  5
183D1
102
{ACAD_REACTORS
330
C
102
}
330
C
100
AcDbProxyObject
 90
      499
 91
      540
 95
       25
 70
     0
 93
       42
310
000100005E80
330
183AF
 94
        0
  0
DICTIONARY
  5
3F
102
{ACAD_REACTORS
330
C
102
}
330
C
100
AcDbDictionary
281
     1
  3
AcMgSettings
350
40
  3
AMGLAYCFG
350
42
  0
DICTIONARY
  5
73
102
{ACAD_REACTORS
330
C
102
}
330
C
100
AcDbDictionary
281
     1
  3
DIMENSION
350
62F
  3
FEA
350
630
  3
HATCH (1)
350
631
  3
HATCH (2)
350
632
  3
SYMBOLS
350
633
  0
ACAD_PROXY_OBJECT
  5
183D9
102
{ACAD_REACTORS
330
C
102
}
330
C
100
AcDbProxyObject
 90
      499
 91
      544
 95
       25
 70
     0
 93
       34
310
0500004280
  0
DICTIONARY
  5
184E4
102
{ACAD_REACTORS
330
C
102
}
330
C
100
AcDbDictionary
281
     1
  3
ASEBlockHierarchyIndexRecord
350
184E6
1001
DCO15
1040
1562583388.609
  0
ACAD_PROXY_OBJECT
  5
183E9
102
{ACAD_REACTORS
330
C
102
}
330
C
100
AcDbProxyObject
 90
      499
 91
      554
 95
       25
 70
     0
 93
       98
310
0900004E400000000000000000
330
183F0
330
0
330
183F1
330
0
330
0
330
0
330
0
330
0
 94
        0
  0
ACAD_PROXY_OBJECT
  5
183E4
102
{ACAD_REACTORS
330
C
102
}
330
C
100
AcDbProxyObject
 90
      499
 91
      507
 95
       25
 70
     0
 93
       56
310
90441600000000
330
183E5
330
183E6
330
183E7
330
183E8
 94
        0
  0
XRECORD
  5
18FBA
102
{ACAD_REACTORS
330
C
102
}
330
C
100
AcDbXrecord
280
     1
  1
DWGPROPS COOKIE
  2

  3

  4

  6

  7

  8

  9

300
AmdtFileType=82
301
=
302
=
303
=
304
=
305
=
306
=
307
=
308
=
309
=
 40
0.0
 41
2451943.235431667
 42
2455482.225220266
  1

 90
        1
  0
DICTIONARY
  5
2A40
102
{ACAD_REACTORS
330
C
102
}
330
C
100
AcDbDictionary
281
     1
  3
eng_id
350
2A41
  0
DICTIONARY
  5
2916
102
{ACAD_REACTORS
330
C
102
}
330
C
100
AcDbDictionary
281
     1
  3
FILENAME
350
2917
  0
ACAD_PROXY_OBJECT
  5
183DA
102
{ACAD_REACTORS
330
C
102
}
330
C
100
AcDbProxyObject
 90
      499
 91
      545
 95
       25
 70
     0
 93
        8
310
05
  0
DICTIONARY
  5
2A3E
102
{ACAD_REACTORS
330
C
102
}
330
C
100
AcDbDictionary
281
     1
  3
line_data
350
2A3F
  0
DICTIONARY
  5
1688
102
{ACAD_REACTORS
330
C
102
}
330
C
100
AcDbDictionary
281
     1
  3
input_data
350
168A
  3
table_data
350
1689
  0
DICTIONARY
  5
2918
102
{ACAD_REACTORS
330
C
102
}
330
C
100
AcDbDictionary
281
     1
  3
ZWKSIZE
350
2919
  0
DICTIONARY
  5
18894
102
{ACAD_REACTORS
330
18893
102
}
330
18893
100
AcDbDictionary
281
     1
  0
SORTENTSTABLE
  5
18530
102
{ACAD_REACTORS
330
165
102
}
330
165
100
AcDbSortentsTable
330
1F
331
EF21
  5
EF21
331
EF61
  5
EF61
331
EFB8
  5
EFB8
331
EFB9
  5
EFB9
331
EFBA
  5
EFBA
331
EFBC
  5
EFBC
331
EFBD
  5
EFBD
331
EFBE
  5
EFBE
331
EFBF
  5
EFBF
331
EFC0
  5
EFC0
331
EFC1
  5
EFC1
331
EFC2
  5
EFC2
331
EFC3
  5
EFC3
331
EFC4
  5
EFC4
331
EFC5
  5
EFC5
331
EFC6
  5
EFC6
331
EFDE
  5
EFDE
331
EFE4
  5
EFE4
331
15C91
  5
15C91
331
15C92
  5
15C92
331
15C93
  5
15C93
331
15C94
  5
15C94
331
15C95
  5
15C95
331
15C96
  5
15C96
331
15C97
  5
15C97
331
15C98
  5
15C98
331
15C99
  5
15C99
331
15C9A
  5
15C9A
331
15C9B
  5
15C9B
331
15C9C
  5
15C9C
331
15C9D
  5
15C9D
331
15C9E
  5
15C9E
331
15CA1
  5
15CA1
331
15CA2
  5
15CA2
331
15CA4
  5
15CA4
331
15CA6
  5
15CA6
331
15CA8
  5
15CA8
331
15CA9
  5
15CA9
331
15CAA
  5
15CAA
331
15CAB
  5
15CAB
331
15CAC
  5
15CAC
331
15CAD
  5
15CAD
331
15CAE
  5
15CAE
331
15CAF
  5
15CAF
331
15CB0
  5
15CB0
331
15CB1
  5
15CB1
331
15CB2
  5
15CB2
331
15CB3
  5
15CB3
331
15CB4
  5
15CB4
331
15CB5
  5
15CB5
331
15CB6
  5
15CB6
331
15CB7
  5
15CB7
331
15CB8
  5
15CB8
331
15CB9
  5
15CB9
331
15CBA
  5
15CBA
331
15CBB
  5
15CBB
331
15CBC
  5
15CBC
331
15CBD
  5
15CBD
331
15CED
  5
15CED
331
15CF3
  5
15CF3
331
15CF4
  5
15CF4
331
15CF5
  5
15CF5
331
15CF8
  5
15CF8
331
15CF9
  5
15CF9
331
15CFA
  5
15CFA
331
15CFB
  5
15CFB
331
15CFC
  5
15CFC
331
15CFD
  5
15CFD
331
15CFE
  5
15CFE
331
15CFF
  5
15CFF
331
15D00
  5
15D00
331
15D03
  5
15D03
331
15D04
  5
15D04
331
15D05
  5
15D05
331
15D06
  5
15D06
331
15D07
  5
15D07
331
15D08
  5
15D08
331
15D09
  5
15D09
331
15D0A
  5
15D0A
331
15D0B
  5
15D0B
331
15D0C
  5
15D0C
331
15D0D
  5
15D0D
331
15D0E
  5
15D0E
331
15D0F
  5
15D0F
331
15D10
  5
15D10
331
15D11
  5
15D11
331
15D12
  5
15D12
331
15D13
  5
15D13
331
15D14
  5
15D14
331
15D15
  5
15D15
331
15D16
  5
15D16
331
15D17
  5
15D17
331
15D18
  5
15D18
331
15D19
  5
15D19
331
15D1A
  5
15D1A
331
15D1E
  5
15D1E
331
15D22
  5
15D22
331
15D29
  5
15D29
331
15D2A
  5
15D2A
331
15D2D
  5
15D2D
331
15D2E
  5
15D2E
331
15D2F
  5
15D2F
331
15D33
  5
15D33
331
15D35
  5
15D35
331
15D36
  5
15D36
331
15D37
  5
15D37
331
15D38
  5
15D38
331
15D39
  5
15D39
331
15D3A
  5
15D3A
331
15D3B
  5
15D3B
331
15D3C
  5
15D3C
331
15D3D
  5
15D3D
331
15D3E
  5
15D3E
331
15D3F
  5
15D3F
331
15D40
  5
15D40
331
15D41
  5
15D41
331
15D42
  5
15D42
331
15D43
  5
15D43
331
15D44
  5
15D44
331
15D45
  5
15D45
331
15D46
  5
15D46
331
15D57
  5
15D57
331
15D58
  5
15D58
331
15D59
  5
15D59
331
15D5A
  5
15D5A
331
15D5B
  5
15D5B
331
15D5C
  5
15D5C
331
15D5D
  5
15D5D
331
15D5E
  5
15D5E
331
15D5F
  5
15D5F
331
15D60
  5
15D60
331
15D61
  5
15D61
331
15D62
  5
15D62
331
15D63
  5
15D63
331
15D64
  5
15D64
331
15D65
  5
15D65
331
15D66
  5
15D66
331
15D67
  5
15D67
331
15D68
  5
15D68
331
15D69
  5
15D69
331
166A2
  5
166A2
331
1679D
  5
1679D
331
167AF
  5
167AF
331
167C9
  5
167C9
331
167CA
  5
167CA
331
167CB
  5
167CB
331
167CC
  5
167CC
331
167CD
  5
167CD
331
167CE
  5
167CE
331
16820
  5
16820
331
1682C
  5
1682C
331
1683F
  5
1683F
331
16867
  5
16867
331
16868
  5
16868
331
16A81
  5
16A81
331
16DE6
  5
16DE6
331
16E08
  5
16E08
331
17032
  5
17032
331
1748D
  5
1748D
331
17C89
  5
17C89
331
17C8A
  5
17C8A
331
17C8B
  5
17C8B
331
17C8C
  5
17C8C
331
17C8D
  5
17C8D
331
17C8E
  5
17C8E
331
17C8F
  5
17C8F
331
17C90
  5
17C90
331
17C91
  5
17C91
331
17C92
  5
17C92
331
17C93
  5
17C93
331
17C94
  5
17C94
331
17C95
  5
17C95
331
17C96
  5
17C96
331
17C97
  5
17C97
331
17C98
  5
17C98
331
17C99
  5
17C99
331
17C9A
  5
17C9A
331
17C9B
  5
17C9B
331
17C9C
  5
17C9C
331
17C9D
  5
17C9D
331
17C9E
  5
17C9E
331
17C9F
  5
17C9F
331
17CA0
  5
17CA0
331
17CA1
  5
17CA1
331
17CA2
  5
17CA2
331
17CA3
  5
17CA3
331
17CA4
  5
17CA4
331
17CA5
  5
17CA5
331
17CA6
  5
17CA6
331
17CA7
  5
17CA7
331
17CA8
  5
17CA8
331
17CA9
  5
17CA9
331
17CAA
  5
17CAA
331
17CAB
  5
17CAB
331
17CAC
  5
17CAC
331
17CAD
  5
17CAD
331
17CAE
  5
17CAE
331
17CAF
  5
17CAF
331
17CB0
  5
17CB0
331
17CB1
  5
17CB1
331
17CB2
  5
17CB2
331
17CB3
  5
17CB3
331
17CB4
  5
17CB4
331
17CB5
  5
17CB5
331
17CB7
  5
17CB7
331
17CB8
  5
17CB8
331
17CBC
  5
17CBC
331
17CBD
  5
17CBD
331
17CC7
  5
17CC7
331
17CC8
  5
17CC8
331
17CDF
  5
17CDF
331
17CE3
  5
17CE3
331
17CE4
  5
17CE4
331
17CE5
  5
17CE5
331
17CEB
  5
17CEB
331
17CEC
  5
17CEC
331
17CF0
  5
17CF0
331
17CF1
  5
17CF1
331
17CF2
  5
17CF2
331
17CF4
  5
17CF4
331
17CFF
  5
17CFF
331
17D00
  5
17D00
331
17D09
  5
17D09
331
17D0A
  5
17D0A
331
17D0B
  5
17D0B
331
17D0C
  5
17D0C
331
17D0D
  5
17D0D
331
17D0E
  5
17D0E
331
17D0F
  5
17D0F
331
17D10
  5
17D10
331
1831E
  5
1831E
  0
LAYOUT
  5
22
102
{ACAD_REACTORS
330
1A
102
}
330
1A
100
AcDbPlotSettings
  1

  2
SII LP-2150 (D-SCAN C2)
  4
User262
  6
AM_VIEW1
 40
3.174999952316284
 41
3.174999952316284
 42
3.17498779296875
 43
3.17498779296875
 44
296.9259948730469
 45
419.9889831542969
 46
0.0
 47
0.0
 48
0.0
 49
0.0
140
420.0
141
297.0
142
1.0
143
1.022107788374329
 70
 11952
 72
     1
 73
     1
 74
     4
  7
sei_cad.ctb
 75
     0
147
0.9783703943695685
148
0.0
149
0.0
100
AcDbLayout
  1
Model
 70
     1
 71
     0
 10
0.0
 20
0.0
 11
12.0
 21
9.0
 12
0.0
 22
0.0
 32
0.0
 14
0.0
 24
0.0
 34
0.0
 15
0.0
 25
0.0
 35
0.0
146
0.0
 13
0.0
 23
0.0
 33
0.0
 16
1.0
 26
0.0
 36
0.0
 17
0.0
 27
1.0
 37
0.0
 76
     0
330
1F
  0
LAYOUT
  5
1E
102
{ACAD_REACTORS
330
1A
102
}
330
1A
100
AcDbPlotSettings
  1

  2
Canon LASER SHOT LBP-2030
  4

  6

 40
0.0
 41
0.0
 42
0.0
 43
0.0
 44
0.0
 45
0.0
 46
0.0
 47
0.0
 48
0.0
 49
0.0
140
0.0
141
0.0
142
1.0
143
1.0
 70
   688
 72
     0
 73
     0
 74
     5
  7
sei_cad.ctb
 75
    16
147
1.0
148
0.0
149
0.0
100
AcDbLayout
  1
ﾚｲｱｳﾄ1
 70
     1
 71
     1
 10
0.0
 20
0.0
 11
420.0
 21
297.0
 12
0.0
 22
0.0
 32
0.0
 14
1.000000000000000E+20
 24
1.000000000000000E+20
 34
1.000000000000000E+20
 15
-1.000000000000000E+20
 25
-1.000000000000000E+20
 35
-1.000000000000000E+20
146
0.0
 13
0.0
 23
0.0
 33
0.0
 16
1.0
 26
0.0
 36
0.0
 17
0.0
 27
1.0
 37
0.0
 76
     0
330
1B
  0
LAYOUT
  5
26
102
{ACAD_REACTORS
330
1A
102
}
330
1A
100
AcDbPlotSettings
  1

  2
Canon LASER SHOT LBP-2030
  4

  6

 40
0.0
 41
0.0
 42
0.0
 43
0.0
 44
0.0
 45
0.0
 46
0.0
 47
0.0
 48
0.0
 49
0.0
140
0.0
141
0.0
142
1.0
143
1.0
 70
   688
 72
     0
 73
     0
 74
     5
  7
sei_cad.ctb
 75
    16
147
1.0
148
0.0
149
0.0
100
AcDbLayout
  1
ﾚｲｱｳﾄ2
 70
     1
 71
     2
 10
0.0
 20
0.0
 11
12.0
 21
9.0
 12
0.0
 22
0.0
 32
0.0
 14
0.0
 24
0.0
 34
0.0
 15
0.0
 25
0.0
 35
0.0
146
0.0
 13
0.0
 23
0.0
 33
0.0
 16
1.0
 26
0.0
 36
0.0
 17
0.0
 27
1.0
 37
0.0
 76
     0
330
23
  0
MLINESTYLE
  5
18
102
{ACAD_REACTORS
330
17
102
}
330
17
100
AcDbMlineStyle
  2
STANDARD
 70
     0
  3

 62
   256
 51
90.0
 52
90.0
 71
     2
 49
0.5
 62
   256
  6
BYLAYER
 49
-0.5
 62
   256
  6
BYLAYER
  0
ACDBPLACEHOLDER
  5
F
102
{ACAD_REACTORS
330
E
102
}
330
E
  0
TABLESTYLE
  5
1839D
102
{ACAD_REACTORS
330
1839C
102
}
330
1839C
100
AcDbTableStyle
  3
Standard
 70
     0
 71
     8
 40
1.5
 41
1.5
280
     0
281
     0
  7
STANDARD
140
4.5
170
     2
 62
     0
 63
     7
283
     0
274
    -2
284
     1
 64
     0
275
    -2
285
     1
 65
     0
276
    -2
286
     1
 66
     0
277
    -2
287
     1
 67
     0
278
    -2
288
     1
 68
     0
279
    -2
289
     1
 69
     0
  7
STANDARD
140
6.0
170
     5
 62
     0
 63
     7
283
     0
274
    -2
284
     1
 64
     0
275
    -2
285
     1
 65
     0
276
    -2
286
     1
 66
     0
277
    -2
287
     1
 67
     0
278
    -2
288
     1
 68
     0
279
    -2
289
     1
 69
     0
  7
STANDARD
140
4.5
170
     5
 62
     0
 63
     7
283
     0
274
    -2
284
     1
 64
     0
275
    -2
285
     1
 65
     0
276
    -2
286
     1
 66
     0
277
    -2
287
     1
 67
     0
278
    -2
288
     1
 68
     0
279
    -2
289
     1
 69
     0
  0
XRECORD
  5
18FB8
102
{ACAD_REACTORS
330
18FB7
102
}
330
18FB7
100
AcDbXrecord
280
     1
340
1839B
  0
XRECORD
  5
18FB9
102
{ACAD_REACTORS
330
18FB7
102
}
330
18FB7
100
AcDbXrecord
280
     1
340
1839A
  0
DICTIONARYVAR
  5
18425
102
{ACAD_REACTORS
330
30
102
}
330
30
100
DictionaryVariables
280
     0
  1
STANDARD
  0
DICTIONARYVAR
  5
18FB6
102
{ACAD_REACTORS
330
30
102
}
330
30
100
DictionaryVariables
280
     0
  1
0
  0
DICTIONARYVAR
  5
18FB5
102
{ACAD_REACTORS
330
30
102
}
330
30
100
DictionaryVariables
280
     0
  1
1
  0
ACAD_PROXY_OBJECT
  5
4E
102
{ACAD_REACTORS
330
4D
102
}
330
4D
100
AcDbProxyObject
 90
      499
 91
      520
 95
       25
 70
     0
 93
      118
310
405010040CA904C415CD5B075DD0C8
350
4F
 94
        0
  0
DICTIONARY
  5
17E
102
{ACAD_REACTORS
330
4D
102
}
330
4D
100
AcDbDictionary
281
     1
  3
JIS
350
17F
  0
XRECORD
  5
183F7
102
{ACAD_REACTORS
330
4D
102
}
330
4D
100
AcDbXrecord
280
     1
 90
-1023410169
  0
ACAD_PROXY_OBJECT
  5
33
330
2E
100
AcDbProxyObject
 90
      499
 91
      508
 95
       25
 70
     0
 93
      156
310
00010143D050D351505391D5531054925390D490
330
2E
 94
        0
  0
ACAD_PROXY_OBJECT
  5
34
330
2E
100
AcDbProxyObject
 90
      499
 91
      508
 95
       25
 70
     0
 93
      148
310
000101439050D351531253915054925390D490
330
2E
 94
        0
  0
ACAD_PROXY_OBJECT
  5
35
330
2E
100
AcDbProxyObject
 90
      499
 91
      509
 95
       25
 70
     0
 93
      156
310
000101439050D35154D6535093D314D256915080
330
2E
 94
        0
  0
ACAD_PROXY_OBJECT
  5
37
330
2E
100
AcDbProxyObject
 90
      499
 91
      511
 95
       25
 70
     0
 93
       88
310
000101411093D34C402B00
330
2E
330
0
330
0
 94
        0
  0
ACAD_PROXY_OBJECT
  5
6B
330
2E
100
AcDbProxyObject
 90
      499
 91
      509
 95
       25
 70
     0
 93
      108
310
00010142505351D153D35054D4E0
330
2E
 94
        0
  0
ACAD_PROXY_OBJECT
  5
6C
330
2E
100
AcDbProxyObject
 90
      499
 91
      522
 95
       25
 70
     0
 93
      140
310
00010142105350D55494D511005034A49530
330
2E
 94
        0
  0
ACAD_PROXY_OBJECT
  5
183AF
330
2E
100
AcDbProxyObject
 90
      499
 91
      536
 95
       25
 70
     0
 93
      358
310
0001014124FEA55D00507392E322E302E32014124FEA55D00507392E322E302E3240501000041505391D311658
330
2E
330
183B0
330
183B6
 94
        0
  0
ACAD_PROXY_OBJECT
  5
183B0
330
2E
100
AcDbProxyObject
 90
      499
 91
      537
 95
       25
 70
     0
 93
       56
310
000190240E0000
330
2E
330
183B1
330
183B3
 94
        0
  0
ACAD_PROXY_OBJECT
  5
183B1
330
2E
100
AcDbProxyObject
 90
      499
 91
      538
 95
       25
 70
     0
 93
       48
310
0001AA000000
330
2E
330
1E
330
183B2
330
0
 94
        0
  0
ACAD_PROXY_OBJECT
  5
183B2
330
2E
100
AcDbProxyObject
 90
      499
 91
      539
 95
       25
 70
     0
 93
       28
310
0001AAA0
330
2E
 94
        0
  0
ACAD_PROXY_OBJECT
  5
183B3
330
2E
100
AcDbProxyObject
 90
      499
 91
      538
 95
       25
 70
     0
 93
       48
310
0001AA000000
330
2E
330
26
330
183B4
330
0
 94
        0
  0
ACAD_PROXY_OBJECT
  5
183B4
330
2E
100
AcDbProxyObject
 90
      499
 91
      539
 95
       25
 70
     0
 93
       28
310
0001AAA0
330
2E
 94
        0
  0
ACAD_PROXY_OBJECT
  5
183B7
330
2E
100
AcDbProxyObject
 90
      499
 91
      509
 95
       25
 70
     0
 93
      108
310
000101421053521310D05310D010
330
2E
 94
        0
  0
ACAD_PROXY_OBJECT
  5
183B8
330
2E
100
AcDbProxyObject
 90
      499
 91
      509
 95
       25
 70
     0
 93
      124
310
00010142905354915554D15112535010
330
2E
 94
        0
  0
ACAD_PROXY_OBJECT
  5
183B9
330
2E
100
AcDbProxyObject
 90
      499
 91
      509
 95
       25
 70
     0
 93
      132
310
00010143105354D150D51253D391125360
330
2E
 94
        0
  0
ACAD_PROXY_OBJECT
  5
183BA
330
2E
100
AcDbProxyObject
 90
      499
 91
      509
 95
       25
 70
     0
 93
      124
310
00010142905355941093D49111549010
330
2E
 94
        0
  0
ACAD_PROXY_OBJECT
  5
183BB
330
2E
100
AcDbProxyObject
 90
      499
 91
      509
 95
       25
 70
     0
 93
      116
310
0001014290535115D1D0D3D313D4A0
330
2E
 94
        0
  0
ACAD_PROXY_OBJECT
  5
183BC
330
2E
100
AcDbProxyObject
 90
      499
 91
      509
 95
       25
 70
     0
 93
      148
310
00010143505355925155D49151949154D21010
330
2E
 94
        0
  0
ACAD_PROXY_OBJECT
  5
183BD
330
2E
100
AcDbProxyObject
 90
      499
 91
      509
 95
       25
 70
     0
 93
      172
310
00010144105350539393D51154149154D15495915010
330
2E
 94
        0
  0
ACAD_PROXY_OBJECT
  5
183BE
330
2E
100
AcDbProxyObject
 90
      499
 91
      509
 95
       25
 70
     0
 93
      172
310
00010144105350555513D11253505494905391D15010
330
2E
 94
        0
  0
ACAD_PROXY_OBJECT
  5
183BF
330
2E
100
AcDbProxyObject
 90
      499
 91
      509
 95
       25
 70
     0
 93
      124
310
00010142D05351561514915191125360
330
2E
 94
        0
  0
ACAD_PROXY_OBJECT
  5
183C0
330
2E
100
AcDbProxyObject
 90
      499
 91
      509
 95
       25
 70
     0
 93
      132
310
00010142D05355105410539393D5115010
330
2E
 94
        0
  0
ACAD_PROXY_OBJECT
  5
183C1
330
2E
100
AcDbProxyObject
 90
      499
 91
      509
 95
       25
 70
     0
 93
      108
310
00010142105350555513D0D31010
330
2E
 94
        0
  0
ACAD_PROXY_OBJECT
  5
183C2
330
2E
100
AcDbProxyObject
 90
      499
 91
      509
 95
       25
 70
     0
 93
      108
310
00010142105350D3119150551050
330
2E
 94
        0
  0
ACAD_PROXY_OBJECT
  5
183C3
330
2E
100
AcDbProxyObject
 90
      499
 91
      509
 95
       25
 70
     0
 93
      108
310
00010142105350D315925155D3F0
330
2E
 94
        0
  0
ACAD_PROXY_OBJECT
  5
183C4
330
2E
100
AcDbProxyObject
 90
      499
 91
      509
 95
       25
 70
     0
 93
      148
310
0001014350535212511156915493D112535010
330
2E
 94
        0
  0
ACAD_PROXY_OBJECT
  5
183C5
330
2E
100
AcDbProxyObject
 90
      499
 91
      509
 95
       25
 70
     0
 93
      124
310
00010142905352105510D21254D3D010
330
2E
 94
        0
  0
ACAD_PROXY_OBJECT
  5
183C6
330
2E
100
AcDbProxyObject
 90
      499
 91
      509
 95
       25
 70
     0
 93
      148
310
00010143905354D25391D31152105513105660
330
2E
 94
        0
  0
ACAD_PROXY_OBJECT
  5
183C7
330
2E
100
AcDbProxyObject
 90
      499
 91
      509
 95
       25
 70
     0
 93
      124
310
00010142D0535115D1D193111254D420
330
2E
 94
        0
  0
ACAD_PROXY_OBJECT
  5
183C8
330
2E
100
AcDbProxyObject
 90
      499
 91
      509
 95
       25
 70
     0
 93
      100
310
00010142105350555513D213A0
330
2E
 94
        0
  0
ACAD_PROXY_OBJECT
  5
183C9
330
2E
100
AcDbProxyObject
 90
      499
 91
      509
 95
       25
 70
     0
 93
      116
310
000101425053521390D3D553951010
330
2E
 94
        0
  0
ACAD_PROXY_OBJECT
  5
183CA
330
2E
100
AcDbProxyObject
 90
      499
 91
      509
 95
       25
 70
     0
 93
      108
310
0001014210535213941493D29010
330
2E
 94
        0
  0
ACAD_PROXY_OBJECT
  5
183CB
330
2E
100
AcDbProxyObject
 90
      499
 91
      509
 95
       25
 70
     0
 93
      108
310
0001014210535213951654115070
330
2E
 94
        0
  0
ACAD_PROXY_OBJECT
  5
183CC
330
2E
100
AcDbProxyObject
 90
      499
 91
      509
 95
       25
 70
     0
 93
      108
310
000101421053521395925155D0F0
330
2E
 94
        0
  0
ACAD_PROXY_OBJECT
  5
183CD
330
2E
100
AcDbProxyObject
 90
      499
 91
      509
 95
       25
 70
     0
 93
      140
310
00010143505354D150D51253D390D3D41660
330
2E
 94
        0
  0
ACAD_PROXY_OBJECT
  5
183CE
330
2E
100
AcDbProxyObject
 90
      499
 91
      509
 95
       25
 70
     0
 93
      108
310
00010142105350D3141493D29030
330
2E
 94
        0
  0
ACAD_PROXY_OBJECT
  5
183CF
330
2E
100
AcDbProxyObject
 90
      499
 91
      508
 95
       25
 70
     0
 93
      212
310
00010143905350555513D2105510D21493D500000000000002E400
330
2E
 94
        0
  0
ACAD_PROXY_OBJECT
  5
183D0
330
2E
100
AcDbProxyObject
 90
      499
 91
      509
 95
       25
 70
     0
 93
      156
310
00010143905350555513D2105510D21111551010
330
2E
 94
        0
  0
ACAD_PROXY_OBJECT
  5
183DC
330
2E
100
AcDbProxyObject
 90
      499
 91
      547
 95
       25
 70
     0
 93
      698
310
0001000000009AA6A9AA4051E4D6F6E204665622030362030383A31303A323720323030362028555443290141CE4B8C8B8C0B8C80518547565204F63742031322031343A32343A313920323031300141CE4B8C8B8C0B8C80
330
2E
330
183DD
330
183DE
330
183E0
330
0
 94
        0
  0
ACAD_PROXY_OBJECT
  5
183DD
330
2E
100
AcDbProxyObject
 90
      499
 91
      548
 95
       25
 70
     0
 93
       70
310
0001AAA80820000000
330
2E
330
183DD
330
183DD
 94
        0
  0
ACAD_PROXY_OBJECT
  5
183DE
330
2E
100
AcDbProxyObject
 90
      499
 91
      549
 95
       25
 70
     0
 93
       48
310
000100000000
330
2E
330
0
330
183DF
330
0
330
0
 94
        0
  0
ACAD_PROXY_OBJECT
  5
183DF
330
2E
100
AcDbProxyObject
 90
      499
 91
      550
 95
       25
 70
     0
 93
       40
310
000100AAAA
330
2E
330
0
 94
        0
  0
ACAD_PROXY_OBJECT
  5
183E5
330
2E
100
AcDbProxyObject
 90
      499
 91
      522
 95
       25
 70
     0
 93
      180
310
00010143105050D3D35411119390535140504434F4D500
330
2E
 94
        0
  0
ACAD_PROXY_OBJECT
  5
183E6
330
2E
100
AcDbProxyObject
 90
      499
 91
      522
 95
       25
 70
     0
 93
      212
310
0001014390505193D311115491119390535140506466F6C6465720
330
2E
 94
        0
  0
ACAD_PROXY_OBJECT
  5
183E7
330
2E
100
AcDbProxyObject
 90
      499
 91
      522
 95
       25
 70
     0
 93
      180
310
00010143105050539393D1119390535140504284156290
330
2E
 94
        0
  0
ACAD_PROXY_OBJECT
  5
183E8
330
2E
100
AcDbProxyObject
 90
      499
 91
      522
 95
       25
 70
     0
 93
      436
310
00010143905050D3D35415925155D31254D50052295BD96CA0A90B396CA0A894591A496CA0A8DB691A496CA0A89BA96CA0A95E28F95310
330
2E
 94
        0
  0
ACAD_PROXY_OBJECT
  5
183ED
330
2E
100
AcDbProxyObject
 90
      499
 91
      555
 95
       25
 70
     0
 93
       32
310
00010000
330
2E
340
183EA
330
183EF
330
183EA
 94
        0
  0
ACAD_PROXY_OBJECT
  5
183EE
330
2E
100
AcDbProxyObject
 90
      499
 91
      556
 95
       25
 70
     0
 93
       18
310
000180
330
2E
 94
        0
  0
ACAD_PROXY_OBJECT
  5
183EF
330
2E
100
AcDbProxyObject
 90
      499
 91
      557
 95
       25
 70
     0
 93
      178
310
00010142D61094150B4C8C4C948C4D1050055401550000
330
2E
330
183ED
330
183EE
 94
        0
  0
ACAD_PROXY_OBJECT
  5
183F0
330
2E
100
AcDbProxyObject
 90
      499
 91
      558
 95
       25
 70
     0
 93
      178
310
000100AAAAAA944FB9B503ED9990268AF9FDB79ABFD280
330
2E
330
183EF
 94
        0
  0
ACAD_PROXY_OBJECT
  5
183F1
330
2E
100
AcDbProxyObject
 90
      499
 91
      559
 95
       25
 70
     0
 93
      108
310
000190140A000000000000AAAAA0
330
2E
330
183F2
330
183F2
330
183F2
330
183F2
330
183F2
330
0
 94
        0
  0
ACAD_PROXY_OBJECT
  5
183F2
330
2E
100
AcDbProxyObject
 90
      499
 91
      560
 95
       25
 70
     0
 93
       51
310
00010000AAAA80
330
2E
330
183F1
330
183EF
 94
        0
  0
DICTIONARY
  5
40
102
{ACAD_REACTORS
330
3F
102
}
330
3F
100
AcDbDictionary
281
     1
  3
DWGSETTINGS
350
41
  3
FEM
350
69
  3
Shaft
350
56
  3
TRANSSETTINGS
350
4C
  0
ACAD_PROXY_OBJECT
  5
42
102
{ACAD_REACTORS
330
3F
102
}
330
3F
100
AcDbProxyObject
 90
      499
 91
      519
 95
       25
 70
     0
 93
    23232
310
41502491013041105357CC201C00030C011E441013141105357CC603800030C011E441013241105357CCA01400030C011E441013341105357CCE01800030C010D9013441105357CD200C00030C010D9013541105357CD600C00030C010D9013641105357CDA00800030C011E9013741105357CDE01000030C010D901384110
310
5357CE200400030C011E9013941105357CE63F400030C0241102324141505357CC4C201C00030C011E902344141505357CC4C600C00030C010D902495041505357CC4CA01C00030C011E40902304E41505357CC13A01C00030C011E902314E41505357CC53A03800030C011E902324E41505357CC93A01400030C011E90233
310
4E41505357CCD3A01800030C010D902344E41505357CD13A00C00030C010D902354E41505357CD53A00C00030C010D902364E41505357CD93A00800030C011E902374E41505357CDD3A01000030C010D902384E41505357CE13A00400030C011E902394E41505357CE53A3F400030C024110332414E41905357CC4C13A01C0
310
0030C011E90334414E41905357CC4C53A00C00030C010D90349504E41905357CC4C93A01C00030C011E409044B4C494E41505357D0D3200400030C011E42504494E464F42105357D410549151A01000030C010D42D055241484D3541905357D093D4A01C00030C011E425045649455742105357D5925155D4E00400030C011
310
E42D06424548494E4441905357D25395A3F400030C0243505545241494C41505357D514A00C00030C010D4250348494441905357D21251201C00030C011E4250356495341905357D59254E01C00030C011E4250650415244494D42505357D41054911253600C00030C010D4250652454644494D42505357D49151911253601
310
000030C010D425774110531514901348070000C300479034110915312501348000000C0003FFFFFFFD034110921395901398000000C0003FFFFFFFE415092139594D06424548494E448000000C0003FFFFFFFE411093125110234418000000C0003FFFFFFFD03411093D05410234418000000C0003FFFFFFFD03411093D48C
310
9055241484D358010000C30047A411093D48CD055241484D358020000C30047A411093D48D5055241484D358000000C0003FFFFFFFE411093D48DD055241484D3581E0000C30047903411094105410234418000000C0003FFFFFFFD03411094115610234418000000C0003FFFFFFFD034110951112501358000000C0003FFF
310
FFFFD034110D0530C901348000000C0003FFFFFFFE4110D0530CD01348020000C30047A4110D0530D501348070000C30047A4110D0530DD013481E0000C30047A4110D15393901378000000C0003FFFFFFFE4110D15395D01378000000C0003FFFFFFFE4110D312539044B4C494E8000000C0003FFFFFFFE4110D3D38C5013
310
08000000C0003FFFFFFFD034110D3D38C901318000000C0003FFFFFFFD034110D3D38CD01328000000C0003FFFFFFFD034110D3D38D101328000000C0003FFFFFFFD034111115494101348000000C0003FFFFFFFD034111115510501348000000C0003FFFFFFFE4111125051D01358000000C0003FFFFFFFE4111125312501
310
358000000C0003FFFFFFFE411112535410650415244494D8000000C0003FFFFFFFE411112535490652454644494D8000000C0003FFFFFFFE411156135410234418000000C0003FFFFFFFD034111915353901388000000C0003FFFFFFFE415191535413901388030000C3004364151915354D410234418000000C0003FFFFFF
310
FE4151915354D510234418030000C300436415191535593901328000000C0003FFFFFFFE415191535595101328030000C3004364111931055101308000000C0003FFFFFFFD03411194905490234418000000C0003FFFFFFFD034111D49312501358000000C0003FFFFFFFD034111D5931250234418000000C0003FFFFFFFD0
310
34112105510D01388000000C0003FFFFFFFD014112125113901338000000C0003FFFFFFFD034112125115D01338000000C0003FFFFFFFD034112131253901348000000C0003FFFFFFFD01411213D0D3901378000000C0003FFFFFFFE411213D0D5D01378000000C0003FFFFFFFE4112539193D04494E464F8000000C0003FF
310
FFFFFE4113105112501348000000C0003FFFFFFFD034113115051101358000000C0003FFFFFFFE419397D0921395902394E8000000C0003FFFFFFFE419397D0D3D38C502304E8000000C0003FFFFFFFD03419397D0D3D38C902314E8000000C0003FFFFFFFD03419397D0D3D38CD02324E8000000C0003FFFFFFFD03419397
310
D0D3D38D102324E8000000C0003FFFFFFFD03419397D0D15393902374E8000000C0003FFFFFFFE419397D0D15395D02374E8000000C0003FFFFFFFE419397D1125312502354E8000000C0003FFFFFFFE419397D2105510D02384E8000000C0003FFFFFFFD01419397D2125113902334E8000000C0003FFFFFFFD03419397D2
310
125115D02334E8000000C0003FFFFFFFD03419397D3115051102354E8000000C0003FFFFFFFE419397D391D25410349504E8000000C0003FFFFFFFE419397D412105390334414E8000000C0003FFFFFFFE419397D510D3D3902304E8000000C0003FFFFFFFD03419397D5121312502344E8000000C0003FFFFFFFD01419397
310
D5131153902304E8000000C0003FFFFFFFD03419397D516150CD02364E8000000C0003FFFFFFFD03419397D594131250332414E8000000C0003FFFFFFFE411391D25410249508000000C0003FFFFFFFE411410530C9055241484D358010000C30047A411410530CD055241484D358020000C30047A411410530D5055241484
310
D358000000C0003FFFFFFFE411410530DD055241484D3581E0000C30047903411412105390234418000000C0003FFFFFFFE411413D4D3901368070000C30047A419413D4D49151901368050000C30047903411413D4D6101368000000C0003FFFFFFFD03411414D150D0234418000000C0003FFFFFFFD03411490D1D390137
310
8000000C0003FFFFFFFE411490D1D5D01378000000C0003FFFFFFFE4114919112501348000000C0003FFFFFFFD034114945514901348070000C30047903411494D093D01348000000C0003FFFFFFFD034114D09492D01348000000C0003FFFFFFFD014114D0D153901378000000C0003FFFFFFFD034114D150D51013480000
310
00C0003FFFFFFFD014114D15313901378000000C0003FFFFFFFD034114D15315D01378000000C0003FFFFFFFD034114D4D654D01308000000C0003FFFFFFFD034114D51312501348070000C300479034114D6508C501358000000C0003FFFFFFFD034114D6508C901358000000C0003FFFFFFFD034114D6508CD0135802000
310
0C30047A4114D6508D501358070000C300479034114D65353901378000000C0003FFFFFFFD034114D65355D01378000000C0003FFFFFFFD03411510D3D3901308000000C0003FFFFFFFD034115121312501348000000C0003FFFFFFFD01411512550C9055241484D358010000C30047A411512550CD055241484D358020000
310
C30047A411512550D5055241484D358000000C0003FFFFFFFE411512550DD055241484D3581E0000C300479034115131153901308000000C0003FFFFFFFD03415514905253105545241494C8000000C0003FFFFFFFE41151492D3901378000000C0003FFFFFFFD0341151492D5D01378000000C0003FFFFFFFD03411514931
310
2501348000000C0003FFFFFFFD01411516150C501368030000C300436411516150C901368030000C300436411516150CD01368000000C0003FFFFFFFE411516150D501368070000C30047A411516150DD013681E0000C30047A4115925155D04564945578000000C0003FFFFFFFE41159151121034849448000000C0003FFF
310
FFFFD0241159151159035649538000000C0003FFFFFFFD02411594131250232418000000C0003FFFFFFFE4116925690501348000000C0003FFFFFFFD01411354D653501358020000C30047AAAA3F400030C01013F90A4051E4091E40D0D4110D4151E4190D41D1E4391E4791E7F6
340
16
340
16
340
16
340
43
340
16
340
16
340
16
340
44
340
16
340
16
340
44
340
45
340
16
340
16
340
16
340
16
340
43
340
16
340
16
340
16
340
44
340
16
340
16
340
44
340
45
340
16
340
46
340
16
340
16
340
16
340
16
340
16
340
43
340
16
340
16
340
16
340
47
340
15
340
15
340
15
340
15
340
15
340
15
340
15
340
15
340
15
340
15
340
15
340
15
340
15
340
15
340
15
340
15
340
48
340
15
340
15
340
15
340
15
340
15
340
15
340
15
340
15
340
15
340
15
340
15
340
15
340
15
340
15
340
15
340
16
340
15
340
15
340
15
340
15
340
15
340
15
340
15
340
15
340
47
340
15
340
15
340
48
340
15
340
15
340
15
340
15
340
15
340
15
340
15
340
15
340
15
340
48
340
15
340
15
340
15
340
47
340
15
340
15
340
15
340
15
340
15
340
15
340
15
340
15
340
15
340
15
340
15
340
15
340
15
340
15
340
15
340
15
340
15
340
15
340
15
340
48
340
15
340
15
340
48
340
15
340
15
340
16
340
15
340
48
340
15
340
15
340
47
340
15
340
15
340
16
340
15
340
48
340
15
340
15
340
15
340
15
340
15
340
15
340
15
340
15
340
15
340
48
340
15
340
15
340
15
340
15
340
15
340
15
340
15
340
15
340
15
340
15
340
15
340
4B
340
16
 94
        0
  0
ACAD_PROXY_OBJECT
  5
62F
102
{ACAD_REACTORS
330
73
102
}
330
73
100
AcDbProxyObject
 90
      499
 91
      523
 95
       25
 70
     0
 93
      253
310
43D1444494D454E53494F4E2C414D44545F2A5F44494D404A9012A404A9012A0
  0
ACAD_PROXY_OBJECT
  5
630
102
{ACAD_REACTORS
330
73
102
}
330
73
100
AcDbProxyObject
 90
      499
 91
      523
 95
       25
 70
     0
 93
      181
310
43D012A42D05357D191504B505357CA9012A404A9012A8
  0
ACAD_PROXY_OBJECT
  5
631
102
{ACAD_REACTORS
330
73
102
}
330
73
100
AcDbProxyObject
 90
      499
 91
      523
 95
       25
 70
     0
 93
      133
310
43D054841544348404A9012A404A9012A8
  0
ACAD_PROXY_OBJECT
  5
632
102
{ACAD_REACTORS
330
73
102
}
330
73
100
AcDbProxyObject
 90
      499
 91
      523
 95
       25
 70
     0
 93
      549
310
43D044C494E4549CE0B0E138B0A8B4E0B0A8B4E138B105357CE0B105357CE138B0A8B505357CE0B0A8B505357CE139012A404A910494E534552542C5354445041525432448
  0
ACAD_PROXY_OBJECT
  5
633
102
{ACAD_REACTORS
330
73
102
}
330
73
100
AcDbProxyObject
 90
      499
 91
      523
 95
       25
 70
     0
 93
      909
310
43D6641434D46434652414D452C41434D444154554D5441524745542C41434D444154554D49442C41434D57454C4453594D2C41434D5355524653594D2C41434D4645415449442C41434D504152545245462C41434D42414C4C4F4F4E2C414D44544544474553594D404A9012A404A9012A8
  0
XRECORD
  5
184E6
102
{ACAD_REACTORS
330
184E4
102
}
330
184E4
100
AcDbXrecord
280
     1
330
0
330
0
330
0
330
0
330
0
330
0
330
0
330
0
330
0
330
0
330
0
330
0
330
0
330
0
330
0
330
0
330
0
330
0
330
0
330
0
330
0
330
0
330
0
330
0
330
0
330
0
330
0
330
0
330
0
330
0
330
0
330
0
330
0
330
0
330
0
330
0
330
0
330
0
330
0
330
0
330
0
330
0
330
0
330
0
330
0
330
0
330
0
330
0
330
0
330
0
330
0
330
0
330
0
330
0
330
0
330
0
330
0
330
0
330
0
330
0
330
0
330
0
330
0
330
0
330
0
330
0
330
0
330
0
330
0
330
0
330
0
330
0
330
0
330
0
330
0
  0
XRECORD
  5
2A41
102
{ACAD_REACTORS
330
2A40
102
}
330
2A40
100
AcDbXrecord
280
     1
  1
LINE
  0

  0
XRECORD
  5
2917
102
{ACAD_REACTORS
330
2916
102
}
330
2916
100
AcDbXrecord
280
     1
  1
25000259__00___
  0

  0
XRECORD
  5
2A3F
102
{ACAD_REACTORS
330
2A3E
102
}
330
2A3E
100
AcDbXrecord
280
     1
  1
110 ^M^J ^M^J ^M^J ^M^J ^M^J ^M^J ^M^J ^M^J ^M^J ^M^J ^M^Jボーリングクイル ^M^J鋼 ^M^J特型 ^M^J直付け ^M^Jストレート ^M^J25 ^M^J2 ^M^J ^M^Jアルミ ^M^J ^M^J
  0

  0
XRECORD
  5
168A
102
{ACAD_REACTORS
330
1688
102
}
330
1688
100
AcDbXrecord
280
     1
  1
1,,,,,,,,,^M^J2,,,,,,,,,^M^J3,,,,,,,,,^M^J4,,,,,,,,,^M^J5,,,,,,,,,^M^J6,,,,,,,,,^M^J7,,,,,,,,,^M^J8,,,,,,,,,^M^J9,,,,,,,,,^M^J10,,,,,,,,,
  0

  0
XRECORD
  5
1689
102
{ACAD_REACTORS
330
1688
102
}
330
1688
100
AcDbXrecord
280
     1
  1
10,10
  0

  0
XRECORD
  5
2919
102
{ACAD_REACTORS
330
2918
102
}
330
2918
100
AcDbXrecord
280
     1
  1
3
  0

  0
ACAD_PROXY_OBJECT
  5
4F
102
{ACAD_REACTORS
330
4E
102
}
330
4E
100
AcDbProxyObject
 90
      499
 91
      521
 95
       25
 70
     0
 93
      157
310
057356C1D77406406AA8FFFFFFFF05DD01009010
330
1F
330
0
330
183EF
 94
        0
  0
ACAD_PROXY_OBJECT
  5
17F
102
{ACAD_REACTORS
330
17E
102
}
330
17E
100
AcDbProxyObject
 90
      499
 91
      526
 95
       25
 70
     0
 93
     2379
310
5DC33333333333309408000000C00040D29254D01640600800030C0200800030C003333333333330940C8121E8720B1B6A9BAB9332A32BC3A29BA3220480A1282C6DA8C868CA6E8C88120286A0B1B6ABB2B63234B733A9BA3220480A1082C6DA92C8A6E8C88120285A0B1B6A230BA3AB6A9BA3220480A1282C6DA849E9AA6E
310
8C88120286A0B1A0B6B3AA34BA3632A9BA3220480A2082DAC8E888CAE8C2D2D8A6F2DAA6E8C88120288A0B6B23A29B2B1BA34B7B729BCB6A9BA3220480A2282DAC8E886CADCE8CAE498D2DCCAA6E8C88120288A0B6B23A2A343932B0B22634B732A9BA3220480A1682DAC8E89CDEE8CAA6E8C88120285A0B1A0B6B3A630BCA
310
9BA3220480A1682C682DACE88D2DAA6E8C88120288A0B1A0B6B3A437B632A1B430B93A29BA3220480C812020
340
180
360
181
360
182
360
183
360
184
360
185
360
186
360
183F4
360
183F5
360
183F6
360
183F8
360
183F9
360
183FA
360
18400
360
18401
360
18402
340
0
340
0
 94
        0
  0
ACAD_PROXY_OBJECT
  5
41
102
{ACAD_REACTORS
330
40
102
}
330
40
100
AcDbProxyObject
 90
      499
 91
      518
 95
       25
 70
     0
 93
     2954
310
4050B44574753455454494E4753A0E8482A68AA6A88882A069492A684A1A0A723A0A92920ACA0A81169AA0C868A9C829C8E82A12686AF87260F862666A8321A2A72224A0A50000000000000122020E868A9C889282A682A106260F86460F8666083A1A2A72224A9AA250000000000000042020C868A9C988A9C94000000000
310
000048808321A2A727A323250000000000000122020E868A9C9E8C8C62940000000000000488083A1A2A727A32319250000000000000122021CC6D0C2DACCCAE4C8D2DADADEC8CA9FC84A1A624A720A92920ACA0A81989A982108698929C8AA8B2A082A0AB098929C8A84A22BA3AAA9A1A0A622A50A0E9882A6A89E849482A
310
02608426A0A5A2AB24A2ABA7E8120CA0A68682988A0C00800010652455649534941501304154D0D0531150540CC4E8C5085354414E44415244415034A4953425512535154D510535412837F811909E4ADCD050756455253494F4E4150531352E3030441ED115D1D4D15515125391D4D153911F40
  0
ACAD_PROXY_OBJECT
  5
69
102
{ACAD_REACTORS
330
40
102
}
330
40
100
AcDbProxyObject
 90
      499
 91
      518
 95
       25
 70
     0
 93
      411
310
4050346454D21092DCC6E486DECACC942842630BCA3B937BAB820A8320A6AFA322A0A20F688AE8EA68AA8A8929C8EA68A9C88FA0
  0
ACAD_PROXY_OBJECT
  5
56
102
{ACAD_REACTORS
330
40
102
}
330
40
100
AcDbProxyObject
 90
      499
 91
      518
 95
       25
 70
     0
 93
      583
310
40505536861667421292DCE8CAE4E4EAE0E89FA0484A634B3B43A2634B732A7F21A98D2CED0E898D2DCCAACD2CAEE9FC8229B4B232A7E80A20F688AE8EA68AA8A8929C8EA68A9C88FA
  0
ACAD_PROXY_OBJECT
  5
4C
102
{ACAD_REACTORS
330
40
102
}
330
40
100
AcDbProxyObject
 90
      499
 91
      518
 95
       25
 70
     0
 93
      852
310
4050D5452414E5353455454494E4753A2488A482AE929C8EA8A4829CA69882A8929E9C0C00800050D4F524947494E414C4C595F4F4E0600400028529A7AAA921A2A620A723A0A81A52827212AAA0A48AA68AA4AC8A0C0080001107B44574753455454494E4753454E447D0
  0
ACAD_PROXY_OBJECT
  5
181
330
17F
100
AcDbProxyObject
 90
      499
 91
      527
 95
       25
 70
     0
 93
       86
310
5DEA0C80A0280A0280A034
  0
ACAD_PROXY_OBJECT
  5
182
330
17F
100
AcDbProxyObject
 90
      499
 91
      528
 95
       25
 70
     0
 93
      282
310
5DD0E4050140501405014050140501405014050141101405014041000000000000001000
340
187
 94
        0
  0
ACAD_PROXY_OBJECT
  5
183
330
17F
100
AcDbProxyObject
 90
      499
 91
      529
 95
       25
 70
     0
 93
      323
310
5DCC199999999999E99F91740501405014050140501405014050140501405014050140501405014040
340
0
 94
        0
  0
ACAD_PROXY_OBJECT
  5
184
330
17F
100
AcDbProxyObject
 90
      499
 91
      530
 95
       25
 70
     0
 93
       10
310
5DC0
  0
ACAD_PROXY_OBJECT
  5
185
330
17F
100
AcDbProxyObject
 90
      499
 91
      531
 95
       25
 70
     0
 93
      257
310
5DE0C16A22A7D90F49F80000000000001081400000000000004204010000618000
340
188
340
189
 94
        0
  0
ACAD_PROXY_OBJECT
  5
186
330
17F
100
AcDbProxyObject
 90
      499
 91
      532
 95
       25
 70
     0
 93
     5277
310
5DD06411255115350141236025B6901405014069010000000000000910240690120281A8AA2CA0282484A4BE52028120280A032020000000000001220480D202405044E414D454050496BC914F4051C40640A80000000000004E4090193C3D3C4946284953424C414E4B28504152543A4E414D45292C424C4F434B3A4E414D
310
452C504152543A4E414D45293E3C41435F44455343524950544E3E40480A109A82A88AA492829880A091BBD2F7E80A3A80C81D0E27A15AF46E08A81203480901411393D5115014124A363B7D0147501904A0000000000000F902406428F4F1050D7D393D5114F901202832B22A72227A92028366EF6EE06F582028EA0320B4
310
0000000000001F20480C879E9E20A1AFAB27222FA620A122A61F20240506445020000000000000490201C00030C00010180000000000003E400000000000000F901073D3C4954454D3E4050180000000000003E400000000000000F901073D3C4954454D3E40501800000000000034400000000000000D101073D3C4954454
310
D3E40501800000000000034400000000000000D101073D3C4954454D3E405029010000000000000F9000000000000003E4041CF4F125511534F901418F4F1455164F9014060000000000000F9000000000000003E4041CF4F125511534F901800000000000034400000000000000D101073D3C4954454D3E40640400000000
310
0000003E400000000000000F90288800000000000020810000001800120881A068120480A032208521122080D21480D211480A1485214852050000000000003C2FC000000000000F0BF40600800030C0200400030C00CDCCCCCCCCCCEC3F3373333333333B0FC3333333333330940C80D069014090341504901A1999999999
310
9984A040100006180400800061804010000618008098A02808
340
0
340
0
 94
        0
  0
ACAD_PROXY_OBJECT
  5
183F4
330
17F
100
AcDbProxyObject
 90
      499
 91
      561
 95
       25
 70
     0
 93
     3042
310
5DD9740D29254D064A49535F413342929254D7D512551311505134A49535F42525F5265766973696F6E6C6973744190F4134522028323937783231306D6D2941D29254D7D04D1490E41312028353934783834316D6D2941929254D7D04C50E41332028323937783432306D6D2941929254D7D04CD0F41344C2028323130783
310
239376D6D2941D29254D7D04D1310E41322028343230783539346D6D2941929254D7D04C90F4130202838343178313138396D6D2941929254D7D04C10243129254C82557247A25E4C81050A4A49535F5449544C454143129254C82557247A25E4C81090A4A49535F5449544C45424110E979A97F0838A835883675F42525F4
310
4D29254D7D09497D4995D9A5CDA5BDB9B1A5CDD10E979A97F0838A835883675F54525F44D29254D7D51497D4995D9A5CDA5BDB9B1A5CDD10E979A97F0838A835883675F424C5F44D29254D7D09317D4995D9A5CDA5BDB9B1A5CDD10E979A97F0838A835883675F544C5F44D29254D7D51317D4995D9A5CDA5BDB9B1A5CDD00
  0
ACAD_PROXY_OBJECT
  5
183F5
330
17F
100
AcDbProxyObject
 90
      499
 91
      562
 95
       25
 70
     0
 93
      898
310
5DC4000000000000124048CF4F11115510525317D3105091530F880A0F11115510525317D05094D4D0D053114F8A50241C9A9999999999B93F26A666666666724FC000000000000E03F400000000000000400000000000000510000000000000024408070000C300000000000000049000
340
16
340
180
 94
        0
  0
ACAD_PROXY_OBJECT
  5
183F6
330
17F
100
AcDbProxyObject
 90
      499
 91
      563
 95
       25
 70
     0
 93
      823
310
5DC0B00000000000002480959E9E29A2A1AA24A7A72FA620A122A62FA324A929AA1F169E29A2A1AA24A7A72FA620A122A62FA620A9AA1F000000000000048803FFFE01C00030C008140380006180000000000000048800000000000000A2000000000000002480
340
652
340
180
 94
        0
  0
ACAD_PROXY_OBJECT
  5
183F8
330
17F
100
AcDbProxyObject
 90
      499
 91
      564
 95
       25
 70
     0
 93
      152
310
5DE8273108AC1C5A0640A3D0A5723F0BD1F200
  0
ACAD_PROXY_OBJECT
  5
183F9
330
17F
100
AcDbProxyObject
 90
      499
 91
      565
 95
       25
 70
     0
 93
       14
310
5DE0
340
0
 94
        0
  0
ACAD_PROXY_OBJECT
  5
183FA
330
17F
100
AcDbProxyObject
 90
      499
 91
      566
 95
       25
 70
     0
 93
     6059
310
5DD084050BA4050AA405024050E836583938376838C815B83672031405983D3C486F6C653A6469613E3C696628657175616C28486F6C653A7465726D696E6174696F6E2C223022292C2220905B82B320222C22208368838A838B22293E3C696628657175616C28486F6C653A7465726D696E6174696F6E2C223022292C486F
310
6C653A64657074682C2222293E2C203C486F6C653A63746469613E2082B482AE82E882CC905B82B3203C486F6C653A637464657074683E406901405034050E836583938376838C815B83672031405EF3D3C486F6C653A6374616E676C653E252564202525633C486F6C653A63746469613E208E4D8C8A2C203C69662865717
310
5616C28486F6C653A7461707065642C223022292C22252563222C486F6C653A6E6F6D696E616C202220782022293E3C696628657175616C28486F6C653A7461707065642C223022292C486F6C653A6469612C486F6C653A706974636864657363293E203C696628657175616C28486F6C653A7465726D696E6174696F6E2C2
310
23022292C22905B82B320222C222022293E3C696628657175616C28486F6C653A7465726D696E6174696F6E2C223022292C486F6C653A64657074682C2222293E406901405014050E836583938376838C815B83672031405C73D3C696628657175616C28486F6C653A7461707065642C223022292C22252563222C486F6C65
310
3A6E6F6D696E616C202220782022293E3C696628657175616C28486F6C653A7461707065642C223022292C486F6C653A6469612C486F6C653A706974636864657363293E203C696628657175616C28486F6C653A7465726D696E6174696F6E2C223022292C22905B82B320222C222022293E3C696628657175616C28486F6C
310
653A7465726D696E6174696F6E2C223022292C486F6C653A64657074682C2222293E4069014051E4090E836583938376838C815B83672032405173D3C535444503A444553433E203C535444503A5354443E40690E836583938376838C815B836720314050C3D3C535444503A444553433E40690240515AAABBA120
360
183FE
330
183FE
360
183FF
330
183FF
360
183FD
330
183FD
360
183FC
360
183FB
330
183FC
330
183FB
 94
        0
  0
ACAD_PROXY_OBJECT
  5
18400
330
17F
100
AcDbProxyObject
 90
      499
 91
      568
 95
       25
 70
     0
 93
       26
310
5DD02A80
340
42
 94
        0
  0
ACAD_PROXY_OBJECT
  5
18401
330
17F
100
AcDbProxyObject
 90
      499
 91
      569
 95
       25
 70
     0
 93
      250
310
5DD020000000000000A1000000000000002440408F0F9023C3E409A0DCFFFF80
340
58
340
1B97
340
1B98
340
5F
340
60
340
61
340
62
340
63
340
68
340
0
 94
        0
  0
ACAD_PROXY_OBJECT
  5
18402
330
17F
100
AcDbProxyObject
 90
      499
 91
      570
 95
       25
 70
     0
 93
    13889
310
5DD1D003FFFFFFFD030300030CCCCCCCCCCCC250200800030C01030300030CCCCCCCCCCCC250200800030C00050C8DC0955782CC838A83588367014ED1D15395149050D3CB1294138B0C0B23702555E0B320E2A0D620D9CB11D15395149055160B095CCB0A11D1539354D1C819D95B991A5B5E880CCC0A78000C0000000000
310
00000000000000000000010CCCCCCCCCCCC250200800030C010CCCCCCCCCCCC250200800030C020143CF4F111959985D5B1D151A5D1B194F8050A8C8A8365815B8375838B014E51D15395149050D3CB1294138B0C0B2322A0D96056E0DD60E2CB11D15395149055160B095CCB0A11D1539354D1C819D95B991A5B5E880CCC4
310
A78000C000000000000000000000000000000010CCCCCCCCCCCC250200800030C010CCCCCCCCCCCC250200800030C020143CF4F111959985D5B1D151A5D1B194F90D44111409034110541D0C4350F4050E44D03449074510F000141232D24D7C053247454E545241434F2C4A504E2C302C8CB4935F2C47454E54524154582C
310
25732C2847454E4D53472067656E64696D7A20312900010104002214000281464500A608E8A9CA8A482869E5894A09C5860591914588E8A9CA8A482A8B0584AE658508E8A9C9AA68E40CECADCC8D2DAF4406452029E9E9E27B934B3B4B71F1E24A31427A91424A9A12620A7259427B934B3B4B7149624A9A12620A7259424B
310
A32B6949496111116111711149F1E24BA32B69F00808200111A000140560052F47454E545241434F2C4A504E2C302C582C47454E54524154582C25732C2847454E4D53472067656E64696D7A20332900010100002054000280AC80A5E8E8A9CA8A482869E5894A09C586058B2588E8A9CA8A482A8B0584AE658508E8A9C9AA
310
68E40CECADCC8D2DAF4406852000202000040E800050152014BD1D15395149050D3CB1294138B0C0B148B11D15395149055160B095CCB0A11D1539354D1C819D95B991A5B5E880D8A400040400008250000A0507A6029823A2A72A2920A1A79625282716181641E99623A2A72A2920AA2C1612B9961423A2A726A9A39033B2
310
B73234B6BD101B948000808180105A000140A0F4C053047454E545241434F2C4A504E2C302C83D32C47454E54524154582C25732C2847454E4D53472067656E64696D7A203829000101010020F400028248704B5F00A668E8A9CA8A482869E5894A09C58605921C12D7C588E8A9CA8A482A8B0584AE658508E8A9C9AA68E40
310
CECADCC8D2DAF440646052000200080043280005048B4B8A69014CD1D15395149050D3CB1294138B0C0B22D2E29A4B11D15395149055160B095CCB0A11D1539354D1C819D95B991A5B5E880C8C4A4000400100086D0000A09196926BE029923A2A72A2920A1A796252827161816465A49AF9623A2A72A2920AA2C1612B9961
310
423A2A726A9A39033B2B73234B6BD10189480A02620202080043E80005048D8096DA014CD1D15395149050D3CB1294138B0C0B236025B68B11D15395149055160B095CCB0A11D1539354D1C819D95B991A5B5E880C4D0A4000404140280D0000A190687072706CD06C5069D06B0029DA3A2A72A2920A1A7962528271618164
310
1A1C1C9C1B341B141A741AC1623A2A72A2920AA2C1612B9961423A2A726A9A39033B2B73234B6BD10189A94800080820050EA000143A322A0D0E0E4E0D9A0D8A0D3A0D60053D47454E545241434F2C4A504E2C302C8C8A8343839383668362834E83582C47454E54524154582C25732C2847454E4D53472067656E64696D7A
310
2031372900010105002274000281464500A628E8A9CA8A482869E5894A09C5860591914588E8A9CA8A482A8B0584AE658508E8A9C9AA68E40CECADCC8D2DAF440626C52000202080044A8000504909497CA014CD1D15395149050D3CB1294138B0C0B242525F28B11D15395149055160B095CCB0A11D1539354D1C819D95B9
310
91A5B5E880C4E4A400040418008A521E000000000000001CA040C00000000000034408080000000000006881010000000000000D102040000000000001A204080000000000003440818000000000000728103000000000000125020600000000004028A040000000000000034408000000000000004881000000000000000D
310
102000000000000001A204000000000000003440818000000000000508143C0000000000000039408180000000000006881030000000000000D102060000000000001A2040C00000000000034408180000000000006881030000000000000E5020600000000000024A040C0000000000805140800000000000000688100000
310
00000000009102000000000000001A2040000000000000034408180000000000006881030000000000000A10284220000000878000002020000008380000020400000081800000208000000828000002028900000000
340
0
340
0
340
0
340
0
340
180
340
180
 94
        0
  0
ACAD_PROXY_OBJECT
  5
183FE
330
183FA
100
AcDbProxyObject
 90
      499
 91
      567
 95
       25
 70
     0
 93
     1376
310
5DE0143A0D960E4E0DDA0E32056E0D9C80C405983D3C486F6C653A6469613E3C696628657175616C28486F6C653A7465726D696E6174696F6E2C223022292C2220905B82B320222C22208368838A838B22293E3C696628657175616C28486F6C653A7465726D696E6174696F6E2C223022292C486F6C653A64657074682C22
310
22293E2C203C486F6C653A63746469613E2082B482AE82E882CC905B82B3203C486F6C653A637464657074683E
  0
ACAD_PROXY_OBJECT
  5
183FF
330
183FA
100
AcDbProxyObject
 90
      499
 91
      567
 95
       25
 70
     0
 93
     2072
310
5DE0143A0D960E4E0DDA0E32056E0D9C80C405EF3D3C486F6C653A6374616E676C653E252564202525633C486F6C653A63746469613E208E4D8C8A2C203C696628657175616C28486F6C653A7461707065642C223022292C22252563222C486F6C653A6E6F6D696E616C202220782022293E3C696628657175616C28486F6C
310
653A7461707065642C223022292C486F6C653A6469612C486F6C653A706974636864657363293E203C696628657175616C28486F6C653A7465726D696E6174696F6E2C223022292C22905B82B320222C222022293E3C696628657175616C28486F6C653A7465726D696E6174696F6E2C223022292C486F6C653A6465707468
310
2C2222293E
  0
ACAD_PROXY_OBJECT
  5
183FD
330
183FA
100
AcDbProxyObject
 90
      499
 91
      567
 95
       25
 70
     0
 93
     1752
310
5DE0143A0D960E4E0DDA0E32056E0D9C80C405C73D3C696628657175616C28486F6C653A7461707065642C223022292C22252563222C486F6C653A6E6F6D696E616C202220782022293E3C696628657175616C28486F6C653A7461707065642C223022292C486F6C653A6469612C486F6C653A706974636864657363293E20
310
3C696628657175616C28486F6C653A7465726D696E6174696F6E2C223022292C22905B82B320222C222022293E3C696628657175616C28486F6C653A7465726D696E6174696F6E2C223022292C486F6C653A64657074682C2222293E
  0
ACAD_PROXY_OBJECT
  5
183FC
330
183FA
100
AcDbProxyObject
 90
      499
 91
      567
 95
       25
 70
     0
 93
      344
310
5DE0143A0D960E4E0DDA0E32056E0D9C80C805173D3C535444503A444553433E203C535444503A5354443E
  0
ACAD_PROXY_OBJECT
  5
183FB
330
183FA
100
AcDbProxyObject
 90
      499
 91
      567
 95
       25
 70
     0
 93
      256
310
5DE0143A0D960E4E0DDA0E32056E0D9C80C4050C3D3C535444503A444553433E
  0
ENDSEC
  0
EOF
