  0
SECTION
  2
HEADER
  9
$ACADVER
  1
AC1015
  9
$ACADMAINTVER
 70
     6
  9
$DWGCODEPAGE
  3
ANSI_932
  9
$INSBASE
 10
0.0
 20
0.0
 30
0.0
  9
$EXTMIN
 10
-101.0563084585722
 20
-110.3052148873948
 30
-0.0000000000000153
  9
$EXTMAX
 10
203.5644861253472
 20
36.52162463742116
 30
0.0000000000000152
  9
$LIMMIN
 10
0.0
 20
0.0
  9
$LIMMAX
 10
420.0
 20
297.0
  9
$ORTHOMODE
 70
     0
  9
$REGENMODE
 70
     1
  9
$FILLMODE
 70
     1
  9
$QTEXTMODE
 70
     0
  9
$MIRRTEXT
 70
     1
  9
$LTSCALE
 40
1.0
  9
$ATTMODE
 70
     1
  9
$TEXTSIZE
 40
4.0
  9
$TRACEWID
 40
1.0
  9
$TEXTSTYLE
  7
STANDARD
  9
$CLAYER
  8
AM_0
  9
$CELTYPE
  6
ByLayer
  9
$CECOLOR
 62
   256
  9
$CELTSCALE
 40
1.0
  9
$DISPSILH
 70
     0
  9
$DIMSCALE
 40
1.0
  9
$DIMASZ
 40
2.5
  9
$DIMEXO
 40
0.0
  9
$DIMDLI
 40
10.0
  9
$DIMRND
 40
0.0
  9
$DIMDLE
 40
0.0
  9
$DIMEXE
 40
1.0
  9
$DIMTP
 40
0.1
  9
$DIMTM
 40
0.1000000001
  9
$DIMTXT
 40
3.8
  9
$DIMCEN
 40
0.0
  9
$DIMTSZ
 40
0.0
  9
$DIMTOL
 70
     0
  9
$DIMLIM
 70
     0
  9
$DIMTIH
 70
     0
  9
$DIMTOH
 70
     0
  9
$DIMSE1
 70
     0
  9
$DIMSE2
 70
     0
  9
$DIMTAD
 70
     3
  9
$DIMZIN
 70
     1
  9
$DIMBLK
  1
Open30
  9
$DIMASO
 70
     1
  9
$DIMSHO
 70
     1
  9
$DIMPOST
  1

  9
$DIMAPOST
  1
"
  9
$DIMALT
 70
     0
  9
$DIMALTD
 70
     2
  9
$DIMALTF
 40
0.0393701
  9
$DIMLFAC
 40
1.0
  9
$DIMTOFL
 70
     1
  9
$DIMTVP
 40
0.0
  9
$DIMTIX
 70
     0
  9
$DIMSOXD
 70
     0
  9
$DIMSAH
 70
     0
  9
$DIMBLK1
  1

  9
$DIMBLK2
  1

  9
$DIMSTYLE
  2
AM_JIS
  9
$DIMCLRD
 70
   256
  9
$DIMCLRE
 70
   256
  9
$DIMCLRT
 70
     2
  9
$DIMTFAC
 40
0.71
  9
$DIMGAP
 40
1.5
  9
$DIMJUST
 70
     0
  9
$DIMSD1
 70
     0
  9
$DIMSD2
 70
     0
  9
$DIMTOLJ
 70
     0
  9
$DIMTZIN
 70
     8
  9
$DIMALTZ
 70
     0
  9
$DIMALTTZ
 70
     0
  9
$DIMUPT
 70
     0
  9
$DIMDEC
 70
     0
  9
$DIMTDEC
 70
     3
  9
$DIMALTU
 70
     2
  9
$DIMALTTD
 70
     2
  9
$DIMTXSTY
  7
STANDARD
  9
$DIMAUNIT
 70
     1
  9
$DIMADEC
 70
     0
  9
$DIMALTRND
 40
0.0
  9
$DIMAZIN
 70
     2
  9
$DIMDSEP
 70
    46
  9
$DIMATFIT
 70
     3
  9
$DIMFRAC
 70
     0
  9
$DIMLDRBLK
  1
Open30
  9
$DIMLUNIT
 70
     2
  9
$DIMLWD
 70
    -1
  9
$DIMLWE
 70
    -1
  9
$DIMTMOVE
 70
     0
  9
$LUNITS
 70
     2
  9
$LUPREC
 70
     4
  9
$SKETCHINC
 40
1.0
  9
$FILLETRAD
 40
0.2
  9
$AUNITS
 70
     0
  9
$AUPREC
 70
     4
  9
$MENU
  1
.
  9
$ELEVATION
 40
0.0
  9
$PELEVATION
 40
0.0
  9
$THICKNESS
 40
0.0
  9
$LIMCHECK
 70
     0
  9
$CHAMFERA
 40
2.0
  9
$CHAMFERB
 40
2.0
  9
$CHAMFERC
 40
20.0
  9
$CHAMFERD
 40
0.0
  9
$SKPOLY
 70
     0
  9
$TDCREATE
 40
2451943.610431667
  9
$TDUCREATE
 40
2451943.235431667
  9
$TDUPDATE
 40
2455441.472513553
  9
$TDUUPDATE
 40
2455441.097513553
  9
$TDINDWG
 40
1.6274190046
  9
$TDUSRTIMER
 40
1.627418831
  9
$USRTIMER
 70
     1
  9
$ANGBASE
 50
0.0
  9
$ANGDIR
 70
     0
  9
$PDMODE
 70
     0
  9
$PDSIZE
 40
0.0
  9
$PLINEWID
 40
0.0
  9
$SPLFRAME
 70
     0
  9
$SPLINETYPE
 70
     6
  9
$SPLINESEGS
 70
     8
  9
$HANDSEED
  5
19462
  9
$SURFTAB1
 70
     6
  9
$SURFTAB2
 70
     6
  9
$SURFTYPE
 70
     6
  9
$SURFU
 70
     6
  9
$SURFV
 70
     6
  9
$UCSBASE
  2

  9
$UCSNAME
  2

  9
$UCSORG
 10
0.0
 20
0.0
 30
0.0
  9
$UCSXDIR
 10
1.0
 20
0.0
 30
0.0
  9
$UCSYDIR
 10
0.0
 20
1.0
 30
0.0
  9
$UCSORTHOREF
  2

  9
$UCSORTHOVIEW
 70
     0
  9
$UCSORGTOP
 10
0.0
 20
0.0
 30
0.0
  9
$UCSORGBOTTOM
 10
0.0
 20
0.0
 30
0.0
  9
$UCSORGLEFT
 10
0.0
 20
0.0
 30
0.0
  9
$UCSORGRIGHT
 10
0.0
 20
0.0
 30
0.0
  9
$UCSORGFRONT
 10
0.0
 20
0.0
 30
0.0
  9
$UCSORGBACK
 10
0.0
 20
0.0
 30
0.0
  9
$PUCSBASE
  2

  9
$PUCSNAME
  2

  9
$PUCSORG
 10
0.0
 20
0.0
 30
0.0
  9
$PUCSXDIR
 10
1.0
 20
0.0
 30
0.0
  9
$PUCSYDIR
 10
0.0
 20
1.0
 30
0.0
  9
$PUCSORTHOREF
  2

  9
$PUCSORTHOVIEW
 70
     0
  9
$PUCSORGTOP
 10
0.0
 20
0.0
 30
0.0
  9
$PUCSORGBOTTOM
 10
0.0
 20
0.0
 30
0.0
  9
$PUCSORGLEFT
 10
0.0
 20
0.0
 30
0.0
  9
$PUCSORGRIGHT
 10
0.0
 20
0.0
 30
0.0
  9
$PUCSORGFRONT
 10
0.0
 20
0.0
 30
0.0
  9
$PUCSORGBACK
 10
0.0
 20
0.0
 30
0.0
  9
$USERI1
 70
     0
  9
$USERI2
 70
     0
  9
$USERI3
 70
     0
  9
$USERI4
 70
     0
  9
$USERI5
 70
     0
  9
$USERR1
 40
0.0
  9
$USERR2
 40
0.0
  9
$USERR3
 40
0.0
  9
$USERR4
 40
0.0
  9
$USERR5
 40
0.0
  9
$WORLDVIEW
 70
     1
  9
$SHADEDGE
 70
     3
  9
$SHADEDIF
 70
    70
  9
$TILEMODE
 70
     1
  9
$MAXACTVP
 70
    64
  9
$PINSBASE
 10
0.0
 20
0.0
 30
0.0
  9
$PLIMCHECK
 70
     0
  9
$PEXTMIN
 10
1.000000000000000E+20
 20
1.000000000000000E+20
 30
1.000000000000000E+20
  9
$PEXTMAX
 10
-1.000000000000000E+20
 20
-1.000000000000000E+20
 30
-1.000000000000000E+20
  9
$PLIMMIN
 10
0.0
 20
0.0
  9
$PLIMMAX
 10
420.0
 20
297.0
  9
$UNITMODE
 70
     0
  9
$VISRETAIN
 70
     1
  9
$PLINEGEN
 70
     0
  9
$PSLTSCALE
 70
     1
  9
$TREEDEPTH
 70
  3020
  9
$CMLSTYLE
  2
Standard
  9
$CMLJUST
 70
     0
  9
$CMLSCALE
 40
20.0
  9
$PROXYGRAPHICS
 70
     1
  9
$MEASUREMENT
 70
     1
  9
$CELWEIGHT
370
    -1
  9
$ENDCAPS
280
     0
  9
$JOINSTYLE
280
     0
  9
$LWDISPLAY
290
     0
  9
$INSUNITS
 70
     4
  9
$HYPERLINKBASE
  1

  9
$STYLESHEET
  1
sei_cad.ctb
  9
$XEDIT
290
     1
  9
$CEPSNTYPE
380
     0
  9
$PSTYLEMODE
290
     1
  9
$FINGERPRINTGUID
  2
{C77AB3BE-9CA2-11D3-BAF3-006094EB760E}
  9
$VERSIONGUID
  2
{4B0D7C98-8516-4D91-A0A9-E902022AD8E2}
  9
$EXTNAMES
290
     1
  9
$PSVPSCALE
 40
0.0
  9
$OLESTARTUP
290
     0
  0
ENDSEC
  0
SECTION
  2
CLASSES
  0
CLASS
  1
ACDBDICTIONARYWDFLT
  2
AcDbDictionaryWithDefault
  3
ObjectDBX Classes
 90
        0
280
     0
281
     0
  0
CLASS
  1
ACDBPLACEHOLDER
  2
AcDbPlaceHolder
  3
ObjectDBX Classes
 90
        0
280
     0
281
     0
  0
CLASS
  1
LAYOUT
  2
AcDbLayout
  3
ObjectDBX Classes
 90
        0
280
     0
281
     0
  0
CLASS
  1
ACME_DOCUMENT
  2
AcMeDbDoc
  3
AcMeServices
 90
        0
280
     1
281
     0
  0
CLASS
  1
ACMESCOPE
  2
AcMeScope
  3
AcMeServices
 90
        0
280
     1
281
     0
  0
CLASS
  1
ACMECOMMANDHISTORY
  2
AcMeCommandHistory
  3
AcMeServices
 90
        0
280
     1
281
     0
  0
CLASS
  1
DICTIONARYVAR
  2
AcDbDictionaryVar
  3
ObjectDBX Classes
 90
        0
280
     0
281
     0
  0
CLASS
  1
ACIMSYSVARMAN
  2
AcImSysVarManager
  3
AcMeServices
 90
        0
280
     1
281
     0
  0
CLASS
  1
ACIMREALSYSVAR
  2
AcImRealSysVar
  3
AcMeServices
 90
        0
280
     1
281
     0
  0
CLASS
  1
ACIMINTSYSVAR
  2
AcImIntSysVar
  3
AcMeServices
 90
        0
280
     1
281
     0
  0
CLASS
  1
ACMEDRAWINGMAN
  2
AcMeDrawingMan
  3
AcMeServices
 90
        0
280
     1
281
     0
  0
CLASS
  1
ACMEVIEW
  2
AcMeView
  3
AcMeServices
 90
        0
280
     1
281
     0
  0
CLASS
  1
ACDBENTITYCACHE
  2
AcMeEntityCache
  3
AcMeServices
 90
        0
280
     1
281
     0
  0
CLASS
  1
GSMANAGER
  2
AcMeGSManager
  3
AcMeServices
 90
        0
280
     1
281
     0
  0
CLASS
  1
AMDTINTERNALREACTOR
  2
AmdtInternalReactor
  3
AcMeServices
 90
        0
280
     1
281
     0
  0
CLASS
  1
ACMESTATEMGR
  2
AcMeStateMgr
  3
AcMeServices
 90
        0
280
     1
281
     0
  0
CLASS
  1
ACME_DATABASE
  2
AcMeDbDatabase
  3
AcMeServices
 90
        0
280
     1
281
     0
  0
CLASS
  1
ACRFINSADJUSTERMGR
  2
AcRfInsAdjusterMgr
  3
AcMeServices
 90
        0
280
     1
281
     0
  0
CLASS
  1
AMGSETTINGSOBJ
  2
AmgSettingsObj
  3
"AcadM|Product Description: AutoCAD Mechanical 2000|Company: Autodesk"
 90
        0
280
     1
281
     0
  0
CLASS
  1
AMGOBJPROPCFG
  2
AmgObjPropCfg
  3
"AmgLay|Product Description: AutoCAD Mechanical 2000|Company: Autodesk"
 90
        1
280
     1
281
     0
  0
CLASS
  1
ACMDATADICTIONARY
  2
AcmDataDictionary
  3
"AcmSymBB|Product Description: AutoCAD Mechanical 2004 DX|Company: Autodesk"
 90
        0
280
     1
281
     0
  0
CLASS
  1
ACMDATAENTRYBLOCK
  2
AcmDataEntryBlock
  3
"AcmSymBB|Product Description: AutoCAD Mechanical 2004 DX|Company: Autodesk"
 90
        0
280
     1
281
     0
  0
CLASS
  1
ACIMSTRSYSVAR
  2
AcImStrSysVar
  3
AcMeServices
 90
        0
280
     1
281
     0
  0
CLASS
  1
ACAMGFILTERDAT
  2
AcAmgFilterDat
  3
"AcadM|Product Description: AutoCAD Mechanical 2000|Company: Autodesk"
 90
        0
280
     1
281
     0
  0
CLASS
  1
LAYER_INDEX
  2
AcDbLayerIndex
  3
ObjectDBX Classes
 90
        0
280
     0
281
     0
  0
CLASS
  1
IDBUFFER
  2
AcDbIdBuffer
  3
ObjectDBX Classes
 90
        0
280
     0
281
     0
  0
CLASS
  1
ACMSTANDARDJIS
  2
AcmStandardJIS
  3
"Amdt_StdImp|Product Description: AutoCAD Mechanical 2004 DX|Company: Autodesk"
 90
        0
280
     1
281
     0
  0
CLASS
  1
ACMSURFSTANDARDJIS
  2
AcmSurfTextStdJIS
  3
"Amdt_StdImp|Product Description: AutoCAD Mechanical 2004 DX|Company: Autodesk"
 90
        0
280
     1
281
     0
  0
CLASS
  1
ACMFCFSTANDARDJIS
  2
AcmFCFStdJIS
  3
"Amdt_StdImp|Product Description: AutoCAD Mechanical 2004 DX|Company: Autodesk"
 90
        0
280
     1
281
     0
  0
CLASS
  1
ACMWELDSTANDARDJIS
  2
AcmWeldingStdJIS
  3
"Amdt_StdImp|Product Description: AutoCAD Mechanical 2004 DX|Company: Autodesk"
 90
        0
280
     1
281
     0
  0
CLASS
  1
ACMIDSTANDARDJIS
  2
AcmIdStdJIS
  3
"Amdt_StdImp|Product Description: AutoCAD Mechanical 2004 DX|Company: Autodesk"
 90
        0
280
     1
281
     0
  0
CLASS
  1
ACMDATUMSTANDARDJIS
  2
AcmDatumStdJIS
  3
"Amdt_StdImp|Product Description: AutoCAD Mechanical 2004 DX|Company: Autodesk"
 90
        0
280
     1
281
     0
  0
CLASS
  1
ACMBOMSTANDARDJIS
  2
AcmBOMStdJIS
  3
"Amdt_StdImp|Product Description: AutoCAD Mechanical 2004 DX|Company: Autodesk"
 90
        0
280
     1
281
     0
  0
CLASS
  1
AMDTNOTE
  2
AmdtNote
  3
"AcmSymBB|Product Description: AutoCAD Mechanical 2004 DX|Company: Autodesk"
 90
     1023
280
     1
281
     1
  0
CLASS
  1
TABLESTYLE
  2
AcDbTableStyle
  3
ObjectDBX Classes
 90
     2047
280
     0
281
     0
  0
CLASS
  1
ACGREFMASTER
  2
AcGrefMaster
  3
AcAttribServices
 90
        0
280
     1
281
     0
  0
CLASS
  1
AM_DRAWING_MGR
  2
AcDmDwgMgr
  3
AcMechDwgViewMgmt
 90
        0
280
     1
281
     0
  0
CLASS
  1
AM_DWG_DOCUMENT
  2
AcDmDwgDocument
  3
AcMechDwgViewMgmt
 90
        0
280
     1
281
     0
  0
CLASS
  1
AM_DWG_SHEET
  2
AcDmSheet
  3
AcMechDwgViewMgmt
 90
        0
280
     1
281
     0
  0
CLASS
  1
AM_VIEWDIMPARMAP
  2
AcDmViewDimParMap
  3
AcMechDwgViewMgmt
 90
        0
280
     1
281
     0
  0
CLASS
  1
AM_DWGMGR_NAME
  2
AcDmDwgMgrName
  3
AcMechDwgViewMgmt
 90
        0
280
     1
281
     0
  0
CLASS
  1
ACGREFACADMASTER
  2
AcGrefacadMaster
  3
AcGrefServices
 90
        0
280
     1
281
     0
  0
CLASS
  1
AMDTMENUSTATEMGR
  2
AmdtMenuStateMgr
  3
McadcomServices
 90
        0
280
     1
281
     0
  0
CLASS
  1
AMDTMCOMMENUSTATE
  2
AmdtMcomMenuState
  3
McadcomServices
 90
        0
280
     1
281
     0
  0
CLASS
  1
AMIMASTER
  2
AmiMaster
  3
AmiServices
 90
        0
280
     1
281
     0
  0
CLASS
  1
MAPIAMMOUDLE
  2
MApiAmModule
  3
MApiAmServices
 90
        0
280
     1
281
     0
  0
CLASS
  1
AMDTADMENUSTATE
  2
AmdtAdMenuState
  3
DesignerServices
 90
        0
280
     1
281
     0
  0
CLASS
  1
ADAPPL
  2
AcAdAppl
  3
DesignerServices
 90
        0
280
     1
281
     0
  0
CLASS
  1
DEPMGR
  2
AcAdDepMgr
  3
DesignerServices
 90
        0
280
     1
281
     0
  0
CLASS
  1
PARAMMGR
  2
AcAdParamMgr
  3
DesignerServices
 90
        0
280
     1
281
     0
  0
CLASS
  1
PARAMSCOPE
  2
AcAdParamScope
  3
DesignerServices
 90
        0
280
     1
281
     0
  0
CLASS
  1
NAMEDAPPL
  2
AcAdNamedAppl
  3
DesignerServices
 90
        0
280
     1
281
     0
  0
CLASS
  1
AMDTDMMENUSTATE
  2
AmdtDmMenuState
  3
AcMechDwgViewMgmt
 90
        0
280
     1
281
     0
  0
CLASS
  1
AMDTAMMENUSTATE
  2
AmdtAmMenuState
  3
DesignerAssemblies
 90
        0
280
     1
281
     0
  0
CLASS
  1
ACAMPROJECT
  2
AcAmProject
  3
DesignerAssemblies
 90
        0
280
     1
281
     0
  0
CLASS
  1
ACAMGRCOMPDEF
  2
AcAmGrCompDef
  3
DesignerAssemblies
 90
        0
280
     1
281
     0
  0
CLASS
  1
ACCMCONTEXT
  2
AcCmContext
  3
DesignerAssemblies
 90
        0
280
     1
281
     0
  0
CLASS
  1
ACAMCOMPDEF
  2
AcAmCompDef
  3
DesignerAssemblies
 90
        0
280
     1
281
     0
  0
CLASS
  1
ACAMCOMPDEFMGR
  2
AcAmCompDefMgr
  3
DesignerAssemblies
 90
        0
280
     1
281
     0
  0
CLASS
  1
AMCONTEXTMGR
  2
AcAmContextMgr
  3
DesignerAssemblies
 90
        0
280
     1
281
     0
  0
CLASS
  1
ACAMCONTEXTMODELER
  2
AcAmContextModeler
  3
DesignerAssemblies
 90
        0
280
     1
281
     0
  0
CLASS
  1
ACAMGTITLESTD
  2
AcAmgTitleStd
  3
"TITLEAPP"
 90
        0
280
     1
281
     0
  0
CLASS
  1
ACMDETAILSTANDARDJIS
  2
AmdtDetailSymStdJIS
  3
"Amdt_StdImp|Product Description: AutoCAD Mechanical 2004 DX|Company: Autodesk"
 90
        0
280
     1
281
     0
  0
CLASS
  1
ACMSECTIONSTANDARDJIS
  2
AmdtSectionSymStdJIS
  3
"Amdt_StdImp|Product Description: AutoCAD Mechanical 2004 DX|Company: Autodesk"
 90
        0
280
     1
281
     0
  0
CLASS
  1
ACMCENTERLINESTANDARDJIS
  2
AmdtCenterLineStdJIS
  3
"Amdt_StdImp|Product Description: AutoCAD Mechanical 2004 DX|Company: Autodesk"
 90
        0
280
     1
281
     0
  0
CLASS
  1
ACMTHREADLINESTANDARDJIS
  2
AmdtThreadLineStdJIS
  3
"Amdt_StdImp|Product Description: AutoCAD Mechanical 2004 DX|Company: Autodesk"
 90
        0
280
     1
281
     0
  0
CLASS
  1
ACMNOTESTANDARDJIS
  2
AmdtNoteStdJIS
  3
"Amdt_StdImp|Product Description: AutoCAD Mechanical 2004 DX|Company: Autodesk"
 90
        0
280
     1
281
     0
  0
CLASS
  1
AMDTNOTETEMPLATEDB
  2
AmdtNoteTemplateDB
  3
AMDT_STDIMP_MODULE_NAME
 90
        0
280
     1
281
     0
  0
CLASS
  1
ACAMGLAYSTD
  2
AcAmgLayStd
  3
"AcAmgLayStd|Product Description: AutoCAD Mechanical 2000|Company: Autodesk"
 90
        0
280
     1
281
     0
  0
CLASS
  1
ACAMGDIMSTD
  2
AcAmgDimStd
  3
"AcAmgDimStd|Product Description: AutoCAD Mechanical 2000|Company: Autodesk"
 90
        0
280
     1
281
     0
  0
CLASS
  1
ACAMGHOLECHARTSTDJIS
  2
AcAmgHoleChartStdJIS
  3
ACMSYMBB_MODULE_NAME
 90
        0
280
     1
281
     0
  0
CLASS
  1
CATALOGSTATE
  2
AcAmCatalogState
  3
DesignerAssemblies
 90
        0
280
     1
281
     0
  0
CLASS
  1
ACAMGRCOMPDEFSET
  2
AcAmGrCompDefSet
  3
DesignerAssemblies
 90
        0
280
     1
281
     0
  0
CLASS
  1
AMDTBROWSERDBTAB
  2
AmdtBrowserDbTab
  3
McadcomServices
 90
        0
280
     1
281
     0
  0
CLASS
  1
CBROWSERAPPOBJECT
  2
CBrowserAppObject
  3
McadcomServices
 90
        0
280
     1
281
     0
  0
CLASS
  1
DM_PLACEHOLDER
  2
AcDmSelsetPlaceholder
  3
AcMechDwgViewMgmt
 90
        0
280
     1
281
     0
  0
CLASS
  1
SORTENTSTABLE
  2
AcDbSortentsTable
  3
ObjectDBX Classes
 90
        0
280
     0
281
     0
  0
ENDSEC
  0
SECTION
  2
TABLES
  0
TABLE
  2
VPORT
  5
8
330
0
100
AcDbSymbolTable
 70
     5
  0
VPORT
  5
1945A
330
8
100
AcDbSymbolTableRecord
100
AcDbViewportTableRecord
  2
*Active
 70
     0
 10
0.0
 20
0.0
 11
1.0
 21
1.0
 12
31.91074404481753
 22
-55.65590325416522
 13
0.0
 23
0.0
 14
2.5
 24
2.5
 15
10.0
 25
10.0
 16
0.0
 26
0.0
 36
1.0
 17
0.0
 27
0.0
 37
0.0
 40
352.5648249236335
 41
1.372924648786718
 42
50.0
 43
0.0
 44
0.0
 50
0.0
 51
0.0
 71
    16
 72
  2000
 73
     1
 74
     3
 75
     0
 76
     0
 77
     0
 78
     0
281
     0
 65
     1
110
0.0
120
0.0
130
0.0
111
1.0
121
0.0
131
0.0
112
0.0
122
1.0
132
0.0
 79
     0
146
0.0
  0
ENDTAB
  0
TABLE
  2
LTYPE
  5
5
330
0
100
AcDbSymbolTable
 70
    13
  0
LTYPE
  5
14
330
5
100
AcDbSymbolTableRecord
100
AcDbLinetypeTableRecord
  2
ByBlock
 70
     0
  3

 72
    65
 73
     0
 40
0.0
  0
LTYPE
  5
15
330
5
100
AcDbSymbolTableRecord
100
AcDbLinetypeTableRecord
  2
ByLayer
 70
     0
  3

 72
    65
 73
     0
 40
0.0
  0
LTYPE
  5
16
330
5
100
AcDbSymbolTableRecord
100
AcDbLinetypeTableRecord
  2
Continuous
 70
     0
  3
Solid line
 72
    65
 73
     0
 40
0.0
  0
LTYPE
  5
43
330
5
100
AcDbSymbolTableRecord
100
AcDbLinetypeTableRecord
  2
AM_ISO02W050
 70
     0
  3
__ __ __ __ __ __ __ __ __ __ __ __ __ __ __
 72
    65
 73
     2
 40
7.5
 49
6.0
 74
     0
 49
-1.5
 74
     0
  0
LTYPE
  5
44
330
5
100
AcDbSymbolTableRecord
100
AcDbLinetypeTableRecord
  2
AM_ISO08W050
 70
     0
  3
____ . ____ . ____ . ____ . ____ . ____ . ____
 72
    65
 73
     4
 40
18.0
 49
12.0
 74
     0
 49
-1.5
 74
     0
 49
3.0
 74
     0
 49
-1.5
 74
     0
  0
LTYPE
  5
45
330
5
100
AcDbSymbolTableRecord
100
AcDbLinetypeTableRecord
  2
AM_ISO09W050
 70
     0
  3
_____ . . _____ . . _____ . . ____ .. ____
 72
    65
 73
     6
 40
22.5
 49
12.0
 74
     0
 49
-1.5
 74
     0
 49
3.0
 74
     0
 49
-1.5
 74
     0
 49
3.0
 74
     0
 49
-1.5
 74
     0
  0
LTYPE
  5
46
330
5
100
AcDbSymbolTableRecord
100
AcDbLinetypeTableRecord
  2
Amconstr
 70
     0
  3
_______________________
 72
    65
 73
     2
 40
9999.0
 49
9999.0
 74
     0
 49
0.0
 74
     0
  0
LTYPE
  5
47
330
5
100
AcDbSymbolTableRecord
100
AcDbLinetypeTableRecord
  2
AM_ISO02W050x2
 70
     0
  3
 _ _ _ _ _ _ _ _ _ _ _ _
 72
    65
 73
     2
 40
3.75
 49
3.0
 74
     0
 49
-0.75
 74
     0
  0
LTYPE
  5
48
330
5
100
AcDbSymbolTableRecord
100
AcDbLinetypeTableRecord
  2
AM_ISO08W050x2
 70
     0
  3
__ . __ . __ . __ . __ . __
 72
    65
 73
     4
 40
9.0
 49
6.0
 74
     0
 49
-0.75
 74
     0
 49
1.5
 74
     0
 49
-0.75
 74
     0
  0
LTYPE
  5
4B
330
5
100
AcDbSymbolTableRecord
100
AcDbLinetypeTableRecord
  2
Amzigzag
 70
     0
  3
/\/-/\/-/\/-/\/-/\/-/\/
 72
    65
 73
     2
 40
11.0001
 49
0.0001
 74
     4
 75
   135
340
4A
 46
0.04
 50
0.0
 44
0.0
 45
0.0
 49
-11.0
 74
     0
  0
LTYPE
  5
188
330
5
100
AcDbSymbolTableRecord
100
AcDbLinetypeTableRecord
  2
ACJISTGB
 70
     0
  3
__ . . __ . .
 72
    65
 73
     6
 40
9.0
 49
4.0
 74
     0
 49
-1.0
 74
     0
 49
1.0
 74
     0
 49
-1.0
 74
     0
 49
1.0
 74
     0
 49
-1.0
 74
     0
  0
LTYPE
  5
189
330
5
100
AcDbSymbolTableRecord
100
AcDbLinetypeTableRecord
  2
ACJISTGL
 70
     0
  3
_ _ _ _ _
 72
    65
 73
     2
 40
3.0
 49
2.0
 74
     0
 49
-1.0
 74
     0
  0
LTYPE
  5
652
330
5
100
AcDbSymbolTableRecord
100
AcDbLinetypeTableRecord
  2
CENTER
 70
     0
  3
____ _ ____ _ ____ _ ____ _ ____ _ ____ _ ____
 72
    65
 73
     4
 40
17.5
 49
13.0
 74
     0
 49
-1.5
 74
     0
 49
1.5
 74
     0
 49
-1.5
 74
     0
  0
LTYPE
  5
12AB
330
5
100
AcDbSymbolTableRecord
100
AcDbLinetypeTableRecord
  2
HIDDEN
 70
     0
  3
Hidden __ __ __ __ __ __ __ __ __ __ __ __ __ _
 72
    65
 73
     2
 40
0.375
 49
0.25
 74
     0
 49
-0.125
 74
     0
  0
LTYPE
  5
12AC
330
5
100
AcDbSymbolTableRecord
100
AcDbLinetypeTableRecord
  2
PHANTOM2
 70
     0
  3
Phantom (.5x) ___ _ _ ___ _ _ ___ _ _ ___ _ _
 72
    65
 73
     6
 40
1.25
 49
0.625
 74
     0
 49
-0.125
 74
     0
 49
0.125
 74
     0
 49
-0.125
 74
     0
 49
0.125
 74
     0
 49
-0.125
 74
     0
  0
ENDTAB
  0
TABLE
  2
LAYER
  5
2
102
{ACAD_XDICTIONARY
360
1895F
102
}
330
0
100
AcDbSymbolTable
 70
     7
  0
LAYER
  5
10
330
2
100
AcDbSymbolTableRecord
100
AcDbLayerTableRecord
  2
0
 70
     0
 62
     7
  6
Continuous
370
    -3
390
F
  0
LAYER
  5
7D
330
2
100
AcDbSymbolTableRecord
100
AcDbLayerTableRecord
  2
AM_5
 70
     0
 62
     3
  6
Continuous
370
    13
390
F
  0
LAYER
  5
7F
330
2
100
AcDbSymbolTableRecord
100
AcDbLayerTableRecord
  2
Defpoints
 70
     0
 62
     7
  6
Continuous
290
     0
370
    -3
390
F
  0
LAYER
  5
12B1
330
2
100
AcDbSymbolTableRecord
100
AcDbLayerTableRecord
  2
AM_0
 70
     0
 62
     7
  6
Continuous
370
    30
390
F
  0
LAYER
  5
1AFF
330
2
100
AcDbSymbolTableRecord
100
AcDbLayerTableRecord
  2
AM_7
 70
     0
 62
     4
  6
AM_ISO08W050
370
    13
390
F
  0
LAYER
  5
2953
330
2
100
AcDbSymbolTableRecord
100
AcDbLayerTableRecord
  2
AM_6
 70
     0
 62
     2
  6
Continuous
370
    30
390
F
  0
LAYER
  5
361D
330
2
100
AcDbSymbolTableRecord
100
AcDbLayerTableRecord
  2
AM_11
 70
     0
 62
     3
  6
AM_ISO09W050
370
    13
390
F
  0
ENDTAB
  0
TABLE
  2
STYLE
  5
3
330
0
100
AcDbSymbolTable
 70
     4
  0
STYLE
  5
11
330
3
100
AcDbSymbolTableRecord
100
AcDbTextStyleTableRecord
  2
STANDARD
 70
     0
 40
0.0
 41
1.0
 50
0.0
 71
     0
 42
4.0
  3
ISOCP.SHX
  4
EXTFONT.SHX
  0
STYLE
  5
4A
330
3
100
AcDbSymbolTableRecord
100
AcDbTextStyleTableRecord
  2

 70
     1
 40
0.0
 41
1.0
 50
0.0
 71
     0
 42
2.5
  3
ltypeshp.shx
  4

  0
STYLE
  5
180
330
3
100
AcDbSymbolTableRecord
100
AcDbTextStyleTableRecord
  2
ACJISTS
 70
     0
 40
1.0
 41
1.0
 50
0.0
 71
     0
 42
2.5
  3
isocp.shx
  4
bigfont.shx
  0
STYLE
  5
187
330
3
100
AcDbSymbolTableRecord
100
AcDbTextStyleTableRecord
  2
ACJISGDT
 70
     0
 40
0.0
 41
1.0
 50
0.0
 71
     0
 42
2.5
  3
amgdt.shx
  4

  0
ENDTAB
  0
TABLE
  2
VIEW
  5
6
330
0
100
AcDbSymbolTable
 70
     6
  0
VIEW
  5
A30
330
6
100
AcDbSymbolTableRecord
100
AcDbViewTableRecord
  2
AM_VIEW1
 70
     0
 40
148.5
 10
108.6929657794677
 20
222.75
 41
217.3859315589354
 11
0.0
 21
0.0
 31
1.0
 12
0.0
 22
0.0
 32
0.0
 42
50.0
 43
0.0
 44
0.0
 50
0.0
 71
    16
281
     0
 72
     0
  0
VIEW
  5
A31
330
6
100
AcDbSymbolTableRecord
100
AcDbViewTableRecord
  2
AM_VIEW2
 70
     0
 40
148.5
 10
311.3070342205323
 20
222.75
 41
217.3859315589354
 11
0.0
 21
0.0
 31
1.0
 12
0.0
 22
0.0
 32
0.0
 42
50.0
 43
0.0
 44
0.0
 50
0.0
 71
    16
281
     0
 72
     0
  0
VIEW
  5
A32
330
6
100
AcDbSymbolTableRecord
100
AcDbViewTableRecord
  2
AM_VIEW3
 70
     0
 40
148.5
 10
108.6929657794677
 20
74.25
 41
217.3859315589354
 11
0.0
 21
0.0
 31
1.0
 12
0.0
 22
0.0
 32
0.0
 42
50.0
 43
0.0
 44
0.0
 50
0.0
 71
    16
281
     0
 72
     0
  0
VIEW
  5
A33
330
6
100
AcDbSymbolTableRecord
100
AcDbViewTableRecord
  2
AM_VIEW4
 70
     0
 40
148.5
 10
311.3070342205323
 20
74.25
 41
217.3859315589354
 11
0.0
 21
0.0
 31
1.0
 12
0.0
 22
0.0
 32
0.0
 42
50.0
 43
0.0
 44
0.0
 50
0.0
 71
    16
281
     0
 72
     0
  0
VIEW
  5
A34
330
6
100
AcDbSymbolTableRecord
100
AcDbViewTableRecord
  2
AM_VIEW5
 70
     0
 40
148.5
 10
210.0
 20
148.5
 41
217.3859315589353
 11
0.0
 21
0.0
 31
1.0
 12
0.0
 22
0.0
 32
0.0
 42
50.0
 43
0.0
 44
0.0
 50
0.0
 71
    16
281
     0
 72
     0
  0
VIEW
  5
A35
330
6
100
AcDbSymbolTableRecord
100
AcDbViewTableRecord
  2
AM_VIEW6
 70
     0
 40
296.99703
 10
210.0
 20
148.5
 41
434.7675153992395
 11
0.0
 21
0.0
 31
1.0
 12
0.0
 22
0.0
 32
0.0
 42
50.0
 43
0.0
 44
0.0
 50
0.0
 71
    16
281
     0
 72
     0
  0
ENDTAB
  0
TABLE
  2
UCS
  5
7
330
0
100
AcDbSymbolTable
 70
     0
  0
ENDTAB
  0
TABLE
  2
APPID
  5
9
330
0
100
AcDbSymbolTable
 70
    42
  0
APPID
  5
12
330
9
100
AcDbSymbolTableRecord
100
AcDbRegAppTableRecord
  2
ACAD
 70
     0
  0
APPID
  5
2C
330
9
100
AcDbSymbolTableRecord
100
AcDbRegAppTableRecord
  2
MCAD_NO_VIS
 70
     0
  0
APPID
  5
2D
330
9
100
AcDbSymbolTableRecord
100
AcDbRegAppTableRecord
  2
ACAD_TEMP_GRAPHIC
 70
     0
  0
APPID
  5
B9
330
9
100
AcDbSymbolTableRecord
100
AcDbRegAppTableRecord
  2
GENIUS_GENDTOL_13
 70
     0
  0
APPID
  5
359
330
9
100
AcDbSymbolTableRecord
100
AcDbRegAppTableRecord
  2
GENIUS_GENREC_14
 70
     0
  0
APPID
  5
35A
330
9
100
AcDbSymbolTableRecord
100
AcDbRegAppTableRecord
  2
GENIUS_GENODEF_13
 70
     0
  0
APPID
  5
35B
330
9
100
AcDbSymbolTableRecord
100
AcDbRegAppTableRecord
  2
GENIUS_GENOBJ-N-REC_13
 70
     0
  0
APPID
  5
667
330
9
100
AcDbSymbolTableRecord
100
AcDbRegAppTableRecord
  2
GENIUS_GENCFG_13
 70
     0
  0
APPID
  5
668
330
9
100
AcDbSymbolTableRecord
100
AcDbRegAppTableRecord
  2
GENIUS_GENCFG0_13
 70
     0
  0
APPID
  5
669
330
9
100
AcDbSymbolTableRecord
100
AcDbRegAppTableRecord
  2
GENIUS_GENCFG1_13
 70
     0
  0
APPID
  5
66A
330
9
100
AcDbSymbolTableRecord
100
AcDbRegAppTableRecord
  2
GENIUS_GENCFG2_13
 70
     0
  0
APPID
  5
66B
330
9
100
AcDbSymbolTableRecord
100
AcDbRegAppTableRecord
  2
GENIUS_GENCFG3_13
 70
     0
  0
APPID
  5
66C
330
9
100
AcDbSymbolTableRecord
100
AcDbRegAppTableRecord
  2
GENIUS_GENCFG4_13
 70
     0
  0
APPID
  5
A76
330
9
100
AcDbSymbolTableRecord
100
AcDbRegAppTableRecord
  2
GENIUS_GENBLLY_14
 70
     0
  0
APPID
  5
A77
330
9
100
AcDbSymbolTableRecord
100
AcDbRegAppTableRecord
  2
GENIUS_GENOBJ-N-CEN_13
 70
     0
  0
APPID
  5
A83
330
9
100
AcDbSymbolTableRecord
100
AcDbRegAppTableRecord
  2
GENIUS_GENTRA_14
 70
     0
  0
APPID
  5
A8D
330
9
100
AcDbSymbolTableRecord
100
AcDbRegAppTableRecord
  2
GENIUS_GENOBJ-N-TIT_13
 70
     0
  0
APPID
  5
A8E
330
9
100
AcDbSymbolTableRecord
100
AcDbRegAppTableRecord
  2
GENIUS_GENTITLE_13
 70
     0
  0
APPID
  5
A8F
330
9
100
AcDbSymbolTableRecord
100
AcDbRegAppTableRecord
  2
GENIUS_GENOENT_13
 70
     0
  0
APPID
  5
A90
330
9
100
AcDbSymbolTableRecord
100
AcDbRegAppTableRecord
  2
GENIUS_GENOREF_13
 70
     0
  0
APPID
  5
A91
330
9
100
AcDbSymbolTableRecord
100
AcDbRegAppTableRecord
  2
GENIUS_GENOLIS_13
 70
     0
  0
APPID
  5
A92
330
9
100
AcDbSymbolTableRecord
100
AcDbRegAppTableRecord
  2
GENIUS_GENZVEED_13
 70
     0
  0
APPID
  5
A93
330
9
100
AcDbSymbolTableRecord
100
AcDbRegAppTableRecord
  2
GENIUS_GENSCREG_15
 70
     0
  0
APPID
  5
A94
330
9
100
AcDbSymbolTableRecord
100
AcDbRegAppTableRecord
  2
GENIUS_GENOBJ-N-SDF_13
 70
     0
  0
APPID
  5
12B5
330
9
100
AcDbSymbolTableRecord
100
AcDbRegAppTableRecord
  2
GENIUS_GENOBJ-N-RSBK_13
 70
     0
  0
APPID
  5
12B6
330
9
100
AcDbSymbolTableRecord
100
AcDbRegAppTableRecord
  2
GENIUS_GENOBJ-N-LIB_13
 70
     0
  0
APPID
  5
12B7
330
9
100
AcDbSymbolTableRecord
100
AcDbRegAppTableRecord
  2
GENIUS_GENSCALE_13
 70
     0
  0
APPID
  5
12B8
330
9
100
AcDbSymbolTableRecord
100
AcDbRegAppTableRecord
  2
GENIUS_GENOBJ-N-HTC_13
 70
     0
  0
APPID
  5
12B9
330
9
100
AcDbSymbolTableRecord
100
AcDbRegAppTableRecord
  2
GENIUS_GENHATCH_13
 70
     0
  0
APPID
  5
1687
330
9
100
AcDbSymbolTableRecord
100
AcDbRegAppTableRecord
  2
BASE_TYPE
 70
     0
  0
APPID
  5
1ABF
330
9
100
AcDbSymbolTableRecord
100
AcDbRegAppTableRecord
  2
GENIUS_GENFIL_13
 70
     0
  0
APPID
  5
1AC0
330
9
100
AcDbSymbolTableRecord
100
AcDbRegAppTableRecord
  2
GENIUS_GENOBJ-N-CHA_13
 70
     0
  0
APPID
  5
1AE7
330
9
100
AcDbSymbolTableRecord
100
AcDbRegAppTableRecord
  2
GENIUS_GENOBJ-N-FIL_13
 70
     0
  0
APPID
  5
20E9
330
9
100
AcDbSymbolTableRecord
100
AcDbRegAppTableRecord
  2
GENIUS_GENDIMSH_14
 70
     0
  0
APPID
  5
188F8
330
9
100
AcDbSymbolTableRecord
100
AcDbRegAppTableRecord
  2
AD_DRAW
 70
     0
  0
APPID
  5
188FB
330
9
100
AcDbSymbolTableRecord
100
AcDbRegAppTableRecord
  2
ACATTRIBSERVICES
 70
     0
  0
APPID
  5
18919
330
9
100
AcDbSymbolTableRecord
100
AcDbRegAppTableRecord
  2
DESIGNERASSEMBLIES
 70
     0
  0
APPID
  5
1892C
330
9
100
AcDbSymbolTableRecord
100
AcDbRegAppTableRecord
  2
ACADM_DIM_EDIT
 70
     0
  0
APPID
  5
1892D
330
9
100
AcDbSymbolTableRecord
100
AcDbRegAppTableRecord
  2
AMDT_DM_ADJ
 70
     0
  0
APPID
  5
18A7E
330
9
100
AcDbSymbolTableRecord
100
AcDbRegAppTableRecord
  2
ACAD_PSEXT
 70
     0
  0
APPID
  5
18B90
330
9
100
AcDbSymbolTableRecord
100
AcDbRegAppTableRecord
  2
DCO15
 70
     0
  0
APPID
  5
18D48
330
9
100
AcDbSymbolTableRecord
100
AcDbRegAppTableRecord
  2
ACAD_DSTYLE_DIMTEXT_FILL
 70
     0
  0
ENDTAB
  0
TABLE
  2
DIMSTYLE
  5
A
330
0
100
AcDbSymbolTable
 70
    10
100
AcDbDimStyleTable
  0
DIMSTYLE
105
58
330
A
100
AcDbSymbolTableRecord
100
AcDbDimStyleTableRecord
  2
AM_JIS
 70
     0
  4
"
 41
2.5
 42
0.0
 43
10.0
 44
1.0
 47
0.1
 48
0.1000000001
 73
     0
 74
     0
 77
     3
 78
     1
 79
     2
140
3.8
141
0.0
143
0.0393701
146
0.71
147
1.5
172
     1
176
   256
177
   256
178
     2
179
     2
271
     3
272
     3
275
     1
283
     0
284
     8
340
11
341
59
342
59
371
    -1
372
    -1
  0
DIMSTYLE
105
5F
102
{ACAD_REACTORS
330
F6A3
330
16A06
102
}
330
A
100
AcDbSymbolTableRecord
100
AcDbDimStyleTableRecord
  2
AM_JIS$3
 70
     0
  4
"
 41
2.5
 42
0.0
 43
10.0
 44
1.0
 47
0.1
 48
0.1000000001
 73
     0
 77
     3
 78
     1
 79
     2
140
3.8
141
0.0
143
0.0393701
146
0.71
147
1.5
172
     1
176
   256
177
   256
178
     2
179
     2
271
     3
272
     3
275
     1
283
     0
284
     8
288
     1
289
     0
340
11
341
59
342
59
371
    -1
372
    -1
  0
DIMSTYLE
105
60
330
A
100
AcDbSymbolTableRecord
100
AcDbDimStyleTableRecord
  2
AM_JIS$4
 70
     0
  4
"
 41
2.5
 42
0.0
 43
10.0
 44
1.0
 47
0.1
 48
0.1000000001
 73
     0
 77
     3
 78
     1
 79
     2
140
3.8
141
0.0
143
0.0393701
146
0.71
147
1.5
172
     1
176
   256
177
   256
178
     2
179
     2
271
     3
272
     3
275
     1
283
     0
284
     8
288
     1
289
     0
340
11
341
59
342
59
371
    -1
372
    -1
  0
DIMSTYLE
105
61
330
A
100
AcDbSymbolTableRecord
100
AcDbDimStyleTableRecord
  2
AM_JIS$6
 70
     0
  4
"
 41
2.5
 42
0.0
 43
10.0
 44
1.0
 47
0.1
 48
0.1000000001
 73
     0
 74
     0
 78
     1
 79
     2
140
3.8
141
0.0
143
0.0393701
146
0.71
147
1.5
172
     1
176
   256
177
   256
178
     2
179
     2
271
     3
272
     3
275
     1
283
     0
284
     8
340
11
341
59
342
59
371
    -1
372
    -1
  0
DIMSTYLE
105
62
330
A
100
AcDbSymbolTableRecord
100
AcDbDimStyleTableRecord
  2
AM_JIS$7
 70
     0
  4
"
 41
2.5
 42
0.0
 43
10.0
 44
1.0
 47
0.1
 48
0.1000000001
 73
     0
 74
     0
 77
     3
 78
     1
 79
     2
140
5.0
141
0.0
143
0.0393701
146
0.71
147
1.5
172
     1
176
   256
177
   256
178
     2
179
     2
271
     3
272
     3
275
     1
283
     0
284
     8
340
11
341
59
342
59
371
    -1
372
    -1
  0
DIMSTYLE
105
63
330
A
100
AcDbSymbolTableRecord
100
AcDbDimStyleTableRecord
  2
AM_JIS$SF
 70
     0
  4
"
 41
2.5
 42
1.0
 43
10.0
 44
1.0
 47
0.1
 48
0.1
 73
     0
 74
     0
 75
     1
 76
     1
 77
     3
 78
     8
 79
     2
140
3.5
141
0.0
143
0.0393701
146
0.71
147
1.5
176
   256
177
   256
178
     2
271
     2
272
     3
274
     4
340
11
341
59
342
59
343
59
344
59
371
    -1
372
    -1
  0
DIMSTYLE
105
68
330
A
100
AcDbSymbolTableRecord
100
AcDbDimStyleTableRecord
  2
AM_JIS$SH
 70
     0
  4
"
 41
2.5
 42
1.0
 43
10.0
 44
1.0
 47
0.1
 48
0.1
 73
     0
 74
     0
 75
     1
 76
     1
 77
     3
 78
     8
 79
     2
140
3.5
141
0.0
143
0.0393701
144
2.0
146
0.71
147
1.5
173
     1
176
   256
177
   256
178
     2
271
     2
272
     3
274
     4
340
11
341
59
342
59
343
64
344
59
371
    -1
372
    -1
  0
DIMSTYLE
105
65F
330
A
100
AcDbSymbolTableRecord
100
AcDbDimStyleTableRecord
  2
STANDARD
 70
     0
340
11
  0
DIMSTYLE
105
1B97
102
{ACAD_REACTORS
330
F478
330
10C41
330
1908E
330
19188
102
}
330
A
100
AcDbSymbolTableRecord
100
AcDbDimStyleTableRecord
  2
AM_JIS$0
 70
     0
  4
"
 41
2.5
 42
0.0
 43
10.0
 44
1.0
 47
0.1
 48
0.1000000001
 73
     0
 74
     0
 77
     3
 78
     1
 79
     2
140
3.8
141
0.0
143
0.0393701
146
0.71
147
1.5
172
     1
176
     3
177
     3
178
     2
271
     3
272
     3
275
     1
283
     0
284
     8
289
     0
340
11
341
59
342
59
371
    13
372
    13
  0
DIMSTYLE
105
1B98
102
{ACAD_REACTORS
330
184B3
330
190C9
330
19122
102
}
330
A
100
AcDbSymbolTableRecord
100
AcDbDimStyleTableRecord
  2
AM_JIS$2
 70
     0
  4
"
 41
2.5
 42
0.0
 43
10.0
 44
1.0
 47
0.1
 48
0.1000000001
 73
     0
 74
     0
 77
     3
 78
     1
 79
     2
140
3.8
141
0.0
143
0.0393701
146
0.71
147
1.5
172
     1
176
     3
177
     3
178
     2
271
     3
272
     3
275
     1
283
     0
284
     8
289
     0
340
11
341
59
342
59
371
    13
372
    13
  0
ENDTAB
  0
TABLE
  2
BLOCK_RECORD
  5
1
330
0
100
AcDbSymbolTable
 70
    13
  0
BLOCK_RECORD
  5
1F
102
{ACAD_XDICTIONARY
360
165
102
}
330
1
100
AcDbSymbolTableRecord
100
AcDbBlockTableRecord
  2
*Model_Space
340
22
  0
BLOCK_RECORD
  5
1B
330
1
100
AcDbSymbolTableRecord
100
AcDbBlockTableRecord
  2
*Paper_Space
340
1E
  0
BLOCK_RECORD
  5
23
330
1
100
AcDbSymbolTableRecord
100
AcDbBlockTableRecord
  2
*Paper_Space0
340
26
  0
BLOCK_RECORD
  5
59
330
1
100
AcDbSymbolTableRecord
100
AcDbBlockTableRecord
  2
_Open30
340
0
102
{BLKREFS
331
193E5
331
193E6
331
193F0
331
193F1
331
193F7
331
193F8
331
19402
331
19403
331
19452
331
19453
331
19416
331
19417
331
1941F
331
19420
331
1942E
331
1942F
331
19439
331
1943A
102
}
  0
BLOCK_RECORD
  5
64
330
1
100
AcDbSymbolTableRecord
100
AcDbBlockTableRecord
  2
GENAXEH
340
0
  0
BLOCK_RECORD
  5
F479
330
1
100
AcDbSymbolTableRecord
100
AcDbBlockTableRecord
  2
*D3
340
0
  0
BLOCK_RECORD
  5
F6A4
330
1
100
AcDbSymbolTableRecord
100
AcDbBlockTableRecord
  2
*D4
340
0
  0
BLOCK_RECORD
  5
10C42
330
1
100
AcDbSymbolTableRecord
100
AcDbBlockTableRecord
  2
*D5
340
0
  0
BLOCK_RECORD
  5
16A07
330
1
100
AcDbSymbolTableRecord
100
AcDbBlockTableRecord
  2
*D6
340
0
  0
BLOCK_RECORD
  5
184B4
330
1
100
AcDbSymbolTableRecord
100
AcDbBlockTableRecord
  2
*D7
340
0
  0
BLOCK_RECORD
  5
18910
330
1
100
AcDbSymbolTableRecord
100
AcDbBlockTableRecord
  2
*U8
340
0
  0
BLOCK_RECORD
  5
1908F
330
1
100
AcDbSymbolTableRecord
100
AcDbBlockTableRecord
  2
*D9
340
0
  0
BLOCK_RECORD
  5
190CA
330
1
100
AcDbSymbolTableRecord
100
AcDbBlockTableRecord
  2
*D10
340
0
  0
BLOCK_RECORD
  5
19123
330
1
100
AcDbSymbolTableRecord
100
AcDbBlockTableRecord
  2
*D11
340
0
  0
BLOCK_RECORD
  5
19189
330
1
100
AcDbSymbolTableRecord
100
AcDbBlockTableRecord
  2
*D12
340
0
  0
ENDTAB
  0
ENDSEC
  0
SECTION
  2
BLOCKS
  0
BLOCK
  5
20
330
1F
100
AcDbEntity
  8
0
100
AcDbBlockBegin
  2
*Model_Space
 70
     0
 71
     0
 10
0.0
 20
0.0
 30
0.0
  3
*Model_Space
  1

  0
ENDBLK
  5
21
330
1F
100
AcDbEntity
  8
0
100
AcDbBlockEnd
  0
BLOCK
  5
1C
330
1B
100
AcDbEntity
 67
     1
  8
0
100
AcDbBlockBegin
  2
*Paper_Space
 70
     0
 71
     0
 10
0.0
 20
0.0
 30
0.0
  3
*Paper_Space
  1

  0
ENDBLK
  5
1D
330
1B
100
AcDbEntity
 67
     1
  8
0
100
AcDbBlockEnd
  0
BLOCK
  5
24
330
23
100
AcDbEntity
  8
0
100
AcDbBlockBegin
  2
*Paper_Space0
 70
     0
 71
     0
 10
0.0
 20
0.0
 30
0.0
  3
*Paper_Space0
  1

  0
ENDBLK
  5
25
330
23
100
AcDbEntity
  8
0
100
AcDbBlockEnd
  0
BLOCK
  5
5D
330
59
100
AcDbEntity
  8
0
100
AcDbBlockBegin
  2
_Open30
 70
     0
 71
     0
 10
0.0
 20
0.0
 30
0.0
  3
_Open30
  1

  0
LINE
  5
5A
330
59
100
AcDbEntity
  8
0
 62
     0
370
    -2
100
AcDbLine
 10
-1.0
 20
0.26794919
 30
0.0
 11
0.0
 21
0.0
 31
0.0
  0
LINE
  5
5B
330
59
100
AcDbEntity
  8
0
 62
     0
370
    -2
100
AcDbLine
 10
0.0
 20
0.0
 30
0.0
 11
-1.0
 21
-0.26794919
 31
0.0
  0
LINE
  5
5C
330
59
100
AcDbEntity
  8
0
 62
     0
370
    -2
100
AcDbLine
 10
0.0
 20
0.0
 30
0.0
 11
-1.0
 21
0.0
 31
0.0
  0
ENDBLK
  5
5E
330
59
100
AcDbEntity
  8
0
100
AcDbBlockEnd
  0
BLOCK
  5
66
330
64
100
AcDbEntity
  8
0
100
AcDbBlockBegin
  2
GENAXEH
 70
     0
 71
     0
 10
0.0
 20
0.0
 30
0.0
  3
GENAXEH
  1

  0
LINE
  5
65
330
64
100
AcDbEntity
  8
0
100
AcDbLine
 10
-1.0
 20
0.0
 30
0.0
 11
1.0
 21
0.0
 31
0.0
  0
ENDBLK
  5
67
330
64
100
AcDbEntity
  8
0
100
AcDbBlockEnd
  0
BLOCK
  5
F484
330
F479
100
AcDbEntity
  8
0
100
AcDbBlockBegin
  2
*D3
 70
     1
 71
     0
 10
0.0
 20
0.0
 30
0.0
  3
*D3
  1

  0
LINE
  5
193E2
330
F479
100
AcDbEntity
  8
AM_5
 62
     3
370
    13
100
AcDbLine
 10
93.75
 20
6.216117818584984
 30
0.0
 11
93.75
 21
-16.62457455667753
 31
0.0
  0
LINE
  5
193E3
330
F479
100
AcDbEntity
  8
AM_5
 62
     3
370
    13
100
AcDbLine
 10
108.75
 20
6.216117818584984
 30
0.0
 11
108.75
 21
-16.62457455667753
 31
0.0
  0
LINE
  5
193E4
330
F479
100
AcDbEntity
  8
AM_5
 62
     3
370
    13
100
AcDbLine
 10
96.25
 20
-15.62457455667753
 30
0.0
 11
106.25
 21
-15.62457455667753
 31
0.0
  0
INSERT
  5
193E5
330
F479
100
AcDbEntity
  8
AM_5
 62
     3
370
    13
100
AcDbBlockReference
  2
_Open30
 10
93.75
 20
-15.62457455667753
 30
0.0
 41
2.5
 42
2.5
 43
2.5
 50
180.0
  0
INSERT
  5
193E6
330
F479
100
AcDbEntity
  8
AM_5
 62
     3
370
    13
100
AcDbBlockReference
  2
_Open30
 10
108.75
 20
-15.62457455667753
 30
0.0
 41
2.5
 42
2.5
 43
2.5
  0
MTEXT
  5
193E7
330
F479
100
AcDbEntity
  8
AM_5
 62
     2
100
AcDbMText
 10
101.25
 20
-12.22457455667753
 30
0.0
 40
3.8
 41
0.0
 71
     5
 72
     1
  1
15
 73
     1
 44
1.0
  0
POINT
  5
193E8
330
F479
100
AcDbEntity
  8
Defpoints
 62
     0
100
AcDbPoint
 10
93.75
 20
6.216117818584984
 30
0.0
  0
POINT
  5
193E9
330
F479
100
AcDbEntity
  8
Defpoints
 62
     0
100
AcDbPoint
 10
108.75
 20
6.216117818584984
 30
0.0
  0
POINT
  5
193EA
330
F479
100
AcDbEntity
  8
Defpoints
 62
     0
100
AcDbPoint
 10
108.75
 20
-15.62457455667753
 30
0.0
  0
ENDBLK
  5
F485
330
F479
100
AcDbEntity
  8
0
100
AcDbBlockEnd
  0
BLOCK
  5
F6AA
330
F6A4
100
AcDbEntity
  8
0
100
AcDbBlockBegin
  2
*D4
 70
     1
 71
     0
 10
0.0
 20
0.0
 30
0.0
  3
*D4
  1

  0
LINE
  5
193EB
330
F6A4
100
AcDbEntity
  8
AM_5
100
AcDbLine
 10
119.0975529984595
 20
26.86776203626598
 30
0.0
 11
108.7618049669633
 21
26.86776203626598
 31
0.0
  0
LINE
  5
193EC
330
F6A4
100
AcDbEntity
  8
AM_5
100
AcDbLine
 10
108.7618049669633
 20
26.86776203626598
 30
0.0
 11
105.3193231166331
 21
18.67939096082142
 31
0.0
  0
LINE
  5
193ED
330
F6A4
100
AcDbEntity
  8
AM_5
100
AcDbLine
 10
97.18067688336656
 20
-0.6793909608215571
 30
0.0
 11
96.21179042702529
 21
-2.984007856255257
 31
0.0
  0
MTEXT
  5
193EE
330
F6A4
100
AcDbEntity
  8
AM_5
 62
     2
100
AcDbMText
 10
115.5833010299555
 20
30.26776203626598
 30
0.0
 40
3.8
 41
0.0
 71
     5
 72
     1
  1
\U+220516
 73
     1
 44
1.0
  0
LINE
  5
193EF
330
F6A4
100
AcDbEntity
  8
AM_5
100
AcDbLine
 10
98.14956333970781
 20
1.625225934612146
 30
0.0
 11
104.3504366602919
 21
16.37477406538771
 31
0.0
  0
INSERT
  5
193F0
330
F6A4
100
AcDbEntity
  8
AM_5
100
AcDbBlockReference
  2
_Open30
 10
98.14956333970781
 20
1.625225934612146
 30
0.0
 41
2.5
 42
2.5
 43
2.5
 50
67.19757628785138
  0
INSERT
  5
193F1
330
F6A4
100
AcDbEntity
  8
AM_5
100
AcDbBlockReference
  2
_Open30
 10
104.3504366602919
 20
16.37477406538771
 30
0.0
 41
2.5
 42
2.5
 43
2.5
 50
247.1975762878514
  0
POINT
  5
193F2
330
F6A4
100
AcDbEntity
  8
Defpoints
 62
     0
100
AcDbPoint
 10
104.3504366602919
 20
16.37477406538771
 30
0.0
  0
POINT
  5
193F3
330
F6A4
100
AcDbEntity
  8
Defpoints
 62
     0
100
AcDbPoint
 10
98.14956333970781
 20
1.625225934612146
 30
0.0
  0
ENDBLK
  5
F6AB
330
F6A4
100
AcDbEntity
  8
0
100
AcDbBlockEnd
  0
BLOCK
  5
10C4C
330
10C42
100
AcDbEntity
  8
0
100
AcDbBlockBegin
  2
*D5
 70
     1
 71
     0
 10
0.0
 20
0.0
 30
0.0
  3
*D5
  1

  0
LINE
  5
193F4
330
10C42
100
AcDbEntity
  8
AM_5
 62
     3
370
    13
100
AcDbLine
 10
17.99999999999966
 20
-71.32719119272785
 30
0.0
 11
17.99999999999966
 21
-88.64177980338313
 31
0.0
  0
LINE
  5
193F5
330
10C42
100
AcDbEntity
  8
AM_5
 62
     3
370
    13
100
AcDbLine
 10
-0.0000000000002274
 20
-63.57719119272785
 30
0.0
 11
-0.0000000000002289
 21
-88.64177980338313
 31
0.0
  0
LINE
  5
193F6
330
10C42
100
AcDbEntity
  8
AM_5
 62
     3
370
    13
100
AcDbLine
 10
15.49999999999966
 20
-87.64177980338313
 30
0.0
 11
2.499999999999771
 21
-87.64177980338313
 31
0.0
  0
INSERT
  5
193F7
330
10C42
100
AcDbEntity
  8
AM_5
 62
     3
370
    13
100
AcDbBlockReference
  2
_Open30
 10
17.99999999999966
 20
-87.64177980338313
 30
0.0
 41
2.5
 42
2.5
 43
2.5
  0
INSERT
  5
193F8
330
10C42
100
AcDbEntity
  8
AM_5
 62
     3
370
    13
100
AcDbBlockReference
  2
_Open30
 10
-0.0000000000002288
 20
-87.64177980338313
 30
0.0
 41
2.5
 42
2.5
 43
2.5
 50
180.0
  0
MTEXT
  5
193F9
330
10C42
100
AcDbEntity
  8
AM_5
 62
     2
100
AcDbMText
 10
8.999999999999716
 20
-84.24177980338313
 30
0.0
 40
3.8
 41
0.0
 71
     5
 72
     1
  1
18
 73
     1
 44
1.0
  0
POINT
  5
193FA
330
10C42
100
AcDbEntity
  8
Defpoints
 62
     0
100
AcDbPoint
 10
17.99999999999966
 20
-71.32719119272785
 30
0.0
  0
POINT
  5
193FB
330
10C42
100
AcDbEntity
  8
Defpoints
 62
     0
100
AcDbPoint
 10
-0.0000000000002274
 20
-63.57719119272785
 30
0.0
  0
POINT
  5
193FC
330
10C42
100
AcDbEntity
  8
Defpoints
 62
     0
100
AcDbPoint
 10
-0.0000000000002288
 20
-87.64177980338313
 30
0.0
  0
ENDBLK
  5
10C4D
330
10C42
100
AcDbEntity
  8
0
100
AcDbBlockEnd
  0
BLOCK
  5
16A0D
330
16A07
100
AcDbEntity
  8
0
100
AcDbBlockBegin
  2
*D6
 70
     1
 71
     0
 10
0.0
 20
0.0
 30
0.0
  3
*D6
  1

  0
LINE
  5
193FD
330
16A07
100
AcDbEntity
  8
AM_5
100
AcDbLine
 10
-101.0248928524109
 20
24.87710031562668
 30
0.0
 11
-77.15716684292184
 21
24.87710031562667
 31
0.0
  0
LINE
  5
193FE
330
16A07
100
AcDbEntity
  8
AM_5
100
AcDbLine
 10
-77.15716684292184
 20
24.87710031562667
 30
0.0
 11
-66.80252614201325
 21
16.40651635307764
 31
0.0
  0
LINE
  5
193FF
330
16A07
100
AcDbEntity
  8
AM_5
100
AcDbLine
 10
-49.00033306364614
 20
1.843483646922447
 30
0.0
 11
-47.06531207686712
 21
0.2605453092968944
 31
0.0
  0
MTEXT
  5
19400
330
16A07
100
AcDbEntity
  8
AM_5
 62
     2
100
AcDbMText
 10
-89.84102984766636
 20
31.44376698229335
 30
0.0
 40
3.8
 41
0.0
 71
     5
 72
     1
  1
最小加工径\P\U+220518
 73
     1
 44
1.0
  0
LINE
  5
19401
330
16A07
100
AcDbEntity
  8
AM_5
100
AcDbLine
 10
-50.93535405042516
 20
3.426421984548
 30
0.0
 11
-64.86750515523423
 21
14.82357801545209
 31
0.0
  0
INSERT
  5
19402
330
16A07
100
AcDbEntity
  8
AM_5
100
AcDbBlockReference
  2
_Open30
 10
-50.93535405042516
 20
3.426421984548
 30
0.0
 41
2.5
 42
2.5
 43
2.5
 50
140.7152165213178
  0
INSERT
  5
19403
330
16A07
100
AcDbEntity
  8
AM_5
100
AcDbBlockReference
  2
_Open30
 10
-64.86750515523423
 20
14.82357801545209
 30
0.0
 41
2.5
 42
2.5
 43
2.5
 50
320.7152165213178
  0
POINT
  5
19404
330
16A07
100
AcDbEntity
  8
Defpoints
 62
     0
100
AcDbPoint
 10
-64.86750515523423
 20
14.82357801545209
 30
0.0
  0
POINT
  5
19405
330
16A07
100
AcDbEntity
  8
Defpoints
 62
     0
100
AcDbPoint
 10
-50.93535405042516
 20
3.426421984548
 30
0.0
  0
ENDBLK
  5
16A0E
330
16A07
100
AcDbEntity
  8
0
100
AcDbBlockEnd
  0
BLOCK
  5
184C2
330
184B4
100
AcDbEntity
  8
0
100
AcDbBlockBegin
  2
*D7
 70
     1
 71
     0
 10
0.0
 20
0.0
 30
0.0
  3
*D7
  1

  0
LINE
  5
1944D
330
184B4
100
AcDbEntity
  8
AM_5
 62
     3
370
    13
100
AcDbLine
 10
-5.124955633298553
 20
-63.12881567374088
 30
0.0
 11
-11.50988021988544
 21
-62.57020715494654
 31
0.0
  0
LINE
  5
1944E
330
184B4
100
AcDbEntity
  8
AM_5
 62
     3
370
    13
100
AcDbLine
 10
-1.773854710452496
 20
-63.57719119272784
 30
0.0
 11
-11.5538460924688
 21
-63.57719119272783
 31
0.0
  0
ARC
  5
1944F
330
184B4
100
AcDbEntity
  8
AM_5
 62
     3
370
    13
100
AcDbCircle
 10
-0.0000000000002025
 20
-63.57719119272784
 30
0.0
 40
10.5538460924686
100
AcDbArc
 50
147.7916296331048
 51
161.3958148165522
  0
ARC
  5
19450
330
184B4
100
AcDbEntity
  8
AM_5
 62
     3
370
    13
100
AcDbCircle
 10
-0.0000000000002025
 20
-63.57719119272784
 30
0.0
 40
10.5538460924686
100
AcDbArc
 50
193.6041851834474
 51
207.2083703668949
  0
ARC
  5
19451
330
184B4
100
AcDbEntity
  8
AM_5
 62
     3
370
    13
100
AcDbCircle
 10
-0.0000000000002025
 20
-63.57719119272784
 30
0.0
 40
10.5538460924686
100
AcDbArc
 50
174.9999999999997
 51
180.0
  0
INSERT
  5
19452
330
184B4
100
AcDbEntity
  8
AM_5
 62
     3
370
    13
100
AcDbBlockReference
  2
_Open30
 10
-10.5136855217937
 20
-62.65736289769421
 30
0.0
 41
2.5
 42
2.5
 43
2.5
 50
258.197907408276
  0
INSERT
  5
19453
330
184B4
100
AcDbEntity
  8
AM_5
 62
     3
370
    13
100
AcDbBlockReference
  2
_Open30
 10
-10.5538460924688
 20
-63.57719119272783
 30
0.0
 41
2.5
 42
2.5
 43
2.5
 50
96.80209259172369
  0
MTEXT
  5
19454
330
184B4
100
AcDbEntity
  8
AM_5
 62
     2
100
AcDbMText
 10
-11.23358013347237
 20
-64.64357641565223
 30
0.0
 40
3.8
 41
0.0
 71
     5
 72
     1
  1
5°
 73
     1
 44
1.0
  0
POINT
  5
19455
330
184B4
100
AcDbEntity
  8
Defpoints
 62
     0
100
AcDbPoint
 10
-10.53599065525095
 20
-62.96353961733372
 30
0.0
  0
POINT
  5
19456
330
184B4
100
AcDbEntity
  8
Defpoints
 62
     0
100
AcDbPoint
 10
-1.773854710452496
 20
-63.57719119272784
 30
0.0
  0
POINT
  5
19457
330
184B4
100
AcDbEntity
  8
Defpoints
 62
     0
100
AcDbPoint
 10
-0.0000000000002274
 20
-63.57719119272783
 30
0.0
  0
POINT
  5
19458
330
184B4
100
AcDbEntity
  8
Defpoints
 62
     0
100
AcDbPoint
 10
-5.124955633298553
 20
-63.12881567374088
 30
0.0
  0
POINT
  5
19459
330
184B4
100
AcDbEntity
  8
Defpoints
 62
     0
100
AcDbPoint
 10
153.6686900870428
 20
-63.57719119272784
 30
0.0
  0
ENDBLK
  5
184C3
330
184B4
100
AcDbEntity
  8
0
100
AcDbBlockEnd
  0
BLOCK
  5
18911
330
18910
100
AcDbEntity
  8
0
100
AcDbBlockBegin
  2
*U8
 70
     1
 71
     0
 10
0.0
 20
0.0
 30
0.0
  3
*U8
  1

  0
ENDBLK
  5
18912
330
18910
100
AcDbEntity
  8
0
100
AcDbBlockEnd
  0
BLOCK
  5
190B3
330
1908F
100
AcDbEntity
  8
0
100
AcDbBlockBegin
  2
*D9
 70
     1
 71
     0
 10
0.0
 20
0.0
 30
0.0
  3
*D9
  1

  0
LINE
  5
19413
330
1908F
100
AcDbEntity
  8
AM_5
 62
     3
370
    13
100
AcDbLine
 10
-2.673752634007769
 20
0.0
 30
0.0
 11
-9.948137958869099
 21
0.0000000000000021
 31
0.0
  0
LINE
  5
19414
330
1908F
100
AcDbEntity
  8
AM_5
 62
     3
370
    13
100
AcDbLine
 10
-2.165548451965719
 20
9.000000000000007
 30
0.0
 11
-9.948137958869097
 21
9.000000000000009
 31
0.0
  0
LINE
  5
19415
330
1908F
100
AcDbEntity
  8
AM_5
 62
     3
370
    13
100
AcDbLine
 10
-8.948137958869099
 20
2.500000000000002
 30
0.0
 11
-8.948137958869097
 21
6.500000000000009
 31
0.0
  0
INSERT
  5
19416
330
1908F
100
AcDbEntity
  8
AM_5
 62
     3
370
    13
100
AcDbBlockReference
  2
_Open30
 10
-8.948137958869099
 20
0.0000000000000018
 30
0.0
 41
2.5
 42
2.5
 43
2.5
 50
270.0
  0
INSERT
  5
19417
330
1908F
100
AcDbEntity
  8
AM_5
 62
     3
370
    13
100
AcDbBlockReference
  2
_Open30
 10
-8.948137958869097
 20
9.000000000000009
 30
0.0
 41
2.5
 42
2.5
 43
2.5
 50
90.0
  0
MTEXT
  5
19418
330
1908F
100
AcDbEntity
  8
AM_5
 62
     2
100
AcDbMText
 10
-12.3481379588691
 20
4.500000000000004
 30
0.0
 40
3.8
 41
0.0
 71
     5
 72
     1
  1
9
 11
6.123031769111886E-17
 21
1.0
 31
0.0
 73
     1
 44
1.0
  0
POINT
  5
19419
330
1908F
100
AcDbEntity
  8
Defpoints
 62
     0
100
AcDbPoint
 10
-2.673752634007769
 20
0.0
 30
0.0
  0
POINT
  5
1941A
330
1908F
100
AcDbEntity
  8
Defpoints
 62
     0
100
AcDbPoint
 10
-2.165548451965719
 20
9.000000000000007
 30
0.0
  0
POINT
  5
1941B
330
1908F
100
AcDbEntity
  8
Defpoints
 62
     0
100
AcDbPoint
 10
-8.948137958869097
 20
9.000000000000009
 30
0.0
  0
ENDBLK
  5
190B4
330
1908F
100
AcDbEntity
  8
0
100
AcDbBlockEnd
  0
BLOCK
  5
19111
330
190CA
100
AcDbEntity
  8
0
100
AcDbBlockBegin
  2
*D10
 70
     1
 71
     0
 10
0.0
 20
0.0
 30
0.0
  3
*D10
  1

  0
LINE
  5
1941C
330
190CA
100
AcDbEntity
  8
AM_5
 62
     3
370
    13
100
AcDbLine
 10
0.5025796663363735
 20
9.996858903330699
 30
0.0
 11
1.189158503406185
 21
23.09756354036009
 31
0.0
  0
LINE
  5
1941D
330
190CA
100
AcDbEntity
  8
AM_5
 62
     3
370
    13
100
AcDbLine
 10
-2.673752634007769
 20
0.0
 30
0.0
 11
-23.15059489783955
 21
-0.0000000000000018
 31
0.0
  0
ARC
  5
1941E
330
190CA
100
AcDbEntity
  8
AM_5
 62
     3
370
    13
100
AcDbCircle
 10
-0.0213335085931234
 20
-0.0000000000000001
 30
0.0
 40
22.12926138924643
100
AcDbArc
 50
93.47629978375646
 51
173.5237002162433
  0
INSERT
  5
1941F
330
190CA
100
AcDbEntity
  8
AM_5
 62
     3
370
    13
100
AcDbBlockReference
  2
_Open30
 10
1.136822547163236
 20
22.09893400560551
 30
0.0
 41
2.5
 42
2.5
 43
2.5
 50
0.2381498918781104
  0
INSERT
  5
19420
330
190CA
100
AcDbEntity
  8
AM_5
 62
     3
370
    13
100
AcDbBlockReference
  2
_Open30
 10
-22.15059489783955
 20
-0.0000000000000018
 30
0.0
 41
2.5
 42
2.5
 43
2.5
 50
266.7618501081217
  0
MTEXT
  5
19421
330
190CA
100
AcDbEntity
  8
AM_5
 62
     2
100
AcDbMText
 10
-17.59451739996275
 20
18.51827192263294
 30
0.0
 40
3.8
 41
0.0
 71
     5
 72
     1
  1
93°
 11
0.7253743710122885
 21
0.688354575693753
 31
0.0
 73
     1
 44
1.0
  0
POINT
  5
19422
330
190CA
100
AcDbEntity
  8
Defpoints
 62
     0
100
AcDbPoint
 10
-10.41039243630006
 20
19.53897807538116
 30
0.0
  0
POINT
  5
19423
330
190CA
100
AcDbEntity
  8
Defpoints
 62
     0
100
AcDbPoint
 10
0.0005479473087462
 20
0.4175230509900417
 30
0.0
  0
POINT
  5
19424
330
190CA
100
AcDbEntity
  8
Defpoints
 62
     0
100
AcDbPoint
 10
-2.673752634007769
 20
0.0
 30
0.0
  0
POINT
  5
19425
330
190CA
100
AcDbEntity
  8
Defpoints
 62
     0
100
AcDbPoint
 10
0.3960502988372809
 20
0.0
 30
0.0
  0
POINT
  5
19426
330
190CA
100
AcDbEntity
  8
Defpoints
 62
     0
100
AcDbPoint
 10
0.5025796663363735
 20
9.996858903330699
 30
0.0
  0
ENDBLK
  5
19112
330
190CA
100
AcDbEntity
  8
0
100
AcDbBlockEnd
  0
BLOCK
  5
19155
330
19123
100
AcDbEntity
  8
0
100
AcDbBlockBegin
  2
*D11
 70
     1
 71
     0
 10
0.0
 20
0.0
 30
0.0
  3
*D11
  1

  0
LINE
  5
19427
330
19123
100
AcDbEntity
  8
AM_5
 62
     3
370
    13
100
AcDbLine
 10
-57.90142960282957
 20
-0.0299055701935631
 30
0.0
 11
-59.21393793490709
 21
-20.11673867136338
 31
0.0
  0
LINE
  5
19428
330
19123
100
AcDbEntity
  8
AM_5
 62
     3
370
    13
100
AcDbLine
 10
-57.90142960282957
 20
-5.105041805582074
 30
0.0
 11
-57.90142960282957
 21
-20.15957377799134
 31
0.0
  0
ARC
  5
19429
330
19123
100
AcDbEntity
  8
AM_5
 62
     3
370
    13
100
AcDbCircle
 10
-57.90142960282957
 20
-0.0299055701935631
 30
0.0
 40
19.12966820779777
100
AcDbArc
 50
251.2429166421045
 51
266.2615094123228
  0
LINE
  5
1942A
330
19123
100
AcDbEntity
  8
AM_5
 62
     3
370
    13
100
AcDbLine
 10
-64.05269932883924
 20
-18.14360443316205
 30
0.0
 11
-73.55000987401199
 21
-14.91839243880413
 31
0.0
  0
ARC
  5
1942B
330
19123
100
AcDbEntity
  8
AM_5
 62
     3
370
    13
100
AcDbCircle
 10
-57.90142960282957
 20
-0.0299055701935631
 30
0.0
 40
19.12966820779777
100
AcDbArc
 50
251.2751984123618
 51
258.7683539123423
  0
ARC
  5
1942C
330
19123
100
AcDbEntity
  8
AM_5
 62
     3
370
    13
100
AcDbCircle
 10
-57.90142960282957
 20
-0.0299055701935631
 30
0.0
 40
19.12966820779777
100
AcDbArc
 50
277.4931554999805
 51
284.986310999961
  0
ARC
  5
1942D
330
19123
100
AcDbEntity
  8
AM_5
 62
     3
370
    13
100
AcDbCircle
 10
-57.90142960282957
 20
-0.0299055701935631
 30
0.0
 40
19.12966820779777
100
AcDbArc
 50
266.2615094123228
 51
270.0
  0
INSERT
  5
1942E
330
19123
100
AcDbEntity
  8
AM_5
 62
     3
370
    13
100
AcDbBlockReference
  2
_Open30
 10
-59.14873525404178
 20
-19.11886663026393
 30
0.0
 41
2.5
 42
2.5
 43
2.5
 50
352.5149316623325
  0
INSERT
  5
1942F
330
19123
100
AcDbEntity
  8
AM_5
 62
     3
370
    13
100
AcDbBlockReference
  2
_Open30
 10
-57.90142960282958
 20
-19.15957377799134
 30
0.0
 41
2.5
 42
2.5
 43
2.5
 50
183.7465777499903
  0
MTEXT
  5
19430
330
19123
100
AcDbEntity
  8
AM_5
 62
     2
100
AcDbMText
 10
-67.70806239994835
 20
-13.3115711325347
 30
0.0
 40
3.8
 41
0.0
 71
     5
 72
     1
  1
4°
 11
0.9468903833671748
 21
-0.3215565298462541
 31
0.0
 73
     1
 44
1.0
  0
POINT
  5
19431
330
19123
100
AcDbEntity
  8
Defpoints
 62
     0
100
AcDbPoint
 10
-58.31746051507173
 20
-19.15504933489473
 30
0.0
  0
POINT
  5
19432
330
19123
100
AcDbEntity
  8
Defpoints
 62
     0
100
AcDbPoint
 10
-57.90142960282957
 20
21.59843988049301
 30
0.0
  0
POINT
  5
19433
330
19123
100
AcDbEntity
  8
Defpoints
 62
     0
100
AcDbPoint
 10
-57.87220079908149
 20
0.4174166206722842
 30
0.0
  0
POINT
  5
19434
330
19123
100
AcDbEntity
  8
Defpoints
 62
     0
100
AcDbPoint
 10
-57.24627046657757
 20
9.996752473012929
 30
0.0
  0
POINT
  5
19435
330
19123
100
AcDbEntity
  8
Defpoints
 62
     0
100
AcDbPoint
 10
-57.90142960282957
 20
-5.105041805582074
 30
0.0
  0
ENDBLK
  5
19156
330
19123
100
AcDbEntity
  8
0
100
AcDbBlockEnd
  0
BLOCK
  5
191BA
330
19189
100
AcDbEntity
  8
0
100
AcDbBlockBegin
  2
*D12
 70
     1
 71
     0
 10
0.0
 20
0.0
 30
0.0
  3
*D12
  1

  0
LINE
  5
19436
330
19189
100
AcDbEntity
  8
AM_5
 62
     3
370
    13
100
AcDbLine
 10
0.0
 20
-2.645739218940122
 30
0.0
 11
-0.0000000000000019
 21
-33.06999272890151
 31
0.0
  0
LINE
  5
19437
330
19189
100
AcDbEntity
  8
AM_5
 62
     3
370
    13
100
AcDbLine
 10
199.9999999999999
 20
2.000000000000007
 30
0.0
 11
199.9999999999999
 21
-33.06999272890151
 31
0.0
  0
LINE
  5
19438
330
19189
100
AcDbEntity
  8
AM_5
 62
     3
370
    13
100
AcDbLine
 10
2.499999999999998
 20
-32.06999272890151
 30
0.0
 11
197.4999999999999
 21
-32.06999272890151
 31
0.0
  0
INSERT
  5
19439
330
19189
100
AcDbEntity
  8
AM_5
 62
     3
370
    13
100
AcDbBlockReference
  2
_Open30
 10
-0.0000000000000018
 20
-32.06999272890151
 30
0.0
 41
2.5
 42
2.5
 43
2.5
 50
180.0
  0
INSERT
  5
1943A
330
19189
100
AcDbEntity
  8
AM_5
 62
     3
370
    13
100
AcDbBlockReference
  2
_Open30
 10
199.9999999999999
 20
-32.06999272890151
 30
0.0
 41
2.5
 42
2.5
 43
2.5
  0
MTEXT
  5
1943B
330
19189
100
AcDbEntity
  8
AM_5
 62
     2
100
AcDbMText
 10
99.99999999999997
 20
-28.66961871315348
 30
0.0
 40
3.8
 41
0.0
 71
     5
 72
     1
  1
200
 73
     1
 44
1.0
  0
POINT
  5
1943C
330
19189
100
AcDbEntity
  8
Defpoints
 62
     0
100
AcDbPoint
 10
0.0
 20
-2.645739218940122
 30
0.0
  0
POINT
  5
1943D
330
19189
100
AcDbEntity
  8
Defpoints
 62
     0
100
AcDbPoint
 10
199.9999999999999
 20
2.000000000000007
 30
0.0
  0
POINT
  5
1943E
330
19189
100
AcDbEntity
  8
Defpoints
 62
     0
100
AcDbPoint
 10
199.9999999999999
 20
-32.06999272890151
 30
0.0
  0
ENDBLK
  5
191BB
330
19189
100
AcDbEntity
  8
0
100
AcDbBlockEnd
  0
ENDSEC
  0
SECTION
  2
ENTITIES
  0
LINE
  5
EF21
330
1F
100
AcDbEntity
  8
AM_7
100
AcDbLine
 10
203.5620185884497
 20
8.999999999999979
 30
0.0
 11
-2.165548451965719
 21
9.000000000000007
 31
0.0
1001
GENIUS_GENODEF_13
1002
{
1000
HIER
1070
     0
1002
}
1002
{
1000
MANEDIT
1070
     0
1002
}
1002
{
1000
NOSEL
1070
     0
1002
}
1002
{
1000
BEHIND
1070
     0
1002
}
1002
{
1000
REACTOR
1002
}
1001
GENIUS_GENOBJ-N-CEN_13
1002
{
1000
OWNER
1000
GEN
1002
}
  0
ARC
  5
EF22
330
1F
100
AcDbEntity
  8
AM_0
100
AcDbCircle
 10
101.25
 20
8.999999999999993
 30
0.0
 40
8.0
100
AcDbArc
 50
200.3641348063178
 51
339.6358651936822
  0
ARC
  5
EF34
330
1F
100
AcDbEntity
  8
AM_0
100
AcDbCircle
 10
101.25
 20
8.999999999999993
 30
0.0
 40
8.0
100
AcDbArc
 50
20.36413480631778
 51
159.6358651936822
  0
LINE
  5
EF4A
330
1F
100
AcDbEntity
  8
AM_0
100
AcDbLine
 10
108.75
 20
11.783882181415
 30
0.0
 11
108.75
 21
6.216117818584984
 31
0.0
  0
LINE
  5
EF4B
330
1F
100
AcDbEntity
  8
AM_0
100
AcDbLine
 10
93.75
 20
11.783882181415
 30
0.0
 11
93.75
 21
6.216117818584984
 31
0.0
  0
LINE
  5
EF61
330
1F
100
AcDbEntity
  8
AM_7
  6
AM_ISO08W050x2
100
AcDbLine
 10
101.25
 20
20.20813857451881
 30
0.0
 11
101.25
 21
-2.183904590500887
 31
0.0
1001
GENIUS_GENODEF_13
1002
{
1000
HIER
1070
     0
1002
}
1002
{
1000
MANEDIT
1070
     0
1002
}
1002
{
1000
NOSEL
1070
     0
1002
}
1002
{
1000
BEHIND
1070
     0
1002
}
1002
{
1000
REACTOR
1002
}
1001
GENIUS_GENOBJ-N-CEN_13
1002
{
1000
OWNER
1000
GEN
1002
}
  0
LINE
  5
EF96
330
1F
100
AcDbEntity
  8
AM_7
100
AcDbLine
 10
-1.773854710452497
 20
-63.57719119272785
 30
0.0
 11
203.5620185884497
 21
-63.57719119272788
 31
0.0
1001
GENIUS_GENODEF_13
1002
{
1000
HIER
1070
     0
1002
}
1002
{
1000
MANEDIT
1070
     0
1002
}
1002
{
1000
NOSEL
1070
     0
1002
}
1002
{
1000
BEHIND
1070
     0
1002
}
1002
{
1000
REACTOR
1002
}
1001
GENIUS_GENOBJ-N-CEN_13
1002
{
1000
OWNER
1000
GEN
1002
}
  0
ARC
  5
EFB8
330
1F
100
AcDbEntity
  8
AM_0
100
AcDbCircle
 10
4.414727691993335
 20
5.640424196900966
 30
0.0
 40
0.2499999999998634
100
AcDbArc
 50
316.9722150900681
 51
103.0277849099401
  0
ARC
  5
EFB9
330
1F
100
AcDbEntity
  8
AM_0
100
AcDbCircle
 10
4.414727691993335
 20
4.480424196901168
 30
0.0
 40
0.2499999999998634
100
AcDbArc
 50
256.9722150900631
 51
43.02778490993659
  0
CIRCLE
  5
EFBA
330
1F
100
AcDbEntity
  8
AM_0
100
AcDbCircle
 10
3.410138223603553
 20
5.060424196901039
 30
0.0
 40
2.15
  0
CIRCLE
  5
EFBC
330
1F
100
AcDbEntity
  8
AM_0
100
AcDbCircle
 10
3.410138223603553
 20
5.060424196901039
 30
0.0
 40
1.803589838486232
  0
ARC
  5
EFBD
330
1F
100
AcDbEntity
  8
AM_0
100
AcDbCircle
 10
5.036097147309533
 20
5.060424196901039
 30
0.0
 40
0.6
100
AcDbArc
 50
136.9722150900634
 51
223.0277849099365
  0
ARC
  5
EFBE
330
1F
100
AcDbEntity
  8
AM_0
100
AcDbCircle
 10
3.410138223603553
 20
6.220424196900837
 30
0.0
 40
0.2499999999998634
100
AcDbArc
 50
16.97221509006815
 51
163.0277849099319
  0
ARC
  5
EFBF
330
1F
100
AcDbEntity
  8
AM_0
100
AcDbCircle
 10
2.405548755213886
 20
5.640424196900966
 30
0.0
 40
0.2499999999998634
100
AcDbArc
 50
76.97221509006819
 51
223.0277849099411
  0
ARC
  5
EFC0
330
1F
100
AcDbEntity
  8
AM_0
100
AcDbCircle
 10
2.59715876175062
 20
6.468545930340412
 30
0.0
 40
0.6
100
AcDbArc
 50
256.9722150900631
 51
343.0277849099371
  0
ARC
  5
EFC1
330
1F
100
AcDbEntity
  8
AM_0
100
AcDbCircle
 10
2.405548755213886
 20
4.480424196901168
 30
0.0
 40
0.2499999999998634
100
AcDbArc
 50
136.9722150900634
 51
283.0277849099369
  0
ARC
  5
EFC2
330
1F
100
AcDbEntity
  8
AM_0
100
AcDbCircle
 10
3.410138223603667
 20
3.900424196901298
 30
0.0
 40
0.2499999999998634
100
AcDbArc
 50
196.9722150900682
 51
343.0277849099334
  0
ARC
  5
EFC3
330
1F
100
AcDbEntity
  8
AM_0
100
AcDbCircle
 10
2.59715876175062
 20
3.652302463461666
 30
0.0
 40
0.6
100
AcDbArc
 50
16.97221509006296
 51
103.0277849099349
  0
ARC
  5
EFC4
330
1F
100
AcDbEntity
  8
AM_0
100
AcDbCircle
 10
1.784179299897687
 20
5.060424196901039
 30
0.0
 40
0.6
100
AcDbArc
 50
316.9722150900635
 51
43.02778490993659
  0
ARC
  5
EFC5
330
1F
100
AcDbEntity
  8
AM_0
100
AcDbCircle
 10
4.2231176854566
 20
3.652302463461723
 30
0.0
 40
0.6
100
AcDbArc
 50
76.97221509006315
 51
163.0277849099371
  0
ARC
  5
EFC6
330
1F
100
AcDbEntity
  8
AM_0
100
AcDbCircle
 10
4.2231176854566
 20
6.468545930340355
 30
0.0
 40
0.6
100
AcDbArc
 50
196.972215090063
 51
283.027784909935
  0
LINE
  5
EFDE
330
1F
100
AcDbEntity
  8
AM_7
  6
AM_ISO08W050x2
100
AcDbLine
 10
3.410138223603553
 20
1.094087921834785
 30
0.0
 11
3.410138223603553
 21
9.344699557229177
 31
0.0
1001
GENIUS_GENODEF_13
1002
{
1000
HIER
1070
     0
1002
}
1002
{
1000
MANEDIT
1070
     0
1002
}
1002
{
1000
NOSEL
1070
     0
1002
}
1002
{
1000
BEHIND
1070
     0
1002
}
1002
{
1000
REACTOR
1002
}
1001
GENIUS_GENOBJ-N-CEN_13
1002
{
1000
OWNER
1000
GEN
1002
}
  0
LINE
  5
EFE4
330
1F
100
AcDbEntity
  8
AM_7
  6
AM_ISO08W050x2
100
AcDbLine
 10
6.416398452612725
 20
5.060424196901039
 30
0.0
 11
-0.5004709329665502
 21
5.060424196901046
 31
0.0
1001
GENIUS_GENODEF_13
1002
{
1000
HIER
1070
     0
1002
}
1002
{
1000
MANEDIT
1070
     0
1002
}
1002
{
1000
NOSEL
1070
     0
1002
}
1002
{
1000
BEHIND
1070
     0
1002
}
1002
{
1000
REACTOR
1002
}
1001
GENIUS_GENOBJ-N-CEN_13
1002
{
1000
OWNER
1000
GEN
1002
}
  0
LINE
  5
F020
330
1F
100
AcDbEntity
  8
AM_7
  6
AM_ISO08W050x2
100
AcDbLine
 10
-57.90142960282958
 20
21.59843988049302
 30
0.0
 11
-57.90142960282958
 21
-5.105041805582076
 31
0.0
1001
GENIUS_GENODEF_13
1002
{
1000
HIER
1070
     0
1002
}
1002
{
1000
MANEDIT
1070
     0
1002
}
1002
{
1000
NOSEL
1070
     0
1002
}
1002
{
1000
BEHIND
1070
     0
1002
}
1002
{
1000
REACTOR
1002
}
1001
GENIUS_GENOBJ-N-CEN_13
1002
{
1000
OWNER
1000
GEN
1002
}
  0
LINE
  5
F032
330
1F
100
AcDbEntity
  8
AM_7
  6
AM_ISO08W050x2
100
AcDbLine
 10
-70.9478908653997
 20
9.000000000000014
 30
0.0
 11
-44.41740808691986
 21
9.000000000000007
 31
0.0
1001
GENIUS_GENODEF_13
1002
{
1000
HIER
1070
     0
1002
}
1002
{
1000
MANEDIT
1070
     0
1002
}
1002
{
1000
NOSEL
1070
     0
1002
}
1002
{
1000
BEHIND
1070
     0
1002
}
1002
{
1000
REACTOR
1002
}
1001
GENIUS_GENOBJ-N-CEN_13
1002
{
1000
OWNER
1000
GEN
1002
}
  0
DIMENSION
  5
F478
330
1F
100
AcDbEntity
  8
AM_5
100
AcDbDimension
  2
*D3
 10
108.75
 20
-15.62457455667753
 30
0.0
 11
101.25
 21
-15.62457455667753
 31
0.0
 70
   160
  1
<>
 71
     5
 42
15.0
  3
AM_JIS$0
100
AcDbAlignedDimension
 13
93.75
 23
6.216117818584984
 33
0.0
 14
108.75
 24
6.216117818584984
 34
0.0
100
AcDbRotatedDimension
1001
GENIUS_GENDTOL_13
1000

1000
h7
1000

1040
0.0
1001
ACAD
1000
DSTYLE
1002
{
1070
   271
1070
     0
1002
}
  0
DIMENSION
  5
F6A3
330
1F
100
AcDbEntity
  8
AM_5
100
AcDbDimension
  2
*D4
 10
98.14956333970781
 20
1.625225934612146
 30
0.0
 11
115.5833010299555
 21
26.86776203626598
 31
0.0
 70
   163
  1
<>
 71
     5
 42
15.99999999999987
  3
AM_JIS$3
100
AcDbDiametricDimension
 15
104.3504366602919
 25
16.37477406538771
 35
0.0
 40
0.0
1001
GENIUS_GENDTOL_13
1000

1000
h7
1000

1040
0.0
1001
ACAD
1000
DSTYLE
1002
{
1070
   271
1070
     0
1070
   289
1070
     3
1002
}
  0
DIMENSION
  5
10C41
330
1F
100
AcDbEntity
  8
AM_5
100
AcDbDimension
  2
*D5
 10
-0.0000000000002288
 20
-87.64177980338313
 30
0.0
 11
8.999999999999716
 21
-84.24177980338313
 31
0.0
 70
    32
  1
<>
 71
     5
 42
17.99999999999989
  3
AM_JIS$0
100
AcDbAlignedDimension
 13
17.99999999999966
 23
-71.32719119272785
 33
0.0
 14
-0.0000000000002274
 24
-63.57719119272785
 34
0.0
100
AcDbRotatedDimension
1001
GENIUS_GENDTOL_13
1000

1000
h7
1000

1040
0.0
1001
ACAD
1000
DSTYLE
1002
{
1070
   271
1070
     0
1002
}
  0
SPLINE
  5
16324
330
1F
100
AcDbEntity
  8
AM_11
  6
ACJISTGB
100
AcDbSpline
210
0.0
220
0.0
230
1.0
 70
     8
 71
     3
 72
     9
 73
     5
 74
     3
 42
0.0000000001
 43
0.0000000001
 44
0.0000000001
 40
0.0
 40
0.0
 40
0.0
 40
0.0
 40
5.538740563907261
 40
12.23573843483649
 40
12.23573843483649
 40
12.23573843483649
 40
12.23573843483649
 10
25.99999999701981
 20
-56.0771911927279
 30
0.0
 10
24.46879407141899
 20
-57.115157785964
 30
0.0
 10
21.08617757596309
 20
-59.4081497743766
 30
0.0
 10
17.34922989622796
 20
-61.06699856048688
 30
0.0
 10
15.30388291629356
 20
-61.97493777869906
 30
0.0
 11
25.99999999701981
 21
-56.0771911927279
 31
0.0
 11
21.33377646398685
 21
-59.06114913044101
 31
0.0
 11
15.30388291629356
 21
-61.97493777869906
 31
0.0
  0
LINE
  5
1634E
330
1F
100
AcDbEntity
  8
AM_5
100
AcDbLine
 10
-2.673752634007769
 20
0.0
 30
0.0
 11
0.3960502988372809
 21
0.0
 31
0.0
  0
LINE
  5
1634F
330
1F
100
AcDbEntity
  8
AM_5
100
AcDbLine
 10
0.0
 20
-2.645739218940122
 30
0.0
 11
0.0
 21
0.3966010872865979
 31
0.0
  0
CIRCLE
  5
168DB
330
1F
100
AcDbEntity
  8
AM_11
  6
ACJISTGB
100
AcDbCircle
 10
-57.90142960282958
 20
9.125000000000064
 30
0.0
 40
9.0
  0
DIMENSION
  5
16A06
330
1F
100
AcDbEntity
  8
AM_5
100
AcDbDimension
  2
*D6
 10
-50.93535405042516
 20
3.426421984548
 30
0.0
 11
-89.84102984766636
 21
24.87710031562668
 31
0.0
 70
   163
  1
最小加工径\P<>
 71
     5
 42
18.00000000000017
  3
AM_JIS$3
100
AcDbDiametricDimension
 15
-64.86750515523423
 25
14.82357801545209
 35
0.0
 40
0.0
1001
GENIUS_GENDTOL_13
1000

1000
h7
1000

1040
0.0
1001
ACAD
1000
DSTYLE
1002
{
1070
   271
1070
     0
1070
   288
1070
     1
1070
   289
1070
     3
1070
   172
1070
     1
1070
    74
1070
     1
1002
}
  0
LINE
  5
16A93
330
1F
100
AcDbEntity
  8
AM_5
100
AcDbLine
 10
-0.0000000000002274
 20
-63.57719119272785
 30
0.0
 11
-5.124955633298555
 21
-63.1288156737409
 31
0.0
  0
TEXT
  5
17045
330
1F
100
AcDbEntity
  8
AM_6
100
AcDbText
 10
223.6286027933871
 20
-10.35422886744391
 30
0.0
 40
3.5
  1

100
AcDbText
  0
TEXT
  5
17055
330
1F
100
AcDbEntity
  8
AM_6
100
AcDbText
 10
223.6286027933871
 20
-17.35422886744392
 30
0.0
 40
3.5
  1

100
AcDbText
  0
TEXT
  5
17762
330
1F
100
AcDbEntity
  8
AM_6
100
AcDbText
 10
308.3385417275866
 20
-2.497351507833749
 30
0.0
 40
3.5
  1

100
AcDbText
  0
LINE
  5
17EE0
330
1F
100
AcDbEntity
  8
AM_0
100
AcDbLine
 10
-59.32745443563545
 20
10.12128318213105
 30
0.0
 11
-57.25514354345182
 21
10.37727117441797
 31
0.0
  0
LINE
  5
17EE1
330
1F
100
AcDbEntity
  8
AM_0
100
AcDbLine
 10
-60.48697355841125
 20
9.812699974690574
 30
0.0
 11
-61.06370252253089
 21
0.9863495708456611
 31
0.0
  0
LINE
  5
17EE2
330
1F
100
AcDbEntity
  8
AM_0
100
AcDbLine
 10
-57.8722007990815
 20
0.4174166206722845
 30
0.0
 11
-57.24627046657759
 21
9.996752473012933
 31
0.0
  0
LINE
  5
17EE3
330
1F
100
AcDbEntity
  8
AM_0
100
AcDbLine
 10
-61.06370252253089
 20
0.9863495708456611
 30
0.0
 11
-61.09171490907841
 21
1.391808384068341
 31
0.0
  0
LINE
  5
17EE4
330
1F
100
AcDbEntity
  8
AM_0
100
AcDbLine
 10
-59.95338476818245
 20
0.5419473296103519
 30
0.0
 11
-61.06370252253089
 21
0.9863495708456611
 31
0.0
  0
LINE
  5
17EE5
330
1F
100
AcDbEntity
  8
AM_0
100
AcDbLine
 10
-59.32745443566375
 20
10.12128318217732
 30
0.0
 11
-60.48697355841125
 21
9.812699974690574
 31
0.0
  0
ELLIPSE
  5
17EE6
330
1F
100
AcDbEntity
  8
AM_0
100
AcDbEllipse
 10
-57.28245496982572
 20
9.978262169988128
 30
0.0
 11
0.02790661256672153
 21
0.3990253387631554
 31
1.492320145353694E-17
210
-2.602850007618695E-18
220
-3.721709697142744E-17
230
1.0
 40
0.0871356447448917
 41
4.764837312764245
 42
6.300188248303199
  0
ARC
  5
17EE7
330
1F
100
AcDbEntity
  8
AM_0
100
AcDbCircle
 10
-57.90142960282958
 20
9.000000000000007
 30
0.0
 40
7.999999999999968
100
AcDbArc
 50
20.3641348063165
 51
57.9756871629584
  0
SPLINE
  5
17EE8
330
1F
100
AcDbEntity
  8
AM_0
100
AcDbSpline
210
0.0
220
0.0
230
1.0
 70
    28
 71
     2
 72
     6
 73
     3
 74
     0
 42
0.0000000001
 43
0.0000000001
 40
0.0
 40
0.0
 40
0.0
 40
0.8683077351808989
 40
0.8683077351808989
 40
0.8683077351808989
 10
-50.40142960282958
 20
11.78388218141499
 30
0.0
 41
1.0
 10
-50.40142960282947
 20
11.36162452430341
 30
0.0
 41
1.001395898062718
 10
-50.40142960282958
 20
10.95256241897659
 30
0.0
 41
1.0
  0
LINE
  5
17EE9
330
1F
100
AcDbEntity
  8
AM_0
100
AcDbLine
 10
-58.93706073207227
 20
10.22517878758261
 30
0.0
 11
-58.94882966606235
 21
10.16805386454105
 31
0.0
  0
LINE
  5
17EEA
330
1F
100
AcDbEntity
  8
AM_0
100
AcDbLine
 10
-58.93706073207227
 20
10.22517878758266
 30
0.0
 11
-57.21567112662103
 21
10.68329277239199
 31
0.0
  0
LINE
  5
17EEB
330
1F
100
AcDbEntity
  8
AM_0
100
AcDbLine
 10
-60.46505130045136
 20
10.1482016443412
 30
0.0
 11
-58.93706073207227
 21
10.22517878758261
 31
0.0
  0
LINE
  5
17EEC
330
1F
100
AcDbEntity
  8
AM_0
100
AcDbLine
 10
-61.04660942332271
 20
1.247945038535406
 30
0.0
 11
-60.46505130045136
 21
10.14820164434123
 31
0.0
  0
ARC
  5
17EED
330
1F
100
AcDbEntity
  8
AM_0
100
AcDbCircle
 10
-57.90142960282958
 20
8.500000000000007
 30
0.0
 40
8.250000000000002
100
AcDbArc
 50
143.1165307507063
 51
178.2634984240653
  0
ARC
  5
17EEE
330
1F
100
AcDbEntity
  8
AM_0
100
AcDbCircle
 10
-57.90142960282958
 20
9.000000000000007
 30
0.0
 40
8.250000000000014
100
AcDbArc
 50
181.7365015759397
 51
247.6496532562258
  0
LINE
  5
17EEF
330
1F
100
AcDbEntity
  8
AM_0
100
AcDbLine
 10
-50.40142960282958
 20
10.95256241897659
 30
0.0
 11
-50.40142960282958
 21
7.552120467037078
 31
0.0
  0
LINE
  5
17EF0
330
1F
100
AcDbEntity
  8
AM_0
100
AcDbLine
 10
-57.20115837054129
 20
10.81226148728327
 30
0.0
 11
-57.2500365253311
 21
10.37790203309861
 31
0.0
  0
LINE
  5
17EF1
330
1F
100
AcDbEntity
  8
AM_0
100
AcDbLine
 10
-57.20115837054129
 20
10.81226148728329
 30
0.0
 11
-57.0582077614589
 21
13.00000000000007
 31
0.0
  0
ELLIPSE
  5
17EF2
330
1F
100
AcDbEntity
  8
AM_0
100
AcDbEllipse
 10
-58.81946623995407
 20
-7.199999999999946
 30
0.0
 11
-3.833024082875854
 21
-9.898926353952151
 31
3.099930591672259E-16
210
1.054492590102521E-17
220
2.723266085607631E-17
230
1.0
 40
0.3699919205842001
 41
3.454326848142016
 42
3.709326592110844
  0
ARC
  5
17EF3
330
1F
100
AcDbEntity
  8
AM_0
100
AcDbCircle
 10
-57.90142960282958
 20
9.000000000000007
 30
0.0
 40
7.999999999999968
100
AcDbArc
 50
102.0243128370437
 51
151.5388669134966
  0
SPLINE
  5
17EF4
330
1F
100
AcDbEntity
  8
AM_0
100
AcDbSpline
210
0.0
220
0.0
230
1.0
 70
    28
 71
     2
 72
     6
 73
     3
 74
     0
 42
0.0000000001
 43
0.0000000001
 40
0.0
 40
0.0
 40
0.0
 40
0.3682577903369513
 40
0.3682577903369513
 40
0.3682577903369513
 10
-53.65919699129256
 20
15.78258523496846
 30
0.0
 41
1.0
 10
-53.68304648454341
 20
15.64732803748823
 30
0.0
 41
1.000147402187019
 10
-53.70615068113125
 20
15.51629762742261
 30
0.0
 41
1.0
  0
SPLINE
  5
17EF5
330
1F
100
AcDbEntity
  8
AM_0
100
AcDbSpline
210
0.0
220
0.0
230
1.0
 70
     8
 71
     3
 72
    38
 73
    34
 74
     0
 42
0.0000000001
 43
0.0000000001
 40
-9.138107654842825
 40
-9.138107654842825
 40
-9.138107654842825
 40
-9.138107654842825
 40
-8.566757165328991
 40
-8.566757165328991
 40
-7.995406675815154
 40
-7.995406675815154
 40
-7.424056186301318
 40
-7.424056186301318
 40
-6.852705696787481
 40
-6.852705696787481
 40
-6.281792729445954
 40
-6.281792729445954
 40
-5.710879762104424
 40
-5.710879762104424
 40
-5.139966794762895
 40
-5.139966794762895
 40
-4.569053827421367
 40
-4.569053827421367
 40
-3.99814086007984
 40
-3.99814086007984
 40
-3.427227892738312
 40
-3.427227892738312
 40
-2.856314925396784
 40
-2.856314925396784
 40
-2.285401958055257
 40
-2.285401958055257
 40
-1.714051468541442
 40
-1.714051468541442
 40
-1.14270097902763
 40
-1.14270097902763
 40
-0.5713504895138151
 40
-0.5713504895138151
 40
0.0
 40
0.0
 40
0.0
 40
0.0
 10
-59.56804350936579
 20
16.82447430097001
 30
0.0
 10
-59.56804350936579
 20
16.82447430097001
 30
0.0
 10
-59.54858702665854
 20
16.82870234917569
 30
0.0
 10
-59.46761403618484
 20
16.84530269449031
 30
0.0
 10
-59.40612711824917
 20
16.8576452224179
 30
0.0
 10
-59.24500314164641
 20
16.88679354184502
 30
0.0
 10
-59.1452494042735
 20
16.90355970818747
 30
0.0
 10
-58.91653313495363
 20
16.93617720165612
 30
0.0
 10
-58.78756241308508
 20
16.95195353906375
 30
0.0
 10
-58.51467315013599
 20
16.97763749615767
 30
0.0
 10
-58.36113214332545
 20
16.98851814773197
 30
0.0
 10
-58.02819767159792
 20
17.00072987162371
 30
0.0
 10
-57.84881301003441
 20
17.00200013337353
 30
0.0
 10
-57.47602029673385
 20
16.99085737365097
 30
0.0
 10
-57.28228941362113
 20
16.97839142503035
 30
0.0
 10
-56.89410920957755
 20
16.93872596392241
 30
0.0
 10
-56.69965735367191
 20
16.91150802289276
 30
0.0
 10
-56.32483100931643
 20
16.84541602530258
 30
0.0
 10
-56.13279695113181
 20
16.80448607201431
 30
0.0
 10
-55.75446049116363
 20
16.70899396409437
 30
0.0
 10
-55.56814940435038
 20
16.65444825961541
 30
0.0
 10
-55.21402779430161
 20
16.53741641146807
 30
0.0
 10
-55.04589580665402
 20
16.47486958821691
 30
0.0
 10
-54.73721639592213
 20
16.34952402565052
 30
0.0
 10
-54.59665644684515
 20
16.2867854405011
 30
0.0
 10
-54.34900885084664
 20
16.16931679072145
 30
0.0
 10
-54.2332118403906
 20
16.11038129809817
 30
0.0
 10
-54.02944468964813
 20
16.0015053089635
 30
0.0
 10
-53.9414412053585
 20
15.95163247861905
 30
0.0
 10
-53.80000350590137
 20
15.86913437237423
 30
0.0
 10
-53.74644609601307
 20
15.83650642547378
 30
0.0
 10
-53.67603402686575
 20
15.79321280967185
 30
0.0
 10
-53.65919699129256
 20
15.78258523496846
 30
0.0
 10
-53.65919699129256
 20
15.78258523496846
 30
0.0
  0
SPLINE
  5
17EF6
330
1F
100
AcDbEntity
  8
AM_0
100
AcDbSpline
210
0.0
220
0.0
230
1.0
 70
    28
 71
     2
 72
     6
 73
     3
 74
     0
 42
0.0000000001
 43
0.0000000001
 40
0.0173467081304622
 40
0.0173467081304622
 40
0.0173467081304622
 40
0.3682577903369524
 40
0.3682577903369524
 40
0.3682577903369524
 10
-59.61281863165527
 20
16.57054196395872
 30
0.0
 41
1.000013232568284
 10
-59.5907697348739
 20
16.69558747141745
 30
0.0
 41
1.000140458821359
 10
-59.56804350936579
 20
16.82447430097001
 30
0.0
 41
1.0
  0
ARC
  5
17EF7
330
1F
100
AcDbEntity
  8
AM_0
100
AcDbCircle
 10
-57.90142960282958
 20
9.000000000000007
 30
0.0
 40
7.749999999999981
100
AcDbArc
 50
14.59255060203324
 51
23.5878068048642
  0
LINE
  5
17EF8
330
1F
100
AcDbEntity
  8
AM_0
100
AcDbLine
 10
-57.09040801900994
 20
13.39300857735246
 30
0.0
 11
-57.0582077614589
 21
13.00000000000007
 31
0.0
  0
LINE
  5
17EF9
330
1F
100
AcDbEntity
  8
AM_0
100
AcDbLine
 10
-57.0582077614589
 20
13.00000000000007
 30
0.0
 11
-64.50025691532085
 21
13.45156319760936
 31
0.0
  0
ARC
  5
17EFA
330
1F
100
AcDbEntity
  8
AM_0
100
AcDbCircle
 10
-57.90142960282958
 20
8.500000000000007
 30
0.0
 40
8.25
100
AcDbArc
 50
90.0
 51
143.1165307507063
  0
ARC
  5
17EFB
330
1F
100
AcDbEntity
  8
AM_0
100
AcDbCircle
 10
-57.90142960282958
 20
9.000000000000007
 30
0.0
 40
7.749999999999982
100
AcDbArc
 50
78.82575045278985
 51
90.0
  0
SPLINE
  5
17EFC
330
1F
100
AcDbEntity
  8
AM_0
100
AcDbSpline
210
0.0
220
0.0
230
1.0
 70
     8
 71
     3
 72
    10
 73
     6
 74
     0
 42
0.0000000001
 43
0.0000000001
 40
21.99174983412735
 40
21.99174983412735
 40
21.99174983412735
 40
21.99174983412735
 40
22.28477615462705
 40
22.28477615462705
 40
22.51687951079684
 40
22.51687951079684
 40
22.51687951079684
 40
22.51687951079684
 10
-57.79705460749005
 20
1.692572137762525
 30
0.0
 10
-57.7550546085921
 20
1.735012327404959
 30
0.0
 10
-57.71160929106588
 20
1.776254336653025
 30
0.0
 10
-57.63109586859855
 20
1.84779663889627
 30
0.0
 10
-57.5945913445637
 20
1.878606853685042
 30
0.0
 10
-57.55718288397316
 20
1.908591223781642
 30
0.0
  0
SPLINE
  5
17EFD
330
1F
100
AcDbEntity
  8
AM_0
100
AcDbSpline
210
0.0
220
0.0
230
1.0
 70
     8
 71
     3
 72
    22
 73
    18
 74
     0
 42
0.0000000001
 43
0.0000000001
 40
3.39956561127689
 40
3.39956561127689
 40
3.39956561127689
 40
3.39956561127689
 40
3.47433790690017
 40
3.47433790690017
 40
3.762573363186057
 40
3.762573363186057
 40
4.050808819471944
 40
4.050808819471944
 40
4.33904427575783
 40
4.33904427575783
 40
4.627279732043717
 40
4.627279732043717
 40
4.910475180461594
 40
4.910475180461594
 40
5.19367062887947
 40
5.19367062887947
 40
5.47965110396076
 40
5.47965110396076
 40
5.47965110396076
 40
5.47965110396076
 10
-57.46745379007848
 20
6.736834675033165
 30
0.0
 10
-57.46255120858416
 20
6.730095299304438
 30
0.0
 10
-57.4578007131679
 20
6.722866047352582
 30
0.0
 10
-57.43558514133508
 20
6.68538670593064
 30
0.0
 10
-57.41927807177456
 20
6.646330829167269
 30
0.0
 10
-57.39236555874629
 20
6.549747670811158
 30
0.0
 10
-57.38177661304576
 20
6.492223109530542
 30
0.0
 10
-57.3684884577807
 20
6.361657273513131
 30
0.0
 10
-57.36579447648296
 20
6.288488827406567
 30
0.0
 10
-57.36908274076814
 20
6.131701918381921
 30
0.0
 10
-57.37507594396163
 20
6.048075999766851
 30
0.0
 10
-57.39443312749688
 20
5.879299010943768
 30
0.0
 10
-57.40822740106887
 20
5.789306446327501
 30
0.0
 10
-57.44385045374941
 20
5.602670917978415
 30
0.0
 10
-57.46566973300685
 20
5.506029450118049
 30
0.0
 10
-57.51549637705625
 20
5.311819509312173
 30
0.0
 10
-57.54365938209844
 20
5.214145567275196
 30
0.0
 10
-57.57313277199478
 20
5.119506982572361
 30
0.0
  0
ELLIPSE
  5
17EFE
330
1F
100
AcDbEntity
  8
AM_0
100
AcDbEllipse
 10
-47.04658354027606
 20
13.62338653486871
 30
0.0
 11
-10.05216509520849
 21
-0.03498408563782706
 31
5.526005849193565E-18
210
5.497262396471957E-19
220
1.913186827218455E-21
230
0.9999999999999998
 40
0.4980574887983382
 41
5.887490063300676
 42
6.32222815122878
  0
SPLINE
  5
17EFF
330
1F
100
AcDbEntity
  8
AM_0
100
AcDbSpline
210
0.0
220
0.0
230
1.0
 70
     8
 71
     3
 72
    32
 73
    28
 74
     0
 42
0.0000000001
 43
0.0000000001
 40
0.9430345382246174
 40
0.9430345382246174
 40
0.9430345382246174
 40
0.9430345382246174
 40
2.276574473862125
 40
2.276574473862125
 40
3.610114409499633
 40
3.610114409499633
 40
4.943654345137141
 40
4.943654345137141
 40
6.277194280774649
 40
6.277194280774649
 40
6.827345793246698
 40
6.827345793246698
 40
7.377497305718748
 40
7.377497305718748
 40
7.927648818190797
 40
7.927648818190797
 40
8.477800330662847
 40
8.477800330662847
 40
9.027951843134897
 40
9.027951843134897
 40
9.578103355606945
 40
9.578103355606945
 40
10.128254868079
 40
10.128254868079
 40
10.67840638055105
 40
10.67840638055105
 40
11.54090037487717
 40
11.54090037487717
 40
11.54090037487717
 40
11.54090037487717
 10
-56.39953028192906
 20
16.60307822068656
 30
0.0
 10
-56.39953028192906
 20
16.60307822068656
 30
0.0
 10
-56.34948663052126
 20
16.59374749483426
 30
0.0
 10
-56.14429980562125
 20
16.54890872546095
 30
0.0
 10
-55.9892571538345
 20
16.51329495796558
 30
0.0
 10
-55.58788289934648
 20
16.39956183222891
 30
0.0
 10
-55.34140484205773
 20
16.32112245264637
 30
0.0
 10
-54.78293165804087
 20
16.10123449351307
 30
0.0
 10
-54.47118175352409
 20
15.95965397568632
 30
0.0
 10
-54.00751070234662
 20
15.70252740600592
 30
0.0
 10
-53.86326015539066
 20
15.61715500620131
 30
0.0
 10
-53.56666945782126
 20
15.42677270135369
 30
0.0
 10
-53.4143474295247
 20
15.32172822431432
 30
0.0
 10
-53.11180163692109
 20
15.09570504480536
 30
0.0
 10
-52.96141618528861
 20
14.97457276010187
 30
0.0
 10
-52.67205748802746
 20
14.72301664518034
 30
0.0
 10
-52.53308804250548
 20
14.59258781992288
 30
0.0
 10
-52.27457592631299
 20
14.33241477521435
 30
0.0
 10
-52.14503977992274
 20
14.19261287241935
 30
0.0
 10
-51.89534196801344
 20
13.90164906476839
 30
0.0
 10
-51.77517528322028
 20
13.75049092795118
 30
0.0
 10
-51.5510943374062
 20
13.44650381634865
 30
0.0
 10
-51.44702753279739
 20
13.29351217396459
 30
0.0
 10
-51.2585485924252
 20
12.99570829064539
 30
0.0
 10
-51.17410176931332
 20
12.85091395024561
 30
0.0
 10
-50.98350452448915
 20
12.50196315690426
 30
0.0
 10
-50.88397523618494
 20
12.29590255806688
 30
0.0
 10
-50.79895831854321
 20
12.10119358568404
 30
0.0
  0
ELLIPSE
  5
17F00
330
1F
100
AcDbEntity
  8
AM_0
100
AcDbEllipse
 10
-50.93781009123563
 20
16.62777798322131
 30
0.0
 11
1.857753302077588
 21
5.672758246571974
 31
3.566371599000409E-16
210
-1.859436450337077E-17
220
-5.677897838119744E-17
230
1.0
 40
0.3683470890439561
 41
3.101285812333097
 42
3.918018660117857
  0
SPLINE
  5
17F01
330
1F
100
AcDbEntity
  8
AM_0
100
AcDbSpline
210
0.0
220
0.0
230
1.0
 70
     8
 71
     3
 72
    12
 73
     8
 74
     0
 42
0.0000000001
 43
0.0000000001
 40
9.711565674842813
 40
9.711565674842813
 40
9.711565674842813
 40
9.711565674842813
 40
9.992521957373578
 40
9.992521957373578
 40
10.93293882053412
 40
10.93293882053412
 40
11.36865770895813
 40
11.36865770895813
 40
11.36865770895813
 40
11.36865770895813
 10
-56.10336820913437
 20
14.58452947061115
 30
0.0
 10
-56.1202567001161
 20
14.63609169109499
 30
0.0
 10
-56.13644664702167
 20
14.68788515705013
 30
0.0
 10
-56.20378838108036
 20
14.91405452241436
 30
0.0
 10
-56.24762853413449
 20
15.08999393284977
 30
0.0
 10
-56.30037588084394
 20
15.35229803818227
 30
0.0
 10
-56.31539843285952
 20
15.43607822588457
 30
0.0
 10
-56.32872194449681
 20
15.52088177775688
 30
0.0
  0
ARC
  5
17F02
330
1F
100
AcDbEntity
  8
AM_0
100
AcDbCircle
 10
-50.40142960282958
 20
16.45212046703711
 30
0.0
 40
6.0
100
AcDbArc
 50
178.5583075110483
 51
188.9287697645438
  0
ARC
  5
17F03
330
1F
100
AcDbEntity
  8
AM_0
100
AcDbCircle
 10
-50.40142960282958
 20
16.45212046703711
 30
0.0
 40
6.0
100
AcDbArc
 50
198.1354918172062
 51
245.6188894988226
  0
SPLINE
  5
17F04
330
1F
100
AcDbEntity
  8
AM_0
100
AcDbSpline
210
0.0
220
0.0
230
1.0
 70
     8
 71
     3
 72
    10
 73
     6
 74
     0
 42
0.0000000001
 43
0.0000000001
 40
-1.480497769541918
 40
-1.480497769541918
 40
-1.480497769541918
 40
-1.480497769541918
 40
-0.8276865448729893
 40
-0.8276865448729893
 40
-0.0834038361295372
 40
-0.0834038361295372
 40
-0.0834038361295372
 40
-0.0834038361295372
 10
-56.3994225979784
 20
1.396943051812812
 30
0.0
 10
-56.61434965015087
 20
1.354483559519125
 30
0.0
 10
-56.8356943426279
 20
1.320357179823319
 30
0.0
 10
-57.31237671257657
 20
1.268197012375467
 30
0.0
 10
-57.56818037656365
 20
1.253200400648794
 30
0.0
 10
-57.81776874826937
 20
1.250453252361993
 30
0.0
  0
ARC
  5
17F05
330
1F
100
AcDbEntity
  8
AM_0
100
AcDbCircle
 10
-57.90142960282958
 20
9.000000000000007
 30
0.0
 40
7.999999999999968
100
AcDbArc
 50
270.4821089370257
 51
281.9149307858619
  0
SPLINE
  5
17F06
330
1F
100
AcDbEntity
  8
AM_0
100
AcDbSpline
210
0.0
220
0.0
230
1.0
 70
     8
 71
     3
 72
    12
 73
     8
 74
     0
 42
0.0000000001
 43
0.0000000001
 40
1.483442463238571
 40
1.483442463238571
 40
1.483442463238571
 40
1.483442463238571
 40
1.647115932141456
 40
1.647115932141456
 40
3.294231864282912
 40
3.294231864282912
 40
4.932864040077496
 40
4.932864040077496
 40
4.932864040077496
 40
4.932864040077496
 10
-56.39942259797419
 20
1.396943051812244
 30
0.0
 10
-56.40017587648686
 20
1.426059139444604
 30
0.0
 10
-56.40070752377324
 20
1.454809420904283
 30
0.0
 10
-56.40431424074632
 20
1.768688407695734
 30
0.0
 10
-56.38683424803173
 20
2.01519501272297
 30
0.0
 10
-56.34317562097283
 20
2.40930274087431
 30
0.0
 10
-56.31740757292414
 20
2.557654788987989
 30
0.0
 10
-56.29917618880074
 20
2.655109681701205
 30
0.0
  0
ARC
  5
17F07
330
1F
100
AcDbEntity
  8
AM_0
100
AcDbCircle
 10
-50.40142960282958
 20
1.552120467037106
 30
0.0
 40
6.0
100
AcDbArc
 50
90.0
 51
169.406983985381
  0
SPLINE
  5
17F08
330
1F
100
AcDbEntity
  8
AM_0
100
AcDbSpline
210
0.0
220
0.0
230
1.0
 70
     8
 71
     3
 72
    34
 73
    30
 74
     0
 42
0.0000000001
 43
0.0000000001
 40
3.701028395016574
 40
3.701028395016574
 40
3.701028395016574
 40
3.701028395016574
 40
3.885831290684744
 40
3.885831290684744
 40
5.181108387579659
 40
5.181108387579659
 40
5.75396483080091
 40
5.75396483080091
 40
6.32682127402216
 40
6.32682127402216
 40
6.899677717243412
 40
6.899677717243412
 40
7.472534160464663
 40
7.472534160464663
 40
8.045390603685913
 40
8.045390603685913
 40
8.618247046907165
 40
8.618247046907165
 40
9.191103490128416
 40
9.191103490128416
 40
9.763959933349666
 40
9.763959933349666
 40
11.05923703024458
 40
11.05923703024458
 40
12.3545141271395
 40
12.3545141271395
 40
13.64979122403441
 40
13.64979122403441
 40
13.95230181057322
 40
13.95230181057322
 40
13.95230181057322
 40
13.95230181057322
 10
-50.40142960282958
 20
6.216117818585055
 30
0.0
 10
-50.41579893147014
 20
6.177405704428971
 30
0.0
 10
-50.43074338731049
 20
6.138062990229436
 30
0.0
 10
-50.55522297472942
 20
5.818264325104316
 30
0.0
 10
-50.69383425606793
 20
5.509369691688626
 30
0.0
 10
-50.94536442490255
 20
5.045337699110924
 30
0.0
 10
-51.03315192329808
 20
4.893833290141181
 30
0.0
 10
-51.22916053169445
 20
4.582458966569483
 30
0.0
 10
-51.33741718496208
 20
4.422608180423829
 30
0.0
 10
-51.5705699660673
 20
4.105207557498552
 30
0.0
 10
-51.6956218943393
 20
3.947490831082014
 30
0.0
 10
-51.95550125245711
 20
3.644084179721354
 30
0.0
 10
-52.09033352656354
 20
3.498397950130233
 30
0.0
 10
-52.35943740388916
 20
3.227410876425559
 30
0.0
 10
-52.50417983251998
 20
3.091565931774603
 30
0.0
 10
-52.80576682677804
 20
2.829577073690878
 30
0.0
 10
-52.96260766336059
 20
2.703428341885179
 30
0.0
 10
-53.27837466782285
 20
2.468067823396275
 30
0.0
 10
-53.43746663480067
 20
2.358699076255142
 30
0.0
 10
-53.7474665128924
 20
2.160523851950138
 30
0.0
 10
-53.89835504815267
 20
2.071681965776925
 30
0.0
 10
-54.36062170137473
 20
1.816921966388129
 30
0.0
 10
-54.66854221227993
 20
1.676159965723407
 30
0.0
 10
-55.22674640873652
 20
1.454387798653961
 30
0.0
 10
-55.47683738154785
 20
1.37319206589391
 30
0.0
 10
-55.89275789850251
 20
1.253253661717523
 30
0.0
 10
-56.05879286741867
 20
1.214177150226405
 30
0.0
 10
-56.20307043034791
 20
1.182304770320982
 30
0.0
 10
-56.22774605464292
 20
1.177002531105373
 30
0.0
 10
-56.24975624769002
 20
1.172358265229477
 30
0.0
  0
SPLINE
  5
17F09
330
1F
100
AcDbEntity
  8
AM_0
100
AcDbSpline
210
0.0
220
0.0
230
1.0
 70
     8
 71
     3
 72
    10
 73
     6
 74
     0
 42
0.0000000001
 43
0.0000000001
 40
1.343678497086003
 40
1.343678497086003
 40
1.343678497086003
 40
1.343678497086003
 40
1.656649656168744
 40
1.656649656168744
 40
1.687432898059303
 40
1.687432898059303
 40
1.687432898059303
 40
1.687432898059303
 10
-56.24975624769002
 20
1.172358265229477
 30
0.0
 10
-56.27176094343599
 20
1.247372045990275
 30
0.0
 10
-56.29023137142099
 20
1.321594051757373
 30
0.0
 10
-56.30687060362561
 20
1.400890799385095
 30
0.0
 10
-56.30834050891417
 20
1.408028220909714
 30
0.0
 10
-56.30978928225102
 20
1.415200655923186
 30
0.0
  0
SPLINE
  5
17F0A
330
1F
100
AcDbEntity
  8
AM_0
100
AcDbSpline
210
0.0
220
0.0
230
1.0
 70
     8
 71
     3
 72
    10
 73
     6
 74
     0
 42
0.0000000001
 43
0.0000000001
 40
0.9773458268366279
 40
0.9773458268366279
 40
0.9773458268366279
 40
0.9773458268366279
 40
0.9788631364421681
 40
0.9788631364421681
 40
1.957726272884336
 40
1.957726272884336
 40
1.957726272884336
 40
1.957726272884336
 10
-56.30978928225102
 20
1.415200655923186
 30
0.0
 10
-56.30988414037995
 20
1.415180750317788
 30
0.0
 10
-56.30997892388234
 20
1.415160862225562
 30
0.0
 10
-56.37117322932045
 20
1.402321876057201
 30
0.0
 10
-56.39942259797419
 20
1.396943051813636
 30
0.0
 10
-56.39942259797419
 20
1.396943051813636
 30
0.0
  0
LINE
  5
17F0B
330
1F
100
AcDbEntity
  8
AM_0
100
AcDbLine
 10
-50.40142960282958
 20
7.552120467037106
 30
0.0
 11
-50.40142960282958
 21
6.216117818585026
 31
0.0
  0
LINE
  5
17F11
330
1F
100
AcDbEntity
  8
AM_0
100
AcDbLine
 10
0.2191689700114239
 20
-65.62914635803638
 30
0.0
 11
0.0000110549481178
 21
-63.54958639817771
 31
0.0
  0
LINE
  5
17F12
330
1F
100
AcDbEntity
  8
AM_0
100
AcDbLine
 10
199.9999999999999
 20
-56.57719119272791
 30
0.0
 11
199.4999999999999
 21
-56.07719119272791
 31
0.0
  0
LINE
  5
17F13
330
1F
100
AcDbEntity
  8
AM_0
100
AcDbLine
 10
199.9999999999999
 20
-70.57719119272791
 30
0.0
 11
199.4999999999999
 21
-71.07719119272794
 31
0.0
  0
LINE
  5
17F14
330
1F
100
AcDbEntity
  8
AM_0
100
AcDbLine
 10
17.99999999999977
 20
-71.32719119272785
 30
0.0
 11
12.45831578103082
 21
-71.8120257387282
 31
0.0
  0
LINE
  5
17F15
330
1F
100
AcDbEntity
  8
AM_0
100
AcDbLine
 10
0.0005479473087462
 20
-63.54796238897986
 30
0.0
 11
0.5025796663363735
 21
-62.92203205647591
 31
0.0
  0
ELLIPSE
  5
17F16
330
1F
100
AcDbEntity
  8
AM_0
100
AcDbEllipse
 10
0.3984785824937944
 20
-63.58414689222796
 30
0.0
 11
-0.3984711835815308
 21
0.03493874432680726
 31
1.495733366949851E-17
210
3.725041531568093E-17
220
-3.266190355558461E-18
230
1.0
 40
0.0695011713612178
 41
6.236830900026548
 42
8.331226002419712
  0
ELLIPSE
  5
17F17
330
1F
100
AcDbEntity
  8
AM_0
100
AcDbEllipse
 10
3.410138223603553
 20
-63.52221171725988
 30
0.0
 11
-1.494266938430739
 21
0.131020291225538
 31
7.558617337353819E-17
210
5.019818661092092E-17
220
-4.401476643566651E-18
230
1.0
 40
0.0695011713612178
 41
0.9005528658807347
 42
7.18373817306032
  0
LINE
  5
17F18
330
1F
100
AcDbEntity
  8
AM_0
100
AcDbLine
 10
0.3581192896809853
 20
-66.73946411242925
 30
0.0
 11
2.935800277244312
 21
-66.87241950539509
 31
0.0
  0
LINE
  5
17F19
330
1F
100
AcDbEntity
  8
AM_0
100
AcDbLine
 10
0.2191689700094912
 20
-65.62914635808072
 30
0.0
 11
0.3581192896809853
 21
-66.73946411242925
 31
0.0
  0
LINE
  5
17F1A
330
1F
100
AcDbEntity
  8
AM_0
100
AcDbLine
 10
6.518627246609071
 20
-63.93113976650066
 30
0.0
 11
0.5793526669682478
 21
-63.62479519187021
 31
0.0
  0
LINE
  5
17F1B
330
1F
100
AcDbEntity
  8
AM_0
100
AcDbLine
 10
1.117566852232017
 20
-62.95375276332995
 30
0.0
 11
8.106731256315584
 21
-63.88152178937246
 31
0.0
  0
ELLIPSE
  5
17F1C
330
1F
100
AcDbEntity
  8
AM_0
100
AcDbEllipse
 10
0.9005103015213081
 20
-62.95821655972405
 30
0.0
 11
-0.3984711835815308
 21
0.03493874432680727
 31
1.495733366949851E-17
210
3.725041531568093E-17
220
-3.266190355558461E-18
230
1.0
 40
0.0695011713612178
 41
4.142435797633368
 42
6.236830900026522
  0
LINE
  5
17F1D
330
1F
100
AcDbEntity
  8
AM_0
100
AcDbLine
 10
199.9999999999999
 20
-70.57719119272791
 30
0.0
 11
199.9999999999999
 21
-56.57719119272791
 31
0.0
  0
SPLINE
  5
17F1E
330
1F
100
AcDbEntity
  8
AM_0
100
AcDbSpline
210
0.0
220
0.0
230
1.0
 70
    28
 71
     2
 72
     6
 73
     3
 74
     0
 42
0.0000000001
 43
0.0000000001
 40
0.0
 40
0.0
 40
0.0
 40
2.828427124746191
 40
2.828427124746191
 40
2.828427124746191
 10
198.9999999999999
 20
-56.07719119272791
 30
0.0
 41
1.0
 10
199.4999999999999
 20
-56.07719119272793
 30
0.0
 41
1.033333333333333
 10
199.5000000000001
 20
-56.07719119272793
 30
0.0
 41
1.033333333333333
  0
LINE
  5
17F1F
330
1F
100
AcDbEntity
  8
AM_0
100
AcDbLine
 10
6.552642980480982
 20
-63.67522603172613
 30
0.0
 11
6.627301878050957
 21
-63.52420181840206
 31
0.0
  0
LINE
  5
17F20
330
1F
100
AcDbEntity
  8
AM_0
100
AcDbLine
 10
0.5420082143368745
 20
-62.91475259305825
 30
0.0
 11
0.5387621325725149
 21
-62.87691996043959
 31
0.0
  0
LINE
  5
17F21
330
1F
100
AcDbEntity
  8
AM_0
100
AcDbLine
 10
6.518627246544725
 20
-63.93113976649734
 30
0.0
 11
3.210898932356372
 21
-63.76052892677011
 31
0.0
  0
LINE
  5
17F22
330
1F
100
AcDbEntity
  8
AM_0
100
AcDbLine
 10
3.064511049342286
 20
-65.40449228918344
 30
0.0
 11
3.210898932356372
 21
-63.76052892677011
 31
0.0
  0
LINE
  5
17F23
330
1F
100
AcDbEntity
  8
AM_0
100
AcDbLine
 10
3.210898932356372
 20
-63.76052892677011
 30
0.0
 11
3.210898932356372
 21
-63.81470287535119
 31
0.0
  0
LINE
  5
17F24
330
1F
100
AcDbEntity
  8
AM_0
100
AcDbLine
 10
2.93380758206763
 20
-66.89514589756702
 30
0.0
 11
2.93380758206763
 21
-66.94046228156712
 31
0.0
  0
LINE
  5
17F25
330
1F
100
AcDbEntity
  8
AM_0
100
AcDbLine
 10
2.93380758206763
 20
-66.89514589756702
 30
0.0
 11
3.064511049342286
 21
-65.40449228918344
 31
0.0
  0
SPLINE
  5
17F26
330
1F
100
AcDbEntity
  8
AM_0
100
AcDbSpline
210
0.0
220
0.0
230
1.0
 70
    28
 71
     2
 72
     6
 73
     3
 74
     0
 42
0.0000000001
 43
0.0000000001
 40
0.0
 40
0.0
 40
0.0
 40
2.828427124746086
 40
2.828427124746086
 40
2.828427124746086
 10
198.9999999999999
 20
-71.07719119272794
 30
0.0
 41
1.0
 10
199.5000000000001
 20
-71.07719119272794
 30
0.0
 41
1.033333333333335
 10
199.4999999999999
 20
-71.07719119272794
 30
0.0
 41
1.033333333333335
  0
LINE
  5
17F27
330
1F
100
AcDbEntity
  8
AM_0
100
AcDbLine
 10
1.32519471702301
 20
-71.82340244396322
 30
0.0
 11
12.28497384861885
 21
-71.82340244396322
 31
0.0
  0
ELLIPSE
  5
17F28
330
1F
100
AcDbEntity
  8
AM_0
100
AcDbEllipse
 10
0.5028517629535827
 20
-63.57719119272788
 30
0.0
 11
0.8403723481229833
 21
-8.249853838487953
 31
1.329241569194996E-16
210
-1.624425962512496E-18
220
1.594683212995485E-17
230
0.9999999999999999
 40
0.058436582343199
 41
5.099917309997257
 42
6.24692505806998
  0
ELLIPSE
  5
17F29
330
1F
100
AcDbEntity
  8
AM_0
100
AcDbEllipse
 10
-29.41506918203686
 20
-63.57719119272788
 30
0.0
 11
94.31983478629132
 21
-8.230200629965911
 31
4.185820920470359E-17
210
-4.404366040590121E-19
220
3.843180625156667E-20
230
1.0
 40
0.0060562515012341
 41
5.040146060110317
 42
5.062994275459233
  0
ELLIPSE
  5
17F2A
330
1F
100
AcDbEntity
  8
AM_0
100
AcDbEllipse
 10
3.181299441478359
 20
-63.57719119272791
 30
0.0
 11
-0.7198819407392303
 21
-8.249998848016013
 31
-3.109978685776443E-18
210
-3.264500264434477E-20
220
-3.741186144116421E-19
230
1.0
 40
0.0060562515012339
 41
1.151424697291482
 42
1.542531512516093
  0
ELLIPSE
  5
17F2B
330
1F
100
AcDbEntity
  8
AM_0
100
AcDbEllipse
 10
7.079754598863588
 20
-63.57719119272791
 30
0.0
 11
94.31983478629147
 21
-8.230200629965911
 31
4.185820920471995E-17
210
-4.404366040591835E-19
220
3.843180625158148E-20
230
1.0
 40
0.0060562515012341
 41
4.671887460234601
 42
4.720285824742815
  0
SPLINE
  5
17F2C
330
1F
100
AcDbEntity
  8
AM_0
100
AcDbSpline
210
0.0
220
0.0
230
1.0
 70
    11
 71
     3
 72
    58
 73
    54
 74
     0
 42
0.0000000001
 43
0.0000000001
 40
0.0
 40
0.0
 40
0.0
 40
0.0
 40
0.2843678777493506
 40
0.2843678777493506
 40
0.5687357554987012
 40
0.5687357554987012
 40
0.8531036332480517
 40
0.8531036332480517
 40
1.137471510997402
 40
1.137471510997402
 40
1.438921327216021
 40
1.438921327216021
 40
1.74037114343464
 40
1.74037114343464
 40
2.041820959653258
 40
2.041820959653258
 40
2.343270775871877
 40
2.343270775871877
 40
2.996847019910667
 40
2.996847019910667
 40
3.650423263949456
 40
3.650423263949456
 40
4.261974285989501
 40
4.261974285989501
 40
4.567749797009523
 40
4.567749797009523
 40
4.873525308029546
 40
4.873525308029546
 40
5.153422155724424
 40
5.153422155724424
 40
5.433319003419301
 40
5.433319003419301
 40
5.993112698809057
 40
5.993112698809057
 40
6.659147612426455
 40
6.659147612426455
 40
7.325182526043855
 40
7.325182526043855
 40
7.637533537786025
 40
7.637533537786025
 40
7.949884549528196
 40
7.949884549528196
 40
8.262235561270368
 40
8.262235561270368
 40
8.574586573012539
 40
8.574586573012539
 40
8.857653233631142
 40
8.857653233631142
 40
9.140719894249745
 40
9.140719894249745
 40
9.423786554868347
 40
9.423786554868347
 40
9.70685321548695
 40
9.70685321548695
 40
9.70685321548695
 40
9.70685321548695
 10
2.689096040085587
 20
-71.64094080264785
 30
0.0
 10
2.594306747502401
 20
-71.64094080264785
 30
0.0
 10
2.496404784008973
 20
-71.638964910686
 30
0.0
 10
2.302255719702657
 20
-71.63040840948607
 30
0.0
 10
2.206007296692064
 20
-71.62382605995153
 30
0.0
 10
2.022342637718339
 20
-71.60569171111534
 30
0.0
 10
1.934757038615544
 20
-71.59410874690606
 30
0.0
 10
1.773991128603484
 20
-71.56598447309894
 30
0.0
 10
1.700817213225832
 20
-71.5494208818172
 30
0.0
 10
1.56878237490514
 20
-71.51120896776003
 30
0.0
 10
1.506682477321306
 20
-71.48807156919121
 30
0.0
 10
1.400254347495888
 20
-71.43481638938427
 30
0.0
 10
1.355916349935455
 20
-71.40468116870876
 30
0.0
 10
1.287731340819846
 20
-71.3384823815028
 30
0.0
 10
1.263814663734252
 20
-71.30235081931689
 30
0.0
 10
1.235877047708982
 20
-71.22635349825701
 30
0.0
 10
1.23184725878707
 20
-71.18648584417026
 30
0.0
 10
1.244667233618088
 20
-71.05997128924825
 30
0.0
 10
1.293984287646026
 20
-70.95937067895578
 30
0.0
 10
1.467797675120778
 20
-70.75569522152138
 30
0.0
 10
1.592084662399884
 20
-70.65286892305589
 30
0.0
 10
1.867516812894678
 20
-70.4831266430508
 30
0.0
 10
2.036480877149188
 20
-70.40216157740183
 30
0.0
 10
2.320502601264593
 20
-70.31541687821247
 30
0.0
 10
2.42024073717721
 20
-70.29219096120302
 30
0.0
 10
2.623602190273118
 20
-70.2608752395066
 30
0.0
 10
2.72723575750706
 20
-70.25282117992562
 30
0.0
 10
2.922459877078609
 20
-70.25282117992562
 30
0.0
 10
3.017825115989695
 20
-70.25959960431474
 30
0.0
 10
3.204889824595057
 20
-70.28718933153279
 30
0.0
 10
3.296595019509368
 20
-70.30797882837321
 30
0.0
 10
3.556396616682491
 20
-70.38708100728782
 30
0.0
 10
3.709037331707123
 20
-70.46271823253106
 30
0.0
 10
3.967421079800488
 20
-70.6324906166882
 30
0.0
 10
4.081240143515061
 20
-70.74114363058526
 30
0.0
 10
4.225790030829444
 20
-70.95418036085032
 30
0.0
 10
4.256288672788173
 20
-71.05832085990163
 30
0.0
 10
4.243155122343865
 20
-71.18792995125507
 30
0.0
 10
4.230281509606812
 20
-71.22889370676352
 30
0.0
 10
4.184542397321252
 20
-71.30645442384058
 30
0.0
 10
4.1516728817802
 20
-71.34305581921977
 30
0.0
 10
4.066386682997518
 20
-71.40974583005472
 30
0.0
 10
4.013896792290552
 20
-71.43989682904139
 30
0.0
 10
3.892596914766159
 20
-71.49292509408896
 30
0.0
 10
3.823776128887744
 20
-71.51581990033274
 30
0.0
 10
3.683121629304765
 20
-71.55274450574068
 30
0.0
 10
3.607818373188593
 20
-71.56852894823031
 30
0.0
 10
3.44401597821286
 20
-71.59546237236243
 30
0.0
 10
3.355520080402698
 20
-71.6066308412414
 30
0.0
 10
3.170903604640216
 20
-71.62419079477455
 30
0.0
 10
3.074633187190671
 20
-71.63060970756284
 30
0.0
 10
2.880907879423717
 20
-71.63898359883972
 30
0.0
 10
2.783451593625046
 20
-71.64094080264785
 30
0.0
 10
2.689096040085587
 20
-71.64094080264785
 30
0.0
  0
LINE
  5
17F2D
330
1F
100
AcDbEntity
  8
AM_0
100
AcDbLine
 10
22.93248664511714
 20
-56.07719119272788
 30
0.0
 11
25.60356670600754
 21
-56.07719119272788
 31
0.0
  0
LINE
  5
17F2E
330
1F
100
AcDbEntity
  8
AM_0
100
AcDbLine
 10
17.99999999999977
 20
-71.32719119272785
 30
0.0
 11
17.99999999999977
 21
-71.07719119272788
 31
0.0
  0
SPLINE
  5
17F2F
330
1F
100
AcDbEntity
  8
AM_0
100
AcDbSpline
210
0.0
220
0.0
230
1.0
 70
     8
 71
     3
 72
     8
 73
     4
 74
     0
 42
0.0000000001
 43
0.0000000001
 40
1.722224882085266
 40
1.722224882085266
 40
1.722224882085266
 40
1.722224882085266
 40
2.012495529429111
 40
2.012495529429111
 40
2.012495529429111
 40
2.012495529429111
 10
12.28497384861885
 20
-71.82340244396322
 30
0.0
 10
12.34260257634651
 20
-71.82088035552881
 30
0.0
 10
12.40039626707869
 20
-71.81709292782732
 30
0.0
 10
12.45831578103082
 20
-71.8120257387282
 30
0.0
  0
LINE
  5
17F30
330
1F
100
AcDbEntity
  8
AM_0
100
AcDbLine
 10
12.28497384861885
 20
-71.82340244396322
 30
0.0
 11
12.28497384861885
 21
-67.26204158766045
 31
0.0
  0
LINE
  5
17F31
330
1F
100
AcDbEntity
  8
AM_0
100
AcDbLine
 10
0.5387621325725149
 20
-62.87691996043959
 30
0.0
 11
3.686601772032873
 21
-63.29477650917578
 31
0.0
  0
LINE
  5
17F32
330
1F
100
AcDbEntity
  8
AM_0
100
AcDbLine
 10
0.5387621325725149
 20
-62.87691996043959
 30
0.0
 11
0.6534166496760463
 21
-62.73396935135726
 31
0.0
  0
SPLINE
  5
17F33
330
1F
100
AcDbEntity
  8
AM_0
100
AcDbSpline
210
0.0
220
0.0
230
1.0
 70
     8
 71
     3
 72
    24
 73
    20
 74
     0
 42
0.0000000001
 43
0.0000000001
 40
9.956877686423869
 40
9.956877686423869
 40
9.956877686423869
 40
9.956877686423869
 40
10.1224437594958
 40
10.1224437594958
 40
10.84972102476941
 40
10.84972102476941
 40
11.57699829004302
 40
11.57699829004302
 40
12.32728506949706
 40
12.32728506949706
 40
13.07757184895109
 40
13.07757184895109
 40
13.82785862840512
 40
13.82785862840512
 40
14.57814540785915
 40
14.57814540785915
 40
15.41757401068952
 40
15.41757401068952
 40
15.80397455099792
 40
15.80397455099792
 40
15.80397455099792
 40
15.80397455099792
 10
17.99999999999977
 20
-68.15959554225283
 30
0.0
 10
17.94279523485898
 20
-68.17590156135854
 30
0.0
 10
17.88528722217961
 20
-68.19152426073229
 30
0.0
 10
17.57398258677176
 20
-68.27202302528688
 30
0.0
 10
17.31595425380237
 20
-68.32409864030736
 30
0.0
 10
16.80580770676033
 20
-68.40117037270115
 30
0.0
 10
16.55368960596127
 20
-68.4261672225188
 30
0.0
 10
16.06304245014496
 20
-68.45259349179229
 30
0.0
 10
15.80303023475267
 20
-68.45445130973066
 30
0.0
 10
15.27774879275023
 20
-68.42921730031812
 30
0.0
 10
15.01248109065125
 20
-68.40211553597048
 30
0.0
 10
14.492337749434
 20
-68.31660100398081
 30
0.0
 10
14.23725690168556
 20
-68.25811110068632
 30
0.0
 10
13.751202095694
 20
-68.11137673439258
 30
0.0
 10
13.52023251142271
 20
-68.02307259534068
 30
0.0
 10
13.06852918244294
 20
-67.81202020983163
 30
0.0
 10
12.81965135034875
 20
-67.67001485368537
 30
0.0
 10
12.48356587854573
 20
-67.42770392469903
 30
0.0
 10
12.38140080698804
 20
-67.34642903127077
 30
0.0
 10
12.28497384861885
 20
-67.26204158766045
 30
0.0
  0
SPLINE
  5
17F34
330
1F
100
AcDbEntity
  8
AM_0
100
AcDbSpline
210
0.0
220
0.0
230
1.0
 70
     8
 71
     3
 72
    16
 73
    12
 74
     0
 42
0.0000000001
 43
0.0000000001
 40
14.81790320748872
 40
14.81790320748872
 40
14.81790320748872
 40
14.81790320748872
 40
14.87419118056756
 40
14.87419118056756
 40
15.85352645362098
 40
15.85352645362098
 40
16.8328617266744
 40
16.8328617266744
 40
17.81219699972782
 40
17.81219699972782
 40
18.28879945865627
 40
18.28879945865627
 40
18.28879945865627
 40
18.28879945865627
 10
12.28497384861885
 20
-67.26204158766045
 30
0.0
 10
12.27281248987595
 20
-67.24901650758658
 30
0.0
 10
12.2607888036473
 20
-67.2359877714769
 30
0.0
 10
12.04214845594049
 20
-66.99634585743446
 30
0.0
 10
11.85075741239632
 20
-66.74026640167578
 30
0.0
 10
11.51812565041428
 20
-66.18063798479635
 30
0.0
 10
11.37676985045641
 20
-65.87709268035455
 30
0.0
 10
11.15225072063925
 20
-65.2420521346492
 30
0.0
 10
11.06875002610207
 20
-64.90997548351696
 30
0.0
 10
10.98760884211163
 20
-64.41253285248284
 30
0.0
 10
10.96783908957389
 20
-64.24910551357384
 30
0.0
 10
10.95459195394687
 20
-64.0865937830071
 30
0.0
  0
ELLIPSE
  5
17F35
330
1F
100
AcDbEntity
  8
AM_0
100
AcDbEllipse
 10
17.0
 20
-64.4952278298524
 30
0.0
 11
9.921577944387138
 21
4.545735343111263
 31
3.507227012773836E-16
210
-2.921646656352907E-17
220
-1.338600829455724E-17
230
1.0
 40
0.2749646295359369
 41
1.615912573671376
 42
1.870912317640205
  0
ELLIPSE
  5
17F36
330
1F
100
AcDbEntity
  8
AM_0
100
AcDbEllipse
 10
6.476745621380815
 20
-63.57719119272791
 30
0.0
 11
-19.54405086754292
 21
-7.458037800133352
 31
1.465695836661677E-17
210
6.546193139363540E-19
220
2.498036676798967E-19
230
1.0
 40
0.107816522736836
 41
3.671640414678529
 42
3.828637252478377
  0
LINE
  5
17F37
330
1F
100
AcDbEntity
  8
AM_0
100
AcDbLine
 10
1.33412747346074
 20
-62.76616960890824
 30
0.0
 11
0.6534166496760463
 21
-62.73396935135726
 31
0.0
  0
SPLINE
  5
17F38
330
1F
100
AcDbEntity
  8
AM_0
100
AcDbSpline
210
0.0
220
0.0
230
1.0
 70
     8
 71
     3
 72
    12
 73
     8
 74
     0
 42
0.0000000001
 43
0.0000000001
 40
20.18353537177303
 40
20.18353537177303
 40
20.18353537177303
 40
20.18353537177303
 40
20.83650105138232
 40
20.83650105138232
 40
22.28477615462705
 40
22.28477615462705
 40
22.51687951079684
 40
22.51687951079684
 40
22.51687951079684
 40
22.51687951079684
 10
10.95459195394687
 20
-64.0865937830071
 30
0.0
 10
11.12881308750912
 20
-64.02990661844477
 30
0.0
 10
11.30338341805407
 20
-63.9672686097387
 30
0.0
 10
11.85852310224789
 20
-63.75034885329951
 30
0.0
 10
12.26336728359649
 20
-63.56449481326614
 30
0.0
 10
12.74057274092547
 20
-63.30685745849685
 30
0.0
 10
12.8066510069774
 20
-63.27035293446197
 30
0.0
 10
12.87282591619282
 20
-63.23294447387144
 30
0.0
  0
SPLINE
  5
17F39
330
1F
100
AcDbEntity
  8
AM_0
100
AcDbSpline
210
0.0
220
0.0
230
1.0
 70
     8
 71
     3
 72
    12
 73
     8
 74
     0
 42
0.0000000001
 43
0.0000000001
 40
38.99508479023381
 40
38.99508479023381
 40
38.99508479023381
 40
38.99508479023381
 40
39.17750467986576
 40
39.17750467986576
 40
41.02086398115408
 40
41.02086398115408
 40
42.09722984356743
 40
42.09722984356743
 40
42.09722984356743
 40
42.09722984356743
 10
10.95459195394687
 20
-64.0865937830071
 30
0.0
 10
10.89125454219141
 20
-64.09733986431208
 30
0.0
 10
10.82790511099165
 20
-64.10757245483801
 30
0.0
 10
10.12452347717931
 20
-64.21554011875226
 30
0.0
 10
9.485429363616731
 20
-64.26110363387501
 30
0.0
 10
8.512187642382855
 20
-64.26110363387501
 30
0.0
 10
8.145441813949901
 20
-64.24571953833997
 30
0.0
 10
7.774733302028835
 20
-64.2133899604187
 30
0.0
  0
ELLIPSE
  5
17F3A
330
1F
100
AcDbEntity
  8
AM_0
100
AcDbEllipse
 10
8.269095328193089
 20
-54.19098765385706
 30
0.0
 11
5.305235458217348
 21
8.654201922284706
 31
-3.070540798552650E-16
210
1.580922540023557E-17
220
2.578890794312144E-17
230
1.0
 40
0.8468558186382171
 41
3.573465453727151
 42
3.719013402297678
  0
ELLIPSE
  5
17F3B
330
1F
100
AcDbEntity
  8
AM_0
100
AcDbEllipse
 10
7.020553054025413
 20
-53.91043706007048
 30
0.0
 11
11.47751727910734
 21
-1.154432787498721
 31
4.041193926321767E-17
210
-3.485701231168683E-18
220
3.505991488255680E-19
230
1.0
 40
0.864780428369862
 41
4.868994719737125
 42
4.931830335687473
  0
SPLINE
  5
17F3C
330
1F
100
AcDbEntity
  8
AM_0
100
AcDbSpline
210
0.0
220
0.0
230
1.0
 70
     8
 71
     3
 72
    32
 73
    28
 74
     0
 42
0.0000000001
 43
0.0000000001
 40
3.076406685832888
 40
3.076406685832888
 40
3.076406685832888
 40
3.076406685832888
 40
3.47433790690017
 40
3.47433790690017
 40
3.762573363186057
 40
3.762573363186057
 40
4.050808819471944
 40
4.050808819471944
 40
4.33904427575783
 40
4.33904427575783
 40
4.627279732043717
 40
4.627279732043717
 40
4.910475180461594
 40
4.910475180461594
 40
5.19367062887947
 40
5.19367062887947
 40
5.760061525715224
 40
5.760061525715224
 40
6.362479511310642
 40
6.362479511310642
 40
6.964897496906062
 40
6.964897496906062
 40
7.255397032981537
 40
7.255397032981537
 40
7.545896569057012
 40
7.545896569057012
 40
7.736840129352632
 40
7.736840129352632
 40
7.736840129352632
 40
7.736840129352632
 10
8.739849609385146
 20
-63.2144173175156
 30
0.0
 10
8.876353129012841
 20
-63.18263530785902
 30
0.0
 10
9.010388447559649
 20
-63.15333918188993
 30
0.0
 10
9.223769698404112
 20
-63.11134673123344
 30
0.0
 10
9.314285606158478
 20
-63.09503966167291
 30
0.0
 10
9.488938436909393
 20
-63.06812714864462
 30
0.0
 10
9.573079405982412
 20
-63.05753820294412
 30
0.0
 10
9.728276102135851
 20
-63.04425004767906
 30
0.0
 10
9.799471655800858
 20
-63.04155606638125
 30
0.0
 10
9.924117028468345
 20
-63.04484433066646
 30
0.0
 10
9.977557179607175
 20
-63.05083753385993
 30
0.0
 10
10.06370300316951
 20
-63.07019471739524
 30
0.0
 10
10.09925182181007
 20
-63.08398899096716
 30
0.0
 10
10.15135388725162
 20
-63.11961204364769
 30
0.0
 10
10.1679189865273
 20
-63.14143132290513
 30
0.0
 10
10.18719710655967
 20
-63.21580557990815
 30
0.0
 10
10.15802223205651
 20
-63.27765704483242
 30
0.0
 10
10.03792514117129
 20
-63.40246329379623
 30
0.0
 10
9.934718585827909
 20
-63.47435392176253
 30
0.0
 10
9.662714064989814
 20
-63.60754319632459
 30
0.0
 10
9.493801507857484
 20
-63.668562323736
 30
0.0
 10
9.233014712452246
 20
-63.7388689274464
 30
0.0
 10
9.140943665520922
 20
-63.76026902525346
 30
0.0
 10
8.948103242228513
 20
-63.79787141700631
 30
0.0
 10
8.847334948634739
 20
-63.81407747121061
 30
0.0
 10
8.678769457477984
 20
-63.83586062630145
 30
0.0
 10
8.611434180702986
 20
-63.84320195665838
 30
0.0
 10
8.544639503938811
 20
-63.8492492812503
 30
0.0
  0
ELLIPSE
  5
17F3D
330
1F
100
AcDbEntity
  8
AM_0
100
AcDbEllipse
 10
5.453785526810975
 20
-53.55838045039056
 30
0.0
 11
11.4775172791074
 21
-1.154432787498755
 31
4.041193926322756E-17
210
-3.485701231169516E-18
220
3.505991488256601E-19
230
1.0
 40
0.8647804283698577
 41
4.901189202195155
 42
5.088395804645751
  0
ELLIPSE
  5
17F3E
330
1F
100
AcDbEntity
  8
AM_0
100
AcDbEllipse
 10
2.799465535644913
 20
-52.96194806277461
 30
0.0
 11
16.54953072801874
 21
-4.245819404886062
 31
8.332850150455923E-16
210
-4.724157915077607E-17
220
1.211993359643971E-17
230
1.0
 40
0.5847824555106029
 41
4.914342085634999
 42
5.092084516654855
  0
ELLIPSE
  5
17F3F
330
1F
100
AcDbEntity
  8
AM_0
100
AcDbEllipse
 10
1.733153800822834
 20
-52.72234513017443
 30
0.0
 11
-0.1780556562743437
 21
-10.05100674522374
 31
-1.470453511438148E-17
210
-2.590906089229398E-20
220
-1.462532284790902E-18
230
1.0
 40
0.862599468358078
 41
6.257689036511678
 42
6.692427124439782
  0
ELLIPSE
  5
17F40
330
1F
100
AcDbEntity
  8
AM_0
100
AcDbEllipse
 10
17.18798782275121
 20
-56.61357168113395
 30
0.0
 11
5.509561396452915
 21
2.296990786691653
 31
2.279018581689999E-19
210
-3.523965100978667E-20
220
-1.469175999160697E-20
230
0.9999999999999999
 40
0.2893402031083537
 41
4.552033385303059
 42
5.368766233087819
  0
SPLINE
  5
17F41
330
1F
100
AcDbEntity
  8
AM_0
100
AcDbSpline
210
0.0
220
0.0
230
1.0
 70
     8
 71
     3
 72
    12
 73
     8
 74
     0
 42
0.0000000001
 43
0.0000000001
 40
9.711565674842813
 40
9.711565674842813
 40
9.711565674842813
 40
9.711565674842813
 40
9.992521957373578
 40
9.992521957373578
 40
10.93293882053412
 40
10.93293882053412
 40
11.36865770895813
 40
11.36865770895813
 40
11.36865770895813
 40
11.36865770895813
 10
6.402873185590579
 20
-61.77912979903265
 30
0.0
 10
6.321861833120124
 20
-61.79601829001445
 30
0.0
 10
6.241118317154928
 20
-61.81220823691993
 30
0.0
 10
5.891657710505797
 20
-61.87954997097867
 30
0.0
 10
5.627599835382625
 20
-61.92339012403282
 30
0.0
 10
5.252205476364338
 20
-61.97613747074225
 30
0.0
 10
5.134974449554875
 20
-61.99116002275787
 30
0.0
 10
5.019711968625416
 20
-62.00448353439518
 30
0.0
  0
ELLIPSE
  5
17F42
330
1F
100
AcDbEntity
  8
AM_0
100
AcDbEllipse
 10
18.61253057661099
 20
-56.0771911927279
 30
0.0
 11
15.130878091001
 21
5.773964748490349
 31
-4.713069536832497E-17
210
2.718937721037351E-18
220
1.037550528144646E-18
230
1.0
 40
0.1078165227368361
 41
3.73347640408791
 42
4.562218033665964
  0
LINE
  5
17F43
330
1F
100
AcDbEntity
  8
AM_0
100
AcDbLine
 10
17.99999999999966
 20
-71.07719119272791
 30
0.0
 11
26.99999999999989
 21
-71.07719119272791
 31
0.0
  0
LINE
  5
17F44
330
1F
100
AcDbEntity
  8
AM_0
100
AcDbLine
 10
17.99999999999977
 20
-71.07719119272788
 30
0.0
 11
17.99999999999977
 21
-68.15959554225283
 31
0.0
  0
SPLINE
  5
17F45
330
1F
100
AcDbEntity
  8
AM_0
100
AcDbSpline
210
0.0
220
0.0
230
1.0
 70
     8
 71
     3
 72
    29
 73
    25
 74
     0
 42
0.0000000001
 43
0.0000000001
 40
-1.480497769541918
 40
-1.480497769541918
 40
-1.480497769541918
 40
-1.480497769541918
 40
-0.8276865448729893
 40
-0.8276865448729893
 40
0.0
 40
0.0
 40
0.0
 40
0.82768654487299
 40
0.82768654487299
 40
1.65537308974598
 40
1.65537308974598
 40
2.48305963461897
 40
2.48305963461897
 40
3.31074617949196
 40
3.31074617949196
 40
4.106279363636802
 40
4.106279363636802
 40
4.901812547781645
 40
4.901812547781645
 40
5.613974889976095
 40
5.613974889976095
 40
6.326137232170547
 40
6.326137232170547
 40
6.788682204910724
 40
6.788682204910724
 40
6.788682204910724
 40
6.788682204910724
 10
22.1080886996898
 20
-62.07518418787623
 30
0.0
 10
22.17954827267556
 20
-62.29011124004923
 30
0.0
 10
22.23504048748816
 20
-62.51145593252628
 30
0.0
 10
22.32407737457572
 20
-63.01659532839007
 30
0.0
 10
22.34766304099276
 20
-63.30129567777023
 30
0.0
 10
22.34766304099276
 20
-63.57719119272791
 30
0.0
 10
22.34766304099276
 20
-63.85308670768556
 30
0.0
 10
22.32407737457572
 20
-64.13778705706572
 30
0.0
 10
22.22452351511595
 20
-64.70259315112837
 30
0.0
 10
22.14853924002216
 20
-64.98269874248702
 30
0.0
 10
21.94599794462636
 20
-65.51823251847831
 30
0.0
 10
21.81917034479125
 20
-65.77415966693461
 30
0.0
 10
21.52370270907932
 20
-66.24626988345734
 30
0.0
 10
21.35499878458586
 20
-66.46245772347071
 30
0.0
 10
21.00121296057546
 20
-66.8381961852774
 30
0.0
 10
20.79418201783847
 20
-67.02222200711414
 30
0.0
 10
20.34636949926448
 20
-67.34763668031569
 30
0.0
 10
20.10563822591962
 20
-67.48929718940285
 30
0.0
 10
19.6705513288166
 20
-67.70424053431815
 30
0.0
 10
19.44835532434388
 20
-67.79659811401395
 30
0.0
 10
18.98174481239755
 20
-67.9555836805168
 30
0.0
 10
18.73733789723963
 20
-68.02226066203245
 30
0.0
 10
18.32694599832439
 20
-68.10895031071824
 30
0.0
 10
18.16343642271227
 20
-68.13719148937842
 30
0.0
 10
17.99999999999977
 20
-68.15959554225283
 30
0.0
  0
SPLINE
  5
17F46
330
1F
100
AcDbEntity
  8
AM_0
100
AcDbSpline
210
0.0
220
0.0
230
1.0
 70
    28
 71
     2
 72
     6
 73
     3
 74
     0
 42
0.0000000001
 43
0.0000000001
 40
0.0
 40
0.0
 40
0.0
 40
0.8683077351808999
 40
0.8683077351808999
 40
0.8683077351808999
 10
26.99999999999989
 20
-71.07719119272791
 30
0.0
 41
1.0
 10
27.10306055405007
 20
-71.0771911927279
 30
0.0
 41
1.001395898062707
 10
27.24999999999989
 20
-71.07719119272791
 30
0.0
 41
1.0
  0
LINE
  5
17F47
330
1F
100
AcDbEntity
  8
AM_0
100
AcDbLine
 10
26.99999999999989
 20
-71.07719119272791
 30
0.0
 11
26.99999999999989
 21
-61.98555087214932
 31
0.0
  0
LINE
  5
17F48
330
1F
100
AcDbEntity
  8
AM_0
100
AcDbLine
 10
29.73890236376587
 20
-56.07719119272788
 30
0.0
 11
103.2499999999999
 21
-56.07719119272791
 31
0.0
  0
LINE
  5
17F49
330
1F
100
AcDbEntity
  8
AM_0
100
AcDbLine
 10
198.9999999999999
 20
-71.07719119272799
 30
0.0
 11
198.9999999999999
 21
-56.07719119272791
 31
0.0
  0
LINE
  5
17F4A
330
1F
100
AcDbEntity
  8
AM_0
100
AcDbLine
 10
27.24999999999989
 20
-71.07719119272791
 30
0.0
 11
103.2499999999999
 21
-71.07719119272791
 31
0.0
  0
LINE
  5
17F4B
330
1F
100
AcDbEntity
  8
AM_0
100
AcDbLine
 10
27.24999999999989
 20
-71.07719119272794
 30
0.0
 11
27.24999999999989
 21
-61.92551783758835
 31
0.0
  0
LINE
  5
17F4C
330
1F
100
AcDbEntity
  8
AM_0
100
AcDbLine
 10
25.96436547763619
 20
-62.07518418787255
 30
0.0
 11
22.1080886996898
 21
-62.07518418787255
 31
0.0
  0
SPLINE
  5
17F4D
330
1F
100
AcDbEntity
  8
AM_0
100
AcDbSpline
210
0.0
220
0.0
230
1.0
 70
     8
 71
     3
 72
    16
 73
    12
 74
     0
 42
0.0000000001
 43
0.0000000001
 40
1.483442463238571
 40
1.483442463238571
 40
1.483442463238571
 40
1.483442463238571
 40
1.647115932141456
 40
1.647115932141456
 40
3.294231864282912
 40
3.294231864282912
 40
4.941347796424368
 40
4.941347796424368
 40
6.588463728565824
 40
6.588463728565824
 40
8.255133412195441
 40
8.255133412195441
 40
8.255133412195441
 40
8.255133412195441
 10
22.1080886996898
 20
-62.07518418787623
 30
0.0
 10
22.05908615451438
 20
-62.07593746638521
 30
0.0
 10
22.00974505806039
 20
-62.07646911367152
 30
0.0
 10
21.46026428822631
 20
-62.08007583064466
 30
0.0
 10
20.92715704896227
 20
-62.06259583793006
 30
0.0
 10
19.82561811368441
 20
-62.01882448489755
 30
0.0
 10
19.25646467000399
 20
-61.99290223582896
 30
0.0
 10
18.1181806916569
 20
-61.95640830299489
 30
0.0
 10
17.54903864404719
 20
-61.94598976408916
 30
0.0
 10
16.44444343879013
 20
-61.94598976408916
 30
0.0
 10
15.87333821986772
 20
-61.95660876202049
 30
0.0
 10
15.30388291629367
 20
-61.97493777869907
 30
0.0
  0
ELLIPSE
  5
17F4E
330
1F
100
AcDbEntity
  8
AM_0
100
AcDbEllipse
 10
30.3166247707693
 20
-56.0771911927279
 30
0.0
 11
15.130878091001
 21
5.773964748490349
 31
-4.713069536832497E-17
210
2.718937721037351E-18
220
1.037550528144646E-18
230
1.0
 40
0.1078165227368361
 41
1.846156033614259
 42
3.232069353237558
  0
LINE
  5
17F4F
330
1F
100
AcDbEntity
  8
AM_0
100
AcDbLine
 10
25.60356670600754
 20
-56.07719119272788
 30
0.0
 11
25.96436547763619
 21
-56.07719119272788
 31
0.0
  0
SPLINE
  5
17F50
330
1F
100
AcDbEntity
  8
AM_0
100
AcDbSpline
210
0.0
220
0.0
230
1.0
 70
     8
 71
     3
 72
    34
 73
    30
 74
     0
 42
0.0000000001
 43
0.0000000001
 40
3.701028395016574
 40
3.701028395016574
 40
3.701028395016574
 40
3.701028395016574
 40
3.885831290684744
 40
3.885831290684744
 40
5.181108387579659
 40
5.181108387579659
 40
5.75396483080091
 40
5.75396483080091
 40
6.32682127402216
 40
6.32682127402216
 40
6.899677717243412
 40
6.899677717243412
 40
7.472534160464663
 40
7.472534160464663
 40
8.045390603685913
 40
8.045390603685913
 40
8.618247046907165
 40
8.618247046907165
 40
9.191103490128416
 40
9.191103490128416
 40
9.763959933349666
 40
9.763959933349666
 40
11.05923703024458
 40
11.05923703024458
 40
12.3545141271395
 40
12.3545141271395
 40
13.64979122403441
 40
13.64979122403441
 40
13.95230181057322
 40
13.95230181057322
 40
13.95230181057322
 40
13.95230181057322
 10
29.73890236376587
 20
-56.0771911927279
 30
0.0
 10
29.78673689376092
 20
-56.09156052136845
 30
0.0
 10
29.83376343412624
 20
-56.1065049772088
 30
0.0
 10
30.20362572473277
 20
-56.2309845646277
 30
0.0
 10
30.48554828247052
 20
-56.36959584596619
 30
0.0
 10
30.81596634761763
 20
-56.62112601480087
 30
0.0
 10
30.9115711249284
 20
-56.70891351319636
 30
0.0
 10
31.08030835129387
 20
-56.90492212159282
 30
0.0
 10
31.15343480823663
 20
-57.01317877486039
 30
0.0
 10
31.27068907349383
 20
-57.24633155596561
 30
0.0
 10
31.31487937974043
 20
-57.37138348423756
 30
0.0
 10
31.37262592047682
 20
-57.63126284235545
 30
0.0
 10
31.38617976972773
 20
-57.76609511646181
 30
0.0
 10
31.38617976972773
 20
-58.03519899378746
 30
0.0
 10
31.37262592047682
 20
-58.17994142241827
 30
0.0
 10
31.31487937974043
 20
-58.4815284166764
 30
0.0
 10
31.27068907349383
 20
-58.6383692532589
 30
0.0
 10
31.15343480823663
 20
-58.95413625772117
 30
0.0
 10
31.08030835129387
 20
-59.11322822469894
 30
0.0
 10
30.9115711249284
 20
-59.4232281027907
 30
0.0
 10
30.81596634761763
 20
-59.574116638051
 30
0.0
 10
30.48554828247052
 20
-60.036383291273
 30
0.0
 10
30.20362572473277
 20
-60.34430380217829
 30
0.0
 10
29.5562632086054
 20
-60.90250799863479
 30
0.0
 10
29.19072068158948
 20
-61.1525989714462
 30
0.0
 10
28.40509069299856
 20
-61.56851948840085
 30
0.0
 10
27.98429190797617
 20
-61.73455445731696
 30
0.0
 10
27.45269096822381
 20
-61.87883202024622
 30
0.0
 10
27.35149580835071
 20
-61.90350764454119
 30
0.0
 10
27.24999999999989
 20
-61.92551783758835
 30
0.0
  0
SPLINE
  5
17F51
330
1F
100
AcDbEntity
  8
AM_0
100
AcDbSpline
210
0.0
220
0.0
230
1.0
 70
     8
 71
     3
 72
    10
 73
     6
 74
     0
 42
0.0000000001
 43
0.0000000001
 40
1.343678497086003
 40
1.343678497086003
 40
1.343678497086003
 40
1.343678497086003
 40
1.656649656168744
 40
1.656649656168744
 40
1.687432898059303
 40
1.687432898059303
 40
1.687432898059303
 40
1.687432898059303
 10
27.24999999999989
 20
-61.92551783758835
 30
0.0
 10
27.17205930367277
 20
-61.94752253333428
 30
0.0
 10
27.0956279319696
 20
-61.96599296131925
 30
0.0
 10
27.01460424263928
 20
-61.98263219352388
 30
0.0
 10
27.00731708470232
 20
-61.98410209881246
 30
0.0
 10
26.99999999999989
 20
-61.98555087214933
 30
0.0
  0
SPLINE
  5
17F52
330
1F
100
AcDbEntity
  8
AM_0
100
AcDbSpline
210
0.0
220
0.0
230
1.0
 70
     8
 71
     3
 72
    10
 73
     6
 74
     0
 42
0.0000000001
 43
0.0000000001
 40
0.9773458268366279
 40
0.9773458268366279
 40
0.9773458268366279
 40
0.9773458268366279
 40
0.9788631364421681
 40
0.9788631364421681
 40
1.957726272884336
 40
1.957726272884336
 40
1.957726272884336
 40
1.957726272884336
 10
26.99999999999989
 20
-61.98555087214933
 30
0.0
 10
26.99945619675304
 20
-61.98564573027824
 30
0.0
 10
26.99891237964539
 20
-61.98574051378067
 30
0.0
 10
26.64752653253208
 20
-62.04693481921876
 30
0.0
 10
26.2906531897836
 20
-62.07518418787257
 30
0.0
 10
25.96436547763619
 20
-62.07518418787257
 30
0.0
  0
LINE
  5
17F53
330
1F
100
AcDbEntity
  8
AM_0
100
AcDbLine
 10
25.96436547763619
 20
-56.07719119272788
 30
0.0
 11
29.73890236376587
 21
-56.07719119272788
 31
0.0
  0
LINE
  5
17F55
330
1F
100
AcDbEntity
  8
AM_0
100
AcDbLine
 10
199.9999999999999
 20
16.00000000000001
 30
0.0
 11
198.9999999999999
 21
17.00000000000001
 31
0.0
  0
LINE
  5
17F56
330
1F
100
AcDbEntity
  8
AM_0
100
AcDbLine
 10
199.9999999999999
 20
2.000000000000007
 30
0.0
 11
198.9999999999999
 21
1.000000000000007
 31
0.0
  0
LINE
  5
17F57
330
1F
100
AcDbEntity
  8
AM_0
100
AcDbLine
 10
58.6233434548717
 20
17.00000000000003
 30
0.0
 11
88.75
 21
17.00000000000002
 31
0.0
  0
LINE
  5
17F58
330
1F
100
AcDbEntity
  8
AM_0
100
AcDbLine
 10
17.99999999999977
 20
16.75000000000003
 30
0.0
 11
21.28315418429327
 21
16.75000000000003
 31
0.0
  0
LINE
  5
17F59
330
1F
100
AcDbEntity
  8
AM_0
100
AcDbLine
 10
22.34766304099276
 20
1.250000000000057
 30
0.0
 11
26.99999999999989
 21
1.250000000000057
 31
0.0
  0
LINE
  5
17F5A
330
1F
100
AcDbEntity
  8
AM_0
100
AcDbLine
 10
26.99999999999989
 20
1.250000000000028
 30
0.0
 11
27.24999999999989
 21
1.000000000000057
 31
0.0
  0
LINE
  5
17F5B
330
1F
100
AcDbEntity
  8
AM_0
100
AcDbLine
 10
27.24999999999989
 20
1.000000000000057
 30
0.0
 11
88.75
 21
1.00000000000005
 31
0.0
  0
LINE
  5
17F5C
330
1F
100
AcDbEntity
  8
AM_0
100
AcDbLine
 10
0.0005479473087462
 20
0.4175230509900416
 30
0.0
 11
0.5025796663363735
 21
9.996858903330697
 31
0.0
  0
ELLIPSE
  5
17F5D
330
1F
100
AcDbEntity
  8
AM_0
100
AcDbEllipse
 10
0.3984785824937944
 20
0.3990327479652365
 30
0.0
 11
0.249424028302101
 21
0.3127101758906364
 31
0.0
210
0.0
220
0.0
230
1.0
 40
0.9937690710594241
 41
2.194685380556059
 42
4.289080482949223
  0
LINE
  5
17F60
330
1F
100
AcDbEntity
  8
AM_0
100
AcDbLine
 10
9.112299871269784
 20
4.449424798943312
 30
0.0
 11
0.5793526669682478
 21
0.0445863044765815
 31
0.0
  0
ELLIPSE
  5
17F61
330
1F
100
AcDbEntity
  8
AM_0
100
AcDbEllipse
 10
8.93142578679533
 20
4.803871242432081
 30
0.0
 11
0.249424028302101
 21
0.3127101758906364
 31
0.0
210
0.0
220
0.0
230
1.0
 40
0.993769071059424
 41
4.28908048294925
 42
6.383475585342433
  0
LINE
  5
17F62
330
1F
100
AcDbEntity
  8
AM_0
100
AcDbLine
 10
1.117566852232017
 20
10.3143247407698
 30
0.0
 11
9.148482337505925
 21
5.13982738289593
 31
0.0
  0
ELLIPSE
  5
17F63
330
1F
100
AcDbEntity
  8
AM_0
100
AcDbEllipse
 10
0.9005103015213081
 20
9.978368600305892
 30
0.0
 11
0.249424028302101
 21
0.3127101758906364
 31
0.0
210
0.0
220
0.0
230
1.0
 40
0.993769071059424
 41
0.1002902781628795
 42
2.194685380556033
  0
LINE
  5
17F64
330
1F
100
AcDbEntity
  8
AM_0
100
AcDbLine
 10
199.9999999999999
 20
2.000000000000007
 30
0.0
 11
199.9999999999999
 21
16.00000000000001
 31
0.0
  0
LINE
  5
17F65
330
1F
100
AcDbEntity
  8
AM_0
100
AcDbLine
 10
198.9999999999999
 20
11.78388218141502
 30
0.0
 11
198.9999999999999
 21
17.00000000000001
 31
0.0
  0
LINE
  5
17F66
330
1F
100
AcDbEntity
  8
AM_0
100
AcDbLine
 10
27.24999999999989
 20
11.78388218141495
 30
0.0
 11
27.24999999999989
 21
15.78258523496848
 31
0.0
  0
SPLINE
  5
17F67
330
1F
100
AcDbEntity
  8
AM_0
100
AcDbSpline
210
0.0
220
0.0
230
1.0
 70
    12
 71
     2
 72
     6
 73
     3
 74
     0
 42
0.0000000001
 43
0.0000000001
 40
0.0
 40
0.0
 40
0.0
 40
0.8683077351808989
 40
0.8683077351808989
 40
0.8683077351808989
 10
27.24999999999989
 20
11.78388218141501
 30
0.0
 41
1.0
 10
27.1030605540501
 20
11.36162452430343
 30
0.0
 41
1.001395898062718
 10
26.99999999999989
 20
10.95256241897661
 30
0.0
 41
1.0
  0
LINE
  5
17F68
330
1F
100
AcDbEntity
  8
AM_0
100
AcDbLine
 10
198.9999999999999
 20
11.78388218141499
 30
0.0
 11
113.75
 21
11.783882181415
 31
0.0
  0
SPLINE
  5
17F69
330
1F
100
AcDbEntity
  8
AM_0
100
AcDbSpline
210
0.0
220
0.0
230
1.0
 70
    12
 71
     2
 72
     6
 73
     3
 74
     0
 42
0.0000000001
 43
0.0000000001
 40
0.0
 40
0.0
 40
0.0
 40
5.656854249492386
 40
5.656854249492386
 40
5.656854249492386
 10
198.9999999999999
 20
6.216117818584998
 30
0.0
 41
1.0
 10
199.9687499999999
 20
9.000000000000007
 30
0.0
 41
1.066666666666667
 10
198.9999999999999
 20
11.78388218141502
 30
0.0
 41
1.0
  0
LINE
  5
17F6B
330
1F
100
AcDbEntity
  8
AM_0
100
AcDbLine
 10
6.552642980480982
 20
6.812384380789951
 30
0.0
 11
6.627301878050957
 21
6.798603491093132
 31
0.0
  0
ELLIPSE
  5
17F6C
330
1F
100
AcDbEntity
  8
AM_0
100
AcDbEllipse
 10
8.327035087341415
 20
5.439668100201686
 30
0.0
 11
-0.9353401061328801
 21
-1.172663159589889
 31
0.0
210
0.0
220
0.0
230
1.0
 40
0.9937690710594239
 41
0.6238890537610836
 42
2.989630128719225
  0
LINE
  5
17F6D
330
1F
100
AcDbEntity
  8
AM_0
100
AcDbLine
 10
0.6641937133309739
 20
10.29820883781961
 30
0.0
 11
0.5387621325725149
 21
10.68726148728326
 31
0.0
  0
LINE
  5
17F6E
330
1F
100
AcDbEntity
  8
AM_0
100
AcDbLine
 10
8.248697750010933
 20
3.944902658848491
 30
0.0
 11
8.144344842924852
 21
3.949751536273197
 31
0.0
  0
LINE
  5
17F6F
330
1F
100
AcDbEntity
  8
AM_0
100
AcDbLine
 10
7.824546304380306
 20
3.749552437948978
 30
0.0
 11
7.774440461878157
 21
3.758801209510892
 31
0.0
  0
LINE
  5
17F70
330
1F
100
AcDbEntity
  8
AM_0
100
AcDbLine
 10
6.518627246544725
 20
3.110531126464707
 30
0.0
 11
3.210898932356372
 21
1.403030932366534
 31
0.0
  0
LINE
  5
17F71
330
1F
100
AcDbEntity
  8
AM_0
100
AcDbLine
 10
3.210898932356372
 20
1.403030932366505
 30
0.0
 11
3.210898932356372
 21
0.7534196056415397
 31
0.0
  0
ELLIPSE
  5
17F72
330
1F
100
AcDbEntity
  8
AM_0
100
AcDbEllipse
 10
3.181299441478359
 20
9.000000000000028
 30
0.0
 11
-0.05073070395311558
 21
8.24999881257019
 31
0.0
210
0.0
220
0.0
230
1.0
 40
0.0872519303097071
 41
2.78034655021256
 42
3.112262852846147
  0
ELLIPSE
  5
17F73
330
1F
100
AcDbEntity
  8
AM_0
100
AcDbEllipse
 10
7.079754598863588
 20
9.000000000000028
 30
0.0
 11
94.3198343810497
 21
0.5799893677077274
 31
0.0
210
0.0
220
0.0
230
1.0
 40
0.0872519303097075
 41
4.670822473768101
 42
4.719220838276316
  0
LINE
  5
17F75
330
1F
100
AcDbEntity
  8
AM_0
100
AcDbLine
 10
22.93248664511714
 20
10.95256241897661
 30
0.0
 11
25.60356670600754
 21
7.552120467037099
 31
0.0
  0
LINE
  5
17F76
330
1F
100
AcDbEntity
  8
AM_0
100
AcDbLine
 10
0.5387621325725149
 20
10.68726148728326
 30
0.0
 11
3.686601772032873
 21
8.659038437586617
 31
0.0
  0
ARC
  5
17F78
330
1F
100
AcDbEntity
  8
AM_0
100
AcDbCircle
 10
17.0
 20
-7.199999999999932
 30
0.0
 40
10.0
100
AcDbArc
 50
99.765243735662
 51
114.3756528419945
  0
LINE
  5
17F79
330
1F
100
AcDbEntity
  8
AM_0
100
AcDbLine
 10
55.96436548107249
 20
15.78258523496848
 30
0.0
 11
27.24999999999989
 21
15.78258523496848
 31
0.0
  0
SPLINE
  5
17F7A
330
1F
100
AcDbEntity
  8
AM_0
100
AcDbSpline
210
0.0
220
0.0
230
1.0
 70
    12
 71
     2
 72
     6
 73
     3
 74
     0
 42
0.0000000001
 43
0.0000000001
 40
0.0
 40
0.0
 40
0.0
 40
0.3682577903369513
 40
0.3682577903369513
 40
0.3682577903369513
 10
27.24999999999989
 20
15.78258523496848
 30
0.0
 41
1.0
 10
27.12267892892623
 20
15.64732803748825
 30
0.0
 41
1.000147402187019
 10
26.99999999999989
 20
15.51629762742263
 30
0.0
 41
1.0
  0
SPLINE
  5
17F7B
330
1F
100
AcDbEntity
  8
AM_0
100
AcDbSpline
210
0.0
220
0.0
230
1.0
 70
     8
 71
     3
 72
    38
 73
    34
 74
     0
 42
0.0000000001
 43
0.0000000001
 40
-9.138107654842825
 40
-9.138107654842825
 40
-9.138107654842825
 40
-9.138107654842825
 40
-8.566757165328991
 40
-8.566757165328991
 40
-7.995406675815154
 40
-7.995406675815154
 40
-7.424056186301318
 40
-7.424056186301318
 40
-6.852705696787481
 40
-6.852705696787481
 40
-6.281792729445954
 40
-6.281792729445954
 40
-5.710879762104424
 40
-5.710879762104424
 40
-5.139966794762895
 40
-5.139966794762895
 40
-4.569053827421367
 40
-4.569053827421367
 40
-3.99814086007984
 40
-3.99814086007984
 40
-3.427227892738312
 40
-3.427227892738312
 40
-2.856314925396784
 40
-2.856314925396784
 40
-2.285401958055257
 40
-2.285401958055257
 40
-1.714051468541442
 40
-1.714051468541442
 40
-1.14270097902763
 40
-1.14270097902763
 40
-0.5713504895138151
 40
-0.5713504895138151
 40
0.0
 40
0.0
 40
0.0
 40
0.0
 10
55.96436548107249
 20
16.82447430097002
 30
0.0
 10
56.15481564424385
 20
16.82447430097002
 30
0.0
 10
56.35109067728376
 20
16.8287023491757
 30
0.0
 10
56.74023762479783
 20
16.84530269449033
 30
0.0
 10
56.93311696500575
 20
16.85764522241792
 30
0.0
 10
57.30203154389949
 20
16.88679354184504
 30
0.0
 10
57.47839606035427
 20
16.90355970818749
 30
0.0
 10
57.8041261440726
 20
16.93617720165614
 30
0.0
 10
57.95349346550324
 20
16.95195353906377
 30
0.0
 10
58.21777695502465
 20
16.97763749615768
 30
0.0
 10
58.34203616211289
 20
16.98851814773198
 30
0.0
 10
58.56165718864202
 20
17.00072987162372
 30
0.0
 10
58.65703573019755
 20
17.00200013337354
 30
0.0
 10
58.81070881651669
 20
16.99085737365098
 30
0.0
 10
58.86912545138284
 20
16.97839142503037
 30
0.0
 10
58.94596494468397
 20
16.93872596392242
 30
0.0
 10
58.96436548107249
 20
16.91150802289278
 30
0.0
 10
58.96436548107249
 20
16.8454160253026
 30
0.0
 10
58.94596494468397
 20
16.80448607201433
 30
0.0
 10
58.86912545138284
 20
16.70899396409439
 30
0.0
 10
58.81070881651658
 20
16.65444825961544
 30
0.0
 10
58.65703573019744
 20
16.53741641146809
 30
0.0
 10
58.5616571886419
 20
16.47486958821693
 30
0.0
 10
58.34203616211278
 20
16.34952402565054
 30
0.0
 10
58.21777695502465
 20
16.28678544050112
 30
0.0
 10
57.95349346550313
 20
16.16931679072147
 30
0.0
 10
57.8041261440726
 20
16.11038129809819
 30
0.0
 10
57.47839606035416
 20
16.00150530896352
 30
0.0
 10
57.30203154389938
 20
15.95163247861908
 30
0.0
 10
56.93311696500575
 20
15.86913437237425
 30
0.0
 10
56.74023762479783
 20
15.8365064254738
 30
0.0
 10
56.35109067728365
 20
15.79321280967187
 30
0.0
 10
56.15481564424385
 20
15.78258523496848
 30
0.0
 10
55.96436548107249
 20
15.78258523496848
 30
0.0
  0
SPLINE
  5
17F7C
330
1F
100
AcDbEntity
  8
AM_0
100
AcDbSpline
210
0.0
220
0.0
230
1.0
 70
    12
 71
     2
 72
     6
 73
     3
 74
     0
 42
0.0000000001
 43
0.0000000001
 40
0.0
 40
0.0
 40
0.0
 40
0.3682577903369524
 40
0.3682577903369524
 40
0.3682577903369524
 10
26.99999999999989
 20
16.55818669342418
 30
0.0
 41
1.0
 10
27.12267892891828
 20
16.68921710348147
 30
0.0
 41
1.000147402170549
 10
27.24999999999989
 20
16.82447430097002
 30
0.0
 41
1.0
  0
LINE
  5
17F7D
330
1F
100
AcDbEntity
  8
AM_0
100
AcDbLine
 10
27.24999999999989
 20
16.82447430097002
 30
0.0
 11
55.96436548107249
 21
16.82447430097002
 31
0.0
  0
LINE
  5
17F7E
330
1F
100
AcDbEntity
  8
AM_0
100
AcDbLine
 10
7.148607178059251
 20
16.75000000000003
 30
0.0
 11
17.99999999999977
 21
16.75000000000003
 31
0.0
  0
LINE
  5
17F7F
330
1F
100
AcDbEntity
  8
AM_0
100
AcDbLine
 10
23.96436548107249
 20
16.55818669342418
 30
0.0
 11
26.99999999999989
 21
16.55818669342418
 31
0.0
  0
SPLINE
  5
17F80
330
1F
100
AcDbEntity
  8
AM_0
100
AcDbSpline
210
0.0
220
0.0
230
1.0
 70
     8
 71
     3
 72
    38
 73
    34
 74
     0
 42
0.0000000001
 43
0.0000000001
 40
0.0
 40
0.0
 40
0.0
 40
0.0
 40
0.5718157009076237
 40
0.5718157009076237
 40
1.143631401815247
 40
1.143631401815247
 40
1.715447102722871
 40
1.715447102722871
 40
2.287262803630495
 40
2.287262803630495
 40
2.858576531122191
 40
2.858576531122191
 40
3.429890258613887
 40
3.429890258613887
 40
4.001203986105582
 40
4.001203986105582
 40
4.572517713597279
 40
4.572517713597279
 40
5.143831441088977
 40
5.143831441088977
 40
5.715145168580676
 40
5.715145168580676
 40
6.286458896072375
 40
6.286458896072375
 40
6.857772623564073
 40
6.857772623564073
 40
7.429588324471682
 40
7.429588324471682
 40
8.001404025379292
 40
8.001404025379292
 40
8.573219726286903
 40
8.573219726286903
 40
9.145035427194513
 40
9.145035427194513
 40
9.145035427194513
 40
9.145035427194513
 10
23.96436548107249
 20
15.51629762742263
 30
0.0
 10
23.7737602474366
 20
15.51629762742263
 30
0.0
 10
23.57737920913087
 20
15.52722475470998
 30
0.0
 10
23.18811832137931
 20
15.571681732017
 30
0.0
 10
22.99523061284253
 20
15.6051708559261
 30
0.0
 10
22.62636983648122
 20
15.68974340241914
 30
0.0
 10
22.45006511996553
 20
15.74082799104812
 30
0.0
 10
22.1244687208972
 20
15.85221309627892
 30
0.0
 10
21.9751746515235
 20
15.91244379195226
 30
0.0
 10
21.7110316145521
 20
16.03234144966024
 30
0.0
 10
21.58682264157073
 20
16.09631060904198
 30
0.0
 10
21.36724700150762
 20
16.22394087483556
 30
0.0
 10
21.27186351745286
 20
16.28754059519176
 30
0.0
 10
21.11814845796607
 20
16.40632523223198
 30
0.0
 10
21.05969473305629
 20
16.46157199619495
 30
0.0
 10
20.98279189814298
 20
16.55801330592527
 30
0.0
 10
20.96436548107249
 20
16.59919088995963
 30
0.0
 10
20.96436548107249
 20
16.66532928172964
 30
0.0
 10
20.98279189814309
 20
16.69233391554303
 30
0.0
 10
21.0596947330564
 20
16.73109114818348
 30
0.0
 10
21.11814845796607
 20
16.74286274243656
 30
0.0
 10
21.27186351745286
 20
16.75224159293143
 30
0.0
 10
21.36724700150774
 20
16.74990133626019
 30
0.0
 10
21.58682264157073
 20
16.73535962867382
 30
0.0
 10
21.71103161455221
 20
16.723220458095
 30
0.0
 10
21.9751746515235
 20
16.69505871441399
 30
0.0
 10
22.1244687208972
 20
16.6779704240453
 30
0.0
 10
22.45006511996553
 20
16.6428259350923
 30
0.0
 10
22.62636983648122
 20
16.62484712194137
 30
0.0
 10
22.99523061284253
 20
16.5936359268018
 30
0.0
 10
23.18811832137931
 20
16.58044468120596
 30
0.0
 10
23.57737920913087
 20
16.56270396936097
 30
0.0
 10
23.77376024743671
 20
16.55818669342418
 30
0.0
 10
23.96436548107249
 20
16.55818669342418
 30
0.0
  0
LINE
  5
17F81
330
1F
100
AcDbEntity
  8
AM_0
100
AcDbLine
 10
26.99999999999989
 20
15.51629762742263
 30
0.0
 11
23.96436548107249
 21
15.51629762742263
 31
0.0
  0
LINE
  5
17F82
330
1F
100
AcDbEntity
  8
AM_0
100
AcDbLine
 10
26.99999999999989
 20
10.95256241897667
 30
0.0
 11
26.99999999999989
 21
15.51629762742263
 31
0.0
  0
LINE
  5
17F83
330
1F
100
AcDbEntity
  8
AM_0
100
AcDbLine
 10
26.99999999999989
 20
10.95256241897661
 30
0.0
 11
22.93248664511714
 21
10.95256241897661
 31
0.0
  0
ELLIPSE
  5
17F84
330
1F
100
AcDbEntity
  8
AM_0
100
AcDbEllipse
 10
6.476745621380815
 20
9.000000000000028
 30
0.0
 11
-19.53316246651333
 21
2.798454548499154
 31
0.0
210
0.0
220
0.0
230
1.0
 40
0.3699919205841998
 41
3.765718174435836
 42
3.922715012235684
  0
LINE
  5
17F85
330
1F
100
AcDbEntity
  8
AM_0
100
AcDbLine
 10
1.33412747346074
 20
13.39300857735248
 30
0.0
 11
0.6601720238016924
 21
13.00390021707006
 31
0.0
  0
LINE
  5
17F86
330
1F
100
AcDbEntity
  8
AM_0
100
AcDbLine
 10
6.894131191549946
 20
16.60307822068657
 30
0.0
 11
7.148607178059251
 21
16.75000000000003
 31
0.0
  0
SPLINE
  5
17F87
330
1F
100
AcDbEntity
  8
AM_0
100
AcDbSpline
210
0.0
220
0.0
230
1.0
 70
     8
 71
     3
 72
    12
 73
     8
 74
     0
 42
0.0000000001
 43
0.0000000001
 40
20.18353537177303
 40
20.18353537177303
 40
20.18353537177303
 40
20.18353537177303
 40
20.83650105138232
 40
20.83650105138232
 40
22.28477615462705
 40
22.28477615462705
 40
22.51687951079684
 40
22.51687951079684
 40
22.51687951079684
 40
22.51687951079684
 10
10.95459195394687
 20
0.7657417455465918
 30
0.0
 10
11.12881308750912
 20
0.8979626831910252
 30
0.0
 10
11.30338341805407
 20
1.0213982649814
 30
0.0
 10
11.85852310224789
 20
1.389290848976117
 30
0.0
 10
12.26336728359649
 20
1.618866245190617
 30
0.0
 10
12.74057274092547
 20
1.847796638896284
 30
0.0
 10
12.8066510069774
 20
1.878606853685056
 30
0.0
 10
12.87282591619282
 20
1.908591223781656
 30
0.0
  0
SPLINE
  5
17F88
330
1F
100
AcDbEntity
  8
AM_0
100
AcDbSpline
210
0.0
220
0.0
230
1.0
 70
     8
 71
     3
 72
    12
 73
     8
 74
     0
 42
0.0000000001
 43
0.0000000001
 40
38.99508479023381
 40
38.99508479023381
 40
38.99508479023381
 40
38.99508479023381
 40
39.17750467986576
 40
39.17750467986576
 40
41.02086398115408
 40
41.02086398115408
 40
42.09722984356743
 40
42.09722984356743
 40
42.09722984356743
 40
42.09722984356743
 10
10.95459195394687
 20
0.7657417455465918
 30
0.0
 10
10.89125454219141
 20
0.7664065390814869
 30
0.0
 10
10.82790511099165
 20
0.7670606312456414
 30
0.0
 10
10.12452347717931
 20
0.7741441589033968
 30
0.0
 10
9.485429363616731
 20
0.7783965205780135
 30
0.0
 10
8.512187642382855
 20
0.7783965205780135
 30
0.0
 10
8.145441813949901
 20
0.7770673537095263
 30
0.0
 10
7.774733302028835
 20
0.7745668121375786
 30
0.0
  0
ELLIPSE
  5
17F89
330
1F
100
AcDbEntity
  8
AM_0
100
AcDbEllipse
 10
8.269095328193089
 20
0.6931629674746773
 30
0.0
 11
8.951569404519596
 21
4.458502900902118
 31
0.0
210
0.0
220
0.0
230
0.9999999999999999
 40
0.2947638237699353
 41
1.474179512016874
 42
1.619727460587401
  0
ELLIPSE
  5
17F8A
330
1F
100
AcDbEntity
  8
AM_0
100
AcDbEllipse
 10
7.020553054025413
 20
3.139308314263417
 30
0.0
 11
11.52080589429268
 21
-0.5867087559124247
 31
0.0
210
0.0
220
0.0
230
1.0
 40
0.0565032399014106
 41
1.440995509728698
 42
1.503831125679047
  0
SPLINE
  5
17F8B
330
1F
100
AcDbEntity
  8
AM_0
100
AcDbSpline
210
0.0
220
0.0
230
1.0
 70
     8
 71
     3
 72
    32
 73
    28
 74
     0
 42
0.0000000001
 43
0.0000000001
 40
3.076406685832888
 40
3.076406685832888
 40
3.076406685832888
 40
3.076406685832888
 40
3.47433790690017
 40
3.47433790690017
 40
3.762573363186057
 40
3.762573363186057
 40
4.050808819471944
 40
4.050808819471944
 40
4.33904427575783
 40
4.33904427575783
 40
4.627279732043717
 40
4.627279732043717
 40
4.910475180461594
 40
4.910475180461594
 40
5.19367062887947
 40
5.19367062887947
 40
5.760061525715224
 40
5.760061525715224
 40
6.362479511310642
 40
6.362479511310642
 40
6.964897496906062
 40
6.964897496906062
 40
7.255397032981537
 40
7.255397032981537
 40
7.545896569057012
 40
7.545896569057012
 40
7.736840129352632
 40
7.736840129352632
 40
7.736840129352632
 40
7.736840129352632
 10
8.739849609385146
 20
6.667647702083144
 30
0.0
 10
8.876353129012841
 20
6.658417164408377
 30
0.0
 10
9.010388447559649
 20
6.631231130154674
 30
0.0
 10
9.223769698404112
 20
6.560386705930625
 30
0.0
 10
9.314285606158478
 20
6.521330829167255
 30
0.0
 10
9.488938436909393
 20
6.424747670811144
 30
0.0
 10
9.573079405982412
 20
6.367223109530528
 30
0.0
 10
9.728276102135851
 20
6.236657273513117
 30
0.0
 10
9.799471655800858
 20
6.163488827406553
 30
0.0
 10
9.924117028468345
 20
6.006701918381907
 30
0.0
 10
9.977557179607175
 20
5.923075999766837
 30
0.0
 10
10.06370300316951
 20
5.754299010943754
 30
0.0
 10
10.09925182181007
 20
5.664306446327487
 30
0.0
 10
10.15135388725162
 20
5.477670917978401
 30
0.0
 10
10.1679189865273
 20
5.381029450118035
 30
0.0
 10
10.18719710655967
 20
5.091139967782226
 30
0.0
 10
10.15802223205651
 20
4.897512272611408
 30
0.0
 10
10.03792514117129
 20
4.548527235607367
 30
0.0
 10
9.934718585827909
 20
4.370559254486807
 30
0.0
 10
9.662714064989814
 20
4.069165301245278
 30
0.0
 10
9.493801507857484
 20
3.945719300195378
 30
0.0
 10
9.233014712452246
 20
3.820674081769766
 30
0.0
 10
9.140943665520922
 20
3.786034309252159
 30
0.0
 10
8.948103242228513
 20
3.734278363538238
 30
0.0
 10
8.847334948634739
 20
3.71716088803035
 30
0.0
 10
8.678769457477984
 20
3.705357171167549
 30
0.0
 10
8.611434180702986
 20
3.704957763362188
 30
0.0
 10
8.544639503938811
 20
3.708853466662049
 30
0.0
  0
ELLIPSE
  5
17F8C
330
1F
100
AcDbEntity
  8
AM_0
100
AcDbEllipse
 10
5.453785526810975
 20
6.208920914085184
 30
0.0
 11
11.52080589429274
 21
-0.5867087559125405
 31
0.0
210
0.0
220
0.0
230
0.9999999999999999
 40
0.0565032399014096
 41
1.284430040770402
 42
1.471636643220998
  0
ELLIPSE
  5
17F8D
330
1F
100
AcDbEntity
  8
AM_0
100
AcDbEllipse
 10
2.799465535644913
 20
11.40926745389902
 30
0.0
 11
16.70475583613841
 21
-11.00871561375694
 31
0.0
210
0.0
220
0.0
230
1.0
 40
0.0909640346573815
 41
4.82530065855513
 42
5.003043089574986
  0
LINE
  5
17F8E
330
1F
100
AcDbEntity
  8
AM_0
100
AcDbLine
 10
5.019711968625416
 20
15.5208817777569
 30
0.0
 11
1.334127473479157
 21
13.39300857736311
 31
0.0
  0
SPLINE
  5
17F8F
330
1F
100
AcDbEntity
  8
AM_0
100
AcDbSpline
210
0.0
220
0.0
230
1.0
 70
     8
 71
     3
 72
    32
 73
    28
 74
     0
 42
0.0000000001
 43
0.0000000001
 40
0.9430345382246174
 40
0.9430345382246174
 40
0.9430345382246174
 40
0.9430345382246174
 40
2.276574473862125
 40
2.276574473862125
 40
3.610114409499633
 40
3.610114409499633
 40
4.943654345137141
 40
4.943654345137141
 40
6.277194280774649
 40
6.277194280774649
 40
6.827345793246698
 40
6.827345793246698
 40
7.377497305718748
 40
7.377497305718748
 40
7.927648818190797
 40
7.927648818190797
 40
8.477800330662847
 40
8.477800330662847
 40
9.027951843134897
 40
9.027951843134897
 40
9.578103355606945
 40
9.578103355606945
 40
10.128254868079
 40
10.128254868079
 40
10.67840638055105
 40
10.67840638055105
 40
11.54090037487717
 40
11.54090037487717
 40
11.54090037487717
 40
11.54090037487717
 10
16.96436547763619
 20
16.60307822068657
 30
0.0
 10
17.40887878951537
 20
16.60307822068657
 30
0.0
 10
17.86512198155231
 20
16.59374749483428
 30
0.0
 10
18.75904560677918
 20
16.54890872546096
 30
0.0
 10
19.19674380412369
 20
16.5132949579656
 30
0.0
 10
20.015432806234
 20
16.39956183222893
 30
0.0
 10
20.39712842290135
 20
16.32112245264639
 30
0.0
 10
21.0733429728424
 20
16.10123449351309
 30
0.0
 10
21.3680214895486
 20
15.95965397568634
 30
0.0
 10
21.70439912502866
 20
15.70252740600594
 30
0.0
 10
21.79720449234833
 20
15.61715500620133
 30
0.0
 10
21.96113339873671
 20
15.42677270135371
 30
0.0
 10
22.03224957253804
 20
15.32172822431434
 30
0.0
 10
22.14634678707091
 20
15.09570504480539
 30
0.0
 10
22.18938845516811
 20
14.97457276010189
 30
0.0
 10
22.24565250113506
 20
14.72301664518037
 30
0.0
 10
22.25887208946767
 20
14.5925878199229
 30
0.0
 10
22.25887208946767
 20
14.33241477521437
 30
0.0
 10
22.24565250113506
 20
14.19261287241938
 30
0.0
 10
22.18938845516811
 20
13.90164906476841
 30
0.0
 10
22.14634678707091
 20
13.75049092795121
 30
0.0
 10
22.03224957253804
 20
13.44650381634867
 30
0.0
 10
21.96113339873671
 20
13.29351217396462
 30
0.0
 10
21.79720449234833
 20
12.99570829064541
 30
0.0
 10
21.70439912502866
 20
12.85091395024563
 30
0.0
 10
21.45213787713419
 20
12.50196315690428
 30
0.0
 10
21.27450021482525
 20
12.2959025580669
 30
0.0
 10
21.07671349225052
 20
12.10119358568406
 30
0.0
  0
ELLIPSE
  5
17F90
330
1F
100
AcDbEntity
  8
AM_0
100
AcDbEllipse
 10
17.18798782275121
 20
16.62777798322134
 30
0.0
 11
-3.687310915599627
 21
4.69416357481611
 31
0.0
210
0.0
220
0.0
230
1.0
 40
0.883517214805722
 41
2.374541658927173
 42
3.191274506711934
  0
SPLINE
  5
17F91
330
1F
100
AcDbEntity
  8
AM_0
100
AcDbSpline
210
0.0
220
0.0
230
1.0
 70
     8
 71
     3
 72
    12
 73
     8
 74
     0
 42
0.0000000001
 43
0.0000000001
 40
9.711565674842813
 40
9.711565674842813
 40
9.711565674842813
 40
9.711565674842813
 40
9.992521957373578
 40
9.992521957373578
 40
10.93293882053412
 40
10.93293882053412
 40
11.36865770895813
 40
11.36865770895813
 40
11.36865770895813
 40
11.36865770895813
 10
6.402873185590579
 20
14.58452947061116
 30
0.0
 10
6.321861833120124
 20
14.636091691095
 30
0.0
 10
6.241118317154928
 20
14.68788515705015
 30
0.0
 10
5.891657710505797
 20
14.91405452241438
 30
0.0
 10
5.627599835382625
 20
15.08999393284978
 30
0.0
 10
5.252205476364338
 20
15.35229803818228
 30
0.0
 10
5.134974449554875
 20
15.43607822588459
 30
0.0
 10
5.019711968625416
 20
15.5208817777569
 30
0.0
  0
LINE
  5
17F92
330
1F
100
AcDbEntity
  8
AM_0
100
AcDbLine
 10
5.019711968625416
 20
15.52088177775693
 30
0.0
 11
6.894131191549946
 21
16.6030782206866
 31
0.0
  0
LINE
  5
17F93
330
1F
100
AcDbEntity
  8
AM_0
100
AcDbLine
 10
6.894131191549946
 20
16.60307822068657
 30
0.0
 11
16.96436547763619
 21
16.60307822068657
 31
0.0
  0
ELLIPSE
  5
17F94
330
1F
100
AcDbEntity
  8
AM_0
100
AcDbEllipse
 10
18.61253057661099
 20
16.45212046703713
 30
0.0
 11
15.12244836117164
 21
-2.166545456902578
 31
0.0
210
0.0
220
0.0
230
1.0
 40
0.3699919205842002
 41
3.827554163845221
 42
4.656295793423275
  0
SPLINE
  5
17F95
330
1F
100
AcDbEntity
  8
AM_0
100
AcDbSpline
210
0.0
220
0.0
230
1.0
 70
     8
 71
     3
 72
    10
 73
     6
 74
     0
 42
0.0000000001
 43
0.0000000001
 40
-1.480497769541918
 40
-1.480497769541918
 40
-1.480497769541918
 40
-1.480497769541918
 40
-0.8276865448729893
 40
-0.8276865448729893
 40
0.0
 40
0.0
 40
0.0
 40
0.0
 10
22.10808869968878
 20
1.396943051812826
 30
0.0
 10
22.17954827267556
 20
1.354483559519139
 30
0.0
 10
22.23504048748816
 20
1.320357179823333
 30
0.0
 10
22.32407737457572
 20
1.265083150125946
 30
0.0
 10
22.34766304099276
 20
1.250000000000057
 30
0.0
 10
22.34766304099276
 20
1.250000000000057
 30
0.0
  0
LINE
  5
17F96
330
1F
100
AcDbEntity
  8
AM_0
100
AcDbLine
 10
26.99999999999989
 20
1.250000000000028
 30
0.0
 11
26.99999999999989
 21
1.415200655923201
 31
0.0
  0
LINE
  5
17F97
330
1F
100
AcDbEntity
  8
AM_0
100
AcDbLine
 10
29.73890236376587
 20
6.216117818585076
 30
0.0
 11
88.75
 21
6.216117818585069
 31
0.0
  0
LINE
  5
17F98
330
1F
100
AcDbEntity
  8
AM_0
100
AcDbLine
 10
198.9999999999999
 20
1.000000000000007
 30
0.0
 11
198.9999999999999
 21
6.216117818584998
 31
0.0
  0
LINE
  5
17F99
330
1F
100
AcDbEntity
  8
AM_0
100
AcDbLine
 10
27.24999999999989
 20
1.000000000000085
 30
0.0
 11
27.24999999999989
 21
1.172358265229491
 31
0.0
  0
LINE
  5
17F9A
330
1F
100
AcDbEntity
  8
AM_0
100
AcDbLine
 10
25.96436547763619
 20
1.396943051813651
 30
0.0
 11
22.1080886996898
 21
1.396943051813651
 31
0.0
  0
SPLINE
  5
17F9B
330
1F
100
AcDbEntity
  8
AM_0
100
AcDbSpline
210
0.0
220
0.0
230
1.0
 70
     8
 71
     3
 72
    16
 73
    12
 74
     0
 42
0.0000000001
 43
0.0000000001
 40
1.483442463238571
 40
1.483442463238571
 40
1.483442463238571
 40
1.483442463238571
 40
1.647115932141456
 40
1.647115932141456
 40
3.294231864282912
 40
3.294231864282912
 40
4.941347796424368
 40
4.941347796424368
 40
6.588463728565824
 40
6.588463728565824
 40
8.255133412195441
 40
8.255133412195441
 40
8.255133412195441
 40
8.255133412195441
 10
22.1080886996898
 20
1.396943051812286
 30
0.0
 10
22.05908615451438
 20
1.426059139444618
 30
0.0
 10
22.00974505806039
 20
1.454809420904297
 30
0.0
 10
21.46026428822631
 20
1.768688407695748
 30
0.0
 10
20.92715704896227
 20
2.015195012722984
 30
0.0
 10
19.82561811368441
 20
2.410320321598789
 30
0.0
 10
19.25646467000399
 20
2.5591896352459
 30
0.0
 10
18.1181806916569
 20
2.754048776618987
 30
0.0
 10
17.54903864404719
 20
2.800000000000068
 30
0.0
 10
16.44444343879013
 20
2.800000000000068
 30
0.0
 10
15.87333821986772
 20
2.753115985029581
 30
0.0
 10
15.30388291629367
 20
2.655109681701219
 30
0.0
  0
ELLIPSE
  5
17F9C
330
1F
100
AcDbEntity
  8
AM_0
100
AcDbEllipse
 10
30.3166247707693
 20
1.552120467037128
 30
0.0
 11
15.12244836117164
 21
-2.166545456902578
 31
0.0
210
0.0
220
0.0
230
1.0
 40
0.3699919205842002
 41
1.940233793371569
 42
3.326147112994869
  0
LINE
  5
17F9D
330
1F
100
AcDbEntity
  8
AM_0
100
AcDbLine
 10
25.60356670600754
 20
7.552120467037128
 30
0.0
 11
25.96436547763619
 21
7.552120467037128
 31
0.0
  0
SPLINE
  5
17F9E
330
1F
100
AcDbEntity
  8
AM_0
100
AcDbSpline
210
0.0
220
0.0
230
1.0
 70
     8
 71
     3
 72
    34
 73
    30
 74
     0
 42
0.0000000001
 43
0.0000000001
 40
3.701028395016574
 40
3.701028395016574
 40
3.701028395016574
 40
3.701028395016574
 40
3.885831290684744
 40
3.885831290684744
 40
5.181108387579659
 40
5.181108387579659
 40
5.75396483080091
 40
5.75396483080091
 40
6.32682127402216
 40
6.32682127402216
 40
6.899677717243412
 40
6.899677717243412
 40
7.472534160464663
 40
7.472534160464663
 40
8.045390603685913
 40
8.045390603685913
 40
8.618247046907165
 40
8.618247046907165
 40
9.191103490128416
 40
9.191103490128416
 40
9.763959933349666
 40
9.763959933349666
 40
11.05923703024458
 40
11.05923703024458
 40
12.3545141271395
 40
12.3545141271395
 40
13.64979122403441
 40
13.64979122403441
 40
13.95230181057322
 40
13.95230181057322
 40
13.95230181057322
 40
13.95230181057322
 10
29.73890236376587
 20
6.216117818585076
 30
0.0
 10
29.78673689376092
 20
6.177405704428992
 30
0.0
 10
29.83376343412624
 20
6.138062990229457
 30
0.0
 10
30.20362572473277
 20
5.818264325104337
 30
0.0
 10
30.48554828247052
 20
5.509369691688647
 30
0.0
 10
30.81596634761763
 20
5.045337699110945
 30
0.0
 10
30.9115711249284
 20
4.893833290141203
 30
0.0
 10
31.08030835129387
 20
4.582458966569504
 30
0.0
 10
31.15343480823663
 20
4.42260818042385
 30
0.0
 10
31.27068907349383
 20
4.105207557498574
 30
0.0
 10
31.31487937974043
 20
3.947490831082035
 30
0.0
 10
31.37262592047682
 20
3.644084179721375
 30
0.0
 10
31.38617976972773
 20
3.498397950130254
 30
0.0
 10
31.38617976972773
 20
3.22741087642558
 30
0.0
 10
31.37262592047682
 20
3.091565931774625
 30
0.0
 10
31.31487937974043
 20
2.829577073690899
 30
0.0
 10
31.27068907349383
 20
2.7034283418852
 30
0.0
 10
31.15343480823663
 20
2.468067823396297
 30
0.0
 10
31.08030835129387
 20
2.358699076255164
 30
0.0
 10
30.9115711249284
 20
2.16052385195016
 30
0.0
 10
30.81596634761763
 20
2.071681965776946
 30
0.0
 10
30.48554828247052
 20
1.816921966388151
 30
0.0
 10
30.20362572473277
 20
1.676159965723429
 30
0.0
 10
29.5562632086054
 20
1.454387798653983
 30
0.0
 10
29.19072068158948
 20
1.373192065893932
 30
0.0
 10
28.40509069299856
 20
1.253253661717537
 30
0.0
 10
27.98429190797617
 20
1.214177150226419
 30
0.0
 10
27.45269096822381
 20
1.182304770320997
 30
0.0
 10
27.35149580835071
 20
1.177002531105387
 30
0.0
 10
27.24999999999989
 20
1.172358265229491
 30
0.0
  0
SPLINE
  5
17F9F
330
1F
100
AcDbEntity
  8
AM_0
100
AcDbSpline
210
0.0
220
0.0
230
1.0
 70
     8
 71
     3
 72
    10
 73
     6
 74
     0
 42
0.0000000001
 43
0.0000000001
 40
1.343678497086003
 40
1.343678497086003
 40
1.343678497086003
 40
1.343678497086003
 40
1.656649656168744
 40
1.656649656168744
 40
1.687432898059303
 40
1.687432898059303
 40
1.687432898059303
 40
1.687432898059303
 10
27.24999999999989
 20
1.172358265229491
 30
0.0
 10
27.17205930367277
 20
1.247372045990289
 30
0.0
 10
27.0956279319696
 20
1.321594051757387
 30
0.0
 10
27.01460424263928
 20
1.40089079938511
 30
0.0
 10
27.00731708470232
 20
1.408028220909728
 30
0.0
 10
26.99999999999989
 20
1.415200655923201
 30
0.0
  0
SPLINE
  5
17FA0
330
1F
100
AcDbEntity
  8
AM_0
100
AcDbSpline
210
0.0
220
0.0
230
1.0
 70
     8
 71
     3
 72
    10
 73
     6
 74
     0
 42
0.0000000001
 43
0.0000000001
 40
0.9773458268366279
 40
0.9773458268366279
 40
0.9773458268366279
 40
0.9773458268366279
 40
0.9788631364421681
 40
0.9788631364421681
 40
1.957726272884336
 40
1.957726272884336
 40
1.957726272884336
 40
1.957726272884336
 10
26.99999999999989
 20
1.415200655923201
 30
0.0
 10
26.99945619675304
 20
1.415180750317802
 30
0.0
 10
26.99891237964539
 20
1.415160862225577
 30
0.0
 10
26.64752653253208
 20
1.402321876057215
 30
0.0
 10
26.2906531897836
 20
1.396943051813651
 30
0.0
 10
25.96436547763619
 20
1.396943051813651
 30
0.0
  0
ARC
  5
17FA1
330
1F
100
AcDbEntity
  8
AM_0
100
AcDbCircle
 10
25.96436547763619
 20
1.552120467037128
 30
0.0
 40
6.0
100
AcDbArc
 50
51.01702200057457
 51
90.0
  0
LINE
  5
17FA3
330
1F
100
AcDbEntity
  8
AM_0
100
AcDbLine
 10
-59.953384768516
 20
0.5419473297438771
 30
0.0
 11
-57.93687903348166
 21
0.0000000000000711
 31
0.0
  0
ELLIPSE
  5
17FA4
330
1F
100
AcDbEntity
  8
AM_0
100
AcDbEllipse
 10
-57.90838530232963
 20
0.3989263176474793
 30
0.0
 11
0.02790661256672154
 21
0.3990253387631554
 31
1.492320145353696E-17
210
-2.602850007618698E-18
220
-3.721709697142749E-17
230
1.0
 40
0.0871356447448917
 41
3.124589712466146
 42
4.764837312764224
  0
LINE
  5
18228
330
1F
100
AcDbEntity
  8
AM_0
100
AcDbLine
 10
113.75
 20
1.000000000000014
 30
0.0
 11
198.9999999999999
 21
0.9999999999999787
 31
0.0
  0
LINE
  5
1822A
330
1F
100
AcDbEntity
  8
AM_0
100
AcDbLine
 10
113.75
 20
6.21611781858504
 30
0.0
 11
198.9999999999999
 21
6.216117818585026
 31
0.0
  0
LINE
  5
1822C
330
1F
100
AcDbEntity
  8
AM_0
100
AcDbLine
 10
88.75
 20
11.783882181415
 30
0.0
 11
27.24999999999989
 21
11.78388218141501
 31
0.0
  0
LINE
  5
1822D
330
1F
100
AcDbEntity
  8
AM_0
100
AcDbLine
 10
113.75
 20
16.99999999999999
 30
0.0
 11
198.9999999999999
 21
16.99999999999998
 31
0.0
  0
LINE
  5
1822E
330
1F
100
AcDbEntity
  8
AM_0
100
AcDbLine
 10
103.2499999999999
 20
-56.07719119272791
 30
0.0
 11
198.9999999999999
 21
-56.07719119272791
 31
0.0
  0
LINE
  5
18231
330
1F
100
AcDbEntity
  8
AM_0
100
AcDbLine
 10
103.2499999999999
 20
-71.07719119272791
 30
0.0
 11
198.9999999999999
 21
-71.07719119272794
 31
0.0
  0
DIMENSION
  5
184B3
330
1F
100
AcDbEntity
  8
AM_5
100
AcDbDimension
  2
*D7
 10
153.6686900870429
 20
-63.57719119272785
 30
0.0
 11
-16.33536236494535
 21
-65.12788018324724
 31
0.0
 70
   162
  1
<>
 71
     5
 42
0.0872664625997226
  3
AM_JIS$2
100
AcDb2LineAngularDimension
 13
-0.0000000000002274
 23
-63.57719119272785
 33
0.0
 14
-5.124955633298555
 24
-63.1288156737409
 34
0.0
 15
-1.773854710452497
 25
-63.57719119272785
 35
0.0
 16
-10.53599065525095
 26
-62.96353961733372
 36
0.0
1001
GENIUS_GENDTOL_13
1000

1000
h7
1000

1040
0.0
1001
ACAD
1000
DSTYLE
1002
{
1070
   279
1070
     1
1002
}
  0
TEXT
  5
18B19
330
1F
100
AcDbEntity
  8
AM_0
100
AcDbText
 10
30.68619226370322
 20
-110.5301854549753
 30
0.0
 40
5.0
  1
XBPT-216R H18
100
AcDbText
  0
LINE
  5
1907C
330
1F
100
AcDbEntity
  8
AM_0
100
AcDbLine
 10
0.6601720238016924
 20
13.00390021707006
 30
0.0
 11
0.5387621325725149
 21
10.68726148728323
 31
0.0
  0
DIMENSION
  5
1908E
330
1F
100
AcDbEntity
  8
AM_5
100
AcDbDimension
  2
*D9
 10
-8.948137958869097
 20
9.000000000000009
 30
0.0
 11
-12.3481379588691
 21
4.500000000000004
 31
0.0
 70
    32
 71
     5
 42
9.000000000000007
  3
AM_JIS$0
100
AcDbAlignedDimension
 13
-2.673752634007769
 23
0.0
 33
0.0
 14
-2.165548451965719
 24
9.000000000000007
 34
0.0
 50
90.0
100
AcDbRotatedDimension
1001
ACAD
1000
DSTYLE
1002
{
1070
   179
1070
     2
1070
   271
1070
     0
1002
}
  0
DIMENSION
  5
190C9
330
1F
100
AcDbEntity
  8
AM_5
100
AcDbDimension
  2
*D10
 10
0.5025796663363735
 20
9.996858903330697
 30
0.0
 11
-17.59451739996275
 21
18.51827192263294
 31
0.0
 70
    34
 71
     5
 42
1.623156204354731
  3
AM_JIS$2
100
AcDb2LineAngularDimension
 13
-2.673752634007769
 23
0.0
 33
0.0
 14
0.3960502988372809
 24
0.0
 34
0.0
 15
0.0005479473087462
 25
0.4175230509900416
 35
0.0
 16
-10.41039243630006
 26
19.53897807538116
 36
0.0
  0
DIMENSION
  5
19122
330
1F
100
AcDbEntity
  8
AM_5
100
AcDbDimension
  2
*D11
 10
-57.90142960282958
 20
-5.105041805582076
 30
0.0
 11
-67.70806239994833
 21
-13.31157113253469
 31
0.0
 70
    34
 71
     5
 42
0.0652489698097858
  3
AM_JIS$2
100
AcDb2LineAngularDimension
 13
-57.8722007990815
 23
0.4174166206722845
 33
0.0
 14
-57.24627046657759
 24
9.996752473012933
 34
0.0
 15
-57.90142960282958
 25
21.59843988049302
 35
0.0
 16
-58.31746051507173
 26
-19.15504933489473
 36
0.0
1001
ACAD
1000
DSTYLE
1002
{
1070
   179
1070
     0
1002
}
  0
DIMENSION
  5
19188
330
1F
100
AcDbEntity
  8
AM_5
100
AcDbDimension
  2
*D12
 10
199.9999999999999
 20
-32.06999272890151
 30
0.0
 11
99.99999999999997
 21
-28.66961871315348
 31
0.0
 70
    32
 71
     5
 42
199.9999999999999
  3
AM_JIS$0
100
AcDbAlignedDimension
 13
0.0
 23
-2.645739218940122
 33
0.0
 14
199.9999999999999
 24
2.000000000000007
 34
0.0
100
AcDbRotatedDimension
1001
ACAD
1000
DSTYLE
1002
{
1070
   271
1070
     0
1002
}
  0
ENDSEC
  0
SECTION
  2
OBJECTS
  0
DICTIONARY
  5
C
330
0
100
AcDbDictionary
281
     1
  3
ACAD_COLOR
350
188C1
  3
ACAD_GROUP
350
D
  3
ACAD_LAYOUT
350
1A
  3
ACAD_MATERIAL
350
188C0
  3
ACAD_MLINESTYLE
350
17
  3
ACAD_PLOTSETTINGS
350
19
  3
ACAD_PLOTSTYLENAME
350
E
  3
ACAD_TABLESTYLE
350
188C2
  3
AcAmCatalogState
350
18929
  3
ACDBHEADERROUNDTRIPXREC
350
1945E
  3
AcDbVariableDictionary
350
30
  3
ACDMSYSVARMGR
350
188DC
  3
ACGREF_MASTER
350
188D4
  3
ACGREFACAD_MASTER
350
188FC
  3
AcmDictionary
350
4D
  3
ACME_BOM_MANAGER_NAME
350
36
  3
ACME_COMMAND_HISTORY
350
2F
  3
ACME_SCOPE_NAME
350
2E
  3
ACMESTATEMGR
350
3B
  3
AcmeSysVarManager
350
32
  3
AcmSystemVariableManager
350
6A
  3
AD_APPL
350
18907
  3
ADSYSVARMGR
350
18906
  3
AmdtNamedDwgMgr
350
188F7
  3
AMG
350
3F
  3
AMGSNAPSETTINGS
350
73
  3
AMI_MASTER
350
188FF
  3
ASE_INDEX_DICTIONARY
350
18B8F
  3
AUTOCAD_ASSEMBLIES_PROJECT
350
1890F
  3
Designer_Assemblies_SysVars
350
1890A
  3
DWGPROPS
350
19461
  3
eng_data
350
2A40
  3
FILENAME
350
2916
  3
GREFAM_MODULE
350
18900
  3
line_dic_data
350
2A3E
  3
table_dic_data
350
1688
  3
ZWKSIZE
350
2918
  0
DICTIONARY
  5
1895F
330
2
100
AcDbDictionary
280
     1
281
     1
  3
ACAD_LAYERSTATES
360
18960
  0
DICTIONARY
  5
165
330
1F
100
AcDbDictionary
280
     1
281
     1
  0
DICTIONARY
  5
188C1
102
{ACAD_REACTORS
330
C
102
}
330
C
100
AcDbDictionary
281
     1
  0
DICTIONARY
  5
D
102
{ACAD_REACTORS
330
C
102
}
330
C
100
AcDbDictionary
281
     1
  0
DICTIONARY
  5
1A
102
{ACAD_REACTORS
330
C
102
}
330
C
100
AcDbDictionary
281
     1
  3
Model
350
22
  3
ﾚｲｱｳﾄ1
350
1E
  3
ﾚｲｱｳﾄ2
350
26
  0
DICTIONARY
  5
188C0
102
{ACAD_REACTORS
330
C
102
}
330
C
100
AcDbDictionary
281
     1
  0
DICTIONARY
  5
17
102
{ACAD_REACTORS
330
C
102
}
330
C
100
AcDbDictionary
281
     1
  3
Standard
350
18
  0
DICTIONARY
  5
19
102
{ACAD_REACTORS
330
C
102
}
330
C
100
AcDbDictionary
281
     1
  0
ACDBDICTIONARYWDFLT
  5
E
102
{ACAD_REACTORS
330
C
102
}
330
C
100
AcDbDictionary
281
     1
  3
Normal
350
F
100
AcDbDictionaryWithDefault
340
F
  0
DICTIONARY
  5
188C2
102
{ACAD_REACTORS
330
C
102
}
330
C
100
AcDbDictionary
281
     1
  3
Standard
350
188C3
  0
ACAD_PROXY_OBJECT
  5
18929
102
{ACAD_REACTORS
330
C
102
}
330
C
100
AcDbProxyObject
 90
      499
 91
      571
 95
       25
 70
     0
 93
      184
310
3FFFFFFFE00A028140285221D2E31B0B2483ECB65400AA
  0
DICTIONARY
  5
1945E
102
{ACAD_REACTORS
330
C
102
}
330
C
100
AcDbDictionary
281
     1
  3
COLORDICT
350
1945F
  3
MATERIALDICT
350
19460
  0
DICTIONARY
  5
30
102
{ACAD_REACTORS
330
C
102
}
330
C
100
AcDbDictionary
281
     1
  3
CTABLESTYLE
350
1893C
  3
HIDETEXT
350
1945D
  3
INDEXCTL
350
1945C
  0
ACAD_PROXY_OBJECT
  5
188DC
102
{ACAD_REACTORS
330
C
102
}
330
C
100
AcDbProxyObject
 90
      499
 91
      507
 95
       25
 70
     0
 93
      240
310
4C51A47A0000000000000000000000000000000000000000000000000000
330
188DD
330
188DE
330
188DF
330
188E0
330
188E1
330
188E2
330
188E3
330
188E4
330
188E5
330
188E6
330
188E7
330
188E8
330
188E9
330
188EA
330
188EB
330
188EC
330
188ED
330
188EE
330
188EF
330
188F0
330
188F1
330
188F2
330
188F3
330
188F4
330
188F5
330
188F6
 94
        0
  0
ACAD_PROXY_OBJECT
  5
188D4
102
{ACAD_REACTORS
330
C
102
}
330
C
100
AcDbProxyObject
 90
      499
 91
      535
 95
       25
 70
     0
 93
       34
310
0400004280
  0
ACAD_PROXY_OBJECT
  5
188FC
102
{ACAD_REACTORS
330
C
102
}
330
C
100
AcDbProxyObject
 90
      499
 91
      541
 95
       25
 70
     0
 93
      114
310
04000041C080000000000000000000
  0
DICTIONARY
  5
4D
102
{ACAD_REACTORS
330
C
102
}
330
C
100
AcDbDictionary
281
     1
  3
AcmBOMDATA
350
4E
  3
AcmStdDictionary
350
17E
  3
AMDTSECTSYM_ARROWCOLOR
350
1891D
  0
ACAD_PROXY_OBJECT
  5
36
102
{ACAD_REACTORS
330
C
102
}
330
C
100
AcDbProxyObject
 90
      499
 91
      510
 95
       25
 70
     0
 93
       50
310
00010040400000
330
0
330
0
330
37
 94
        0
  0
ACAD_PROXY_OBJECT
  5
2F
102
{ACAD_REACTORS
330
C
102
}
330
C
100
AcDbProxyObject
 90
      499
 91
      505
 95
       25
 70
     0
 93
     4800
310
478050844524F5047454F4D805064D4952524F528050844524F5047454F4D8050653454C4543548050545524153458050C475249505F535452455443488050653454C4543548050C475249505F535452455443488050653454C454354404052D4D5347202D205050413A2020206465736B746F702E6172782046696C655665
310
7273696F6E3A20392E322E302E34014390535115149154D15511109353D1102014213880B4815539113C05084E202D20554E444F014115539113E014115539113E014154155491D1601415454D05591501014B5354D1C80B481414104E88080819195CDADD1BDC0B985C9E08119A5B1955995C9CDA5BDB8E880E4B8C8B8C0B
310
8D0050E414D4454524553455444424D4F4440805084E202D20554E444F014213880B4815539113C0504554E444F80504554E444F805055153415645404052D4D5347202D205050413A2020206465736B746F702E6172782046696C6556657273696F6E3A20392E322E302E34014390535115149154D15511109353D1102014
310
213880B4815539113C05084E202D20554E444F014115539113E014115539113E01419493D510551160142111493D411D153D36014311D4925417D4D514915510D2201411353D591601411693D3D3601415454D05591501014B5354D1C80B481414104E88080819195CDADD1BDC0B985C9E08119A5B1955995C9CDA5BDB8E88
310
0E4B8C8B8C0B8D0050C475249505F535452455443488050C475249505F53545245544348805055153415645404052D4D5347202D205050413A2020206465736B746F702E6172782046696C6556657273696F6E3A20392E322E302E34
  0
ACAD_PROXY_OBJECT
  5
2E
102
{ACAD_REACTORS
330
C
102
}
330
C
100
AcDbProxyObject
 90
      499
 91
      504
 95
       25
 70
     0
 93
      586
310
09000046408000000000000000001344E200000000000000000000000000000000000000000000000000000000000000000000000000000000000000000000000000000000AAA406AA80
360
33
360
34
360
35
360
37
360
6B
360
6C
360
188D5
360
188D6
360
188D7
360
188D8
360
188D9
360
188DA
360
188DD
360
188DE
360
188DF
360
188E0
360
188E1
360
188E2
360
188E3
360
188E4
360
188E5
360
188E6
360
188E7
360
188E8
360
188E9
360
188EA
360
188EB
360
188EC
360
188ED
360
188EE
360
188EF
360
188F0
360
188F1
360
188F2
360
188F3
360
188F4
360
188F5
360
188F6
360
18902
360
18903
360
18904
360
18905
360
1890B
360
1890C
360
1890D
360
1890E
360
18913
360
18914
360
18915
360
18916
360
18917
360
18918
 94
        0
  0
ACAD_PROXY_OBJECT
  5
3B
102
{ACAD_REACTORS
330
C
102
}
330
C
100
AcDbProxyObject
 90
      499
 91
      515
 95
       25
 70
     0
 93
       50
310
09000042641280
  0
ACAD_PROXY_OBJECT
  5
32
102
{ACAD_REACTORS
330
C
102
}
330
C
100
AcDbProxyObject
 90
      499
 91
      507
 95
       25
 70
     0
 93
       48
310
903412000000
330
33
330
34
330
35
 94
        0
  0
ACAD_PROXY_OBJECT
  5
6A
102
{ACAD_REACTORS
330
C
102
}
330
C
100
AcDbProxyObject
 90
      499
 91
      507
 95
       25
 70
     0
 93
       40
310
90240E0000
330
6B
330
6C
 94
        0
  0
ACAD_PROXY_OBJECT
  5
18907
102
{ACAD_REACTORS
330
C
102
}
330
C
100
AcDbProxyObject
 90
      499
 91
      551
 95
       25
 70
     0
 93
       42
310
000900004040
330
18902
 94
        0
  0
ACAD_PROXY_OBJECT
  5
18906
102
{ACAD_REACTORS
330
C
102
}
330
C
100
AcDbProxyObject
 90
      499
 91
      507
 95
       25
 70
     0
 93
        8
310
AA
  0
ACAD_PROXY_OBJECT
  5
188F7
102
{ACAD_REACTORS
330
C
102
}
330
C
100
AcDbProxyObject
 90
      499
 91
      540
 95
       25
 70
     0
 93
       42
310
000100005E80
330
188D5
 94
        0
  0
DICTIONARY
  5
3F
102
{ACAD_REACTORS
330
C
102
}
330
C
100
AcDbDictionary
281
     1
  3
AcMgSettings
350
40
  3
AMGLAYCFG
350
42
  0
DICTIONARY
  5
73
102
{ACAD_REACTORS
330
C
102
}
330
C
100
AcDbDictionary
281
     1
  3
DIMENSION
350
62F
  3
FEA
350
630
  3
HATCH (1)
350
631
  3
HATCH (2)
350
632
  3
SYMBOLS
350
633
  0
ACAD_PROXY_OBJECT
  5
188FF
102
{ACAD_REACTORS
330
C
102
}
330
C
100
AcDbProxyObject
 90
      499
 91
      544
 95
       25
 70
     0
 93
       34
310
0500004280
  0
DICTIONARY
  5
18B8F
102
{ACAD_REACTORS
330
C
102
}
330
C
100
AcDbDictionary
281
     1
  3
ASEBlockHierarchyIndexRecord
350
18B91
1001
DCO15
1040
1562580162.75
  0
ACAD_PROXY_OBJECT
  5
1890F
102
{ACAD_REACTORS
330
C
102
}
330
C
100
AcDbProxyObject
 90
      499
 91
      554
 95
       25
 70
     0
 93
       98
310
0900004E400000000000000000
330
18916
330
0
330
18917
330
0
330
0
330
0
330
0
330
0
 94
        0
  0
ACAD_PROXY_OBJECT
  5
1890A
102
{ACAD_REACTORS
330
C
102
}
330
C
100
AcDbProxyObject
 90
      499
 91
      507
 95
       25
 70
     0
 93
       56
310
90441600000000
330
1890B
330
1890C
330
1890D
330
1890E
 94
        0
  0
XRECORD
  5
19461
102
{ACAD_REACTORS
330
C
102
}
330
C
100
AcDbXrecord
280
     1
  1
DWGPROPS COOKIE
  2

  3

  4

  6

  7

  8

  9

300
AmdtFileType=84
301
=
302
=
303
=
304
=
305
=
306
=
307
=
308
=
309
=
 40
0.0
 41
2451943.235431667
 42
2455441.097513553
  1

 90
        1
  0
DICTIONARY
  5
2A40
102
{ACAD_REACTORS
330
C
102
}
330
C
100
AcDbDictionary
281
     1
  3
eng_id
350
2A41
  0
DICTIONARY
  5
2916
102
{ACAD_REACTORS
330
C
102
}
330
C
100
AcDbDictionary
281
     1
  3
FILENAME
350
2917
  0
ACAD_PROXY_OBJECT
  5
18900
102
{ACAD_REACTORS
330
C
102
}
330
C
100
AcDbProxyObject
 90
      499
 91
      545
 95
       25
 70
     0
 93
        8
310
05
  0
DICTIONARY
  5
2A3E
102
{ACAD_REACTORS
330
C
102
}
330
C
100
AcDbDictionary
281
     1
  3
line_data
350
2A3F
  0
DICTIONARY
  5
1688
102
{ACAD_REACTORS
330
C
102
}
330
C
100
AcDbDictionary
281
     1
  3
input_data
350
168A
  3
table_data
350
1689
  0
DICTIONARY
  5
2918
102
{ACAD_REACTORS
330
C
102
}
330
C
100
AcDbDictionary
281
     1
  3
ZWKSIZE
350
2919
  0
DICTIONARY
  5
18960
102
{ACAD_REACTORS
330
1895F
102
}
330
1895F
100
AcDbDictionary
281
     1
  0
LAYOUT
  5
22
102
{ACAD_REACTORS
330
1A
102
}
330
1A
100
AcDbPlotSettings
  1

  2
SII LP-2150 (D-SCAN C2)
  4
User120
  6
AM_VIEW1
 40
3.174999952316284
 41
3.174999952316284
 42
3.17498779296875
 43
3.17498779296875
 44
296.9259948730469
 45
419.9889831542969
 46
0.0
 47
0.0
 48
0.0
 49
0.0
140
420.0
141
297.0
142
1.0
143
1.022107788374329
 70
 11952
 72
     1
 73
     1
 74
     4
  7
sei_cad.ctb
 75
     0
147
0.9783703943695685
148
0.0
149
0.0
100
AcDbLayout
  1
Model
 70
     1
 71
     0
 10
0.0
 20
0.0
 11
12.0
 21
9.0
 12
0.0
 22
0.0
 32
0.0
 14
0.0
 24
0.0
 34
0.0
 15
0.0
 25
0.0
 35
0.0
146
0.0
 13
0.0
 23
0.0
 33
0.0
 16
1.0
 26
0.0
 36
0.0
 17
0.0
 27
1.0
 37
0.0
 76
     0
330
1F
1001
ACAD_PSEXT
1000
SII LP-2150 (D-SCAN C2)
1000
SII LP-2150 (D-SCAN C2)
1000
133.153.16.130#3000
1000

1070
     0
  0
LAYOUT
  5
1E
102
{ACAD_REACTORS
330
1A
102
}
330
1A
100
AcDbPlotSettings
  1

  2
Canon LASER SHOT LBP-2030
  4

  6

 40
0.0
 41
0.0
 42
0.0
 43
0.0
 44
0.0
 45
0.0
 46
0.0
 47
0.0
 48
0.0
 49
0.0
140
0.0
141
0.0
142
1.0
143
1.0
 70
   688
 72
     0
 73
     0
 74
     5
  7
sei_cad.ctb
 75
    16
147
1.0
148
0.0
149
0.0
100
AcDbLayout
  1
ﾚｲｱｳﾄ1
 70
     1
 71
     1
 10
0.0
 20
0.0
 11
420.0
 21
297.0
 12
0.0
 22
0.0
 32
0.0
 14
1.000000000000000E+20
 24
1.000000000000000E+20
 34
1.000000000000000E+20
 15
-1.000000000000000E+20
 25
-1.000000000000000E+20
 35
-1.000000000000000E+20
146
0.0
 13
0.0
 23
0.0
 33
0.0
 16
1.0
 26
0.0
 36
0.0
 17
0.0
 27
1.0
 37
0.0
 76
     0
330
1B
  0
LAYOUT
  5
26
102
{ACAD_REACTORS
330
1A
102
}
330
1A
100
AcDbPlotSettings
  1

  2
Canon LASER SHOT LBP-2030
  4

  6

 40
0.0
 41
0.0
 42
0.0
 43
0.0
 44
0.0
 45
0.0
 46
0.0
 47
0.0
 48
0.0
 49
0.0
140
0.0
141
0.0
142
1.0
143
1.0
 70
   688
 72
     0
 73
     0
 74
     5
  7
sei_cad.ctb
 75
    16
147
1.0
148
0.0
149
0.0
100
AcDbLayout
  1
ﾚｲｱｳﾄ2
 70
     1
 71
     2
 10
0.0
 20
0.0
 11
12.0
 21
9.0
 12
0.0
 22
0.0
 32
0.0
 14
0.0
 24
0.0
 34
0.0
 15
0.0
 25
0.0
 35
0.0
146
0.0
 13
0.0
 23
0.0
 33
0.0
 16
1.0
 26
0.0
 36
0.0
 17
0.0
 27
1.0
 37
0.0
 76
     0
330
23
  0
MLINESTYLE
  5
18
102
{ACAD_REACTORS
330
17
102
}
330
17
100
AcDbMlineStyle
  2
STANDARD
 70
     0
  3

 62
   256
 51
90.0
 52
90.0
 71
     2
 49
0.5
 62
   256
  6
BYLAYER
 49
-0.5
 62
   256
  6
BYLAYER
  0
ACDBPLACEHOLDER
  5
F
102
{ACAD_REACTORS
330
E
102
}
330
E
  0
TABLESTYLE
  5
188C3
102
{ACAD_REACTORS
330
188C2
102
}
330
188C2
100
AcDbTableStyle
  3
Standard
 70
     0
 71
     8
 40
1.5
 41
1.5
280
     0
281
     0
  7
STANDARD
140
4.5
170
     2
 62
     0
 63
     7
283
     0
274
    -2
284
     1
 64
     0
275
    -2
285
     1
 65
     0
276
    -2
286
     1
 66
     0
277
    -2
287
     1
 67
     0
278
    -2
288
     1
 68
     0
279
    -2
289
     1
 69
     0
  7
STANDARD
140
6.0
170
     5
 62
     0
 63
     7
283
     0
274
    -2
284
     1
 64
     0
275
    -2
285
     1
 65
     0
276
    -2
286
     1
 66
     0
277
    -2
287
     1
 67
     0
278
    -2
288
     1
 68
     0
279
    -2
289
     1
 69
     0
  7
STANDARD
140
4.5
170
     5
 62
     0
 63
     7
283
     0
274
    -2
284
     1
 64
     0
275
    -2
285
     1
 65
     0
276
    -2
286
     1
 66
     0
277
    -2
287
     1
 67
     0
278
    -2
288
     1
 68
     0
279
    -2
289
     1
 69
     0
  0
XRECORD
  5
1945F
102
{ACAD_REACTORS
330
1945E
102
}
330
1945E
100
AcDbXrecord
280
     1
340
188C1
  0
XRECORD
  5
19460
102
{ACAD_REACTORS
330
1945E
102
}
330
1945E
100
AcDbXrecord
280
     1
340
188C0
  0
DICTIONARYVAR
  5
1893C
102
{ACAD_REACTORS
330
30
102
}
330
30
100
DictionaryVariables
280
     0
  1
STANDARD
  0
DICTIONARYVAR
  5
1945D
102
{ACAD_REACTORS
330
30
102
}
330
30
100
DictionaryVariables
280
     0
  1
0
  0
DICTIONARYVAR
  5
1945C
102
{ACAD_REACTORS
330
30
102
}
330
30
100
DictionaryVariables
280
     0
  1
1
  0
ACAD_PROXY_OBJECT
  5
4E
102
{ACAD_REACTORS
330
4D
102
}
330
4D
100
AcDbProxyObject
 90
      499
 91
      520
 95
       25
 70
     0
 93
      118
310
405010040CA904C415CD5B075DD128
350
4F
 94
        0
  0
DICTIONARY
  5
17E
102
{ACAD_REACTORS
330
4D
102
}
330
4D
100
AcDbDictionary
281
     1
  3
JIS
350
17F
  0
XRECORD
  5
1891D
102
{ACAD_REACTORS
330
4D
102
}
330
4D
100
AcDbXrecord
280
     1
 90
-1023410169
  0
ACAD_PROXY_OBJECT
  5
33
330
2E
100
AcDbProxyObject
 90
      499
 91
      508
 95
       25
 70
     0
 93
      156
310
00010143D050D351505391D5531054925390D490
330
2E
 94
        0
  0
ACAD_PROXY_OBJECT
  5
34
330
2E
100
AcDbProxyObject
 90
      499
 91
      508
 95
       25
 70
     0
 93
      148
310
000101439050D351531253915054925390D490
330
2E
 94
        0
  0
ACAD_PROXY_OBJECT
  5
35
330
2E
100
AcDbProxyObject
 90
      499
 91
      509
 95
       25
 70
     0
 93
      156
310
000101439050D35154D6535093D314D256915080
330
2E
 94
        0
  0
ACAD_PROXY_OBJECT
  5
37
330
2E
100
AcDbProxyObject
 90
      499
 91
      511
 95
       25
 70
     0
 93
       88
310
000101411093D34C402B00
330
2E
330
0
330
0
 94
        0
  0
ACAD_PROXY_OBJECT
  5
6B
330
2E
100
AcDbProxyObject
 90
      499
 91
      509
 95
       25
 70
     0
 93
      108
310
00010142505351D153D35054D4E0
330
2E
 94
        0
  0
ACAD_PROXY_OBJECT
  5
6C
330
2E
100
AcDbProxyObject
 90
      499
 91
      522
 95
       25
 70
     0
 93
      140
310
00010142105350D55494D511005034A49530
330
2E
 94
        0
  0
ACAD_PROXY_OBJECT
  5
188D5
330
2E
100
AcDbProxyObject
 90
      499
 91
      536
 95
       25
 70
     0
 93
      358
310
0001014124FEA55D00507392E312E302E34014124FEA55D00507392E322E302E3240501000041505391D311658
330
2E
330
188D6
330
188DC
 94
        0
  0
ACAD_PROXY_OBJECT
  5
188D6
330
2E
100
AcDbProxyObject
 90
      499
 91
      537
 95
       25
 70
     0
 93
       56
310
000190240E0000
330
2E
330
188D7
330
188D9
 94
        0
  0
ACAD_PROXY_OBJECT
  5
188D7
330
2E
100
AcDbProxyObject
 90
      499
 91
      538
 95
       25
 70
     0
 93
       48
310
0001AA000000
330
2E
330
1E
330
188D8
330
0
 94
        0
  0
ACAD_PROXY_OBJECT
  5
188D8
330
2E
100
AcDbProxyObject
 90
      499
 91
      539
 95
       25
 70
     0
 93
       28
310
0001AAA0
330
2E
 94
        0
  0
ACAD_PROXY_OBJECT
  5
188D9
330
2E
100
AcDbProxyObject
 90
      499
 91
      538
 95
       25
 70
     0
 93
       48
310
0001AA000000
330
2E
330
26
330
188DA
330
0
 94
        0
  0
ACAD_PROXY_OBJECT
  5
188DA
330
2E
100
AcDbProxyObject
 90
      499
 91
      539
 95
       25
 70
     0
 93
       28
310
0001AAA0
330
2E
 94
        0
  0
ACAD_PROXY_OBJECT
  5
188DD
330
2E
100
AcDbProxyObject
 90
      499
 91
      509
 95
       25
 70
     0
 93
      108
310
000101421053521310D05310D010
330
2E
 94
        0
  0
ACAD_PROXY_OBJECT
  5
188DE
330
2E
100
AcDbProxyObject
 90
      499
 91
      509
 95
       25
 70
     0
 93
      124
310
00010142905354915554D15112535010
330
2E
 94
        0
  0
ACAD_PROXY_OBJECT
  5
188DF
330
2E
100
AcDbProxyObject
 90
      499
 91
      509
 95
       25
 70
     0
 93
      132
310
00010143105354D150D51253D391125360
330
2E
 94
        0
  0
ACAD_PROXY_OBJECT
  5
188E0
330
2E
100
AcDbProxyObject
 90
      499
 91
      509
 95
       25
 70
     0
 93
      124
310
00010142905355941093D49111549010
330
2E
 94
        0
  0
ACAD_PROXY_OBJECT
  5
188E1
330
2E
100
AcDbProxyObject
 90
      499
 91
      509
 95
       25
 70
     0
 93
      116
310
0001014290535115D1D0D3D313D4A0
330
2E
 94
        0
  0
ACAD_PROXY_OBJECT
  5
188E2
330
2E
100
AcDbProxyObject
 90
      499
 91
      509
 95
       25
 70
     0
 93
      148
310
00010143505355925155D49151949154D21010
330
2E
 94
        0
  0
ACAD_PROXY_OBJECT
  5
188E3
330
2E
100
AcDbProxyObject
 90
      499
 91
      509
 95
       25
 70
     0
 93
      172
310
00010144105350539393D51154149154D15495915010
330
2E
 94
        0
  0
ACAD_PROXY_OBJECT
  5
188E4
330
2E
100
AcDbProxyObject
 90
      499
 91
      509
 95
       25
 70
     0
 93
      172
310
00010144105350555513D11253505494905391D15010
330
2E
 94
        0
  0
ACAD_PROXY_OBJECT
  5
188E5
330
2E
100
AcDbProxyObject
 90
      499
 91
      509
 95
       25
 70
     0
 93
      124
310
00010142D05351561514915191125360
330
2E
 94
        0
  0
ACAD_PROXY_OBJECT
  5
188E6
330
2E
100
AcDbProxyObject
 90
      499
 91
      509
 95
       25
 70
     0
 93
      132
310
00010142D05355105410539393D5115010
330
2E
 94
        0
  0
ACAD_PROXY_OBJECT
  5
188E7
330
2E
100
AcDbProxyObject
 90
      499
 91
      509
 95
       25
 70
     0
 93
      108
310
00010142105350555513D0D31010
330
2E
 94
        0
  0
ACAD_PROXY_OBJECT
  5
188E8
330
2E
100
AcDbProxyObject
 90
      499
 91
      509
 95
       25
 70
     0
 93
      108
310
00010142105350D3119150551050
330
2E
 94
        0
  0
ACAD_PROXY_OBJECT
  5
188E9
330
2E
100
AcDbProxyObject
 90
      499
 91
      509
 95
       25
 70
     0
 93
      108
310
00010142105350D315925155D3F0
330
2E
 94
        0
  0
ACAD_PROXY_OBJECT
  5
188EA
330
2E
100
AcDbProxyObject
 90
      499
 91
      509
 95
       25
 70
     0
 93
      148
310
0001014350535212511156915493D112535010
330
2E
 94
        0
  0
ACAD_PROXY_OBJECT
  5
188EB
330
2E
100
AcDbProxyObject
 90
      499
 91
      509
 95
       25
 70
     0
 93
      124
310
00010142905352105510D21254D3D010
330
2E
 94
        0
  0
ACAD_PROXY_OBJECT
  5
188EC
330
2E
100
AcDbProxyObject
 90
      499
 91
      509
 95
       25
 70
     0
 93
      148
310
00010143905354D25391D31152105513105660
330
2E
 94
        0
  0
ACAD_PROXY_OBJECT
  5
188ED
330
2E
100
AcDbProxyObject
 90
      499
 91
      509
 95
       25
 70
     0
 93
      124
310
00010142D0535115D1D193111254D420
330
2E
 94
        0
  0
ACAD_PROXY_OBJECT
  5
188EE
330
2E
100
AcDbProxyObject
 90
      499
 91
      509
 95
       25
 70
     0
 93
      100
310
00010142105350555513D213A0
330
2E
 94
        0
  0
ACAD_PROXY_OBJECT
  5
188EF
330
2E
100
AcDbProxyObject
 90
      499
 91
      509
 95
       25
 70
     0
 93
      116
310
000101425053521390D3D553951010
330
2E
 94
        0
  0
ACAD_PROXY_OBJECT
  5
188F0
330
2E
100
AcDbProxyObject
 90
      499
 91
      509
 95
       25
 70
     0
 93
      108
310
0001014210535213941493D29010
330
2E
 94
        0
  0
ACAD_PROXY_OBJECT
  5
188F1
330
2E
100
AcDbProxyObject
 90
      499
 91
      509
 95
       25
 70
     0
 93
      108
310
0001014210535213951654115070
330
2E
 94
        0
  0
ACAD_PROXY_OBJECT
  5
188F2
330
2E
100
AcDbProxyObject
 90
      499
 91
      509
 95
       25
 70
     0
 93
      108
310
000101421053521395925155D0F0
330
2E
 94
        0
  0
ACAD_PROXY_OBJECT
  5
188F3
330
2E
100
AcDbProxyObject
 90
      499
 91
      509
 95
       25
 70
     0
 93
      140
310
00010143505354D150D51253D390D3D41660
330
2E
 94
        0
  0
ACAD_PROXY_OBJECT
  5
188F4
330
2E
100
AcDbProxyObject
 90
      499
 91
      509
 95
       25
 70
     0
 93
      108
310
00010142105350D3141493D29030
330
2E
 94
        0
  0
ACAD_PROXY_OBJECT
  5
188F5
330
2E
100
AcDbProxyObject
 90
      499
 91
      508
 95
       25
 70
     0
 93
      212
310
00010143905350555513D2105510D21493D500000000000002E400
330
2E
 94
        0
  0
ACAD_PROXY_OBJECT
  5
188F6
330
2E
100
AcDbProxyObject
 90
      499
 91
      509
 95
       25
 70
     0
 93
      156
310
00010143905350555513D2105510D21111551010
330
2E
 94
        0
  0
ACAD_PROXY_OBJECT
  5
18902
330
2E
100
AcDbProxyObject
 90
      499
 91
      547
 95
       25
 70
     0
 93
      698
310
0001000000009AA6A9AA4051E4D6F6E204D61722031342030303A32363A333020323030352028555443290141CE4B8C4B8C0B8D00518576564205365702030312031313A32303A323520323031300141CE4B8C8B8C0B8C80
330
2E
330
18903
330
18904
330
18906
330
0
 94
        0
  0
ACAD_PROXY_OBJECT
  5
18903
330
2E
100
AcDbProxyObject
 90
      499
 91
      548
 95
       25
 70
     0
 93
       70
310
0001AAA80820000000
330
2E
330
18903
330
18903
 94
        0
  0
ACAD_PROXY_OBJECT
  5
18904
330
2E
100
AcDbProxyObject
 90
      499
 91
      549
 95
       25
 70
     0
 93
       48
310
000100000000
330
2E
330
0
330
18905
330
0
330
0
 94
        0
  0
ACAD_PROXY_OBJECT
  5
18905
330
2E
100
AcDbProxyObject
 90
      499
 91
      550
 95
       25
 70
     0
 93
       40
310
000100AAAA
330
2E
330
0
 94
        0
  0
ACAD_PROXY_OBJECT
  5
1890B
330
2E
100
AcDbProxyObject
 90
      499
 91
      522
 95
       25
 70
     0
 93
      180
310
00010143105050D3D35411119390535140504434F4D500
330
2E
 94
        0
  0
ACAD_PROXY_OBJECT
  5
1890C
330
2E
100
AcDbProxyObject
 90
      499
 91
      522
 95
       25
 70
     0
 93
      212
310
0001014390505193D311115491119390535140506466F6C6465720
330
2E
 94
        0
  0
ACAD_PROXY_OBJECT
  5
1890D
330
2E
100
AcDbProxyObject
 90
      499
 91
      522
 95
       25
 70
     0
 93
      180
310
00010143105050539393D1119390535140504284156290
330
2E
 94
        0
  0
ACAD_PROXY_OBJECT
  5
1890E
330
2E
100
AcDbProxyObject
 90
      499
 91
      522
 95
       25
 70
     0
 93
      436
310
00010143905050D3D35415925155D31254D50052295BD96CA0A90B396CA0A894591A496CA0A8DB691A496CA0A89BA96CA0A95E28F95310
330
2E
 94
        0
  0
ACAD_PROXY_OBJECT
  5
18913
330
2E
100
AcDbProxyObject
 90
      499
 91
      555
 95
       25
 70
     0
 93
       32
310
00010000
330
2E
340
18910
330
18915
330
18910
 94
        0
  0
ACAD_PROXY_OBJECT
  5
18914
330
2E
100
AcDbProxyObject
 90
      499
 91
      556
 95
       25
 70
     0
 93
       18
310
000180
330
2E
 94
        0
  0
ACAD_PROXY_OBJECT
  5
18915
330
2E
100
AcDbProxyObject
 90
      499
 91
      557
 95
       25
 70
     0
 93
      194
310
00010143561094150B4C8C4D9488120C4E1050055401550000
330
2E
330
18913
330
18914
 94
        0
  0
ACAD_PROXY_OBJECT
  5
18916
330
2E
100
AcDbProxyObject
 90
      499
 91
      558
 95
       25
 70
     0
 93
      178
310
000100AAAAAA89DB14DABF153E50EF18F9551B82F2E140
330
2E
330
18915
 94
        0
  0
ACAD_PROXY_OBJECT
  5
18917
330
2E
100
AcDbProxyObject
 90
      499
 91
      559
 95
       25
 70
     0
 93
      108
310
000190140A000000000000AAAAA0
330
2E
330
18918
330
18918
330
18918
330
18918
330
18918
330
0
 94
        0
  0
ACAD_PROXY_OBJECT
  5
18918
330
2E
100
AcDbProxyObject
 90
      499
 91
      560
 95
       25
 70
     0
 93
       51
310
00010000AAAA80
330
2E
330
18917
330
18915
 94
        0
  0
DICTIONARY
  5
40
102
{ACAD_REACTORS
330
3F
102
}
330
3F
100
AcDbDictionary
281
     1
  3
DWGSETTINGS
350
41
  3
FEM
350
69
  3
Shaft
350
56
  3
TRANSSETTINGS
350
4C
  0
ACAD_PROXY_OBJECT
  5
42
102
{ACAD_REACTORS
330
3F
102
}
330
3F
100
AcDbProxyObject
 90
      499
 91
      519
 95
       25
 70
     0
 93
    23232
310
41502491013041105357CC201C00030C011E441013141105357CC603800030C011E441013241105357CCA01400030C011E441013341105357CCE01800030C010D9013441105357CD200C00030C010D9013541105357CD600C00030C010D9013641105357CDA00800030C011E9013741105357CDE01000030C010D901384110
310
5357CE200400030C011E9013941105357CE63F400030C0241102324141505357CC4C201C00030C011E902344141505357CC4C600C00030C010D902495041505357CC4CA01C00030C011E40902304E41505357CC13A01C00030C011E902314E41505357CC53A03800030C011E902324E41505357CC93A01400030C011E90233
310
4E41505357CCD3A01800030C010D902344E41505357CD13A00C00030C010D902354E41505357CD53A00C00030C010D902364E41505357CD93A00800030C011E902374E41505357CDD3A01000030C010D902384E41505357CE13A00400030C011E902394E41505357CE53A3F400030C024110332414E41905357CC4C13A01C0
310
0030C011E90334414E41905357CC4C53A00C00030C010D90349504E41905357CC4C93A01C00030C011E409044B4C494E41505357D0D3200400030C011E42504494E464F42105357D410549151A01000030C010D42D055241484D3541905357D093D4A01C00030C011E425045649455742105357D5925155D4E00400030C011
310
E42D06424548494E4441905357D25395A3F400030C0243505545241494C41505357D514A00C00030C010D4250348494441905357D21251201C00030C011E4250356495341905357D59254E01C00030C011E4250650415244494D42505357D41054911253600C00030C010D4250652454644494D42505357D49151911253601
310
000030C010D425774110531514901348070000C300479034110915312501348000000C0003FFFFFFFD034110921395901398000000C0003FFFFFFFE415092139594D06424548494E448000000C0003FFFFFFFE411093125110234418000000C0003FFFFFFFD03411093D05410234418000000C0003FFFFFFFD03411093D48C
310
9055241484D358010000C30047A411093D48CD055241484D358020000C30047A411093D48D5055241484D358000000C0003FFFFFFFE411093D48DD055241484D3581E0000C30047903411094105410234418000000C0003FFFFFFFD03411094115610234418000000C0003FFFFFFFD034110951112501358000000C0003FFF
310
FFFFD034110D0530C901348000000C0003FFFFFFFE4110D0530CD01348020000C30047A4110D0530D501348070000C30047A4110D0530DD013481E0000C30047A4110D15393901378000000C0003FFFFFFFE4110D15395D01378000000C0003FFFFFFFE4110D312539044B4C494E8000000C0003FFFFFFFE4110D3D38C5013
310
08000000C0003FFFFFFFD034110D3D38C901318000000C0003FFFFFFFD034110D3D38CD01328000000C0003FFFFFFFD034110D3D38D101328000000C0003FFFFFFFD034111115494101348000000C0003FFFFFFFD034111115510501348000000C0003FFFFFFFE4111125051D01358000000C0003FFFFFFFE4111125312501
310
358000000C0003FFFFFFFE411112535410650415244494D8000000C0003FFFFFFFE411112535490652454644494D8000000C0003FFFFFFFE411156135410234418000000C0003FFFFFFFD034111915353901388000000C0003FFFFFFFE415191535413901388030000C3004364151915354D410234418000000C0003FFFFFF
310
FE4151915354D510234418030000C300436415191535593901328000000C0003FFFFFFFE415191535595101328030000C3004364111931055101308000000C0003FFFFFFFD03411194905490234418000000C0003FFFFFFFD034111D49312501358000000C0003FFFFFFFD034111D5931250234418000000C0003FFFFFFFD0
310
34112105510D01388000000C0003FFFFFFFD014112125113901338000000C0003FFFFFFFD034112125115D01338000000C0003FFFFFFFD034112131253901348000000C0003FFFFFFFD01411213D0D3901378000000C0003FFFFFFFE411213D0D5D01378000000C0003FFFFFFFE4112539193D04494E464F8000000C0003FF
310
FFFFFE4113105112501348000000C0003FFFFFFFD034113115051101358000000C0003FFFFFFFE419397D0921395902394E8000000C0003FFFFFFFE419397D0D3D38C502304E8000000C0003FFFFFFFD03419397D0D3D38C902314E8000000C0003FFFFFFFD03419397D0D3D38CD02324E8000000C0003FFFFFFFD03419397
310
D0D3D38D102324E8000000C0003FFFFFFFD03419397D0D15393902374E8000000C0003FFFFFFFE419397D0D15395D02374E8000000C0003FFFFFFFE419397D1125312502354E8000000C0003FFFFFFFE419397D2105510D02384E8000000C0003FFFFFFFD01419397D2125113902334E8000000C0003FFFFFFFD03419397D2
310
125115D02334E8000000C0003FFFFFFFD03419397D3115051102354E8000000C0003FFFFFFFE419397D391D25410349504E8000000C0003FFFFFFFE419397D412105390334414E8000000C0003FFFFFFFE419397D510D3D3902304E8000000C0003FFFFFFFD03419397D5121312502344E8000000C0003FFFFFFFD01419397
310
D5131153902304E8000000C0003FFFFFFFD03419397D516150CD02364E8000000C0003FFFFFFFD03419397D594131250332414E8000000C0003FFFFFFFE411391D25410249508000000C0003FFFFFFFE411410530C9055241484D358010000C30047A411410530CD055241484D358020000C30047A411410530D5055241484
310
D358000000C0003FFFFFFFE411410530DD055241484D3581E0000C30047903411412105390234418000000C0003FFFFFFFE411413D4D3901368070000C30047A419413D4D49151901368050000C30047903411413D4D6101368000000C0003FFFFFFFD03411414D150D0234418000000C0003FFFFFFFD03411490D1D390137
310
8000000C0003FFFFFFFE411490D1D5D01378000000C0003FFFFFFFE4114919112501348000000C0003FFFFFFFD034114945514901348070000C30047903411494D093D01348000000C0003FFFFFFFD034114D09492D01348000000C0003FFFFFFFD014114D0D153901378000000C0003FFFFFFFD034114D150D51013480000
310
00C0003FFFFFFFD014114D15313901378000000C0003FFFFFFFD034114D15315D01378000000C0003FFFFFFFD034114D4D654D01308000000C0003FFFFFFFD034114D51312501348070000C300479034114D6508C501358000000C0003FFFFFFFD034114D6508C901358000000C0003FFFFFFFD034114D6508CD0135802000
310
0C30047A4114D6508D501358070000C300479034114D65353901378000000C0003FFFFFFFD034114D65355D01378000000C0003FFFFFFFD03411510D3D3901308000000C0003FFFFFFFD034115121312501348000000C0003FFFFFFFD01411512550C9055241484D358010000C30047A411512550CD055241484D358020000
310
C30047A411512550D5055241484D358000000C0003FFFFFFFE411512550DD055241484D3581E0000C300479034115131153901308000000C0003FFFFFFFD03415514905253105545241494C8000000C0003FFFFFFFE41151492D3901378000000C0003FFFFFFFD0341151492D5D01378000000C0003FFFFFFFD03411514931
310
2501348000000C0003FFFFFFFD01411516150C501368030000C300436411516150C901368030000C300436411516150CD01368000000C0003FFFFFFFE411516150D501368070000C30047A411516150DD013681E0000C30047A4115925155D04564945578000000C0003FFFFFFFE41159151121034849448000000C0003FFF
310
FFFFD0241159151159035649538000000C0003FFFFFFFD02411594131250232418000000C0003FFFFFFFE4116925690501348000000C0003FFFFFFFD01411354D653501358020000C30047AAAA3F400030C01013F90A4051E4091E40D0D4110D4151E4190D41D1E4391E4791E7F6
340
16
340
16
340
16
340
43
340
16
340
16
340
16
340
44
340
16
340
16
340
44
340
45
340
16
340
16
340
16
340
16
340
43
340
16
340
16
340
16
340
44
340
16
340
16
340
44
340
45
340
16
340
46
340
16
340
16
340
16
340
16
340
16
340
43
340
16
340
16
340
16
340
47
340
15
340
15
340
15
340
15
340
15
340
15
340
15
340
15
340
15
340
15
340
15
340
15
340
15
340
15
340
15
340
15
340
48
340
15
340
15
340
15
340
15
340
15
340
15
340
15
340
15
340
15
340
15
340
15
340
15
340
15
340
15
340
15
340
16
340
15
340
15
340
15
340
15
340
15
340
15
340
15
340
15
340
47
340
15
340
15
340
48
340
15
340
15
340
15
340
15
340
15
340
15
340
15
340
15
340
15
340
48
340
15
340
15
340
15
340
47
340
15
340
15
340
15
340
15
340
15
340
15
340
15
340
15
340
15
340
15
340
15
340
15
340
15
340
15
340
15
340
15
340
15
340
15
340
15
340
48
340
15
340
15
340
48
340
15
340
15
340
16
340
15
340
48
340
15
340
15
340
47
340
15
340
15
340
16
340
15
340
48
340
15
340
15
340
15
340
15
340
15
340
15
340
15
340
15
340
15
340
48
340
15
340
15
340
15
340
15
340
15
340
15
340
15
340
15
340
15
340
15
340
15
340
4B
340
16
 94
        0
  0
ACAD_PROXY_OBJECT
  5
62F
102
{ACAD_REACTORS
330
73
102
}
330
73
100
AcDbProxyObject
 90
      499
 91
      523
 95
       25
 70
     0
 93
      253
310
43D1444494D454E53494F4E2C414D44545F2A5F44494D404A9012A404A9012A0
  0
ACAD_PROXY_OBJECT
  5
630
102
{ACAD_REACTORS
330
73
102
}
330
73
100
AcDbProxyObject
 90
      499
 91
      523
 95
       25
 70
     0
 93
      181
310
43D012A42D05357D191504B505357CA9012A404A9012A8
  0
ACAD_PROXY_OBJECT
  5
631
102
{ACAD_REACTORS
330
73
102
}
330
73
100
AcDbProxyObject
 90
      499
 91
      523
 95
       25
 70
     0
 93
      133
310
43D054841544348404A9012A404A9012A8
  0
ACAD_PROXY_OBJECT
  5
632
102
{ACAD_REACTORS
330
73
102
}
330
73
100
AcDbProxyObject
 90
      499
 91
      523
 95
       25
 70
     0
 93
      549
310
43D044C494E4549CE0B0E138B0A8B4E0B0A8B4E138B105357CE0B105357CE138B0A8B505357CE0B0A8B505357CE139012A404A910494E534552542C5354445041525432448
  0
ACAD_PROXY_OBJECT
  5
633
102
{ACAD_REACTORS
330
73
102
}
330
73
100
AcDbProxyObject
 90
      499
 91
      523
 95
       25
 70
     0
 93
      909
310
43D6641434D46434652414D452C41434D444154554D5441524745542C41434D444154554D49442C41434D57454C4453594D2C41434D5355524653594D2C41434D4645415449442C41434D504152545245462C41434D42414C4C4F4F4E2C414D44544544474553594D404A9012A404A9012A8
  0
XRECORD
  5
18B91
102
{ACAD_REACTORS
330
18B8F
102
}
330
18B8F
100
AcDbXrecord
280
     1
330
0
330
0
330
0
330
0
330
0
330
0
330
0
330
0
330
0
330
0
330
0
330
0
330
0
330
0
330
0
330
0
330
0
330
0
330
0
330
0
330
0
330
0
330
0
330
0
330
0
330
0
330
0
330
0
330
0
330
0
330
0
330
0
330
0
330
0
330
0
330
0
330
0
330
0
330
0
330
0
330
0
330
0
330
0
330
0
330
0
330
0
330
0
330
0
330
0
330
0
330
0
330
0
330
0
330
0
330
0
330
0
330
0
330
0
330
0
330
0
330
0
330
0
330
0
330
0
330
0
330
0
330
0
330
0
330
0
330
0
330
0
330
0
330
0
330
0
330
0
  0
XRECORD
  5
2A41
102
{ACAD_REACTORS
330
2A40
102
}
330
2A40
100
AcDbXrecord
280
     1
  1
LINE
  0

  0
XRECORD
  5
2917
102
{ACAD_REACTORS
330
2916
102
}
330
2916
100
AcDbXrecord
280
     1
  1
25000259__00___
  0

  0
XRECORD
  5
2A3F
102
{ACAD_REACTORS
330
2A3E
102
}
330
2A3E
100
AcDbXrecord
280
     1
  1
110 ^M^J ^M^J ^M^J ^M^J ^M^J ^M^J ^M^J ^M^J ^M^J ^M^J ^M^Jボーリングクイル ^M^J鋼 ^M^J特型 ^M^J直付け ^M^Jストレート ^M^J25 ^M^J2 ^M^J ^M^Jアルミ ^M^J ^M^J
  0

  0
XRECORD
  5
168A
102
{ACAD_REACTORS
330
1688
102
}
330
1688
100
AcDbXrecord
280
     1
  1
1,,,,,,,,,^M^J2,,,,,,,,,^M^J3,,,,,,,,,^M^J4,,,,,,,,,^M^J5,,,,,,,,,^M^J6,,,,,,,,,^M^J7,,,,,,,,,^M^J8,,,,,,,,,^M^J9,,,,,,,,,^M^J10,,,,,,,,,
  0

  0
XRECORD
  5
1689
102
{ACAD_REACTORS
330
1688
102
}
330
1688
100
AcDbXrecord
280
     1
  1
10,10
  0

  0
XRECORD
  5
2919
102
{ACAD_REACTORS
330
2918
102
}
330
2918
100
AcDbXrecord
280
     1
  1
3
  0

  0
ACAD_PROXY_OBJECT
  5
4F
102
{ACAD_REACTORS
330
4E
102
}
330
4E
100
AcDbProxyObject
 90
      499
 91
      521
 95
       25
 70
     0
 93
      157
310
057356C1D77406406AA8FFFFFFFF05DD01009010
330
1F
330
0
330
18915
 94
        0
  0
ACAD_PROXY_OBJECT
  5
17F
102
{ACAD_REACTORS
330
17E
102
}
330
17E
100
AcDbProxyObject
 90
      499
 91
      526
 95
       25
 70
     0
 93
     2379
310
5DC33333333333309408000000C00040D29254D01640600800030C0200800030C003333333333330940C8121E8720B1B6A9BAB9332A32BC3A29BA3220480A1282C6DA8C868CA6E8C88120286A0B1B6ABB2B63234B733A9BA3220480A1082C6DA92C8A6E8C88120285A0B1B6A230BA3AB6A9BA3220480A1282C6DA849E9AA6E
310
8C88120286A0B1A0B6B3AA34BA3632A9BA3220480A2082DAC8E888CAE8C2D2D8A6F2DAA6E8C88120288A0B6B23A29B2B1BA34B7B729BCB6A9BA3220480A2282DAC8E886CADCE8CAE498D2DCCAA6E8C88120288A0B6B23A2A343932B0B22634B732A9BA3220480A1682DAC8E89CDEE8CAA6E8C88120285A0B1A0B6B3A630BCA
310
9BA3220480A1682C682DACE88D2DAA6E8C88120288A0B1A0B6B3A437B632A1B430B93A29BA3220480C812020
340
180
360
181
360
182
360
183
360
184
360
185
360
186
360
1891A
360
1891B
360
1891C
360
1891E
360
1891F
360
18920
360
18926
360
18927
360
18928
340
0
340
0
 94
        0
  0
ACAD_PROXY_OBJECT
  5
41
102
{ACAD_REACTORS
330
40
102
}
330
40
100
AcDbProxyObject
 90
      499
 91
      518
 95
       25
 70
     0
 93
     2954
310
4050B44574753455454494E4753A0E8482A68AA6A88882A069492A684A1A0A723A0A92920ACA0A81199820C868A9C829C8E82A12686AF87260F862666A8321A2A72224A0A50000000000000122020E868A9C889282A682A106260F86460F8666083A1A2A72224A9AA250000000000000042020C868A9C988A9C94000000000
310
000048808321A2A727A323250000000000000122020E868A9C9E8C8C62940000000000000488083A1A2A727A32319250000000000000122021CC6D0C2DACCCAE4C8D2DADADEC8CA9FC84A1A624A720A92920ACA0A819918182108698929C8AA8B2A082A0AB098929C8A84A22BA3AAA9A1A0A622A50A0E9882A6A89E849482A
310
02608426A0A5A2AB24A2ABA7E8120CA0A68682988A0C00800010652455649534941501304154D0D0531150540CC4E8C5085354414E44415244415034A4953425512535154D51053541281E1EF2945C8ADCD050756455253494F4E4150531352E3030441ED115D1D4D15515125391D4D153911F40
  0
ACAD_PROXY_OBJECT
  5
69
102
{ACAD_REACTORS
330
40
102
}
330
40
100
AcDbProxyObject
 90
      499
 91
      518
 95
       25
 70
     0
 93
      411
310
4050346454D21092DCC6E486DECACC942842630BCA3B937BAB820A8320A6AFA322A0A20F688AE8EA68AA8A8929C8EA68A9C88FA0
  0
ACAD_PROXY_OBJECT
  5
56
102
{ACAD_REACTORS
330
40
102
}
330
40
100
AcDbProxyObject
 90
      499
 91
      518
 95
       25
 70
     0
 93
      583
310
40505536861667421292DCE8CAE4E4EAE0E89FA0484A634B3B43A2634B732A7F21A98D2CED0E898D2DCCAACD2CAEE9FC8229B4B232A7E80A20F688AE8EA68AA8A8929C8EA68A9C88FA
  0
ACAD_PROXY_OBJECT
  5
4C
102
{ACAD_REACTORS
330
40
102
}
330
40
100
AcDbProxyObject
 90
      499
 91
      518
 95
       25
 70
     0
 93
      852
310
4050D5452414E5353455454494E4753A2488A482AE929C8EA8A4829CA69882A8929E9C0C00800050D4F524947494E414C4C595F4F4E0600400028529A7AAA921A2A620A723A0A81A52827212AAA0A48AA68AA4AC8A0C0080001107B44574753455454494E4753454E447D0
  0
ACAD_PROXY_OBJECT
  5
181
330
17F
100
AcDbProxyObject
 90
      499
 91
      527
 95
       25
 70
     0
 93
       86
310
5DEA0C80A0280A0280A034
  0
ACAD_PROXY_OBJECT
  5
182
330
17F
100
AcDbProxyObject
 90
      499
 91
      528
 95
       25
 70
     0
 93
      282
310
5DD0E4050140501405014050140501405014050141101405014041000000000000001000
340
187
 94
        0
  0
ACAD_PROXY_OBJECT
  5
183
330
17F
100
AcDbProxyObject
 90
      499
 91
      529
 95
       25
 70
     0
 93
      323
310
5DCC199999999999E99F91740501405014050140501405014050140501405014050140501405014040
340
0
 94
        0
  0
ACAD_PROXY_OBJECT
  5
184
330
17F
100
AcDbProxyObject
 90
      499
 91
      530
 95
       25
 70
     0
 93
       10
310
5DC0
  0
ACAD_PROXY_OBJECT
  5
185
330
17F
100
AcDbProxyObject
 90
      499
 91
      531
 95
       25
 70
     0
 93
      257
310
5DE0C16A22A7D90F49F80000000000001081400000000000004204010000618000
340
188
340
189
 94
        0
  0
ACAD_PROXY_OBJECT
  5
186
330
17F
100
AcDbProxyObject
 90
      499
 91
      532
 95
       25
 70
     0
 93
     5277
310
5DD06411255115350141236025B6901405014069010000000000000910240690120281A8AA2CA0282484A4BE52028120280A032020000000000001220480D202405044E414D454050496BC914F4051C40640A80000000000004E4090193C3D3C4946284953424C414E4B28504152543A4E414D45292C424C4F434B3A4E414D
310
452C504152543A4E414D45293E3C41435F44455343524950544E3E40480A109A82A88AA492829880A091BBD2F7E80A3A80C81D0E27A15AF46E08A81203480901411393D5115014124A363B7D0147501904A0000000000000F902406428F4F1050D7D393D5114F901202832B22A72227A92028366EF6EE06F582028EA0320B4
310
0000000000001F20480C879E9E20A1AFAB27222FA620A122A61F20240506445020000000000000490201C00030C00010180000000000003E400000000000000F901073D3C4954454D3E4050180000000000003E400000000000000F901073D3C4954454D3E40501800000000000034400000000000000D101073D3C4954454
310
D3E40501800000000000034400000000000000D101073D3C4954454D3E405029010000000000000F9000000000000003E4041CF4F125511534F901418F4F1455164F9014060000000000000F9000000000000003E4041CF4F125511534F901800000000000034400000000000000D101073D3C4954454D3E40640400000000
310
0000003E400000000000000F90288800000000000020810000001800120881A068120480A032208521122080D21480D211480A1485214852050000000000003C2FC000000000000F0BF40600800030C0200400030C00CDCCCCCCCCCCEC3F3373333333333B0FC3333333333330940C80D069014090341504901A1999999999
310
9984A040100006180400800061804010000618008098A02808
340
0
340
0
 94
        0
  0
ACAD_PROXY_OBJECT
  5
1891A
330
17F
100
AcDbProxyObject
 90
      499
 91
      561
 95
       25
 70
     0
 93
     3042
310
5DD9740D29254D064A49535F413342929254D7D512551311505134A49535F42525F5265766973696F6E6C6973744190F4134522028323937783231306D6D2941D29254D7D04D1490E41312028353934783834316D6D2941929254D7D04C50E41332028323937783432306D6D2941929254D7D04CD0F41344C2028323130783
310
239376D6D2941D29254D7D04D1310E41322028343230783539346D6D2941929254D7D04C90F4130202838343178313138396D6D2941929254D7D04C10243129254C82557247A25E4C81050A4A49535F5449544C454143129254C82557247A25E4C81090A4A49535F5449544C45424110E979A97F0838A835883675F42525F4
310
4D29254D7D09497D4995D9A5CDA5BDB9B1A5CDD10E979A97F0838A835883675F54525F44D29254D7D51497D4995D9A5CDA5BDB9B1A5CDD10E979A97F0838A835883675F424C5F44D29254D7D09317D4995D9A5CDA5BDB9B1A5CDD10E979A97F0838A835883675F544C5F44D29254D7D51317D4995D9A5CDA5BDB9B1A5CDD00
  0
ACAD_PROXY_OBJECT
  5
1891B
330
17F
100
AcDbProxyObject
 90
      499
 91
      562
 95
       25
 70
     0
 93
      898
310
5DC4000000000000124048CF4F11115510525317D3105091530F880A0F11115510525317D05094D4D0D053114F8A50241C9A9999999999B93F26A666666666724FC000000000000E03F400000000000000400000000000000510000000000000024408070000C300000000000000049000
340
16
340
180
 94
        0
  0
ACAD_PROXY_OBJECT
  5
1891C
330
17F
100
AcDbProxyObject
 90
      499
 91
      563
 95
       25
 70
     0
 93
      823
310
5DC0B00000000000002480959E9E29A2A1AA24A7A72FA620A122A62FA324A929AA1F169E29A2A1AA24A7A72FA620A122A62FA620A9AA1F000000000000048803FFFE01C00030C008140380006180000000000000048800000000000000A2000000000000002480
340
652
340
180
 94
        0
  0
ACAD_PROXY_OBJECT
  5
1891E
330
17F
100
AcDbProxyObject
 90
      499
 91
      564
 95
       25
 70
     0
 93
      152
310
5DE8273108AC1C5A0640A3D0A5723F0BD1F200
  0
ACAD_PROXY_OBJECT
  5
1891F
330
17F
100
AcDbProxyObject
 90
      499
 91
      565
 95
       25
 70
     0
 93
       14
310
5DE0
340
0
 94
        0
  0
ACAD_PROXY_OBJECT
  5
18920
330
17F
100
AcDbProxyObject
 90
      499
 91
      566
 95
       25
 70
     0
 93
     6059
310
5DD084050BA4050AA405024050E836583938376838C815B83672031405983D3C486F6C653A6469613E3C696628657175616C28486F6C653A7465726D696E6174696F6E2C223022292C2220905B82B320222C22208368838A838B22293E3C696628657175616C28486F6C653A7465726D696E6174696F6E2C223022292C486F
310
6C653A64657074682C2222293E2C203C486F6C653A63746469613E2082B482AE82E882CC905B82B3203C486F6C653A637464657074683E406901405034050E836583938376838C815B83672031405EF3D3C486F6C653A6374616E676C653E252564202525633C486F6C653A63746469613E208E4D8C8A2C203C69662865717
310
5616C28486F6C653A7461707065642C223022292C22252563222C486F6C653A6E6F6D696E616C202220782022293E3C696628657175616C28486F6C653A7461707065642C223022292C486F6C653A6469612C486F6C653A706974636864657363293E203C696628657175616C28486F6C653A7465726D696E6174696F6E2C2
310
23022292C22905B82B320222C222022293E3C696628657175616C28486F6C653A7465726D696E6174696F6E2C223022292C486F6C653A64657074682C2222293E406901405014050E836583938376838C815B83672031405C73D3C696628657175616C28486F6C653A7461707065642C223022292C22252563222C486F6C65
310
3A6E6F6D696E616C202220782022293E3C696628657175616C28486F6C653A7461707065642C223022292C486F6C653A6469612C486F6C653A706974636864657363293E203C696628657175616C28486F6C653A7465726D696E6174696F6E2C223022292C22905B82B320222C222022293E3C696628657175616C28486F6C
310
653A7465726D696E6174696F6E2C223022292C486F6C653A64657074682C2222293E4069014051E4090E836583938376838C815B83672032405173D3C535444503A444553433E203C535444503A5354443E40690E836583938376838C815B836720314050C3D3C535444503A444553433E40690240515AAABBA120
360
18924
330
18924
360
18925
330
18925
360
18923
330
18923
360
18922
360
18921
330
18922
330
18921
 94
        0
  0
ACAD_PROXY_OBJECT
  5
18926
330
17F
100
AcDbProxyObject
 90
      499
 91
      568
 95
       25
 70
     0
 93
       26
310
5DD02A80
340
42
 94
        0
  0
ACAD_PROXY_OBJECT
  5
18927
330
17F
100
AcDbProxyObject
 90
      499
 91
      569
 95
       25
 70
     0
 93
      250
310
5DD020000000000000A1000000000000002440408F0F9023C3E409A0DCFFFF80
340
58
340
1B97
340
1B98
340
5F
340
60
340
61
340
62
340
63
340
68
340
0
 94
        0
  0
ACAD_PROXY_OBJECT
  5
18928
330
17F
100
AcDbProxyObject
 90
      499
 91
      570
 95
       25
 70
     0
 93
    13889
310
5DD1D003FFFFFFFD030300030CCCCCCCCCCCC250200800030C01030300030CCCCCCCCCCCC250200800030C00050C8DC0955782CC838A83588367014ED1D15395149050D3CB1294138B0C0B23702555E0B320E2A0D620D9CB11D15395149055160B095CCB0A11D1539354D1C819D95B991A5B5E880CCC0A78000C0000000000
310
00000000000000000000010CCCCCCCCCCCC250200800030C010CCCCCCCCCCCC250200800030C020143CF4F111959985D5B1D151A5D1B194F8050A8C8A8365815B8375838B014E51D15395149050D3CB1294138B0C0B2322A0D96056E0DD60E2CB11D15395149055160B095CCB0A11D1539354D1C819D95B991A5B5E880CCC4
310
A78000C000000000000000000000000000000010CCCCCCCCCCCC250200800030C010CCCCCCCCCCCC250200800030C020143CF4F111959985D5B1D151A5D1B194F90D44111409034110541D0C4350F4050E44D03449074510F000141232D24D7C053247454E545241434F2C4A504E2C302C8CB4935F2C47454E54524154582C
310
25732C2847454E4D53472067656E64696D7A20312900010104002214000281464500A608E8A9CA8A482869E5894A09C5860591914588E8A9CA8A482A8B0584AE658508E8A9C9AA68E40CECADCC8D2DAF4406452029E9E9E27B934B3B4B71F1E24A31427A91424A9A12620A7259427B934B3B4B7149624A9A12620A7259424B
310
A32B6949496111116111711149F1E24BA32B69F00808200111A000140560052F47454E545241434F2C4A504E2C302C582C47454E54524154582C25732C2847454E4D53472067656E64696D7A20332900010100002054000280AC80A5E8E8A9CA8A482869E5894A09C586058B2588E8A9CA8A482A8B0584AE658508E8A9C9AA
310
68E40CECADCC8D2DAF4406852000202000040E800050152014BD1D15395149050D3CB1294138B0C0B148B11D15395149055160B095CCB0A11D1539354D1C819D95B991A5B5E880D8A400040400008250000A0507A6029823A2A72A2920A1A79625282716181641E99623A2A72A2920AA2C1612B9961423A2A726A9A39033B2
310
B73234B6BD101B948000808180105A000140A0F4C053047454E545241434F2C4A504E2C302C83D32C47454E54524154582C25732C2847454E4D53472067656E64696D7A203829000101010020F400028248704B5F00A668E8A9CA8A482869E5894A09C58605921C12D7C588E8A9CA8A482A8B0584AE658508E8A9C9AA68E40
310
CECADCC8D2DAF440646052000200080043280005048B4B8A69014CD1D15395149050D3CB1294138B0C0B22D2E29A4B11D15395149055160B095CCB0A11D1539354D1C819D95B991A5B5E880C8C4A4000400100086D0000A09196926BE029923A2A72A2920A1A796252827161816465A49AF9623A2A72A2920AA2C1612B9961
310
423A2A726A9A39033B2B73234B6BD10189480A02620202080043E80005048D8096DA014CD1D15395149050D3CB1294138B0C0B236025B68B11D15395149055160B095CCB0A11D1539354D1C819D95B991A5B5E880C4D0A4000404140280D0000A190687072706CD06C5069D06B0029DA3A2A72A2920A1A7962528271618164
310
1A1C1C9C1B341B141A741AC1623A2A72A2920AA2C1612B9961423A2A726A9A39033B2B73234B6BD10189A94800080820050EA000143A322A0D0E0E4E0D9A0D8A0D3A0D60053D47454E545241434F2C4A504E2C302C8C8A8343839383668362834E83582C47454E54524154582C25732C2847454E4D53472067656E64696D7A
310
2031372900010105002274000281464500A628E8A9CA8A482869E5894A09C5860591914588E8A9CA8A482A8B0584AE658508E8A9C9AA68E40CECADCC8D2DAF440626C52000202080044A8000504909497CA014CD1D15395149050D3CB1294138B0C0B242525F28B11D15395149055160B095CCB0A11D1539354D1C819D95B9
310
91A5B5E880C4E4A400040418008A521E000000000000001CA040C00000000000034408080000000000006881010000000000000D102040000000000001A204080000000000003440818000000000000728103000000000000125020600000000004028A040000000000000034408000000000000004881000000000000000D
310
102000000000000001A204000000000000003440818000000000000508143C0000000000000039408180000000000006881030000000000000D102060000000000001A2040C00000000000034408180000000000006881030000000000000E5020600000000000024A040C0000000000805140800000000000000688100000
310
00000000009102000000000000001A2040000000000000034408180000000000006881030000000000000A10284220000000878000002020000008380000020400000081800000208000000828000002028900000000
340
0
340
0
340
0
340
0
340
180
340
180
 94
        0
  0
ACAD_PROXY_OBJECT
  5
18924
330
18920
100
AcDbProxyObject
 90
      499
 91
      567
 95
       25
 70
     0
 93
     1376
310
5DE0143A0D960E4E0DDA0E32056E0D9C80C405983D3C486F6C653A6469613E3C696628657175616C28486F6C653A7465726D696E6174696F6E2C223022292C2220905B82B320222C22208368838A838B22293E3C696628657175616C28486F6C653A7465726D696E6174696F6E2C223022292C486F6C653A64657074682C22
310
22293E2C203C486F6C653A63746469613E2082B482AE82E882CC905B82B3203C486F6C653A637464657074683E
  0
ACAD_PROXY_OBJECT
  5
18925
330
18920
100
AcDbProxyObject
 90
      499
 91
      567
 95
       25
 70
     0
 93
     2072
310
5DE0143A0D960E4E0DDA0E32056E0D9C80C405EF3D3C486F6C653A6374616E676C653E252564202525633C486F6C653A63746469613E208E4D8C8A2C203C696628657175616C28486F6C653A7461707065642C223022292C22252563222C486F6C653A6E6F6D696E616C202220782022293E3C696628657175616C28486F6C
310
653A7461707065642C223022292C486F6C653A6469612C486F6C653A706974636864657363293E203C696628657175616C28486F6C653A7465726D696E6174696F6E2C223022292C22905B82B320222C222022293E3C696628657175616C28486F6C653A7465726D696E6174696F6E2C223022292C486F6C653A6465707468
310
2C2222293E
  0
ACAD_PROXY_OBJECT
  5
18923
330
18920
100
AcDbProxyObject
 90
      499
 91
      567
 95
       25
 70
     0
 93
     1752
310
5DE0143A0D960E4E0DDA0E32056E0D9C80C405C73D3C696628657175616C28486F6C653A7461707065642C223022292C22252563222C486F6C653A6E6F6D696E616C202220782022293E3C696628657175616C28486F6C653A7461707065642C223022292C486F6C653A6469612C486F6C653A706974636864657363293E20
310
3C696628657175616C28486F6C653A7465726D696E6174696F6E2C223022292C22905B82B320222C222022293E3C696628657175616C28486F6C653A7465726D696E6174696F6E2C223022292C486F6C653A64657074682C2222293E
  0
ACAD_PROXY_OBJECT
  5
18922
330
18920
100
AcDbProxyObject
 90
      499
 91
      567
 95
       25
 70
     0
 93
      344
310
5DE0143A0D960E4E0DDA0E32056E0D9C80C805173D3C535444503A444553433E203C535444503A5354443E
  0
ACAD_PROXY_OBJECT
  5
18921
330
18920
100
AcDbProxyObject
 90
      499
 91
      567
 95
       25
 70
     0
 93
      256
310
5DE0143A0D960E4E0DDA0E32056E0D9C80C4050C3D3C535444503A444553433E
  0
ENDSEC
  0
EOF
