  0
SECTION
  2
HEADER
  9
$ACADVER
  1
AC1015
  9
$ACADMAINTVER
 70
     6
  9
$DWGCODEPAGE
  3
ANSI_932
  9
$INSBASE
 10
0.0
 20
0.0
 30
0.0
  9
$EXTMIN
 10
-136.8037133928559
 20
-203.1406752165547
 30
0.0
  9
$EXTMAX
 10
304.1684173924887
 20
59.29367664848827
 30
0.0
  9
$LIMMIN
 10
0.0
 20
0.0
  9
$LIMMAX
 10
594.0
 20
420.0
  9
$ORTHOMODE
 70
     0
  9
$REGENMODE
 70
     1
  9
$FILLMODE
 70
     1
  9
$QTEXTMODE
 70
     0
  9
$MIRRTEXT
 70
     1
  9
$LTSCALE
 40
1.0
  9
$ATTMODE
 70
     1
  9
$TEXTSIZE
 40
3.15
  9
$TRACEWID
 40
1.0
  9
$TEXTSTYLE
  7
STANDARD
  9
$CLAYER
  8
AM_0
  9
$CELTYPE
  6
ByLayer
  9
$CECOLOR
 62
   256
  9
$CELTSCALE
 40
1.0
  9
$DISPSILH
 70
     0
  9
$DIMSCALE
 40
1.0
  9
$DIMASZ
 40
2.5
  9
$DIMEXO
 40
0.0
  9
$DIMDLI
 40
10.0
  9
$DIMRND
 40
0.0
  9
$DIMDLE
 40
0.0
  9
$DIMEXE
 40
1.0
  9
$DIMTP
 40
0.1
  9
$DIMTM
 40
0.1000000001
  9
$DIMTXT
 40
3.8
  9
$DIMCEN
 40
0.0
  9
$DIMTSZ
 40
0.0
  9
$DIMTOL
 70
     0
  9
$DIMLIM
 70
     0
  9
$DIMTIH
 70
     0
  9
$DIMTOH
 70
     0
  9
$DIMSE1
 70
     0
  9
$DIMSE2
 70
     0
  9
$DIMTAD
 70
     3
  9
$DIMZIN
 70
     1
  9
$DIMBLK
  1
Open30
  9
$DIMASO
 70
     1
  9
$DIMSHO
 70
     1
  9
$DIMPOST
  1

  9
$DIMAPOST
  1
"
  9
$DIMALT
 70
     0
  9
$DIMALTD
 70
     2
  9
$DIMALTF
 40
0.0393701
  9
$DIMLFAC
 40
1.0
  9
$DIMTOFL
 70
     1
  9
$DIMTVP
 40
0.0
  9
$DIMTIX
 70
     0
  9
$DIMSOXD
 70
     0
  9
$DIMSAH
 70
     0
  9
$DIMBLK1
  1

  9
$DIMBLK2
  1

  9
$DIMSTYLE
  2
AM_JIS
  9
$DIMCLRD
 70
   256
  9
$DIMCLRE
 70
   256
  9
$DIMCLRT
 70
     2
  9
$DIMTFAC
 40
0.71
  9
$DIMGAP
 40
1.5
  9
$DIMJUST
 70
     0
  9
$DIMSD1
 70
     0
  9
$DIMSD2
 70
     0
  9
$DIMTOLJ
 70
     0
  9
$DIMTZIN
 70
     8
  9
$DIMALTZ
 70
     0
  9
$DIMALTTZ
 70
     0
  9
$DIMUPT
 70
     0
  9
$DIMDEC
 70
     0
  9
$DIMTDEC
 70
     2
  9
$DIMALTU
 70
     2
  9
$DIMALTTD
 70
     2
  9
$DIMTXSTY
  7
STANDARD
  9
$DIMAUNIT
 70
     1
  9
$DIMADEC
 70
     0
  9
$DIMALTRND
 40
0.0
  9
$DIMAZIN
 70
     2
  9
$DIMDSEP
 70
    46
  9
$DIMATFIT
 70
     3
  9
$DIMFRAC
 70
     0
  9
$DIMLDRBLK
  1
Open30
  9
$DIMLUNIT
 70
     2
  9
$DIMLWD
 70
    -1
  9
$DIMLWE
 70
    -1
  9
$DIMTMOVE
 70
     0
  9
$LUNITS
 70
     2
  9
$LUPREC
 70
     2
  9
$SKETCHINC
 40
1.0
  9
$FILLETRAD
 40
0.8
  9
$AUNITS
 70
     1
  9
$AUPREC
 70
     5
  9
$MENU
  1
.
  9
$ELEVATION
 40
0.0
  9
$PELEVATION
 40
0.0
  9
$THICKNESS
 40
0.0
  9
$LIMCHECK
 70
     0
  9
$CHAMFERA
 40
0.5
  9
$CHAMFERB
 40
0.5
  9
$CHAMFERC
 40
20.0
  9
$CHAMFERD
 40
0.0
  9
$SKPOLY
 70
     0
  9
$TDCREATE
 40
2451943.610431667
  9
$TDUCREATE
 40
2451943.235431667
  9
$TDUPDATE
 40
2455482.600936227
  9
$TDUUPDATE
 40
2455482.225936227
  9
$TDINDWG
 40
2.1362628241
  9
$TDUSRTIMER
 40
2.1362626505
  9
$USRTIMER
 70
     1
  9
$ANGBASE
 50
0.0
  9
$ANGDIR
 70
     0
  9
$PDMODE
 70
     0
  9
$PDSIZE
 40
0.0
  9
$PLINEWID
 40
0.0
  9
$SPLFRAME
 70
     0
  9
$SPLINETYPE
 70
     6
  9
$SPLINESEGS
 70
     8
  9
$HANDSEED
  5
46BA5
  9
$SURFTAB1
 70
     6
  9
$SURFTAB2
 70
     6
  9
$SURFTYPE
 70
     6
  9
$SURFU
 70
     6
  9
$SURFV
 70
     6
  9
$UCSBASE
  2

  9
$UCSNAME
  2

  9
$UCSORG
 10
0.0
 20
0.0
 30
0.0
  9
$UCSXDIR
 10
1.0
 20
0.0
 30
0.0
  9
$UCSYDIR
 10
0.0
 20
1.0
 30
0.0
  9
$UCSORTHOREF
  2

  9
$UCSORTHOVIEW
 70
     0
  9
$UCSORGTOP
 10
0.0
 20
0.0
 30
0.0
  9
$UCSORGBOTTOM
 10
0.0
 20
0.0
 30
0.0
  9
$UCSORGLEFT
 10
0.0
 20
0.0
 30
0.0
  9
$UCSORGRIGHT
 10
0.0
 20
0.0
 30
0.0
  9
$UCSORGFRONT
 10
0.0
 20
0.0
 30
0.0
  9
$UCSORGBACK
 10
0.0
 20
0.0
 30
0.0
  9
$PUCSBASE
  2

  9
$PUCSNAME
  2

  9
$PUCSORG
 10
0.0
 20
0.0
 30
0.0
  9
$PUCSXDIR
 10
1.0
 20
0.0
 30
0.0
  9
$PUCSYDIR
 10
0.0
 20
1.0
 30
0.0
  9
$PUCSORTHOREF
  2

  9
$PUCSORTHOVIEW
 70
     0
  9
$PUCSORGTOP
 10
0.0
 20
0.0
 30
0.0
  9
$PUCSORGBOTTOM
 10
0.0
 20
0.0
 30
0.0
  9
$PUCSORGLEFT
 10
0.0
 20
0.0
 30
0.0
  9
$PUCSORGRIGHT
 10
0.0
 20
0.0
 30
0.0
  9
$PUCSORGFRONT
 10
0.0
 20
0.0
 30
0.0
  9
$PUCSORGBACK
 10
0.0
 20
0.0
 30
0.0
  9
$USERI1
 70
     0
  9
$USERI2
 70
     0
  9
$USERI3
 70
     0
  9
$USERI4
 70
     0
  9
$USERI5
 70
     0
  9
$USERR1
 40
0.0
  9
$USERR2
 40
0.0
  9
$USERR3
 40
0.0
  9
$USERR4
 40
0.0
  9
$USERR5
 40
0.0
  9
$WORLDVIEW
 70
     1
  9
$SHADEDGE
 70
     3
  9
$SHADEDIF
 70
    70
  9
$TILEMODE
 70
     1
  9
$MAXACTVP
 70
    64
  9
$PINSBASE
 10
0.0
 20
0.0
 30
0.0
  9
$PLIMCHECK
 70
     0
  9
$PEXTMIN
 10
1.000000000000000E+20
 20
1.000000000000000E+20
 30
1.000000000000000E+20
  9
$PEXTMAX
 10
-1.000000000000000E+20
 20
-1.000000000000000E+20
 30
-1.000000000000000E+20
  9
$PLIMMIN
 10
0.0
 20
0.0
  9
$PLIMMAX
 10
420.0
 20
297.0
  9
$UNITMODE
 70
     0
  9
$VISRETAIN
 70
     1
  9
$PLINEGEN
 70
     0
  9
$PSLTSCALE
 70
     1
  9
$TREEDEPTH
 70
  3020
  9
$CMLSTYLE
  2
Standard
  9
$CMLJUST
 70
     0
  9
$CMLSCALE
 40
20.0
  9
$PROXYGRAPHICS
 70
     1
  9
$MEASUREMENT
 70
     1
  9
$CELWEIGHT
370
    -1
  9
$ENDCAPS
280
     0
  9
$JOINSTYLE
280
     0
  9
$LWDISPLAY
290
     0
  9
$INSUNITS
 70
     4
  9
$HYPERLINKBASE
  1

  9
$STYLESHEET
  1
sei_cad.ctb
  9
$XEDIT
290
     1
  9
$CEPSNTYPE
380
     0
  9
$PSTYLEMODE
290
     1
  9
$FINGERPRINTGUID
  2
{C77AB3BE-9CA2-11D3-BAF3-006094EB760E}
  9
$VERSIONGUID
  2
{FFD4F944-D8D1-4BBC-8454-51B252D04F4A}
  9
$EXTNAMES
290
     1
  9
$PSVPSCALE
 40
0.0
  9
$OLESTARTUP
290
     0
  0
ENDSEC
  0
SECTION
  2
CLASSES
  0
CLASS
  1
ACDBDICTIONARYWDFLT
  2
AcDbDictionaryWithDefault
  3
ObjectDBX Classes
 90
        0
280
     0
281
     0
  0
CLASS
  1
ACDBPLACEHOLDER
  2
AcDbPlaceHolder
  3
ObjectDBX Classes
 90
        0
280
     0
281
     0
  0
CLASS
  1
LAYOUT
  2
AcDbLayout
  3
ObjectDBX Classes
 90
        0
280
     0
281
     0
  0
CLASS
  1
ACME_DOCUMENT
  2
AcMeDbDoc
  3
AcMeServices
 90
        0
280
     1
281
     0
  0
CLASS
  1
ACMESCOPE
  2
AcMeScope
  3
AcMeServices
 90
        0
280
     1
281
     0
  0
CLASS
  1
ACMECOMMANDHISTORY
  2
AcMeCommandHistory
  3
AcMeServices
 90
        0
280
     1
281
     0
  0
CLASS
  1
DICTIONARYVAR
  2
AcDbDictionaryVar
  3
ObjectDBX Classes
 90
        0
280
     0
281
     0
  0
CLASS
  1
ACIMSYSVARMAN
  2
AcImSysVarManager
  3
AcMeServices
 90
        0
280
     1
281
     0
  0
CLASS
  1
ACIMREALSYSVAR
  2
AcImRealSysVar
  3
AcMeServices
 90
        0
280
     1
281
     0
  0
CLASS
  1
ACIMINTSYSVAR
  2
AcImIntSysVar
  3
AcMeServices
 90
        0
280
     1
281
     0
  0
CLASS
  1
ACMEDRAWINGMAN
  2
AcMeDrawingMan
  3
AcMeServices
 90
        0
280
     1
281
     0
  0
CLASS
  1
ACMEVIEW
  2
AcMeView
  3
AcMeServices
 90
        0
280
     1
281
     0
  0
CLASS
  1
ACDBENTITYCACHE
  2
AcMeEntityCache
  3
AcMeServices
 90
        0
280
     1
281
     0
  0
CLASS
  1
GSMANAGER
  2
AcMeGSManager
  3
AcMeServices
 90
        0
280
     1
281
     0
  0
CLASS
  1
AMDTINTERNALREACTOR
  2
AmdtInternalReactor
  3
AcMeServices
 90
        0
280
     1
281
     0
  0
CLASS
  1
ACMESTATEMGR
  2
AcMeStateMgr
  3
AcMeServices
 90
        0
280
     1
281
     0
  0
CLASS
  1
ACME_DATABASE
  2
AcMeDbDatabase
  3
AcMeServices
 90
        0
280
     1
281
     0
  0
CLASS
  1
ACRFINSADJUSTERMGR
  2
AcRfInsAdjusterMgr
  3
AcMeServices
 90
        0
280
     1
281
     0
  0
CLASS
  1
AMGSETTINGSOBJ
  2
AmgSettingsObj
  3
"AcadM|Product Description: AutoCAD Mechanical 2000|Company: Autodesk"
 90
        0
280
     1
281
     0
  0
CLASS
  1
AMGOBJPROPCFG
  2
AmgObjPropCfg
  3
"AmgLay|Product Description: AutoCAD Mechanical 2000|Company: Autodesk"
 90
        1
280
     1
281
     0
  0
CLASS
  1
ACMDATADICTIONARY
  2
AcmDataDictionary
  3
"AcmSymBB|Product Description: AutoCAD Mechanical 2004 DX|Company: Autodesk"
 90
        0
280
     1
281
     0
  0
CLASS
  1
ACMDATAENTRYBLOCK
  2
AcmDataEntryBlock
  3
"AcmSymBB|Product Description: AutoCAD Mechanical 2004 DX|Company: Autodesk"
 90
        0
280
     1
281
     0
  0
CLASS
  1
ACIMSTRSYSVAR
  2
AcImStrSysVar
  3
AcMeServices
 90
        0
280
     1
281
     0
  0
CLASS
  1
ACAMGFILTERDAT
  2
AcAmgFilterDat
  3
"AcadM|Product Description: AutoCAD Mechanical 2000|Company: Autodesk"
 90
        0
280
     1
281
     0
  0
CLASS
  1
LAYER_INDEX
  2
AcDbLayerIndex
  3
ObjectDBX Classes
 90
        0
280
     0
281
     0
  0
CLASS
  1
IDBUFFER
  2
AcDbIdBuffer
  3
ObjectDBX Classes
 90
        0
280
     0
281
     0
  0
CLASS
  1
ACMSTANDARDJIS
  2
AcmStandardJIS
  3
"Amdt_StdImp|Product Description: AutoCAD Mechanical 2004 DX|Company: Autodesk"
 90
        0
280
     1
281
     0
  0
CLASS
  1
ACMSURFSTANDARDJIS
  2
AcmSurfTextStdJIS
  3
"Amdt_StdImp|Product Description: AutoCAD Mechanical 2004 DX|Company: Autodesk"
 90
        0
280
     1
281
     0
  0
CLASS
  1
ACMFCFSTANDARDJIS
  2
AcmFCFStdJIS
  3
"Amdt_StdImp|Product Description: AutoCAD Mechanical 2004 DX|Company: Autodesk"
 90
        0
280
     1
281
     0
  0
CLASS
  1
ACMWELDSTANDARDJIS
  2
AcmWeldingStdJIS
  3
"Amdt_StdImp|Product Description: AutoCAD Mechanical 2004 DX|Company: Autodesk"
 90
        0
280
     1
281
     0
  0
CLASS
  1
ACMIDSTANDARDJIS
  2
AcmIdStdJIS
  3
"Amdt_StdImp|Product Description: AutoCAD Mechanical 2004 DX|Company: Autodesk"
 90
        0
280
     1
281
     0
  0
CLASS
  1
ACMDATUMSTANDARDJIS
  2
AcmDatumStdJIS
  3
"Amdt_StdImp|Product Description: AutoCAD Mechanical 2004 DX|Company: Autodesk"
 90
        0
280
     1
281
     0
  0
CLASS
  1
ACMBOMSTANDARDJIS
  2
AcmBOMStdJIS
  3
"Amdt_StdImp|Product Description: AutoCAD Mechanical 2004 DX|Company: Autodesk"
 90
        0
280
     1
281
     0
  0
CLASS
  1
AMDTNOTE
  2
AmdtNote
  3
"AcmSymBB|Product Description: AutoCAD Mechanical 2004 DX|Company: Autodesk"
 90
     1023
280
     1
281
     1
  0
CLASS
  1
ACMFCFRAME
  2
AcmFCF
  3
"AcmSymBB|Product Description: AutoCAD Mechanical 2004 DX|Company: Autodesk"
 90
     1023
280
     1
281
     1
  0
CLASS
  1
ACMDATUMID
  2
AcmDatumId
  3
"AcmSymBB|Product Description: AutoCAD Mechanical 2004 DX|Company: Autodesk"
 90
     1023
280
     1
281
     1
  0
CLASS
  1
ACMDIMBREAKPERSREACTOR
  2
AcmDimBreakPersReactor
  3
amgDimApp().moduleName()
 90
     1023
280
     1
281
     0
  0
CLASS
  1
TABLESTYLE
  2
AcDbTableStyle
  3
ObjectDBX Classes
 90
     2047
280
     0
281
     0
  0
CLASS
  1
ACGREFMASTER
  2
AcGrefMaster
  3
AcAttribServices
 90
        0
280
     1
281
     0
  0
CLASS
  1
AM_DRAWING_MGR
  2
AcDmDwgMgr
  3
AcMechDwgViewMgmt
 90
        0
280
     1
281
     0
  0
CLASS
  1
AM_DWG_DOCUMENT
  2
AcDmDwgDocument
  3
AcMechDwgViewMgmt
 90
        0
280
     1
281
     0
  0
CLASS
  1
AM_DWG_SHEET
  2
AcDmSheet
  3
AcMechDwgViewMgmt
 90
        0
280
     1
281
     0
  0
CLASS
  1
AM_VIEWDIMPARMAP
  2
AcDmViewDimParMap
  3
AcMechDwgViewMgmt
 90
        0
280
     1
281
     0
  0
CLASS
  1
AM_DWGMGR_NAME
  2
AcDmDwgMgrName
  3
AcMechDwgViewMgmt
 90
        0
280
     1
281
     0
  0
CLASS
  1
ACGREFACADMASTER
  2
AcGrefacadMaster
  3
AcGrefServices
 90
        0
280
     1
281
     0
  0
CLASS
  1
AMDTMENUSTATEMGR
  2
AmdtMenuStateMgr
  3
McadcomServices
 90
        0
280
     1
281
     0
  0
CLASS
  1
AMDTMCOMMENUSTATE
  2
AmdtMcomMenuState
  3
McadcomServices
 90
        0
280
     1
281
     0
  0
CLASS
  1
AMIMASTER
  2
AmiMaster
  3
AmiServices
 90
        0
280
     1
281
     0
  0
CLASS
  1
MAPIAMMOUDLE
  2
MApiAmModule
  3
MApiAmServices
 90
        0
280
     1
281
     0
  0
CLASS
  1
AMDTADMENUSTATE
  2
AmdtAdMenuState
  3
DesignerServices
 90
        0
280
     1
281
     0
  0
CLASS
  1
ADAPPL
  2
AcAdAppl
  3
DesignerServices
 90
        0
280
     1
281
     0
  0
CLASS
  1
DEPMGR
  2
AcAdDepMgr
  3
DesignerServices
 90
        0
280
     1
281
     0
  0
CLASS
  1
PARAMMGR
  2
AcAdParamMgr
  3
DesignerServices
 90
        0
280
     1
281
     0
  0
CLASS
  1
PARAMSCOPE
  2
AcAdParamScope
  3
DesignerServices
 90
        0
280
     1
281
     0
  0
CLASS
  1
NAMEDAPPL
  2
AcAdNamedAppl
  3
DesignerServices
 90
        0
280
     1
281
     0
  0
CLASS
  1
AMDTDMMENUSTATE
  2
AmdtDmMenuState
  3
AcMechDwgViewMgmt
 90
        0
280
     1
281
     0
  0
CLASS
  1
AMDTAMMENUSTATE
  2
AmdtAmMenuState
  3
DesignerAssemblies
 90
        0
280
     1
281
     0
  0
CLASS
  1
ACAMPROJECT
  2
AcAmProject
  3
DesignerAssemblies
 90
        0
280
     1
281
     0
  0
CLASS
  1
ACAMGRCOMPDEF
  2
AcAmGrCompDef
  3
DesignerAssemblies
 90
        0
280
     1
281
     0
  0
CLASS
  1
ACCMCONTEXT
  2
AcCmContext
  3
DesignerAssemblies
 90
        0
280
     1
281
     0
  0
CLASS
  1
ACAMCOMPDEF
  2
AcAmCompDef
  3
DesignerAssemblies
 90
        0
280
     1
281
     0
  0
CLASS
  1
ACAMCOMPDEFMGR
  2
AcAmCompDefMgr
  3
DesignerAssemblies
 90
        0
280
     1
281
     0
  0
CLASS
  1
AMCONTEXTMGR
  2
AcAmContextMgr
  3
DesignerAssemblies
 90
        0
280
     1
281
     0
  0
CLASS
  1
ACAMCONTEXTMODELER
  2
AcAmContextModeler
  3
DesignerAssemblies
 90
        0
280
     1
281
     0
  0
CLASS
  1
ACAMGTITLESTD
  2
AcAmgTitleStd
  3
"TITLEAPP"
 90
        0
280
     1
281
     0
  0
CLASS
  1
ACMDETAILSTANDARDJIS
  2
AmdtDetailSymStdJIS
  3
"Amdt_StdImp|Product Description: AutoCAD Mechanical 2004 DX|Company: Autodesk"
 90
        0
280
     1
281
     0
  0
CLASS
  1
ACMSECTIONSTANDARDJIS
  2
AmdtSectionSymStdJIS
  3
"Amdt_StdImp|Product Description: AutoCAD Mechanical 2004 DX|Company: Autodesk"
 90
        0
280
     1
281
     0
  0
CLASS
  1
ACMCENTERLINESTANDARDJIS
  2
AmdtCenterLineStdJIS
  3
"Amdt_StdImp|Product Description: AutoCAD Mechanical 2004 DX|Company: Autodesk"
 90
        0
280
     1
281
     0
  0
CLASS
  1
ACMTHREADLINESTANDARDJIS
  2
AmdtThreadLineStdJIS
  3
"Amdt_StdImp|Product Description: AutoCAD Mechanical 2004 DX|Company: Autodesk"
 90
        0
280
     1
281
     0
  0
CLASS
  1
ACMNOTESTANDARDJIS
  2
AmdtNoteStdJIS
  3
"Amdt_StdImp|Product Description: AutoCAD Mechanical 2004 DX|Company: Autodesk"
 90
        0
280
     1
281
     0
  0
CLASS
  1
AMDTNOTETEMPLATEDB
  2
AmdtNoteTemplateDB
  3
AMDT_STDIMP_MODULE_NAME
 90
        0
280
     1
281
     0
  0
CLASS
  1
ACAMGLAYSTD
  2
AcAmgLayStd
  3
"AcAmgLayStd|Product Description: AutoCAD Mechanical 2000|Company: Autodesk"
 90
        0
280
     1
281
     0
  0
CLASS
  1
ACAMGDIMSTD
  2
AcAmgDimStd
  3
"AcAmgDimStd|Product Description: AutoCAD Mechanical 2000|Company: Autodesk"
 90
        0
280
     1
281
     0
  0
CLASS
  1
ACAMGHOLECHARTSTDJIS
  2
AcAmgHoleChartStdJIS
  3
ACMSYMBB_MODULE_NAME
 90
        0
280
     1
281
     0
  0
CLASS
  1
CATALOGSTATE
  2
AcAmCatalogState
  3
DesignerAssemblies
 90
        0
280
     1
281
     0
  0
CLASS
  1
ACAMGRCOMPDEFSET
  2
AcAmGrCompDefSet
  3
DesignerAssemblies
 90
        0
280
     1
281
     0
  0
CLASS
  1
AMDTBROWSERDBTAB
  2
AmdtBrowserDbTab
  3
McadcomServices
 90
        0
280
     1
281
     0
  0
CLASS
  1
CBROWSERAPPOBJECT
  2
CBrowserAppObject
  3
McadcomServices
 90
        0
280
     1
281
     0
  0
CLASS
  1
DM_PLACEHOLDER
  2
AcDmSelsetPlaceholder
  3
AcMechDwgViewMgmt
 90
        0
280
     1
281
     0
  0
CLASS
  1
SORTENTSTABLE
  2
AcDbSortentsTable
  3
ObjectDBX Classes
 90
        0
280
     0
281
     0
  0
ENDSEC
  0
SECTION
  2
TABLES
  0
TABLE
  2
VPORT
  5
8
330
0
100
AcDbSymbolTable
 70
     4
  0
VPORT
  5
46B9D
330
8
100
AcDbSymbolTableRecord
100
AcDbViewportTableRecord
  2
*Active
 70
     0
 10
0.0
 20
0.0
 11
1.0
 21
1.0
 12
176.9538675911849
 22
-81.81357069105513
 13
0.0
 23
0.0
 14
2.5
 24
2.5
 15
10.0
 25
10.0
 16
0.0
 26
0.0
 36
1.0
 17
0.0
 27
0.0
 37
0.0
 40
523.5546794970562
 41
1.610603290676417
 42
50.0
 43
0.0
 44
0.0
 50
0.0
 51
0.0
 71
    16
 72
  2000
 73
     1
 74
     3
 75
     0
 76
     0
 77
     0
 78
     0
281
     0
 65
     1
110
0.0
120
0.0
130
0.0
111
1.0
121
0.0
131
0.0
112
0.0
122
1.0
132
0.0
 79
     0
146
0.0
  0
ENDTAB
  0
TABLE
  2
LTYPE
  5
5
330
0
100
AcDbSymbolTable
 70
    13
  0
LTYPE
  5
14
330
5
100
AcDbSymbolTableRecord
100
AcDbLinetypeTableRecord
  2
ByBlock
 70
     0
  3

 72
    65
 73
     0
 40
0.0
  0
LTYPE
  5
15
330
5
100
AcDbSymbolTableRecord
100
AcDbLinetypeTableRecord
  2
ByLayer
 70
     0
  3

 72
    65
 73
     0
 40
0.0
  0
LTYPE
  5
16
330
5
100
AcDbSymbolTableRecord
100
AcDbLinetypeTableRecord
  2
Continuous
 70
     0
  3
Solid line
 72
    65
 73
     0
 40
0.0
  0
LTYPE
  5
43
330
5
100
AcDbSymbolTableRecord
100
AcDbLinetypeTableRecord
  2
AM_ISO02W050
 70
     0
  3
__ __ __ __ __ __ __ __ __ __ __ __ __ __ __
 72
    65
 73
     2
 40
7.5
 49
6.0
 74
     0
 49
-1.5
 74
     0
  0
LTYPE
  5
44
330
5
100
AcDbSymbolTableRecord
100
AcDbLinetypeTableRecord
  2
AM_ISO08W050
 70
     0
  3
____ . ____ . ____ . ____ . ____ . ____ . ____
 72
    65
 73
     4
 40
18.0
 49
12.0
 74
     0
 49
-1.5
 74
     0
 49
3.0
 74
     0
 49
-1.5
 74
     0
  0
LTYPE
  5
45
330
5
100
AcDbSymbolTableRecord
100
AcDbLinetypeTableRecord
  2
AM_ISO09W050
 70
     0
  3
_____ . . _____ . . _____ . . ____ .. ____
 72
    65
 73
     6
 40
22.5
 49
12.0
 74
     0
 49
-1.5
 74
     0
 49
3.0
 74
     0
 49
-1.5
 74
     0
 49
3.0
 74
     0
 49
-1.5
 74
     0
  0
LTYPE
  5
46
330
5
100
AcDbSymbolTableRecord
100
AcDbLinetypeTableRecord
  2
Amconstr
 70
     0
  3
_______________________
 72
    65
 73
     2
 40
9999.0
 49
9999.0
 74
     0
 49
0.0
 74
     0
  0
LTYPE
  5
47
330
5
100
AcDbSymbolTableRecord
100
AcDbLinetypeTableRecord
  2
AM_ISO02W050x2
 70
     0
  3
 _ _ _ _ _ _ _ _ _ _ _ _
 72
    65
 73
     2
 40
3.75
 49
3.0
 74
     0
 49
-0.75
 74
     0
  0
LTYPE
  5
48
330
5
100
AcDbSymbolTableRecord
100
AcDbLinetypeTableRecord
  2
AM_ISO08W050x2
 70
     0
  3
__ . __ . __ . __ . __ . __
 72
    65
 73
     4
 40
9.0
 49
6.0
 74
     0
 49
-0.75
 74
     0
 49
1.5
 74
     0
 49
-0.75
 74
     0
  0
LTYPE
  5
4B
330
5
100
AcDbSymbolTableRecord
100
AcDbLinetypeTableRecord
  2
Amzigzag
 70
     0
  3
/\/-/\/-/\/-/\/-/\/-/\/
 72
    65
 73
     2
 40
11.0001
 49
0.0001
 74
     4
 75
   135
340
4A
 46
0.04
 50
0.0
 44
0.0
 45
0.0
 49
-11.0
 74
     0
  0
LTYPE
  5
188
330
5
100
AcDbSymbolTableRecord
100
AcDbLinetypeTableRecord
  2
ACJISTGB
 70
     0
  3
__ . . __ . .
 72
    65
 73
     6
 40
9.0
 49
4.0
 74
     0
 49
-1.0
 74
     0
 49
1.0
 74
     0
 49
-1.0
 74
     0
 49
1.0
 74
     0
 49
-1.0
 74
     0
  0
LTYPE
  5
189
330
5
100
AcDbSymbolTableRecord
100
AcDbLinetypeTableRecord
  2
ACJISTGL
 70
     0
  3
_ _ _ _ _
 72
    65
 73
     2
 40
3.0
 49
2.0
 74
     0
 49
-1.0
 74
     0
  0
LTYPE
  5
652
330
5
100
AcDbSymbolTableRecord
100
AcDbLinetypeTableRecord
  2
CENTER
 70
     0
  3
____ _ ____ _ ____ _ ____ _ ____ _ ____ _ ____
 72
    65
 73
     4
 40
17.5
 49
13.0
 74
     0
 49
-1.5
 74
     0
 49
1.5
 74
     0
 49
-1.5
 74
     0
  0
LTYPE
  5
12AB
330
5
100
AcDbSymbolTableRecord
100
AcDbLinetypeTableRecord
  2
HIDDEN
 70
     0
  3
Hidden __ __ __ __ __ __ __ __ __ __ __ __ __ _
 72
    65
 73
     2
 40
0.375
 49
0.25
 74
     0
 49
-0.125
 74
     0
  0
LTYPE
  5
12AC
330
5
100
AcDbSymbolTableRecord
100
AcDbLinetypeTableRecord
  2
PHANTOM2
 70
     0
  3
Phantom (.5x) ___ _ _ ___ _ _ ___ _ _ ___ _ _
 72
    65
 73
     6
 40
1.25
 49
0.625
 74
     0
 49
-0.125
 74
     0
 49
0.125
 74
     0
 49
-0.125
 74
     0
 49
0.125
 74
     0
 49
-0.125
 74
     0
  0
ENDTAB
  0
TABLE
  2
LAYER
  5
2
102
{ACAD_XDICTIONARY
360
46010
102
}
330
0
100
AcDbSymbolTable
 70
     6
  0
LAYER
  5
10
330
2
100
AcDbSymbolTableRecord
100
AcDbLayerTableRecord
  2
0
 70
     0
 62
     7
  6
Continuous
370
    -3
390
F
  0
LAYER
  5
7D
330
2
100
AcDbSymbolTableRecord
100
AcDbLayerTableRecord
  2
AM_5
 70
     0
 62
     3
  6
Continuous
370
    13
390
F
  0
LAYER
  5
7F
330
2
100
AcDbSymbolTableRecord
100
AcDbLayerTableRecord
  2
Defpoints
 70
     0
 62
     7
  6
Continuous
290
     0
370
    -3
390
F
  0
LAYER
  5
12B1
330
2
100
AcDbSymbolTableRecord
100
AcDbLayerTableRecord
  2
AM_0
 70
     0
 62
     7
  6
Continuous
370
    30
390
F
  0
LAYER
  5
1EC0
330
2
100
AcDbSymbolTableRecord
100
AcDbLayerTableRecord
  2
AM_7
 70
     0
 62
     4
  6
AM_ISO08W050
370
    13
390
F
  0
LAYER
  5
32B3
330
2
100
AcDbSymbolTableRecord
100
AcDbLayerTableRecord
  2
AM_11
 70
     0
 62
     3
  6
AM_ISO09W050
370
    13
390
F
  0
ENDTAB
  0
TABLE
  2
STYLE
  5
3
330
0
100
AcDbSymbolTable
 70
     4
  0
STYLE
  5
11
330
3
100
AcDbSymbolTableRecord
100
AcDbTextStyleTableRecord
  2
STANDARD
 70
     0
 40
0.0
 41
1.0
 50
0.0
 71
     0
 42
3.15
  3
ISOCP.SHX
  4
EXTFONT.SHX
  0
STYLE
  5
4A
330
3
100
AcDbSymbolTableRecord
100
AcDbTextStyleTableRecord
  2

 70
     1
 40
0.0
 41
1.0
 50
0.0
 71
     0
 42
2.5
  3
ltypeshp.shx
  4

  0
STYLE
  5
180
330
3
100
AcDbSymbolTableRecord
100
AcDbTextStyleTableRecord
  2
ACJISTS
 70
     0
 40
1.0
 41
1.0
 50
0.0
 71
     0
 42
2.5
  3
isocp.shx
  4
bigfont.shx
  0
STYLE
  5
187
330
3
100
AcDbSymbolTableRecord
100
AcDbTextStyleTableRecord
  2
ACJISGDT
 70
     0
 40
0.0
 41
1.0
 50
0.0
 71
     0
 42
2.5
  3
amgdt.shx
  4

  0
ENDTAB
  0
TABLE
  2
VIEW
  5
6
330
0
100
AcDbSymbolTable
 70
     6
  0
VIEW
  5
A30
330
6
100
AcDbSymbolTableRecord
100
AcDbViewTableRecord
  2
AM_VIEW1
 70
     0
 40
210.0
 10
153.7072243346008
 20
315.0
 41
307.4144486692015
 11
0.0
 21
0.0
 31
1.0
 12
0.0
 22
0.0
 32
0.0
 42
50.0
 43
0.0
 44
0.0
 50
0.0
 71
    16
281
     0
 72
     0
  0
VIEW
  5
A31
330
6
100
AcDbSymbolTableRecord
100
AcDbViewTableRecord
  2
AM_VIEW2
 70
     0
 40
210.0
 10
440.2927756653992
 20
315.0
 41
307.4144486692015
 11
0.0
 21
0.0
 31
1.0
 12
0.0
 22
0.0
 32
0.0
 42
50.0
 43
0.0
 44
0.0
 50
0.0
 71
    16
281
     0
 72
     0
  0
VIEW
  5
A32
330
6
100
AcDbSymbolTableRecord
100
AcDbViewTableRecord
  2
AM_VIEW3
 70
     0
 40
210.0
 10
153.7072243346008
 20
105.0
 41
307.4144486692015
 11
0.0
 21
0.0
 31
1.0
 12
0.0
 22
0.0
 32
0.0
 42
50.0
 43
0.0
 44
0.0
 50
0.0
 71
    16
281
     0
 72
     0
  0
VIEW
  5
A33
330
6
100
AcDbSymbolTableRecord
100
AcDbViewTableRecord
  2
AM_VIEW4
 70
     0
 40
210.0
 10
440.2927756653992
 20
105.0
 41
307.4144486692015
 11
0.0
 21
0.0
 31
1.0
 12
0.0
 22
0.0
 32
0.0
 42
50.0
 43
0.0
 44
0.0
 50
0.0
 71
    16
281
     0
 72
     0
  0
VIEW
  5
A34
330
6
100
AcDbSymbolTableRecord
100
AcDbViewTableRecord
  2
AM_VIEW5
 70
     0
 40
210.0
 10
297.0
 20
210.0
 41
307.4144486692015
 11
0.0
 21
0.0
 31
1.0
 12
0.0
 22
0.0
 32
0.0
 42
50.0
 43
0.0
 44
0.0
 50
0.0
 71
    16
281
     0
 72
     0
  0
VIEW
  5
A35
330
6
100
AcDbSymbolTableRecord
100
AcDbViewTableRecord
  2
AM_VIEW6
 70
     0
 40
419.9958
 10
297.0
 20
210.0
 41
614.8227490494296
 11
0.0
 21
0.0
 31
1.0
 12
0.0
 22
0.0
 32
0.0
 42
50.0
 43
0.0
 44
0.0
 50
0.0
 71
    16
281
     0
 72
     0
  0
ENDTAB
  0
TABLE
  2
UCS
  5
7
330
0
100
AcDbSymbolTable
 70
     0
  0
ENDTAB
  0
TABLE
  2
APPID
  5
9
330
0
100
AcDbSymbolTable
 70
    46
  0
APPID
  5
12
330
9
100
AcDbSymbolTableRecord
100
AcDbRegAppTableRecord
  2
ACAD
 70
     0
  0
APPID
  5
2C
330
9
100
AcDbSymbolTableRecord
100
AcDbRegAppTableRecord
  2
MCAD_NO_VIS
 70
     0
  0
APPID
  5
2D
330
9
100
AcDbSymbolTableRecord
100
AcDbRegAppTableRecord
  2
ACAD_TEMP_GRAPHIC
 70
     0
  0
APPID
  5
B9
330
9
100
AcDbSymbolTableRecord
100
AcDbRegAppTableRecord
  2
GENIUS_GENDTOL_13
 70
     0
  0
APPID
  5
359
330
9
100
AcDbSymbolTableRecord
100
AcDbRegAppTableRecord
  2
GENIUS_GENREC_14
 70
     0
  0
APPID
  5
35A
330
9
100
AcDbSymbolTableRecord
100
AcDbRegAppTableRecord
  2
GENIUS_GENODEF_13
 70
     0
  0
APPID
  5
35B
330
9
100
AcDbSymbolTableRecord
100
AcDbRegAppTableRecord
  2
GENIUS_GENOBJ-N-REC_13
 70
     0
  0
APPID
  5
667
330
9
100
AcDbSymbolTableRecord
100
AcDbRegAppTableRecord
  2
GENIUS_GENCFG_13
 70
     0
  0
APPID
  5
668
330
9
100
AcDbSymbolTableRecord
100
AcDbRegAppTableRecord
  2
GENIUS_GENCFG0_13
 70
     0
  0
APPID
  5
669
330
9
100
AcDbSymbolTableRecord
100
AcDbRegAppTableRecord
  2
GENIUS_GENCFG1_13
 70
     0
  0
APPID
  5
66A
330
9
100
AcDbSymbolTableRecord
100
AcDbRegAppTableRecord
  2
GENIUS_GENCFG2_13
 70
     0
  0
APPID
  5
66B
330
9
100
AcDbSymbolTableRecord
100
AcDbRegAppTableRecord
  2
GENIUS_GENCFG3_13
 70
     0
  0
APPID
  5
66C
330
9
100
AcDbSymbolTableRecord
100
AcDbRegAppTableRecord
  2
GENIUS_GENCFG4_13
 70
     0
  0
APPID
  5
A76
330
9
100
AcDbSymbolTableRecord
100
AcDbRegAppTableRecord
  2
GENIUS_GENBLLY_14
 70
     0
  0
APPID
  5
A77
330
9
100
AcDbSymbolTableRecord
100
AcDbRegAppTableRecord
  2
GENIUS_GENOBJ-N-CEN_13
 70
     0
  0
APPID
  5
A83
330
9
100
AcDbSymbolTableRecord
100
AcDbRegAppTableRecord
  2
GENIUS_GENTRA_14
 70
     0
  0
APPID
  5
A8D
330
9
100
AcDbSymbolTableRecord
100
AcDbRegAppTableRecord
  2
GENIUS_GENOBJ-N-TIT_13
 70
     0
  0
APPID
  5
A8E
330
9
100
AcDbSymbolTableRecord
100
AcDbRegAppTableRecord
  2
GENIUS_GENTITLE_13
 70
     0
  0
APPID
  5
A8F
330
9
100
AcDbSymbolTableRecord
100
AcDbRegAppTableRecord
  2
GENIUS_GENOENT_13
 70
     0
  0
APPID
  5
A90
330
9
100
AcDbSymbolTableRecord
100
AcDbRegAppTableRecord
  2
GENIUS_GENOREF_13
 70
     0
  0
APPID
  5
A91
330
9
100
AcDbSymbolTableRecord
100
AcDbRegAppTableRecord
  2
GENIUS_GENOLIS_13
 70
     0
  0
APPID
  5
A92
330
9
100
AcDbSymbolTableRecord
100
AcDbRegAppTableRecord
  2
GENIUS_GENZVEED_13
 70
     0
  0
APPID
  5
A93
330
9
100
AcDbSymbolTableRecord
100
AcDbRegAppTableRecord
  2
GENIUS_GENSCREG_15
 70
     0
  0
APPID
  5
A94
330
9
100
AcDbSymbolTableRecord
100
AcDbRegAppTableRecord
  2
GENIUS_GENOBJ-N-SDF_13
 70
     0
  0
APPID
  5
12B5
330
9
100
AcDbSymbolTableRecord
100
AcDbRegAppTableRecord
  2
GENIUS_GENOBJ-N-RSBK_13
 70
     0
  0
APPID
  5
12B6
330
9
100
AcDbSymbolTableRecord
100
AcDbRegAppTableRecord
  2
GENIUS_GENOBJ-N-LIB_13
 70
     0
  0
APPID
  5
12B7
330
9
100
AcDbSymbolTableRecord
100
AcDbRegAppTableRecord
  2
GENIUS_GENSCALE_13
 70
     0
  0
APPID
  5
12B8
330
9
100
AcDbSymbolTableRecord
100
AcDbRegAppTableRecord
  2
GENIUS_GENOBJ-N-HTC_13
 70
     0
  0
APPID
  5
12B9
330
9
100
AcDbSymbolTableRecord
100
AcDbRegAppTableRecord
  2
GENIUS_GENHATCH_13
 70
     0
  0
APPID
  5
1687
330
9
100
AcDbSymbolTableRecord
100
AcDbRegAppTableRecord
  2
BASE_TYPE
 70
     0
  0
APPID
  5
1CDB
330
9
100
AcDbSymbolTableRecord
100
AcDbRegAppTableRecord
  2
GENIUS_GENOBJ-N-FIL_13
 70
     0
  0
APPID
  5
2658
330
9
100
AcDbSymbolTableRecord
100
AcDbRegAppTableRecord
  2
GENIUS_GENFIL_13
 70
     0
  0
APPID
  5
2659
330
9
100
AcDbSymbolTableRecord
100
AcDbRegAppTableRecord
  2
GENIUS_GENOBJ-N-CHA_13
 70
     0
  0
APPID
  5
2B7D
330
9
100
AcDbSymbolTableRecord
100
AcDbRegAppTableRecord
  2
GENIUS_GENDIMSH_14
 70
     0
  0
APPID
  5
4385
330
9
100
AcDbSymbolTableRecord
100
AcDbRegAppTableRecord
  2
DCO15
 70
     0
  0
APPID
  5
5F67
330
9
100
AcDbSymbolTableRecord
100
AcDbRegAppTableRecord
  2
GENIUS_GENOBJ-N-DIM_13
 70
     0
  0
APPID
  5
5F73
330
9
100
AcDbSymbolTableRecord
100
AcDbRegAppTableRecord
  2
GENIUS_GENDIM_13
 70
     0
  0
APPID
  5
AC87
330
9
100
AcDbSymbolTableRecord
100
AcDbRegAppTableRecord
  2
GENIUS_GENOBJ-N-CRS_13
 70
     0
  0
APPID
  5
454F2
330
9
100
AcDbSymbolTableRecord
100
AcDbRegAppTableRecord
  2
AD_DRAW
 70
     0
  0
APPID
  5
454F5
330
9
100
AcDbSymbolTableRecord
100
AcDbRegAppTableRecord
  2
ACATTRIBSERVICES
 70
     0
  0
APPID
  5
45513
330
9
100
AcDbSymbolTableRecord
100
AcDbRegAppTableRecord
  2
DESIGNERASSEMBLIES
 70
     0
  0
APPID
  5
45526
330
9
100
AcDbSymbolTableRecord
100
AcDbRegAppTableRecord
  2
ACADM_DIM_EDIT
 70
     0
  0
APPID
  5
45527
330
9
100
AcDbSymbolTableRecord
100
AcDbRegAppTableRecord
  2
AMDT_DM_ADJ
 70
     0
  0
APPID
  5
45AD5
330
9
100
AcDbSymbolTableRecord
100
AcDbRegAppTableRecord
  2
ACAD_DSTYLE_DIMTEXT_FILL
 70
     0
  0
APPID
  5
45AD6
330
9
100
AcDbSymbolTableRecord
100
AcDbRegAppTableRecord
  2
ACAD_PSEXT
 70
     0
  0
APPID
  5
45C86
330
9
100
AcDbSymbolTableRecord
100
AcDbRegAppTableRecord
  2
GENIUS_GENCEN_19
 70
     0
  0
ENDTAB
  0
TABLE
  2
DIMSTYLE
  5
A
330
0
100
AcDbSymbolTable
 70
    10
100
AcDbDimStyleTable
  0
DIMSTYLE
105
58
330
A
100
AcDbSymbolTableRecord
100
AcDbDimStyleTableRecord
  2
AM_JIS
 70
     0
  4
"
 41
2.5
 42
0.0
 43
10.0
 44
1.0
 47
0.1
 48
0.1000000001
 73
     0
 74
     0
 77
     3
 78
     1
 79
     2
140
3.8
141
0.0
143
0.0393701
146
0.71
147
1.5
172
     1
176
   256
177
   256
178
     2
179
     1
271
     2
272
     2
275
     1
283
     0
284
     8
340
11
341
59
342
59
371
    -1
372
    -1
  0
DIMSTYLE
105
5F
102
{ACAD_REACTORS
330
43DF0
330
44A85
102
}
330
A
100
AcDbSymbolTableRecord
100
AcDbDimStyleTableRecord
  2
AM_JIS$3
 70
     0
  4
"
 41
2.5
 42
0.0
 43
10.0
 44
1.0
 47
0.1
 48
0.1000000001
 73
     0
 77
     3
 78
     1
 79
     2
140
3.8
141
0.0
143
0.0393701
146
0.71
147
1.5
172
     1
176
   256
177
   256
178
     2
179
     1
271
     2
272
     2
275
     1
283
     0
284
     8
288
     1
289
     0
340
11
341
59
342
59
371
    -1
372
    -1
  0
DIMSTYLE
105
60
330
A
100
AcDbSymbolTableRecord
100
AcDbDimStyleTableRecord
  2
AM_JIS$4
 70
     0
  4
"
 41
2.5
 42
0.0
 43
10.0
 44
1.0
 47
0.1
 48
0.1000000001
 73
     0
 77
     3
 78
     1
 79
     2
140
3.8
141
0.0
143
0.0393701
146
0.71
147
1.5
172
     1
176
   256
177
   256
178
     2
179
     1
271
     2
272
     2
275
     1
283
     0
284
     8
288
     1
289
     0
340
11
341
59
342
59
371
    -1
372
    -1
  0
DIMSTYLE
105
61
330
A
100
AcDbSymbolTableRecord
100
AcDbDimStyleTableRecord
  2
AM_JIS$6
 70
     0
  4
"
 41
2.5
 42
0.0
 43
10.0
 44
1.0
 47
0.1
 48
0.1000000001
 73
     0
 74
     0
 78
     1
 79
     2
140
3.8
141
0.0
143
0.0393701
146
0.71
147
1.5
172
     1
176
   256
177
   256
178
     2
179
     1
271
     2
272
     2
275
     1
283
     0
284
     8
340
11
341
59
342
59
371
    -1
372
    -1
  0
DIMSTYLE
105
62
330
A
100
AcDbSymbolTableRecord
100
AcDbDimStyleTableRecord
  2
AM_JIS$7
 70
     0
  4
"
 41
2.5
 42
0.0
 43
10.0
 44
1.0
 47
0.1
 48
0.1000000001
 73
     0
 74
     0
 77
     3
 78
     1
 79
     2
140
5.0
141
0.0
143
0.0393701
146
0.71
147
1.5
172
     1
176
   256
177
   256
178
     2
179
     1
271
     2
272
     2
275
     1
283
     0
284
     8
340
11
341
59
342
59
371
    -1
372
    -1
  0
DIMSTYLE
105
63
330
A
100
AcDbSymbolTableRecord
100
AcDbDimStyleTableRecord
  2
AM_JIS$SF
 70
     0
  4
"
 41
2.5
 42
1.0
 43
10.0
 44
1.0
 47
0.1
 48
0.1
 73
     0
 74
     0
 75
     1
 76
     1
 77
     3
 78
     8
 79
     2
140
3.5
141
0.0
143
0.0393701
146
0.71
147
1.5
176
   256
177
   256
178
     2
271
     2
272
     3
274
     4
340
11
341
59
342
59
343
59
344
59
371
    -1
372
    -1
  0
DIMSTYLE
105
68
330
A
100
AcDbSymbolTableRecord
100
AcDbDimStyleTableRecord
  2
AM_JIS$SH
 70
     0
  4
"
 41
2.5
 42
1.0
 43
10.0
 44
1.0
 47
0.1
 48
0.1
 73
     0
 74
     0
 75
     1
 76
     1
 77
     3
 78
     8
 79
     2
140
3.5
141
0.0
143
0.0393701
144
2.0
146
0.71
147
1.5
173
     1
176
   256
177
   256
178
     2
271
     2
272
     3
274
     4
340
11
341
59
342
59
343
64
344
59
371
    -1
372
    -1
  0
DIMSTYLE
105
65F
330
A
100
AcDbSymbolTableRecord
100
AcDbDimStyleTableRecord
  2
STANDARD
 70
     0
340
11
  0
DIMSTYLE
105
3E0D
102
{ACAD_REACTORS
330
4431E
330
42D54
330
4684B
330
46943
102
}
330
A
100
AcDbSymbolTableRecord
100
AcDbDimStyleTableRecord
  2
AM_JIS$0
 70
     0
  4
"
 41
2.5
 42
0.0
 43
10.0
 44
1.0
 47
0.1
 48
0.1000000001
 73
     0
 74
     0
 77
     3
 78
     1
 79
     2
140
3.8
141
0.0
143
0.0393701
146
0.71
147
1.5
172
     1
176
     3
177
     3
178
     2
271
     2
272
     2
275
     1
283
     0
284
     8
289
     0
340
11
341
59
342
59
371
    13
372
    13
  0
DIMSTYLE
105
3E0E
102
{ACAD_REACTORS
330
44C7B
330
4688D
102
}
330
A
100
AcDbSymbolTableRecord
100
AcDbDimStyleTableRecord
  2
AM_JIS$2
 70
     0
  4
"
 41
2.5
 42
0.0
 43
10.0
 44
1.0
 47
0.1
 48
0.1000000001
 73
     0
 74
     0
 77
     3
 78
     1
 79
     2
140
3.8
141
0.0
143
0.0393701
146
0.71
147
1.5
172
     1
176
     3
177
     3
178
     2
271
     2
272
     2
275
     1
283
     0
284
     8
289
     0
340
11
341
59
342
59
371
    13
372
    13
  0
ENDTAB
  0
TABLE
  2
BLOCK_RECORD
  5
1
330
0
100
AcDbSymbolTable
 70
    12
  0
BLOCK_RECORD
  5
1F
102
{ACAD_XDICTIONARY
360
165
102
}
330
1
100
AcDbSymbolTableRecord
100
AcDbBlockTableRecord
  2
*Model_Space
340
22
  0
BLOCK_RECORD
  5
1B
330
1
100
AcDbSymbolTableRecord
100
AcDbBlockTableRecord
  2
*Paper_Space
340
1E
  0
BLOCK_RECORD
  5
23
330
1
100
AcDbSymbolTableRecord
100
AcDbBlockTableRecord
  2
*Paper_Space0
340
26
  0
BLOCK_RECORD
  5
59
330
1
100
AcDbSymbolTableRecord
100
AcDbBlockTableRecord
  2
_Open30
340
0
102
{BLKREFS
331
46B26
331
46B27
331
46B77
331
46B78
331
46B38
331
46B39
331
46B43
331
46B44
331
46B4C
331
46B4D
331
46B57
331
46B58
331
46B60
331
46B61
331
46B6B
331
46B6C
102
}
  0
BLOCK_RECORD
  5
64
330
1
100
AcDbSymbolTableRecord
100
AcDbBlockTableRecord
  2
GENAXEH
340
0
  0
BLOCK_RECORD
  5
42D70
330
1
100
AcDbSymbolTableRecord
100
AcDbBlockTableRecord
  2
*D3
340
0
  0
BLOCK_RECORD
  5
43DF1
330
1
100
AcDbSymbolTableRecord
100
AcDbBlockTableRecord
  2
*D4
340
0
  0
BLOCK_RECORD
  5
4431F
330
1
100
AcDbSymbolTableRecord
100
AcDbBlockTableRecord
  2
*D5
340
0
  0
BLOCK_RECORD
  5
44A86
330
1
100
AcDbSymbolTableRecord
100
AcDbBlockTableRecord
  2
*D6
340
0
  0
BLOCK_RECORD
  5
44C7C
330
1
100
AcDbSymbolTableRecord
100
AcDbBlockTableRecord
  2
*D7
340
0
  0
BLOCK_RECORD
  5
4550A
330
1
100
AcDbSymbolTableRecord
100
AcDbBlockTableRecord
  2
*U8
340
0
  0
BLOCK_RECORD
  5
4684C
330
1
100
AcDbSymbolTableRecord
100
AcDbBlockTableRecord
  2
*D9
340
0
  0
BLOCK_RECORD
  5
4688E
330
1
100
AcDbSymbolTableRecord
100
AcDbBlockTableRecord
  2
*D10
340
0
  0
BLOCK_RECORD
  5
46944
330
1
100
AcDbSymbolTableRecord
100
AcDbBlockTableRecord
  2
*D11
340
0
  0
ENDTAB
  0
ENDSEC
  0
SECTION
  2
BLOCKS
  0
BLOCK
  5
20
330
1F
100
AcDbEntity
  8
0
100
AcDbBlockBegin
  2
*Model_Space
 70
     0
 71
     0
 10
0.0
 20
0.0
 30
0.0
  3
*Model_Space
  1

  0
ENDBLK
  5
21
330
1F
100
AcDbEntity
  8
0
100
AcDbBlockEnd
  0
BLOCK
  5
1C
330
1B
100
AcDbEntity
 67
     1
  8
0
100
AcDbBlockBegin
  2
*Paper_Space
 70
     0
 71
     0
 10
0.0
 20
0.0
 30
0.0
  3
*Paper_Space
  1

  0
ENDBLK
  5
1D
330
1B
100
AcDbEntity
 67
     1
  8
0
100
AcDbBlockEnd
  0
BLOCK
  5
24
330
23
100
AcDbEntity
  8
0
100
AcDbBlockBegin
  2
*Paper_Space0
 70
     0
 71
     0
 10
0.0
 20
0.0
 30
0.0
  3
*Paper_Space0
  1

  0
ENDBLK
  5
25
330
23
100
AcDbEntity
  8
0
100
AcDbBlockEnd
  0
BLOCK
  5
5D
330
59
100
AcDbEntity
  8
0
100
AcDbBlockBegin
  2
_Open30
 70
     0
 71
     0
 10
0.0
 20
0.0
 30
0.0
  3
_Open30
  1

  0
LINE
  5
5A
330
59
100
AcDbEntity
  8
0
 62
     0
370
    -2
100
AcDbLine
 10
-1.0
 20
0.26794919
 30
0.0
 11
0.0
 21
0.0
 31
0.0
  0
LINE
  5
5B
330
59
100
AcDbEntity
  8
0
 62
     0
370
    -2
100
AcDbLine
 10
0.0
 20
0.0
 30
0.0
 11
-1.0
 21
-0.26794919
 31
0.0
  0
LINE
  5
5C
330
59
100
AcDbEntity
  8
0
 62
     0
370
    -2
100
AcDbLine
 10
0.0
 20
0.0
 30
0.0
 11
-1.0
 21
0.0
 31
0.0
  0
ENDBLK
  5
5E
330
59
100
AcDbEntity
  8
0
100
AcDbBlockEnd
  0
BLOCK
  5
66
330
64
100
AcDbEntity
  8
0
100
AcDbBlockBegin
  2
GENAXEH
 70
     0
 71
     0
 10
0.0
 20
0.0
 30
0.0
  3
GENAXEH
  1

  0
LINE
  5
65
330
64
100
AcDbEntity
  8
0
100
AcDbLine
 10
-1.0
 20
0.0
 30
0.0
 11
1.0
 21
0.0
 31
0.0
  0
ENDBLK
  5
67
330
64
100
AcDbEntity
  8
0
100
AcDbBlockEnd
  0
BLOCK
  5
42D7A
330
42D70
100
AcDbEntity
  8
0
100
AcDbBlockBegin
  2
*D3
 70
     1
 71
     0
 10
0.0
 20
0.0
 30
0.0
  3
*D3
  1

  0
LINE
  5
46B23
330
42D70
100
AcDbEntity
  8
AM_5
 62
     3
370
    13
100
AcDbLine
 10
187.8758004435722
 20
14.43223563716992
 30
0.0
 11
187.8758004435722
 21
-17.37358865081967
 31
0.0
  0
LINE
  5
46B24
330
42D70
100
AcDbEntity
  8
AM_5
 62
     3
370
    13
100
AcDbLine
 10
217.8758004435722
 20
14.43223563716992
 30
0.0
 11
217.8758004435722
 21
-17.37358865081967
 31
0.0
  0
LINE
  5
46B25
330
42D70
100
AcDbEntity
  8
AM_5
 62
     3
370
    13
100
AcDbLine
 10
190.3758004435722
 20
-16.37358865081967
 30
0.0
 11
215.3758004435722
 21
-16.37358865081967
 31
0.0
  0
INSERT
  5
46B26
330
42D70
100
AcDbEntity
  8
AM_5
 62
     3
370
    13
100
AcDbBlockReference
  2
_Open30
 10
187.8758004435722
 20
-16.37358865081967
 30
0.0
 41
2.5
 42
2.5
 43
2.5
 50
180.0
  0
INSERT
  5
46B27
330
42D70
100
AcDbEntity
  8
AM_5
 62
     3
370
    13
100
AcDbBlockReference
  2
_Open30
 10
217.8758004435722
 20
-16.37358865081967
 30
0.0
 41
2.5
 42
2.5
 43
2.5
  0
MTEXT
  5
46B28
330
42D70
100
AcDbEntity
  8
AM_5
 62
     2
100
AcDbMText
 10
202.8758004435722
 20
-12.97358865081967
 30
0.0
 40
3.8
 41
0.0
 71
     5
 72
     1
  1
30
 73
     1
 44
1.0
  0
POINT
  5
46B29
330
42D70
100
AcDbEntity
  8
Defpoints
 62
     0
100
AcDbPoint
 10
187.8758004435722
 20
14.43223563716992
 30
0.0
  0
POINT
  5
46B2A
330
42D70
100
AcDbEntity
  8
Defpoints
 62
     0
100
AcDbPoint
 10
217.8758004435722
 20
14.43223563716992
 30
0.0
  0
POINT
  5
46B2B
330
42D70
100
AcDbEntity
  8
Defpoints
 62
     0
100
AcDbPoint
 10
217.8758004435722
 20
-16.37358865081967
 30
0.0
  0
ENDBLK
  5
42D7B
330
42D70
100
AcDbEntity
  8
0
100
AcDbBlockEnd
  0
BLOCK
  5
43DFA
330
43DF1
100
AcDbEntity
  8
0
100
AcDbBlockBegin
  2
*D4
 70
     1
 71
     0
 10
0.0
 20
0.0
 30
0.0
  3
*D4
  1

  0
LINE
  5
46B72
330
43DF1
100
AcDbEntity
  8
AM_5
100
AcDbLine
 10
-136.8037133928559
 20
47.66034331515493
 30
0.0
 11
-112.9359873833668
 21
47.66034331515493
 31
0.0
  0
LINE
  5
46B73
330
43DF1
100
AcDbEntity
  8
AM_5
100
AcDbLine
 10
-112.9359873833668
 20
47.66034331515493
 30
0.0
 11
-105.6131336430014
 21
38.03312249520911
 31
0.0
  0
LINE
  5
46B74
330
43DF1
100
AcDbEntity
  8
AM_5
100
AcDbLine
 10
-78.36984832741626
 20
2.216877504791114
 30
0.0
 11
-76.85633247655042
 21
0.2270861164345703
 31
0.0
  0
MTEXT
  5
46B75
330
43DF1
100
AcDbEntity
  8
AM_5
 62
     2
100
AcDbMText
 10
-125.6198503881114
 20
54.2270099818216
 30
0.0
 40
3.8
 41
0.0
 71
     5
 72
     1
  1
最小加工径\P\U+220540
 73
     1
 44
1.0
  0
LINE
  5
46B76
330
43DF1
100
AcDbEntity
  8
AM_5
100
AcDbLine
 10
-79.88336417828209
 20
4.206668893147665
 30
0.0
 11
-104.0996177921356
 21
36.04333110685257
 31
0.0
  0
INSERT
  5
46B77
330
43DF1
100
AcDbEntity
  8
AM_5
100
AcDbBlockReference
  2
_Open30
 10
-79.88336417828209
 20
4.206668893147665
 30
0.0
 41
2.5
 42
2.5
 43
2.5
 50
127.2580874901082
  0
INSERT
  5
46B78
330
43DF1
100
AcDbEntity
  8
AM_5
100
AcDbBlockReference
  2
_Open30
 10
-104.0996177921356
 20
36.04333110685257
 30
0.0
 41
2.5
 42
2.5
 43
2.5
 50
307.2580874901082
  0
POINT
  5
46B79
330
43DF1
100
AcDbEntity
  8
Defpoints
 62
     0
100
AcDbPoint
 10
-104.0996177921356
 20
36.04333110685257
 30
0.0
  0
POINT
  5
46B7A
330
43DF1
100
AcDbEntity
  8
Defpoints
 62
     0
100
AcDbPoint
 10
-79.88336417828209
 20
4.206668893147665
 30
0.0
  0
ENDBLK
  5
43DFB
330
43DF1
100
AcDbEntity
  8
0
100
AcDbBlockEnd
  0
BLOCK
  5
44329
330
4431F
100
AcDbEntity
  8
0
100
AcDbBlockBegin
  2
*D5
 70
     1
 71
     0
 10
0.0
 20
0.0
 30
0.0
  3
*D5
  1

  0
LINE
  5
46B35
330
4431F
100
AcDbEntity
  8
AM_5
 62
     3
370
    13
100
AcDbLine
 10
-0.0000000000001137
 20
-132.1159532550524
 30
0.0
 11
-0.0000000000001161
 21
-172.3090354280636
 31
0.0
  0
LINE
  5
46B36
330
4431F
100
AcDbEntity
  8
AM_5
 62
     3
370
    13
100
AcDbLine
 10
52.99999999999989
 20
-148.1159532550523
 30
0.0
 11
52.99999999999989
 21
-172.3090354280636
 31
0.0
  0
LINE
  5
46B37
330
4431F
100
AcDbEntity
  8
AM_5
 62
     3
370
    13
100
AcDbLine
 10
2.499999999999884
 20
-171.3090354280636
 30
0.0
 11
50.49999999999989
 21
-171.3090354280636
 31
0.0
  0
INSERT
  5
46B38
330
4431F
100
AcDbEntity
  8
AM_5
 62
     3
370
    13
100
AcDbBlockReference
  2
_Open30
 10
-0.0000000000001161
 20
-171.3090354280636
 30
0.0
 41
2.5
 42
2.5
 43
2.5
 50
180.0
  0
INSERT
  5
46B39
330
4431F
100
AcDbEntity
  8
AM_5
 62
     3
370
    13
100
AcDbBlockReference
  2
_Open30
 10
52.99999999999989
 20
-171.3090354280636
 30
0.0
 41
2.5
 42
2.5
 43
2.5
  0
MTEXT
  5
46B3A
330
4431F
100
AcDbEntity
  8
AM_5
 62
     2
100
AcDbMText
 10
26.49999999999989
 20
-167.9090354280636
 30
0.0
 40
3.8
 41
0.0
 71
     5
 72
     1
  1
53
 73
     1
 44
1.0
  0
POINT
  5
46B3B
330
4431F
100
AcDbEntity
  8
Defpoints
 62
     0
100
AcDbPoint
 10
-0.0000000000001137
 20
-132.1159532550524
 30
0.0
  0
POINT
  5
46B3C
330
4431F
100
AcDbEntity
  8
Defpoints
 62
     0
100
AcDbPoint
 10
52.99999999999989
 20
-148.1159532550523
 30
0.0
  0
POINT
  5
46B3D
330
4431F
100
AcDbEntity
  8
Defpoints
 62
     0
100
AcDbPoint
 10
52.99999999999989
 20
-171.3090354280636
 30
0.0
  0
ENDBLK
  5
4432A
330
4431F
100
AcDbEntity
  8
0
100
AcDbBlockEnd
  0
BLOCK
  5
44A8C
330
44A86
100
AcDbEntity
  8
0
100
AcDbBlockBegin
  2
*D6
 70
     1
 71
     0
 10
0.0
 20
0.0
 30
0.0
  3
*D6
  1

  0
LINE
  5
46B3E
330
44A86
100
AcDbEntity
  8
AM_5
100
AcDbLine
 10
227.7300940797659
 20
47.96985531374108
 30
0.0
 11
218.4018696703166
 21
47.96985531374109
 31
0.0
  0
LINE
  5
46B3F
330
44A86
100
AcDbEntity
  8
AM_5
100
AcDbLine
 10
218.4018696703166
 20
47.96985531374109
 30
0.0
 11
211.8545645056494
 21
36.17503619524779
 31
0.0
  0
LINE
  5
46B40
330
44A86
100
AcDbEntity
  8
AM_5
100
AcDbLine
 10
193.8970363814962
 20
3.824963804753267
 30
0.0
 11
192.683689886621
 21
1.639148102692829
 31
0.0
  0
MTEXT
  5
46B41
330
44A86
100
AcDbEntity
  8
AM_5
 62
     2
100
AcDbMText
 10
223.8159818750415
 20
51.37022932948916
 30
0.0
 40
3.8
 41
0.0
 71
     5
 72
     1
  1
\U+220532
 73
     1
 44
1.0
  0
LINE
  5
46B42
330
44A86
100
AcDbEntity
  8
AM_5
100
AcDbLine
 10
195.1103828763714
 20
6.010779506813719
 30
0.0
 11
210.6412180107742
 21
33.98922049318733
 31
0.0
  0
INSERT
  5
46B43
330
44A86
100
AcDbEntity
  8
AM_5
100
AcDbBlockReference
  2
_Open30
 10
195.1103828763714
 20
6.010779506813719
 30
0.0
 41
2.5
 42
2.5
 43
2.5
 50
60.96534119502155
  0
INSERT
  5
46B44
330
44A86
100
AcDbEntity
  8
AM_5
100
AcDbBlockReference
  2
_Open30
 10
210.6412180107742
 20
33.98922049318733
 30
0.0
 41
2.5
 42
2.5
 43
2.5
 50
240.9653411950216
  0
POINT
  5
46B45
330
44A86
100
AcDbEntity
  8
Defpoints
 62
     0
100
AcDbPoint
 10
210.6412180107742
 20
33.98922049318733
 30
0.0
  0
POINT
  5
46B46
330
44A86
100
AcDbEntity
  8
Defpoints
 62
     0
100
AcDbPoint
 10
195.1103828763714
 20
6.010779506813719
 30
0.0
  0
ENDBLK
  5
44A8D
330
44A86
100
AcDbEntity
  8
0
100
AcDbBlockEnd
  0
BLOCK
  5
44C8A
330
44C7C
100
AcDbEntity
  8
0
100
AcDbBlockBegin
  2
*D7
 70
     1
 71
     0
 10
0.0
 20
0.0
 30
0.0
  3
*D7
  1

  0
LINE
  5
46B47
330
44C7C
100
AcDbEntity
  8
AM_5
 62
     3
370
    13
100
AcDbLine
 10
-3.832932221614104
 20
-131.780615137598
 30
0.0
 11
-17.25636679982773
 21
-130.6062167864225
 31
0.0
  0
LINE
  5
46B48
330
44C7C
100
AcDbEntity
  8
AM_5
 62
     3
370
    13
100
AcDbLine
 10
-4.546508955942951
 20
-132.1159532550524
 30
0.0
 11
-17.32228331759148
 21
-132.1159532550524
 31
0.0
  0
ARC
  5
46B49
330
44C7C
100
AcDbEntity
  8
AM_5
 62
     3
370
    13
100
AcDbCircle
 10
-0.0000000000000746
 20
-132.1159532550524
 30
0.0
 40
16.3222833175914
100
AcDbArc
 50
157.4314000428564
 51
166.2157000214284
  0
ARC
  5
46B4A
330
44C7C
100
AcDbEntity
  8
AM_5
 62
     3
370
    13
100
AcDbCircle
 10
-0.0000000000000746
 20
-132.1159532550524
 30
0.0
 40
16.3222833175914
100
AcDbArc
 50
188.784299978572
 51
197.568599957144
  0
ARC
  5
46B4B
330
44C7C
100
AcDbEntity
  8
AM_5
 62
     3
370
    13
100
AcDbCircle
 10
-0.0000000000000746
 20
-132.1159532550524
 30
0.0
 40
16.3222833175914
100
AcDbArc
 50
175.0000000000004
 51
180.0
  0
INSERT
  5
46B4C
330
44C7C
100
AcDbEntity
  8
AM_5
 62
     3
370
    13
100
AcDbBlockReference
  2
_Open30
 10
-16.26017210173599
 20
-130.6933725291701
 30
0.0
 41
2.5
 42
2.5
 43
2.5
 50
260.6078500107144
  0
INSERT
  5
46B4D
330
44C7C
100
AcDbEntity
  8
AM_5
 62
     3
370
    13
100
AcDbBlockReference
  2
_Open30
 10
-16.32228331759147
 20
-132.1159532550524
 30
0.0
 41
2.5
 42
2.5
 43
2.5
 50
94.392149989286
  0
MTEXT
  5
46B4E
330
44C7C
100
AcDbEntity
  8
AM_5
 62
     2
100
AcDbMText
 10
-19.13877148417474
 20
-127.3540329138574
 30
0.0
 40
3.8
 41
0.0
 71
     5
 72
     1
  1
5°
 11
0.241448734130476
 21
0.9704135761554404
 31
0.0
 73
     1
 44
1.0
  0
POINT
  5
46B4F
330
44C7C
100
AcDbEntity
  8
Defpoints
 62
     0
100
AcDbPoint
 10
-16.31537817697567
 20
-131.6412242355149
 30
0.0
  0
POINT
  5
46B50
330
44C7C
100
AcDbEntity
  8
Defpoints
 62
     0
100
AcDbPoint
 10
304.1684173924887
 20
-132.1159532550524
 30
0.0
  0
POINT
  5
46B51
330
44C7C
100
AcDbEntity
  8
Defpoints
 62
     0
100
AcDbPoint
 10
-0.0000000000001101
 20
-132.1159532550524
 30
0.0
  0
POINT
  5
46B52
330
44C7C
100
AcDbEntity
  8
Defpoints
 62
     0
100
AcDbPoint
 10
-3.832932221614104
 20
-131.780615137598
 30
0.0
  0
POINT
  5
46B53
330
44C7C
100
AcDbEntity
  8
Defpoints
 62
     0
100
AcDbPoint
 10
-4.546508955942951
 20
-132.1159532550524
 30
0.0
  0
ENDBLK
  5
44C8B
330
44C7C
100
AcDbEntity
  8
0
100
AcDbBlockEnd
  0
BLOCK
  5
4550B
330
4550A
100
AcDbEntity
  8
0
100
AcDbBlockBegin
  2
*U8
 70
     1
 71
     0
 10
0.0
 20
0.0
 30
0.0
  3
*U8
  1

  0
ENDBLK
  5
4550C
330
4550A
100
AcDbEntity
  8
0
100
AcDbBlockEnd
  0
BLOCK
  5
46874
330
4684C
100
AcDbEntity
  8
0
100
AcDbBlockBegin
  2
*D9
 70
     1
 71
     0
 10
0.0
 20
0.0
 30
0.0
  3
*D9
  1

  0
LINE
  5
46B54
330
4684C
100
AcDbEntity
  8
AM_5
 62
     3
370
    13
100
AcDbLine
 10
-4.495005698526029
 20
0.0
 30
0.0
 11
-16.62224879480028
 21
0.0000000000000034
 31
0.0
  0
LINE
  5
46B55
330
4684C
100
AcDbEntity
  8
AM_5
 62
     3
370
    13
100
AcDbLine
 10
-4.495005698526029
 20
20.00000000000006
 30
0.0
 11
-16.62224879480027
 21
20.00000000000006
 31
0.0
  0
LINE
  5
46B56
330
4684C
100
AcDbEntity
  8
AM_5
 62
     3
370
    13
100
AcDbLine
 10
-15.62224879480028
 20
2.500000000000003
 30
0.0
 11
-15.62224879480027
 21
17.50000000000006
 31
0.0
  0
INSERT
  5
46B57
330
4684C
100
AcDbEntity
  8
AM_5
 62
     3
370
    13
100
AcDbBlockReference
  2
_Open30
 10
-15.62224879480028
 20
0.0000000000000032
 30
0.0
 41
2.5
 42
2.5
 43
2.5
 50
270.0
  0
INSERT
  5
46B58
330
4684C
100
AcDbEntity
  8
AM_5
 62
     3
370
    13
100
AcDbBlockReference
  2
_Open30
 10
-15.62224879480027
 20
20.00000000000006
 30
0.0
 41
2.5
 42
2.5
 43
2.5
 50
90.0
  0
MTEXT
  5
46B59
330
4684C
100
AcDbEntity
  8
AM_5
 62
     2
100
AcDbMText
 10
-19.02262281054831
 20
10.00000000000003
 30
0.0
 40
3.8
 41
0.0
 71
     5
 72
     1
  1
20
 11
6.123031769111886E-17
 21
1.0
 31
0.0
 73
     1
 44
1.0
  0
POINT
  5
46B5A
330
4684C
100
AcDbEntity
  8
Defpoints
 62
     0
100
AcDbPoint
 10
-4.495005698526029
 20
0.0
 30
0.0
  0
POINT
  5
46B5B
330
4684C
100
AcDbEntity
  8
Defpoints
 62
     0
100
AcDbPoint
 10
-4.495005698526029
 20
20.00000000000006
 30
0.0
  0
POINT
  5
46B5C
330
4684C
100
AcDbEntity
  8
Defpoints
 62
     0
100
AcDbPoint
 10
-15.62224879480027
 20
20.00000000000006
 30
0.0
  0
ENDBLK
  5
46875
330
4684C
100
AcDbEntity
  8
0
100
AcDbBlockEnd
  0
BLOCK
  5
468D2
330
4688E
100
AcDbEntity
  8
0
100
AcDbBlockBegin
  2
*D10
 70
     1
 71
     0
 10
0.0
 20
0.0
 30
0.0
  3
*D10
  1

  0
LINE
  5
46B5D
330
4688E
100
AcDbEntity
  8
AM_5
 62
     3
370
    13
100
AcDbLine
 10
0.7910955759471108
 20
15.50404758256553
 30
0.0
 11
2.068798795659255
 21
39.88407736424412
 31
0.0
  0
LINE
  5
46B5E
330
4688E
100
AcDbEntity
  8
AM_5
 62
     3
370
    13
100
AcDbLine
 10
-4.495005698526029
 20
0.0
 30
0.0
 11
-39.96024924594943
 21
0.0000000000000107
 31
0.0
  0
ARC
  5
46B5F
330
4688E
100
AcDbEntity
  8
AM_5
 62
     3
370
    13
100
AcDbCircle
 10
-0.0214371277537272
 20
0.0
 30
0.0
 40
38.93881211819571
100
AcDbArc
 50
90.67920987200417
 51
176.3207901279959
  0
INSERT
  5
46B60
330
4688E
100
AcDbEntity
  8
AM_5
 62
     3
370
    13
100
AcDbBlockReference
  2
_Open30
 10
2.016462839416313
 20
38.88544782948954
 30
0.0
 41
2.5
 42
2.5
 43
2.5
 50
358.8396049360021
  0
INSERT
  5
46B61
330
4688E
100
AcDbEntity
  8
AM_5
 62
     3
370
    13
100
AcDbBlockReference
  2
_Open30
 10
-38.96024924594943
 20
0.0000000000000071
 30
0.0
 41
2.5
 42
2.5
 43
2.5
 50
268.160395063998
  0
MTEXT
  5
46B62
330
4688E
100
AcDbEntity
  8
AM_5
 62
     2
100
AcDbMText
 10
-29.16555217875191
 20
30.71148920964362
 30
0.0
 40
3.8
 41
0.0
 71
     5
 72
     1
  1
93°
 11
0.7253743710122876
 21
0.688354575693754
 31
0.0
 73
     1
 44
1.0
  0
POINT
  5
46B63
330
4688E
100
AcDbEntity
  8
Defpoints
 62
     0
100
AcDbPoint
 10
-18.30210210590928
 20
34.3809304285469
 30
0.0
  0
POINT
  5
46B64
330
4688E
100
AcDbEntity
  8
Defpoints
 62
     0
100
AcDbPoint
 10
0.0005497774761807
 20
0.4195351440320109
 30
0.0
  0
POINT
  5
46B65
330
4688E
100
AcDbEntity
  8
Defpoints
 62
     0
100
AcDbPoint
 10
0.3972656262078544
 20
0.0
 30
0.0
  0
POINT
  5
46B66
330
4688E
100
AcDbEntity
  8
Defpoints
 62
     0
100
AcDbPoint
 10
-4.495005698526029
 20
0.0
 30
0.0
  0
POINT
  5
46B67
330
4688E
100
AcDbEntity
  8
Defpoints
 62
     0
100
AcDbPoint
 10
0.7910955759471108
 20
15.50404758256553
 30
0.0
  0
ENDBLK
  5
468D3
330
4688E
100
AcDbEntity
  8
0
100
AcDbBlockEnd
  0
BLOCK
  5
4695A
330
46944
100
AcDbEntity
  8
0
100
AcDbBlockBegin
  2
*D11
 70
     1
 71
     0
 10
0.0
 20
0.0
 30
0.0
  3
*D11
  1

  0
LINE
  5
46B68
330
46944
100
AcDbEntity
  8
AM_5
 62
     3
370
    13
100
AcDbLine
 10
0.0
 20
-5.255786634991523
 30
0.0
 11
-0.000000000000003
 21
-54.54976351863502
 31
0.0
  0
LINE
  5
46B69
330
46944
100
AcDbEntity
  8
AM_5
 62
     3
370
    13
100
AcDbLine
 10
300.0
 20
5.999999999999943
 30
0.0
 11
300.0
 21
-54.54976351863502
 31
0.0
  0
LINE
  5
46B6A
330
46944
100
AcDbEntity
  8
AM_5
 62
     3
370
    13
100
AcDbLine
 10
2.499999999999997
 20
-53.54976351863502
 30
0.0
 11
297.5
 21
-53.54976351863502
 31
0.0
  0
INSERT
  5
46B6B
330
46944
100
AcDbEntity
  8
AM_5
 62
     3
370
    13
100
AcDbBlockReference
  2
_Open30
 10
-0.000000000000003
 20
-53.54976351863502
 30
0.0
 41
2.5
 42
2.5
 43
2.5
 50
180.0
  0
INSERT
  5
46B6C
330
46944
100
AcDbEntity
  8
AM_5
 62
     3
370
    13
100
AcDbBlockReference
  2
_Open30
 10
300.0
 20
-53.54976351863502
 30
0.0
 41
2.5
 42
2.5
 43
2.5
  0
MTEXT
  5
46B6D
330
46944
100
AcDbEntity
  8
AM_5
 62
     2
100
AcDbMText
 10
150.0
 20
-50.14976351863502
 30
0.0
 40
3.8
 41
0.0
 71
     5
 72
     1
  1
300
 73
     1
 44
1.0
  0
POINT
  5
46B6E
330
46944
100
AcDbEntity
  8
Defpoints
 62
     0
100
AcDbPoint
 10
0.0
 20
-5.255786634991523
 30
0.0
  0
POINT
  5
46B6F
330
46944
100
AcDbEntity
  8
Defpoints
 62
     0
100
AcDbPoint
 10
300.0
 20
5.999999999999943
 30
0.0
  0
POINT
  5
46B70
330
46944
100
AcDbEntity
  8
Defpoints
 62
     0
100
AcDbPoint
 10
300.0
 20
-53.54976351863502
 30
0.0
  0
ENDBLK
  5
4695B
330
46944
100
AcDbEntity
  8
0
100
AcDbBlockEnd
  0
ENDSEC
  0
SECTION
  2
ENTITIES
  0
DIMENSION
  5
42D54
330
1F
100
AcDbEntity
  8
AM_5
100
AcDbDimension
  2
*D3
 10
217.8758004435722
 20
-16.37358865081967
 30
0.0
 11
202.8758004435722
 21
-12.97358865081967
 31
0.0
 70
    32
  1
<>
 71
     5
 42
30.0
  3
AM_JIS$0
100
AcDbAlignedDimension
 13
187.8758004435722
 23
14.43223563716992
 33
0.0
 14
217.8758004435722
 24
14.43223563716992
 34
0.0
100
AcDbRotatedDimension
1001
GENIUS_GENDTOL_13
1000

1000
h7
1000

1040
0.0
1001
ACAD
1000
DSTYLE
1002
{
1070
   271
1070
     0
1002
}
  0
LINE
  5
433FB
330
1F
100
AcDbEntity
  8
AM_0
100
AcDbLine
 10
0.2191526956341932
 20
-134.1855991555337
 30
0.0
 11
0.0000027560060971
 21
-132.1020709493554
 31
0.0
  0
LINE
  5
433FC
330
1F
100
AcDbEntity
  8
AM_0
100
AcDbLine
 10
300.0
 20
-118.1159532550524
 30
0.0
 11
299.0
 21
-117.1159532550524
 31
0.0
  0
LINE
  5
433FD
330
1F
100
AcDbEntity
  8
AM_0
100
AcDbLine
 10
300.0
 20
-146.1159532550524
 30
0.0
 11
299.0
 21
-147.1159532550524
 31
0.0
  0
LINE
  5
433FE
330
1F
100
AcDbEntity
  8
AM_0
100
AcDbLine
 10
25.0
 20
-147.8659532550523
 30
0.0
 11
22.12084632488518
 21
-149.5282334044182
 31
0.0
  0
LINE
  5
433FF
330
1F
100
AcDbEntity
  8
AM_0
100
AcDbLine
 10
2.796856857678222
 20
-149.6159532550524
 30
0.0
 11
21.81773364453375
 21
-149.6159532550524
 31
0.0
  0
LINE
  5
43400
330
1F
100
AcDbEntity
  8
AM_0
100
AcDbLine
 10
50.0
 20
-147.8659532550535
 30
0.0
 11
50.25
 21
-148.1159532550523
 31
0.0
  0
LINE
  5
43401
330
1F
100
AcDbEntity
  8
AM_0
100
AcDbLine
 10
25.0
 20
-147.8659532550529
 30
0.0
 11
50.0
 21
-147.8659532550529
 31
0.0
  0
LINE
  5
43402
330
1F
100
AcDbEntity
  8
AM_0
100
AcDbLine
 10
50.25
 20
-148.1159532550523
 30
0.0
 11
52.99999999999989
 21
-148.1159532550523
 31
0.0
  0
ELLIPSE
  5
43403
330
1F
100
AcDbEntity
  8
AM_0
100
AcDbEllipse
 10
5.133659271941042
 20
-132.295458146425
 30
0.0
 11
-1.992382325654841
 21
0.1743922831383573
 31
0.0
210
0.0
220
0.0
230
1.0
 40
0.0347688607281565
 41
1.192685027912559
 42
7.475870335092142
  0
LINE
  5
43404
330
1F
100
AcDbEntity
  8
AM_0
100
AcDbLine
 10
0.5537971357091465
 20
-136.8949538452119
 30
0.0
 11
3.723064580644405
 21
-137.1154698619562
 31
0.0
  0
LINE
  5
43405
330
1F
100
AcDbEntity
  8
AM_0
100
AcDbLine
 10
8.709664465876585
 20
-132.7308100256592
 30
0.0
 11
0.5793211832137786
 21
-132.1651048756183
 31
0.0
  0
ELLIPSE
  5
43406
330
1F
100
AcDbEntity
  8
AM_0
100
AcDbEllipse
 10
0.398478310408791
 20
-132.1368549173195
 30
0.0
 11
-0.3984764651309682
 21
0.03487845662767146
 31
0.0
210
0.0
220
0.0
230
1.0
 40
0.0347688607281565
 41
6.233692712483301
 42
8.328087814876469
  0
LINE
  5
43407
330
1F
100
AcDbEntity
  8
AM_0
100
AcDbLine
 10
1.406109769007344
 20
-131.6865271392444
 30
0.0
 11
10.38554254340204
 21
-132.6759134884837
 31
0.0
  0
LINE
  5
43408
330
1F
100
AcDbEntity
  8
AM_0
100
AcDbLine
 10
0.0005497774761807
 20
-132.1013337508096
 30
0.0
 11
0.7910955759471108
 21
-131.6437347645233
 31
0.0
  0
LINE
  5
43409
330
1F
100
AcDbEntity
  8
AM_0
100
AcDbLine
 10
0.2191526956322605
 20
-134.1855991555743
 30
0.0
 11
0.5537971357091465
 21
-136.8949538452119
 31
0.0
  0
ELLIPSE
  5
4340A
330
1F
100
AcDbEntity
  8
AM_0
100
AcDbEllipse
 10
1.189024108879721
 20
-131.6792559310333
 30
0.0
 11
-0.3984764651309682
 21
0.03487845662767146
 31
0.0
210
0.0
220
0.0
230
1.0
 40
0.0347688607281565
 41
4.13929761009011
 42
6.233692712483286
  0
SPLINE
  5
4340B
330
1F
100
AcDbEntity
  8
AM_0
100
AcDbSpline
210
0.0
220
0.0
230
1.0
 70
    28
 71
     2
 72
     6
 73
     3
 74
     0
 42
0.0000000001
 43
0.0000000001
 40
0.0
 40
0.0
 40
0.0
 40
5.656854249492346
 40
5.656854249492346
 40
5.656854249492346
 10
298.0
 20
-117.1159532550524
 30
0.0
 41
1.0
 10
299.0
 20
-117.1159532550524
 30
0.0
 41
1.033333333333333
 10
299.0
 20
-117.1159532550524
 30
0.0
 41
1.033333333333333
  0
LINE
  5
4340C
330
1F
100
AcDbEntity
  8
AM_0
100
AcDbLine
 10
300.0
 20
-146.1159532550524
 30
0.0
 11
300.0
 21
-118.1159532550524
 31
0.0
  0
SPLINE
  5
4340D
330
1F
100
AcDbEntity
  8
AM_0
100
AcDbSpline
210
0.0
220
0.0
230
1.0
 70
    28
 71
     2
 72
     6
 73
     3
 74
     0
 42
0.0000000001
 43
0.0000000001
 40
0.0
 40
0.0
 40
0.0
 40
5.656854249492346
 40
5.656854249492346
 40
5.656854249492346
 10
298.0
 20
-147.1159532550524
 30
0.0
 41
1.0
 10
299.0
 20
-147.1159532550524
 30
0.0
 41
1.033333333333333
 10
299.0
 20
-147.1159532550524
 30
0.0
 41
1.033333333333333
  0
LINE
  5
4340E
330
1F
100
AcDbEntity
  8
AM_0
100
AcDbLine
 10
20.86585540237797
 20
-148.6925910697404
 30
0.0
 11
20.86585540237797
 21
-141.5928952529237
 31
0.0
  0
LINE
  5
4340F
330
1F
100
AcDbEntity
  8
AM_0
100
AcDbLine
 10
11.0
 20
-141.5053299866665
 30
0.0
 11
11.0
 21
-133.0421570842035
 31
0.0
  0
ELLIPSE
  5
43410
330
1F
100
AcDbEntity
  8
AM_0
100
AcDbEllipse
 10
-46.69259798567634
 20
-132.1159532550523
 30
0.0
 11
217.2019281287881
 21
-18.98859928268132
 31
0.0
210
0.0
220
0.0
230
0.9999999999999999
 40
0.0030299052858609
 41
4.932295558796292
 42
4.946897425289515
  0
ELLIPSE
  5
43411
330
1F
100
AcDbEntity
  8
AM_0
100
AcDbEllipse
 10
7.929999354331926
 20
-132.1159532550524
 30
0.0
 11
217.2019281287932
 21
-18.98859928268132
 31
0.0
210
0.0
220
0.0
230
0.9999999999999999
 40
0.0030299052858607
 41
4.695186573198688
 42
4.725073897012424
  0
LINE
  5
43412
330
1F
100
AcDbEntity
  8
AM_0
100
AcDbLine
 10
8.709664465825313
 20
-132.7308100256557
 30
0.0
 11
4.136436964449445
 21
-132.4126071823201
 31
0.0
  0
SPLINE
  5
43413
330
1F
100
AcDbEntity
  8
AM_0
100
AcDbSpline
210
0.0
220
0.0
230
1.0
 70
     8
 71
     3
 72
    12
 73
     8
 74
     0
 42
0.0000000001
 43
0.0000000001
 40
53.95706693381668
 40
53.95706693381668
 40
53.95706693381668
 40
53.95706693381668
 40
55.15728646787652
 40
55.15728646787652
 40
56.94389856765537
 40
56.94389856765537
 40
57.649745681352
 40
57.649745681352
 40
57.649745681352
 40
57.649745681352
 10
14.78813940733721
 20
-132.6440720160361
 30
0.0
 10
14.37631210941174
 20
-132.7565561449709
 30
0.0
 10
13.95907226618442
 20
-132.8457465266721
 30
0.0
 10
12.92330661940957
 20
-133.0104059761493
 30
0.0
 10
12.30595293908209
 20
-133.0575114787625
 30
0.0
 10
11.47829472119065
 20
-133.061121551049
 30
0.0
 10
11.24032799649615
 20
-133.0553147976009
 30
0.0
 10
11.0
 20
-133.0421570842035
 30
0.0
  0
SPLINE
  5
43414
330
1F
100
AcDbEntity
  8
AM_0
100
AcDbSpline
210
0.0
220
0.0
230
1.0
 70
     8
 71
     3
 72
     8
 73
     4
 74
     0
 42
0.0000000001
 43
0.0000000001
 40
2.33987991679507
 40
2.33987991679507
 40
2.33987991679507
 40
2.33987991679507
 40
2.699079831866277
 40
2.699079831866277
 40
2.699079831866277
 40
2.699079831866277
 10
11.0
 20
-133.0421570842035
 30
0.0
 10
10.87649678614821
 20
-133.0348433476268
 30
0.0
 10
10.75230043968395
 20
-133.0257621933673
 30
0.0
 10
10.62758478742353
 20
-133.0148639180441
 30
0.0
  0
ELLIPSE
  5
43415
330
1F
100
AcDbEntity
  8
AM_0
100
AcDbEllipse
 10
10.55064056066931
 20
-122.9185157183773
 30
0.0
 11
5.132180094279659
 21
8.811548949253236
 31
0.0
210
0.0
220
0.0
230
1.0
 40
0.8497800477489704
 41
3.538236669602332
 42
3.938762244440017
  0
ELLIPSE
  5
43416
330
1F
100
AcDbEntity
  8
AM_0
100
AcDbEllipse
 10
1.130697057135421
 20
-121.5233734943665
 30
0.0
 11
18.33826940679454
 21
-3.82268850978708
 31
0.0
210
0.0
220
0.0
230
1.0
 40
0.5315325824464283
 41
4.891189352393607
 42
5.379025565191729
  0
SPLINE
  5
43417
330
1F
100
AcDbEntity
  8
AM_0
100
AcDbSpline
210
0.0
220
0.0
230
1.0
 70
     8
 71
     3
 72
    10
 73
     6
 74
     0
 42
0.0000000001
 43
0.0000000001
 40
11.03168449882043
 40
11.03168449882043
 40
11.03168449882043
 40
11.03168449882043
 40
11.17982882102117
 40
11.17982882102117
 40
11.56901532804787
 40
11.56901532804787
 40
11.56901532804787
 40
11.56901532804787
 10
13.63664531371228
 20
-131.7603775393359
 30
0.0
 10
13.58952233466653
 20
-131.7818891329938
 30
0.0
 10
13.5418031619904
 20
-131.8027450942921
 30
0.0
 10
13.36722763369039
 20
-131.8757495636434
 30
0.0
 10
13.2377107384275
 20
-131.9236268952412
 30
0.0
 10
13.10878530045648
 20
-131.9656875065637
 30
0.0
  0
LINE
  5
43418
330
1F
100
AcDbEntity
  8
AM_0
100
AcDbLine
 10
4.136436964449331
 20
-132.4126071823201
 30
0.0
 11
4.136262477968444
 21
-132.4473236474873
 31
0.0
  0
ELLIPSE
  5
43419
330
1F
100
AcDbEntity
  8
AM_0
100
AcDbEllipse
 10
4.110588921243789
 20
-132.1159532550524
 30
0.0
 11
-1.661165955758918
 21
-18.99999940822924
 31
0.0
210
0.0
220
0.0
230
1.0
 40
0.0028546673640366
 41
1.301893626412385
 42
1.553604478505456
  0
LINE
  5
4341A
330
1F
100
AcDbEntity
  8
AM_0
100
AcDbLine
 10
3.721739855305259
 20
-137.1306044728723
 30
0.0
 11
3.721550267036037
 21
-137.1683256447967
 31
0.0
  0
LINE
  5
4341B
330
1F
100
AcDbEntity
  8
AM_0
100
AcDbLine
 10
3.896026697546176
 20
-135.1394267795363
 30
0.0
 11
4.136436964449331
 21
-132.4126071823201
 31
0.0
  0
LINE
  5
4341C
330
1F
100
AcDbEntity
  8
AM_0
100
AcDbLine
 10
3.721739855305259
 20
-137.1306044728723
 30
0.0
 11
3.896026697546176
 21
-135.1394267795363
 31
0.0
  0
ELLIPSE
  5
4341D
330
1F
100
AcDbEntity
  8
AM_0
100
AcDbEllipse
 10
8.498257985462715
 20
-122.6145472721312
 30
0.0
 11
11.85884375120663
 21
-1.107578290137483
 31
0.0
210
0.0
220
0.0
230
1.0
 40
0.839086743663837
 41
5.117797763141358
 42
5.18861891138928
  0
LINE
  5
4341E
330
1F
100
AcDbEntity
  8
AM_0
100
AcDbLine
 10
0.8273383632695186
 20
-131.6227560144357
 30
0.0
 11
2.392652863740523
 21
-131.795228022183
 31
0.0
  0
ELLIPSE
  5
4341F
330
1F
100
AcDbEntity
  8
AM_0
100
AcDbEllipse
 10
6.122331823874333
 20
-122.2626603517988
 30
0.0
 11
11.85884375120664
 21
-1.107578290137487
 31
0.0
210
0.0
220
0.0
230
1.0
 40
0.839086743663837
 41
5.206341897726022
 42
5.240870963919242
  0
LINE
  5
43420
330
1F
100
AcDbEntity
  8
AM_0
100
AcDbLine
 10
10.43851094123511
 20
-132.6687038093249
 30
0.0
 11
10.98520735724833
 21
-131.5599858580854
 31
0.0
  0
LINE
  5
43421
330
1F
100
AcDbEntity
  8
AM_0
100
AcDbLine
 10
10.87322640932393
 20
-131.5476473926128
 30
0.0
 11
10.98520735724833
 21
-131.5599858580854
 31
0.0
  0
ELLIPSE
  5
43422
330
1F
100
AcDbEntity
  8
AM_0
100
AcDbEllipse
 10
52.89197052550094
 20
-129.1894850965428
 30
0.0
 11
60.21702921799718
 21
0.8985922091894255
 31
0.0
210
0.0
220
0.0
230
1.0
 40
0.040148666932979
 41
3.93948472428443
 42
3.940718220899818
  0
LINE
  5
43423
330
1F
100
AcDbEntity
  8
AM_0
100
AcDbLine
 10
10.92646364880284
 20
-131.548934286495
 30
0.0
 11
10.98520735724833
 21
-131.5599858580854
 31
0.0
  0
SPLINE
  5
43424
330
1F
100
AcDbEntity
  8
AM_0
100
AcDbSpline
210
0.0
220
0.0
230
1.0
 70
     8
 71
     3
 72
    18
 73
    14
 74
     0
 42
0.0000000001
 43
0.0000000001
 40
11.45348322777792
 40
11.45348322777792
 40
11.45348322777792
 40
11.45348322777792
 40
11.68728655212804
 40
11.68728655212804
 40
12.12154961502081
 40
12.12154961502081
 40
12.50707018198657
 40
12.50707018198657
 40
12.89259074895233
 40
12.89259074895233
 40
13.27811131591809
 40
13.27811131591809
 40
13.66363188288385
 40
13.66363188288385
 40
13.66363188288385
 40
13.66363188288385
 10
2.042265629096505
 20
-147.1407454377908
 30
0.0
 10
2.071716522794759
 20
-147.1802952233235
 30
0.0
 10
2.105090396990136
 20
-147.2184110981647
 30
0.0
 10
2.211009169399631
 20
-147.3223527578866
 30
0.0
 10
2.292748500330845
 20
-147.3838809575038
 30
0.0
 10
2.465577083185963
 20
-147.4861426040515
 30
0.0
 10
2.559377591497082
 20
-147.5312062915462
 30
0.0
 10
2.767894801687362
 20
-147.6103080632759
 30
0.0
 10
2.882610803375428
 20
-147.6443655073412
 30
0.0
 10
3.125292857277714
 20
-147.6988697925229
 30
0.0
 10
3.253541703175415
 20
-147.7193950132373
 30
0.0
 10
3.513933792135845
 20
-147.746302056056
 30
0.0
 10
3.646078836270362
 20
-147.7526846943749
 30
0.0
 10
3.774585691925608
 20
-147.7526846943749
 30
0.0
  0
SPLINE
  5
43425
330
1F
100
AcDbEntity
  8
AM_0
100
AcDbSpline
210
0.0
220
0.0
230
1.0
 70
     8
 71
     3
 72
    50
 73
    46
 74
     0
 42
0.0000000001
 43
0.0000000001
 40
0.0
 40
0.0
 40
0.0
 40
0.0
 40
0.3772591896387207
 40
0.3772591896387207
 40
0.7545183792774415
 40
0.7545183792774415
 40
1.131777568916162
 40
1.131777568916162
 40
1.509036758554883
 40
1.509036758554883
 40
1.972344233461077
 40
1.972344233461077
 40
2.435651708367271
 40
2.435651708367271
 40
2.898959183273465
 40
2.898959183273465
 40
3.362266658179659
 40
3.362266658179659
 40
3.853289669692416
 40
3.853289669692416
 40
4.344312681205173
 40
4.344312681205173
 40
5.326358704230687
 40
5.326358704230687
 40
5.697422729441584
 40
5.697422729441584
 40
6.068486754652482
 40
6.068486754652482
 40
6.43955077986338
 40
6.43955077986338
 40
6.810614805074277
 40
6.810614805074277
 40
7.230796573392674
 40
7.230796573392674
 40
7.650978341711071
 40
7.650978341711071
 40
8.071160110029469
 40
8.071160110029469
 40
8.491341878347866
 40
8.491341878347866
 40
9.437919620898798
 40
9.437919620898798
 40
9.911208492174264
 40
9.911208492174264
 40
10.13367091864967
 40
10.13367091864967
 40
10.13367091864967
 40
10.13367091864967
 10
3.774585691925608
 20
-147.7526846943749
 30
0.0
 10
3.900338755138591
 20
-147.7526846943749
 30
0.0
 10
4.029750599453564
 20
-147.7465809371752
 30
0.0
 10
4.28615943777902
 20
-147.7213509957027
 30
0.0
 10
4.413159333389672
 20
-147.7022262111491
 30
0.0
 10
4.656029386648925
 20
-147.651903630365
 30
0.0
 10
4.772112786785669
 20
-147.6206521736756
 30
0.0
 10
4.986641931469421
 20
-147.5485524419675
 30
0.0
 10
5.085089508294686
 20
-147.5076905062045
 30
0.0
 10
5.279945935566161
 20
-147.4109671331584
 30
0.0
 10
5.379128576576704
 20
-147.3497226276565
 30
0.0
 10
5.553433642798836
 20
-147.2136450547504
 30
0.0
 10
5.628575176222967
 20
-147.1388007046064
 30
0.0
 10
5.751131445101692
 20
-146.979528985667
 30
0.0
 10
5.798631770769703
 20
-146.8949980730575
 30
0.0
 10
5.866042682541206
 20
-146.7217537616882
 30
0.0
 10
5.885956295463416
 20
-146.6330372842155
 30
0.0
 10
5.902469019227738
 20
-146.4533019983884
 30
0.0
 10
5.898306160875336
 20
-146.3549128394421
 30
0.0
 10
5.86116659711729
 20
-146.1525798727204
 30
0.0
 10
5.828224280622408
 20
-146.0486340835545
 30
0.0
 10
5.68621225369975
 20
-145.739156800819
 30
0.0
 10
5.532818064351432
 20
-145.5356712448778
 30
0.0
 10
5.259394637251262
 20
-145.3013349364331
 30
0.0
 10
5.173392969904171
 20
-145.2378592625162
 30
0.0
 10
4.982000304082249
 20
-145.1217278848084
 30
0.0
 10
4.876585847551382
 20
-145.0691037514029
 30
0.0
 10
4.651842278460435
 20
-144.9822981052616
 30
0.0
 10
4.532184493400109
 20
-144.9480536128384
 30
0.0
 10
4.286745322590264
 20
-144.9025092770314
 30
0.0
 10
4.160954089431129
 20
-144.8912423601409
 30
0.0
 10
3.897205491588011
 20
-144.8912423601409
 30
0.0
 10
3.756023139839385
 20
-144.9055871623911
 30
0.0
 10
3.480760852797403
 20
-144.9602956611884
 30
0.0
 10
3.346666614969649
 20
-145.0006121309299
 30
0.0
 10
3.093385665922483
 20
-145.100572155977
 30
0.0
 10
2.973966453349476
 20
-145.160260072839
 30
0.0
 10
2.755282978956188
 20
-145.2904403734366
 30
0.0
 10
2.656012756382893
 20
-145.3609133778768
 30
0.0
 10
2.371482499627973
 20
-145.5917838344742
 30
0.0
 10
2.202171459232545
 20
-145.7813863272072
 30
0.0
 10
2.023418102609753
 20
-146.0723418129663
 30
0.0
 10
1.976043292678924
 20
-146.1704443491356
 30
0.0
 10
1.925856487794817
 20
-146.3116775733308
 30
0.0
 10
1.912713411777986
 20
-146.3563930455711
 30
0.0
 10
1.902464853147194
 20
-146.4003569439024
 30
0.0
  0
LINE
  5
43426
330
1F
100
AcDbEntity
  8
AM_0
100
AcDbLine
 10
1.137066120559325
 20
-141.5053299866665
 30
0.0
 11
11.0
 21
-141.5053299866665
 31
0.0
  0
SPLINE
  5
43427
330
1F
100
AcDbEntity
  8
AM_0
100
AcDbSpline
210
0.0
220
0.0
230
1.0
 70
     8
 71
     3
 72
    14
 73
    10
 74
     0
 42
0.0000000001
 43
0.0000000001
 40
2.176604663003818
 40
2.176604663003818
 40
2.176604663003818
 40
2.176604663003818
 40
4.580360128714357
 40
4.580360128714357
 40
9.160720257428714
 40
9.160720257428714
 40
13.74108038614307
 40
13.74108038614307
 40
16.96020875723031
 40
16.96020875723031
 40
16.96020875723031
 40
16.96020875723031
 10
11.0
 20
-141.5053299866665
 30
0.0
 10
11.39996077749959
 20
-142.1028678865704
 30
0.0
 10
11.83337238917352
 20
-142.668591515685
 30
0.0
 10
13.17439253483349
 20
-144.2153994468382
 30
0.0
 10
14.15638303515209
 20
-145.1082487504839
 30
0.0
 10
16.24571825775206
 20
-146.6383614718537
 30
0.0
 10
17.35376752720572
 20
-147.2758525643947
 30
0.0
 10
19.27207300717851
 20
-148.1497436785232
 30
0.0
 10
20.0729046428537
 20
-148.4492923827538
 30
0.0
 10
20.86585540237797
 20
-148.6925910697404
 30
0.0
  0
SPLINE
  5
43428
330
1F
100
AcDbEntity
  8
AM_0
100
AcDbSpline
210
0.0
220
0.0
230
1.0
 70
     8
 71
     3
 72
    14
 73
    10
 74
     0
 42
0.0000000001
 43
0.0000000001
 40
6.776016414151884
 40
6.776016414151884
 40
6.776016414151884
 40
6.776016414151884
 40
7.829475300462002
 40
7.829475300462002
 40
10.439300400616
 40
10.439300400616
 40
12.91890541025986
 40
12.91890541025986
 40
14.02953541791671
 40
14.02953541791671
 40
14.02953541791671
 40
14.02953541791671
 10
20.86585540237797
 20
-148.6925910697403
 30
0.0
 10
20.92463660101316
 20
-148.8116109677565
 30
0.0
 10
20.98396146165692
 20
-148.9188919529616
 30
0.0
 10
21.19107096508719
 20
-149.2506342416356
 30
0.0
 10
21.34012359230371
 20
-149.4132443504854
 30
0.0
 10
21.6235295606707
 20
-149.5985257991239
 30
0.0
 10
21.76934235529211
 20
-149.6350332621467
 30
0.0
 10
21.98546006660433
 20
-149.5932790137838
 30
0.0
 10
22.0530081195152
 20
-149.5672544425102
 30
0.0
 10
22.12084632488518
 20
-149.5282334044182
 30
0.0
  0
ELLIPSE
  5
43429
330
1F
100
AcDbEntity
  8
AM_0
100
AcDbEllipse
 10
0.003211004423747
 20
-121.3563869940194
 30
0.0
 11
-0.8605577830722472
 21
10.23386170365755
 31
0.0
210
0.0
220
0.0
230
1.0
 40
0.0978086682686627
 41
3.187704728256884
 42
3.574965401970704
  0
LINE
  5
4342A
330
1F
100
AcDbEntity
  8
AM_0
100
AcDbLine
 10
0.8273383632695186
 20
-131.6227560144357
 30
0.0
 11
0.9089940420657285
 21
-131.5754904974803
 31
0.0
  0
LINE
  5
4342B
330
1F
100
AcDbEntity
  8
AM_0
100
AcDbLine
 10
0.8273383632695186
 20
-131.6227560144357
 30
0.0
 11
0.8289878121472611
 21
-131.6417979650657
 31
0.0
  0
ELLIPSE
  5
4342C
330
1F
100
AcDbEntity
  8
AM_0
100
AcDbEllipse
 10
1.082767417571176
 20
-132.1159532550524
 30
0.0
 11
1.972541475496355
 21
-18.9996907432615
 31
0.0
210
0.0
220
0.0
230
1.0
 40
0.054957057671211
 41
4.96094854965337
 42
5.223572155107226
  0
ELLIPSE
  5
4342D
330
1F
100
AcDbEntity
  8
AM_0
100
AcDbEllipse
 10
0.9855591084068465
 20
-132.1159532550524
 30
0.0
 11
-1.816814516904542
 21
17.49971515826722
 31
0.0
210
0.0
220
0.0
230
0.9999999999999999
 40
0.054957057671211
 41
2.131417409916097
 42
2.519983259614598
  0
ELLIPSE
  5
4342E
330
1F
100
AcDbEntity
  8
AM_0
100
AcDbEllipse
 10
2.998563671505053
 20
-156.6883192371715
 30
0.0
 11
-1.092510024233409
 21
10.42149663549593
 31
0.0
210
0.0
220
0.0
230
1.0
 40
0.0105327973282414
 41
5.869631762609046
 42
6.178747991807558
  0
ELLIPSE
  5
4342F
330
1F
100
AcDbEntity
  8
AM_0
100
AcDbEllipse
 10
0.9855591084068465
 20
-132.1159532550524
 30
0.0
 11
-1.816814516904542
 21
17.49971515826722
 31
0.0
210
0.0
220
0.0
230
0.9999999999999999
 40
0.054957057671211
 41
2.59754433900628
 42
3.135887092337708
  0
LINE
  5
43430
330
1F
100
AcDbEntity
  8
AM_0
100
AcDbLine
 10
35.40914690948534
 20
-117.1159532550524
 30
0.0
 11
42.00243160890557
 21
-117.1159532550524
 31
0.0
  0
ELLIPSE
  5
43431
330
1F
100
AcDbEntity
  8
AM_0
100
AcDbEllipse
 10
13.2668547769299
 20
-131.2945267055957
 30
0.0
 11
-2.067377159222773
 21
-0.9007114806492702
 31
0.0
210
0.0
220
0.0
230
1.0
 40
0.2554712297403843
 41
1.638670843211245
 42
4.52481676037253
  0
LINE
  5
43432
330
1F
100
AcDbEntity
  8
AM_0
100
AcDbLine
 10
11.2992679459544
 20
-131.414199894217
 30
0.0
 11
13.42629760543218
 21
-130.6076757475883
 31
0.0
  0
SPLINE
  5
43433
330
1F
100
AcDbEntity
  8
AM_0
100
AcDbSpline
210
0.0
220
0.0
230
1.0
 70
     8
 71
     3
 72
    14
 73
    10
 74
     0
 42
0.0000000001
 43
0.0000000001
 40
6.217020602193946
 40
6.217020602193946
 40
6.217020602193946
 40
6.217020602193946
 40
7.019458500974644
 40
7.019458500974644
 40
9.359278001299526
 40
9.359278001299526
 40
10.62684854030286
 40
10.62684854030286
 40
11.56645345505805
 40
11.56645345505805
 40
11.56645345505805
 40
11.56645345505805
 10
25.0
 20
-138.0231660671267
 30
0.0
 10
24.82839581677013
 20
-138.2446976129868
 30
0.0
 10
24.64950889518889
 20
-138.4600273877773
 30
0.0
 10
23.92618031145651
 20
-139.2766838582311
 30
0.0
 10
23.33766447483083
 20
-139.8268185704155
 30
0.0
 10
22.4136637826839
 20
-140.5694704338615
 30
0.0
 10
22.06434358326646
 20
-140.8274671791701
 30
0.0
 10
21.42873214914766
 20
-141.2540734864752
 30
0.0
 10
21.14954872715441
 20
-141.4286037451156
 30
0.0
 10
20.86585540237797
 20
-141.5928952529237
 30
0.0
  0
SPLINE
  5
43434
330
1F
100
AcDbEntity
  8
AM_0
100
AcDbSpline
210
0.0
220
0.0
230
1.0
 70
     8
 71
     3
 72
    24
 73
    20
 74
     0
 42
0.0000000001
 43
0.0000000001
 40
20.36583180730139
 40
20.36583180730139
 40
20.36583180730139
 40
20.36583180730139
 40
21.52919001473331
 40
21.52919001473331
 40
22.36201740114357
 40
22.36201740114357
 40
23.19484478755383
 40
23.19484478755383
 40
24.02767217396409
 40
24.02767217396409
 40
24.86049956037434
 40
24.86049956037434
 40
26.73583799251351
 40
26.73583799251351
 40
28.61117642465268
 40
28.61117642465268
 40
30.48651485679185
 40
30.48651485679185
 40
31.83826750530379
 40
31.83826750530379
 40
31.83826750530379
 40
31.83826750530379
 10
20.86585540237797
 20
-141.5928952529237
 30
0.0
 10
20.49842535656194
 20
-141.4612177856969
 30
0.0
 10
20.14780849043302
 20
-141.3113438999376
 30
0.0
 10
19.58458936530872
 20
-141.0309926241361
 30
0.0
 10
19.34451759851152
 20
-140.8988114576361
 30
0.0
 10
18.86982971246823
 20
-140.6061480161663
 30
0.0
 10
18.63522074610614
 20
-140.4456409808866
 30
0.0
 10
18.18423039402342
 20
-140.102169104802
 30
0.0
 10
17.96775785488717
 20
-139.9191251266167
 30
0.0
 10
17.562363962311
 20
-139.5403397771892
 30
0.0
 10
17.3734264488719
 20
-139.3446010088912
 30
0.0
 10
16.813767479749
 20
-138.7099684225877
 30
0.0
 10
16.45841145886652
 20
-138.2129048895395
 30
0.0
 10
15.84394850054514
 20
-137.1282997881839
 30
0.0
 10
15.58459357082347
 20
-136.5408045946639
 30
0.0
 10
15.17385179475866
 20
-135.3144467591867
 30
0.0
 10
15.02189574035208
 20
-134.6745723341897
 30
0.0
 10
14.85127440105225
 20
-133.5675007749048
 30
0.0
 10
14.80709985617364
 20
-133.1019829133993
 30
0.0
 10
14.78813940733721
 20
-132.6440720160361
 30
0.0
  0
SPLINE
  5
43435
330
1F
100
AcDbEntity
  8
AM_0
100
AcDbSpline
210
0.0
220
0.0
230
1.0
 70
     8
 71
     3
 72
    10
 73
     6
 74
     0
 42
0.0000000001
 43
0.0000000001
 40
6.676641157581569
 40
6.676641157581569
 40
6.676641157581569
 40
6.676641157581569
 40
7.190689087808025
 40
7.190689087808025
 40
8.06516761616906
 40
8.06516761616906
 40
8.06516761616906
 40
8.06516761616906
 10
14.78813940733721
 20
-132.6440720160361
 30
0.0
 10
14.92068955557079
 20
-132.5865964652445
 30
0.0
 10
15.05316028012999
 20
-132.524911391735
 30
0.0
 10
15.40983547183578
 20
-132.3472504712274
 30
0.0
 10
15.63325855600988
 20
-132.2235046007424
 30
0.0
 10
15.85374820900154
 20
-132.0887419146673
 30
0.0
  0
ELLIPSE
  5
43436
330
1F
100
AcDbEntity
  8
AM_0
100
AcDbEllipse
 10
26.99999999999989
 20
-132.8786477524506
 30
0.0
 11
19.86384204910935
 21
8.667934912821279
 31
0.0
210
0.0
220
0.0
230
1.0
 40
0.2687790648385806
 41
1.686820039519829
 42
2.045188894347112
  0
LINE
  5
43437
330
1F
100
AcDbEntity
  8
AM_0
100
AcDbLine
 10
47.42896449904765
 20
-117.1159532550524
 30
0.0
 11
50.0
 21
-117.1159532550524
 31
0.0
  0
LINE
  5
43438
330
1F
100
AcDbEntity
  8
AM_0
100
AcDbLine
 10
50.0
 20
-117.8040710868575
 30
0.0
 11
50.0
 21
-117.1159532550524
 31
0.0
  0
SPLINE
  5
43439
330
1F
100
AcDbEntity
  8
AM_0
100
AcDbSpline
210
0.0
220
0.0
230
1.0
 70
    28
 71
     2
 72
     6
 73
     3
 74
     0
 42
0.0000000001
 43
0.0000000001
 40
0.0
 40
0.0
 40
0.0
 40
0.8052521306902443
 40
0.8052521306902443
 40
0.8052521306902443
 10
50.0
 20
-117.1159532550524
 30
0.0
 41
1.0
 10
50.11577370724298
 20
-117.1159532550524
 30
0.0
 41
1.000290718625246
 10
50.25
 20
-117.1159532550524
 30
0.0
 41
1.0
  0
ELLIPSE
  5
4343A
330
1F
100
AcDbEntity
  8
AM_0
100
AcDbEllipse
 10
43.53360508621699
 20
-120.045585634456
 30
0.0
 11
10.86231885995434
 21
4.337865395232497
 31
0.0
210
0.0
220
0.0
230
0.9999999999999999
 40
0.2812753902881604
 41
1.599481119284944
 42
1.603004607345664
  0
LINE
  5
4343B
330
1F
100
AcDbEntity
  8
AM_0
100
AcDbLine
 10
42.00243160890557
 20
-117.1159532550524
 30
0.0
 11
47.42896449904765
 21
-117.1159532550524
 31
0.0
  0
SPLINE
  5
4343C
330
1F
100
AcDbEntity
  8
AM_0
100
AcDbSpline
210
0.0
220
0.0
230
1.0
 70
     8
 71
     3
 72
    10
 73
     6
 74
     0
 42
0.0000000001
 43
0.0000000001
 40
6.444867723158374
 40
6.444867723158374
 40
6.444867723158374
 40
6.444867723158374
 40
8.592371031108685
 40
8.592371031108685
 40
9.577303856233987
 40
9.577303856233987
 40
9.577303856233987
 40
9.577303856233987
 10
47.42896449904765
 20
-117.1159532550524
 30
0.0
 10
48.08545040475428
 20
-117.2215428615035
 30
0.0
 10
48.70343036313545
 20
-117.3576187619477
 30
0.0
 10
49.52222368535684
 20
-117.6153716564839
 30
0.0
 10
49.76781885748846
 20
-117.7049701495722
 30
0.0
 10
50.0
 20
-117.8040710868575
 30
0.0
  0
SPLINE
  5
4343D
330
1F
100
AcDbEntity
  8
AM_0
100
AcDbSpline
210
0.0
220
0.0
230
1.0
 70
     8
 71
     3
 72
    10
 73
     6
 74
     0
 42
0.0000000001
 43
0.0000000001
 40
1.355219549374845
 40
1.355219549374845
 40
1.355219549374845
 40
1.355219549374845
 40
1.560633781066621
 40
1.560633781066621
 40
1.690343021323367
 40
1.690343021323367
 40
1.690343021323367
 40
1.690343021323367
 10
50.0
 20
-117.8040710868575
 30
0.0
 10
50.0513031732271
 20
-117.7644478606363
 30
0.0
 10
50.10251683034539
 20
-117.7253680131535
 30
0.0
 10
50.18577689819733
 20
-117.6626305523468
 30
0.0
 10
50.21793390995367
 20
-117.6385950583437
 30
0.0
 10
50.25
 20
-117.614825852363
 30
0.0
  0
SPLINE
  5
4343E
330
1F
100
AcDbEntity
  8
AM_0
100
AcDbSpline
210
0.0
220
0.0
230
1.0
 70
     8
 71
     3
 72
    10
 73
     6
 74
     0
 42
0.0000000001
 43
0.0000000001
 40
1.430924540809881
 40
1.430924540809881
 40
1.430924540809881
 40
1.430924540809881
 40
1.560633781066621
 40
1.560633781066621
 40
1.766048012758391
 40
1.766048012758391
 40
1.766048012758391
 40
1.766048012758391
 10
50.25
 20
-125.3544960119012
 30
0.0
 10
50.21793390995367
 20
-125.3793985071029
 30
0.0
 10
50.18577689819733
 20
-125.4039798343081
 30
0.0
 10
50.10251683034539
 20
-125.4666153703087
 30
0.0
 10
50.0513031732271
 20
-125.5041641113653
 30
0.0
 10
50.0
 20
-125.5408084806972
 30
0.0
  0
SPLINE
  5
4343F
330
1F
100
AcDbEntity
  8
AM_0
100
AcDbSpline
210
0.0
220
0.0
230
1.0
 70
     8
 71
     3
 72
    18
 73
    14
 74
     0
 42
0.0000000001
 43
0.0000000001
 40
2.232823194313995
 40
2.232823194313995
 40
2.232823194313995
 40
2.232823194313995
 40
3.862060353390322
 40
3.862060353390322
 40
5.793090530085483
 40
5.793090530085483
 40
7.724120706780644
 40
7.724120706780644
 40
9.460271226119662
 40
9.460271226119662
 40
11.19642174545868
 40
11.19642174545868
 40
12.22647821395859
 40
12.22647821395859
 40
12.22647821395859
 40
12.22647821395859
 10
32.77646545523771
 20
-128.5991640318474
 30
0.0
 10
32.21814132070358
 20
-128.5904253433292
 30
0.0
 10
31.64423483315386
 20
-128.5794418946996
 30
0.0
 10
30.37857538333014
 20
-128.5566029204293
 30
0.0
 10
29.68431563542583
 20
-128.5450864422916
 30
0.0
 10
28.31686529167928
 20
-128.5295952439501
 30
0.0
 10
27.643676725565
 20
-128.5256269010432
 30
0.0
 10
26.42128316022024
 20
-128.5256269010432
 30
0.0
 10
25.83225046741711
 20
-128.5287623163013
 30
0.0
 10
24.64473242184897
 20
-128.5407874402479
 30
0.0
 10
24.04624687468481
 20
-128.5496826673602
 30
0.0
 10
23.09386059995984
 20
-128.5660080772735
 30
0.0
 10
22.73945799176408
 20
-128.5725377386544
 30
0.0
 10
22.38639455994928
 20
-128.578989113917
 30
0.0
  0
ELLIPSE
  5
43440
330
1F
100
AcDbEntity
  8
AM_0
100
AcDbEllipse
 10
54.35389239456833
 20
-116.1159532550524
 30
0.0
 11
32.8002439593123
 21
12.0518535188069
 31
0.0
210
0.0
220
0.0
230
1.0
 40
0.1011288488397869
 41
1.920715901356004
 42
3.333250960479349
  0
ELLIPSE
  5
43441
330
1F
100
AcDbEntity
  8
AM_0
100
AcDbEllipse
 10
1.643522555212371
 20
-132.1159532550524
 30
0.0
 11
41.32830738873349
 21
15.1853354336967
 31
0.0
210
0.0
220
0.0
230
1.0
 40
0.1011288488397869
 41
0.5784261535170695
 42
0.6636937847254952
  0
LINE
  5
43442
330
1F
100
AcDbEntity
  8
AM_0
100
AcDbLine
 10
25.0
 20
-147.8659532550523
 30
0.0
 11
25.0
 21
-138.0231660671267
 31
0.0
  0
SPLINE
  5
43443
330
1F
100
AcDbEntity
  8
AM_0
100
AcDbSpline
210
0.0
220
0.0
230
1.0
 70
     8
 71
     3
 72
    41
 73
    37
 74
     0
 42
0.0000000001
 43
0.0000000001
 40
-3.631643516799437
 40
-3.631643516799437
 40
-3.631643516799437
 40
-3.631643516799437
 40
-3.21060840876315
 40
-3.21060840876315
 40
-2.140405605842098
 40
-2.140405605842098
 40
-1.070202802921045
 40
-1.070202802921045
 40
0.0
 40
0.0
 40
0.0
 40
1.070202802921048
 40
1.070202802921048
 40
2.140405605842097
 40
2.140405605842097
 40
3.210608408763145
 40
3.210608408763145
 40
4.280811211684194
 40
4.280811211684194
 40
5.308634046643459
 40
5.308634046643459
 40
6.336456881602723
 40
6.336456881602723
 40
7.234824778456736
 40
7.234824778456736
 40
8.133192675310749
 40
8.133192675310749
 40
9.031560572164761
 40
9.031560572164761
 40
9.929928469018773
 40
9.929928469018773
 40
10.82829636587281
 40
10.82829636587281
 40
11.72666426272684
 40
11.72666426272684
 40
11.84069997859491
 40
11.84069997859491
 40
11.84069997859491
 40
11.84069997859491
 10
32.77646545523771
 20
-128.5991640318474
 30
0.0
 10
32.86296982859244
 20
-128.7130875422842
 30
0.0
 10
32.94612027672144
 20
-128.8312344108587
 30
0.0
 10
33.22625374046368
 20
-129.2629878858299
 30
0.0
 10
33.40072333667752
 20
-129.5973902611886
 30
0.0
 10
33.68107159562942
 20
-130.2949322291267
 30
0.0
 10
33.78722169110904
 20
-130.6586784394216
 30
0.0
 10
33.92654239633862
 20
-131.3908200922427
 30
0.0
 10
33.95970545353885
 20
-131.759218987412
 30
0.0
 10
33.95970545353885
 20
-132.1159532550524
 30
0.0
 10
33.95970545353885
 20
-132.4726875226927
 30
0.0
 10
33.92654239633862
 20
-132.841086417862
 30
0.0
 10
33.78722169110904
 20
-133.5732280706831
 30
0.0
 10
33.68107159562942
 20
-133.936974280978
 30
0.0
 10
33.40072333667752
 20
-134.6345162489161
 30
0.0
 10
33.22625374046368
 20
-134.9689186242748
 30
0.0
 10
32.82417220017283
 20
-135.5886236031918
 30
0.0
 10
32.59653670077955
 20
-135.8739342760703
 30
0.0
 10
32.12398987996482
 20
-136.3724625722705
 30
0.0
 10
31.84915371829175
 20
-136.6187246290302
 30
0.0
 10
31.25845382539137
 20
-137.0581880186391
 30
0.0
 10
30.94267875869161
 20
-137.2516076145802
 30
0.0
 10
30.38041050631193
 20
-137.543588720746
 30
0.0
 10
30.09761920356323
 20
-137.6689586477938
 30
0.0
 10
29.50503995983547
 20
-137.8865599514273
 30
0.0
 10
29.1952581225919
 20
-137.9788218110852
 30
0.0
 10
28.56541826789862
 20
-138.1250012228443
 30
0.0
 10
28.24515643559516
 20
-138.1789887812715
 30
0.0
 10
27.61217490498621
 20
-138.2490552833527
 30
0.0
 10
27.29945596561788
 20
-138.2651401931782
 30
0.0
 10
26.70054403438189
 20
-138.2651401931782
 30
0.0
 10
26.38782509501357
 20
-138.2490552833527
 30
0.0
 10
25.75484356440461
 20
-138.1789887812715
 30
0.0
 10
25.43458173210115
 20
-138.1250012228443
 30
0.0
 10
25.07968695761019
 20
-138.0426337623146
 30
0.0
 10
25.03979373245556
 20
-138.0330510242797
 30
0.0
 10
25.0
 20
-138.0231660671267
 30
0.0
  0
LINE
  5
43444
330
1F
100
AcDbEntity
  8
AM_0
100
AcDbLine
 10
41.96430698933955
 20
-128.5991640316511
 30
0.0
 11
32.77646545523771
 21
-128.5991640316511
 31
0.0
  0
SPLINE
  5
43445
330
1F
100
AcDbEntity
  8
AM_0
100
AcDbSpline
210
0.0
220
0.0
230
1.0
 70
     8
 71
     3
 72
    14
 73
    10
 74
     0
 42
0.0000000001
 43
0.0000000001
 40
1.56624986973287
 40
1.56624986973287
 40
1.56624986973287
 40
1.56624986973287
 40
2.55118269485817
 40
2.55118269485817
 40
5.10236538971634
 40
5.10236538971634
 40
7.65354808457451
 40
7.65354808457451
 40
10.20473077943268
 40
10.20473077943268
 40
10.20473077943268
 40
10.20473077943268
 10
50.0
 20
-125.5408084806972
 30
0.0
 10
49.76781885748846
 20
-125.756517941988
 30
0.0
 10
49.52222368535684
 20
-125.9643997745595
 30
0.0
 10
48.59791185540644
 20
-126.6771135140606
 30
0.0
 10
47.85099706163737
 20
-127.12786349436
 30
0.0
 10
46.25864919960691
 20
-127.8589299610389
 30
0.0
 10
45.41200932682727
 20
-128.1394652251046
 30
0.0
 10
43.69005144661321
 20
-128.5096716487322
 30
0.0
 10
42.81470122095902
 20
-128.5991640316511
 30
0.0
 10
41.96430698933955
 20
-128.5991640316511
 30
0.0
  0
LINE
  5
43446
330
1F
100
AcDbEntity
  8
AM_0
100
AcDbLine
 10
50.0
 20
-147.8659532550535
 30
0.0
 11
50.0
 21
-125.5408084806972
 31
0.0
  0
LINE
  5
43447
330
1F
100
AcDbEntity
  8
AM_0
100
AcDbLine
 10
10.60016661814609
 20
-125.2487324389527
 30
0.0
 11
2.292478872625679
 21
-130.0802479725048
 31
0.0
  0
ELLIPSE
  5
43448
330
1F
100
AcDbEntity
  8
AM_0
100
AcDbEllipse
 10
-1.594351662427812
 20
-121.1197797223101
 30
0.0
 11
0.001571042830033987
 21
10.02732219207432
 31
0.0
210
0.0
220
0.0
230
0.9999999999999998
 40
0.8636658341939978
 41
3.470871936037574
 42
3.607210037922064
  0
ELLIPSE
  5
43449
330
1F
100
AcDbEntity
  8
AM_0
100
AcDbEllipse
 10
26.81321271155412
 20
-116.993707687639
 30
0.0
 11
11.0620624219995
 21
4.417632956550414
 31
0.0
210
0.0
220
0.0
230
1.0
 40
0.2812753902881603
 41
4.479054312812218
 42
5.217403715778339
  0
ELLIPSE
  5
4344A
330
1F
100
AcDbEntity
  8
AM_0
100
AcDbEllipse
 10
36.11389783650532
 20
-113.6159532550524
 30
0.0
 11
32.8002439593123
 21
12.0518535188069
 31
0.0
210
0.0
220
0.0
230
1.0
 40
0.1011288488397869
 41
3.784860852921513
 42
4.344811214275972
  0
LINE
  5
4344B
330
1F
100
AcDbEntity
  8
AM_0
100
AcDbLine
 10
50.25
 20
-148.1159532550523
 30
0.0
 11
50.25
 21
-125.3544960119012
 31
0.0
  0
SPLINE
  5
4344C
330
1F
100
AcDbEntity
  8
AM_0
100
AcDbSpline
210
0.0
220
0.0
230
1.0
 70
     8
 71
     3
 72
    22
 73
    18
 74
     0
 42
0.0000000001
 43
0.0000000001
 40
1.34016745916002
 40
1.34016745916002
 40
1.34016745916002
 40
1.34016745916002
 40
1.834702042943613
 40
1.834702042943613
 40
3.669404085887225
 40
3.669404085887225
 40
5.504106128830838
 40
5.504106128830838
 40
7.338808171774451
 40
7.338808171774451
 40
9.173510214718064
 40
9.173510214718064
 40
11.00821225766168
 40
11.00821225766168
 40
12.84291430060529
 40
12.84291430060529
 40
13.33744888438889
 40
13.33744888438889
 40
13.33744888438889
 40
13.33744888438889
 10
50.25
 20
-117.614825852363
 30
0.0
 10
50.36661259622633
 20
-117.6675818904932
 30
0.0
 10
50.4803514683183
 20
-117.7231763910773
 30
0.0
 10
51.00013260431797
 20
-117.9988620964038
 30
0.0
 10
51.36233595596843
 20
-118.2570970651433
 30
0.0
 10
51.95282588248392
 20
-118.8571481945693
 30
0.0
 10
52.1819189754118
 20
-119.1999477659148
 30
0.0
 10
52.48689364235156
 20
-119.9562167738456
 30
0.0
 10
52.56276649697634
 20
-120.3698013373939
 30
0.0
 10
52.56276649697634
 20
-121.2346881747421
 30
0.0
 10
52.48689364235156
 20
-121.6990779344705
 30
0.0
 10
52.1819189754118
 20
-122.6530105524065
 30
0.0
 10
51.95282588248392
 20
-123.1424649210809
 30
0.0
 10
51.36233595596843
 20
-124.100255372012
 30
0.0
 10
51.00013260431797
 20
-124.5696532468915
 30
0.0
 10
50.4803514683183
 20
-125.1255790361094
 30
0.0
 10
50.36661259622633
 20
-125.2413514629268
 30
0.0
 10
50.25
 20
-125.3544960119012
 30
0.0
  0
LINE
  5
4344D
330
1F
100
AcDbEntity
  8
AM_0
100
AcDbLine
 10
50.25
 20
-117.614825852363
 30
0.0
 11
50.25
 21
-117.1159532550524
 31
0.0
  0
LINE
  5
4344E
330
1F
100
AcDbEntity
  8
AM_0
100
AcDbLine
 10
50.25
 20
-117.1159532550524
 30
0.0
 11
299.0
 21
-117.1159532550524
 31
0.0
  0
LINE
  5
4344F
330
1F
100
AcDbEntity
  8
AM_0
100
AcDbLine
 10
298.0
 20
-147.1159532550525
 30
0.0
 11
298.0
 21
-117.1159532550524
 31
0.0
  0
LINE
  5
43450
330
1F
100
AcDbEntity
  8
AM_0
100
AcDbLine
 10
52.99999999999989
 20
-147.1159532550524
 30
0.0
 11
299.0
 21
-147.1159532550524
 31
0.0
  0
LINE
  5
43451
330
1F
100
AcDbEntity
  8
AM_0
100
AcDbLine
 10
52.99999999999989
 20
-147.1159532550524
 30
0.0
 11
52.99999999999989
 21
-148.1159532550523
 31
0.0
  0
LINE
  5
43452
330
1F
100
AcDbEntity
  8
AM_0
100
AcDbLine
 10
-94.06113688606888
 20
0.471225933720234
 30
0.0
 11
-92.02694362431294
 21
0.0
 31
0.0
  0
LINE
  5
43453
330
1F
100
AcDbEntity
  8
AM_0
100
AcDbLine
 10
-93.60353789940791
 20
15.55573837231333
 30
0.0
 11
-91.54142736719041
 21
15.88390945287534
 31
0.0
  0
LINE
  5
43454
330
1F
100
AcDbEntity
  8
AM_0
100
AcDbLine
 10
-96.7704915753684
 20
1.44730468466787
 30
0.0
 11
-96.7758874079957
 21
1.612244539650192
 31
0.0
  0
ELLIPSE
  5
43455
330
1F
100
AcDbEntity
  8
AM_0
100
AcDbEllipse
 10
-92.01239264747596
 20
0.3996778208843352
 30
0.0
 11
0.01396065374498836
 21
0.3997563009472305
 31
0.0
210
0.0
220
0.0
230
1.0
 40
0.0871434210711441
 41
3.124588183298838
 42
4.764924867629468
  0
LINE
  5
43456
330
1F
100
AcDbEntity
  8
AM_0
100
AcDbLine
 10
-91.97687148096611
 20
0.4194548127645703
 30
0.0
 11
-91.51927249467985
 21
15.50396725129809
 31
0.0
  0
LINE
  5
43457
330
1F
100
AcDbEntity
  8
AM_0
100
AcDbLine
 10
-94.06113688573078
 20
0.4712259335983617
 30
0.0
 11
-96.7704915753684
 21
1.44730468466787
 31
0.0
  0
LINE
  5
43458
330
1F
100
AcDbEntity
  8
AM_0
100
AcDbLine
 10
-96.36798805997796
 20
14.71562359799378
 30
0.0
 11
-96.7704915753684
 21
1.44730468466787
 31
0.0
  0
LINE
  5
43459
330
1F
100
AcDbEntity
  8
AM_0
100
AcDbLine
 10
-93.6035378994377
 20
15.55573837235835
 30
0.0
 11
-96.36798805997796
 21
14.71562359799378
 31
0.0
  0
ELLIPSE
  5
4345A
330
1F
100
AcDbEntity
  8
AM_0
100
AcDbEllipse
 10
-91.55479366118971
 20
15.48419025941763
 30
0.0
 11
0.01396065374498836
 21
0.3997563009472305
 31
0.0
210
0.0
220
0.0
230
1.0
 40
0.0871434210711441
 41
4.764924867629484
 42
6.300189777470481
  0
ELLIPSE
  5
4345B
330
1F
100
AcDbEntity
  8
AM_0
100
AcDbEllipse
 10
-81.39891122452309
 20
18.65798874715705
 30
0.0
 11
7.933141469944407
 21
11.46595844342955
 31
0.0
210
0.0
220
0.0
230
1.0
 40
0.5959372792272071
 41
2.63045341027774
 42
2.723455440903369
  0
SPLINE
  5
4345C
330
1F
100
AcDbEntity
  8
AM_0
100
AcDbSpline
210
0.0
220
0.0
230
1.0
 70
     8
 71
     3
 72
    10
 73
     6
 74
     0
 42
0.0000000001
 43
0.0000000001
 40
11.03168449882043
 40
11.03168449882043
 40
11.03168449882043
 40
11.03168449882043
 40
11.17982882102117
 40
11.17982882102117
 40
11.48705634018918
 40
11.48705634018918
 40
11.48705634018918
 40
11.48705634018918
 10
-91.63591526949244
 20
5.951737151081204
 30
0.0
 10
-91.65742686315025
 20
5.943204544235812
 30
0.0
 10
-91.67828282444862
 20
5.936142510745128
 30
0.0
 10
-91.7401519334378
 20
5.919230396145451
 30
0.0
 10
-91.77877788146225
 20
5.91457934962483
 30
0.0
 10
-91.81389202956484
 20
5.917067941454832
 30
0.0
  0
LINE
  5
4345D
330
1F
100
AcDbEntity
  8
AM_0
100
AcDbLine
 10
-91.49829374459227
 20
16.32060116140934
 30
0.0
 11
-91.54142736719041
 21
15.88390945287534
 31
0.0
  0
ELLIPSE
  5
4345E
330
1F
100
AcDbEntity
  8
AM_0
100
AcDbEllipse
 10
-82.13819808195535
 20
9.999734990334616
 30
0.0
 11
10.0120342085685
 21
-0.2844765534174938
 31
0.0
210
0.0
220
0.0
230
0.9999999999999999
 40
0.0621819153203347
 41
3.526460959388664
 42
3.560990025581881
  0
LINE
  5
4345F
330
1F
100
AcDbEntity
  8
AM_0
100
AcDbLine
 10
-91.6887851605286
 20
10.04115077091177
 30
0.0
 11
-91.43552358824195
 21
10.02692320123146
 31
0.0
  0
LINE
  5
43460
330
1F
100
AcDbEntity
  8
AM_0
100
AcDbLine
 10
-91.42318512276938
 20
10.09956393931856
 30
0.0
 11
-91.43552358824195
 21
10.02692320123146
 31
0.0
  0
ELLIPSE
  5
43461
330
1F
100
AcDbEntity
  8
AM_0
100
AcDbEllipse
 10
-89.06502282669931
 20
-71.12466992243486
 30
0.0
 11
1.337825019644652
 21
-99.00879794519864
 31
0.0
210
0.0
220
0.0
230
0.9999999999999999
 40
0.0222721649983379
 41
3.750023516057883
 42
3.751257012673265
  0
LINE
  5
43462
330
1F
100
AcDbEntity
  8
AM_0
100
AcDbLine
 10
-91.42447201665163
 20
10.02966657156645
 30
0.0
 11
-91.43552358824195
 21
10.02692320123146
 31
0.0
  0
SPLINE
  5
43463
330
1F
100
AcDbEntity
  8
AM_0
100
AcDbSpline
210
0.0
220
0.0
230
1.0
 70
     8
 71
     3
 72
    14
 73
    10
 74
     0
 42
0.0000000001
 43
0.0000000001
 40
2.273901913242807
 40
2.273901913242807
 40
2.273901913242807
 40
2.273901913242807
 40
2.435651708367271
 40
2.435651708367271
 40
2.898959183273465
 40
2.898959183273465
 40
3.362266658179659
 40
3.362266658179659
 40
3.612257473586938
 40
3.612257473586938
 40
3.612257473586938
 40
3.612257473586938
 10
-107.0162831679475
 20
9.277507600141405
 30
0.0
 10
-106.9897234685825
 20
9.233039943856227
 30
0.0
 10
-106.9625050275554
 20
9.187903536416968
 30
0.0
 10
-106.8550667158236
 20
9.011627278396134
 30
0.0
 10
-106.7705358032142
 20
8.876886400538922
 30
0.0
 10
-106.5972914918448
 20
8.609148593526186
 30
0.0
 10
-106.5085750143719
 20
8.476154418619615
 30
0.0
 10
-106.3742348943465
 20
8.280365961192445
 30
0.0
 10
-106.3256201754236
 20
8.21058853658127
 30
0.0
 10
-106.2758946740589
 20
8.140311020908428
 30
0.0
  0
ELLIPSE
  5
43464
330
1F
100
AcDbEntity
  8
AM_0
100
AcDbEllipse
 10
-81.231924724176
 20
20.61367276809239
 30
0.0
 11
2.880581863566153
 21
18.46177301012576
 31
0.0
210
0.0
220
0.0
230
1.0
 40
0.5319343384325209
 41
1.414520672167663
 42
1.801781345881481
  0
LINE
  5
43465
330
1F
100
AcDbEntity
  8
AM_0
100
AcDbLine
 10
-91.49829374459227
 20
16.32060116140923
 30
0.0
 11
-91.45102822763693
 21
17.87868432984925
 31
0.0
  0
LINE
  5
43466
330
1F
100
AcDbEntity
  8
AM_0
100
AcDbLine
 10
-91.51103071084629
 20
16.19165007360476
 30
0.0
 11
-94.32189801034087
 21
15.33742915807108
 31
0.0
  0
LINE
  5
43467
330
1F
100
AcDbEntity
  8
AM_0
100
AcDbLine
 10
-96.35439520687919
 20
15.16370492638345
 30
0.0
 11
-94.32189801034087
 21
15.33742915807108
 31
0.0
  0
LINE
  5
43468
330
1F
100
AcDbEntity
  8
AM_0
100
AcDbLine
 10
-96.76933409815433
 20
1.485460318657033
 30
0.0
 11
-96.35439520687919
 21
15.16370492638345
 31
0.0
  0
ARC
  5
43469
330
1F
100
AcDbEntity
  8
AM_0
100
AcDbCircle
 10
-91.99149098520888
 20
20.00000000000003
 30
0.0
 40
18.99999999999996
100
AcDbArc
 50
240.3844569508023
 51
255.4474838698314
  0
ARC
  5
4346A
330
1F
100
AcDbEntity
  8
AM_0
100
AcDbCircle
 10
-91.99149098520888
 20
18.25000000000003
 30
0.0
 40
17.5
100
AcDbArc
 50
215.2886902009661
 51
237.5518734516037
  0
ELLIPSE
  5
4346B
330
1F
100
AcDbEntity
  8
AM_0
100
AcDbEllipse
 10
-116.5638569673281
 20
8.703191272176525
 30
0.0
 11
10.42138696394751
 21
-0.2566746328954677
 31
0.0
210
0.0
220
0.0
230
1.0
 40
0.1915891632938385
 41
6.127645386809202
 42
6.700353404439524
  0
ARC
  5
4346C
330
1F
100
AcDbEntity
  8
AM_0
100
AcDbCircle
 10
-91.99149098520888
 20
18.25000000000003
 30
0.0
 40
17.5
100
AcDbArc
 50
153.4923688327743
 51
210.8447676973433
  0
LINE
  5
4346D
330
1F
100
AcDbEntity
  8
AM_0
100
AcDbLine
 10
-76.99149098520888
 20
24.80234317807657
 30
0.0
 11
-76.99149098520888
 21
16.45987746783106
 31
0.0
  0
ELLIPSE
  5
4346E
330
1F
100
AcDbEntity
  8
AM_0
100
AcDbEllipse
 10
-91.17006443575224
 20
7.895630768454396
 30
0.0
 11
0.7431263502435326
 21
1.959262987722799
 31
0.0
210
0.0
220
0.0
230
1.0
 40
0.3743651217626462
 41
3.471056765629889
 42
6.357202682791174
  0
LINE
  5
4346F
330
1F
100
AcDbEntity
  8
AM_0
100
AcDbLine
 10
-91.28973762437363
 20
10.00604146644349
 30
0.0
 11
-90.48321347774481
 21
9.870102104744376
 31
0.0
  0
ELLIPSE
  5
43470
330
1F
100
AcDbEntity
  8
AM_0
100
AcDbEllipse
 10
-92.75418548260723
 20
-14.5
 30
0.0
 11
-7.30147437151513
 21
-19.82867000850374
 31
0.0
210
0.0
220
0.0
230
1.0
 40
0.357770092846821
 41
3.505356111089607
 42
3.860180146074152
  0
SPLINE
  5
43471
330
1F
100
AcDbEntity
  8
AM_0
100
AcDbSpline
210
0.0
220
0.0
230
1.0
 70
    28
 71
     2
 72
     6
 73
     3
 74
     0
 42
0.0000000001
 43
0.0000000001
 40
0.0
 40
0.0
 40
0.0
 40
0.8052521306902443
 40
0.8052521306902443
 40
0.8052521306902443
 10
-76.99149098520888
 20
15.19765682192173
 30
0.0
 41
1.0
 10
-76.99149098520888
 20
14.81795969877732
 30
0.0
 41
1.000290718625246
 10
-76.99149098520888
 20
14.4322356371701
 30
0.0
 41
1.0
  0
ELLIPSE
  5
43472
330
1F
100
AcDbEntity
  8
AM_0
100
AcDbEllipse
 10
-79.92112336461264
 20
5.240260312758267
 30
0.0
 11
3.520423903709836
 21
11.15408726613988
 31
0.0
210
0.0
220
0.0
230
1.0
 40
0.3558970081818583
 41
0.1405431948597676
 42
0.1440666829204874
  0
LINE
  5
43473
330
1F
100
AcDbEntity
  8
AM_0
100
AcDbLine
 10
-76.99149098520888
 20
16.45987746783106
 30
0.0
 11
-76.99149098520888
 21
15.19765682192355
 31
0.0
  0
SPLINE
  5
43474
330
1F
100
AcDbEntity
  8
AM_0
100
AcDbSpline
210
0.0
220
0.0
230
1.0
 70
     8
 71
     3
 72
    10
 73
     6
 74
     0
 42
0.0000000001
 43
0.0000000001
 40
6.444867723158374
 40
6.444867723158374
 40
6.444867723158374
 40
6.444867723158374
 40
8.592371031108685
 40
8.592371031108685
 40
9.577303856233987
 40
9.577303856233987
 40
9.577303856233987
 40
9.577303856233987
 10
-76.99149098520888
 20
15.19765682192355
 30
0.0
 10
-77.09708059165996
 20
14.86785030080768
 30
0.0
 10
-77.23315649210429
 20
14.47979757620573
 30
0.0
 10
-77.49090938664051
 20
13.84844651950635
 30
0.0
 10
-77.58050787972877
 20
13.64056468693474
 30
0.0
 10
-77.67960881701401
 20
13.42485522564397
 30
0.0
  0
SPLINE
  5
43475
330
1F
100
AcDbEntity
  8
AM_0
100
AcDbSpline
210
0.0
220
0.0
230
1.0
 70
     8
 71
     3
 72
    10
 73
     6
 74
     0
 42
0.0000000001
 43
0.0000000001
 40
1.355219549374845
 40
1.355219549374845
 40
1.355219549374845
 40
1.355219549374845
 40
1.560633781066621
 40
1.560633781066621
 40
1.690343021323367
 40
1.690343021323367
 40
1.690343021323367
 40
1.690343021323367
 10
-77.67960881701401
 20
13.42485522564397
 30
0.0
 10
-77.63998559079278
 20
13.38821085631213
 30
0.0
 10
-77.60090574331002
 20
13.35066211525549
 30
0.0
 10
-77.53816828250342
 20
13.2880265792549
 30
0.0
 10
-77.51413278850032
 20
13.26344525204962
 30
0.0
 10
-77.49036358251965
 20
13.23854275684806
 30
0.0
  0
SPLINE
  5
43476
330
1F
100
AcDbEntity
  8
AM_0
100
AcDbSpline
210
0.0
220
0.0
230
1.0
 70
     8
 71
     3
 72
    10
 73
     6
 74
     0
 42
0.0000000001
 43
0.0000000001
 40
1.430924540809881
 40
1.430924540809881
 40
1.430924540809881
 40
1.430924540809881
 40
1.560633781066621
 40
1.560633781066621
 40
1.766048012758391
 40
1.766048012758391
 40
1.766048012758391
 40
1.766048012758391
 10
-85.23003374205769
 20
5.498872597310367
 30
0.0
 10
-85.25493623725947
 20
5.522641803290924
 30
0.0
 10
-85.27951756446464
 20
5.546677297294139
 30
0.0
 10
-85.34215310046534
 20
5.609414758100854
 30
0.0
 10
-85.37970184152186
 20
5.648494605583608
 30
0.0
 10
-85.41634621085382
 20
5.688117831804846
 30
0.0
  0
SPLINE
  5
43477
330
1F
100
AcDbEntity
  8
AM_0
100
AcDbSpline
210
0.0
220
0.0
230
1.0
 70
     8
 71
     3
 72
     8
 73
     4
 74
     0
 42
0.0000000001
 43
0.0000000001
 40
2.232823194313995
 40
2.232823194313995
 40
2.232823194313995
 40
2.232823194313995
 40
3.345911628061242
 40
3.345911628061242
 40
3.345911628061242
 40
3.345911628061242
 10
-88.47470176181241
 20
4.647648598310468
 30
0.0
 10
-88.46873152423927
 20
4.762722939299067
 30
0.0
 10
-88.46171352935517
 20
4.867424807038049
 30
0.0
 10
-88.4545268440736
 20
4.960592098996756
 30
0.0
  0
ARC
  5
43478
330
1F
100
AcDbEntity
  8
AM_0
100
AcDbCircle
 10
-75.991490985209
 20
3.999999999999147
 30
0.0
 40
12.5
100
AcDbArc
 50
94.66032759680272
 51
175.5926248988317
  0
ARC
  5
43479
330
1F
100
AcDbEntity
  8
AM_0
100
AcDbCircle
 10
-91.99149098520888
 20
20.00000000000003
 30
0.0
 40
15.75
100
AcDbArc
 50
17.75279016195082
 51
22.63826555927092
  0
SPLINE
  5
4347A
330
1F
100
AcDbEntity
  8
AM_0
100
AcDbSpline
210
0.0
220
0.0
230
1.0
 70
     8
 71
     3
 72
    10
 73
     6
 74
     0
 42
0.0000000001
 43
0.0000000001
 40
-3.631643516799437
 40
-3.631643516799437
 40
-3.631643516799437
 40
-3.631643516799437
 40
-3.21060840876315
 40
-3.21060840876315
 40
-2.717166262715905
 40
-2.717166262715905
 40
-2.717166262715905
 40
-2.717166262715905
 10
-88.47470176207889
 20
4.647648598338662
 30
0.0
 10
-88.58862527244082
 20
4.621551946181
 30
0.0
 10
-88.70677214101534
 20
4.595825034720008
 30
0.0
 10
-88.97153789658751
 20
4.541550809579405
 30
0.0
 10
-89.11962169662638
 20
4.513303278054138
 30
0.0
 10
-89.27187594913698
 20
4.486580194696387
 30
0.0
  0
SPLINE
  5
4347B
330
1F
100
AcDbEntity
  8
AM_0
100
AcDbSpline
210
0.0
220
0.0
230
1.0
 70
     8
 71
     3
 72
    14
 73
    10
 74
     0
 42
0.0000000001
 43
0.0000000001
 40
1.56624986973287
 40
1.56624986973287
 40
1.56624986973287
 40
1.56624986973287
 40
2.55118269485817
 40
2.55118269485817
 40
5.10236538971634
 40
5.10236538971634
 40
7.65354808457451
 40
7.65354808457451
 40
10.20473077943268
 40
10.20473077943268
 40
10.20473077943268
 40
10.20473077943268
 10
-85.41634621085382
 20
5.688117831804846
 30
0.0
 10
-85.63205567214459
 20
5.589016894519489
 30
0.0
 10
-85.83993750471609
 20
5.499418401431228
 30
0.0
 10
-86.55265124421703
 20
5.208448698628388
 30
0.0
 10
-87.00340122451667
 20
5.055847826939441
 30
0.0
 10
-87.73446769119551
 20
4.831399316384193
 30
0.0
 10
-88.01500295526125
 20
4.759054693960309
 30
0.0
 10
-88.3852093788887
 20
4.667237571396925
 30
0.0
 10
-88.47470176180764
 20
4.647648598400849
 30
0.0
 10
-88.47470176180764
 20
4.647648598400849
 30
0.0
  0
LINE
  5
4347C
330
1F
100
AcDbEntity
  8
AM_0
100
AcDbLine
 10
-85.12427016910942
 20
30.42523787955912
 30
0.0
 11
-89.95578570266139
 21
25.62879212333945
 31
0.0
  0
ELLIPSE
  5
4347D
330
1F
100
AcDbEntity
  8
AM_0
100
AcDbEllipse
 10
-80.99531745246668
 20
23.38472946763199
 30
0.0
 11
10.02732228270998
 21
0.0003067268661822455
 31
0.0
210
0.0
220
0.0
230
0.9999999999999999
 40
0.4986377046212509
 41
2.676095332261972
 42
2.812433434146462
  0
LINE
  5
4347E
330
1F
100
AcDbEntity
  8
AM_0
100
AcDbLine
 10
-90.48436694480029
 20
25.00067701972506
 30
0.0
 11
-107.6518021731752
 21
26.0605475797833
 31
0.0
  0
ARC
  5
4347F
330
1F
100
AcDbEntity
  8
AM_0
100
AcDbCircle
 10
-91.99149098520888
 20
18.25000000000003
 30
0.0
 40
17.5
100
AcDbArc
 50
90.0
 51
153.4923688327743
  0
ARC
  5
43480
330
1F
100
AcDbEntity
  8
AM_0
100
AcDbCircle
 10
-91.99149098520888
 20
20.00000000000003
 30
0.0
 40
15.75000000000055
100
AcDbArc
 50
67.576713954908
 51
90.0
  0
SPLINE
  5
43481
330
1F
100
AcDbEntity
  8
AM_0
100
AcDbSpline
210
0.0
220
0.0
230
1.0
 70
     8
 71
     3
 72
    32
 73
    28
 74
     0
 42
0.0000000001
 43
0.0000000001
 40
0.9389785202992591
 40
0.9389785202992591
 40
0.9389785202992591
 40
0.9389785202992591
 40
3.321123983315246
 40
3.321123983315246
 40
5.703269446331232
 40
5.703269446331232
 40
8.085414909347218
 40
8.085414909347218
 40
10.46756037236321
 40
10.46756037236321
 40
11.39997417269666
 40
11.39997417269666
 40
12.33238797303011
 40
12.33238797303011
 40
13.26480177336356
 40
13.26480177336356
 40
14.19721557369701
 40
14.19721557369701
 40
15.12962937403046
 40
15.12962937403046
 40
16.06204317436391
 40
16.06204317436391
 40
16.99445697469737
 40
16.99445697469737
 40
17.92687077503082
 40
17.92687077503082
 40
18.9471849973818
 40
18.9471849973818
 40
18.9471849973818
 40
18.9471849973818
 10
-85.98371495489346
 20
34.55915956261168
 30
0.0
 10
-85.98371495489346
 20
34.55915956261168
 30
0.0
 10
-85.90545446771603
 20
34.52768698093763
 30
0.0
 10
-85.58205460433032
 20
34.3879343515901
 30
0.0
 10
-85.33710222973059
 20
34.27961752487812
 30
0.0
 10
-84.70083722499567
 20
33.96548451488701
 30
0.0
 10
-84.30950078581009
 20
33.75931805655608
 30
0.0
 10
-83.42043239264353
 20
33.22379527319362
 30
0.0
 10
-82.92316715006018
 20
32.89448853836774
 30
0.0
 10
-82.1913544766212
 20
32.33236433435508
 30
0.0
 10
-81.97212703383843
 20
32.15577355161548
 30
0.0
 10
-81.52153142133966
 20
31.76989513053258
 30
0.0
 10
-81.29019190907206
 20
31.56055525170217
 30
0.0
 10
-80.83090628628725
 20
31.11780531086941
 30
0.0
 10
-80.60271752047652
 20
30.88410370066544
 30
0.0
 10
-80.16392751023182
 20
30.40560505971808
 30
0.0
 10
-79.95333328871243
 20
30.16080010499906
 30
0.0
 10
-79.56184259703969
 20
29.67796158526943
 30
0.0
 10
-79.36585391939161
 20
29.42131429768182
 30
0.0
 10
-78.98838610621465
 20
28.89309495640913
 30
0.0
 10
-78.80689776620261
 20
28.62152813609822
 30
0.0
 10
-78.46864306740918
 20
28.08064501365101
 30
0.0
 10
-78.31164161313404
 20
27.81103103374534
 30
0.0
 10
-78.02723405361803
 20
27.29040554267652
 30
0.0
 10
-77.89977091257924
 20
27.03941127203638
 30
0.0
 10
-77.66487040934976
 20
26.54913219868905
 30
0.0
 10
-77.55447453739316
 20
26.30094256946853
 30
0.0
 10
-77.4549756319077
 20
26.06236104032399
 30
0.0
  0
ELLIPSE
  5
43482
330
1F
100
AcDbEntity
  8
AM_0
100
AcDbEllipse
 10
-76.86924541779558
 20
36.06607803593471
 30
0.0
 11
3.585159805822627
 21
11.35919606018524
 31
0.0
210
0.0
220
0.0
230
1.0
 40
0.3558970081818583
 41
3.020116388387041
 42
3.758465791353161
  0
ARC
  5
43483
330
1F
100
AcDbEntity
  8
AM_0
100
AcDbCircle
 10
-73.49149098520888
 20
34.99999999999923
 30
0.0
 40
12.5
100
AcDbArc
 50
182.021082830834
 51
201.4679657221249
  0
ARC
  5
43484
330
1F
100
AcDbEntity
  8
AM_0
100
AcDbCircle
 10
-73.49149098520888
 20
34.99999999999923
 30
0.0
 40
12.5
100
AcDbArc
 50
201.4679657221249
 51
233.5507581645605
  0
SPLINE
  5
43485
330
1F
100
AcDbEntity
  8
AM_0
100
AcDbSpline
210
0.0
220
0.0
230
1.0
 70
    28
 71
     2
 72
     6
 73
     3
 74
     0
 42
0.0000000001
 43
0.0000000001
 40
0.0
 40
0.0
 40
0.0
 40
0.8052521306902443
 40
0.8052521306902443
 40
0.8052521306902443
 10
-76.99149098520888
 20
25.56776436283002
 30
0.0
 41
1.0
 10
-76.99149098520888
 20
25.18204030122303
 30
0.0
 41
1.000290718625246
 10
-76.99149098520888
 20
24.80234317807839
 30
0.0
 41
1.0
  0
ARC
  5
43486
330
1F
100
AcDbEntity
  8
AM_0
100
AcDbCircle
 10
-91.99149098520888
 20
20.00000000000003
 30
0.0
 40
15.99999999999999
100
AcDbArc
 50
102.0243128370406
 51
122.5806898697724
  0
ARC
  5
43487
330
1F
100
AcDbEntity
  8
AM_0
100
AcDbCircle
 10
-91.99149098520888
 20
20.00000000000003
 30
0.0
 40
15.99999999999999
100
AcDbArc
 50
278.0886438872769
 51
294.9982814667299
  0
SPLINE
  5
43488
330
1F
100
AcDbEntity
  8
AM_0
100
AcDbSpline
210
0.0
220
0.0
230
1.0
 70
     8
 71
     3
 72
    22
 73
    18
 74
     0
 42
0.0000000001
 43
0.0000000001
 40
1.34016745916002
 40
1.34016745916002
 40
1.34016745916002
 40
1.34016745916002
 40
1.834702042943613
 40
1.834702042943613
 40
3.669404085887225
 40
3.669404085887225
 40
5.504106128830838
 40
5.504106128830838
 40
7.338808171774451
 40
7.338808171774451
 40
9.173510214718064
 40
9.173510214718064
 40
11.00821225766168
 40
11.00821225766168
 40
12.84291430060529
 40
12.84291430060529
 40
13.33744888438889
 40
13.33744888438889
 40
13.33744888438889
 40
13.33744888438889
 10
-77.49036358251965
 20
13.23854275684806
 30
0.0
 10
-77.5431196206498
 20
13.12539820787373
 30
0.0
 10
-77.59871412123391
 20
13.00962578105617
 30
0.0
 10
-77.87439982656042
 20
12.45369999183828
 30
0.0
 10
-78.13263479529996
 20
11.98430211695876
 30
0.0
 10
-78.73268592472596
 20
11.02651166602783
 30
0.0
 10
-79.07548549607122
 20
10.53705729735344
 30
0.0
 10
-79.83175450400222
 20
9.583124679417495
 30
0.0
 10
-80.2453390675505
 20
9.118734919689075
 30
0.0
 10
-81.1102259048987
 20
8.25384808234088
 30
0.0
 10
-81.57461566462712
 20
7.840263518792597
 30
0.0
 10
-82.52854828256295
 20
7.083994510861942
 30
0.0
 10
-83.01800265123757
 20
6.741194939516447
 30
0.0
 10
-83.97579310216861
 20
6.141143810090568
 30
0.0
 10
-84.44519097704801
 20
5.882908841351025
 30
0.0
 10
-85.00111676626602
 20
5.607223136024629
 30
0.0
 10
-85.11688919308335
 20
5.551628635440409
 30
0.0
 10
-85.23003374205769
 20
5.498872597310367
 30
0.0
  0
ARC
  5
43489
330
1F
100
AcDbEntity
  8
AM_0
100
AcDbCircle
 10
-91.99149098520888
 20
20.00000000000003
 30
0.0
 40
15.99999999999999
100
AcDbArc
 50
335.0017185332666
 51
339.635865193682
  0
ARC
  5
4348A
330
1F
100
AcDbEntity
  8
AM_0
100
AcDbCircle
 10
-91.99149098520888
 20
20.00000000000003
 30
0.0
 40
15.99999999999999
100
AcDbArc
 50
20.36413480631802
 51
57.9756871629584
  0
SPLINE
  5
4348B
330
1F
100
AcDbEntity
  8
AM_0
100
AcDbSpline
210
0.0
220
0.0
230
1.0
 70
    28
 71
     2
 72
     6
 73
     3
 74
     0
 42
0.0000000001
 43
0.0000000001
 40
0.054234594749334
 40
0.054234594749334
 40
0.054234594749334
 40
0.368188261299142
 40
0.368188261299142
 40
0.368188261299142
 10
-95.36476981509043
 20
35.42180799845762
 30
0.0
 41
1.000009101295148
 10
-95.34487886019289
 20
35.53461520933928
 30
0.0
 41
1.000030896290193
 10
-95.32471879828154
 20
35.64894860193994
 30
0.0
 41
1.000000038243369
  0
SPLINE
  5
4348C
330
1F
100
AcDbEntity
  8
AM_0
100
AcDbSpline
210
0.0
220
0.0
230
1.0
 70
    28
 71
     2
 72
     6
 73
     3
 74
     0
 42
0.0000000001
 43
0.0000000001
 40
0.0001944436916217
 40
0.0001944436916217
 40
0.0001944436916217
 40
0.3681846537709337
 40
0.3681846537709337
 40
0.3681846537709337
 10
-83.50702576213507
 20
33.5651704699371
 30
0.0
 41
1.000000038243302
 10
-83.53065557381703
 20
33.43115914854315
 30
0.0
 41
1.000036207399546
 10
-83.55391616969152
 20
33.2992417540475
 30
0.0
 41
1.000000038952451
  0
SPLINE
  5
4348D
330
1F
100
AcDbEntity
  8
AM_0
100
AcDbSpline
210
0.0
220
0.0
230
1.0
 70
     8
 71
     3
 72
    38
 73
    34
 74
     0
 42
0.0000000001
 43
0.0000000001
 40
-18.27621530968562
 40
-18.27621530968562
 40
-18.27621530968562
 40
-18.27621530968562
 40
-17.13351433065794
 40
-17.13351433065794
 40
-15.99081335163026
 40
-15.99081335163026
 40
-14.84811237260259
 40
-14.84811237260259
 40
-13.70541139357491
 40
-13.70541139357491
 40
-12.56358545889185
 40
-12.56358545889185
 40
-11.4217595242088
 40
-11.4217595242088
 40
-10.27993358952574
 40
-10.27993358952574
 40
-9.138107654842678
 40
-9.138107654842678
 40
-7.996281720159637
 40
-7.996281720159637
 40
-6.854455785476592
 40
-6.854455785476592
 40
-5.712629850793547
 40
-5.712629850793547
 40
-4.570803916110506
 40
-4.570803916110506
 40
-3.428102937082883
 40
-3.428102937082883
 40
-2.285401958055253
 40
-2.285401958055253
 40
-1.142700979027623
 40
-1.142700979027623
 40
0.0
 40
0.0
 40
0.0
 40
0.0
 10
-95.32471879828222
 20
35.64894860193994
 30
0.0
 10
-95.32471879828222
 20
35.64894860193994
 30
0.0
 10
-95.28580583286771
 20
35.65740469835129
 30
0.0
 10
-95.12385985192032
 20
35.69060538898049
 30
0.0
 10
-95.00088601604875
 20
35.71529044483572
 30
0.0
 10
-94.67863806284322
 20
35.77358708368996
 30
0.0
 10
-94.47913058809763
 20
35.80711941637486
 30
0.0
 10
-94.02169804945788
 20
35.87235440331227
 30
0.0
 10
-93.7637566057208
 20
35.90390707812748
 30
0.0
 10
-93.21797807982239
 20
35.95527499231531
 30
0.0
 10
-92.9108960662013
 20
35.97703629546396
 30
0.0
 10
-92.24502712274625
 20
36.00145974324749
 30
0.0
 10
-91.88625779961944
 20
36.00400026674714
 30
0.0
 10
-91.14067237301811
 20
35.98171474730197
 30
0.0
 10
-90.75321060679266
 20
35.95678285006073
 30
0.0
 10
-89.97685019870551
 20
35.8774519278449
 30
0.0
 10
-89.58794648689423
 20
35.82301604578566
 30
0.0
 10
-88.83829379818326
 20
35.69083205060537
 30
0.0
 10
-88.45422568181402
 20
35.60897214402888
 30
0.0
 10
-87.69755276187766
 20
35.41798792818889
 30
0.0
 10
-87.32493058825116
 20
35.30889651923116
 30
0.0
 10
-86.61668736815386
 20
35.07483282293646
 30
0.0
 10
-86.28042339285844
 20
34.94973917643421
 30
0.0
 10
-85.6630645713949
 20
34.6990480513013
 30
0.0
 10
-85.38194467324092
 20
34.57357088100247
 30
0.0
 10
-84.88664948124369
 20
34.33863358144339
 30
0.0
 10
-84.6550554603316
 20
34.22076259619684
 30
0.0
 10
-84.24752115884667
 20
34.00301061792737
 30
0.0
 10
-84.07151419026741
 20
33.90326495723861
 30
0.0
 10
-83.78863879135315
 20
33.73826874474884
 30
0.0
 10
-83.68152397157655
 20
33.67301285094806
 30
0.0
 10
-83.54069983328213
 20
33.5864256193442
 30
0.0
 10
-83.50702576213575
 20
33.56517046993741
 30
0.0
 10
-83.50702576213553
 20
33.5651704699373
 30
0.0
  0
LINE
  5
4348E
330
1F
100
AcDbEntity
  8
AM_0
100
AcDbLine
 10
300.0
 20
33.99999999999994
 30
0.0
 11
298.0
 21
35.99999999999994
 31
0.0
  0
LINE
  5
4348F
330
1F
100
AcDbEntity
  8
AM_0
100
AcDbLine
 10
300.0
 20
5.999999999999943
 30
0.0
 11
298.0
 21
3.999999999999943
 31
0.0
  0
LINE
  5
43490
330
1F
100
AcDbEntity
  8
AM_0
100
AcDbLine
 10
50.0
 20
4.249999999998863
 30
0.0
 11
50.25
 21
4.0
 31
0.0
  0
LINE
  5
43491
330
1F
100
AcDbEntity
  8
AM_0
100
AcDbLine
 10
33.95970545353885
 20
4.249999999999432
 30
0.0
 11
50.0
 21
4.249999999999432
 31
0.0
  0
LINE
  5
43492
330
1F
100
AcDbEntity
  8
AM_0
100
AcDbLine
 10
25.0
 20
35.75000000000063
 30
0.0
 11
33.12389498621133
 21
35.75000000000063
 31
0.0
  0
LINE
  5
43493
330
1F
100
AcDbEntity
  8
AM_0
100
AcDbLine
 10
50.25
 20
4.0
 30
0.0
 11
177.8758004435722
 21
4.0
 31
0.0
  0
LINE
  5
43494
330
1F
100
AcDbEntity
  8
AM_0
100
AcDbLine
 10
109.7822629377524
 20
36.00000000000003
 30
0.0
 11
177.8758004435722
 21
35.99999999999997
 31
0.0
  0
LINE
  5
43497
330
1F
100
AcDbEntity
  8
AM_0
100
AcDbLine
 10
13.99431826934006
 20
6.939270632973091
 30
0.0
 11
0.5793211832137786
 21
0.0440928667895832
 31
0.0
  0
ELLIPSE
  5
43498
330
1F
100
AcDbEntity
  8
AM_0
100
AcDbEllipse
 10
0.398478310408791
 20
0.3997581521517759
 30
0.0
 11
0.1482309230291936
 21
0.3715206501096723
 31
0.0
210
0.0
220
0.0
230
1.0
 40
0.9955888461044967
 41
1.899415030980948
 42
3.993810133374114
  0
LINE
  5
43499
330
1F
100
AcDbEntity
  8
AM_0
100
AcDbLine
 10
1.406109769007344
 20
15.82015888416703
 30
0.0
 11
14.03056105666246
 21
7.630824211817014
 31
0.0
  0
ELLIPSE
  5
4349A
330
1F
100
AcDbEntity
  8
AM_0
100
AcDbEllipse
 10
13.81347539653484
 20
7.294935918335284
 30
0.0
 11
0.1482309230291936
 21
0.3715206501096723
 31
0.0
210
0.0
220
0.0
230
1.0
 40
0.9955888461044967
 41
3.993810133374162
 42
6.088205235767301
  0
LINE
  5
4349B
330
1F
100
AcDbEntity
  8
AM_0
100
AcDbLine
 10
0.0005497774761807
 20
0.419535144032011
 30
0.0
 11
0.7910955759471108
 21
15.50404758256553
 31
0.0
  0
ELLIPSE
  5
4349C
330
1F
100
AcDbEntity
  8
AM_0
100
AcDbEllipse
 10
1.189024108879721
 20
15.48427059068524
 30
0.0
 11
0.1482309230291936
 21
0.3715206501096723
 31
0.0
210
0.0
220
0.0
230
1.0
 40
0.9955888461044967
 41
6.088205235767343
 42
8.182600338160519
  0
SPLINE
  5
4349D
330
1F
100
AcDbEntity
  8
AM_0
100
AcDbSpline
210
0.0
220
0.0
230
1.0
 70
    12
 71
     2
 72
     6
 73
     3
 74
     0
 42
0.0000000001
 43
0.0000000001
 40
0.0
 40
0.0
 40
0.0
 40
11.3137084989847
 40
11.3137084989847
 40
11.3137084989847
 10
298.0
 20
14.43223563716998
 30
0.0
 41
1.0
 10
299.9375
 20
19.99999999999989
 30
0.0
 41
1.066666666666667
 10
298.0
 20
25.56776436282991
 30
0.0
 41
1.0
  0
LINE
  5
4349E
330
1F
100
AcDbEntity
  8
AM_0
100
AcDbLine
 10
300.0
 20
5.999999999999943
 30
0.0
 11
300.0
 21
33.99999999999994
 31
0.0
  0
ELLIPSE
  5
434A1
330
1F
100
AcDbEntity
  8
AM_0
100
AcDbEllipse
 10
7.929999354331926
 20
20.00000000000006
 30
0.0
 11
217.2019278925353
 21
0.6682381678094495
 31
0.0
210
0.0
220
0.0
230
1.0
 40
0.0874220843077443
 41
4.694652726977855
 42
4.724540050791591
  0
LINE
  5
434A2
330
1F
100
AcDbEntity
  8
AM_0
100
AcDbLine
 10
8.709664465825313
 20
4.22301007965126
 30
0.0
 11
4.136436964449445
 21
1.872415712411453
 31
0.0
  0
SPLINE
  5
434A3
330
1F
100
AcDbEntity
  8
AM_0
100
AcDbSpline
210
0.0
220
0.0
230
1.0
 70
     8
 71
     3
 72
    12
 73
     8
 74
     0
 42
0.0000000001
 43
0.0000000001
 40
53.95706693381668
 40
53.95706693381668
 40
53.95706693381668
 40
53.95706693381668
 40
55.15728646787652
 40
55.15728646787652
 40
56.94389856765537
 40
56.94389856765537
 40
57.649745681352
 40
57.649745681352
 40
57.649745681352
 40
57.649745681352
 10
14.78813940733721
 20
1.338890771321417
 30
0.0
 10
14.37631210941174
 20
1.306029483004409
 30
0.0
 10
13.95907226618442
 20
1.2729883209945
 30
0.0
 10
12.92330661940957
 20
1.18927506584339
 30
0.0
 10
12.30595293908209
 20
1.137741608535634
 30
0.0
 10
11.47829472119065
 20
1.065420944166476
 30
0.0
 10
11.24032799649615
 20
1.044281692504796
 30
0.0
 10
11.0
 20
1.02258852037869
 30
0.0
  0
SPLINE
  5
434A4
330
1F
100
AcDbEntity
  8
AM_0
100
AcDbSpline
210
0.0
220
0.0
230
1.0
 70
     8
 71
     3
 72
     8
 73
     4
 74
     0
 42
0.0000000001
 43
0.0000000001
 40
2.33987991679507
 40
2.33987991679507
 40
2.33987991679507
 40
2.33987991679507
 40
2.699079831866277
 40
2.699079831866277
 40
2.699079831866277
 40
2.699079831866277
 10
11.0
 20
1.02258852037869
 30
0.0
 10
10.87649678614821
 20
1.022231569124756
 30
0.0
 10
10.75230043968395
 20
1.021792320279133
 30
0.0
 10
10.62758478742353
 20
1.021276132996832
 30
0.0
  0
ELLIPSE
  5
434A5
330
1F
100
AcDbEntity
  8
AM_0
100
AcDbEllipse
 10
10.55064056066931
 20
2.193599941711568
 30
0.0
 11
9.003553023565253
 21
4.401285706316506
 31
0.0
210
0.0
220
0.0
230
1.0
 40
0.2633663209846169
 41
1.246446263419325
 42
1.64697183825701
  0
ELLIPSE
  5
434A6
330
1F
100
AcDbEntity
  8
AM_0
100
AcDbEllipse
 10
1.130697057135421
 20
18.53298874715705
 30
0.0
 11
18.41340250285752
 21
-12.27776935777211
 31
0.0
210
0.0
220
0.0
230
1.0
 40
0.095237906099537
 41
4.844257277050776
 42
5.332093489848898
  0
ELLIPSE
  5
434A7
330
1F
100
AcDbEntity
  8
AM_0
100
AcDbEllipse
 10
12.70358322506695
 20
7.995367299314978
 30
0.0
 11
-0.7411546151459559
 21
-1.857603250548365
 31
0.0
210
0.0
220
0.0
230
1.0
 40
0.9955888461044967
 41
0.3286187041860489
 42
2.970260338751425
  0
SPLINE
  5
434A8
330
1F
100
AcDbEntity
  8
AM_0
100
AcDbSpline
210
0.0
220
0.0
230
1.0
 70
     8
 71
     3
 72
    10
 73
     6
 74
     0
 42
0.0000000001
 43
0.0000000001
 40
11.03168449882043
 40
11.03168449882043
 40
11.03168449882043
 40
11.03168449882043
 40
11.17982882102117
 40
11.17982882102117
 40
11.56901532804787
 40
11.56901532804787
 40
11.56901532804787
 40
11.56901532804787
 10
13.63664531371228
 20
5.826737151081204
 30
0.0
 10
13.58952233466653
 20
5.818204544235812
 30
0.0
 10
13.5418031619904
 20
5.811142510745128
 30
0.0
 10
13.36722763369039
 20
5.791186510535511
 30
0.0
 10
13.2377107384275
 20
5.787578852940044
 30
0.0
 10
13.10878530045648
 20
5.795611486205587
 30
0.0
  0
LINE
  5
434A9
330
1F
100
AcDbEntity
  8
AM_0
100
AcDbLine
 10
4.136415031608635
 20
1.872404439145043
 30
0.0
 11
4.136262477968444
 21
1.002889860217806
 31
0.0
  0
ELLIPSE
  5
434AA
330
1F
100
AcDbEntity
  8
AM_0
100
AcDbEllipse
 10
4.110588921243789
 20
20.00000000000006
 30
0.0
 11
-0.05507424888023063
 21
18.99999938987602
 31
0.0
210
0.0
220
0.0
230
1.0
 40
0.0874283429755228
 41
2.876446712276174
 42
3.123897798638398
  0
LINE
  5
434AC
330
1F
100
AcDbEntity
  8
AM_0
100
AcDbLine
 10
12.598959309983
 20
5.999024074791976
 30
0.0
 11
12.20327088769318
 21
6.018689733489794
 31
0.0
  0
ELLIPSE
  5
434AD
330
1F
100
AcDbEntity
  8
AM_0
100
AcDbEllipse
 10
8.498257985462715
 20
5.753565759048058
 30
0.0
 11
11.89519358107916
 21
-0.6138867029854744
 31
0.0
210
0.0
220
0.0
230
1.0
 40
0.0254518324826096
 41
1.174088100360031
 42
1.244909248607954
  0
LINE
  5
434AE
330
1F
100
AcDbEntity
  8
AM_0
100
AcDbLine
 10
12.32129806521243
 20
5.843849989486614
 30
0.0
 11
11.94624288800947
 21
5.886579846523148
 31
0.0
  0
LINE
  5
434AF
330
1F
100
AcDbEntity
  8
AM_0
100
AcDbLine
 10
0.8273383632695186
 20
16.19560116140934
 30
0.0
 11
2.392652863740523
 21
15.18019985645327
 31
0.0
  0
ELLIPSE
  5
434B0
330
1F
100
AcDbEntity
  8
AM_0
100
AcDbEllipse
 10
6.122331823874333
 20
9.874734990334616
 30
0.0
 11
11.89519358107917
 21
-0.6138867029854856
 31
0.0
210
0.0
220
0.0
230
1.0
 40
0.0254518324826095
 41
1.121836047830026
 42
1.156365114023247
  0
LINE
  5
434B1
330
1F
100
AcDbEntity
  8
AM_0
100
AcDbLine
 10
10.43240962612572
 20
9.964903182463047
 30
0.0
 11
10.92317083474359
 21
9.908990992582801
 31
0.0
  0
ELLIPSE
  5
434B2
330
1F
100
AcDbEntity
  8
AM_0
100
AcDbEllipse
 10
52.89197052550094
 20
-71.24966992243492
 30
0.0
 11
59.63677396205062
 21
-98.88096483524009
 31
0.0
210
0.0
220
0.0
230
1.0
 40
0.0843386839377325
 41
2.480805070929315
 42
2.482038567544703
  0
LINE
  5
434B6
330
1F
100
AcDbEntity
  8
AM_0
100
AcDbLine
 10
0.8273383632696323
 20
16.19560116140929
 30
0.0
 11
0.9411029012135259
 21
15.79647578593983
 31
0.0
  0
LINE
  5
434B7
330
1F
100
AcDbEntity
  8
AM_0
100
AcDbLine
 10
35.40914690948534
 20
24.80234317807654
 30
0.0
 11
42.00243160890557
 21
16.45987746783101
 31
0.0
  0
ELLIPSE
  5
434B8
330
1F
100
AcDbEntity
  8
AM_0
100
AcDbEllipse
 10
13.2668547769299
 20
7.770630768454396
 30
0.0
 11
-2.071501376789743
 21
-0.1992930511138658
 31
0.0
210
0.0
220
0.0
230
1.0
 40
0.9504482313174834
 41
1.658331642936826
 42
4.544477560098111
  0
LINE
  5
434B9
330
1F
100
AcDbEntity
  8
AM_0
100
AcDbLine
 10
11.2992679459544
 20
9.881041466443492
 30
0.0
 11
13.42629760543218
 21
9.745102104744376
 31
0.0
  0
SPLINE
  5
434BA
330
1F
100
AcDbEntity
  8
AM_0
100
AcDbSpline
210
0.0
220
0.0
230
1.0
 70
     8
 71
     3
 72
    10
 73
     6
 74
     0
 42
0.0000000001
 43
0.0000000001
 40
6.676641157581569
 40
6.676641157581569
 40
6.676641157581569
 40
6.676641157581569
 40
7.190689087808025
 40
7.190689087808025
 40
8.06516761616906
 40
8.06516761616906
 40
8.06516761616906
 40
8.06516761616906
 10
14.78813940733721
 20
1.338890771321417
 30
0.0
 10
14.92068955557079
 20
1.441087570019931
 30
0.0
 10
15.05316028012999
 20
1.540567411816255
 30
0.0
 10
15.40983547183578
 20
1.801705202876406
 30
0.0
 10
15.63325855600988
 20
1.958059044426477
 30
0.0
 10
15.85374820900154
 20
2.106055251373391
 30
0.0
  0
ARC
  5
434BB
330
1F
100
AcDbEntity
  8
AM_0
100
AcDbCircle
 10
26.99999999999983
 20
-14.50000000000006
 30
0.0
 40
20.0
100
AcDbArc
 50
103.337125501047
 51
123.8701483915885
  0
LINE
  5
434BC
330
1F
100
AcDbEntity
  8
AM_0
100
AcDbLine
 10
47.42896449904765
 20
15.19765682192349
 30
0.0
 11
50.0
 21
15.19765682192349
 31
0.0
  0
LINE
  5
434BD
330
1F
100
AcDbEntity
  8
AM_0
100
AcDbLine
 10
50.0
 20
13.42485522564391
 30
0.0
 11
50.0
 21
15.19765682192167
 31
0.0
  0
SPLINE
  5
434BE
330
1F
100
AcDbEntity
  8
AM_0
100
AcDbSpline
210
0.0
220
0.0
230
1.0
 70
    12
 71
     2
 72
     6
 73
     3
 74
     0
 42
0.0000000001
 43
0.0000000001
 40
0.0
 40
0.0
 40
0.0
 40
0.8052521306902443
 40
0.8052521306902443
 40
0.8052521306902443
 10
50.0
 20
15.19765682192167
 30
0.0
 41
1.0
 10
50.11577370724298
 20
14.81795969877726
 30
0.0
 41
1.000290718625246
 10
50.25
 20
14.43223563717004
 30
0.0
 41
1.0
  0
ELLIPSE
  5
434BF
330
1F
100
AcDbEntity
  8
AM_0
100
AcDbEllipse
 10
43.53360508621699
 20
5.24026031275821
 30
0.0
 11
-7.252470067106629
 21
9.176531214364047
 31
0.0
210
0.0
220
0.0
230
1.0
 40
0.8911910425859571
 41
5.698241808026638
 42
5.701765296087358
  0
ARC
  5
434C0
330
1F
100
AcDbEntity
  8
AM_0
100
AcDbCircle
 10
41.96430698933949
 20
3.999999999999034
 30
0.0
 40
12.45993579437712
100
AcDbArc
 50
63.98679351946365
 51
89.82468744292392
  0
SPLINE
  5
434C1
330
1F
100
AcDbEntity
  8
AM_0
100
AcDbSpline
210
0.0
220
0.0
230
1.0
 70
     8
 71
     3
 72
    10
 73
     6
 74
     0
 42
0.0000000001
 43
0.0000000001
 40
6.444867723158374
 40
6.444867723158374
 40
6.444867723158374
 40
6.444867723158374
 40
8.592371031108685
 40
8.592371031108685
 40
9.577303856233987
 40
9.577303856233987
 40
9.577303856233987
 40
9.577303856233987
 10
47.42896449904765
 20
15.19765682192349
 30
0.0
 10
48.08545040475428
 20
14.86785030080762
 30
0.0
 10
48.70343036313545
 20
14.47979757620567
 30
0.0
 10
49.52222368535684
 20
13.8484465195063
 30
0.0
 10
49.76781885748846
 20
13.64056468693468
 30
0.0
 10
50.0
 20
13.42485522564391
 30
0.0
  0
SPLINE
  5
434C2
330
1F
100
AcDbEntity
  8
AM_0
100
AcDbSpline
210
0.0
220
0.0
230
1.0
 70
     8
 71
     3
 72
    10
 73
     6
 74
     0
 42
0.0000000001
 43
0.0000000001
 40
1.355219549374845
 40
1.355219549374845
 40
1.355219549374845
 40
1.355219549374845
 40
1.560633781066621
 40
1.560633781066621
 40
1.690343021323367
 40
1.690343021323367
 40
1.690343021323367
 40
1.690343021323367
 10
50.0
 20
13.42485522564391
 30
0.0
 10
50.0513031732271
 20
13.38821085631207
 30
0.0
 10
50.10251683034539
 20
13.35066211525543
 30
0.0
 10
50.18577689819733
 20
13.28802657925485
 30
0.0
 10
50.21793390995367
 20
13.26344525204956
 30
0.0
 10
50.25
 20
13.23854275684801
 30
0.0
  0
SPLINE
  5
434C3
330
1F
100
AcDbEntity
  8
AM_0
100
AcDbSpline
210
0.0
220
0.0
230
1.0
 70
     8
 71
     3
 72
    10
 73
     6
 74
     0
 42
0.0000000001
 43
0.0000000001
 40
1.430924540809881
 40
1.430924540809881
 40
1.430924540809881
 40
1.430924540809881
 40
1.560633781066621
 40
1.560633781066621
 40
1.766048012758391
 40
1.766048012758391
 40
1.766048012758391
 40
1.766048012758391
 10
50.25
 20
5.49887259731031
 30
0.0
 10
50.21793390995367
 20
5.522641803290867
 30
0.0
 10
50.18577689819733
 20
5.546677297294082
 30
0.0
 10
50.10251683034539
 20
5.609414758100797
 30
0.0
 10
50.0513031732271
 20
5.648494605583551
 30
0.0
 10
50.0
 20
5.688117831804789
 30
0.0
  0
SPLINE
  5
434C4
330
1F
100
AcDbEntity
  8
AM_0
100
AcDbSpline
210
0.0
220
0.0
230
1.0
 70
     8
 71
     3
 72
    18
 73
    14
 74
     0
 42
0.0000000001
 43
0.0000000001
 40
2.232823194313995
 40
2.232823194313995
 40
2.232823194313995
 40
2.232823194313995
 40
3.862060353390322
 40
3.862060353390322
 40
5.793090530085483
 40
5.793090530085483
 40
7.724120706780644
 40
7.724120706780644
 40
9.460271226119662
 40
9.460271226119662
 40
11.19642174545868
 40
11.19642174545868
 40
12.22647821395859
 40
12.22647821395859
 40
12.22647821395859
 40
12.22647821395859
 10
32.77646545523771
 20
4.647648598302226
 30
0.0
 10
32.21814132070358
 20
4.816083905614391
 30
0.0
 10
31.64423483315386
 20
4.96229678034922
 30
0.0
 10
30.37857538333014
 20
5.225029261926807
 30
0.0
 10
29.68431563542583
 20
5.330951931760069
 30
0.0
 10
28.31686529167928
 20
5.468426847167734
 30
0.0
 10
27.643676725565
 20
5.5
 30
0.0
 10
26.42128316022024
 20
5.5
 30
0.0
 10
25.83225046741711
 20
5.474775768818859
 30
0.0
 10
24.64473242184897
 20
5.36977656192613
 30
0.0
 10
24.04624687468481
 20
5.290004416919771
 30
0.0
 10
23.09386059995984
 20
5.118153342907874
 30
0.0
 10
22.73945799176408
 20
5.044294350265261
 30
0.0
 10
22.38639455994928
 20
4.960592098996756
 30
0.0
  0
ELLIPSE
  5
434C5
330
1F
100
AcDbEntity
  8
AM_0
100
AcDbEllipse
 10
54.35389239456833
 20
3.999999999999091
 30
0.0
 11
32.78648232479481
 21
-4.319324543737018
 31
0.0
210
0.0
220
0.0
230
0.9999999999999998
 40
0.3577700928468209
 41
2.004954911805549
 42
3.417489970928898
  0
LINE
  5
434C6
330
1F
100
AcDbEntity
  8
AM_0
100
AcDbLine
 10
50.0
 20
24.80234317807651
 30
0.0
 11
35.40914690948534
 21
24.80234317807654
 31
0.0
  0
ELLIPSE
  5
434C7
330
1F
100
AcDbEntity
  8
AM_0
100
AcDbEllipse
 10
1.643522555212371
 20
20.00000000000006
 30
0.0
 11
41.31096772924146
 21
-5.442348925108647
 31
0.0
210
0.0
220
0.0
230
1.0
 40
0.357770092846821
 41
0.6626651639666131
 42
0.747932795175039
  0
LINE
  5
434C8
330
1F
100
AcDbEntity
  8
AM_0
100
AcDbLine
 10
19.8229251489679
 20
35.75000000000006
 30
0.0
 11
25.0
 21
35.75000000000006
 31
0.0
  0
SPLINE
  5
434C9
330
1F
100
AcDbEntity
  8
AM_0
100
AcDbSpline
210
0.0
220
0.0
230
1.0
 70
     8
 71
     3
 72
    14
 73
    10
 74
     0
 42
0.0000000001
 43
0.0000000001
 40
-3.631643516799437
 40
-3.631643516799437
 40
-3.631643516799437
 40
-3.631643516799437
 40
-3.21060840876315
 40
-3.21060840876315
 40
-2.140405605842098
 40
-2.140405605842098
 40
-1.070202802921045
 40
-1.070202802921045
 40
0.0
 40
0.0
 40
0.0
 40
0.0
 10
32.77646545514983
 20
4.647648598338606
 30
0.0
 10
32.86296982859244
 20
4.621551946180944
 30
0.0
 10
32.94612027672144
 20
4.595825034719951
 30
0.0
 10
33.22625374046368
 20
4.507320064524038
 30
0.0
 10
33.40072333667752
 20
4.448687416855819
 30
0.0
 10
33.68107159562942
 20
4.351664980384271
 30
0.0
 10
33.78722169110904
 20
4.313269802526747
 30
0.0
 10
33.92654239633862
 20
4.262422799923343
 30
0.0
 10
33.95970545353885
 20
4.249999999999432
 30
0.0
 10
33.95970545353885
 20
4.249999999999432
 30
0.0
  0
LINE
  5
434CA
330
1F
100
AcDbEntity
  8
AM_0
100
AcDbLine
 10
41.96430698933955
 20
4.647648598400792
 30
0.0
 11
32.77646545523771
 21
4.647648598400792
 31
0.0
  0
SPLINE
  5
434CB
330
1F
100
AcDbEntity
  8
AM_0
100
AcDbSpline
210
0.0
220
0.0
230
1.0
 70
     8
 71
     3
 72
    14
 73
    10
 74
     0
 42
0.0000000001
 43
0.0000000001
 40
1.56624986973287
 40
1.56624986973287
 40
1.56624986973287
 40
1.56624986973287
 40
2.55118269485817
 40
2.55118269485817
 40
5.10236538971634
 40
5.10236538971634
 40
7.65354808457451
 40
7.65354808457451
 40
10.20473077943268
 40
10.20473077943268
 40
10.20473077943268
 40
10.20473077943268
 10
50.0
 20
5.688117831804789
 30
0.0
 10
49.76781885748846
 20
5.589016894519432
 30
0.0
 10
49.52222368535684
 20
5.499418401431171
 30
0.0
 10
48.59791185540644
 20
5.208448698628331
 30
0.0
 10
47.85099706163737
 20
5.055847826939385
 30
0.0
 10
46.25864919960691
 20
4.831399316384136
 30
0.0
 10
45.41200932682727
 20
4.759054693960252
 30
0.0
 10
43.69005144661321
 20
4.667237571396868
 30
0.0
 10
42.81470122095902
 20
4.647648598400792
 30
0.0
 10
41.96430698933955
 20
4.647648598400792
 30
0.0
  0
LINE
  5
434CC
330
1F
100
AcDbEntity
  8
AM_0
100
AcDbLine
 10
50.0
 20
4.249999999998863
 30
0.0
 11
50.0
 21
5.688117831804789
 31
0.0
  0
LINE
  5
434CD
330
1F
100
AcDbEntity
  8
AM_0
100
AcDbLine
 10
10.60016661814609
 20
30.42523787955912
 30
0.0
 11
2.292478872625679
 21
25.62879212333945
 31
0.0
  0
LINE
  5
434CE
330
1F
100
AcDbEntity
  8
AM_0
100
AcDbLine
 10
2.292478872625679
 20
25.62879212333945
 30
0.0
 11
1.29142130825278
 21
25.05083126907448
 31
0.0
  0
LINE
  5
434CF
330
1F
100
AcDbEntity
  8
AM_0
100
AcDbLine
 10
17.76032900770372
 20
34.55915956261168
 30
0.0
 11
19.82292514896892
 21
35.75000000000063
 31
0.0
  0
SPLINE
  5
434D0
330
1F
100
AcDbEntity
  8
AM_0
100
AcDbSpline
210
0.0
220
0.0
230
1.0
 70
     8
 71
     3
 72
    32
 73
    28
 74
     0
 42
0.0000000001
 43
0.0000000001
 40
0.9389785202992591
 40
0.9389785202992591
 40
0.9389785202992591
 40
0.9389785202992591
 40
3.321123983315246
 40
3.321123983315246
 40
5.703269446331232
 40
5.703269446331232
 40
8.085414909347218
 40
8.085414909347218
 40
10.46756037236321
 40
10.46756037236321
 40
11.39997417269666
 40
11.39997417269666
 40
12.33238797303011
 40
12.33238797303011
 40
13.26480177336356
 40
13.26480177336356
 40
14.19721557369701
 40
14.19721557369701
 40
15.12962937403046
 40
15.12962937403046
 40
16.06204317436391
 40
16.06204317436391
 40
16.99445697469737
 40
16.99445697469737
 40
17.92687077503082
 40
17.92687077503082
 40
18.9471849973818
 40
18.9471849973818
 40
18.9471849973818
 40
18.9471849973818
 10
25.46430698933955
 20
34.55915956261165
 30
0.0
 10
26.25835547701161
 20
34.55915956261165
 30
0.0
 10
27.07623862620017
 20
34.5276869809376
 30
0.0
 10
28.6847944600371
 20
34.38793435159008
 30
0.0
 10
29.47550154010389
 20
34.27961752487809
 30
0.0
 10
30.96043953673336
 20
33.96548451488698
 30
0.0
 10
31.65563048080185
 20
33.75931805655605
 30
0.0
 10
32.89144194185167
 20
33.22379527319359
 30
0.0
 10
33.43241963959031
 20
32.89448853836771
 30
0.0
 10
34.04001073221843
 20
32.33236433435505
 30
0.0
 10
34.20202683145612
 20
32.15577355161545
 30
0.0
 10
34.48890853426497
 20
31.76989513053255
 30
0.0
 10
34.61374887793591
 20
31.56055525170214
 30
0.0
 10
34.8143524749637
 20
31.11780531086939
 30
0.0
 10
34.89021226387149
 20
30.88410370066541
 30
0.0
 10
34.98942963314164
 20
30.40560505971806
 30
0.0
 10
35.01278005681661
 20
30.16080010499903
 30
0.0
 10
35.01278005681661
 20
29.6779615852694
 30
0.0
 10
34.98942963314164
 20
29.42131429768179
 30
0.0
 10
34.89021226387149
 20
28.8930949564091
 30
0.0
 10
34.8143524749637
 20
28.62152813609819
 30
0.0
 10
34.61374887793591
 20
28.08064501365098
 30
0.0
 10
34.48890853426497
 20
27.81103103374531
 30
0.0
 10
34.20202683145612
 20
27.2904055426765
 30
0.0
 10
34.04001073221843
 20
27.03941127203635
 30
0.0
 10
33.68205660962133
 20
26.54913219868902
 30
0.0
 10
33.47587250821243
 20
26.3009425694685
 30
0.0
 10
33.25272141603
 20
26.06236104032396
 30
0.0
  0
ELLIPSE
  5
434D1
330
1F
100
AcDbEntity
  8
AM_0
100
AcDbEllipse
 10
26.81321271155412
 20
36.06607803593471
 30
0.0
 11
-7.385833322550218
 21
9.345275389121534
 31
0.0
210
0.0
220
0.0
230
0.9999999999999998
 40
0.8911910425859572
 41
2.294629694374324
 42
3.032979097340445
  0
LINE
  5
434D2
330
1F
100
AcDbEntity
  8
AM_0
100
AcDbLine
 10
10.60016661814609
 20
30.42523787955912
 30
0.0
 11
17.76032900770372
 21
34.55915956261168
 31
0.0
  0
LINE
  5
434D3
330
1F
100
AcDbEntity
  8
AM_0
100
AcDbLine
 10
17.76032900770372
 20
34.55915956261168
 30
0.0
 11
25.46430698933955
 21
34.55915956261165
 31
0.0
  0
ELLIPSE
  5
434D4
330
1F
100
AcDbEntity
  8
AM_0
100
AcDbEllipse
 10
36.11389783650532
 20
34.99999999999926
 30
0.0
 11
32.78648232479481
 21
-4.319324543737018
 31
0.0
210
0.0
220
0.0
230
0.9999999999999998
 40
0.3577700928468209
 41
3.869099863371059
 42
4.429050224725518
  0
SPLINE
  5
434D5
330
1F
100
AcDbEntity
  8
AM_0
100
AcDbSpline
210
0.0
220
0.0
230
1.0
 70
    12
 71
     2
 72
     6
 73
     3
 74
     0
 42
0.0000000001
 43
0.0000000001
 40
0.0
 40
0.0
 40
0.0
 40
0.8052521306902443
 40
0.8052521306902443
 40
0.8052521306902443
 10
50.25
 20
25.56776436282996
 30
0.0
 41
1.0
 10
50.11577370724298
 20
25.18204030122297
 30
0.0
 41
1.000290718625246
 10
50.0
 20
24.80234317807833
 30
0.0
 41
1.0
  0
LINE
  5
434D6
330
1F
100
AcDbEntity
  8
AM_0
100
AcDbLine
 10
50.0
 20
24.80234317807833
 30
0.0
 11
50.0
 21
33.29924175404688
 31
0.0
  0
LINE
  5
434D7
330
1F
100
AcDbEntity
  8
AM_0
100
AcDbLine
 10
50.25
 20
4.0
 30
0.0
 11
50.25
 21
5.498872597310196
 31
0.0
  0
SPLINE
  5
434D8
330
1F
100
AcDbEntity
  8
AM_0
100
AcDbSpline
210
0.0
220
0.0
230
1.0
 70
     8
 71
     3
 72
    22
 73
    18
 74
     0
 42
0.0000000001
 43
0.0000000001
 40
1.34016745916002
 40
1.34016745916002
 40
1.34016745916002
 40
1.34016745916002
 40
1.834702042943613
 40
1.834702042943613
 40
3.669404085887225
 40
3.669404085887225
 40
5.504106128830838
 40
5.504106128830838
 40
7.338808171774451
 40
7.338808171774451
 40
9.173510214718064
 40
9.173510214718064
 40
11.00821225766168
 40
11.00821225766168
 40
12.84291430060529
 40
12.84291430060529
 40
13.33744888438889
 40
13.33744888438889
 40
13.33744888438889
 40
13.33744888438889
 10
50.25
 20
13.23854275684801
 30
0.0
 10
50.36661259622633
 20
13.12539820787367
 30
0.0
 10
50.4803514683183
 20
13.00962578105612
 30
0.0
 10
51.00013260431797
 20
12.45369999183822
 30
0.0
 10
51.36233595596843
 20
11.9843021169587
 30
0.0
 10
51.95282588248392
 20
11.02651166602777
 30
0.0
 10
52.1819189754118
 20
10.53705729735339
 30
0.0
 10
52.48689364235156
 20
9.583124679417438
 30
0.0
 10
52.56276649697634
 20
9.118734919689018
 30
0.0
 10
52.56276649697634
 20
8.253848082340824
 30
0.0
 10
52.48689364235156
 20
7.84026351879254
 30
0.0
 10
52.1819189754118
 20
7.083994510861885
 30
0.0
 10
51.95282588248392
 20
6.74119493951639
 30
0.0
 10
51.36233595596843
 20
6.141143810090512
 30
0.0
 10
51.00013260431797
 20
5.882908841350968
 30
0.0
 10
50.4803514683183
 20
5.607223136024572
 30
0.0
 10
50.36661259622633
 20
5.551628635440352
 30
0.0
 10
50.25
 20
5.49887259731031
 30
0.0
  0
LINE
  5
434D9
330
1F
100
AcDbEntity
  8
AM_0
100
AcDbLine
 10
50.25
 20
13.23854275684801
 30
0.0
 11
50.25
 21
14.43223563717004
 31
0.0
  0
LINE
  5
434DA
330
1F
100
AcDbEntity
  8
AM_0
100
AcDbLine
 10
50.25
 20
14.43223563717004
 30
0.0
 11
177.8758004435722
 21
14.43223563717004
 31
0.0
  0
LINE
  5
434DB
330
1F
100
AcDbEntity
  8
AM_0
100
AcDbLine
 10
298.0
 20
3.999999999999943
 30
0.0
 11
298.0
 21
14.43223563716998
 31
0.0
  0
LINE
  5
434DC
330
1F
100
AcDbEntity
  8
AM_0
100
AcDbLine
 10
298.0
 20
25.56776436282991
 30
0.0
 11
298.0
 21
35.99999999999983
 31
0.0
  0
LINE
  5
434DD
330
1F
100
AcDbEntity
  8
AM_0
100
AcDbLine
 10
297.9999999999999
 20
25.56776436282991
 30
0.0
 11
227.8758004435722
 21
25.56776436282996
 31
0.0
  0
LINE
  5
434DE
330
1F
100
AcDbEntity
  8
AM_0
100
AcDbLine
 10
50.25
 20
25.56776436282996
 30
0.0
 11
50.25
 21
33.56517046993702
 31
0.0
  0
LINE
  5
434DF
330
1F
100
AcDbEntity
  8
AM_0
100
AcDbLine
 10
38.46430699015377
 20
35.38301988604934
 30
0.0
 11
50.0
 21
35.38301988604931
 31
0.0
  0
SPLINE
  5
434E0
330
1F
100
AcDbEntity
  8
AM_0
100
AcDbSpline
210
0.0
220
0.0
230
1.0
 70
    12
 71
     2
 72
     6
 73
     3
 74
     0
 42
0.0000000001
 43
0.0000000001
 40
0.0001980512169719
 40
0.0001980512169719
 40
0.0001980512169719
 40
0.368188261299142
 40
0.368188261299142
 40
0.368188261299142
 10
50.00000000000046
 20
35.38301988604988
 30
0.0
 41
1.000000038952519
 10
50.12385170405889
 20
35.51493728054643
 30
0.0
 41
1.000036207463044
 10
50.25
 20
35.64894860193991
 30
0.0
 41
1.000000038243369
  0
LINE
  5
434E1
330
1F
100
AcDbEntity
  8
AM_0
100
AcDbLine
 10
50.25
 20
35.64894860193968
 30
0.0
 11
104.4643069901586
 21
35.64894860193968
 31
0.0
  0
SPLINE
  5
434E2
330
1F
100
AcDbEntity
  8
AM_0
100
AcDbSpline
210
0.0
220
0.0
230
1.0
 70
     8
 71
     3
 72
    38
 73
    34
 74
     0
 42
0.0000000001
 43
0.0000000001
 40
0.0
 40
0.0
 40
0.0
 40
0.0
 40
1.143153348813538
 40
1.143153348813538
 40
2.286306697627076
 40
2.286306697627076
 40
3.429460046440614
 40
3.429460046440614
 40
4.572613395254152
 40
4.572613395254152
 40
5.71483006014926
 40
5.71483006014926
 40
6.857046725044368
 40
6.857046725044368
 40
7.999263389939476
 40
7.999263389939476
 40
9.141480054834585
 40
9.141480054834585
 40
10.28369671972969
 40
10.28369671972969
 40
11.4259133846248
 40
11.4259133846248
 40
12.56813004951991
 40
12.56813004951991
 40
13.71034671441502
 40
13.71034671441502
 40
14.85350006322854
 40
14.85350006322854
 40
15.99665341204205
 40
15.99665341204205
 40
17.13980676085557
 40
17.13980676085557
 40
18.28296010966909
 40
18.28296010966909
 40
18.28296010966909
 40
18.28296010966909
 10
38.46430699015377
 20
33.29924175404622
 30
0.0
 10
38.08325587388254
 20
33.29924175404622
 30
0.0
 10
37.69060257938827
 20
33.32079010690305
 30
0.0
 10
36.91219753784401
 20
33.40851703881722
 30
0.0
 10
36.52643052246071
 20
33.4746168865419
 30
0.0
 10
35.78865350152296
 20
33.64164747468263
 30
0.0
 10
35.43598262712953
 20
33.74258209910104
 30
0.0
 10
34.78465273734514
 20
33.96279736972375
 30
0.0
 10
34.48598959186063
 20
34.08194055402819
 30
0.0
 10
33.95755959702638
 20
34.31926488117111
 30
0.0
 10
33.70909013387677
 20
34.44595183213565
 30
0.0
 10
33.26989234318535
 20
34.69888943025381
 30
0.0
 10
33.07913047565899
 20
34.82501854151013
 30
0.0
 10
32.77174343036063
 20
35.06080599396972
 30
0.0
 10
32.65487401594282
 20
35.17058682513078
 30
0.0
 10
32.50113329230715
 20
35.36250427834165
 30
0.0
 10
32.46430699015377
 20
35.44460749582294
 30
0.0
 10
32.46430699015377
 20
35.57683672406284
 30
0.0
 10
32.50113329230715
 20
35.63106275722925
 30
0.0
 10
32.65487401594294
 20
35.70950037473705
 30
0.0
 10
32.77174343036063
 20
35.73374937447881
 30
0.0
 10
33.0791304756591
 20
35.75430027005319
 30
0.0
 10
33.26989234318535
 20
35.75070760031616
 30
0.0
 10
33.70909013387688
 20
35.72399354076123
 30
0.0
 10
33.95755959702649
 20
35.70099523238281
 30
0.0
 10
34.48598959186063
 20
35.647192716495
 30
0.0
 10
34.78465273734514
 20
35.61435150549784
 30
0.0
 10
35.43598262712953
 20
35.54663582439588
 30
0.0
 10
35.78865350152296
 20
35.51191369616089
 30
0.0
 10
36.52643052246071
 20
35.45159399651692
 30
0.0
 10
36.91219753784401
 20
35.42607713899241
 30
0.0
 10
37.69060257938827
 20
35.39175914544154
 30
0.0
 10
38.08325587388254
 20
35.38301988604934
 30
0.0
 10
38.46430699015377
 20
35.38301988604934
 30
0.0
  0
SPLINE
  5
434E3
330
1F
100
AcDbEntity
  8
AM_0
100
AcDbSpline
210
0.0
220
0.0
230
1.0
 70
    12
 71
     2
 72
     6
 73
     3
 74
     0
 42
0.0000000001
 43
0.0000000001
 40
0.0001944436916217
 40
0.0001944436916217
 40
0.0001944436916217
 40
0.3681846537709337
 40
0.3681846537709337
 40
0.3681846537709337
 10
50.25
 20
33.56517046993704
 30
0.0
 41
1.000000038243302
 10
50.12385170405811
 20
33.43115914854303
 30
0.0
 41
1.000036207399546
 10
50.0
 20
33.29924175404739
 30
0.0
 41
1.000000038952451
  0
LINE
  5
434E4
330
1F
100
AcDbEntity
  8
AM_0
100
AcDbLine
 10
50.0
 20
33.29924175404619
 30
0.0
 11
38.46430699015377
 21
33.29924175404622
 31
0.0
  0
LINE
  5
434E5
330
1F
100
AcDbEntity
  8
AM_0
100
AcDbLine
 10
104.4643422007667
 20
33.56517046993793
 30
0.0
 11
50.25
 21
33.56517046993793
 31
0.0
  0
SPLINE
  5
434E6
330
1F
100
AcDbEntity
  8
AM_0
100
AcDbSpline
210
0.0
220
0.0
230
1.0
 70
     8
 71
     3
 72
    38
 73
    34
 74
     0
 42
0.0000000001
 43
0.0000000001
 40
-18.27621530968562
 40
-18.27621530968562
 40
-18.27621530968562
 40
-18.27621530968562
 40
-17.13351433065794
 40
-17.13351433065794
 40
-15.99081335163026
 40
-15.99081335163026
 40
-14.84811237260259
 40
-14.84811237260259
 40
-13.70541139357491
 40
-13.70541139357491
 40
-12.56358545889185
 40
-12.56358545889185
 40
-11.4217595242088
 40
-11.4217595242088
 40
-10.27993358952574
 40
-10.27993358952574
 40
-9.138107654842678
 40
-9.138107654842678
 40
-7.996281720159637
 40
-7.996281720159637
 40
-6.854455785476592
 40
-6.854455785476592
 40
-5.712629850793547
 40
-5.712629850793547
 40
-4.570803916110506
 40
-4.570803916110506
 40
-3.428102937082883
 40
-3.428102937082883
 40
-2.285401958055253
 40
-2.285401958055253
 40
-1.142700979027623
 40
-1.142700979027623
 40
0.0
 40
0.0
 40
0.0
 40
0.0
 10
104.4643069901536
 20
35.64894860193991
 30
0.0
 10
104.8452073164962
 20
35.64894860193991
 30
0.0
 10
105.2377573825761
 20
35.65740469835126
 30
0.0
 10
106.0160512776046
 20
35.69060538898046
 30
0.0
 10
106.4018099580203
 20
35.71529044483569
 30
0.0
 10
107.1396391158077
 20
35.77358708368993
 30
0.0
 10
107.4923681487171
 20
35.80711941637483
 30
0.0
 10
108.1438283161539
 20
35.87235440331224
 30
0.0
 10
108.4425629590151
 20
35.90390707812745
 30
0.0
 10
108.9711299380581
 20
35.95527499231528
 30
0.0
 10
109.2196483522343
 20
35.97703629546393
 30
0.0
 10
109.6588904052927
 20
36.00145974324747
 30
0.0
 10
109.8496474884037
 20
36.00400026674711
 30
0.0
 10
110.1569936610421
 20
35.98171474730194
 30
0.0
 10
110.2738269307743
 20
35.95678285006071
 30
0.0
 10
110.4275059173767
 20
35.87745192784487
 30
0.0
 10
110.4643069901537
 20
35.82301604578564
 30
0.0
 10
110.4643069901537
 20
35.69083205060534
 30
0.0
 10
110.4275059173767
 20
35.60897214402885
 30
0.0
 10
110.2738269307743
 20
35.41798792818887
 30
0.0
 10
110.156993661042
 20
35.30889651923113
 30
0.0
 10
109.8496474884036
 20
35.07483282293643
 30
0.0
 10
109.6588904052926
 20
34.94973917643418
 30
0.0
 10
109.2196483522342
 20
34.69904805130128
 30
0.0
 10
108.9711299380579
 20
34.57357088100241
 30
0.0
 10
108.4425629590149
 20
34.33863358144333
 30
0.0
 10
108.1438283161538
 20
34.22076259619678
 30
0.0
 10
107.492368148717
 20
34.00301061792732
 30
0.0
 10
107.1396391158075
 20
33.90326495723855
 30
0.0
 10
106.4018099580202
 20
33.73826874474878
 30
0.0
 10
106.0160512776045
 20
33.673012850948
 30
0.0
 10
105.2377573825761
 20
33.58642561934414
 30
0.0
 10
104.8452073164963
 20
33.56517046993736
 30
0.0
 10
104.4643069901538
 20
33.56517046993724
 30
0.0
  0
LINE
  5
435BB
330
1F
100
AcDbEntity
  8
AM_7
  6
AM_ISO08W050x2
100
AcDbLine
 10
5.133659271941042
 20
12.87632155372404
 30
0.0
 11
5.133659271941042
 21
2.576321553724029
 31
0.0
1001
GENIUS_GENODEF_13
1002
{
1000
HIER
1070
     0
1002
}
1002
{
1000
MANEDIT
1070
     0
1002
}
1002
{
1000
NOSEL
1070
     0
1002
}
1002
{
1000
BEHIND
1070
     0
1002
}
1002
{
1000
REACTOR
1002
}
1001
GENIUS_GENOBJ-N-CEN_13
1002
{
1000
OWNER
1000
GEN
1002
}
  0
ARC
  5
435C5
330
1F
100
AcDbEntity
  8
AM_0
100
AcDbCircle
 10
4.149954123099121
 20
6.022494256262348
 30
0.0
 40
0.726
100
AcDbArc
 50
16.97221509006351
 51
103.0277849099319
  0
ARC
  5
435C6
330
1F
100
AcDbEntity
  8
AM_0
100
AcDbCircle
 10
4.149954123099121
 20
9.430148851185663
 30
0.0
 40
0.726
100
AcDbArc
 50
256.9722150900681
 51
343.0277849099365
  0
CIRCLE
  5
435C7
330
1F
100
AcDbEntity
  8
AM_0
100
AcDbCircle
 10
5.133659271940985
 20
7.726321553724006
 30
0.0
 40
2.35
  0
CIRCLE
  5
435C8
330
1F
100
AcDbEntity
  8
AM_0
100
AcDbCircle
 10
5.133659271940985
 20
7.726321553724006
 30
0.0
 40
2.8
  0
CIRCLE
  5
435C9
330
1F
100
AcDbEntity
  8
AM_0
100
AcDbCircle
 10
5.133659271940985
 20
7.726321553724006
 30
0.0
 40
1.706099999999583
  0
LINE
  5
435CA
330
1F
100
AcDbEntity
  8
AM_7
  6
AM_ISO08W050x2
100
AcDbLine
 10
-0.0163407280588217
 20
7.726321553724063
 30
0.0
 11
10.28365927194113
 21
7.726321553724063
 31
0.0
1001
GENIUS_GENODEF_13
1002
{
1000
HIER
1070
     0
1002
}
1002
{
1000
MANEDIT
1070
     0
1002
}
1002
{
1000
NOSEL
1070
     0
1002
}
1002
{
1000
BEHIND
1070
     0
1002
}
1002
{
1000
REACTOR
1002
}
1001
GENIUS_GENOBJ-N-CEN_13
1002
{
1000
OWNER
1000
GEN
1002
}
  0
ARC
  5
435CB
330
1F
100
AcDbEntity
  8
AM_0
100
AcDbCircle
 10
3.16624897425703
 20
7.726321553724006
 30
0.0
 40
0.726
100
AcDbArc
 50
316.9722150900663
 51
43.02778490993931
  0
ARC
  5
435CC
330
1F
100
AcDbEntity
  8
AM_0
100
AcDbCircle
 10
3.918106015189494
 20
7.024521553724185
 30
0.0
 40
0.3024999999998347
100
AcDbArc
 50
136.9722150900606
 51
283.0277849099385
  0
ARC
  5
435CD
330
1F
100
AcDbEntity
  8
AM_0
100
AcDbCircle
 10
3.918106015189494
 20
8.428121553723941
 30
0.0
 40
0.3024999999998347
100
AcDbArc
 50
76.97221509006826
 51
223.0277849099417
  0
ARC
  5
435D0
330
1F
100
AcDbEntity
  8
AM_0
100
AcDbCircle
 10
7.101069569625395
 20
7.726321553724006
 30
0.0
 40
0.726
100
AcDbArc
 50
136.9722150900663
 51
223.0277849099337
  0
ARC
  5
435D1
330
1F
100
AcDbEntity
  8
AM_0
100
AcDbCircle
 10
6.349212528692704
 20
7.024521553724185
 30
0.0
 40
0.3024999999998347
100
AcDbArc
 50
256.9722150900615
 51
43.02778490993931
  0
ARC
  5
435D2
330
1F
100
AcDbEntity
  8
AM_0
100
AcDbCircle
 10
6.349212528692704
 20
8.428121553723941
 30
0.0
 40
0.3024999999998347
100
AcDbArc
 50
316.9722150900675
 51
103.0277849099387
  0
ARC
  5
435D3
330
1F
100
AcDbEntity
  8
AM_0
100
AcDbCircle
 10
5.133659271941212
 20
9.129921553723762
 30
0.0
 40
0.3024999999998347
100
AcDbArc
 50
16.97221509006655
 51
163.0277849099334
  0
ARC
  5
435D4
330
1F
100
AcDbEntity
  8
AM_0
100
AcDbCircle
 10
5.133659271941212
 20
6.322721553724364
 30
0.0
 40
0.3024999999998347
100
AcDbArc
 50
196.9722150900666
 51
343.0277849099334
  0
ARC
  5
435D5
330
1F
100
AcDbEntity
  8
AM_0
100
AcDbCircle
 10
6.117364420783304
 20
9.43014885118555
 30
0.0
 40
0.726
100
AcDbArc
 50
196.9722150900635
 51
283.0277849099319
  0
ARC
  5
435D6
330
1F
100
AcDbEntity
  8
AM_0
100
AcDbCircle
 10
6.117364420783304
 20
6.022494256262462
 30
0.0
 40
0.726
100
AcDbArc
 50
76.97221509006802
 51
163.0277849099365
  0
LINE
  5
43C6E
330
1F
100
AcDbEntity
  8
AM_7
100
AcDbLine
 10
304.1684173924887
 20
19.99999999999994
 30
0.0
 11
-4.546508955942954
 21
20.00000000000006
 31
0.0
1001
GENIUS_GENODEF_13
1002
{
1000
HIER
1070
     0
1002
}
1002
{
1000
MANEDIT
1070
     0
1002
}
1002
{
1000
NOSEL
1070
     0
1002
}
1002
{
1000
BEHIND
1070
     0
1002
}
1002
{
1000
REACTOR
1002
}
1001
GENIUS_GENOBJ-N-CEN_13
1002
{
1000
OWNER
1000
GEN
1002
}
  0
LINE
  5
43C71
330
1F
100
AcDbEntity
  8
AM_7
100
AcDbLine
 10
304.1684173924887
 20
-132.1159532550524
 30
0.0
 11
-4.546508955942954
 21
-132.1159532550524
 31
0.0
1001
GENIUS_GENODEF_13
1002
{
1000
HIER
1070
     0
1002
}
1002
{
1000
MANEDIT
1070
     0
1002
}
1002
{
1000
NOSEL
1070
     0
1002
}
1002
{
1000
BEHIND
1070
     0
1002
}
1002
{
1000
REACTOR
1002
}
1001
GENIUS_GENOBJ-N-CEN_13
1002
{
1000
OWNER
1000
GEN
1002
}
  0
LINE
  5
43C90
330
1F
100
AcDbEntity
  8
AM_7
100
AcDbLine
 10
-91.99149098520888
 20
50.02220203806405
 30
0.0
 11
-91.99149098520888
 21
-10.02220203806394
 31
0.0
1001
GENIUS_GENODEF_13
1002
{
1000
HIER
1070
     0
1002
}
1002
{
1000
MANEDIT
1070
     0
1002
}
1002
{
1000
NOSEL
1070
     0
1002
}
1002
{
1000
BEHIND
1070
     0
1002
}
1002
{
1000
REACTOR
1002
}
1001
GENIUS_GENOBJ-N-CEN_13
1002
{
1000
OWNER
1000
GEN
1002
}
  0
LINE
  5
43C98
330
1F
100
AcDbEntity
  8
AM_7
100
AcDbLine
 10
-61.96928894714495
 20
20.00000000000006
 30
0.0
 11
-122.0136930232729
 21
20.00000000000006
 31
0.0
1001
GENIUS_GENODEF_13
1002
{
1000
HIER
1070
     0
1002
}
1002
{
1000
MANEDIT
1070
     0
1002
}
1002
{
1000
NOSEL
1070
     0
1002
}
1002
{
1000
BEHIND
1070
     0
1002
}
1002
{
1000
REACTOR
1002
}
1001
GENIUS_GENOBJ-N-CEN_13
1002
{
1000
OWNER
1000
GEN
1002
}
  0
LINE
  5
43D3D
330
1F
100
AcDbEntity
  8
AM_5
100
AcDbLine
 10
0.0
 20
0.5235415730240902
 30
0.0
 11
0.0
 21
-5.255786634991523
 31
0.0
  0
LINE
  5
43D3E
330
1F
100
AcDbEntity
  8
AM_5
100
AcDbLine
 10
0.3972656262078544
 20
0.0
 30
0.0
 11
-4.495005698526029
 21
0.0
 31
0.0
  0
CIRCLE
  5
43DE7
330
1F
100
AcDbEntity
  8
AM_11
  6
ACJISTGB
100
AcDbCircle
 10
-91.99149098520888
 20
20.12500000000003
 30
0.0
 40
20.0
  0
DIMENSION
  5
43DF0
330
1F
100
AcDbEntity
  8
AM_5
100
AcDbDimension
  2
*D4
 10
-79.88336417828209
 20
4.206668893147665
 30
0.0
 11
-125.6198503881114
 21
47.66034331515493
 31
0.0
 70
   163
  1
最小加工径\P<>
 71
     5
 42
40.00000000000023
  3
AM_JIS$3
100
AcDbDiametricDimension
 15
-104.0996177921356
 25
36.04333110685257
 35
0.0
 40
0.0
1001
ACAD
1000
DSTYLE
1002
{
1070
   271
1070
     0
1070
   288
1070
     1
1070
   289
1070
     3
1070
   172
1070
     1
1070
    74
1070
     1
1002
}
1001
GENIUS_GENDTOL_13
1000

1000
h7
1000

1040
0.0
  0
LINE
  5
44115
330
1F
100
AcDbEntity
  8
AM_11
  6
ACJISTGB
100
AcDbLine
 10
42.99999999707791
 20
-117.1159532550524
 30
0.0
 11
22.38639455994928
 21
-128.578989113917
 31
0.0
  0
DIMENSION
  5
4431E
330
1F
100
AcDbEntity
  8
AM_5
100
AcDbDimension
  2
*D5
 10
52.99999999999989
 20
-171.3090354280636
 30
0.0
 11
26.49999999999989
 21
-167.9090354280636
 31
0.0
 70
    32
  1
<>
 71
     5
 42
53.0
  3
AM_JIS$0
100
AcDbAlignedDimension
 13
-0.0000000000001137
 23
-132.1159532550524
 33
0.0
 14
52.99999999999989
 24
-148.1159532550523
 34
0.0
100
AcDbRotatedDimension
1001
ACAD
1000
DSTYLE
1002
{
1070
   271
1070
     0
1002
}
1001
GENIUS_GENDTOL_13
1000

1000
h7
1000

1040
0.0
  0
ARC
  5
449D3
330
1F
100
AcDbEntity
  8
AM_0
100
AcDbCircle
 10
202.8758004435721
 20
19.99999999999997
 30
0.0
 40
16.0
100
AcDbArc
 50
200.3641348063178
 51
339.6358651936822
  0
ARC
  5
449E5
330
1F
100
AcDbEntity
  8
AM_0
100
AcDbCircle
 10
202.8758004435721
 20
19.99999999999997
 30
0.0
 40
16.0
100
AcDbArc
 50
20.36413480631778
 51
159.6358651936822
  0
LINE
  5
449F7
330
1F
100
AcDbEntity
  8
AM_0
100
AcDbLine
 10
227.8758004435722
 20
4.0
 30
0.0
 11
298.0
 21
3.999999999999943
 31
0.0
  0
LINE
  5
449F8
330
1F
100
AcDbEntity
  8
AM_0
100
AcDbLine
 10
227.8758004435722
 20
14.43223563717004
 30
0.0
 11
298.0
 21
14.43223563716992
 31
0.0
  0
LINE
  5
449F9
330
1F
100
AcDbEntity
  8
AM_0
100
AcDbLine
 10
177.8758004435722
 20
25.56776436282996
 30
0.0
 11
50.25
 21
25.56776436282996
 31
0.0
  0
LINE
  5
449FA
330
1F
100
AcDbEntity
  8
AM_0
100
AcDbLine
 10
227.8758004435722
 20
35.99999999999997
 30
0.0
 11
297.9999999999999
 21
35.99999999999989
 31
0.0
  0
LINE
  5
449FC
330
1F
100
AcDbEntity
  8
AM_0
100
AcDbLine
 10
217.8758004435722
 20
25.56776436283002
 30
0.0
 11
217.8758004435722
 21
14.43223563716998
 31
0.0
  0
LINE
  5
449FD
330
1F
100
AcDbEntity
  8
AM_0
100
AcDbLine
 10
187.8758004435722
 20
25.56776436283002
 30
0.0
 11
187.8758004435722
 21
14.43223563716998
 31
0.0
  0
LINE
  5
44A05
330
1F
100
AcDbEntity
  8
AM_7
100
AcDbLine
 10
202.8758004435722
 20
38.99999999999997
 30
0.0
 11
202.8758004435722
 21
1.0
 31
0.0
1001
GENIUS_GENODEF_13
1002
{
1000
HIER
1070
     0
1002
}
1002
{
1000
MANEDIT
1070
     0
1002
}
1002
{
1000
NOSEL
1070
     0
1002
}
1002
{
1000
BEHIND
1070
     0
1002
}
1002
{
1000
REACTOR
1002
}
1001
GENIUS_GENOBJ-N-CEN_13
1002
{
1000
OWNER
1000
GEN
1002
}
  0
DIMENSION
  5
44A85
330
1F
100
AcDbEntity
  8
AM_5
100
AcDbDimension
  2
*D6
 10
195.1103828763714
 20
6.010779506813719
 30
0.0
 11
223.8159818750415
 21
47.96985531374114
 31
0.0
 70
   163
  1
<>
 71
     5
 42
31.99999999999984
  3
AM_JIS$3
100
AcDbDiametricDimension
 15
210.6412180107742
 25
33.98922049318733
 35
0.0
 40
0.0
1001
GENIUS_GENDTOL_13
1000

1000
h7
1000

1040
0.0
1001
ACAD
1000
DSTYLE
1002
{
1070
   271
1070
     0
1070
   289
1070
     3
1002
}
  0
LINE
  5
44C71
330
1F
100
AcDbEntity
  8
AM_5
100
AcDbLine
 10
-0.0000000000001137
 20
-132.1159532550524
 30
0.0
 11
-3.832932221614101
 21
-131.7806151375979
 31
0.0
  0
DIMENSION
  5
44C7B
330
1F
100
AcDbEntity
  8
AM_5
100
AcDbDimension
  2
*D7
 10
-4.546508955942954
 20
-132.1159532550524
 30
0.0
 11
-15.83936532524624
 21
-128.174958609901
 31
0.0
 70
   162
  1
<>
 71
     5
 42
0.0872664625997088
  3
AM_JIS$2
100
AcDb2LineAngularDimension
 13
-0.0000000000001137
 23
-132.1159532550524
 33
0.0
 14
-3.832932221614101
 24
-131.7806151375979
 34
0.0
 15
304.1684173924887
 25
-132.1159532550524
 35
0.0
 16
-16.31537817697567
 26
-131.6412242355149
 36
0.0
1001
GENIUS_GENDTOL_13
1000

1000
h7
1000

1040
0.0
  0
TEXT
  5
453D7
330
1F
100
AcDbEntity
  8
AM_0
100
AcDbText
 10
42.13888368004501
 20
-203.2007257228936
 30
0.0
 40
7.0
  1
XBPT-332R
100
AcDbText
  0
LINE
  5
4681F
330
1F
100
AcDbEntity
  8
AM_0
100
AcDbLine
 10
0.8273383632696323
 20
16.19560116140929
 30
0.0
 11
1.29142130825278
 21
25.05083126907448
 31
0.0
  0
DIMENSION
  5
4684B
330
1F
100
AcDbEntity
  8
AM_5
100
AcDbDimension
  2
*D9
 10
-15.62224879480027
 20
20.00000000000006
 30
0.0
 11
-19.02262281054831
 21
10.00000000000003
 31
0.0
 70
    32
 71
     5
 42
20.00000000000006
  3
AM_JIS$0
100
AcDbAlignedDimension
 13
-4.495005698526029
 23
0.0
 33
0.0
 14
-4.495005698526029
 24
20.00000000000006
 34
0.0
 50
90.0
100
AcDbRotatedDimension
1001
ACAD
1000
DSTYLE
1002
{
1070
   179
1070
     1
1070
   271
1070
     0
1002
}
  0
DIMENSION
  5
4688D
330
1F
100
AcDbEntity
  8
AM_5
100
AcDbDimension
  2
*D10
 10
0.7910955759471108
 20
15.50404758256553
 30
0.0
 11
-29.16555217875191
 21
30.71148920964362
 31
0.0
 70
    34
 71
     5
 42
1.623156204354725
  3
AM_JIS$2
100
AcDb2LineAngularDimension
 13
0.3972656262078544
 23
0.0
 33
0.0
 14
-4.495005698526029
 24
0.0
 34
0.0
 15
0.0005497774761807
 25
0.419535144032011
 35
0.0
 16
-18.30210210590928
 26
34.3809304285469
 36
0.0
1001
ACAD
1000
DSTYLE
1002
{
1070
   271
1070
     0
1002
}
  0
DIMENSION
  5
46943
330
1F
100
AcDbEntity
  8
AM_5
100
AcDbDimension
  2
*D11
 10
300.0
 20
-53.54976351863502
 30
0.0
 11
150.0
 21
-50.14976351863502
 31
0.0
 70
    32
 71
     5
 42
300.0
  3
AM_JIS$0
100
AcDbAlignedDimension
 13
0.0
 23
-5.255786634991523
 33
0.0
 14
300.0
 24
5.999999999999943
 34
0.0
100
AcDbRotatedDimension
1001
ACAD
1000
DSTYLE
1002
{
1070
   179
1070
     0
1070
   271
1070
     0
1002
}
  0
ENDSEC
  0
SECTION
  2
OBJECTS
  0
DICTIONARY
  5
C
330
0
100
AcDbDictionary
281
     1
  3
ACAD_COLOR
350
454BB
  3
ACAD_GROUP
350
D
  3
ACAD_LAYOUT
350
1A
  3
ACAD_MATERIAL
350
454BA
  3
ACAD_MLINESTYLE
350
17
  3
ACAD_PLOTSETTINGS
350
19
  3
ACAD_PLOTSTYLENAME
350
E
  3
ACAD_TABLESTYLE
350
454BC
  3
AcAmCatalogState
350
45523
  3
ACDBHEADERROUNDTRIPXREC
350
46BA1
  3
AcDbVariableDictionary
350
30
  3
ACDMSYSVARMGR
350
454D6
  3
ACGREF_MASTER
350
454CE
  3
ACGREFACAD_MASTER
350
454F6
  3
AcmDictionary
350
4D
  3
ACME_BOM_MANAGER_NAME
350
36
  3
ACME_COMMAND_HISTORY
350
2F
  3
ACME_SCOPE_NAME
350
2E
  3
ACMESTATEMGR
350
3B
  3
AcmeSysVarManager
350
32
  3
AcmSystemVariableManager
350
6A
  3
AD_APPL
350
45501
  3
ADSYSVARMGR
350
45500
  3
AmdtNamedDwgMgr
350
454F1
  3
AMG
350
3F
  3
AMGSNAPSETTINGS
350
73
  3
AMI_MASTER
350
454F9
  3
ASE_INDEX_DICTIONARY
350
460A1
  3
AUTOCAD_ASSEMBLIES_PROJECT
350
45509
  3
Designer_Assemblies_SysVars
350
45504
  3
DWGPROPS
350
46BA4
  3
FILENAME
350
2927
  3
GREFAM_MODULE
350
454FA
  3
table_dic_data
350
1688
  3
ZWKSIZE
350
2929
  0
DICTIONARY
  5
46010
330
2
100
AcDbDictionary
280
     1
281
     1
  3
ACAD_LAYERSTATES
360
46011
  0
DICTIONARY
  5
165
330
1F
100
AcDbDictionary
280
     1
281
     1
  3
ACAD_SORTENTS
360
4658A
  0
DICTIONARY
  5
454BB
102
{ACAD_REACTORS
330
C
102
}
330
C
100
AcDbDictionary
281
     1
  0
DICTIONARY
  5
D
102
{ACAD_REACTORS
330
C
102
}
330
C
100
AcDbDictionary
281
     1
  0
DICTIONARY
  5
1A
102
{ACAD_REACTORS
330
C
102
}
330
C
100
AcDbDictionary
281
     1
  3
Model
350
22
  3
ﾚｲｱｳﾄ1
350
1E
  3
ﾚｲｱｳﾄ2
350
26
  0
DICTIONARY
  5
454BA
102
{ACAD_REACTORS
330
C
102
}
330
C
100
AcDbDictionary
281
     1
  0
DICTIONARY
  5
17
102
{ACAD_REACTORS
330
C
102
}
330
C
100
AcDbDictionary
281
     1
  3
Standard
350
18
  0
DICTIONARY
  5
19
102
{ACAD_REACTORS
330
C
102
}
330
C
100
AcDbDictionary
281
     1
  0
ACDBDICTIONARYWDFLT
  5
E
102
{ACAD_REACTORS
330
C
102
}
330
C
100
AcDbDictionary
281
     1
  3
Normal
350
F
100
AcDbDictionaryWithDefault
340
F
  0
DICTIONARY
  5
454BC
102
{ACAD_REACTORS
330
C
102
}
330
C
100
AcDbDictionary
281
     1
  3
Standard
350
454BD
  0
ACAD_PROXY_OBJECT
  5
45523
102
{ACAD_REACTORS
330
C
102
}
330
C
100
AcDbProxyObject
 90
      499
 91
      574
 95
       25
 70
     0
 93
      584
310
3FFFFFFFE00A028140298231D2E20A1A0A226991818182E4B34482AC8E746FA41B7C1A1C1B3A422AE4B34482AC8E746FA41B7C1A1C1B3CAABC7C040089685FF7F2ABC3A05C44CC7240
  0
DICTIONARY
  5
46BA1
102
{ACAD_REACTORS
330
C
102
}
330
C
100
AcDbDictionary
281
     1
  3
COLORDICT
350
46BA2
  3
MATERIALDICT
350
46BA3
  0
DICTIONARY
  5
30
102
{ACAD_REACTORS
330
C
102
}
330
C
100
AcDbDictionary
281
     1
  3
CTABLESTYLE
350
45C54
  3
HIDETEXT
350
46BA0
  3
INDEXCTL
350
46B9F
  0
ACAD_PROXY_OBJECT
  5
454D6
102
{ACAD_REACTORS
330
C
102
}
330
C
100
AcDbProxyObject
 90
      499
 91
      507
 95
       25
 70
     0
 93
      240
310
4C51A47A0000000000000000000000000000000000000000000000000000
330
454D7
330
454D8
330
454D9
330
454DA
330
454DB
330
454DC
330
454DD
330
454DE
330
454DF
330
454E0
330
454E1
330
454E2
330
454E3
330
454E4
330
454E5
330
454E6
330
454E7
330
454E8
330
454E9
330
454EA
330
454EB
330
454EC
330
454ED
330
454EE
330
454EF
330
454F0
 94
        0
  0
ACAD_PROXY_OBJECT
  5
454CE
102
{ACAD_REACTORS
330
C
102
}
330
C
100
AcDbProxyObject
 90
      499
 91
      538
 95
       25
 70
     0
 93
       34
310
0400004280
  0
ACAD_PROXY_OBJECT
  5
454F6
102
{ACAD_REACTORS
330
C
102
}
330
C
100
AcDbProxyObject
 90
      499
 91
      544
 95
       25
 70
     0
 93
      114
310
04000041C080000000000000000000
  0
DICTIONARY
  5
4D
102
{ACAD_REACTORS
330
C
102
}
330
C
100
AcDbDictionary
281
     1
  3
AcmBOMDATA
350
4E
  3
AcmStdDictionary
350
17E
  3
AMDTSECTSYM_ARROWCOLOR
350
45517
  0
ACAD_PROXY_OBJECT
  5
36
102
{ACAD_REACTORS
330
C
102
}
330
C
100
AcDbProxyObject
 90
      499
 91
      510
 95
       25
 70
     0
 93
       50
310
00010040400000
330
0
330
0
330
37
 94
        0
  0
ACAD_PROXY_OBJECT
  5
2F
102
{ACAD_REACTORS
330
C
102
}
330
C
100
AcDbProxyObject
 90
      499
 91
      505
 95
       25
 70
     0
 93
     7056
310
47805055153415645404052D4D5347202D205050413A2020206465736B746F702E6172782046696C6556657273696F6E3A20392E322E302E34014390535115149154D15511109353D1102014213880B4815539113C05084E202D20554E444F014115539113E014115539113E014154155491D1601415454D05591501014B53
310
54D1C80B481414104E88080819195CDADD1BDC0B985C9E08119A5B1955995C9CDA5BDB8E880E4B8C8B8C0B8D0050E414D4454524553455444424D4F4440805084E202D20554E444F014213880B4815539113C0504554E444F80504554E444F805055153415645404052D4D5347202D205050413A2020206465736B746F702E
310
6172782046696C6556657273696F6E3A20392E322E302E34014390535115149154D15511109353D1102014213880B4815539113C05084E202D20554E444F014115539113E014115539113E01419493D510551160142111493D411D153D3601411353D591601411693D3D3501014B5354D1C80B481414104E88080819195CDA
310
DD1BDC0B985C9E08119A5B1955995C9CDA5BDB8E880E4B8C8B8C0B8D0050C475249505F53545245544348805055153415645404052D4D5347202D205050413A2020206465736B746F702E6172782046696C6556657273696F6E3A20392E322E302E340141D0535310565154A01415454D05591501014B5354D1C80B4814141
310
04E88080819195CDADD1BDC0B985C9E08119A5B1955995C9CDA5BDB8E880E4B8C8B8C0B8D005055153415645404052D4D5347202D205050413A2020206465736B746F702E6172782046696C6556657273696F6E3A20392E322E302E3401415454D05591501014B5354D1C80B481414104E88080819195CDADD1BDC0B985C9E
310
08119A5B1955995C9CDA5BDB8E880E4B8C8B8C0B8D005055153415645404052D4D5347202D205050413A2020206465736B746F702E6172782046696C6556657273696F6E3A20392E322E302E34014390535115149154D15511109353D1102014213880B4815539113C05084E202D20554E444F014115539113E01411553911
310
3E014154155491D1601415454D05591501014B5354D1C80B481414104E88080819195CDADD1BDC0B985C9E08119A5B1955995C9CDA5BDB8E880E4B8C8B8C0B8D005055153415645404052D4D5347202D205050413A2020206465736B746F702E6172782046696C6556657273696F6E3A20392E322E302E34
  0
ACAD_PROXY_OBJECT
  5
2E
102
{ACAD_REACTORS
330
C
102
}
330
C
100
AcDbProxyObject
 90
      499
 91
      504
 95
       25
 70
     0
 93
      586
310
09000046408000000000000000001344E200000000000000000000000000000000000000000000000000000000000000000000000000000000000000000000000000000000AAA406AA80
360
33
360
34
360
35
360
37
360
6B
360
6C
360
454CF
360
454D0
360
454D1
360
454D2
360
454D3
360
454D4
360
454D7
360
454D8
360
454D9
360
454DA
360
454DB
360
454DC
360
454DD
360
454DE
360
454DF
360
454E0
360
454E1
360
454E2
360
454E3
360
454E4
360
454E5
360
454E6
360
454E7
360
454E8
360
454E9
360
454EA
360
454EB
360
454EC
360
454ED
360
454EE
360
454EF
360
454F0
360
454FC
360
454FD
360
454FE
360
454FF
360
45505
360
45506
360
45507
360
45508
360
4550D
360
4550E
360
4550F
360
45510
360
45511
360
45512
 94
        0
  0
ACAD_PROXY_OBJECT
  5
3B
102
{ACAD_REACTORS
330
C
102
}
330
C
100
AcDbProxyObject
 90
      499
 91
      515
 95
       25
 70
     0
 93
       50
310
09000042641280
  0
ACAD_PROXY_OBJECT
  5
32
102
{ACAD_REACTORS
330
C
102
}
330
C
100
AcDbProxyObject
 90
      499
 91
      507
 95
       25
 70
     0
 93
       48
310
903412000000
330
33
330
34
330
35
 94
        0
  0
ACAD_PROXY_OBJECT
  5
6A
102
{ACAD_REACTORS
330
C
102
}
330
C
100
AcDbProxyObject
 90
      499
 91
      507
 95
       25
 70
     0
 93
       40
310
90240E0000
330
6B
330
6C
 94
        0
  0
ACAD_PROXY_OBJECT
  5
45501
102
{ACAD_REACTORS
330
C
102
}
330
C
100
AcDbProxyObject
 90
      499
 91
      554
 95
       25
 70
     0
 93
       42
310
000900004040
330
454FC
 94
        0
  0
ACAD_PROXY_OBJECT
  5
45500
102
{ACAD_REACTORS
330
C
102
}
330
C
100
AcDbProxyObject
 90
      499
 91
      507
 95
       25
 70
     0
 93
        8
310
AA
  0
ACAD_PROXY_OBJECT
  5
454F1
102
{ACAD_REACTORS
330
C
102
}
330
C
100
AcDbProxyObject
 90
      499
 91
      543
 95
       25
 70
     0
 93
       42
310
000100005E80
330
454CF
 94
        0
  0
DICTIONARY
  5
3F
102
{ACAD_REACTORS
330
C
102
}
330
C
100
AcDbDictionary
281
     1
  3
AcMgSettings
350
40
  3
AMGLAYCFG
350
42
  0
DICTIONARY
  5
73
102
{ACAD_REACTORS
330
C
102
}
330
C
100
AcDbDictionary
281
     1
  3
DIMENSION
350
40811
  3
FEA
350
40812
  3
HATCH (1)
350
40813
  3
HATCH (2)
350
40814
  3
SYMBOLS
350
40815
  0
ACAD_PROXY_OBJECT
  5
454F9
102
{ACAD_REACTORS
330
C
102
}
330
C
100
AcDbProxyObject
 90
      499
 91
      547
 95
       25
 70
     0
 93
       34
310
0500004280
  0
DICTIONARY
  5
460A1
102
{ACAD_REACTORS
330
C
102
}
330
C
100
AcDbDictionary
281
     1
  3
ASEBlockHierarchyIndexRecord
350
460A2
1001
DCO15
1040
1562583380.593
  0
ACAD_PROXY_OBJECT
  5
45509
102
{ACAD_REACTORS
330
C
102
}
330
C
100
AcDbProxyObject
 90
      499
 91
      557
 95
       25
 70
     0
 93
       98
310
0900004E400000000000000000
330
45510
330
0
330
45511
330
0
330
0
330
0
330
0
330
0
 94
        0
  0
ACAD_PROXY_OBJECT
  5
45504
102
{ACAD_REACTORS
330
C
102
}
330
C
100
AcDbProxyObject
 90
      499
 91
      507
 95
       25
 70
     0
 93
       56
310
90441600000000
330
45505
330
45506
330
45507
330
45508
 94
        0
  0
XRECORD
  5
46BA4
102
{ACAD_REACTORS
330
C
102
}
330
C
100
AcDbXrecord
280
     1
  1
DWGPROPS COOKIE
  2

  3

  4

  6

  7

  8
Administrator
  9

300
AmdtFileType=82
301
=
302
=
303
=
304
=
305
=
306
=
307
=
308
=
309
=
 40
0.0
 41
2451943.235431667
 42
2455482.225936227
  1

 90
        1
  0
DICTIONARY
  5
2927
102
{ACAD_REACTORS
330
C
102
}
330
C
100
AcDbDictionary
281
     1
  3
FILENAME
350
2928
  0
ACAD_PROXY_OBJECT
  5
454FA
102
{ACAD_REACTORS
330
C
102
}
330
C
100
AcDbProxyObject
 90
      499
 91
      548
 95
       25
 70
     0
 93
        8
310
05
  0
DICTIONARY
  5
1688
102
{ACAD_REACTORS
330
C
102
}
330
C
100
AcDbDictionary
281
     1
  3
input_data
350
168A
  3
table_data
350
1689
  0
DICTIONARY
  5
2929
102
{ACAD_REACTORS
330
C
102
}
330
C
100
AcDbDictionary
281
     1
  3
ZWKSIZE
350
292A
  0
DICTIONARY
  5
46011
102
{ACAD_REACTORS
330
46010
102
}
330
46010
100
AcDbDictionary
281
     1
  0
SORTENTSTABLE
  5
4658A
102
{ACAD_REACTORS
330
165
102
}
330
165
100
AcDbSortentsTable
330
1F
331
42D54
  5
42D54
331
433FB
  5
433FB
331
433FC
  5
433FC
331
433FD
  5
433FD
331
433FE
  5
433FE
331
433FF
  5
433FF
331
43400
  5
43400
331
43401
  5
43401
331
43402
  5
43402
331
43403
  5
43403
331
43404
  5
43404
331
43405
  5
43405
331
43406
  5
43406
331
43407
  5
43407
331
43408
  5
43408
331
43409
  5
43409
331
4340A
  5
4340A
331
4340B
  5
4340B
331
4340C
  5
4340C
331
4340D
  5
4340D
331
4340E
  5
4340E
331
4340F
  5
4340F
331
43410
  5
43410
331
43411
  5
43411
331
43412
  5
43412
331
43413
  5
43413
331
43414
  5
43414
331
43415
  5
43415
331
43416
  5
43416
331
43417
  5
43417
331
43418
  5
43418
331
43419
  5
43419
331
4341A
  5
4341A
331
4341B
  5
4341B
331
4341C
  5
4341C
331
4341D
  5
4341D
331
4341E
  5
4341E
331
4341F
  5
4341F
331
43420
  5
43420
331
43421
  5
43421
331
43422
  5
43422
331
43423
  5
43423
331
43424
  5
43424
331
43425
  5
43425
331
43426
  5
43426
331
43427
  5
43427
331
43428
  5
43428
331
43429
  5
43429
331
4342A
  5
4342A
331
4342B
  5
4342B
331
4342C
  5
4342C
331
4342D
  5
4342D
331
4342E
  5
4342E
331
4342F
  5
4342F
331
43430
  5
43430
331
43431
  5
43431
331
43432
  5
43432
331
43433
  5
43433
331
43434
  5
43434
331
43435
  5
43435
331
43436
  5
43436
331
43437
  5
43437
331
43438
  5
43438
331
43439
  5
43439
331
4343A
  5
4343A
331
4343B
  5
4343B
331
4343C
  5
4343C
331
4343D
  5
4343D
331
4343E
  5
4343E
331
4343F
  5
4343F
331
43440
  5
43440
331
43441
  5
43441
331
43442
  5
43442
331
43443
  5
43443
331
43444
  5
43444
331
43445
  5
43445
331
43446
  5
43446
331
43447
  5
43447
331
43448
  5
43448
331
43449
  5
43449
331
4344A
  5
4344A
331
4344B
  5
4344B
331
4344C
  5
4344C
331
4344D
  5
4344D
331
4344E
  5
4344E
331
4344F
  5
4344F
331
43450
  5
43450
331
43451
  5
43451
331
43452
  5
43452
331
43453
  5
43453
331
43454
  5
43454
331
43455
  5
43455
331
43456
  5
43456
331
43457
  5
43457
331
43458
  5
43458
331
43459
  5
43459
331
4345A
  5
4345A
331
4345B
  5
4345B
331
4345C
  5
4345C
331
4345D
  5
4345D
331
4345E
  5
4345E
331
4345F
  5
4345F
331
43460
  5
43460
331
43461
  5
43461
331
43462
  5
43462
331
43463
  5
43463
331
43464
  5
43464
331
43465
  5
43465
331
43466
  5
43466
331
43467
  5
43467
331
43468
  5
43468
331
43469
  5
43469
331
4346A
  5
4346A
331
4346B
  5
4346B
331
4346C
  5
4346C
331
4346D
  5
4346D
331
4346E
  5
4346E
331
4346F
  5
4346F
331
43470
  5
43470
331
43471
  5
43471
331
43472
  5
43472
331
43473
  5
43473
331
43474
  5
43474
331
43475
  5
43475
331
43476
  5
43476
331
43477
  5
43477
331
43478
  5
43478
331
43479
  5
43479
331
4347A
  5
4347A
331
4347B
  5
4347B
331
4347C
  5
4347C
331
4347D
  5
4347D
331
4347E
  5
4347E
331
4347F
  5
4347F
331
43480
  5
43480
331
43481
  5
43481
331
43482
  5
43482
331
43483
  5
43483
331
43484
  5
43484
331
43485
  5
43485
331
43486
  5
43486
331
43487
  5
43487
331
43488
  5
43488
331
43489
  5
43489
331
4348A
  5
4348A
331
4348B
  5
4348B
331
4348C
  5
4348C
331
4348D
  5
4348D
331
4348E
  5
4348E
331
4348F
  5
4348F
331
43490
  5
43490
331
43491
  5
43491
331
43492
  5
43492
331
43493
  5
43493
331
43494
  5
43494
331
43497
  5
43497
331
43498
  5
43498
331
43499
  5
43499
331
4349A
  5
4349A
331
4349B
  5
4349B
331
4349C
  5
4349C
331
4349D
  5
4349D
331
4349E
  5
4349E
331
434A1
  5
434A1
331
434A2
  5
434A2
331
434A3
  5
434A3
331
434A4
  5
434A4
331
434A5
  5
434A5
331
434A6
  5
434A6
331
434A7
  5
434A7
331
434A8
  5
434A8
331
434A9
  5
434A9
331
434AA
  5
434AA
331
434AC
  5
434AC
331
434AD
  5
434AD
331
434AE
  5
434AE
331
434AF
  5
434AF
331
434B0
  5
434B0
331
434B1
  5
434B1
331
434B2
  5
434B2
331
434B6
  5
434B6
331
434B7
  5
434B7
331
434B8
  5
434B8
331
434B9
  5
434B9
331
434BA
  5
434BA
331
434BB
  5
434BB
331
434BC
  5
434BC
331
434BD
  5
434BD
331
434BE
  5
434BE
331
434BF
  5
434BF
331
434C0
  5
434C0
331
434C1
  5
434C1
331
434C2
  5
434C2
331
434C3
  5
434C3
331
434C4
  5
434C4
331
434C5
  5
434C5
331
434C6
  5
434C6
331
434C7
  5
434C7
331
434C8
  5
434C8
331
434C9
  5
434C9
331
434CA
  5
434CA
331
434CB
  5
434CB
331
434CC
  5
434CC
331
434CD
  5
434CD
331
434CE
  5
434CE
331
434CF
  5
434CF
331
434D0
  5
434D0
331
434D1
  5
434D1
331
434D2
  5
434D2
331
434D3
  5
434D3
331
434D4
  5
434D4
331
434D5
  5
434D5
331
434D6
  5
434D6
331
434D7
  5
434D7
331
434D8
  5
434D8
331
434D9
  5
434D9
331
434DA
  5
434DA
331
434DB
  5
434DB
331
434DC
  5
434DC
331
434DD
  5
434DD
331
434DE
  5
434DE
331
434DF
  5
434DF
331
434E0
  5
434E0
331
434E1
  5
434E1
331
434E2
  5
434E2
331
434E3
  5
434E3
331
434E4
  5
434E4
331
434E5
  5
434E5
331
434E6
  5
434E6
331
435BB
  5
435BB
331
435C5
  5
435C5
331
435C6
  5
435C6
331
435C7
  5
435C7
331
435C8
  5
435C8
331
435C9
  5
435C9
331
435CA
  5
435CA
331
435CB
  5
435CB
331
435CC
  5
435CC
331
435CD
  5
435CD
331
435D0
  5
435D0
331
435D1
  5
435D1
331
435D2
  5
435D2
331
435D3
  5
435D3
331
435D4
  5
435D4
331
435D5
  5
435D5
331
435D6
  5
435D6
331
43C6E
  5
43C6E
331
43C71
  5
43C71
331
43C90
  5
43C90
331
43C98
  5
43C98
331
43D3D
  5
43D3D
331
43D3E
  5
43D3E
331
43DE7
  5
43DE7
331
43DF0
  5
43DF0
331
44115
  5
44115
331
4431E
  5
4431E
331
449D3
  5
449D3
331
449E5
  5
449E5
331
449F7
  5
449F7
331
449F8
  5
449F8
331
449F9
  5
449F9
331
449FA
  5
449FA
331
449FC
  5
449FC
331
449FD
  5
449FD
331
44A05
  5
44A05
331
44A85
  5
44A85
331
44C71
  5
44C71
331
44C7B
  5
44C7B
331
453D7
  5
453D7
  0
LAYOUT
  5
22
102
{ACAD_REACTORS
330
1A
102
}
330
1A
100
AcDbPlotSettings
  1

  2
SII LP-1010 (C2 VR)2R
  4
User259
  6
AM_VIEW1
 40
5.789083480834961
 41
5.789041519165039
 42
5.7890625
 43
5.7890625
 44
419.9466552734375
 45
593.9366455078125
 46
0.0
 47
0.0
 48
0.0
 49
0.0
140
594.0
141
420.0
142
1.0
143
1.028482829705812
 70
 11952
 72
     1
 73
     1
 74
     4
  7
sei_cad.ctb
 75
     0
147
0.9723059745061965
148
0.0
149
0.0
100
AcDbLayout
  1
Model
 70
     1
 71
     0
 10
0.0
 20
0.0
 11
12.0
 21
9.0
 12
0.0
 22
0.0
 32
0.0
 14
0.0
 24
0.0
 34
0.0
 15
0.0
 25
0.0
 35
0.0
146
0.0
 13
0.0
 23
0.0
 33
0.0
 16
1.0
 26
0.0
 36
0.0
 17
0.0
 27
1.0
 37
0.0
 76
     0
330
1F
1001
ACAD_PSEXT
1000
SII LP-1010 (C2 VR)2R
1000
SII LP-1010 (C2 VR)2R
1000
133.153.16.130#9100
1000

1070
     0
  0
LAYOUT
  5
1E
102
{ACAD_REACTORS
330
1A
102
}
330
1A
100
AcDbPlotSettings
  1

  2
Canon LASER SHOT LBP-2030
  4

  6

 40
0.0
 41
0.0
 42
0.0
 43
0.0
 44
0.0
 45
0.0
 46
0.0
 47
0.0
 48
0.0
 49
0.0
140
0.0
141
0.0
142
1.0
143
1.0
 70
   688
 72
     0
 73
     0
 74
     5
  7
sei_cad.ctb
 75
    16
147
1.0
148
0.0
149
0.0
100
AcDbLayout
  1
ﾚｲｱｳﾄ1
 70
     1
 71
     1
 10
0.0
 20
0.0
 11
420.0
 21
297.0
 12
0.0
 22
0.0
 32
0.0
 14
1.000000000000000E+20
 24
1.000000000000000E+20
 34
1.000000000000000E+20
 15
-1.000000000000000E+20
 25
-1.000000000000000E+20
 35
-1.000000000000000E+20
146
0.0
 13
0.0
 23
0.0
 33
0.0
 16
1.0
 26
0.0
 36
0.0
 17
0.0
 27
1.0
 37
0.0
 76
     0
330
1B
  0
LAYOUT
  5
26
102
{ACAD_REACTORS
330
1A
102
}
330
1A
100
AcDbPlotSettings
  1

  2
Canon LASER SHOT LBP-2030
  4

  6

 40
0.0
 41
0.0
 42
0.0
 43
0.0
 44
0.0
 45
0.0
 46
0.0
 47
0.0
 48
0.0
 49
0.0
140
0.0
141
0.0
142
1.0
143
1.0
 70
   688
 72
     0
 73
     0
 74
     5
  7
sei_cad.ctb
 75
    16
147
1.0
148
0.0
149
0.0
100
AcDbLayout
  1
ﾚｲｱｳﾄ2
 70
     1
 71
     2
 10
0.0
 20
0.0
 11
12.0
 21
9.0
 12
0.0
 22
0.0
 32
0.0
 14
0.0
 24
0.0
 34
0.0
 15
0.0
 25
0.0
 35
0.0
146
0.0
 13
0.0
 23
0.0
 33
0.0
 16
1.0
 26
0.0
 36
0.0
 17
0.0
 27
1.0
 37
0.0
 76
     0
330
23
  0
MLINESTYLE
  5
18
102
{ACAD_REACTORS
330
17
102
}
330
17
100
AcDbMlineStyle
  2
STANDARD
 70
     0
  3

 62
   256
 51
90.0
 52
90.0
 71
     2
 49
0.5
 62
   256
  6
BYLAYER
 49
-0.5
 62
   256
  6
BYLAYER
  0
ACDBPLACEHOLDER
  5
F
102
{ACAD_REACTORS
330
E
102
}
330
E
  0
TABLESTYLE
  5
454BD
102
{ACAD_REACTORS
330
454BC
102
}
330
454BC
100
AcDbTableStyle
  3
Standard
 70
     0
 71
     8
 40
1.5
 41
1.5
280
     0
281
     0
  7
STANDARD
140
4.5
170
     2
 62
     0
 63
     7
283
     0
274
    -2
284
     1
 64
     0
275
    -2
285
     1
 65
     0
276
    -2
286
     1
 66
     0
277
    -2
287
     1
 67
     0
278
    -2
288
     1
 68
     0
279
    -2
289
     1
 69
     0
  7
STANDARD
140
6.0
170
     5
 62
     0
 63
     7
283
     0
274
    -2
284
     1
 64
     0
275
    -2
285
     1
 65
     0
276
    -2
286
     1
 66
     0
277
    -2
287
     1
 67
     0
278
    -2
288
     1
 68
     0
279
    -2
289
     1
 69
     0
  7
STANDARD
140
4.5
170
     5
 62
     0
 63
     7
283
     0
274
    -2
284
     1
 64
     0
275
    -2
285
     1
 65
     0
276
    -2
286
     1
 66
     0
277
    -2
287
     1
 67
     0
278
    -2
288
     1
 68
     0
279
    -2
289
     1
 69
     0
  0
XRECORD
  5
46BA2
102
{ACAD_REACTORS
330
46BA1
102
}
330
46BA1
100
AcDbXrecord
280
     1
340
454BB
  0
XRECORD
  5
46BA3
102
{ACAD_REACTORS
330
46BA1
102
}
330
46BA1
100
AcDbXrecord
280
     1
340
454BA
  0
DICTIONARYVAR
  5
45C54
102
{ACAD_REACTORS
330
30
102
}
330
30
100
DictionaryVariables
280
     0
  1
STANDARD
  0
DICTIONARYVAR
  5
46BA0
102
{ACAD_REACTORS
330
30
102
}
330
30
100
DictionaryVariables
280
     0
  1
0
  0
DICTIONARYVAR
  5
46B9F
102
{ACAD_REACTORS
330
30
102
}
330
30
100
DictionaryVariables
280
     0
  1
1
  0
ACAD_PROXY_OBJECT
  5
4E
102
{ACAD_REACTORS
330
4D
102
}
330
4D
100
AcDbProxyObject
 90
      499
 91
      520
 95
       25
 70
     0
 93
      118
310
405010040CA904C415CD5B075DD128
350
4F
 94
        0
  0
DICTIONARY
  5
17E
102
{ACAD_REACTORS
330
4D
102
}
330
4D
100
AcDbDictionary
281
     1
  3
JIS
350
17F
  0
XRECORD
  5
45517
102
{ACAD_REACTORS
330
4D
102
}
330
4D
100
AcDbXrecord
280
     1
 90
-1023410169
  0
ACAD_PROXY_OBJECT
  5
33
330
2E
100
AcDbProxyObject
 90
      499
 91
      508
 95
       25
 70
     0
 93
      156
310
00010143D050D351505391D5531054925390D490
330
2E
 94
        0
  0
ACAD_PROXY_OBJECT
  5
34
330
2E
100
AcDbProxyObject
 90
      499
 91
      508
 95
       25
 70
     0
 93
      148
310
000101439050D351531253915054925390D490
330
2E
 94
        0
  0
ACAD_PROXY_OBJECT
  5
35
330
2E
100
AcDbProxyObject
 90
      499
 91
      509
 95
       25
 70
     0
 93
      156
310
000101439050D35154D6535093D314D256915080
330
2E
 94
        0
  0
ACAD_PROXY_OBJECT
  5
37
330
2E
100
AcDbProxyObject
 90
      499
 91
      511
 95
       25
 70
     0
 93
       88
310
000101411093D34C402B00
330
2E
330
0
330
0
 94
        0
  0
ACAD_PROXY_OBJECT
  5
6B
330
2E
100
AcDbProxyObject
 90
      499
 91
      509
 95
       25
 70
     0
 93
      108
310
00010142505351D153D35054D4E0
330
2E
 94
        0
  0
ACAD_PROXY_OBJECT
  5
6C
330
2E
100
AcDbProxyObject
 90
      499
 91
      522
 95
       25
 70
     0
 93
      140
310
00010142105350D55494D511005034A49530
330
2E
 94
        0
  0
ACAD_PROXY_OBJECT
  5
454CF
330
2E
100
AcDbProxyObject
 90
      499
 91
      539
 95
       25
 70
     0
 93
      486
310
0001014124FEA55D00507392E322E302E32014124FEA55D00507392E322E302E324050100004157D554D15488AAD84FA0A7401404000000000000F83F8
330
2E
330
454D0
330
454D6
 94
        0
  0
ACAD_PROXY_OBJECT
  5
454D0
330
2E
100
AcDbProxyObject
 90
      499
 91
      540
 95
       25
 70
     0
 93
       56
310
000190240E0000
330
2E
330
454D1
330
454D3
 94
        0
  0
ACAD_PROXY_OBJECT
  5
454D1
330
2E
100
AcDbProxyObject
 90
      499
 91
      541
 95
       25
 70
     0
 93
       48
310
0001AA000000
330
2E
330
1E
330
454D2
330
0
 94
        0
  0
ACAD_PROXY_OBJECT
  5
454D2
330
2E
100
AcDbProxyObject
 90
      499
 91
      542
 95
       25
 70
     0
 93
       28
310
0001AAA0
330
2E
 94
        0
  0
ACAD_PROXY_OBJECT
  5
454D3
330
2E
100
AcDbProxyObject
 90
      499
 91
      541
 95
       25
 70
     0
 93
       48
310
0001AA000000
330
2E
330
26
330
454D4
330
0
 94
        0
  0
ACAD_PROXY_OBJECT
  5
454D4
330
2E
100
AcDbProxyObject
 90
      499
 91
      542
 95
       25
 70
     0
 93
       28
310
0001AAA0
330
2E
 94
        0
  0
ACAD_PROXY_OBJECT
  5
454D7
330
2E
100
AcDbProxyObject
 90
      499
 91
      509
 95
       25
 70
     0
 93
      108
310
000101421053521310D05310D010
330
2E
 94
        0
  0
ACAD_PROXY_OBJECT
  5
454D8
330
2E
100
AcDbProxyObject
 90
      499
 91
      509
 95
       25
 70
     0
 93
      124
310
00010142905354915554D15112535010
330
2E
 94
        0
  0
ACAD_PROXY_OBJECT
  5
454D9
330
2E
100
AcDbProxyObject
 90
      499
 91
      509
 95
       25
 70
     0
 93
      132
310
00010143105354D150D51253D391125360
330
2E
 94
        0
  0
ACAD_PROXY_OBJECT
  5
454DA
330
2E
100
AcDbProxyObject
 90
      499
 91
      509
 95
       25
 70
     0
 93
      124
310
00010142905355941093D49111549010
330
2E
 94
        0
  0
ACAD_PROXY_OBJECT
  5
454DB
330
2E
100
AcDbProxyObject
 90
      499
 91
      509
 95
       25
 70
     0
 93
      116
310
0001014290535115D1D0D3D313D4A0
330
2E
 94
        0
  0
ACAD_PROXY_OBJECT
  5
454DC
330
2E
100
AcDbProxyObject
 90
      499
 91
      509
 95
       25
 70
     0
 93
      148
310
00010143505355925155D49151949154D21010
330
2E
 94
        0
  0
ACAD_PROXY_OBJECT
  5
454DD
330
2E
100
AcDbProxyObject
 90
      499
 91
      509
 95
       25
 70
     0
 93
      172
310
00010144105350539393D51154149154D15495915010
330
2E
 94
        0
  0
ACAD_PROXY_OBJECT
  5
454DE
330
2E
100
AcDbProxyObject
 90
      499
 91
      509
 95
       25
 70
     0
 93
      172
310
00010144105350555513D11253505494905391D15010
330
2E
 94
        0
  0
ACAD_PROXY_OBJECT
  5
454DF
330
2E
100
AcDbProxyObject
 90
      499
 91
      509
 95
       25
 70
     0
 93
      124
310
00010142D05351561514915191125360
330
2E
 94
        0
  0
ACAD_PROXY_OBJECT
  5
454E0
330
2E
100
AcDbProxyObject
 90
      499
 91
      509
 95
       25
 70
     0
 93
      132
310
00010142D05355105410539393D5115010
330
2E
 94
        0
  0
ACAD_PROXY_OBJECT
  5
454E1
330
2E
100
AcDbProxyObject
 90
      499
 91
      509
 95
       25
 70
     0
 93
      108
310
00010142105350555513D0D31010
330
2E
 94
        0
  0
ACAD_PROXY_OBJECT
  5
454E2
330
2E
100
AcDbProxyObject
 90
      499
 91
      509
 95
       25
 70
     0
 93
      108
310
00010142105350D3119150551050
330
2E
 94
        0
  0
ACAD_PROXY_OBJECT
  5
454E3
330
2E
100
AcDbProxyObject
 90
      499
 91
      509
 95
       25
 70
     0
 93
      108
310
00010142105350D315925155D3F0
330
2E
 94
        0
  0
ACAD_PROXY_OBJECT
  5
454E4
330
2E
100
AcDbProxyObject
 90
      499
 91
      509
 95
       25
 70
     0
 93
      148
310
0001014350535212511156915493D112535010
330
2E
 94
        0
  0
ACAD_PROXY_OBJECT
  5
454E5
330
2E
100
AcDbProxyObject
 90
      499
 91
      509
 95
       25
 70
     0
 93
      124
310
00010142905352105510D21254D3D010
330
2E
 94
        0
  0
ACAD_PROXY_OBJECT
  5
454E6
330
2E
100
AcDbProxyObject
 90
      499
 91
      509
 95
       25
 70
     0
 93
      148
310
00010143905354D25391D31152105513105660
330
2E
 94
        0
  0
ACAD_PROXY_OBJECT
  5
454E7
330
2E
100
AcDbProxyObject
 90
      499
 91
      509
 95
       25
 70
     0
 93
      124
310
00010142D0535115D1D193111254D420
330
2E
 94
        0
  0
ACAD_PROXY_OBJECT
  5
454E8
330
2E
100
AcDbProxyObject
 90
      499
 91
      509
 95
       25
 70
     0
 93
      100
310
00010142105350555513D213A0
330
2E
 94
        0
  0
ACAD_PROXY_OBJECT
  5
454E9
330
2E
100
AcDbProxyObject
 90
      499
 91
      509
 95
       25
 70
     0
 93
      116
310
000101425053521390D3D553951010
330
2E
 94
        0
  0
ACAD_PROXY_OBJECT
  5
454EA
330
2E
100
AcDbProxyObject
 90
      499
 91
      509
 95
       25
 70
     0
 93
      108
310
0001014210535213941493D29010
330
2E
 94
        0
  0
ACAD_PROXY_OBJECT
  5
454EB
330
2E
100
AcDbProxyObject
 90
      499
 91
      509
 95
       25
 70
     0
 93
      108
310
0001014210535213951654115070
330
2E
 94
        0
  0
ACAD_PROXY_OBJECT
  5
454EC
330
2E
100
AcDbProxyObject
 90
      499
 91
      509
 95
       25
 70
     0
 93
      108
310
000101421053521395925155D0F0
330
2E
 94
        0
  0
ACAD_PROXY_OBJECT
  5
454ED
330
2E
100
AcDbProxyObject
 90
      499
 91
      509
 95
       25
 70
     0
 93
      140
310
00010143505354D150D51253D390D3D41660
330
2E
 94
        0
  0
ACAD_PROXY_OBJECT
  5
454EE
330
2E
100
AcDbProxyObject
 90
      499
 91
      509
 95
       25
 70
     0
 93
      108
310
00010142105350D3141493D29030
330
2E
 94
        0
  0
ACAD_PROXY_OBJECT
  5
454EF
330
2E
100
AcDbProxyObject
 90
      499
 91
      508
 95
       25
 70
     0
 93
      212
310
00010143905350555513D2105510D21493D500000000000002E400
330
2E
 94
        0
  0
ACAD_PROXY_OBJECT
  5
454F0
330
2E
100
AcDbProxyObject
 90
      499
 91
      509
 95
       25
 70
     0
 93
      156
310
00010143905350555513D2105510D21111551010
330
2E
 94
        0
  0
ACAD_PROXY_OBJECT
  5
454FC
330
2E
100
AcDbProxyObject
 90
      499
 91
      550
 95
       25
 70
     0
 93
      698
310
0001000000009AA6A9AA4051E4D6F6E204D61722030362030313A33343A353820323030362028555443290141CE4B8C8B8C0B8C80518547565204F63742031322031343A32353A323020323031300141CE4B8C8B8C0B8C80
330
2E
330
454FD
330
454FE
330
45500
330
0
 94
        0
  0
ACAD_PROXY_OBJECT
  5
454FD
330
2E
100
AcDbProxyObject
 90
      499
 91
      551
 95
       25
 70
     0
 93
       70
310
0001AAA80820000000
330
2E
330
454FD
330
454FD
 94
        0
  0
ACAD_PROXY_OBJECT
  5
454FE
330
2E
100
AcDbProxyObject
 90
      499
 91
      552
 95
       25
 70
     0
 93
       48
310
000100000000
330
2E
330
0
330
454FF
330
0
330
0
 94
        0
  0
ACAD_PROXY_OBJECT
  5
454FF
330
2E
100
AcDbProxyObject
 90
      499
 91
      553
 95
       25
 70
     0
 93
       40
310
000100AAAA
330
2E
330
0
 94
        0
  0
ACAD_PROXY_OBJECT
  5
45505
330
2E
100
AcDbProxyObject
 90
      499
 91
      522
 95
       25
 70
     0
 93
      180
310
00010143105050D3D35411119390535140504434F4D500
330
2E
 94
        0
  0
ACAD_PROXY_OBJECT
  5
45506
330
2E
100
AcDbProxyObject
 90
      499
 91
      522
 95
       25
 70
     0
 93
      212
310
0001014390505193D311115491119390535140506466F6C6465720
330
2E
 94
        0
  0
ACAD_PROXY_OBJECT
  5
45507
330
2E
100
AcDbProxyObject
 90
      499
 91
      522
 95
       25
 70
     0
 93
      180
310
00010143105050539393D1119390535140504284156290
330
2E
 94
        0
  0
ACAD_PROXY_OBJECT
  5
45508
330
2E
100
AcDbProxyObject
 90
      499
 91
      522
 95
       25
 70
     0
 93
      436
310
00010143905050D3D35415925155D31254D50052295BD96CA0A90B396CA0A894591A496CA0A8DB691A496CA0A89BA96CA0A95E28F95310
330
2E
 94
        0
  0
ACAD_PROXY_OBJECT
  5
4550D
330
2E
100
AcDbProxyObject
 90
      499
 91
      558
 95
       25
 70
     0
 93
       32
310
00010000
330
2E
340
4550A
330
4550F
330
4550A
 94
        0
  0
ACAD_PROXY_OBJECT
  5
4550E
330
2E
100
AcDbProxyObject
 90
      499
 91
      559
 95
       25
 70
     0
 93
       18
310
000180
330
2E
 94
        0
  0
ACAD_PROXY_OBJECT
  5
4550F
330
2E
100
AcDbProxyObject
 90
      499
 91
      560
 95
       25
 70
     0
 93
      162
310
00010142561094150B4CCCCC949050055401550000
330
2E
330
4550D
330
4550E
 94
        0
  0
ACAD_PROXY_OBJECT
  5
45510
330
2E
100
AcDbProxyObject
 90
      499
 91
      561
 95
       25
 70
     0
 93
      178
310
000100AAAAAAA9BCE8C4A2A4155220CADC5B99FE690A80
330
2E
330
4550F
 94
        0
  0
ACAD_PROXY_OBJECT
  5
45511
330
2E
100
AcDbProxyObject
 90
      499
 91
      562
 95
       25
 70
     0
 93
      108
310
000190140A000000000000AAAAA0
330
2E
330
45512
330
45512
330
45512
330
45512
330
45512
330
0
 94
        0
  0
ACAD_PROXY_OBJECT
  5
45512
330
2E
100
AcDbProxyObject
 90
      499
 91
      563
 95
       25
 70
     0
 93
       51
310
00010000AAAA80
330
2E
330
45511
330
4550F
 94
        0
  0
DICTIONARY
  5
40
102
{ACAD_REACTORS
330
3F
102
}
330
3F
100
AcDbDictionary
281
     1
  3
DWGSETTINGS
350
41
  3
FEM
350
69
  3
Shaft
350
56
  3
TRANSSETTINGS
350
4C
  0
ACAD_PROXY_OBJECT
  5
42
102
{ACAD_REACTORS
330
3F
102
}
330
3F
100
AcDbProxyObject
 90
      499
 91
      519
 95
       25
 70
     0
 93
    23232
310
41502491013041105357CC201C00030C011E441013141105357CC603800030C011E441013241105357CCA01400030C011E441013341105357CCE01800030C010D9013441105357CD200C00030C010D9013541105357CD600C00030C010D9013641105357CDA00800030C011E9013741105357CDE01000030C010D901384110
310
5357CE200400030C011E9013941105357CE63F400030C0241102324141505357CC4C201C00030C011E902344141505357CC4C600C00030C010D902495041505357CC4CA01C00030C011E40902304E41505357CC13A01C00030C011E902314E41505357CC53A03800030C011E902324E41505357CC93A01400030C011E90233
310
4E41505357CCD3A01800030C010D902344E41505357CD13A00C00030C010D902354E41505357CD53A00C00030C010D902364E41505357CD93A00800030C011E902374E41505357CDD3A01000030C010D902384E41505357CE13A00400030C011E902394E41505357CE53A3F400030C024110332414E41905357CC4C13A01C0
310
0030C011E90334414E41905357CC4C53A00C00030C010D90349504E41905357CC4C93A01C00030C011E409044B4C494E41505357D0D3200400030C011E42504494E464F42105357D410549151A01000030C010D42D055241484D3541905357D093D4A01C00030C011E425045649455742105357D5925155D4E00400030C011
310
E42D06424548494E4441905357D25395A3F400030C0243505545241494C41505357D514A00C00030C010D4250348494441905357D21251201C00030C011E4250356495341905357D59254E01C00030C011E4250650415244494D42505357D41054911253600C00030C010D4250652454644494D42505357D49151911253601
310
000030C010D425774110531514901348070000C300479034110915312501348000000C0003FFFFFFFD034110921395901398000000C0003FFFFFFFE415092139594D06424548494E448000000C0003FFFFFFFE411093125110234418000000C0003FFFFFFFD03411093D05410234418000000C0003FFFFFFFD03411093D48C
310
9055241484D358010000C30047A411093D48CD055241484D358020000C30047A411093D48D5055241484D358000000C0003FFFFFFFE411093D48DD055241484D3581E0000C30047903411094105410234418000000C0003FFFFFFFD03411094115610234418000000C0003FFFFFFFD034110951112501358000000C0003FFF
310
FFFFD034110D0530C901348000000C0003FFFFFFFE4110D0530CD01348020000C30047A4110D0530D501348070000C30047A4110D0530DD013481E0000C30047A4110D15393901378000000C0003FFFFFFFE4110D15395D01378000000C0003FFFFFFFE4110D312539044B4C494E8000000C0003FFFFFFFE4110D3D38C5013
310
08000000C0003FFFFFFFD034110D3D38C901318000000C0003FFFFFFFD034110D3D38CD01328000000C0003FFFFFFFD034110D3D38D101328000000C0003FFFFFFFD034111115494101348000000C0003FFFFFFFD034111115510501348000000C0003FFFFFFFE4111125051D01358000000C0003FFFFFFFE4111125312501
310
358000000C0003FFFFFFFE411112535410650415244494D8000000C0003FFFFFFFE411112535490652454644494D8000000C0003FFFFFFFE411156135410234418000000C0003FFFFFFFD034111915353901388000000C0003FFFFFFFE415191535413901388030000C3004364151915354D410234418000000C0003FFFFFF
310
FE4151915354D510234418030000C300436415191535593901328000000C0003FFFFFFFE415191535595101328030000C3004364111931055101308000000C0003FFFFFFFD03411194905490234418000000C0003FFFFFFFD034111D49312501358000000C0003FFFFFFFD034111D5931250234418000000C0003FFFFFFFD0
310
34112105510D01388000000C0003FFFFFFFD014112125113901338000000C0003FFFFFFFD034112125115D01338000000C0003FFFFFFFD034112131253901348000000C0003FFFFFFFD01411213D0D3901378000000C0003FFFFFFFE411213D0D5D01378000000C0003FFFFFFFE4112539193D04494E464F8000000C0003FF
310
FFFFFE4113105112501348000000C0003FFFFFFFD034113115051101358000000C0003FFFFFFFE419397D0921395902394E8000000C0003FFFFFFFE419397D0D3D38C502304E8000000C0003FFFFFFFD03419397D0D3D38C902314E8000000C0003FFFFFFFD03419397D0D3D38CD02324E8000000C0003FFFFFFFD03419397
310
D0D3D38D102324E8000000C0003FFFFFFFD03419397D0D15393902374E8000000C0003FFFFFFFE419397D0D15395D02374E8000000C0003FFFFFFFE419397D1125312502354E8000000C0003FFFFFFFE419397D2105510D02384E8000000C0003FFFFFFFD01419397D2125113902334E8000000C0003FFFFFFFD03419397D2
310
125115D02334E8000000C0003FFFFFFFD03419397D3115051102354E8000000C0003FFFFFFFE419397D391D25410349504E8000000C0003FFFFFFFE419397D412105390334414E8000000C0003FFFFFFFE419397D510D3D3902304E8000000C0003FFFFFFFD03419397D5121312502344E8000000C0003FFFFFFFD01419397
310
D5131153902304E8000000C0003FFFFFFFD03419397D516150CD02364E8000000C0003FFFFFFFD03419397D594131250332414E8000000C0003FFFFFFFE411391D25410249508000000C0003FFFFFFFE411410530C9055241484D358010000C30047A411410530CD055241484D358020000C30047A411410530D5055241484
310
D358000000C0003FFFFFFFE411410530DD055241484D3581E0000C30047903411412105390234418000000C0003FFFFFFFE411413D4D3901368070000C30047A419413D4D49151901368050000C30047903411413D4D6101368000000C0003FFFFFFFD03411414D150D0234418000000C0003FFFFFFFD03411490D1D390137
310
8000000C0003FFFFFFFE411490D1D5D01378000000C0003FFFFFFFE4114919112501348000000C0003FFFFFFFD034114945514901348070000C30047903411494D093D01348000000C0003FFFFFFFD034114D09492D01348000000C0003FFFFFFFD014114D0D153901378000000C0003FFFFFFFD034114D150D51013480000
310
00C0003FFFFFFFD014114D15313901378000000C0003FFFFFFFD034114D15315D01378000000C0003FFFFFFFD034114D4D654D01308000000C0003FFFFFFFD034114D51312501348070000C300479034114D6508C501358000000C0003FFFFFFFD034114D6508C901358000000C0003FFFFFFFD034114D6508CD0135802000
310
0C30047A4114D6508D501358070000C300479034114D65353901378000000C0003FFFFFFFD034114D65355D01378000000C0003FFFFFFFD03411510D3D3901308000000C0003FFFFFFFD034115121312501348000000C0003FFFFFFFD01411512550C9055241484D358010000C30047A411512550CD055241484D358020000
310
C30047A411512550D5055241484D358000000C0003FFFFFFFE411512550DD055241484D3581E0000C300479034115131153901308000000C0003FFFFFFFD03415514905253105545241494C8000000C0003FFFFFFFE41151492D3901378000000C0003FFFFFFFD0341151492D5D01378000000C0003FFFFFFFD03411514931
310
2501348000000C0003FFFFFFFD01411516150C501368030000C300436411516150C901368030000C300436411516150CD01368000000C0003FFFFFFFE411516150D501368070000C30047A411516150DD013681E0000C30047A4115925155D04564945578000000C0003FFFFFFFE41159151121034849448000000C0003FFF
310
FFFFD0241159151159035649538000000C0003FFFFFFFD02411594131250232418000000C0003FFFFFFFE4116925690501348000000C0003FFFFFFFD01411354D653501358020000C30047AAAA3F400030C01013F90A4391E41D1E4190D4151E4110D40D0D4091E4051E4791E7F6
340
16
340
16
340
16
340
43
340
16
340
16
340
16
340
44
340
16
340
16
340
44
340
45
340
16
340
16
340
16
340
16
340
43
340
16
340
16
340
16
340
44
340
16
340
16
340
44
340
45
340
16
340
46
340
16
340
16
340
16
340
16
340
16
340
43
340
16
340
16
340
16
340
47
340
15
340
15
340
15
340
15
340
15
340
15
340
15
340
15
340
15
340
15
340
15
340
15
340
15
340
15
340
15
340
15
340
48
340
15
340
15
340
15
340
15
340
15
340
15
340
15
340
15
340
15
340
15
340
15
340
15
340
15
340
15
340
15
340
16
340
15
340
15
340
15
340
15
340
15
340
15
340
15
340
15
340
47
340
15
340
15
340
48
340
15
340
15
340
15
340
15
340
15
340
15
340
15
340
15
340
15
340
48
340
15
340
15
340
15
340
47
340
15
340
15
340
15
340
15
340
15
340
15
340
15
340
15
340
15
340
15
340
15
340
15
340
15
340
15
340
15
340
15
340
15
340
15
340
15
340
48
340
15
340
15
340
48
340
15
340
15
340
16
340
15
340
48
340
15
340
15
340
47
340
15
340
15
340
16
340
15
340
48
340
15
340
15
340
15
340
15
340
15
340
15
340
15
340
15
340
15
340
48
340
15
340
15
340
15
340
15
340
15
340
15
340
15
340
15
340
15
340
15
340
15
340
4B
340
16
 94
        0
  0
ACAD_PROXY_OBJECT
  5
40811
102
{ACAD_REACTORS
330
73
102
}
330
73
100
AcDbProxyObject
 90
      499
 91
      523
 95
       25
 70
     0
 93
      253
310
43D1444494D454E53494F4E2C414D44545F2A5F44494D404A9012A404A9012A0
  0
ACAD_PROXY_OBJECT
  5
40812
102
{ACAD_REACTORS
330
73
102
}
330
73
100
AcDbProxyObject
 90
      499
 91
      523
 95
       25
 70
     0
 93
      181
310
43D012A42D05357D191504B505357CA9012A404A9012A8
  0
ACAD_PROXY_OBJECT
  5
40813
102
{ACAD_REACTORS
330
73
102
}
330
73
100
AcDbProxyObject
 90
      499
 91
      523
 95
       25
 70
     0
 93
      133
310
43D054841544348404A9012A404A9012A8
  0
ACAD_PROXY_OBJECT
  5
40814
102
{ACAD_REACTORS
330
73
102
}
330
73
100
AcDbProxyObject
 90
      499
 91
      523
 95
       25
 70
     0
 93
      549
310
43D044C494E4549CE0B0E138B0A8B4E0B0A8B4E138B105357CE0B105357CE138B0A8B505357CE0B0A8B505357CE139012A404A910494E534552542C5354445041525432448
  0
ACAD_PROXY_OBJECT
  5
40815
102
{ACAD_REACTORS
330
73
102
}
330
73
100
AcDbProxyObject
 90
      499
 91
      523
 95
       25
 70
     0
 93
      909
310
43D6641434D46434652414D452C41434D444154554D5441524745542C41434D444154554D49442C41434D57454C4453594D2C41434D5355524653594D2C41434D4645415449442C41434D504152545245462C41434D42414C4C4F4F4E2C414D44544544474553594D404A9012A404A9012A0
  0
XRECORD
  5
460A2
102
{ACAD_REACTORS
330
460A1
102
}
330
460A1
100
AcDbXrecord
280
     1
330
0
330
0
330
0
330
0
330
0
330
0
330
0
330
0
330
0
330
0
330
0
330
0
330
0
330
0
330
0
330
0
330
0
330
0
330
0
330
0
330
0
330
0
330
0
330
0
330
0
330
0
330
0
330
0
330
0
330
0
330
0
330
0
330
0
330
0
330
0
330
0
330
0
330
0
330
0
330
0
330
0
330
0
330
0
330
0
330
0
330
0
330
0
330
0
330
0
330
0
330
0
330
0
330
0
330
0
330
0
330
0
330
0
330
0
330
0
330
0
330
0
330
0
330
0
330
0
330
0
330
0
330
0
330
0
330
0
330
0
330
0
330
0
330
0
330
0
330
0
330
0
330
0
330
0
330
0
330
0
330
0
330
0
330
0
330
0
330
0
330
0
330
0
330
0
330
0
330
0
330
0
330
0
330
0
  0
XRECORD
  5
2928
102
{ACAD_REACTORS
330
2927
102
}
330
2927
100
AcDbXrecord
280
     1
  1
25000264__00___
  0

  0
XRECORD
  5
168A
102
{ACAD_REACTORS
330
1688
102
}
330
1688
100
AcDbXrecord
280
     1
  1
1,,,,,,,,,^M^J2,,,,,,,,,^M^J3,,,,,,,,,^M^J4,,,,,,,,,^M^J5,,,,,,,,,^M^J6,,,,,,,,,^M^J7,,,,,,,,,^M^J8,,,,,,,,,^M^J9,,,,,,,,,^M^J10,,,,,,,,,
  0

  0
XRECORD
  5
1689
102
{ACAD_REACTORS
330
1688
102
}
330
1688
100
AcDbXrecord
280
     1
  1
10,10
  0

  0
XRECORD
  5
292A
102
{ACAD_REACTORS
330
2929
102
}
330
2929
100
AcDbXrecord
280
     1
  1
2
  0

  0
ACAD_PROXY_OBJECT
  5
4F
102
{ACAD_REACTORS
330
4E
102
}
330
4E
100
AcDbProxyObject
 90
      499
 91
      521
 95
       25
 70
     0
 93
      157
310
057356C1D77406406AA8FFFFFFFF05DD01009010
330
1F
330
0
330
4550F
 94
        0
  0
ACAD_PROXY_OBJECT
  5
17F
102
{ACAD_REACTORS
330
17E
102
}
330
17E
100
AcDbProxyObject
 90
      499
 91
      526
 95
       25
 70
     0
 93
     2379
310
5DC33333333333309408000000C00040D29254D01640600800030C0200800030C003333333333330940C8121E8720B1B6A9BAB9332A32BC3A29BA3220480A1282C6DA8C868CA6E8C88120286A0B1B6ABB2B63234B733A9BA3220480A1082C6DA92C8A6E8C88120285A0B1B6A230BA3AB6A9BA3220480A1282C6DA849E9AA6E
310
8C88120286A0B1A0B6B3AA34BA3632A9BA3220480A2082DAC8E888CAE8C2D2D8A6F2DAA6E8C88120288A0B6B23A29B2B1BA34B7B729BCB6A9BA3220480A2282DAC8E886CADCE8CAE498D2DCCAA6E8C88120288A0B6B23A2A343932B0B22634B732A9BA3220480A1682DAC8E89CDEE8CAA6E8C88120285A0B1A0B6B3A630BCA
310
9BA3220480A1682C682DACE88D2DAA6E8C88120288A0B1A0B6B3A437B632A1B430B93A29BA3220480C812020
340
180
360
181
360
182
360
183
360
184
360
185
360
186
360
45514
360
45515
360
45516
360
45518
360
45519
360
4551A
360
45520
360
45521
360
45522
340
0
340
0
 94
        0
  0
ACAD_PROXY_OBJECT
  5
41
102
{ACAD_REACTORS
330
40
102
}
330
40
100
AcDbProxyObject
 90
      499
 91
      518
 95
       25
 70
     0
 93
     2962
310
4050B44574753455454494E4753A0E8482A68AA6A88882A069492A684A1A0A723A0A92920ACA0A81969B1820C868A9C829C8E82A12686AF87260F862666A8321A2A72224A0A50004E73A14899F01FA0E868A9C889282A682A106260F86460F8666083A1A2A72224A9AA250000000000000042020C868A9C988A9C940000000
310
00000048808321A2A727A323250000000000000122020E868A9C9E8C8C62940000000000000488083A1A2A727A32319250000000000000122021CC6D0C2DACCCAE4C8D2DADADEC8CA9FC84A1A624A720A92920ACA0A819998182108698929C8AA8B2A082A0AB098929C8A84A22BA3AAA9A1A0A622A50A0E9882A6A89E84948
310
2A02608426A0A5A2AB24A2ABA7E8120CA0A68682988A0C00800010652455649534941501304154D0D0531150540CC4E8C5085354414E44415244415034A4953425512535154D5105354128246CD1D09E4ADCD050756455253494F4E4150531352E3030441ED115D1D4D15515125391D4D153911F40
  0
ACAD_PROXY_OBJECT
  5
69
102
{ACAD_REACTORS
330
40
102
}
330
40
100
AcDbProxyObject
 90
      499
 91
      518
 95
       25
 70
     0
 93
      411
310
4050346454D21092DCC6E486DECACC942842630BCA3B937BAB820A8320A6AFA322A0A20F688AE8EA68AA8A8929C8EA68A9C88FA0
  0
ACAD_PROXY_OBJECT
  5
56
102
{ACAD_REACTORS
330
40
102
}
330
40
100
AcDbProxyObject
 90
      499
 91
      518
 95
       25
 70
     0
 93
      583
310
40505536861667421292DCE8CAE4E4EAE0E89FA0484A634B3B43A2634B732A7F21A98D2CED0E898D2DCCAACD2CAEE9FC8229B4B232A7E80A20F688AE8EA68AA8A8929C8EA68A9C88FA
  0
ACAD_PROXY_OBJECT
  5
4C
102
{ACAD_REACTORS
330
40
102
}
330
40
100
AcDbProxyObject
 90
      499
 91
      518
 95
       25
 70
     0
 93
      852
310
4050D5452414E5353455454494E4753A2488A482AE929C8EA8A4829CA69882A8929E9C0C00800050D4F524947494E414C4C595F4F4E0600400028529A7AAA921A2A620A723A0A81A52827212AAA0A48AA68AA4AC8A0C0080001107B44574753455454494E4753454E447D0
  0
ACAD_PROXY_OBJECT
  5
181
330
17F
100
AcDbProxyObject
 90
      499
 91
      527
 95
       25
 70
     0
 93
       86
310
5DEA0C80A0280A0280A034
  0
ACAD_PROXY_OBJECT
  5
182
330
17F
100
AcDbProxyObject
 90
      499
 91
      528
 95
       25
 70
     0
 93
      282
310
5DD0E4050140501405014050140501405014050141101405014041000000000000001000
340
187
 94
        0
  0
ACAD_PROXY_OBJECT
  5
183
330
17F
100
AcDbProxyObject
 90
      499
 91
      529
 95
       25
 70
     0
 93
      323
310
5DCC199999999999E99F91740501405014050140501405014050140501405014050140501405014040
340
0
 94
        0
  0
ACAD_PROXY_OBJECT
  5
184
330
17F
100
AcDbProxyObject
 90
      499
 91
      530
 95
       25
 70
     0
 93
       10
310
5DC0
  0
ACAD_PROXY_OBJECT
  5
185
330
17F
100
AcDbProxyObject
 90
      499
 91
      531
 95
       25
 70
     0
 93
      257
310
5DE0C16A22A7D90F49F80000000000001081400000000000004204010000618000
340
188
340
189
 94
        0
  0
ACAD_PROXY_OBJECT
  5
186
330
17F
100
AcDbProxyObject
 90
      499
 91
      532
 95
       25
 70
     0
 93
     5277
310
5DD06411255115350141236025B6901405014069010000000000000910240690120281A8AA2CA0282484A4BE52028120280A032020000000000001220480D202405044E414D454050496BC914F4051C40640A80000000000004E4090193C3D3C4946284953424C414E4B28504152543A4E414D45292C424C4F434B3A4E414D
310
452C504152543A4E414D45293E3C41435F44455343524950544E3E40480A109A82A88AA492829880A091BBD2F7E80A3A80C81D0E27A15AF46E08A81203480901411393D5115014124A363B7D0147501904A0000000000000F902406428F4F1050D7D393D5114F901202832B22A72227A92028366EF6EE06F582028EA0320B4
310
0000000000001F20480C879E9E20A1AFAB27222FA620A122A61F20240506445020000000000000490201C00030C00010180000000000003E400000000000000F901073D3C4954454D3E4050180000000000003E400000000000000F901073D3C4954454D3E40501800000000000034400000000000000D101073D3C4954454
310
D3E40501800000000000034400000000000000D101073D3C4954454D3E405029010000000000000F9000000000000003E4041CF4F125511534F901418F4F1455164F9014060000000000000F9000000000000003E4041CF4F125511534F901800000000000034400000000000000D101073D3C4954454D3E40640400000000
310
0000003E400000000000000F90288800000000000020810000001800120881A068120480A032208521122080D21480D211480A1485214852050000000000003C2FC000000000000F0BF40600800030C0200400030C00CDCCCCCCCCCCEC3F3373333333333B0FC3333333333330940C80D069014090341504901A1999999999
310
9984A040100006180400800061804010000618008098A02808
340
0
340
0
 94
        0
  0
ACAD_PROXY_OBJECT
  5
45514
330
17F
100
AcDbProxyObject
 90
      499
 91
      564
 95
       25
 70
     0
 93
     3042
310
5DD9740D29254D064A49535F413342929254D7D512551311505134A49535F42525F5265766973696F6E6C6973744190F4134522028323937783231306D6D2941D29254D7D04D1490E41312028353934783834316D6D2941929254D7D04C50E41332028323937783432306D6D2941929254D7D04CD0F41344C2028323130783
310
239376D6D2941D29254D7D04D1310E41322028343230783539346D6D2941929254D7D04C90F4130202838343178313138396D6D2941929254D7D04C10243129254C82557247A25E4C81050A4A49535F5449544C454143129254C82557247A25E4C81090A4A49535F5449544C45424110E979A97F0838A835883675F42525F4
310
4D29254D7D09497D4995D9A5CDA5BDB9B1A5CDD10E979A97F0838A835883675F54525F44D29254D7D51497D4995D9A5CDA5BDB9B1A5CDD10E979A97F0838A835883675F424C5F44D29254D7D09317D4995D9A5CDA5BDB9B1A5CDD10E979A97F0838A835883675F544C5F44D29254D7D51317D4995D9A5CDA5BDB9B1A5CDD00
  0
ACAD_PROXY_OBJECT
  5
45515
330
17F
100
AcDbProxyObject
 90
      499
 91
      565
 95
       25
 70
     0
 93
      898
310
5DC4000000000000124048CF4F11115510525317D3105091530F880A0F11115510525317D05094D4D0D053114F8A50241C9A9999999999B93F26A666666666724FC000000000000E03F400000000000000400000000000000510000000000000024408070000C300000000000000049000
340
16
340
180
 94
        0
  0
ACAD_PROXY_OBJECT
  5
45516
330
17F
100
AcDbProxyObject
 90
      499
 91
      566
 95
       25
 70
     0
 93
      823
310
5DC0B00000000000002480959E9E29A2A1AA24A7A72FA620A122A62FA324A929AA1F169E29A2A1AA24A7A72FA620A122A62FA620A9AA1F000000000000048803FFFE01C00030C008140380006180000000000000048800000000000000A2000000000000002480
340
652
340
180
 94
        0
  0
ACAD_PROXY_OBJECT
  5
45518
330
17F
100
AcDbProxyObject
 90
      499
 91
      567
 95
       25
 70
     0
 93
      152
310
5DE8273108AC1C5A0640A3D0A5723F0BD1F200
  0
ACAD_PROXY_OBJECT
  5
45519
330
17F
100
AcDbProxyObject
 90
      499
 91
      568
 95
       25
 70
     0
 93
       14
310
5DE0
340
0
 94
        0
  0
ACAD_PROXY_OBJECT
  5
4551A
330
17F
100
AcDbProxyObject
 90
      499
 91
      569
 95
       25
 70
     0
 93
     6059
310
5DD084050BA4050AA405024050E836583938376838C815B83672031405983D3C486F6C653A6469613E3C696628657175616C28486F6C653A7465726D696E6174696F6E2C223022292C2220905B82B320222C22208368838A838B22293E3C696628657175616C28486F6C653A7465726D696E6174696F6E2C223022292C486F
310
6C653A64657074682C2222293E2C203C486F6C653A63746469613E2082B482AE82E882CC905B82B3203C486F6C653A637464657074683E406901405034050E836583938376838C815B83672031405EF3D3C486F6C653A6374616E676C653E252564202525633C486F6C653A63746469613E208E4D8C8A2C203C69662865717
310
5616C28486F6C653A7461707065642C223022292C22252563222C486F6C653A6E6F6D696E616C202220782022293E3C696628657175616C28486F6C653A7461707065642C223022292C486F6C653A6469612C486F6C653A706974636864657363293E203C696628657175616C28486F6C653A7465726D696E6174696F6E2C2
310
23022292C22905B82B320222C222022293E3C696628657175616C28486F6C653A7465726D696E6174696F6E2C223022292C486F6C653A64657074682C2222293E406901405014050E836583938376838C815B83672031405C73D3C696628657175616C28486F6C653A7461707065642C223022292C22252563222C486F6C65
310
3A6E6F6D696E616C202220782022293E3C696628657175616C28486F6C653A7461707065642C223022292C486F6C653A6469612C486F6C653A706974636864657363293E203C696628657175616C28486F6C653A7465726D696E6174696F6E2C223022292C22905B82B320222C222022293E3C696628657175616C28486F6C
310
653A7465726D696E6174696F6E2C223022292C486F6C653A64657074682C2222293E4069014051E4090E836583938376838C815B83672032405173D3C535444503A444553433E203C535444503A5354443E40690E836583938376838C815B836720314050C3D3C535444503A444553433E40690240515AAABBA120
360
4551E
330
4551E
360
4551F
330
4551F
360
4551D
330
4551D
360
4551C
360
4551B
330
4551C
330
4551B
 94
        0
  0
ACAD_PROXY_OBJECT
  5
45520
330
17F
100
AcDbProxyObject
 90
      499
 91
      571
 95
       25
 70
     0
 93
       26
310
5DD02A80
340
42
 94
        0
  0
ACAD_PROXY_OBJECT
  5
45521
330
17F
100
AcDbProxyObject
 90
      499
 91
      572
 95
       25
 70
     0
 93
      250
310
5DD020000000000000A1000000000000002440408F0F9023C3E409A0DCFFFF80
340
58
340
3E0D
340
3E0E
340
5F
340
60
340
61
340
62
340
63
340
68
340
0
 94
        0
  0
ACAD_PROXY_OBJECT
  5
45522
330
17F
100
AcDbProxyObject
 90
      499
 91
      573
 95
       25
 70
     0
 93
    13889
310
5DD1D003FFFFFFFD030300030CCCCCCCCCCCC250200800030C01030300030CCCCCCCCCCCC250200800030C00050C8DC0955782CC838A83588367014ED1D15395149050D3CB1294138B0C0B23702555E0B320E2A0D620D9CB11D15395149055160B095CCB0A11D1539354D1C819D95B991A5B5E880CCC0A78000C0000000000
310
00000000000000000000010CCCCCCCCCCCC250200800030C010CCCCCCCCCCCC250200800030C020143CF4F111959985D5B1D151A5D1B194F8050A8C8A8365815B8375838B014E51D15395149050D3CB1294138B0C0B2322A0D96056E0DD60E2CB11D15395149055160B095CCB0A11D1539354D1C819D95B991A5B5E880CCC4
310
A78000C000000000000000000000000000000010CCCCCCCCCCCC250200800030C010CCCCCCCCCCCC250200800030C020143CF4F111959985D5B1D151A5D1B194F90D44111409034110541D0C4350F4050E44D03449074510F000141232D24D7C053247454E545241434F2C4A504E2C302C8CB4935F2C47454E54524154582C
310
25732C2847454E4D53472067656E64696D7A20312900010104002214000281464500A608E8A9CA8A482869E5894A09C5860591914588E8A9CA8A482A8B0584AE658508E8A9C9AA68E40CECADCC8D2DAF4406452029E9E9E27B934B3B4B71F1E24A31427A91424A9A12620A7259427B934B3B4B7149624A9A12620A7259424B
310
A32B6949496111116111711149F1E24BA32B69F00808200111A000140560052F47454E545241434F2C4A504E2C302C582C47454E54524154582C25732C2847454E4D53472067656E64696D7A20332900010100002054000280AC80A5E8E8A9CA8A482869E5894A09C586058B2588E8A9CA8A482A8B0584AE658508E8A9C9AA
310
68E40CECADCC8D2DAF4406852000202000040E800050152014BD1D15395149050D3CB1294138B0C0B148B11D15395149055160B095CCB0A11D1539354D1C819D95B991A5B5E880D8A400040400008250000A0507A6029823A2A72A2920A1A79625282716181641E99623A2A72A2920AA2C1612B9961423A2A726A9A39033B2
310
B73234B6BD101B948000808180105A000140A0F4C053047454E545241434F2C4A504E2C302C83D32C47454E54524154582C25732C2847454E4D53472067656E64696D7A203829000101010020F400028248704B5F00A668E8A9CA8A482869E5894A09C58605921C12D7C588E8A9CA8A482A8B0584AE658508E8A9C9AA68E40
310
CECADCC8D2DAF440646052000200080043280005048B4B8A69014CD1D15395149050D3CB1294138B0C0B22D2E29A4B11D15395149055160B095CCB0A11D1539354D1C819D95B991A5B5E880C8C4A4000400100086D0000A09196926BE029923A2A72A2920A1A796252827161816465A49AF9623A2A72A2920AA2C1612B9961
310
423A2A726A9A39033B2B73234B6BD10189480A02620202080043E80005048D8096DA014CD1D15395149050D3CB1294138B0C0B236025B68B11D15395149055160B095CCB0A11D1539354D1C819D95B991A5B5E880C4D0A4000404140280D0000A190687072706CD06C5069D06B0029DA3A2A72A2920A1A7962528271618164
310
1A1C1C9C1B341B141A741AC1623A2A72A2920AA2C1612B9961423A2A726A9A39033B2B73234B6BD10189A94800080820050EA000143A322A0D0E0E4E0D9A0D8A0D3A0D60053D47454E545241434F2C4A504E2C302C8C8A8343839383668362834E83582C47454E54524154582C25732C2847454E4D53472067656E64696D7A
310
2031372900010105002274000281464500A628E8A9CA8A482869E5894A09C5860591914588E8A9CA8A482A8B0584AE658508E8A9C9AA68E40CECADCC8D2DAF440626C52000202080044A8000504909497CA014CD1D15395149050D3CB1294138B0C0B242525F28B11D15395149055160B095CCB0A11D1539354D1C819D95B9
310
91A5B5E880C4E4A400040418008A521E000000000000001CA040C00000000000034408080000000000006881010000000000000D102040000000000001A204080000000000003440818000000000000728103000000000000125020600000000004028A040000000000000034408000000000000004881000000000000000D
310
102000000000000001A204000000000000003440818000000000000508143C0000000000000039408180000000000006881030000000000000D102060000000000001A2040C00000000000034408180000000000006881030000000000000E5020600000000000024A040C0000000000805140800000000000000688100000
310
00000000009102000000000000001A2040000000000000034408180000000000006881030000000000000A10284220000000878000002020000008380000020400000081800000208000000828000002028900000000
340
0
340
0
340
0
340
0
340
180
340
180
 94
        0
  0
ACAD_PROXY_OBJECT
  5
4551E
330
4551A
100
AcDbProxyObject
 90
      499
 91
      570
 95
       25
 70
     0
 93
     1376
310
5DE0143A0D960E4E0DDA0E32056E0D9C80C405983D3C486F6C653A6469613E3C696628657175616C28486F6C653A7465726D696E6174696F6E2C223022292C2220905B82B320222C22208368838A838B22293E3C696628657175616C28486F6C653A7465726D696E6174696F6E2C223022292C486F6C653A64657074682C22
310
22293E2C203C486F6C653A63746469613E2082B482AE82E882CC905B82B3203C486F6C653A637464657074683E
  0
ACAD_PROXY_OBJECT
  5
4551F
330
4551A
100
AcDbProxyObject
 90
      499
 91
      570
 95
       25
 70
     0
 93
     2072
310
5DE0143A0D960E4E0DDA0E32056E0D9C80C405EF3D3C486F6C653A6374616E676C653E252564202525633C486F6C653A63746469613E208E4D8C8A2C203C696628657175616C28486F6C653A7461707065642C223022292C22252563222C486F6C653A6E6F6D696E616C202220782022293E3C696628657175616C28486F6C
310
653A7461707065642C223022292C486F6C653A6469612C486F6C653A706974636864657363293E203C696628657175616C28486F6C653A7465726D696E6174696F6E2C223022292C22905B82B320222C222022293E3C696628657175616C28486F6C653A7465726D696E6174696F6E2C223022292C486F6C653A6465707468
310
2C2222293E
  0
ACAD_PROXY_OBJECT
  5
4551D
330
4551A
100
AcDbProxyObject
 90
      499
 91
      570
 95
       25
 70
     0
 93
     1752
310
5DE0143A0D960E4E0DDA0E32056E0D9C80C405C73D3C696628657175616C28486F6C653A7461707065642C223022292C22252563222C486F6C653A6E6F6D696E616C202220782022293E3C696628657175616C28486F6C653A7461707065642C223022292C486F6C653A6469612C486F6C653A706974636864657363293E20
310
3C696628657175616C28486F6C653A7465726D696E6174696F6E2C223022292C22905B82B320222C222022293E3C696628657175616C28486F6C653A7465726D696E6174696F6E2C223022292C486F6C653A64657074682C2222293E
  0
ACAD_PROXY_OBJECT
  5
4551C
330
4551A
100
AcDbProxyObject
 90
      499
 91
      570
 95
       25
 70
     0
 93
      344
310
5DE0143A0D960E4E0DDA0E32056E0D9C80C805173D3C535444503A444553433E203C535444503A5354443E
  0
ACAD_PROXY_OBJECT
  5
4551B
330
4551A
100
AcDbProxyObject
 90
      499
 91
      570
 95
       25
 70
     0
 93
      256
310
5DE0143A0D960E4E0DDA0E32056E0D9C80C4050C3D3C535444503A444553433E
  0
ENDSEC
  0
EOF
