  0
SECTION
  2
HEADER
  9
$ACADVER
  1
AC1015
  9
$ACADMAINTVER
 70
     6
  9
$DWGCODEPAGE
  3
ANSI_932
  9
$INSBASE
 10
0.0
 20
0.0
 30
0.0
  9
$EXTMIN
 10
-76.87195193882542
 20
-75.78176819554267
 30
-0.0015258207003583
  9
$EXTMAX
 10
106.0717457698772
 20
24.23638953412467
 30
0.0000000349246037
  9
$LIMMIN
 10
0.0
 20
0.0
  9
$LIMMAX
 10
420.0
 20
297.0
  9
$ORTHOMODE
 70
     0
  9
$REGENMODE
 70
     1
  9
$FILLMODE
 70
     1
  9
$QTEXTMODE
 70
     0
  9
$MIRRTEXT
 70
     1
  9
$LTSCALE
 40
1.0
  9
$ATTMODE
 70
     1
  9
$TEXTSIZE
 40
3.48
  9
$TRACEWID
 40
1.0
  9
$TEXTSTYLE
  7
STANDARD
  9
$CLAYER
  8
AM_0
  9
$CELTYPE
  6
ByLayer
  9
$CECOLOR
 62
   256
  9
$CELTSCALE
 40
1.0
  9
$DISPSILH
 70
     0
  9
$DIMSCALE
 40
1.0
  9
$DIMASZ
 40
2.5
  9
$DIMEXO
 40
0.0
  9
$DIMDLI
 40
10.0
  9
$DIMRND
 40
0.0
  9
$DIMDLE
 40
0.0
  9
$DIMEXE
 40
1.0
  9
$DIMTP
 40
0.1
  9
$DIMTM
 40
0.1000000001
  9
$DIMTXT
 40
3.8
  9
$DIMCEN
 40
0.0
  9
$DIMTSZ
 40
0.0
  9
$DIMTOL
 70
     0
  9
$DIMLIM
 70
     0
  9
$DIMTIH
 70
     0
  9
$DIMTOH
 70
     0
  9
$DIMSE1
 70
     0
  9
$DIMSE2
 70
     0
  9
$DIMTAD
 70
     3
  9
$DIMZIN
 70
     1
  9
$DIMBLK
  1
Open30
  9
$DIMASO
 70
     1
  9
$DIMSHO
 70
     1
  9
$DIMPOST
  1

  9
$DIMAPOST
  1
"
  9
$DIMALT
 70
     0
  9
$DIMALTD
 70
     2
  9
$DIMALTF
 40
0.0393701
  9
$DIMLFAC
 40
1.0
  9
$DIMTOFL
 70
     1
  9
$DIMTVP
 40
0.0
  9
$DIMTIX
 70
     0
  9
$DIMSOXD
 70
     0
  9
$DIMSAH
 70
     0
  9
$DIMBLK1
  1

  9
$DIMBLK2
  1

  9
$DIMSTYLE
  2
AM_JIS
  9
$DIMCLRD
 70
   256
  9
$DIMCLRE
 70
   256
  9
$DIMCLRT
 70
     2
  9
$DIMTFAC
 40
0.71
  9
$DIMGAP
 40
1.5
  9
$DIMJUST
 70
     0
  9
$DIMSD1
 70
     0
  9
$DIMSD2
 70
     0
  9
$DIMTOLJ
 70
     0
  9
$DIMTZIN
 70
     8
  9
$DIMALTZ
 70
     0
  9
$DIMALTTZ
 70
     0
  9
$DIMUPT
 70
     0
  9
$DIMDEC
 70
     0
  9
$DIMTDEC
 70
     3
  9
$DIMALTU
 70
     2
  9
$DIMALTTD
 70
     2
  9
$DIMTXSTY
  7
STANDARD
  9
$DIMAUNIT
 70
     1
  9
$DIMADEC
 70
     0
  9
$DIMALTRND
 40
0.0
  9
$DIMAZIN
 70
     2
  9
$DIMDSEP
 70
    46
  9
$DIMATFIT
 70
     3
  9
$DIMFRAC
 70
     0
  9
$DIMLDRBLK
  1
Open30
  9
$DIMLUNIT
 70
     2
  9
$DIMLWD
 70
    -1
  9
$DIMLWE
 70
    -1
  9
$DIMTMOVE
 70
     0
  9
$LUNITS
 70
     2
  9
$LUPREC
 70
     4
  9
$SKETCHINC
 40
1.0
  9
$FILLETRAD
 40
0.2
  9
$AUNITS
 70
     0
  9
$AUPREC
 70
     4
  9
$MENU
  1
.
  9
$ELEVATION
 40
0.0
  9
$PELEVATION
 40
0.0
  9
$THICKNESS
 40
0.0
  9
$LIMCHECK
 70
     0
  9
$CHAMFERA
 40
2.0
  9
$CHAMFERB
 40
2.0
  9
$CHAMFERC
 40
20.0
  9
$CHAMFERD
 40
0.0
  9
$SKPOLY
 70
     0
  9
$TDCREATE
 40
2451943.610431667
  9
$TDUCREATE
 40
2451943.235431667
  9
$TDUPDATE
 40
2455441.492901829
  9
$TDUUPDATE
 40
2455441.117901829
  9
$TDINDWG
 40
1.960598287
  9
$TDUSRTIMER
 40
1.9605981134
  9
$USRTIMER
 70
     1
  9
$ANGBASE
 50
0.0
  9
$ANGDIR
 70
     0
  9
$PDMODE
 70
     0
  9
$PDSIZE
 40
0.0
  9
$PLINEWID
 40
0.0
  9
$SPLFRAME
 70
     0
  9
$SPLINETYPE
 70
     6
  9
$SPLINESEGS
 70
     8
  9
$HANDSEED
  5
1F41C
  9
$SURFTAB1
 70
     6
  9
$SURFTAB2
 70
     6
  9
$SURFTYPE
 70
     6
  9
$SURFU
 70
     6
  9
$SURFV
 70
     6
  9
$UCSBASE
  2

  9
$UCSNAME
  2

  9
$UCSORG
 10
0.0
 20
0.0
 30
0.0
  9
$UCSXDIR
 10
1.0
 20
0.0
 30
0.0
  9
$UCSYDIR
 10
0.0
 20
1.0
 30
0.0
  9
$UCSORTHOREF
  2

  9
$UCSORTHOVIEW
 70
     0
  9
$UCSORGTOP
 10
0.0
 20
0.0
 30
0.0
  9
$UCSORGBOTTOM
 10
0.0
 20
0.0
 30
0.0
  9
$UCSORGLEFT
 10
0.0
 20
0.0
 30
0.0
  9
$UCSORGRIGHT
 10
0.0
 20
0.0
 30
0.0
  9
$UCSORGFRONT
 10
0.0
 20
0.0
 30
0.0
  9
$UCSORGBACK
 10
0.0
 20
0.0
 30
0.0
  9
$PUCSBASE
  2

  9
$PUCSNAME
  2

  9
$PUCSORG
 10
0.0
 20
0.0
 30
0.0
  9
$PUCSXDIR
 10
1.0
 20
0.0
 30
0.0
  9
$PUCSYDIR
 10
0.0
 20
1.0
 30
0.0
  9
$PUCSORTHOREF
  2

  9
$PUCSORTHOVIEW
 70
     0
  9
$PUCSORGTOP
 10
0.0
 20
0.0
 30
0.0
  9
$PUCSORGBOTTOM
 10
0.0
 20
0.0
 30
0.0
  9
$PUCSORGLEFT
 10
0.0
 20
0.0
 30
0.0
  9
$PUCSORGRIGHT
 10
0.0
 20
0.0
 30
0.0
  9
$PUCSORGFRONT
 10
0.0
 20
0.0
 30
0.0
  9
$PUCSORGBACK
 10
0.0
 20
0.0
 30
0.0
  9
$USERI1
 70
     0
  9
$USERI2
 70
     0
  9
$USERI3
 70
     0
  9
$USERI4
 70
     0
  9
$USERI5
 70
     0
  9
$USERR1
 40
0.0
  9
$USERR2
 40
0.0
  9
$USERR3
 40
0.0
  9
$USERR4
 40
0.0
  9
$USERR5
 40
0.0
  9
$WORLDVIEW
 70
     1
  9
$SHADEDGE
 70
     3
  9
$SHADEDIF
 70
    70
  9
$TILEMODE
 70
     1
  9
$MAXACTVP
 70
    48
  9
$PINSBASE
 10
0.0
 20
0.0
 30
0.0
  9
$PLIMCHECK
 70
     0
  9
$PEXTMIN
 10
1.000000000000000E+20
 20
1.000000000000000E+20
 30
1.000000000000000E+20
  9
$PEXTMAX
 10
-1.000000000000000E+20
 20
-1.000000000000000E+20
 30
-1.000000000000000E+20
  9
$PLIMMIN
 10
0.0
 20
0.0
  9
$PLIMMAX
 10
420.0
 20
297.0
  9
$UNITMODE
 70
     0
  9
$VISRETAIN
 70
     1
  9
$PLINEGEN
 70
     0
  9
$PSLTSCALE
 70
     1
  9
$TREEDEPTH
 70
  3020
  9
$CMLSTYLE
  2
Standard
  9
$CMLJUST
 70
     0
  9
$CMLSCALE
 40
20.0
  9
$PROXYGRAPHICS
 70
     1
  9
$MEASUREMENT
 70
     1
  9
$CELWEIGHT
370
    -1
  9
$ENDCAPS
280
     0
  9
$JOINSTYLE
280
     0
  9
$LWDISPLAY
290
     0
  9
$INSUNITS
 70
     4
  9
$HYPERLINKBASE
  1

  9
$STYLESHEET
  1
sei_cad.ctb
  9
$XEDIT
290
     1
  9
$CEPSNTYPE
380
     0
  9
$PSTYLEMODE
290
     1
  9
$FINGERPRINTGUID
  2
{C77AB3BE-9CA2-11D3-BAF3-006094EB760E}
  9
$VERSIONGUID
  2
{EB4EE73A-0BC9-4860-A46D-87E12FFF930A}
  9
$EXTNAMES
290
     1
  9
$PSVPSCALE
 40
0.0
  9
$OLESTARTUP
290
     0
  0
ENDSEC
  0
SECTION
  2
CLASSES
  0
CLASS
  1
ACDBDICTIONARYWDFLT
  2
AcDbDictionaryWithDefault
  3
ObjectDBX Classes
 90
        0
280
     0
281
     0
  0
CLASS
  1
ACDBPLACEHOLDER
  2
AcDbPlaceHolder
  3
ObjectDBX Classes
 90
        0
280
     0
281
     0
  0
CLASS
  1
LAYOUT
  2
AcDbLayout
  3
ObjectDBX Classes
 90
        0
280
     0
281
     0
  0
CLASS
  1
ACME_DOCUMENT
  2
AcMeDbDoc
  3
AcMeServices
 90
        0
280
     1
281
     0
  0
CLASS
  1
ACMESCOPE
  2
AcMeScope
  3
AcMeServices
 90
        0
280
     1
281
     0
  0
CLASS
  1
ACMECOMMANDHISTORY
  2
AcMeCommandHistory
  3
AcMeServices
 90
        0
280
     1
281
     0
  0
CLASS
  1
DICTIONARYVAR
  2
AcDbDictionaryVar
  3
ObjectDBX Classes
 90
        0
280
     0
281
     0
  0
CLASS
  1
ACIMSYSVARMAN
  2
AcImSysVarManager
  3
AcMeServices
 90
        0
280
     1
281
     0
  0
CLASS
  1
ACIMREALSYSVAR
  2
AcImRealSysVar
  3
AcMeServices
 90
        0
280
     1
281
     0
  0
CLASS
  1
ACIMINTSYSVAR
  2
AcImIntSysVar
  3
AcMeServices
 90
        0
280
     1
281
     0
  0
CLASS
  1
ACMEDRAWINGMAN
  2
AcMeDrawingMan
  3
AcMeServices
 90
        0
280
     1
281
     0
  0
CLASS
  1
ACMEVIEW
  2
AcMeView
  3
AcMeServices
 90
        0
280
     1
281
     0
  0
CLASS
  1
ACDBENTITYCACHE
  2
AcMeEntityCache
  3
AcMeServices
 90
        0
280
     1
281
     0
  0
CLASS
  1
GSMANAGER
  2
AcMeGSManager
  3
AcMeServices
 90
        0
280
     1
281
     0
  0
CLASS
  1
AMDTINTERNALREACTOR
  2
AmdtInternalReactor
  3
AcMeServices
 90
        0
280
     1
281
     0
  0
CLASS
  1
ACMESTATEMGR
  2
AcMeStateMgr
  3
AcMeServices
 90
        0
280
     1
281
     0
  0
CLASS
  1
ACME_DATABASE
  2
AcMeDbDatabase
  3
AcMeServices
 90
        0
280
     1
281
     0
  0
CLASS
  1
ACRFINSADJUSTERMGR
  2
AcRfInsAdjusterMgr
  3
AcMeServices
 90
        0
280
     1
281
     0
  0
CLASS
  1
AMGSETTINGSOBJ
  2
AmgSettingsObj
  3
"AcadM|Product Description: AutoCAD Mechanical 2000|Company: Autodesk"
 90
        0
280
     1
281
     0
  0
CLASS
  1
AMGOBJPROPCFG
  2
AmgObjPropCfg
  3
"AmgLay|Product Description: AutoCAD Mechanical 2000|Company: Autodesk"
 90
        1
280
     1
281
     0
  0
CLASS
  1
ACMDATADICTIONARY
  2
AcmDataDictionary
  3
"AcmSymBB|Product Description: AutoCAD Mechanical 2004 DX|Company: Autodesk"
 90
        0
280
     1
281
     0
  0
CLASS
  1
ACMDATAENTRYBLOCK
  2
AcmDataEntryBlock
  3
"AcmSymBB|Product Description: AutoCAD Mechanical 2004 DX|Company: Autodesk"
 90
        0
280
     1
281
     0
  0
CLASS
  1
ACIMSTRSYSVAR
  2
AcImStrSysVar
  3
AcMeServices
 90
        0
280
     1
281
     0
  0
CLASS
  1
ACAMGFILTERDAT
  2
AcAmgFilterDat
  3
"AcadM|Product Description: AutoCAD Mechanical 2000|Company: Autodesk"
 90
        0
280
     1
281
     0
  0
CLASS
  1
LAYER_INDEX
  2
AcDbLayerIndex
  3
ObjectDBX Classes
 90
        0
280
     0
281
     0
  0
CLASS
  1
IDBUFFER
  2
AcDbIdBuffer
  3
ObjectDBX Classes
 90
        0
280
     0
281
     0
  0
CLASS
  1
ACMSTANDARDJIS
  2
AcmStandardJIS
  3
"Amdt_StdImp|Product Description: AutoCAD Mechanical 2004 DX|Company: Autodesk"
 90
        0
280
     1
281
     0
  0
CLASS
  1
ACMSURFSTANDARDJIS
  2
AcmSurfTextStdJIS
  3
"Amdt_StdImp|Product Description: AutoCAD Mechanical 2004 DX|Company: Autodesk"
 90
        0
280
     1
281
     0
  0
CLASS
  1
ACMFCFSTANDARDJIS
  2
AcmFCFStdJIS
  3
"Amdt_StdImp|Product Description: AutoCAD Mechanical 2004 DX|Company: Autodesk"
 90
        0
280
     1
281
     0
  0
CLASS
  1
ACMWELDSTANDARDJIS
  2
AcmWeldingStdJIS
  3
"Amdt_StdImp|Product Description: AutoCAD Mechanical 2004 DX|Company: Autodesk"
 90
        0
280
     1
281
     0
  0
CLASS
  1
ACMIDSTANDARDJIS
  2
AcmIdStdJIS
  3
"Amdt_StdImp|Product Description: AutoCAD Mechanical 2004 DX|Company: Autodesk"
 90
        0
280
     1
281
     0
  0
CLASS
  1
ACMDATUMSTANDARDJIS
  2
AcmDatumStdJIS
  3
"Amdt_StdImp|Product Description: AutoCAD Mechanical 2004 DX|Company: Autodesk"
 90
        0
280
     1
281
     0
  0
CLASS
  1
ACMBOMSTANDARDJIS
  2
AcmBOMStdJIS
  3
"Amdt_StdImp|Product Description: AutoCAD Mechanical 2004 DX|Company: Autodesk"
 90
        0
280
     1
281
     0
  0
CLASS
  1
AMDTNOTE
  2
AmdtNote
  3
"AcmSymBB|Product Description: AutoCAD Mechanical 2004 DX|Company: Autodesk"
 90
     1023
280
     1
281
     1
  0
CLASS
  1
ACGREFMASTER
  2
AcGrefMaster
  3
AcAttribServices
 90
        0
280
     1
281
     0
  0
CLASS
  1
ACGREFACADMASTER
  2
AcGrefacadMaster
  3
AcGrefServices
 90
        0
280
     1
281
     0
  0
CLASS
  1
AMIMASTER
  2
AmiMaster
  3
AmiServices
 90
        0
280
     1
281
     0
  0
CLASS
  1
ACAMGTITLESTD
  2
AcAmgTitleStd
  3
"TITLEAPP"
 90
        0
280
     1
281
     0
  0
CLASS
  1
ACMDETAILSTANDARDJIS
  2
AmdtDetailSymStdJIS
  3
"Amdt_StdImp|Product Description: AutoCAD Mechanical 2004 DX|Company: Autodesk"
 90
        0
280
     1
281
     0
  0
CLASS
  1
ACMSECTIONSTANDARDJIS
  2
AmdtSectionSymStdJIS
  3
"Amdt_StdImp|Product Description: AutoCAD Mechanical 2004 DX|Company: Autodesk"
 90
        0
280
     1
281
     0
  0
CLASS
  1
ACMCENTERLINESTANDARDJIS
  2
AmdtCenterLineStdJIS
  3
"Amdt_StdImp|Product Description: AutoCAD Mechanical 2004 DX|Company: Autodesk"
 90
        0
280
     1
281
     0
  0
CLASS
  1
ACMNOTESTANDARDJIS
  2
AmdtNoteStdJIS
  3
"Amdt_StdImp|Product Description: AutoCAD Mechanical 2004 DX|Company: Autodesk"
 90
        0
280
     1
281
     0
  0
CLASS
  1
ACAMGLAYSTD
  2
AcAmgLayStd
  3
"AcAmgLayStd|Product Description: AutoCAD Mechanical 2000|Company: Autodesk"
 90
        0
280
     1
281
     0
  0
CLASS
  1
ACAMGDIMSTD
  2
AcAmgDimStd
  3
"AcAmgDimStd|Product Description: AutoCAD Mechanical 2000|Company: Autodesk"
 90
        0
280
     1
281
     0
  0
CLASS
  1
ACDBLINERES
  2
AcDbLineRes
  3
AcGrefServices
 90
        0
280
     1
281
     0
  0
CLASS
  1
AMDTFORMULAUPDATEDISPATCHER
  2
AmdtFormulaUpdateDispatcher
  3
AcMeServices
 90
        0
280
     1
281
     0
  0
CLASS
  1
ACDBELLIPSERES
  2
AcDbEllipseRes
  3
AcGrefServices
 90
        0
280
     1
281
     0
  0
CLASS
  1
DUMMY
  2
AcDbLongTransaction
  3
DUMMY
 90
        0
280
     0
281
     0
  0
CLASS
  1
LWPOLYLINE
  2
AcDbPolyline
  3
AutoCAD 2000
 90
        0
280
     0
281
     1
  0
CLASS
  1
HATCH
  2
AcDbHatch
  3
AutoCAD 2000
 90
        0
280
     0
281
     1
  0
CLASS
  1
XRECORD
  2
AcDbXrecord
  3
AutoCAD 2000
 90
        0
280
     0
281
     0
  0
CLASS
  1
DUMMY
  2
AcDbLongTransaction
  3
DUMMY
 90
        0
280
     0
281
     0
  0
CLASS
  1
LWPOLYLINE
  2
AcDbPolyline
  3
AutoCAD 2000
 90
        0
280
     0
281
     1
  0
CLASS
  1
HATCH
  2
AcDbHatch
  3
AutoCAD 2000
 90
        0
280
     0
281
     1
  0
CLASS
  1
XRECORD
  2
AcDbXrecord
  3
AutoCAD 2000
 90
        0
280
     0
281
     0
  0
CLASS
  1
TABLESTYLE
  2
AcDbTableStyle
  3
ObjectDBX Classes
 90
     2047
280
     0
281
     0
  0
CLASS
  1
AM_DRAWING_MGR
  2
AcDmDwgMgr
  3
AcMechDwgViewMgmt
 90
        0
280
     1
281
     0
  0
CLASS
  1
AM_DWG_DOCUMENT
  2
AcDmDwgDocument
  3
AcMechDwgViewMgmt
 90
        0
280
     1
281
     0
  0
CLASS
  1
AM_DWG_SHEET
  2
AcDmSheet
  3
AcMechDwgViewMgmt
 90
        0
280
     1
281
     0
  0
CLASS
  1
AM_VIEWDIMPARMAP
  2
AcDmViewDimParMap
  3
AcMechDwgViewMgmt
 90
        0
280
     1
281
     0
  0
CLASS
  1
AM_DWGMGR_NAME
  2
AcDmDwgMgrName
  3
AcMechDwgViewMgmt
 90
        0
280
     1
281
     0
  0
CLASS
  1
AMDTMENUSTATEMGR
  2
AmdtMenuStateMgr
  3
McadcomServices
 90
        0
280
     1
281
     0
  0
CLASS
  1
AMDTMCOMMENUSTATE
  2
AmdtMcomMenuState
  3
McadcomServices
 90
        0
280
     1
281
     0
  0
CLASS
  1
MAPIAMMOUDLE
  2
MApiAmModule
  3
MApiAmServices
 90
        0
280
     1
281
     0
  0
CLASS
  1
AMDTADMENUSTATE
  2
AmdtAdMenuState
  3
DesignerServices
 90
        0
280
     1
281
     0
  0
CLASS
  1
ADAPPL
  2
AcAdAppl
  3
DesignerServices
 90
        0
280
     1
281
     0
  0
CLASS
  1
DEPMGR
  2
AcAdDepMgr
  3
DesignerServices
 90
        0
280
     1
281
     0
  0
CLASS
  1
PARAMMGR
  2
AcAdParamMgr
  3
DesignerServices
 90
        0
280
     1
281
     0
  0
CLASS
  1
PARAMSCOPE
  2
AcAdParamScope
  3
DesignerServices
 90
        0
280
     1
281
     0
  0
CLASS
  1
NAMEDAPPL
  2
AcAdNamedAppl
  3
DesignerServices
 90
        0
280
     1
281
     0
  0
CLASS
  1
AMDTDMMENUSTATE
  2
AmdtDmMenuState
  3
AcMechDwgViewMgmt
 90
        0
280
     1
281
     0
  0
CLASS
  1
AMDTAMMENUSTATE
  2
AmdtAmMenuState
  3
DesignerAssemblies
 90
        0
280
     1
281
     0
  0
CLASS
  1
ACAMPROJECT
  2
AcAmProject
  3
DesignerAssemblies
 90
        0
280
     1
281
     0
  0
CLASS
  1
ACAMGRCOMPDEF
  2
AcAmGrCompDef
  3
DesignerAssemblies
 90
        0
280
     1
281
     0
  0
CLASS
  1
ACCMCONTEXT
  2
AcCmContext
  3
DesignerAssemblies
 90
        0
280
     1
281
     0
  0
CLASS
  1
ACAMCOMPDEF
  2
AcAmCompDef
  3
DesignerAssemblies
 90
        0
280
     1
281
     0
  0
CLASS
  1
ACAMCOMPDEFMGR
  2
AcAmCompDefMgr
  3
DesignerAssemblies
 90
        0
280
     1
281
     0
  0
CLASS
  1
AMCONTEXTMGR
  2
AcAmContextMgr
  3
DesignerAssemblies
 90
        0
280
     1
281
     0
  0
CLASS
  1
ACAMCONTEXTMODELER
  2
AcAmContextModeler
  3
DesignerAssemblies
 90
        0
280
     1
281
     0
  0
CLASS
  1
ACMTHREADLINESTANDARDJIS
  2
AmdtThreadLineStdJIS
  3
"Amdt_StdImp|Product Description: AutoCAD Mechanical 2004 DX|Company: Autodesk"
 90
        0
280
     1
281
     0
  0
CLASS
  1
AMDTNOTETEMPLATEDB
  2
AmdtNoteTemplateDB
  3
AMDT_STDIMP_MODULE_NAME
 90
        0
280
     1
281
     0
  0
CLASS
  1
ACAMGHOLECHARTSTDJIS
  2
AcAmgHoleChartStdJIS
  3
ACMSYMBB_MODULE_NAME
 90
        0
280
     1
281
     0
  0
CLASS
  1
CATALOGSTATE
  2
AcAmCatalogState
  3
DesignerAssemblies
 90
        0
280
     1
281
     0
  0
CLASS
  1
ACAMGRCOMPDEFSET
  2
AcAmGrCompDefSet
  3
DesignerAssemblies
 90
        0
280
     1
281
     0
  0
CLASS
  1
AMDTBROWSERDBTAB
  2
AmdtBrowserDbTab
  3
McadcomServices
 90
        0
280
     1
281
     0
  0
CLASS
  1
CBROWSERAPPOBJECT
  2
CBrowserAppObject
  3
McadcomServices
 90
        0
280
     1
281
     0
  0
CLASS
  1
DM_PLACEHOLDER
  2
AcDmSelsetPlaceholder
  3
AcMechDwgViewMgmt
 90
        0
280
     1
281
     0
  0
CLASS
  1
SORTENTSTABLE
  2
AcDbSortentsTable
  3
ObjectDBX Classes
 90
        0
280
     0
281
     0
  0
ENDSEC
  0
SECTION
  2
TABLES
  0
TABLE
  2
VPORT
  5
8
330
0
100
AcDbSymbolTable
 70
     4
  0
VPORT
  5
1F414
330
8
100
AcDbSymbolTableRecord
100
AcDbViewportTableRecord
  2
*Active
 70
     0
 10
0.0
 20
0.0
 11
1.0
 21
1.0
 12
14.5998969155259
 22
-25.772689330709
 13
0.0
 23
0.0
 14
2.5
 24
2.5
 15
10.0
 25
10.0
 16
0.0
 26
0.0
 36
1.0
 17
0.0
 27
0.0
 37
0.0
 40
133.9938623546447
 41
1.372924648786718
 42
50.0
 43
0.0
 44
0.0
 50
0.0
 51
0.0
 71
    16
 72
  2000
 73
     1
 74
     3
 75
     0
 76
     0
 77
     0
 78
     0
281
     0
 65
     1
110
0.0
120
0.0
130
0.0
111
1.0
121
0.0
131
0.0
112
0.0
122
1.0
132
0.0
 79
     0
146
0.0
  0
ENDTAB
  0
TABLE
  2
LTYPE
  5
5
330
0
100
AcDbSymbolTable
 70
    13
  0
LTYPE
  5
14
330
5
100
AcDbSymbolTableRecord
100
AcDbLinetypeTableRecord
  2
ByBlock
 70
     0
  3

 72
    65
 73
     0
 40
0.0
  0
LTYPE
  5
15
330
5
100
AcDbSymbolTableRecord
100
AcDbLinetypeTableRecord
  2
ByLayer
 70
     0
  3

 72
    65
 73
     0
 40
0.0
  0
LTYPE
  5
16
330
5
100
AcDbSymbolTableRecord
100
AcDbLinetypeTableRecord
  2
Continuous
 70
     0
  3
Solid line
 72
    65
 73
     0
 40
0.0
  0
LTYPE
  5
43
330
5
100
AcDbSymbolTableRecord
100
AcDbLinetypeTableRecord
  2
AM_ISO02W050
 70
     0
  3
__ __ __ __ __ __ __ __ __ __ __ __ __ __ __
 72
    65
 73
     2
 40
7.5
 49
6.0
 74
     0
 49
-1.5
 74
     0
  0
LTYPE
  5
44
330
5
100
AcDbSymbolTableRecord
100
AcDbLinetypeTableRecord
  2
AM_ISO08W050
 70
     0
  3
____ . ____ . ____ . ____ . ____ . ____ . ____
 72
    65
 73
     4
 40
18.0
 49
12.0
 74
     0
 49
-1.5
 74
     0
 49
3.0
 74
     0
 49
-1.5
 74
     0
  0
LTYPE
  5
45
330
5
100
AcDbSymbolTableRecord
100
AcDbLinetypeTableRecord
  2
AM_ISO09W050
 70
     0
  3
_____ . . _____ . . _____ . . ____ .. ____
 72
    65
 73
     6
 40
22.5
 49
12.0
 74
     0
 49
-1.5
 74
     0
 49
3.0
 74
     0
 49
-1.5
 74
     0
 49
3.0
 74
     0
 49
-1.5
 74
     0
  0
LTYPE
  5
46
330
5
100
AcDbSymbolTableRecord
100
AcDbLinetypeTableRecord
  2
Amconstr
 70
     0
  3
_______________________
 72
    65
 73
     2
 40
9999.0
 49
9999.0
 74
     0
 49
0.0
 74
     0
  0
LTYPE
  5
47
330
5
100
AcDbSymbolTableRecord
100
AcDbLinetypeTableRecord
  2
AM_ISO02W050x2
 70
     0
  3
 _ _ _ _ _ _ _ _ _ _ _ _
 72
    65
 73
     2
 40
3.75
 49
3.0
 74
     0
 49
-0.75
 74
     0
  0
LTYPE
  5
48
330
5
100
AcDbSymbolTableRecord
100
AcDbLinetypeTableRecord
  2
AM_ISO08W050x2
 70
     0
  3
__ . __ . __ . __ . __ . __
 72
    65
 73
     4
 40
9.0
 49
6.0
 74
     0
 49
-0.75
 74
     0
 49
1.5
 74
     0
 49
-0.75
 74
     0
  0
LTYPE
  5
4B
330
5
100
AcDbSymbolTableRecord
100
AcDbLinetypeTableRecord
  2
Amzigzag
 70
     0
  3
/\/-/\/-/\/-/\/-/\/-/\/
 72
    65
 73
     2
 40
11.0001
 49
0.0001
 74
     4
 75
   135
340
4A
 46
0.04
 50
0.0
 44
0.0
 45
0.0
 49
-11.0
 74
     0
  0
LTYPE
  5
188
330
5
100
AcDbSymbolTableRecord
100
AcDbLinetypeTableRecord
  2
ACJISTGB
 70
     0
  3
__ . . __ . .
 72
    65
 73
     6
 40
9.0
 49
4.0
 74
     0
 49
-1.0
 74
     0
 49
1.0
 74
     0
 49
-1.0
 74
     0
 49
1.0
 74
     0
 49
-1.0
 74
     0
  0
LTYPE
  5
189
330
5
100
AcDbSymbolTableRecord
100
AcDbLinetypeTableRecord
  2
ACJISTGL
 70
     0
  3
_ _ _ _ _
 72
    65
 73
     2
 40
3.0
 49
2.0
 74
     0
 49
-1.0
 74
     0
  0
LTYPE
  5
652
330
5
100
AcDbSymbolTableRecord
100
AcDbLinetypeTableRecord
  2
CENTER
 70
     0
  3
____ _ ____ _ ____ _ ____ _ ____ _ ____ _ ____
 72
    65
 73
     4
 40
17.5
 49
13.0
 74
     0
 49
-1.5
 74
     0
 49
1.5
 74
     0
 49
-1.5
 74
     0
  0
LTYPE
  5
12AB
330
5
100
AcDbSymbolTableRecord
100
AcDbLinetypeTableRecord
  2
HIDDEN
 70
     0
  3
Hidden __ __ __ __ __ __ __ __ __ __ __ __ __ _
 72
    65
 73
     2
 40
0.375
 49
0.25
 74
     0
 49
-0.125
 74
     0
  0
LTYPE
  5
12AC
330
5
100
AcDbSymbolTableRecord
100
AcDbLinetypeTableRecord
  2
PHANTOM2
 70
     0
  3
Phantom (.5x) ___ _ _ ___ _ _ ___ _ _ ___ _ _
 72
    65
 73
     6
 40
1.25
 49
0.625
 74
     0
 49
-0.125
 74
     0
 49
0.125
 74
     0
 49
-0.125
 74
     0
 49
0.125
 74
     0
 49
-0.125
 74
     0
  0
ENDTAB
  0
TABLE
  2
LAYER
  5
2
330
0
100
AcDbSymbolTable
 70
     6
  0
LAYER
  5
10
330
2
100
AcDbSymbolTableRecord
100
AcDbLayerTableRecord
  2
0
 70
     0
 62
     7
  6
Continuous
370
    -3
390
F
  0
LAYER
  5
7D
330
2
100
AcDbSymbolTableRecord
100
AcDbLayerTableRecord
  2
AM_5
 70
     0
 62
     3
  6
Continuous
370
    13
390
F
  0
LAYER
  5
7F
330
2
100
AcDbSymbolTableRecord
100
AcDbLayerTableRecord
  2
Defpoints
 70
     0
 62
     7
  6
Continuous
290
     0
370
    -3
390
F
  0
LAYER
  5
12B1
330
2
100
AcDbSymbolTableRecord
100
AcDbLayerTableRecord
  2
AM_0
 70
     0
 62
     7
  6
Continuous
370
    30
390
F
  0
LAYER
  5
1AFF
330
2
100
AcDbSymbolTableRecord
100
AcDbLayerTableRecord
  2
AM_7
 70
     0
 62
     4
  6
AM_ISO08W050
370
    13
390
F
  0
LAYER
  5
361D
330
2
100
AcDbSymbolTableRecord
100
AcDbLayerTableRecord
  2
AM_11
 70
     0
 62
     3
  6
AM_ISO09W050
370
    13
390
F
  0
ENDTAB
  0
TABLE
  2
STYLE
  5
3
330
0
100
AcDbSymbolTable
 70
     4
  0
STYLE
  5
11
330
3
100
AcDbSymbolTableRecord
100
AcDbTextStyleTableRecord
  2
STANDARD
 70
     0
 40
0.0
 41
1.0
 50
0.0
 71
     0
 42
3.48
  3
ISOCP.SHX
  4
EXTFONT.SHX
  0
STYLE
  5
4A
330
3
100
AcDbSymbolTableRecord
100
AcDbTextStyleTableRecord
  2

 70
     1
 40
0.0
 41
1.0
 50
0.0
 71
     0
 42
2.5
  3
ltypeshp.shx
  4

  0
STYLE
  5
180
330
3
100
AcDbSymbolTableRecord
100
AcDbTextStyleTableRecord
  2
ACJISTS
 70
     0
 40
1.0
 41
1.0
 50
0.0
 71
     0
 42
2.5
  3
isocp.shx
  4
bigfont.shx
  0
STYLE
  5
187
330
3
100
AcDbSymbolTableRecord
100
AcDbTextStyleTableRecord
  2
ACJISGDT
 70
     0
 40
0.0
 41
1.0
 50
0.0
 71
     0
 42
2.5
  3
amgdt.shx
  4

  0
ENDTAB
  0
TABLE
  2
VIEW
  5
6
330
0
100
AcDbSymbolTable
 70
     6
  0
VIEW
  5
A30
330
6
100
AcDbSymbolTableRecord
100
AcDbViewTableRecord
  2
AM_VIEW1
 70
     0
 40
148.5
 10
108.6929657794677
 20
222.75
 41
217.3859315589354
 11
0.0
 21
0.0
 31
1.0
 12
0.0
 22
0.0
 32
0.0
 42
50.0
 43
0.0
 44
0.0
 50
0.0
 71
    16
281
     0
 72
     0
  0
VIEW
  5
A31
330
6
100
AcDbSymbolTableRecord
100
AcDbViewTableRecord
  2
AM_VIEW2
 70
     0
 40
148.5
 10
311.3070342205323
 20
222.75
 41
217.3859315589354
 11
0.0
 21
0.0
 31
1.0
 12
0.0
 22
0.0
 32
0.0
 42
50.0
 43
0.0
 44
0.0
 50
0.0
 71
    16
281
     0
 72
     0
  0
VIEW
  5
A32
330
6
100
AcDbSymbolTableRecord
100
AcDbViewTableRecord
  2
AM_VIEW3
 70
     0
 40
148.5
 10
108.6929657794677
 20
74.25
 41
217.3859315589354
 11
0.0
 21
0.0
 31
1.0
 12
0.0
 22
0.0
 32
0.0
 42
50.0
 43
0.0
 44
0.0
 50
0.0
 71
    16
281
     0
 72
     0
  0
VIEW
  5
A33
330
6
100
AcDbSymbolTableRecord
100
AcDbViewTableRecord
  2
AM_VIEW4
 70
     0
 40
148.5
 10
311.3070342205323
 20
74.25
 41
217.3859315589354
 11
0.0
 21
0.0
 31
1.0
 12
0.0
 22
0.0
 32
0.0
 42
50.0
 43
0.0
 44
0.0
 50
0.0
 71
    16
281
     0
 72
     0
  0
VIEW
  5
A34
330
6
100
AcDbSymbolTableRecord
100
AcDbViewTableRecord
  2
AM_VIEW5
 70
     0
 40
148.5
 10
210.0
 20
148.5
 41
217.3859315589353
 11
0.0
 21
0.0
 31
1.0
 12
0.0
 22
0.0
 32
0.0
 42
50.0
 43
0.0
 44
0.0
 50
0.0
 71
    16
281
     0
 72
     0
  0
VIEW
  5
A35
330
6
100
AcDbSymbolTableRecord
100
AcDbViewTableRecord
  2
AM_VIEW6
 70
     0
 40
296.99703
 10
210.0
 20
148.5
 41
434.7675153992395
 11
0.0
 21
0.0
 31
1.0
 12
0.0
 22
0.0
 32
0.0
 42
50.0
 43
0.0
 44
0.0
 50
0.0
 71
    16
281
     0
 72
     0
  0
ENDTAB
  0
TABLE
  2
UCS
  5
7
330
0
100
AcDbSymbolTable
 70
     0
  0
ENDTAB
  0
TABLE
  2
APPID
  5
9
330
0
100
AcDbSymbolTable
 70
    46
  0
APPID
  5
12
330
9
100
AcDbSymbolTableRecord
100
AcDbRegAppTableRecord
  2
ACAD
 70
     0
  0
APPID
  5
2C
330
9
100
AcDbSymbolTableRecord
100
AcDbRegAppTableRecord
  2
MCAD_NO_VIS
 70
     0
  0
APPID
  5
2D
330
9
100
AcDbSymbolTableRecord
100
AcDbRegAppTableRecord
  2
ACAD_TEMP_GRAPHIC
 70
     0
  0
APPID
  5
B9
330
9
100
AcDbSymbolTableRecord
100
AcDbRegAppTableRecord
  2
GENIUS_GENDTOL_13
 70
     0
  0
APPID
  5
359
330
9
100
AcDbSymbolTableRecord
100
AcDbRegAppTableRecord
  2
GENIUS_GENREC_14
 70
     0
  0
APPID
  5
35A
330
9
100
AcDbSymbolTableRecord
100
AcDbRegAppTableRecord
  2
GENIUS_GENODEF_13
 70
     0
  0
APPID
  5
35B
330
9
100
AcDbSymbolTableRecord
100
AcDbRegAppTableRecord
  2
GENIUS_GENOBJ-N-REC_13
 70
     0
  0
APPID
  5
667
330
9
100
AcDbSymbolTableRecord
100
AcDbRegAppTableRecord
  2
GENIUS_GENCFG_13
 70
     0
1001
GENIUS_GENCFG0_13
1000
GEN
  0
APPID
  5
668
330
9
100
AcDbSymbolTableRecord
100
AcDbRegAppTableRecord
  2
GENIUS_GENCFG0_13
 70
     0
1001
GENIUS_GENCFG_13
1071
1079340659
1000
668
1000
GEN
1070
     0
  0
APPID
  5
669
330
9
100
AcDbSymbolTableRecord
100
AcDbRegAppTableRecord
  2
GENIUS_GENCFG1_13
 70
     0
  0
APPID
  5
66A
330
9
100
AcDbSymbolTableRecord
100
AcDbRegAppTableRecord
  2
GENIUS_GENCFG2_13
 70
     0
  0
APPID
  5
66B
330
9
100
AcDbSymbolTableRecord
100
AcDbRegAppTableRecord
  2
GENIUS_GENCFG3_13
 70
     0
  0
APPID
  5
66C
330
9
100
AcDbSymbolTableRecord
100
AcDbRegAppTableRecord
  2
GENIUS_GENCFG4_13
 70
     0
  0
APPID
  5
A76
330
9
100
AcDbSymbolTableRecord
100
AcDbRegAppTableRecord
  2
GENIUS_GENBLLY_14
 70
     0
  0
APPID
  5
A77
330
9
100
AcDbSymbolTableRecord
100
AcDbRegAppTableRecord
  2
GENIUS_GENOBJ-N-CEN_13
 70
     0
  0
APPID
  5
A83
330
9
100
AcDbSymbolTableRecord
100
AcDbRegAppTableRecord
  2
GENIUS_GENTRA_14
 70
     0
  0
APPID
  5
A8D
330
9
100
AcDbSymbolTableRecord
100
AcDbRegAppTableRecord
  2
GENIUS_GENOBJ-N-TIT_13
 70
     0
  0
APPID
  5
A8E
330
9
100
AcDbSymbolTableRecord
100
AcDbRegAppTableRecord
  2
GENIUS_GENTITLE_13
 70
     0
  0
APPID
  5
A8F
330
9
100
AcDbSymbolTableRecord
100
AcDbRegAppTableRecord
  2
GENIUS_GENOENT_13
 70
     0
  0
APPID
  5
A90
330
9
100
AcDbSymbolTableRecord
100
AcDbRegAppTableRecord
  2
GENIUS_GENOREF_13
 70
     0
  0
APPID
  5
A91
330
9
100
AcDbSymbolTableRecord
100
AcDbRegAppTableRecord
  2
GENIUS_GENOLIS_13
 70
     0
  0
APPID
  5
A92
330
9
100
AcDbSymbolTableRecord
100
AcDbRegAppTableRecord
  2
GENIUS_GENZVEED_13
 70
     0
  0
APPID
  5
A93
330
9
100
AcDbSymbolTableRecord
100
AcDbRegAppTableRecord
  2
GENIUS_GENSCREG_15
 70
     0
  0
APPID
  5
A94
330
9
100
AcDbSymbolTableRecord
100
AcDbRegAppTableRecord
  2
GENIUS_GENOBJ-N-SDF_13
 70
     0
  0
APPID
  5
12B5
330
9
100
AcDbSymbolTableRecord
100
AcDbRegAppTableRecord
  2
GENIUS_GENOBJ-N-RSBK_13
 70
     0
  0
APPID
  5
12B6
330
9
100
AcDbSymbolTableRecord
100
AcDbRegAppTableRecord
  2
GENIUS_GENOBJ-N-LIB_13
 70
     0
  0
APPID
  5
12B7
330
9
100
AcDbSymbolTableRecord
100
AcDbRegAppTableRecord
  2
GENIUS_GENSCALE_13
 70
     0
  0
APPID
  5
12B8
330
9
100
AcDbSymbolTableRecord
100
AcDbRegAppTableRecord
  2
GENIUS_GENOBJ-N-HTC_13
 70
     0
  0
APPID
  5
12B9
330
9
100
AcDbSymbolTableRecord
100
AcDbRegAppTableRecord
  2
GENIUS_GENHATCH_13
 70
     0
  0
APPID
  5
1687
330
9
100
AcDbSymbolTableRecord
100
AcDbRegAppTableRecord
  2
BASE_TYPE
 70
     0
  0
APPID
  5
1ABF
330
9
100
AcDbSymbolTableRecord
100
AcDbRegAppTableRecord
  2
GENIUS_GENFIL_13
 70
     0
  0
APPID
  5
1AC0
330
9
100
AcDbSymbolTableRecord
100
AcDbRegAppTableRecord
  2
GENIUS_GENOBJ-N-CHA_13
 70
     0
  0
APPID
  5
1AE7
330
9
100
AcDbSymbolTableRecord
100
AcDbRegAppTableRecord
  2
GENIUS_GENOBJ-N-FIL_13
 70
     0
  0
APPID
  5
20E9
330
9
100
AcDbSymbolTableRecord
100
AcDbRegAppTableRecord
  2
GENIUS_GENDIMSH_14
 70
     0
  0
APPID
  5
17543
330
9
100
AcDbSymbolTableRecord
100
AcDbRegAppTableRecord
  2
ACATTRIBSERVICES
 70
     0
  0
APPID
  5
1A2EB
330
9
100
AcDbSymbolTableRecord
100
AcDbRegAppTableRecord
  2
GENIUS_GENOBJ-N-CRS_13
 70
     0
  0
APPID
  5
1BC7E
330
9
100
AcDbSymbolTableRecord
100
AcDbRegAppTableRecord
  2
GENIUS_GENSCREG_13
 70
     0
  0
APPID
  5
1BD19
330
9
100
AcDbSymbolTableRecord
100
AcDbRegAppTableRecord
  2
CONTENTBLOCKICON
 70
     0
  0
APPID
  5
1BE2A
330
9
100
AcDbSymbolTableRecord
100
AcDbRegAppTableRecord
  2
GENIUS_GENOBJ-N-DIM_13
 70
     0
  0
APPID
  5
1BE2B
330
9
100
AcDbSymbolTableRecord
100
AcDbRegAppTableRecord
  2
GENIUS_GENDIM_13
 70
     0
  0
APPID
  5
1E9EC
330
9
100
AcDbSymbolTableRecord
100
AcDbRegAppTableRecord
  2
AD_DRAW
 70
     0
  0
APPID
  5
1EA0A
330
9
100
AcDbSymbolTableRecord
100
AcDbRegAppTableRecord
  2
DESIGNERASSEMBLIES
 70
     0
  0
APPID
  5
1EA1D
330
9
100
AcDbSymbolTableRecord
100
AcDbRegAppTableRecord
  2
ACADM_DIM_EDIT
 70
     0
  0
APPID
  5
1EA1E
330
9
100
AcDbSymbolTableRecord
100
AcDbRegAppTableRecord
  2
AMDT_DM_ADJ
 70
     0
  0
APPID
  5
1EBB8
330
9
100
AcDbSymbolTableRecord
100
AcDbRegAppTableRecord
  2
ACAD_DSTYLE_DIMTEXT_FILL
 70
     0
  0
APPID
  5
1EBB9
330
9
100
AcDbSymbolTableRecord
100
AcDbRegAppTableRecord
  2
ACAD_PSEXT
 70
     0
  0
ENDTAB
  0
TABLE
  2
DIMSTYLE
  5
A
330
0
100
AcDbSymbolTable
 70
     5
100
AcDbDimStyleTable
  0
DIMSTYLE
105
58
330
A
100
AcDbSymbolTableRecord
100
AcDbDimStyleTableRecord
  2
AM_JIS
 70
     0
  4
"
 41
2.5
 42
0.0
 43
10.0
 44
1.0
 47
0.1
 48
0.1000000001
 73
     0
 74
     0
 77
     3
 78
     1
 79
     2
140
3.8
141
0.0
143
0.0393701
146
0.71
147
1.5
172
     1
176
   256
177
   256
178
     2
179
     2
271
     3
272
     3
275
     1
283
     0
284
     8
340
11
341
59
342
59
371
    -1
372
    -1
  0
DIMSTYLE
105
5F
102
{ACAD_REACTORS
330
1D052
330
1EFB5
102
}
330
A
100
AcDbSymbolTableRecord
100
AcDbDimStyleTableRecord
  2
AM_JIS$3
 70
     0
  4
"
 41
2.5
 42
0.0
 43
10.0
 44
1.0
 47
0.1
 48
0.1000000001
 73
     0
 77
     3
 78
     1
 79
     2
140
3.8
141
0.0
143
0.0393701
146
0.71
147
1.5
172
     1
176
   256
177
   256
178
     2
179
     2
271
     3
272
     3
275
     1
283
     0
284
     8
288
     1
289
     0
340
11
341
59
342
59
371
    -1
372
    -1
  0
DIMSTYLE
105
65F
330
A
100
AcDbSymbolTableRecord
100
AcDbDimStyleTableRecord
  2
STANDARD
 70
     0
340
11
  0
DIMSTYLE
105
1B97
102
{ACAD_REACTORS
330
1C270
330
1EEC5
330
1EF41
330
1EF6D
102
}
330
A
100
AcDbSymbolTableRecord
100
AcDbDimStyleTableRecord
  2
AM_JIS$0
 70
     0
  4
"
 41
2.5
 42
0.0
 43
10.0
 44
1.0
 47
0.1
 48
0.1000000001
 73
     0
 74
     0
 77
     3
 78
     1
 79
     2
140
3.8
141
0.0
143
0.0393701
146
0.71
147
1.5
172
     1
176
     3
177
     3
178
     2
271
     3
272
     3
275
     1
283
     0
284
     8
289
     0
340
11
341
59
342
59
371
    13
372
    13
  0
DIMSTYLE
105
1B98
102
{ACAD_REACTORS
330
1C26E
330
1F08D
330
1F176
102
}
330
A
100
AcDbSymbolTableRecord
100
AcDbDimStyleTableRecord
  2
AM_JIS$2
 70
     0
  4
"
 41
2.5
 42
0.0
 43
10.0
 44
1.0
 47
0.1
 48
0.1000000001
 73
     0
 74
     0
 77
     3
 78
     1
 79
     2
140
3.8
141
0.0
143
0.0393701
146
0.71
147
1.5
172
     1
176
     3
177
     3
178
     2
271
     3
272
     3
275
     1
283
     0
284
     8
289
     0
340
11
341
59
342
59
371
    13
372
    13
  0
ENDTAB
  0
TABLE
  2
BLOCK_RECORD
  5
1
330
0
100
AcDbSymbolTable
 70
    12
  0
BLOCK_RECORD
  5
1F
102
{ACAD_XDICTIONARY
360
165
102
}
330
1
100
AcDbSymbolTableRecord
100
AcDbBlockTableRecord
  2
*Model_Space
340
22
  0
BLOCK_RECORD
  5
1B
102
{ACAD_XDICTIONARY
360
1BC81
102
}
330
1
100
AcDbSymbolTableRecord
100
AcDbBlockTableRecord
  2
*Paper_Space
340
1E
  0
BLOCK_RECORD
  5
23
102
{ACAD_XDICTIONARY
360
1BC83
102
}
330
1
100
AcDbSymbolTableRecord
100
AcDbBlockTableRecord
  2
*Paper_Space0
340
26
  0
BLOCK_RECORD
  5
59
330
1
100
AcDbSymbolTableRecord
100
AcDbBlockTableRecord
  2
_Open30
340
0
102
{BLKREFS
331
1F3C5
331
1F3C6
331
1F3BA
331
1F3BB
331
1F3CF
331
1F3D0
331
1F3D9
331
1F3DA
331
1F3E2
331
1F3E3
331
1F3ED
331
1F3EE
331
1F3F7
331
1F3F8
331
1F3FF
331
1F400
331
1F40C
331
1F40D
102
}
  0
BLOCK_RECORD
  5
1C281
330
1
100
AcDbSymbolTableRecord
100
AcDbBlockTableRecord
  2
*D2
340
0
  0
BLOCK_RECORD
  5
1C29B
330
1
100
AcDbSymbolTableRecord
100
AcDbBlockTableRecord
  2
*D3
340
0
  0
BLOCK_RECORD
  5
1D053
330
1
100
AcDbSymbolTableRecord
100
AcDbBlockTableRecord
  2
*D4
340
0
  0
BLOCK_RECORD
  5
1EA01
330
1
100
AcDbSymbolTableRecord
100
AcDbBlockTableRecord
  2
*U5
340
0
  0
BLOCK_RECORD
  5
1EEC6
330
1
100
AcDbSymbolTableRecord
100
AcDbBlockTableRecord
  2
*D6
340
0
  0
BLOCK_RECORD
  5
1EF42
330
1
100
AcDbSymbolTableRecord
100
AcDbBlockTableRecord
  2
*D7
340
0
  0
BLOCK_RECORD
  5
1EF6E
330
1
100
AcDbSymbolTableRecord
100
AcDbBlockTableRecord
  2
*D8
340
0
  0
BLOCK_RECORD
  5
1EFB6
330
1
100
AcDbSymbolTableRecord
100
AcDbBlockTableRecord
  2
*D9
340
0
  0
BLOCK_RECORD
  5
1F08E
330
1
100
AcDbSymbolTableRecord
100
AcDbBlockTableRecord
  2
*D10
340
0
  0
BLOCK_RECORD
  5
1F177
330
1
100
AcDbSymbolTableRecord
100
AcDbBlockTableRecord
  2
*D11
340
0
  0
ENDTAB
  0
ENDSEC
  0
SECTION
  2
BLOCKS
  0
BLOCK
  5
20
330
1F
100
AcDbEntity
  8
0
100
AcDbBlockBegin
  2
*Model_Space
 70
     0
 71
     0
 10
0.0
 20
0.0
 30
0.0
  3
*Model_Space
  1

  0
ENDBLK
  5
21
330
1F
100
AcDbEntity
  8
0
100
AcDbBlockEnd
  0
BLOCK
  5
1C
330
1B
100
AcDbEntity
 67
     1
  8
0
100
AcDbBlockBegin
  2
*Paper_Space
 70
     0
 71
     0
 10
0.0
 20
0.0
 30
0.0
  3
*Paper_Space
  1

  0
ENDBLK
  5
1D
330
1B
100
AcDbEntity
 67
     1
  8
0
100
AcDbBlockEnd
  0
BLOCK
  5
24
330
23
100
AcDbEntity
  8
0
100
AcDbBlockBegin
  2
*Paper_Space0
 70
     0
 71
     0
 10
0.0
 20
0.0
 30
0.0
  3
*Paper_Space0
  1

  0
ENDBLK
  5
25
330
23
100
AcDbEntity
  8
0
100
AcDbBlockEnd
  0
BLOCK
  5
1BE65
330
59
100
AcDbEntity
  8
0
100
AcDbBlockBegin
  2
_Open30
 70
     0
 71
     0
 10
0.0
 20
0.0
 30
0.0
  3
_Open30
  1

  0
LINE
  5
1BE62
330
59
100
AcDbEntity
  8
0
 62
     0
370
    -2
100
AcDbLine
 10
-1.0
 20
0.26794919
 30
0.0
 11
0.0
 21
0.0
 31
0.0
  0
LINE
  5
1BE63
330
59
100
AcDbEntity
  8
0
 62
     0
370
    -2
100
AcDbLine
 10
0.0
 20
0.0
 30
0.0
 11
-1.0
 21
-0.26794919
 31
0.0
  0
LINE
  5
1BE64
330
59
100
AcDbEntity
  8
0
 62
     0
370
    -2
100
AcDbLine
 10
0.0
 20
0.0
 30
0.0
 11
-1.0
 21
0.0
 31
0.0
  0
ENDBLK
  5
1BE66
330
59
100
AcDbEntity
  8
0
100
AcDbBlockEnd
  0
BLOCK
  5
1C28B
330
1C281
100
AcDbEntity
  8
0
100
AcDbBlockBegin
  2
*D2
 70
     1
 71
     0
 10
0.0
 20
0.0
 30
0.0
  3
*D2
  1

  0
LINE
  5
1F3C2
330
1C281
100
AcDbEntity
  8
AM_5
 62
     3
370
    13
100
AcDbLine
 10
-0.0000000000000568
 20
-37.32634556910134
 30
0.0
 11
-0.0000000000000582
 21
-58.83009642697019
 31
0.0
  0
LINE
  5
1F3C3
330
1C281
100
AcDbEntity
  8
AM_5
 62
     3
370
    13
100
AcDbLine
 10
12.99999999999994
 20
-44.70570964599065
 30
0.0
 11
12.99999999999994
 21
-58.83009642697019
 31
0.0
  0
LINE
  5
1F3C4
330
1C281
100
AcDbEntity
  8
AM_5
 62
     3
370
    13
100
AcDbLine
 10
2.499999999999942
 20
-57.83009642697019
 30
0.0
 11
10.49999999999994
 21
-57.83009642697019
 31
0.0
  0
INSERT
  5
1F3C5
330
1C281
100
AcDbEntity
  8
AM_5
 62
     3
370
    13
100
AcDbBlockReference
  2
_Open30
 10
-0.0000000000000581
 20
-57.83009642697019
 30
0.0
 41
2.5
 42
2.5
 43
2.5
 50
180.0
  0
INSERT
  5
1F3C6
330
1C281
100
AcDbEntity
  8
AM_5
 62
     3
370
    13
100
AcDbBlockReference
  2
_Open30
 10
12.99999999999994
 20
-57.83009642697019
 30
0.0
 41
2.5
 42
2.5
 43
2.5
  0
MTEXT
  5
1F3C7
330
1C281
100
AcDbEntity
  8
AM_5
 62
     2
100
AcDbMText
 10
6.499999999999942
 20
-54.43009642697019
 30
0.0
 40
3.8
 41
0.0
 71
     5
 72
     1
  1
13
 73
     1
 44
1.0
  0
POINT
  5
1F3C8
330
1C281
100
AcDbEntity
  8
Defpoints
 62
     0
100
AcDbPoint
 10
-0.0000000000000568
 20
-37.32634556910134
 30
0.0
  0
POINT
  5
1F3C9
330
1C281
100
AcDbEntity
  8
Defpoints
 62
     0
100
AcDbPoint
 10
12.99999999999994
 20
-44.70570964599065
 30
0.0
  0
POINT
  5
1F3CA
330
1C281
100
AcDbEntity
  8
Defpoints
 62
     0
100
AcDbPoint
 10
12.99999999999994
 20
-57.83009642697019
 30
0.0
  0
ENDBLK
  5
1C28C
330
1C281
100
AcDbEntity
  8
0
100
AcDbBlockEnd
  0
BLOCK
  5
1C2A9
330
1C29B
100
AcDbEntity
  8
0
100
AcDbBlockBegin
  2
*D3
 70
     1
 71
     0
 10
0.0
 20
0.0
 30
0.0
  3
*D3
  1

  0
LINE
  5
1F3B5
330
1C29B
100
AcDbEntity
  8
AM_5
 62
     3
370
    13
100
AcDbLine
 10
-0.7185814564026609
 20
-40.78270890009561
 30
0.0
 11
-10.10948412418317
 21
-39.9520949058187
 31
0.0
  0
LINE
  5
1F3B6
330
1C29B
100
AcDbEntity
  8
AM_5
 62
     3
370
    13
100
AcDbLine
 10
-7.523564862977933
 20
-40.95570964599066
 30
0.0
 11
-10.15378191105027
 21
-40.95570964599066
 31
0.0
  0
ARC
  5
1F3B7
330
1C29B
100
AcDbEntity
  8
AM_5
 62
     3
370
    13
100
AcDbCircle
 10
1.237360987798776
 20
-40.95570964599066
 30
0.0
 40
10.39114289884904
100
AcDbArc
 50
147.3089547985098
 51
161.1271829720133
  0
ARC
  5
1F3B8
330
1C29B
100
AcDbEntity
  8
AM_5
 62
     3
370
    13
100
AcDbCircle
 10
1.237360987798776
 20
-40.95570964599066
 30
0.0
 40
10.39114289884904
100
AcDbArc
 50
193.8182281735034
 51
207.6364563470069
  0
ARC
  5
1F3B9
330
1C29B
100
AcDbEntity
  8
AM_5
 62
     3
370
    13
100
AcDbCircle
 10
1.237360987798776
 20
-40.95570964599066
 30
0.0
 40
10.39114289884904
100
AcDbArc
 50
174.9454111455167
 51
180.0
  0
INSERT
  5
1F3BA
330
1C29B
100
AcDbEntity
  8
AM_5
 62
     3
370
    13
100
AcDbBlockReference
  2
_Open30
 10
-9.113372916314077
 20
-40.04019973858955
 30
0.0
 41
2.5
 42
2.5
 43
2.5
 50
258.0362970587649
  0
INSERT
  5
1F3BB
330
1C29B
100
AcDbEntity
  8
AM_5
 62
     3
370
    13
100
AcDbBlockReference
  2
_Open30
 10
-9.153781911050267
 20
-40.95570964599066
 30
0.0
 41
2.5
 42
2.5
 43
2.5
 50
96.9091140867517
  0
MTEXT
  5
1F3BC
330
1C29B
100
AcDbEntity
  8
AM_5
 62
     2
100
AcDbMText
 10
-6.337345640706236
 20
-42.00375929458777
 30
0.0
 40
3.8
 41
0.0
 71
     5
 72
     1
  1
5°
 73
     1
 44
1.0
  0
POINT
  5
1F3BD
330
1C29B
100
AcDbEntity
  8
Defpoints
 62
     0
100
AcDbPoint
 10
-9.135815885109704
 20
-40.34492956473592
 30
0.0
  0
POINT
  5
1F3BE
330
1C29B
100
AcDbEntity
  8
Defpoints
 62
     0
100
AcDbPoint
 10
-7.523564862977933
 20
-40.95570964599066
 30
0.0
  0
POINT
  5
1F3BF
330
1C29B
100
AcDbEntity
  8
Defpoints
 62
     0
100
AcDbPoint
 10
-0.6155425563857193
 20
-40.79182256630392
 30
0.0
  0
POINT
  5
1F3C0
330
1C29B
100
AcDbEntity
  8
Defpoints
 62
     0
100
AcDbPoint
 10
-0.7185814564026609
 20
-40.78270890009561
 30
0.0
  0
POINT
  5
1F3C1
330
1C29B
100
AcDbEntity
  8
Defpoints
 62
     0
100
AcDbPoint
 10
106.0502838152271
 20
-40.95570964599067
 30
0.0
  0
ENDBLK
  5
1C2AA
330
1C29B
100
AcDbEntity
  8
0
100
AcDbBlockEnd
  0
BLOCK
  5
1D05C
330
1D053
100
AcDbEntity
  8
0
100
AcDbBlockBegin
  2
*D4
 70
     1
 71
     0
 10
0.0
 20
0.0
 30
0.0
  3
*D4
  1

  0
LINE
  5
1F3CB
330
1D053
100
AcDbEntity
  8
AM_5
100
AcDbLine
 10
-29.17138852947286
 20
8.302659175110229
 30
0.0
 11
-26.91535134851665
 21
9.379829652863466
 31
0.0
  0
LINE
  5
1F3CC
330
1D053
100
AcDbEntity
  8
AM_5
100
AcDbLine
 10
-42.48203414317042
 20
1.947340824889785
 30
0.0
 11
-52.9866452447285
 21
-3.068204598914516
 31
0.0
  0
LINE
  5
1F3CD
330
1D053
100
AcDbEntity
  8
AM_5
100
AcDbLine
 10
-52.9866452447285
 20
-3.068204598914516
 30
0.0
 11
-76.85437125421755
 21
-3.068204598914512
 31
0.0
  0
LINE
  5
1F3CE
330
1D053
100
AcDbEntity
  8
AM_5
100
AcDbLine
 10
-31.42742571042908
 20
7.22548869735699
 30
0.0
 11
-40.2259969622142
 21
3.024511302643019
 31
0.0
  0
INSERT
  5
1F3CF
330
1D053
100
AcDbEntity
  8
AM_5
100
AcDbBlockReference
  2
_Open30
 10
-31.42742571042908
 20
7.22548869735699
 30
0.0
 41
2.5
 42
2.5
 43
2.5
 50
205.5226703532782
  0
INSERT
  5
1F3D0
330
1D053
100
AcDbEntity
  8
AM_5
100
AcDbBlockReference
  2
_Open30
 10
-40.2259969622142
 20
3.024511302643019
 30
0.0
 41
2.5
 42
2.5
 43
2.5
 50
25.52267035327822
  0
MTEXT
  5
1F3D1
330
1D053
100
AcDbEntity
  8
AM_5
 62
     2
100
AcDbMText
 10
-65.67050824947302
 20
3.498462067752133
 30
0.0
 40
3.8
 41
0.0
 71
     5
 72
     1
  1
最小加工径\P\U+220510.0
 73
     1
 44
1.0
  0
POINT
  5
1F3D2
330
1D053
100
AcDbEntity
  8
Defpoints
 62
     0
100
AcDbPoint
 10
-40.2259969622142
 20
3.024511302643019
 30
0.0
  0
POINT
  5
1F3D3
330
1D053
100
AcDbEntity
  8
Defpoints
 62
     0
100
AcDbPoint
 10
-31.42742571042908
 20
7.22548869735699
 30
0.0
  0
ENDBLK
  5
1D05D
330
1D053
100
AcDbEntity
  8
0
100
AcDbBlockEnd
  0
BLOCK
  5
1EA02
330
1EA01
100
AcDbEntity
  8
0
100
AcDbBlockBegin
  2
*U5
 70
     1
 71
     0
 10
0.0
 20
0.0
 30
0.0
  3
*U5
  1

  0
ENDBLK
  5
1EA03
330
1EA01
100
AcDbEntity
  8
0
100
AcDbBlockEnd
  0
BLOCK
  5
1EEE0
330
1EEC6
100
AcDbEntity
  8
0
100
AcDbBlockBegin
  2
*D6
 70
     1
 71
     0
 10
0.0
 20
0.0
 30
0.0
  3
*D6
  1

  0
LINE
  5
1F3D4
330
1EEC6
100
AcDbEntity
  8
AM_5
 62
     3
370
    13
100
AcDbLine
 10
-6.056891232370219
 20
4.999999999999972
 30
0.0
 11
-9.914156416147476
 21
4.999999999999972
 31
0.0
  0
LINE
  5
1F3D5
330
1EEC6
100
AcDbEntity
  8
AM_5
 62
     3
370
    13
100
AcDbLine
 10
0.0
 20
-0.0000000000000284
 30
0.0
 11
-9.914156416147478
 21
-0.0000000000000256
 31
0.0
  0
LINE
  5
1F3D6
330
1EEC6
100
AcDbEntity
  8
AM_5
 62
     3
370
    13
100
AcDbLine
 10
-8.914156416147476
 20
7.499999999999972
 30
0.0
 11
-8.914156416147476
 21
9.999999999999972
 31
0.0
  0
LINE
  5
1F3D7
330
1EEC6
100
AcDbEntity
  8
AM_5
 62
     3
370
    13
100
AcDbLine
 10
-8.914156416147478
 20
-2.500000000000026
 30
0.0
 11
-8.914156416147479
 21
-5.000000000000026
 31
0.0
  0
LINE
  5
1F3D8
330
1EEC6
100
AcDbEntity
  8
AM_5
 62
     3
370
    13
100
AcDbLine
 10
-8.914156416147476
 20
4.999999999999972
 30
0.0
 11
-8.914156416147478
 21
-0.0000000000000259
 31
0.0
  0
INSERT
  5
1F3D9
330
1EEC6
100
AcDbEntity
  8
AM_5
 62
     3
370
    13
100
AcDbBlockReference
  2
_Open30
 10
-8.914156416147476
 20
4.999999999999972
 30
0.0
 41
2.5
 42
2.5
 43
2.5
 50
270.0
  0
INSERT
  5
1F3DA
330
1EEC6
100
AcDbEntity
  8
AM_5
 62
     3
370
    13
100
AcDbBlockReference
  2
_Open30
 10
-8.914156416147478
 20
-0.0000000000000259
 30
0.0
 41
2.5
 42
2.5
 43
2.5
 50
90.0
  0
MTEXT
  5
1F3DB
330
1EEC6
100
AcDbEntity
  8
AM_5
 62
     2
100
AcDbMText
 10
-12.31415641614748
 20
2.499999999999972
 30
0.0
 40
3.8
 41
0.0
 71
     5
 72
     1
  1
5
 11
6.123031769111886E-17
 21
1.0
 31
0.0
 73
     1
 44
1.0
  0
POINT
  5
1F3DC
330
1EEC6
100
AcDbEntity
  8
Defpoints
 62
     0
100
AcDbPoint
 10
-6.056891232370219
 20
4.999999999999972
 30
0.0
  0
POINT
  5
1F3DD
330
1EEC6
100
AcDbEntity
  8
Defpoints
 62
     0
100
AcDbPoint
 10
0.0
 20
-0.0000000000000284
 30
0.0
  0
POINT
  5
1F3DE
330
1EEC6
100
AcDbEntity
  8
Defpoints
 62
     0
100
AcDbPoint
 10
-8.914156416147478
 20
-0.0000000000000259
 30
0.0
  0
ENDBLK
  5
1EEE1
330
1EEC6
100
AcDbEntity
  8
0
100
AcDbBlockEnd
  0
BLOCK
  5
1EF58
330
1EF42
100
AcDbEntity
  8
0
100
AcDbBlockBegin
  2
*D7
 70
     1
 71
     0
 10
0.0
 20
0.0
 30
0.0
  3
*D7
  1

  0
LINE
  5
1F3DF
330
1EF42
100
AcDbEntity
  8
AM_5
 62
     3
370
    13
100
AcDbLine
 10
0.0
 20
-0.0000000000000284
 30
0.0
 11
-0.0000000000000015
 21
-23.74760220100704
 31
0.0
  0
LINE
  5
1F3E0
330
1EF42
100
AcDbEntity
  8
AM_5
 62
     3
370
    13
100
AcDbLine
 10
100.0
 20
1.999999999999957
 30
0.0
 11
100.0
 21
-23.74760220100704
 31
0.0
  0
LINE
  5
1F3E1
330
1EF42
100
AcDbEntity
  8
AM_5
 62
     3
370
    13
100
AcDbLine
 10
2.499999999999999
 20
-22.74760220100704
 30
0.0
 11
97.5
 21
-22.74760220100704
 31
0.0
  0
INSERT
  5
1F3E2
330
1EF42
100
AcDbEntity
  8
AM_5
 62
     3
370
    13
100
AcDbBlockReference
  2
_Open30
 10
-0.0000000000000014
 20
-22.74760220100704
 30
0.0
 41
2.5
 42
2.5
 43
2.5
 50
180.0
  0
INSERT
  5
1F3E3
330
1EF42
100
AcDbEntity
  8
AM_5
 62
     3
370
    13
100
AcDbBlockReference
  2
_Open30
 10
100.0
 20
-22.74760220100704
 30
0.0
 41
2.5
 42
2.5
 43
2.5
  0
MTEXT
  5
1F3E4
330
1EF42
100
AcDbEntity
  8
AM_5
 62
     2
100
AcDbMText
 10
50.0
 20
-19.34760220100704
 30
0.0
 40
3.8
 41
0.0
 71
     5
 72
     1
  1
100
 73
     1
 44
1.0
  0
POINT
  5
1F3E5
330
1EF42
100
AcDbEntity
  8
Defpoints
 62
     0
100
AcDbPoint
 10
0.0
 20
-0.0000000000000284
 30
0.0
  0
POINT
  5
1F3E6
330
1EF42
100
AcDbEntity
  8
Defpoints
 62
     0
100
AcDbPoint
 10
100.0
 20
1.999999999999957
 30
0.0
  0
POINT
  5
1F3E7
330
1EF42
100
AcDbEntity
  8
Defpoints
 62
     0
100
AcDbPoint
 10
100.0
 20
-22.74760220100704
 30
0.0
  0
ENDBLK
  5
1EF59
330
1EF42
100
AcDbEntity
  8
0
100
AcDbBlockEnd
  0
BLOCK
  5
1EF93
330
1EF6E
100
AcDbEntity
  8
0
100
AcDbBlockBegin
  2
*D8
 70
     1
 71
     0
 10
0.0
 20
0.0
 30
0.0
  3
*D8
  1

  0
LINE
  5
1F3E8
330
1EF6E
100
AcDbEntity
  8
AM_5
 62
     3
370
    13
100
AcDbLine
 10
70.10971874882279
 20
3.063508326896269
 30
0.0
 11
70.10971874882279
 21
-8.917965325591851
 31
0.0
  0
LINE
  5
1F3E9
330
1EF6E
100
AcDbEntity
  8
AM_5
 62
     3
370
    13
100
AcDbLine
 10
77.1097187488229
 20
3.063508326896269
 30
0.0
 11
77.1097187488229
 21
-8.917965325591851
 31
0.0
  0
LINE
  5
1F3EA
330
1EF6E
100
AcDbEntity
  8
AM_5
 62
     3
370
    13
100
AcDbLine
 10
67.60971874882279
 20
-7.917965325591851
 30
0.0
 11
65.10971874882279
 21
-7.917965325591851
 31
0.0
  0
LINE
  5
1F3EB
330
1EF6E
100
AcDbEntity
  8
AM_5
 62
     3
370
    13
100
AcDbLine
 10
79.6097187488229
 20
-7.917965325591851
 30
0.0
 11
82.1097187488229
 21
-7.917965325591851
 31
0.0
  0
LINE
  5
1F3EC
330
1EF6E
100
AcDbEntity
  8
AM_5
 62
     3
370
    13
100
AcDbLine
 10
70.10971874882279
 20
-7.917965325591851
 30
0.0
 11
77.1097187488229
 21
-7.917965325591851
 31
0.0
  0
INSERT
  5
1F3ED
330
1EF6E
100
AcDbEntity
  8
AM_5
 62
     3
370
    13
100
AcDbBlockReference
  2
_Open30
 10
70.10971874882279
 20
-7.917965325591851
 30
0.0
 41
2.5
 42
2.5
 43
2.5
  0
INSERT
  5
1F3EE
330
1EF6E
100
AcDbEntity
  8
AM_5
 62
     3
370
    13
100
AcDbBlockReference
  2
_Open30
 10
77.1097187488229
 20
-7.917965325591851
 30
0.0
 41
2.5
 42
2.5
 43
2.5
 50
180.0
  0
MTEXT
  5
1F3EF
330
1EF6E
100
AcDbEntity
  8
AM_5
 62
     2
100
AcDbMText
 10
73.60971874882284
 20
-4.517965325591851
 30
0.0
 40
3.8
 41
0.0
 71
     5
 72
     1
  1
7
 73
     1
 44
1.0
  0
POINT
  5
1F3F0
330
1EF6E
100
AcDbEntity
  8
Defpoints
 62
     0
100
AcDbPoint
 10
70.10971874882279
 20
3.063508326896269
 30
0.0
  0
POINT
  5
1F3F1
330
1EF6E
100
AcDbEntity
  8
Defpoints
 62
     0
100
AcDbPoint
 10
77.1097187488229
 20
3.063508326896269
 30
0.0
  0
POINT
  5
1F3F2
330
1EF6E
100
AcDbEntity
  8
Defpoints
 62
     0
100
AcDbPoint
 10
77.1097187488229
 20
-7.917965325591851
 30
0.0
  0
ENDBLK
  5
1EF94
330
1EF6E
100
AcDbEntity
  8
0
100
AcDbBlockEnd
  0
BLOCK
  5
1EFD6
330
1EFB6
100
AcDbEntity
  8
0
100
AcDbBlockBegin
  2
*D9
 70
     1
 71
     0
 10
0.0
 20
0.0
 30
0.0
  3
*D9
  1

  0
LINE
  5
1F3F3
330
1EFB6
100
AcDbEntity
  8
AM_5
100
AcDbLine
 10
71.95224250046562
 20
-1.285123108271858
 30
0.0
 11
71.31475163571282
 21
-3.702478149914841
 31
0.0
  0
LINE
  5
1F3F4
330
1EFB6
100
AcDbEntity
  8
AM_5
100
AcDbLine
 10
75.26719499718011
 20
11.28512310827167
 30
0.0
 11
77.06217182243783
 21
18.09164617876574
 31
0.0
  0
LINE
  5
1F3F5
330
1EFB6
100
AcDbEntity
  8
AM_5
100
AcDbLine
 10
77.06217182243783
 20
18.09164617876574
 30
0.0
 11
83.50217182243783
 21
18.09164617876574
 31
0.0
  0
LINE
  5
1F3F6
330
1EFB6
100
AcDbEntity
  8
AM_5
100
AcDbLine
 10
72.58973336521841
 20
1.132231933371124
 30
0.0
 11
74.62970413242734
 21
8.867768066628681
 31
0.0
  0
INSERT
  5
1F3F7
330
1EFB6
100
AcDbEntity
  8
AM_5
100
AcDbBlockReference
  2
_Open30
 10
72.58973336521841
 20
1.132231933371124
 30
0.0
 41
2.5
 42
2.5
 43
2.5
 50
75.22663137143283
  0
INSERT
  5
1F3F8
330
1EFB6
100
AcDbEntity
  8
AM_5
100
AcDbBlockReference
  2
_Open30
 10
74.62970413242734
 20
8.867768066628681
 30
0.0
 41
2.5
 42
2.5
 43
2.5
 50
255.2266313714328
  0
MTEXT
  5
1F3F9
330
1EFB6
100
AcDbEntity
  8
AM_5
 62
     2
100
AcDbMText
 10
81.03217182243787
 20
21.49164617876572
 30
0.0
 40
3.8
 41
0.0
 71
     5
 72
     1
  1
\U+22058
 73
     1
 44
1.0
  0
POINT
  5
1F3FA
330
1EFB6
100
AcDbEntity
  8
Defpoints
 62
     0
100
AcDbPoint
 10
74.62970413242734
 20
8.867768066628681
 30
0.0
  0
POINT
  5
1F3FB
330
1EFB6
100
AcDbEntity
  8
Defpoints
 62
     0
100
AcDbPoint
 10
72.58973336521841
 20
1.132231933371124
 30
0.0
  0
ENDBLK
  5
1EFD7
330
1EFB6
100
AcDbEntity
  8
0
100
AcDbBlockEnd
  0
BLOCK
  5
1F0BB
330
1F08E
100
AcDbEntity
  8
0
100
AcDbBlockBegin
  2
*D10
 70
     1
 71
     0
 10
0.0
 20
0.0
 30
0.0
  3
*D10
  1

  0
LINE
  5
1F3FC
330
1F08E
100
AcDbEntity
  8
AM_5
 62
     3
370
    13
100
AcDbLine
 10
0.3898073492171643
 20
7.637022318907526
 30
0.0
 11
1.131018378992792
 21
21.78017129250721
 31
0.0
  0
LINE
  5
1F3FD
330
1F08E
100
AcDbEntity
  8
AM_5
 62
     3
370
    13
100
AcDbLine
 10
-0.0104320308518161
 20
-0.0000000000000284
 30
0.0
 11
-21.82049325426636
 21
-0.0000000000000266
 31
0.0
  0
ARC
  5
1F3FE
330
1F08E
100
AcDbEntity
  8
AM_5
 62
     3
370
    13
100
AcDbCircle
 10
-0.0104320308518161
 20
-0.0000000000000284
 30
0.0
 40
20.81006122341454
100
AcDbArc
 50
93.88732836476686
 51
173.112671635233
  0
INSERT
  5
1F3FF
330
1F08E
100
AcDbEntity
  8
AM_5
 62
     3
370
    13
100
AcDbBlockReference
  2
_Open30
 10
1.078682422749845
 20
20.78154175775263
 30
0.0
 41
2.5
 42
2.5
 43
2.5
 50
0.4436641823833563
  0
INSERT
  5
1F400
330
1F08E
100
AcDbEntity
  8
AM_5
 62
     3
370
    13
100
AcDbBlockReference
  2
_Open30
 10
-20.82049325426636
 20
-0.0000000000000266
 30
0.0
 41
2.5
 42
2.5
 43
2.5
 50
266.5563358176165
  0
MTEXT
  5
1F401
330
1F08E
100
AcDbEntity
  8
AM_5
 62
     2
100
AcDbMText
 10
-16.67553845181512
 20
17.56135793210329
 30
0.0
 40
3.8
 41
0.0
 71
     5
 72
     1
  1
93°
 11
0.7253743710122885
 21
0.688354575693753
 31
0.0
 73
     1
 44
1.0
  0
POINT
  5
1F402
330
1F08E
100
AcDbEntity
  8
Defpoints
 62
     0
100
AcDbPoint
 10
-9.780163995078272
 20
18.37419346446076
 30
0.0
  0
POINT
  5
1F403
330
1F08E
100
AcDbEntity
  8
Defpoints
 62
     0
100
AcDbPoint
 10
0.1961731935820694
 20
-0.0000000000000284
 30
0.0
  0
POINT
  5
1F404
330
1F08E
100
AcDbEntity
  8
Defpoints
 62
     0
100
AcDbPoint
 10
0.3898073492171643
 20
7.637022318907526
 30
0.0
  0
POINT
  5
1F405
330
1F08E
100
AcDbEntity
  8
Defpoints
 62
     0
100
AcDbPoint
 10
0.0002672756322113
 20
0.2041549294855827
 30
0.0
  0
POINT
  5
1F406
330
1F08E
100
AcDbEntity
  8
Defpoints
 62
     0
100
AcDbPoint
 10
0.0
 20
-0.0000000000000284
 30
0.0
  0
ENDBLK
  5
1F0BC
330
1F08E
100
AcDbEntity
  8
0
100
AcDbBlockEnd
  0
BLOCK
  5
1F1A6
330
1F177
100
AcDbEntity
  8
0
100
AcDbBlockBegin
  2
*D11
 70
     1
 71
     0
 10
0.0
 20
0.0
 30
0.0
  3
*D11
  1

  0
LINE
  5
1F407
330
1F177
100
AcDbEntity
  8
AM_5
 62
     3
370
    13
100
AcDbLine
 10
-35.82671133632181
 20
-0.0054156744137099
 30
0.0
 11
-38.89752933742731
 21
-17.88584034664113
 31
0.0
  0
LINE
  5
1F408
330
1F177
100
AcDbEntity
  8
AM_5
 62
     3
370
    13
100
AcDbLine
 10
-35.82671133632181
 20
-2.044000000000013
 30
0.0
 11
-35.82671133632182
 21
-18.14761812216279
 31
0.0
  0
ARC
  5
1F409
330
1F177
100
AcDbEntity
  8
AM_5
 62
     3
370
    13
100
AcDbCircle
 10
-35.82671133632181
 20
-0.0054156744137099
 30
0.0
 40
17.14220244774908
100
AcDbArc
 50
243.5282297670827
 51
251.8916062835352
  0
ARC
  5
1F40A
330
1F177
100
AcDbEntity
  8
AM_5
 62
     3
370
    13
100
AcDbCircle
 10
-35.82671133632181
 20
-0.0054156744137099
 30
0.0
 40
17.14220244774908
100
AcDbArc
 50
278.3633765164524
 51
286.7267530329049
  0
ARC
  5
1F40B
330
1F177
100
AcDbEntity
  8
AM_5
 62
     3
370
    13
100
AcDbCircle
 10
-35.82671133632181
 20
-0.0054156744137099
 30
0.0
 40
17.14220244774908
100
AcDbArc
 50
260.2549827999877
 51
269.9999999999999
  0
INSERT
  5
1F40C
330
1F177
100
AcDbEntity
  8
AM_5
 62
     3
370
    13
100
AcDbBlockReference
  2
_Open30
 10
-38.72826554434873
 20
-16.90026956361606
 30
0.0
 41
2.5
 42
2.5
 43
2.5
 50
346.0732945417614
  0
INSERT
  5
1F40D
330
1F177
100
AcDbEntity
  8
AM_5
 62
     3
370
    13
100
AcDbBlockReference
  2
_Open30
 10
-35.82671133632182
 20
-17.14761812216279
 30
0.0
 41
2.5
 42
2.5
 43
2.5
 50
184.1816882582262
  0
MTEXT
  5
1F40E
330
1F177
100
AcDbEntity
  8
AM_5
 62
     2
100
AcDbMText
 10
-41.26300823201026
 20
-12.62662021981463
 30
0.0
 40
3.8
 41
0.0
 71
     5
 72
     1
  1
10°
 11
0.9184266199970167
 21
-0.3955913847404358
 31
0.0
 73
     1
 44
1.0
  0
POINT
  5
1F40F
330
1F177
100
AcDbEntity
  8
Defpoints
 62
     0
100
AcDbPoint
 10
-36.79805444576991
 20
-17.12007597847298
 30
0.0
  0
POINT
  5
1F410
330
1F177
100
AcDbEntity
  8
Defpoints
 62
     0
100
AcDbPoint
 10
-35.82671133632181
 20
4.99999999999997
 30
0.0
  0
POINT
  5
1F411
330
1F177
100
AcDbEntity
  8
Defpoints
 62
     0
100
AcDbPoint
 10
-34.5141872803427
 20
7.637006476613236
 30
0.0
  0
POINT
  5
1F412
330
1F177
100
AcDbEntity
  8
Defpoints
 62
     0
100
AcDbPoint
 10
-35.79072200463924
 20
0.2041390871912938
 30
0.0
  0
POINT
  5
1F413
330
1F177
100
AcDbEntity
  8
Defpoints
 62
     0
100
AcDbPoint
 10
-35.82671133632181
 20
-2.044000000000013
 30
0.0
  0
ENDBLK
  5
1F1A7
330
1F177
100
AcDbEntity
  8
0
100
AcDbBlockEnd
  0
ENDSEC
  0
SECTION
  2
ENTITIES
  0
LINE
  5
1A2E6
330
1F
100
AcDbEntity
  8
AM_7
  6
AM_ISO08W050x2
100
AcDbLine
 10
-35.82671133632181
 20
4.999999999999972
 30
0.0
 11
-28.78271133632183
 21
4.999999999999972
 31
0.0
1001
GENIUS_GENOREF_13
1005
1A2EA
  0
LINE
  5
1A2E7
330
1F
100
AcDbEntity
  8
AM_7
  6
AM_ISO08W050x2
100
AcDbLine
 10
-35.82671133632181
 20
4.999999999999972
 30
0.0
 11
-35.82671133632181
 21
12.04399999999995
 31
0.0
1001
GENIUS_GENOREF_13
1005
1A2EA
  0
LINE
  5
1A2E8
330
1F
100
AcDbEntity
  8
AM_7
  6
AM_ISO08W050x2
100
AcDbLine
 10
-35.82671133632181
 20
4.999999999999972
 30
0.0
 11
-42.87071133632179
 21
4.999999999999972
 31
0.0
1001
GENIUS_GENOREF_13
1005
1A2EA
  0
LINE
  5
1A2E9
330
1F
100
AcDbEntity
  8
AM_7
  6
AM_ISO08W050x2
100
AcDbLine
 10
-35.82671133632181
 20
4.999999999999972
 30
0.0
 11
-35.82671133632181
 21
-2.044000000000011
 31
0.0
1001
GENIUS_GENOREF_13
1005
1A2EA
  0
POINT
  5
1A2EA
330
1F
100
AcDbEntity
  8
0
 60
     1
100
AcDbPoint
 10
0.0
 20
0.0
 30
0.0
1001
GENIUS_GENOENT_13
1002
{
1000
MYREF
1005
1A2EA
1002
}
1002
{
1000
GRP
1005
0
1002
}
1001
GENIUS_GENOBJ-N-CRS_13
1002
{
1000
OWNER
1000
GEN
1002
}
1001
GENIUS_GENOLIS_13
1002
{
1000
ENT
1005
1A2E9
1005
1A2E8
1005
1A2E7
1005
1A2E6
1002
}
1001
GENIUS_GENODEF_13
1002
{
1000
HIER
1070
    10
1002
}
1002
{
1000
MANEDIT
1070
     0
1002
}
1002
{
1000
NOSEL
1070
     0
1002
}
1002
{
1000
BEHIND
1070
     0
1002
}
1002
{
1000
OTHER
1070
     0
1002
}
1002
{
1000
REACTOR
1002
}
  0
CIRCLE
  5
1A743
330
1F
100
AcDbEntity
  8
AM_11
  6
ACJISTGB
100
AcDbCircle
 10
-35.82671133632181
 20
5.124999999999972
 30
0.0
 40
4.875014542122979
  0
LINE
  5
1C133
330
1F
100
AcDbEntity
  8
AM_5
100
AcDbLine
 10
0.1961731935820694
 20
-0.0000000000000284
 30
0.0
 11
0.0
 21
-0.0000000000000284
 31
0.0
  0
LINE
  5
1C134
330
1F
100
AcDbEntity
  8
AM_5
100
AcDbLine
 10
0.0
 20
0.0
 30
0.0
 11
0.0
 21
0.3189523033250907
 31
0.0
  0
DIMENSION
  5
1C26E
330
1F
100
AcDbEntity
  8
AM_5
100
AcDbDimension
  2
*D3
 10
106.050283815227
 20
-40.95570964599067
 30
0.0
 11
-11.5333042899203
 21
-42.72268121506735
 31
0.0
 70
   162
  1
<>
 71
     5
 42
0.0882192178453423
  3
AM_JIS$2
100
AcDb2LineAngularDimension
 13
-0.6155425563857193
 23
-40.79182256630392
 33
0.0
 14
-0.71858145640266
 24
-40.7827089000956
 34
0.0
 15
-7.523564862977935
 25
-40.95570964599065
 35
0.0
 16
-9.135815885109704
 26
-40.34492956473592
 36
0.0
1001
ACAD
1000
DSTYLE
1002
{
1070
   287
1070
     4
1070
   271
1070
     0
1070
    79
1070
     1
1070
   179
1070
     0
1070
   271
1070
     1
1070
   279
1070
     1
1070
   289
1070
     3
1002
}
  0
DIMENSION
  5
1C270
330
1F
100
AcDbEntity
  8
AM_5
100
AcDbDimension
  2
*D2
 10
12.99999999999994
 20
-57.83009642697019
 30
0.0
 11
6.499999999999942
 21
-54.43009642697019
 31
0.0
 70
    32
 71
     5
 42
13.0
  3
AM_JIS$0
100
AcDbAlignedDimension
 13
-0.0000000000000568
 23
-37.32634556910134
 33
0.0
 14
12.99999999999994
 24
-44.70570964599065
 34
0.0
100
AcDbRotatedDimension
1001
ACAD
1000
DSTYLE
1002
{
1070
   179
1070
     0
1070
   271
1070
     0
1002
}
  0
LINE
  5
1C2DF
330
1F
100
AcDbEntity
  8
AM_5
100
AcDbLine
 10
2.026534010028229
 20
-41.0255110462775
 30
0.0
 11
-0.7137315640890733
 21
-40.78313786721063
 31
0.0
  0
LINE
  5
1C667
330
1F
100
AcDbEntity
  8
AM_0
100
AcDbLine
 10
99.0
 20
0.9999999999999574
 30
0.0
 11
78.16351238579222
 21
0.9999999999999574
 31
0.0
  0
LINE
  5
1C668
330
1F
100
AcDbEntity
  8
AM_0
100
AcDbLine
 10
99.0
 20
8.999999999999957
 30
0.0
 11
78.16351238579222
 21
8.999999999999957
 31
0.0
  0
LINE
  5
1C669
330
1F
100
AcDbEntity
  8
AM_0
100
AcDbLine
 10
18.25000000000006
 20
6.936491673103653
 30
0.0
 11
69.26291626827691
 21
6.936491673103646
 31
0.0
  0
LINE
  5
1C66A
330
1F
100
AcDbEntity
  8
AM_0
100
AcDbLine
 10
99.0
 20
3.063508326896269
 30
0.0
 11
78.16351238579222
 21
3.063508326896269
 31
0.0
  0
LINE
  5
1C66B
330
1F
100
AcDbEntity
  8
AM_0
100
AcDbLine
 10
18.25000000000006
 20
-44.45570964599065
 30
0.0
 11
99.50000000000006
 21
-44.45570964599067
 31
0.0
  0
LINE
  5
1C66C
330
1F
100
AcDbEntity
  8
AM_0
100
AcDbLine
 10
99.49999999999994
 20
-37.45570964599067
 30
0.0
 11
18.24999999999994
 21
-37.45570964599065
 31
0.0
  0
LINE
  5
1C66D
330
1F
100
AcDbEntity
  8
AM_0
100
AcDbLine
 10
11.13397459621564
 20
-45.20570964599065
 30
0.0
 11
3.222942241207363
 21
-45.20570964599065
 31
0.0
  0
SPLINE
  5
1C66E
330
1F
100
AcDbEntity
  8
AM_0
100
AcDbSpline
210
0.0
220
0.0
230
1.0
 70
     8
 71
     3
 72
    24
 73
    20
 74
     0
 42
0.0000000001
 43
0.0000000001
 40
2.010853399697498
 40
2.010853399697498
 40
2.010853399697498
 40
2.010853399697498
 40
2.267390847507628
 40
2.267390847507628
 40
2.645432633100298
 40
2.645432633100298
 40
3.023474418692969
 40
3.023474418692969
 40
3.400499975856238
 40
3.400499975856238
 40
3.777525533019507
 40
3.777525533019507
 40
4.158029356962086
 40
4.158029356962086
 40
4.538533180904666
 40
4.538533180904666
 40
4.916030912788075
 40
4.916030912788075
 40
5.039906536008373
 40
5.039906536008373
 40
5.039906536008373
 40
5.039906536008373
 10
6.623588776916392
 20
-40.53745556097064
 30
0.0
 10
6.713768346124255
 20
-40.53432973606309
 30
0.0
 10
6.802262235764999
 20
-40.53331465696115
 30
0.0
 10
7.003422197899624
 20
-40.53639360749358
 30
0.0
 10
7.123721841824988
 20
-40.54354260302571
 30
0.0
 10
7.327621809762434
 20
-40.57129810472091
 30
0.0
 10
7.411202548774952
 20
-40.59205575674611
 30
0.0
 10
7.525031643252817
 20
-40.64082702617847
 30
0.0
 10
7.56278586827392
 20
-40.67197607256566
 30
0.0
 10
7.58190831843325
 20
-40.73948803059122
 30
0.0
 10
7.563313426527941
 20
-40.77570866739541
 30
0.0
 10
7.483952354798305
 20
-40.84074733810093
 30
0.0
 10
7.417455646787346
 20
-40.87389067245468
 30
0.0
 10
7.241812178956195
 20
-40.9283419963208
 30
0.0
 10
7.132651642619919
 20
-40.94951889887554
 30
0.0
 10
6.90730234253698
 20
-40.9750703465958
 30
0.0
 10
6.776277983677971
 20
-40.9812522580558
 30
0.0
 10
6.59947084698041
 20
-40.97856730177679
 30
0.0
 10
6.555552072846638
 20
-40.97707161349968
 30
0.0
 10
6.512043462683039
 20
-40.9748207774706
 30
0.0
  0
ARC
  5
1C66F
330
1F
100
AcDbEntity
  8
AM_0
100
AcDbCircle
 10
4.002317309004013
 20
-25.88018409328984
 30
0.0
 40
13.80462774797705
100
AcDbArc
 50
265.4953450005144
 51
288.8158124455076
  0
SPLINE
  5
1C670
330
1F
100
AcDbEntity
  8
AM_0
100
AcDbSpline
210
0.0
220
0.0
230
1.0
 70
     8
 71
     3
 72
     8
 73
     4
 74
     0
 42
0.0000000001
 43
0.0000000001
 40
34.44350592925657
 40
34.44350592925657
 40
34.44350592925657
 40
34.44350592925657
 40
35.39134623440595
 40
35.39134623440595
 40
35.39134623440595
 40
35.39134623440595
 10
8.185770228754507
 20
-41.52769009149267
 30
0.0
 10
7.867489454960889
 20
-41.52463096295278
 30
0.0
 10
7.540359581159066
 20
-41.50940338076833
 30
0.0
 10
7.208793963564574
 20
-41.48056131306382
 30
0.0
  0
LINE
  5
1C671
330
1F
100
AcDbEntity
  8
AM_0
100
AcDbLine
 10
0.1095047000719092
 20
-41.9480792570354
 30
0.0
 11
0.2764111613813043
 21
-43.22155156571535
 31
0.0
  0
LINE
  5
1C672
330
1F
100
AcDbEntity
  8
AM_0
100
AcDbLine
 10
1.818969709576493
 20
-43.25485981542144
 30
0.0
 11
1.905394113400291
 21
-42.28267518940103
 31
0.0
  0
ELLIPSE
  5
1C673
330
1F
100
AcDbEntity
  8
AM_0
100
AcDbEllipse
 10
1.967925416221021
 20
-40.95570964599065
 30
0.0
 11
0.3664948498451861
 21
4.249996398830784
 31
0.0
210
0.0
220
0.0
230
1.0
 40
0.0150960476958868
 41
4.127192770566182
 42
4.697266177221043
  0
LINE
  5
1C674
330
1F
100
AcDbEntity
  8
AM_0
100
AcDbLine
 10
0.2764111613813043
 20
-43.22155156571535
 30
0.0
 11
1.822310091106317
 21
-43.2172839985848
 31
0.0
  0
LINE
  5
1C675
330
1F
100
AcDbEntity
  8
AM_0
100
AcDbLine
 10
1.26131093493126
 20
-45.20570964599065
 30
0.0
 11
0.7274668840895515
 21
-45.20570964599065
 31
0.0
  0
LINE
  5
1C676
330
1F
100
AcDbEntity
  8
AM_0
100
AcDbLine
 10
1.818969709576493
 20
-43.25485981542144
 30
0.0
 11
1.818969709576493
 21
-43.30786222791735
 31
0.0
  0
ELLIPSE
  5
1C677
330
1F
100
AcDbEntity
  8
AM_0
100
AcDbEllipse
 10
0.3245229829267942
 20
-40.95570964599065
 30
0.0
 11
0.4048284797274331
 21
-4.249910645952092
 31
0.0
210
0.0
220
0.0
230
1.0
 40
0.0680758759754622
 41
5.268199061764342
 42
6.276700778587245
  0
ELLIPSE
  5
1C678
330
1F
100
AcDbEntity
  8
AM_0
100
AcDbEllipse
 10
-17.61627027209585
 20
-40.95570964599065
 30
0.0
 11
-48.5461666904755
 21
4.186337681763695
 31
0.0
210
0.0
220
0.0
230
1.0
 40
0.0150960476958869
 41
1.959458507200639
 42
1.983991612889341
  0
SPLINE
  5
1C679
330
1F
100
AcDbEntity
  8
AM_0
100
AcDbSpline
210
0.0
220
0.0
230
1.0
 70
    11
 71
     3
 72
    38
 73
    34
 74
     0
 42
0.0000000001
 43
0.0000000001
 40
0.0
 40
0.0
 40
0.0
 40
0.0
 40
0.3815412346300539
 40
0.3815412346300539
 40
0.7630824692601078
 40
0.7630824692601078
 40
1.151950123375297
 40
1.151950123375297
 40
1.540817777490486
 40
1.540817777490486
 40
1.922613097812807
 40
1.922613097812807
 40
2.304408418135129
 40
2.304408418135129
 40
2.68248847356306
 40
2.68248847356306
 40
3.060568528990991
 40
3.060568528990991
 40
3.4398272937308
 40
3.4398272937308
 40
3.819086058470608
 40
3.819086058470608
 40
4.197733640951656
 40
4.197733640951656
 40
4.576381223432703
 40
4.576381223432703
 40
4.976557127616739
 40
4.976557127616739
 40
5.376733031800775
 40
5.376733031800775
 40
5.763080713940351
 40
5.763080713940351
 40
6.149428396079927
 40
6.149428396079927
 40
6.149428396079927
 40
6.149428396079927
 10
2.277998338576083
 20
-45.0128895375108
 30
0.0
 10
2.405178750119433
 20
-45.0128895375108
 30
0.0
 10
2.539437848686873
 20
-45.02180276293638
 30
0.0
 10
2.782385344978763
 20
-45.05366918944355
 30
0.0
 10
2.891214062443908
 20
-45.07610747524757
 30
0.0
 10
3.061954262371899
 20
-45.11913388741968
 30
0.0
 10
3.134974833258355
 20
-45.14261674585234
 30
0.0
 10
3.230150712474085
 20
-45.17994829555855
 30
0.0
 10
3.252271603981569
 20
-45.19353719921273
 30
0.0
 10
3.247239276348466
 20
-45.20665983167484
 30
0.0
 10
3.220497194710958
 20
-45.20729016950799
 30
0.0
 10
3.115516388316962
 20
-45.19732897444087
 30
0.0
 10
3.037206858590423
 20
-45.18706250779493
 30
0.0
 10
2.857461585724138
 20
-45.16620480487521
 30
0.0
 10
2.744445352725109
 20
-45.15429895156638
 30
0.0
 10
2.496972719892881
 20
-45.13720595774169
 30
0.0
 10
2.362520640095625
 20
-45.13233331849673
 30
0.0
 10
2.110074366706328
 20
-45.13233331849673
 30
0.0
 10
1.975221723332481
 20
-45.13723347920225
 30
0.0
 10
1.72728440541897
 20
-45.15440871395782
 30
0.0
 10
1.614200101633003
 20
-45.1663752337229
 30
0.0
 10
1.436350459061885
 20
-45.18725862075948
 30
0.0
 10
1.360144750040092
 20
-45.19746091268817
 30
0.0
 10
1.261781937123772
 20
-45.20729847744767
 30
0.0
 10
1.239610252450518
 20
-45.20660623287984
 30
0.0
 10
1.244695867152757
 20
-45.19334464550977
 30
0.0
 10
1.274856131076092
 20
-45.17927681021237
 30
0.0
 10
1.387042199690825
 20
-45.14127861313401
 30
0.0
 10
1.468954876016653
 20
-45.11764275303005
 30
0.0
 10
1.651749277365695
 20
-45.07522760991787
 30
0.0
 10
1.764717086923099
 20
-45.05334533593688
 30
0.0
 10
2.01338192888926
 20
-45.0219342437052
 30
0.0
 10
2.149215777862935
 20
-45.0128895375108
 30
0.0
 10
2.277998338576083
 20
-45.0128895375108
 30
0.0
  0
ELLIPSE
  5
1C67A
330
1F
100
AcDbEntity
  8
AM_0
100
AcDbEllipse
 10
2.562788418718299
 20
-40.50699560054181
 30
0.0
 11
-0.9960719184541673
 21
0.08854791509140557
 31
0.0
210
0.0
220
0.0
230
1.0
 40
0.1730567709032792
 41
0.4745376002641175
 42
6.757722907443701
  0
LINE
  5
1C67B
330
1F
100
AcDbEntity
  8
AM_0
100
AcDbLine
 10
0.2897888920763876
 20
-40.97742837926708
 30
0.0
 11
5.997736805214629
 21
-40.96167117132248
 31
0.0
  0
LINE
  5
1C67C
330
1F
100
AcDbEntity
  8
AM_0
100
AcDbLine
 10
7.008769014861343
 20
-40.90037283234685
 30
0.0
 11
0.6971977763762993
 21
-39.64233701624127
 31
0.0
  0
LINE
  5
1C67D
330
1F
100
AcDbEntity
  8
AM_0
100
AcDbLine
 10
0.407676159932123
 20
-39.58462895128233
 30
0.0
 11
4.850746699200101
 21
-40.47023123012536
 31
0.0
  0
LINE
  5
1C67E
330
1F
100
AcDbEntity
  8
AM_0
100
AcDbLine
 10
5.997736805214629
 20
-40.96167117132248
 30
0.0
 11
2.026534010028115
 21
-40.97263396726706
 31
0.0
  0
ELLIPSE
  5
1C67F
330
1F
100
AcDbEntity
  8
AM_0
100
AcDbEllipse
 10
9.673586353897747
 20
-40.95570964599065
 30
0.0
 11
-48.54616669047706
 21
4.186337681763693
 31
0.0
210
0.0
220
0.0
230
1.0
 40
0.0150960476958864
 41
1.413918206234839
 42
1.521304193091178
  0
ELLIPSE
  5
1C680
330
1F
100
AcDbEntity
  8
AM_0
100
AcDbEllipse
 10
0.1992379568333149
 20
-40.93867347803771
 30
0.0
 11
-0.1992143836908338
 21
0.01770958301827756
 31
0.0
210
0.0
220
0.0
230
1.0
 40
0.1730567709032793
 41
6.246765067139165
 42
8.34116016953217
  0
ELLIPSE
  5
1C681
330
1F
100
AcDbEntity
  8
AM_0
100
AcDbEllipse
 10
0.5887780304182684
 20
-39.66213875374112
 30
0.0
 11
-0.1992143836908338
 21
0.01770958301827756
 31
0.0
210
0.0
220
0.0
230
1.0
 40
0.1730567709032793
 41
4.152369964745972
 42
6.246765067140183
  0
LINE
  5
1C682
330
1F
100
AcDbEntity
  8
AM_0
100
AcDbLine
 10
0.1095047000719092
 20
-41.9480792570354
 30
0.0
 11
0.0000351250523067
 21
-40.92215170516838
 31
0.0
  0
LINE
  5
1C683
330
1F
100
AcDbEntity
  8
AM_0
100
AcDbLine
 10
0.3898073492171648
 20
-39.64318559001154
 30
0.0
 11
0.0002672756322113
 21
-40.91972031430814
 31
0.0
  0
ELLIPSE
  5
1C684
330
1F
100
AcDbEntity
  8
AM_0
100
AcDbEllipse
 10
2.562788418718299
 20
-40.50699560054181
 30
0.0
 11
-0.8715629286474771
 21
0.07747942570497124
 31
0.0
210
0.0
220
0.0
230
0.9999999999999999
 40
0.1730567709032792
 41
2.633376911303962
 42
3.680574462500466
  0
ELLIPSE
  5
1C685
330
1F
100
AcDbEntity
  8
AM_0
100
AcDbEllipse
 10
2.562788418718299
 20
-40.50699560054181
 30
0.0
 11
-0.8715629286474771
 21
0.07747942570497124
 31
0.0
210
0.0
220
0.0
230
0.9999999999999999
 40
0.1730567709032792
 41
3.680574462500467
 42
4.727772013697163
  0
ELLIPSE
  5
1C686
330
1F
100
AcDbEntity
  8
AM_0
100
AcDbEllipse
 10
2.562788418718299
 20
-40.50699560054181
 30
0.0
 11
-0.8715629286474771
 21
0.07747942570497124
 31
0.0
210
0.0
220
0.0
230
0.9999999999999999
 40
0.1730567709032792
 41
4.727772013697163
 42
5.774969564893552
  0
ELLIPSE
  5
1C687
330
1F
100
AcDbEntity
  8
AM_0
100
AcDbEllipse
 10
2.562788418718299
 20
-40.50699560054181
 30
0.0
 11
-0.8715629286474771
 21
0.07747942570497124
 31
0.0
210
0.0
220
0.0
230
0.9999999999999999
 40
0.1730567709032792
 41
5.774969564893552
 42
6.82216711609035
  0
ELLIPSE
  5
1C688
330
1F
100
AcDbEntity
  8
AM_0
100
AcDbEllipse
 10
2.562788418718299
 20
-40.50699560054181
 30
0.0
 11
-0.8715629286474771
 21
0.07747942570497124
 31
0.0
210
0.0
220
0.0
230
0.9999999999999999
 40
0.1730567709032792
 41
0.5389818089107641
 42
1.58617936010737
  0
ELLIPSE
  5
1C689
330
1F
100
AcDbEntity
  8
AM_0
100
AcDbEllipse
 10
2.562788418718299
 20
-40.50699560054181
 30
0.0
 11
-0.8715629286474771
 21
0.07747942570497124
 31
0.0
210
0.0
220
0.0
230
0.9999999999999999
 40
0.1730567709032792
 41
1.58617936010737
 42
2.633376911303962
  0
ELLIPSE
  5
1C68A
330
1F
100
AcDbEntity
  8
AM_0
100
AcDbEllipse
 10
3.531326814207603
 20
-40.59049751585113
 30
0.0
 11
-0.3486251714589591
 21
0.03099177028198568
 31
0.0
210
0.0
220
0.0
230
1.0
 40
0.1730567709032792
 41
5.487533946204383
 42
7.109602734779788
  0
ELLIPSE
  5
1C68B
330
1F
100
AcDbEntity
  8
AM_0
100
AcDbEllipse
 10
3.18826452227546
 20
-40.62389364108188
 30
0.0
 11
-0.1494107877681025
 21
0.01328218726370882
 31
0.0
210
0.0
220
0.0
230
1.0
 40
0.1730567709032793
 41
2.63337691130669
 42
3.968010081192758
  0
ELLIPSE
  5
1C68C
330
1F
100
AcDbEntity
  8
AM_0
100
AcDbEllipse
 10
3.18826452227546
 20
-40.62389364108188
 30
0.0
 11
-0.1494107877681025
 21
0.01328218726370882
 31
0.0
210
0.0
220
0.0
230
1.0
 40
0.1730567709032793
 41
1.298743741420512
 42
2.63337691130669
  0
ELLIPSE
  5
1C68D
330
1F
100
AcDbEntity
  8
AM_0
100
AcDbEllipse
 10
3.047057616462951
 20
-40.69501542677458
 30
0.0
 11
-0.3486251714589591
 21
0.03099177028198568
 31
0.0
210
0.0
220
0.0
230
1.0
 40
0.1730567709032792
 41
4.440336395007581
 42
6.062405183583165
  0
ELLIPSE
  5
1C68E
330
1F
100
AcDbEntity
  8
AM_0
100
AcDbEllipse
 10
2.562788418718299
 20
-40.6329416410444
 30
0.0
 11
-0.1494107877681025
 21
0.01328218726370882
 31
0.0
210
0.0
220
0.0
230
1.0
 40
0.1730567709032793
 41
1.586179360110099
 42
2.920812529995955
  0
ELLIPSE
  5
1C68F
330
1F
100
AcDbEntity
  8
AM_0
100
AcDbEllipse
 10
2.562788418718299
 20
-40.6329416410444
 30
0.0
 11
-0.1494107877681025
 21
0.01328218726370882
 31
0.0
210
0.0
220
0.0
230
1.0
 40
0.1730567709032793
 41
0.2515461902240581
 42
1.586179360110099
  0
ELLIPSE
  5
1C690
330
1F
100
AcDbEntity
  8
AM_0
100
AcDbEllipse
 10
2.078519220973647
 20
-40.61151351146529
 30
0.0
 11
-0.3486251714589591
 21
0.03099177028198568
 31
0.0
210
0.0
220
0.0
230
1.0
 40
0.1730567709032792
 41
3.393138843811026
 42
5.015207632386334
  0
ELLIPSE
  5
1C691
330
1F
100
AcDbEntity
  8
AM_0
100
AcDbEllipse
 10
1.937312315161364
 20
-40.51604360050433
 30
0.0
 11
-0.1494107877681025
 21
0.01328218726370882
 31
0.0
210
0.0
220
0.0
230
1.0
 40
0.1730567709032793
 41
0.5389818089134937
 42
1.87361497879927
  0
ELLIPSE
  5
1C692
330
1F
100
AcDbEntity
  8
AM_0
100
AcDbEllipse
 10
1.937312315161364
 20
-40.51604360050433
 30
0.0
 11
-0.1494107877681025
 21
0.01328218726370882
 31
0.0
210
0.0
220
0.0
230
1.0
 40
0.1730567709032793
 41
5.487533946207027
 42
6.82216711609308
  0
ELLIPSE
  5
1C693
330
1F
100
AcDbEntity
  8
AM_0
100
AcDbEllipse
 10
1.594250023229222
 20
-40.42349368523253
 30
0.0
 11
-0.3486251714589591
 21
0.03099177028198568
 31
0.0
210
0.0
220
0.0
230
1.0
 40
0.1730567709032792
 41
2.345941292614446
 42
3.968010081189803
  0
ELLIPSE
  5
1C694
330
1F
100
AcDbEntity
  8
AM_0
100
AcDbEllipse
 10
1.937312315161364
 20
-40.39009756000175
 30
0.0
 11
-0.1494107877681025
 21
0.01328218726370882
 31
0.0
210
0.0
220
0.0
230
1.0
 40
0.1730567709032793
 41
5.77496956489628
 42
7.109602734782552
  0
ELLIPSE
  5
1C695
330
1F
100
AcDbEntity
  8
AM_0
100
AcDbEllipse
 10
1.937312315161364
 20
-40.39009756000175
 30
0.0
 11
-0.1494107877681025
 21
0.01328218726370882
 31
0.0
210
0.0
220
0.0
230
1.0
 40
0.1730567709032793
 41
4.44033639501072
 42
5.77496956489628
  0
ELLIPSE
  5
1C696
330
1F
100
AcDbEntity
  8
AM_0
100
AcDbEllipse
 10
2.078519220973874
 20
-40.31897577430905
 30
0.0
 11
-0.3486251714589591
 21
0.03099177028198568
 31
0.0
210
0.0
220
0.0
230
1.0
 40
0.1730567709032792
 41
1.298743741418044
 42
2.920812529993135
  0
ELLIPSE
  5
1C697
330
1F
100
AcDbEntity
  8
AM_0
100
AcDbEllipse
 10
2.562788418718412
 20
-40.38104956003926
 30
0.0
 11
-0.1494107877681025
 21
0.01328218726370882
 31
0.0
210
0.0
220
0.0
230
1.0
 40
0.1730567709032793
 41
4.727772013699893
 42
6.062405183585931
  0
ELLIPSE
  5
1C698
330
1F
100
AcDbEntity
  8
AM_0
100
AcDbEllipse
 10
2.562788418718412
 20
-40.38104956003926
 30
0.0
 11
-0.1494107877681025
 21
0.01328218726370882
 31
0.0
210
0.0
220
0.0
230
1.0
 40
0.1730567709032793
 41
3.39313884381385
 42
4.727772013699893
  0
ELLIPSE
  5
1C699
330
1F
100
AcDbEntity
  8
AM_0
100
AcDbEllipse
 10
3.047057616463064
 20
-40.40247768961837
 30
0.0
 11
-0.3486251714589591
 21
0.03099177028198568
 31
0.0
210
0.0
220
0.0
230
1.0
 40
0.1730567709032792
 41
0.2515461902212328
 42
1.873614978796696
  0
ELLIPSE
  5
1C69A
330
1F
100
AcDbEntity
  8
AM_0
100
AcDbEllipse
 10
3.18826452227546
 20
-40.4979476005793
 30
0.0
 11
-0.1494107877681025
 21
0.01328218726370882
 31
0.0
210
0.0
220
0.0
230
1.0
 40
0.1730567709032793
 41
3.680574462503199
 42
5.015207632389246
  0
ELLIPSE
  5
1C69B
330
1F
100
AcDbEntity
  8
AM_0
100
AcDbEllipse
 10
3.18826452227546
 20
-40.4979476005793
 30
0.0
 11
-0.1494107877681025
 21
0.01328218726370882
 31
0.0
210
0.0
220
0.0
230
1.0
 40
0.1730567709032793
 41
2.34594129261723
 42
3.680574462503198
  0
LINE
  5
1C69C
330
1F
100
AcDbEntity
  8
AM_0
100
AcDbLine
 10
1.913570569373007
 20
-40.3495935852757
 30
0.0
 11
1.817904117855107
 21
-40.35996629427731
 31
0.0
  0
LINE
  5
1C69D
330
1F
100
AcDbEntity
  8
AM_0
100
AcDbLine
 10
3.229591324433784
 20
-40.46658402734988
 30
0.0
 11
3.321927837924307
 21
-40.49366965664783
 31
0.0
  0
LINE
  5
1C69E
330
1F
100
AcDbEntity
  8
AM_0
100
AcDbLine
 10
3.182701642748668
 20
-40.55950574556911
 30
0.0
 11
3.17477413422256
 21
-40.64868196861173
 31
0.0
  0
LINE
  5
1C69F
330
1F
100
AcDbEntity
  8
AM_0
100
AcDbLine
 10
1.942875194688156
 20
-40.45448545551452
 30
0.0
 11
1.9351035715801
 21
-40.54190812978939
 31
0.0
  0
LINE
  5
1C6A0
330
1F
100
AcDbEntity
  8
AM_0
100
AcDbLine
 10
0.4530605626688953
 20
-39.43590287670455
 30
0.0
 11
0.407676159932123
 21
-39.58462895128233
 31
0.0
  0
LINE
  5
1C6A1
330
1F
100
AcDbEntity
  8
AM_0
100
AcDbLine
 10
0.4115725191775823
 20
-39.63097980856517
 30
0.0
 11
0.407676159932123
 21
-39.58462895128233
 31
0.0
  0
LINE
  5
1C6A2
330
1F
100
AcDbEntity
  8
AM_0
100
AcDbLine
 10
1.905394113400291
 20
-42.28267518940103
 30
0.0
 11
2.026534010028115
 21
-40.97263396726706
 31
0.0
  0
LINE
  5
1C6A3
330
1F
100
AcDbEntity
  8
AM_0
100
AcDbLine
 10
2.026534010028115
 20
-40.97263396726706
 30
0.0
 11
2.026534010028115
 21
-41.0255110462775
 31
0.0
  0
ELLIPSE
  5
1C6A4
330
1F
100
AcDbEntity
  8
AM_0
100
AcDbEllipse
 10
9.673586353897747
 20
-40.95570964599065
 30
0.0
 11
-48.54616669047706
 21
4.186337681763693
 31
0.0
210
0.0
220
0.0
230
1.0
 40
0.0150960476958864
 41
4.853299630555865
 42
4.904784655371589
  0
ELLIPSE
  5
1C6A5
330
1F
100
AcDbEntity
  8
AM_0
100
AcDbEllipse
 10
6.900349268903426
 20
-40.92017456984667
 30
0.0
 11
-0.1992143836908338
 21
0.01770958301827756
 31
0.0
210
0.0
220
0.0
230
1.0
 40
0.1730567709032793
 41
2.057974862352839
 42
4.152369964746015
  0
LINE
  5
1C6A6
330
1F
100
AcDbEntity
  8
AM_0
100
AcDbLine
 10
7.095437260932442
 20
-40.95244978840876
 30
0.0
 11
7.099342751907273
 21
-40.93905129864979
 31
0.0
  0
LINE
  5
1C6A7
330
1F
100
AcDbEntity
  8
AM_0
100
AcDbLine
 10
6.280916246897903
 20
-40.96088943374949
 30
0.0
 11
6.990900204146499
 21
-40.95892947107606
 31
0.0
  0
LINE
  5
1C6A8
330
1F
100
AcDbEntity
  8
AM_0
100
AcDbLine
 10
6.623588776916392
 20
-40.53745556097064
 30
0.0
 11
6.598594429868683
 21
-40.8186159608359
 31
0.0
  0
LINE
  5
1C6A9
330
1F
100
AcDbEntity
  8
AM_0
100
AcDbLine
 10
4.958213954229507
 20
-40.491436677606
 30
0.0
 11
4.958115774145369
 21
-40.49163226272398
 31
0.0
  0
ELLIPSE
  5
1C6AA
330
1F
100
AcDbEntity
  8
AM_0
100
AcDbEllipse
 10
7.748961593634419
 20
-31.52790293736925
 30
0.0
 11
-6.363793900123909
 21
-7.875520472948515
 31
0.0
210
0.0
220
0.0
230
1.0
 40
0.8161060390387671
 41
0.5855880927974947
 42
0.6122756346564631
  0
ELLIPSE
  5
1C6AB
330
1F
100
AcDbEntity
  8
AM_0
100
AcDbEllipse
 10
6.800514792973956
 20
-31.12153095778459
 30
0.0
 11
11.46431553647457
 21
-1.288424687527016
 31
0.0
210
0.0
220
0.0
230
1.0
 40
0.8536736599895279
 41
4.758927123559626
 42
4.782986758790656
  0
ELLIPSE
  5
1C6AC
330
1F
100
AcDbEntity
  8
AM_0
100
AcDbEllipse
 10
5.756399008518258
 20
-30.6741685986629
 30
0.0
 11
11.46431553647457
 21
-1.288424687527017
 31
0.0
210
0.0
220
0.0
230
1.0
 40
0.8536736599895282
 41
4.738676103350286
 42
4.883405021005599
  0
ELLIPSE
  5
1C6AD
330
1F
100
AcDbEntity
  8
AM_0
100
AcDbEllipse
 10
3.96634725188909
 20
-29.90720214846894
 30
0.0
 11
16.37877076844167
 21
-5.895862697209484
 31
0.0
210
0.0
220
0.0
230
0.9999999999999999
 40
0.572403974578694
 41
4.968503629350304
 42
4.974940150999935
  0
LINE
  5
1C6AE
330
1F
100
AcDbEntity
  8
AM_0
100
AcDbLine
 10
14.17435631612869
 20
-37.45570964599065
 30
0.0
 11
16.28676914741214
 21
-37.45570964599065
 31
0.0
  0
LINE
  5
1C6AF
330
1F
100
AcDbEntity
  8
AM_0
100
AcDbLine
 10
13.00000000000006
 20
-44.45570964599065
 30
0.0
 11
18.00000000000006
 21
-44.45570964599065
 31
0.0
  0
SPLINE
  5
1C6B0
330
1F
100
AcDbEntity
  8
AM_0
100
AcDbSpline
210
0.0
220
0.0
230
1.0
 70
     8
 71
     3
 72
    20
 73
    16
 74
     0
 42
0.0000000001
 43
0.0000000001
 40
4.602643980254344
 40
4.602643980254344
 40
4.602643980254344
 40
4.602643980254344
 40
4.77997780433639
 40
4.77997780433639
 40
5.310088869021994
 40
5.310088869021994
 40
5.840199933707599
 40
5.840199933707599
 40
6.531143801784916
 40
6.531143801784916
 40
7.222087669862232
 40
7.222087669862232
 40
7.913031537939547
 40
7.913031537939547
 40
8.603975406016863
 40
8.603975406016863
 40
8.603975406016863
 40
8.603975406016863
 10
16.76039342970597
 20
-37.97725953233115
 30
0.0
 10
16.7666912643802
 20
-38.01444879166542
 30
0.0
 10
16.76968643854906
 20
-38.05246000101496
 30
0.0
 10
16.76968643854906
 20
-38.20460329164899
 30
0.0
 10
16.74130213199663
 20
-38.33733697250054
 30
0.0
 10
16.6258850865168
 20
-38.60836912420618
 30
0.0
 10
16.53901232930224
 20
-38.7464295422761
 30
0.0
 10
16.31358763186557
 20
-39.02798668184053
 30
0.0
 10
16.15590889463221
 20
-39.1781971481129
 30
0.0
 10
15.79646285736664
 20
-39.44651369087345
 30
0.0
 10
15.59455851958973
 20
-39.56445943181322
 30
0.0
 10
15.16351138762371
 20
-39.75613615315777
 30
0.0
 10
14.93411359143346
 20
-39.82985736138167
 30
0.0
 10
14.46751982210304
 20
-39.92716590301308
 30
0.0
 10
14.23031462269245
 20
-39.9507007860872
 30
0.0
 10
14.00000000000006
 20
-39.9507007860872
 30
0.0
  0
LINE
  5
1C6B1
330
1F
100
AcDbEntity
  8
AM_0
100
AcDbLine
 10
13.00000000000006
 20
-40.2984232150171
 30
0.0
 11
13.00000000000006
 21
-44.45570964599065
 31
0.0
  0
SPLINE
  5
1C6B2
330
1F
100
AcDbEntity
  8
AM_0
100
AcDbSpline
210
0.0
220
0.0
230
1.0
 70
     8
 71
     3
 72
    21
 73
    17
 74
     0
 42
0.0000000001
 43
0.0000000001
 40
-0.3748097491711014
 40
-0.3748097491711014
 40
-0.3748097491711014
 40
-0.3748097491711014
 40
0.0
 40
0.0
 40
0.0
 40
0.4110304156803525
 40
0.4110304156803525
 40
0.822060831360705
 40
0.822060831360705
 40
1.233091247041057
 40
1.233091247041057
 40
1.64412166272141
 40
1.64412166272141
 40
2.120339517716445
 40
2.120339517716445
 40
2.546694830086352
 40
2.546694830086352
 40
2.546694830086352
 40
2.546694830086352
 10
12.55075697338049
 20
-40.57639390424313
 30
0.0
 10
12.57747089492062
 20
-40.70303074007452
 30
0.0
 10
12.59055427877269
 20
-40.83077306293362
 30
0.0
 10
12.59055427877269
 20
-40.95570964599065
 30
0.0
 10
12.59055427877269
 20
-41.09271978455078
 30
0.0
 10
12.57477329666489
 20
-41.23309353999102
 30
0.0
 10
12.51049944888331
 20
-41.51031835263677
 30
0.0
 10
12.46203063211266
 20
-41.6471762461
 30
0.0
 10
12.33755109318298
 20
-41.90869003097922
 30
0.0
 10
12.26146127794158
 20
-42.03362014817768
 30
0.0
 10
12.09116038726558
 20
-42.26567708988421
 30
0.0
 10
11.99698384584548
 20
-42.37283443235958
 30
0.0
 10
11.78818343466088
 20
-42.5809472260747
 30
0.0
 10
11.65611491643341
 20
-42.69384586490827
 30
0.0
 10
11.39094319703594
 20
-42.88854909812577
 30
0.0
 10
11.25954632637553
 20
-42.97259821446141
 30
0.0
 10
11.13397459621564
 20
-43.04477562333565
 30
0.0
  0
SPLINE
  5
1C6B3
330
1F
100
AcDbEntity
  8
AM_0
100
AcDbSpline
210
0.0
220
0.0
230
1.0
 70
     8
 71
     3
 72
    22
 73
    18
 74
     0
 42
0.0000000001
 43
0.0000000001
 40
3.700710719376348
 40
3.700710719376348
 40
3.700710719376348
 40
3.700710719376348
 40
3.83279940348097
 40
3.83279940348097
 40
4.614902908660102
 40
4.614902908660102
 40
5.397006413839234
 40
5.397006413839234
 40
5.800619528769826
 40
5.800619528769826
 40
6.204232643700416
 40
6.204232643700416
 40
6.569574184515797
 40
6.569574184515797
 40
6.934915725331178
 40
6.934915725331178
 40
7.096491565506342
 40
7.096491565506342
 40
7.096491565506342
 40
7.096491565506342
 10
11.13397459621564
 20
-43.04477562333565
 30
0.0
 10
11.08873856912254
 20
-43.04611795262829
 30
0.0
 10
11.04402956136818
 20
-43.0467620126233
 30
0.0
 10
10.73929883160696
 20
-43.0467620126233
 30
0.0
 10
10.45482690326247
 20
-43.02313190742848
 30
0.0
 10
9.901094810667871
 20
-42.91685726113789
 30
0.0
 10
9.631891673567736
 20
-42.8338222477316
 30
0.0
 10
9.276937398830285
 20
-42.67584682848698
 30
0.0
 10
9.148526399778859
 20
-42.6088560820148
 30
0.0
 10
8.905919025873402
 20
-42.4542317013042
 30
0.0
 10
8.791806592177352
 20
-42.36641728302271
 30
0.0
 10
8.607582883700218
 20
-42.19704054322611
 30
0.0
 10
8.523191840172956
 20
-42.10607707757313
 30
0.0
 10
8.371874116469201
 20
-41.9063818477976
 30
0.0
 10
8.304956848084487
 20
-41.79763162187649
 30
0.0
 10
8.226493598305467
 20
-41.63230615015837
 30
0.0
 10
8.20482861972522
 20
-41.58042277968505
 30
0.0
 10
8.185770228754507
 20
-41.52769009149267
 30
0.0
  0
LINE
  5
1C6B4
330
1F
100
AcDbEntity
  8
AM_0
100
AcDbLine
 10
13.00000000000006
 20
-44.70570964599065
 30
0.0
 11
11.13397459621564
 21
-45.20570964599065
 31
0.0
  0
LINE
  5
1C6B5
330
1F
100
AcDbEntity
  8
AM_0
100
AcDbLine
 10
11.13397459621564
 20
-43.04477562333565
 30
0.0
 11
11.13397459621564
 21
-45.20570964599065
 31
0.0
  0
LINE
  5
1C6B6
330
1F
100
AcDbEntity
  8
AM_0
100
AcDbLine
 10
13.00000000000006
 20
-44.45570964599065
 30
0.0
 11
13.00000000000006
 21
-44.70570964599065
 31
0.0
  0
ARC
  5
1C6B7
330
1F
100
AcDbEntity
  8
AM_0
100
AcDbCircle
 10
6.575251392759071
 20
-23.64794826409636
 30
0.0
 40
17.95212908641874
100
AcDbArc
 50
275.1470306529242
 51
289.4423223335023
  0
ARC
  5
1C6B8
330
1F
100
AcDbEntity
  8
AM_0
100
AcDbCircle
 10
14.96616193511676
 20
-48.90606927780064
 30
0.0
 40
11.67501100279483
100
AcDbArc
 50
101.2580294689875
 51
107.2965313499184
  0
ARC
  5
1C6B9
330
1F
100
AcDbEntity
  8
AM_0
100
AcDbCircle
 10
8.7140551415186
 20
-35.03261252479445
 30
0.0
 40
3.923067576521877
100
AcDbArc
 50
266.2091258700902
 51
274.1798859363431
  0
LINE
  5
1C6BA
330
1F
100
AcDbEntity
  8
AM_0
100
AcDbLine
 10
8.454681633622556
 20
-38.94709647460942
 30
0.0
 11
8.96997370868479
 21
-38.94709647460942
 31
0.0
  0
ARC
  5
1C6BB
330
1F
100
AcDbEntity
  8
AM_0
100
AcDbCircle
 10
8.539799537739498
 20
-34.76036296711121
 30
0.0
 40
4.210109747505721
100
AcDbArc
 50
276.2754508019662
 51
314.5816711760429
  0
LINE
  5
1C6BC
330
1F
100
AcDbEntity
  8
AM_0
100
AcDbLine
 10
14.00000000000006
 20
-39.9507007860872
 30
0.0
 11
13.57746034155292
 21
-39.9507007860872
 31
0.0
  0
LINE
  5
1C6BD
330
1F
100
AcDbEntity
  8
AM_0
100
AcDbLine
 10
14.17435631612869
 20
-37.45570964599065
 30
0.0
 11
12.68687559558026
 21
-37.45570964599065
 31
0.0
  0
SPLINE
  5
1C6BE
330
1F
100
AcDbEntity
  8
AM_0
100
AcDbSpline
210
0.0
220
0.0
230
1.0
 70
     8
 71
     3
 72
     8
 73
     4
 74
     0
 42
0.0000000001
 43
0.0000000001
 40
5.852885314483533
 40
5.852885314483533
 40
5.852885314483533
 40
5.852885314483533
 40
6.144290745364564
 40
6.144290745364564
 40
6.144290745364564
 40
6.144290745364564
 10
14.00000000000006
 20
-37.69963493789899
 30
0.0
 10
14.05733695629027
 20
-37.61785814023213
 30
0.0
 10
14.11584424419283
 20
-37.53608799481921
 30
0.0
 10
14.17435631612869
 20
-37.45570964599065
 30
0.0
  0
ARC
  5
1C6BF
330
1F
100
AcDbEntity
  8
AM_0
100
AcDbCircle
 10
28.54562511824287
 20
-48.26480329198385
 30
0.0
 40
17.97770820851799
100
AcDbArc
 50
144.0073403497096
 51
148.720672904097
  0
SPLINE
  5
1C6C0
330
1F
100
AcDbEntity
  8
AM_0
100
AcDbSpline
210
0.0
220
0.0
230
1.0
 70
     8
 71
     3
 72
    18
 73
    14
 74
     0
 42
0.0000000001
 43
0.0000000001
 40
1.848571244101434
 40
1.848571244101434
 40
1.848571244101434
 40
1.848571244101434
 40
2.529988410144211
 40
2.529988410144211
 40
3.054527147290727
 40
3.054527147290727
 40
3.316796515863984
 40
3.316796515863984
 40
3.579065884437242
 40
3.579065884437242
 40
4.150443031769627
 40
4.150443031769627
 40
4.469560495702257
 40
4.469560495702257
 40
4.469560495702257
 40
4.469560495702257
 10
13.57746034155292
 20
-39.9507007860872
 30
0.0
 10
13.42806094705446
 20
-39.94083790396707
 30
0.0
 10
13.29683828242224
 20
-39.91611776877903
 30
0.0
 10
13.11503612959808
 20
-39.83822272955865
 30
0.0
 10
13.04627883595919
 20
-39.7885763384437
 30
0.0
 10
12.98479870691432
 20
-39.68958762787594
 30
0.0
 10
12.97093249076232
 20
-39.65262166559208
 30
0.0
 10
12.95657741953636
 20
-39.57295104140044
 30
0.0
 10
12.95606537118221
 20
-39.53024687485296
 30
0.0
 10
12.97098004943706
 20
-39.39147732709242
 30
0.0
 10
13.00884959758076
 20
-39.27548631141249
 30
0.0
 10
13.10020616149808
 20
-39.07847164254017
 30
0.0
 10
13.13904776632393
 20
-39.00472352213836
 30
0.0
 10
13.18104471173587
 20
-38.93058338014365
 30
0.0
  0
ARC
  5
1C6C1
330
1F
100
AcDbEntity
  8
AM_0
100
AcDbCircle
 10
9.940817916324079
 20
-34.5647062273863
 30
0.0
 40
6.498777232320679
100
AcDbArc
 50
298.0818195317112
 51
304.0273596789031
  0
ARC
  5
1C6C2
330
1F
100
AcDbEntity
  8
AM_0
100
AcDbCircle
 10
9.33521261518041
 20
-34.87757585750856
 30
0.0
 40
6.543412920589699
100
AcDbArc
 50
299.4337596027846
 51
304.060830264786
  0
LINE
  5
1C6C3
330
1F
100
AcDbEntity
  8
AM_0
100
AcDbLine
 10
18.25000000000006
 20
-37.45570964599065
 30
0.0
 11
18.25000000000006
 21
-44.45570964599065
 31
0.0
  0
LINE
  5
1C6C4
330
1F
100
AcDbEntity
  8
AM_0
100
AcDbLine
 10
18.00000000000006
 20
-37.45570964599065
 30
0.0
 11
18.00000000000006
 21
-44.45570964599065
 31
0.0
  0
LINE
  5
1C6C5
330
1F
100
AcDbEntity
  8
AM_0
100
AcDbLine
 10
18.00000000000006
 20
-44.45570964599065
 30
0.0
 11
18.25000000000006
 21
-44.45570964599065
 31
0.0
  0
LINE
  5
1C6C6
330
1F
100
AcDbEntity
  8
AM_0
100
AcDbLine
 10
18.00000000000006
 20
-37.45570964599065
 30
0.0
 11
18.25000000000006
 21
-37.45570964599065
 31
0.0
  0
LINE
  5
1C6C7
330
1F
100
AcDbEntity
  8
AM_0
100
AcDbLine
 10
18.00000000000006
 20
-37.45570964599065
 30
0.0
 11
16.28676914741214
 21
-37.45570964599065
 31
0.0
  0
ARC
  5
1C6C8
330
1F
100
AcDbEntity
  8
AM_0
100
AcDbCircle
 10
16.06832094370526
 20
-38.12991072486798
 30
0.0
 40
0.7087077764933367
100
AcDbArc
 50
12.43862602974591
 51
72.04713316066223
  0
LINE
  5
1C6C9
330
1F
100
AcDbEntity
  8
AM_0
100
AcDbLine
 10
10.69295692118027
 20
9.249999999999965
 30
0.0
 11
0.6164583936946997
 21
9.249999999999972
 31
0.0
  0
ARC
  5
1C6CA
330
1F
100
AcDbEntity
  8
AM_0
100
AcDbCircle
 10
6.596857813883332
 20
4.072865476202622
 30
0.0
 40
0.977538909237666
100
AcDbArc
 50
265.0225796662369
 51
88.43304211419905
  0
ARC
  5
1C6CB
330
1F
100
AcDbEntity
  8
AM_0
100
AcDbCircle
 10
4.081397578710551
 20
-21.07400375616797
 30
0.0
 40
30.13838202996544
100
AcDbArc
 50
81.65653644040451
 51
92.21208186699569
  0
SPLINE
  5
1C6CC
330
1F
100
AcDbEntity
  8
AM_0
100
AcDbSpline
210
0.0
220
0.0
230
1.0
 70
     8
 71
     3
 72
     8
 73
     4
 74
     0
 42
0.0000000001
 43
0.0000000001
 40
34.44350592925657
 40
34.44350592925657
 40
34.44350592925657
 40
34.44350592925657
 40
35.39134623440595
 40
35.39134623440595
 40
35.39134623440595
 40
35.39134623440595
 10
8.185770228754507
 20
0.7886654882347486
 30
0.0
 10
7.867489454960889
 20
0.788249999581403
 30
0.0
 10
7.540359581159066
 20
0.7861219765991834
 30
0.0
 10
7.208793963564574
 20
0.7825326643148785
 30
0.0
  0
ARC
  5
1C6CD
330
1F
100
AcDbEntity
  8
AM_0
100
AcDbCircle
 10
-35.82671133632181
 20
5.124999999999972
 30
0.0
 40
4.25
100
AcDbArc
 50
69.04702551221752
 51
238.9680585962309
  0
LINE
  5
1C6CE
330
1F
100
AcDbEntity
  8
AM_0
100
AcDbLine
 10
-36.96980298370175
 20
7.584570879714335
 30
0.0
 11
-38.09255325604653
 21
1.047142851366516
 31
0.0
  0
LINE
  5
1C6CF
330
1F
100
AcDbEntity
  8
AM_0
100
AcDbLine
 10
-36.81908094736656
 20
0.3750265090340861
 30
0.0
 11
-38.09255325604653
 21
1.047142851366516
 31
0.0
  0
LINE
  5
1C6D0
330
1F
100
AcDbEntity
  8
AM_0
100
AcDbLine
 10
-38.05652657927902
 20
1.256915061865271
 30
0.0
 11
-36.93220471542128
 21
7.803493982142896
 31
0.0
  0
LINE
  5
1C6D1
330
1F
100
AcDbEntity
  8
AM_0
100
AcDbLine
 10
-38.09255325604653
 20
1.047142851366516
 30
0.0
 11
-38.09132358805135
 21
1.528608565615116
 31
0.0
  0
LINE
  5
1C6D2
330
1F
100
AcDbEntity
  8
AM_0
100
AcDbLine
 10
-34.5141872803427
 20
7.637006476613237
 30
0.0
 11
-35.79072200463924
 21
0.2041390871912938
 31
0.0
  0
LINE
  5
1C6D3
330
1F
100
AcDbEntity
  8
AM_0
100
AcDbLine
 10
-32.32671133632181
 20
4.67456711755807
 30
0.0
 11
-32.32671133632181
 21
3.778708798216343
 31
0.0
  0
ARC
  5
1C6D4
330
1F
100
AcDbEntity
  8
AM_0
100
AcDbCircle
 10
-31.32657225289546
 20
1.324785085449122
 30
0.0
 40
3.500250314780985
100
AcDbArc
 50
110.8192821154728
 51
134.9991222799311
  0
ARC
  5
1C6D5
330
1F
100
AcDbEntity
  8
AM_0
100
AcDbCircle
 10
-35.82671133632181
 20
5.124999999999972
 30
0.0
 40
4.0
100
AcDbArc
 50
272.7936480536882
 51
331.0449756281407
  0
ARC
  5
1C6D6
330
1F
100
AcDbEntity
  8
AM_0
100
AcDbCircle
 10
-35.82666678622405
 20
5.124934113394204
 30
0.0
 40
3.749924584194875
100
AcDbArc
 50
285.5450443109723
 51
322.5851767340607
  0
ARC
  5
1C6D7
330
1F
100
AcDbEntity
  8
AM_0
100
AcDbCircle
 10
-31.32654372964117
 20
1.324925261583246
 30
0.0
 40
3.50017136447778
100
AcDbArc
 50
135.0010749435392
 51
176.933258914882
  0
ELLIPSE
  5
1C6D8
330
1F
100
AcDbEntity
  8
AM_0
100
AcDbEllipse
 10
-35.80967516836887
 20
0.1969665278858201
 30
0.0
 11
0.03474373531105451
 21
0.1969590639108426
 31
0.0
210
0.0
220
0.0
230
1.0
 40
0.0872118909460691
 41
3.124574718977345
 42
4.764192253737574
  0
LINE
  5
1C6D9
330
1F
100
AcDbEntity
  8
AM_0
100
AcDbLine
 10
-36.81908094736656
 20
0.3750265090340861
 30
0.0
 11
-35.84470617862024
 21
0.000087546944286
 31
0.0
  0
SPLINE
  5
1C6DA
330
1F
100
AcDbEntity
  8
AM_0
100
AcDbSpline
210
0.0
220
0.0
230
1.0
 70
     8
 71
     3
 72
     8
 73
     4
 74
     0
 42
0.0000000001
 43
0.0000000001
 40
-0.3748097491711014
 40
-0.3748097491711014
 40
-0.3748097491711014
 40
-0.3748097491711014
 40
-0.2166331670130989
 40
-0.2166331670130989
 40
-0.2166331670130989
 40
-0.2166331670130989
 10
-35.44739559465307
 20
1.273257947511809
 30
0.0
 10
-35.50083865983197
 20
1.271030336136477
 30
0.0
 10
-35.55447861167397
 20
1.269263707377633
 30
0.0
 10
-35.60801959648444
 20
1.267958774764594
 30
0.0
  0
ARC
  5
1C6DB
330
1F
100
AcDbEntity
  8
AM_0
100
AcDbCircle
 10
-35.82641768894069
 20
5.123709600314271
 30
0.0
 40
3.748678107723058
100
AcDbArc
 50
280.0937804437546
 51
285.5463920639452
  0
SPLINE
  5
1C6DC
330
1F
100
AcDbEntity
  8
AM_0
100
AcDbSpline
210
0.0
220
0.0
230
1.0
 70
     8
 71
     3
 72
    10
 73
     6
 74
     0
 42
0.0000000001
 43
0.0000000001
 40
12.07505277686973
 40
12.07505277686973
 40
12.07505277686973
 40
12.07505277686973
 40
12.230354756656
 40
12.230354756656
 40
12.62006946042749
 40
12.62006946042749
 40
12.62006946042749
 40
12.62006946042749
 10
-35.16942490534819
 20
1.433052743109897
 30
0.0
 10
-35.19788376605465
 20
1.416553962930834
 30
0.0
 10
-35.22550405569899
 20
1.400620478564235
 30
0.0
 10
-35.31930035785837
 20
1.346652521752844
 30
0.0
 10
-35.38444090804416
 20
1.309434459606507
 30
0.0
 10
-35.44739559457429
 20
1.273257947533494
 30
0.0
  0
ARC
  5
1C6DD
330
1F
100
AcDbEntity
  8
AM_0
100
AcDbCircle
 10
-36.13023411740193
 20
0.1295961354933866
 30
0.0
 40
1.33200254813256
100
AcDbArc
 50
59.16012373827511
 51
66.26583426992841
  0
LINE
  5
1C6DE
330
1F
100
AcDbEntity
  8
AM_0
100
AcDbLine
 10
-32.32671133632181
 20
3.778708798216343
 30
0.0
 11
-32.32671133632181
 21
3.188508326896255
 31
0.0
  0
ARC
  5
1C6DF
330
1F
100
AcDbEntity
  8
AM_0
100
AcDbCircle
 10
-35.8364959398653
 20
5.130474558898641
 30
0.0
 40
3.761098062404666
100
AcDbArc
 50
322.6091161830744
 51
338.9362047776326
  0
SPLINE
  5
1C6E0
330
1F
100
AcDbEntity
  8
AM_0
100
AcDbSpline
210
0.0
220
0.0
230
1.0
 70
     8
 71
     3
 72
    18
 73
    14
 74
     0
 42
0.0000000001
 43
0.0000000001
 40
4.874660000268617
 40
4.874660000268617
 40
4.874660000268617
 40
4.874660000268617
 40
5.535422748433737
 40
5.535422748433737
 40
6.222679486923235
 40
6.222679486923235
 40
6.615988164592455
 40
6.615988164592455
 40
7.009296842261676
 40
7.009296842261676
 40
7.405991162820892
 40
7.405991162820892
 40
7.689521402906952
 40
7.689521402906952
 40
7.689521402906952
 40
7.689521402906952
 10
-32.63001796543534
 20
7.776563671751887
 30
0.0
 10
-32.78177938473749
 20
7.731813084538999
 30
0.0
 10
-32.93524633648059
 20
7.701559521968278
 30
0.0
 10
-33.21487051393848
 20
7.68618757792558
 30
0.0
 10
-33.3397085969662
 20
7.703199773020913
 30
0.0
 10
-33.49405374889278
 20
7.762166318540949
 30
0.0
 10
-33.54959224087469
 20
7.793452069261321
 30
0.0
 10
-33.64526417391852
 20
7.875526827159888
 30
0.0
 10
-33.68542047983038
 20
7.926427061558343
 30
0.0
 10
-33.74656423129449
 20
8.03578509911415
 30
0.0
 10
-33.77178148715376
 20
8.101207642487054
 30
0.0
 10
-33.8023077172391
 20
8.231088160599086
 30
0.0
 10
-33.81128077030468
 20
8.290475756589444
 30
0.0
 10
-33.81624692825693
 20
8.354553420027798
 30
0.0
  0
ARC
  5
1C6E1
330
1F
100
AcDbEntity
  8
AM_0
100
AcDbCircle
 10
-35.82373717067725
 20
5.129385042613706
 30
0.0
 40
4.244729998092864
100
AcDbArc
 50
49.90240924921034
 51
61.80323778962256
  0
ELLIPSE
  5
1C6E2
330
1F
100
AcDbEntity
  8
AM_0
100
AcDbEllipse
 10
-34.53314044407222
 20
7.629833917307991
 30
0.0
 11
0.03474373531105451
 21
0.1969590639108426
 31
0.0
210
0.0
220
0.0
230
1.0
 40
0.0872118909460691
 41
4.764192253736558
 42
6.300203241792032
  0
LINE
  5
1C6E3
330
1F
100
AcDbEntity
  8
AM_0
100
AcDbLine
 10
-35.54254622306991
 20
7.807893898456257
 30
0.0
 11
-34.4986940455953
 21
7.826816024230851
 31
0.0
  0
LINE
  5
1C6E4
330
1F
100
AcDbEntity
  8
AM_0
100
AcDbLine
 10
-35.54254622306991
 20
7.807893898456285
 30
0.0
 11
-36.96980298370175
 21
7.584570879714335
 31
0.0
  0
LINE
  5
1C6E5
330
1F
100
AcDbEntity
  8
AM_0
100
AcDbLine
 10
-34.45563064161348
 20
7.977963696311747
 30
0.0
 11
-34.50378717653388
 21
7.82672369998582
 31
0.0
  0
LINE
  5
1C6E6
330
1F
100
AcDbEntity
  8
AM_0
100
AcDbLine
 10
-34.3069045670357
 20
9.093965530718549
 30
0.0
 11
-34.45563064161348
 21
7.977963696311775
 31
0.0
  0
LINE
  5
1C6E7
330
1F
100
AcDbEntity
  8
AM_0
100
AcDbLine
 10
-35.92296667657962
 20
7.748369469206892
 30
0.0
 11
-34.45563064161348
 21
7.977963696311775
 31
0.0
  0
LINE
  5
1C6E8
330
1F
100
AcDbEntity
  8
AM_0
100
AcDbLine
 10
-36.93220471542128
 20
7.803493982142896
 30
0.0
 11
-35.92296667657962
 21
7.748369469206892
 31
0.0
  0
ARC
  5
1C6E9
330
1F
100
AcDbEntity
  8
AM_0
100
AcDbCircle
 10
-35.82523685870154
 20
5.128223723384906
 30
0.0
 40
4.246462178137126
100
AcDbArc
 50
61.79280807265025
 51
69.05005012019768
  0
ARC
  5
1C6EA
330
1F
100
AcDbEntity
  8
AM_0
100
AcDbCircle
 10
-30.33648490619731
 20
8.624964924811366
 30
0.0
 40
3.490253015482882
100
AcDbArc
 50
175.967730411805
 51
184.4435116748533
  0
ARC
  5
1C6EB
330
1F
100
AcDbEntity
  8
AM_0
100
AcDbCircle
 10
-35.82671133632181
 20
5.124999999999972
 30
0.0
 40
4.0
100
AcDbArc
 50
28.95502437185925
 51
32.89644438484108
  0
LINE
  5
1C6EC
330
1F
100
AcDbEntity
  8
AM_0
100
AcDbLine
 10
-32.32671133632181
 20
7.061491673103689
 30
0.0
 11
-32.32671133632181
 21
6.689864270435038
 31
0.0
  0
LINE
  5
1C6ED
330
1F
100
AcDbEntity
  8
AM_0
100
AcDbLine
 10
-32.32671133632181
 20
4.67456711755807
 30
0.0
 11
-32.32671133632181
 21
6.689864270435123
 31
0.0
  0
SPLINE
  5
1C6EE
330
1F
100
AcDbEntity
  8
AM_0
100
AcDbSpline
210
0.0
220
0.0
230
1.0
 70
     8
 71
     3
 72
     8
 73
     4
 74
     0
 42
0.0000000001
 43
0.0000000001
 40
5.852885314483533
 40
5.852885314483533
 40
5.852885314483533
 40
5.852885314483533
 40
6.144290745364564
 40
6.144290745364564
 40
6.144290745364564
 40
6.144290745364564
 10
-32.57063662823015
 20
4.596490465850536
 30
0.0
 10
-32.48885983056329
 20
4.627584619408651
 30
0.0
 10
-32.40708968515042
 20
4.653616231352828
 30
0.0
 10
-32.32671133632181
 20
4.67456711755807
 30
0.0
  0
ARC
  5
1C6EF
330
1F
100
AcDbEntity
  8
AM_0
100
AcDbCircle
 10
-38.02549738123122
 20
5.684964172069101
 30
0.0
 40
5.786707750815638
100
AcDbArc
 50
10.00049106617609
 51
21.18920832447444
  0
ARC
  5
1C6F0
330
1F
100
AcDbEntity
  8
AM_0
100
AcDbCircle
 10
-43.64905664429631
 20
-0.1927445659999805
 30
0.0
 40
13.59886345230855
100
AcDbArc
 50
35.8756128734365
 51
39.06013521723558
  0
ELLIPSE
  5
1C6F1
330
1F
100
AcDbEntity
  8
AM_0
100
AcDbEllipse
 10
6.355271484070102
 20
4.497362560030808
 30
0.0
 11
0.8930119233778454
 21
0.4500330040174844
 31
0.0
210
0.0
220
0.0
230
1.0
 40
0.9810430368348483
 41
5.030942551882242
 42
6.025789717144487
  0
LINE
  5
1C6F3
330
1F
100
AcDbEntity
  8
AM_0
100
AcDbLine
 10
0.3898073492171648
 20
7.637022318907526
 30
0.0
 11
0.0002672756322113
 21
0.2041549294855827
 31
0.0
  0
LINE
  5
1C6F4
330
1F
100
AcDbEntity
  8
AM_0
100
AcDbLine
 10
7.008769014861343
 20
3.845765705799003
 30
0.0
 11
0.6971977763762993
 21
7.796742089798698
 31
0.0
  0
ELLIPSE
  5
1C6F5
330
1F
100
AcDbEntity
  8
AM_0
100
AcDbEllipse
 10
2.562788418718299
 20
3.835235168461708
 30
0.0
 11
0.7813854329556867
 21
0.3937788785153333
 31
0.0
210
0.0
220
0.0
230
1.0
 40
0.9810430368348481
 41
0.0644442086492853
 42
1.111641759845982
  0
ELLIPSE
  5
1C6F6
330
1F
100
AcDbEntity
  8
AM_0
100
AcDbEllipse
 10
2.562788418718299
 20
3.835235168461708
 30
0.0
 11
0.7813854329556867
 21
0.3937788785153333
 31
0.0
210
0.0
220
0.0
230
1.0
 40
0.9810430368348481
 41
1.111641759845982
 42
2.158839311042371
  0
ELLIPSE
  5
1C6F7
330
1F
100
AcDbEntity
  8
AM_0
100
AcDbEllipse
 10
2.078519220973874
 20
4.657055130246391
 30
0.0
 11
0.3125541731822462
 21
0.157511551406119
 31
0.0
210
0.0
220
0.0
230
0.9999999999999999
 40
0.9810430368348483
 41
3.965798794746449
 42
5.58786758332154
  0
ELLIPSE
  5
1C6F8
330
1F
100
AcDbEntity
  8
AM_0
100
AcDbEllipse
 10
3.047057616463064
 20
4.67178493442924
 30
0.0
 11
0.3125541731822462
 21
0.157511551406119
 31
0.0
210
0.0
220
0.0
230
0.9999999999999999
 40
0.9810430368348483
 41
2.918601243549639
 42
4.540670032125101
  0
ELLIPSE
  5
1C6F9
330
1F
100
AcDbEntity
  8
AM_0
100
AcDbEllipse
 10
3.18826452227546
 20
4.201735888209669
 30
0.0
 11
-0.1339517885066567
 21
-0.0675049506026122
 31
0.0
210
0.0
220
0.0
230
1.0
 40
0.9810430368348481
 41
3.206036862239082
 42
4.540670032125129
  0
ELLIPSE
  5
1C6FB
330
1F
100
AcDbEntity
  8
AM_0
100
AcDbEllipse
 10
9.673586353897747
 20
4.999999999999965
 30
0.0
 11
-48.54616548827873
 21
-0.7438312784087375
 31
0.0
210
0.0
220
0.0
230
1.0
 40
0.0861942720354896
 41
1.411295731873471
 42
1.51868171872981
  0
LINE
  5
1C6FC
330
1F
100
AcDbEntity
  8
AM_0
100
AcDbLine
 10
0.2897888920763876
 20
0.0229174806782453
 30
0.0
 11
6.990900204146499
 21
3.504808486100721
 31
0.0
  0
LINE
  5
1C6FD
330
1F
100
AcDbEntity
  8
AM_0
100
AcDbLine
 10
2.026534010028115
 20
0.9253285768818671
 30
0.0
 11
2.026534010028115
 21
0.7505732428340082
 31
0.0
  0
ELLIPSE
  5
1C6FE
330
1F
100
AcDbEntity
  8
AM_0
100
AcDbEllipse
 10
1.967925416221021
 20
4.999999999999972
 30
0.0
 11
0.06511904997011922
 21
-4.249996293583779
 31
0.0
210
0.0
220
0.0
230
1.0
 40
0.0861942720354919
 41
6.033321801547923
 42
6.265440029654384
  0
ELLIPSE
  5
1C6FF
330
1F
100
AcDbEntity
  8
AM_0
100
AcDbEllipse
 10
0.1992379568333149
 20
0.196982370180109
 30
0.0
 11
0.1786023846755692
 21
0.09000660080349664
 31
0.0
210
0.0
220
0.0
230
1.0
 40
0.9810430368348484
 41
2.63063481328799
 42
4.725029915680994
  0
ELLIPSE
  5
1C700
330
1F
100
AcDbEntity
  8
AM_0
100
AcDbEllipse
 10
2.562788418718299
 20
3.835235168461708
 30
0.0
 11
0.7813854329556867
 21
0.3937788785153333
 31
0.0
210
0.0
220
0.0
230
1.0
 40
0.9810430368348481
 41
5.300431964632367
 42
6.347629515828872
  0
ELLIPSE
  5
1C701
330
1F
100
AcDbEntity
  8
AM_0
100
AcDbEllipse
 10
2.562788418718299
 20
3.835235168461708
 30
0.0
 11
0.7813854329556867
 21
0.3937788785153333
 31
0.0
210
0.0
220
0.0
230
1.0
 40
0.9810430368348481
 41
2.158839311042371
 42
3.206036862239169
  0
ELLIPSE
  5
1C702
330
1F
100
AcDbEntity
  8
AM_0
100
AcDbEllipse
 10
2.562788418718299
 20
3.835235168461708
 30
0.0
 11
0.7813854329556867
 21
0.3937788785153333
 31
0.0
210
0.0
220
0.0
230
1.0
 40
0.9810430368348481
 41
3.20603686223917
 42
4.253234413435775
  0
ELLIPSE
  5
1C703
330
1F
100
AcDbEntity
  8
AM_0
100
AcDbEllipse
 10
2.562788418718299
 20
3.835235168461708
 30
0.0
 11
0.7813854329556867
 21
0.3937788785153333
 31
0.0
210
0.0
220
0.0
230
1.0
 40
0.9810430368348481
 41
4.253234413435775
 42
5.300431964632367
  0
ELLIPSE
  5
1C704
330
1F
100
AcDbEntity
  8
AM_0
100
AcDbEllipse
 10
3.531326814207603
 20
3.849964972644671
 30
0.0
 11
0.3125541731822462
 21
0.157511551406119
 31
0.0
210
0.0
220
0.0
230
0.9999999999999999
 40
0.9810430368348483
 41
1.871403692353203
 42
3.493472480928607
  0
ELLIPSE
  5
1C705
330
1F
100
AcDbEntity
  8
AM_0
100
AcDbEllipse
 10
3.461557301450796
 20
3.988410389367289
 30
0.0
 11
-0.3125541731822462
 21
-0.157511551406119
 31
0.0
210
0.0
220
0.0
230
0.9999999999999999
 40
0.9810430368348483
 41
5.012996345942995
 42
6.283185307179588
  0
ELLIPSE
  5
1C706
330
1F
100
AcDbEntity
  8
AM_0
100
AcDbEllipse
 10
3.18826452227546
 20
3.487759281532789
 30
0.0
 11
-0.1339517885066567
 21
-0.0675049506026122
 31
0.0
210
0.0
220
0.0
230
1.0
 40
0.9810430368348481
 41
2.158839311042573
 42
3.493472480928642
  0
ELLIPSE
  5
1C707
330
1F
100
AcDbEntity
  8
AM_0
100
AcDbEllipse
 10
3.18826452227546
 20
3.487759281532789
 30
0.0
 11
-0.1339517885066567
 21
-0.0675049506026122
 31
0.0
210
0.0
220
0.0
230
1.0
 40
0.9810430368348481
 41
0.8242061411563947
 42
2.158839311042572
  0
ELLIPSE
  5
1C708
330
1F
100
AcDbEntity
  8
AM_0
100
AcDbEllipse
 10
3.118495009518654
 20
3.626204698255407
 30
0.0
 11
0.1339517885066567
 21
0.0675049506026122
 31
0.0
210
0.0
220
0.0
230
1.0
 40
0.9810430368348481
 41
3.96579879474619
 42
5.769211780058411
  0
ELLIPSE
  5
1C709
330
1F
100
AcDbEntity
  8
AM_0
100
AcDbEllipse
 10
3.047057616462951
 20
3.013415206677109
 30
0.0
 11
0.3125541731822462
 21
0.157511551406119
 31
0.0
210
0.0
220
0.0
230
0.9999999999999999
 40
0.9810430368348483
 41
0.8242061411563991
 42
2.446274929731983
  0
ELLIPSE
  5
1C70A
330
1F
100
AcDbEntity
  8
AM_0
100
AcDbEllipse
 10
2.97728810370603
 20
3.151860623399728
 30
0.0
 11
-0.3125541731822462
 21
-0.157511551406119
 31
0.0
210
0.0
220
0.0
230
0.9999999999999999
 40
0.9810430368348483
 41
3.965798794746192
 42
5.587867583321776
  0
ELLIPSE
  5
1C70B
330
1F
100
AcDbEntity
  8
AM_0
100
AcDbEllipse
 10
2.562788418718299
 20
3.121258561784828
 30
0.0
 11
-0.1339517885066567
 21
-0.0675049506026122
 31
0.0
210
0.0
220
0.0
230
1.0
 40
0.9810430368348481
 41
1.111641759845982
 42
2.446274929731839
  0
ELLIPSE
  5
1C70C
330
1F
100
AcDbEntity
  8
AM_0
100
AcDbEllipse
 10
2.562788418718299
 20
3.121258561784828
 30
0.0
 11
-0.1339517885066567
 21
-0.0675049506026122
 31
0.0
210
0.0
220
0.0
230
1.0
 40
0.9810430368348481
 41
6.060193897139527
 42
7.394827067025569
  0
ELLIPSE
  5
1C70D
330
1F
100
AcDbEntity
  8
AM_0
100
AcDbEllipse
 10
2.493018905961492
 20
3.259703978507474
 30
0.0
 11
0.1339517885066567
 21
0.0675049506026122
 31
0.0
210
0.0
220
0.0
230
1.0
 40
0.9810430368348481
 41
3.547397298999945
 42
5.587867583321632
  0
ELLIPSE
  5
1C70E
330
1F
100
AcDbEntity
  8
AM_0
100
AcDbEllipse
 10
2.078519220973647
 20
2.998685402494175
 30
0.0
 11
0.3125541731822462
 21
0.157511551406119
 31
0.0
210
0.0
220
0.0
230
0.9999999999999999
 40
0.9810430368348483
 41
6.06019389713943
 42
7.682262685714739
  0
ELLIPSE
  5
1C70F
330
1F
100
AcDbEntity
  8
AM_0
100
AcDbEllipse
 10
2.00874970821684
 20
3.137130819216793
 30
0.0
 11
-0.3125541731822462
 21
-0.157511551406119
 31
0.0
210
0.0
220
0.0
230
0.9999999999999999
 40
0.9810430368348483
 41
3.141592653589789
 42
4.540670032124945
  0
ELLIPSE
  5
1C710
330
1F
100
AcDbEntity
  8
AM_0
100
AcDbEllipse
 10
1.937312315161364
 20
3.468734448713803
 30
0.0
 11
-0.1339517885066567
 21
-0.0675049506026122
 31
0.0
210
0.0
220
0.0
230
1.0
 40
0.9810430368348481
 41
0.0644442086493768
 42
1.399077378535154
  0
ELLIPSE
  5
1C711
330
1F
100
AcDbEntity
  8
AM_0
100
AcDbEllipse
 10
1.937312315161364
 20
3.468734448713803
 30
0.0
 11
-0.1339517885066567
 21
-0.0675049506026122
 31
0.0
210
0.0
220
0.0
230
1.0
 40
0.9810430368348481
 41
5.012996345942909
 42
6.347629515828963
  0
ELLIPSE
  5
1C712
330
1F
100
AcDbEntity
  8
AM_0
100
AcDbEllipse
 10
1.867542802404444
 20
3.607179865436422
 30
0.0
 11
0.1339517885066567
 21
0.0675049506026122
 31
0.0
210
0.0
220
0.0
230
1.0
 40
0.9810430368348481
 41
3.696375885242992
 42
4.540670032124949
  0
ELLIPSE
  5
1C713
330
1F
100
AcDbEntity
  8
AM_0
100
AcDbEllipse
 10
1.594250023229222
 20
3.82050536427883
 30
0.0
 11
0.3125541731822462
 21
0.157511551406119
 31
0.0
210
0.0
220
0.0
230
0.9999999999999999
 40
0.9810430368348483
 41
5.012996345942851
 42
6.635065134518209
  0
ELLIPSE
  5
1C714
330
1F
100
AcDbEntity
  8
AM_0
100
AcDbEllipse
 10
1.524480510472415
 20
3.958950781001448
 30
0.0
 11
-0.3125541731822462
 21
-0.157511551406119
 31
0.0
210
0.0
220
0.0
230
0.9999999999999999
 40
0.9810430368348483
 41
3.141592653589792
 42
3.395896217968294
  0
ELLIPSE
  5
1C715
330
1F
100
AcDbEntity
  8
AM_0
100
AcDbEllipse
 10
1.937312315161364
 20
4.182711055390655
 30
0.0
 11
-0.1339517885066567
 21
-0.0675049506026122
 31
0.0
210
0.0
220
0.0
230
1.0
 40
0.9810430368348481
 41
5.300431964632162
 42
6.635065134518435
  0
ELLIPSE
  5
1C716
330
1F
100
AcDbEntity
  8
AM_0
100
AcDbEllipse
 10
1.937312315161364
 20
4.182711055390655
 30
0.0
 11
-0.1339517885066567
 21
-0.0675049506026122
 31
0.0
210
0.0
220
0.0
230
1.0
 40
0.9810430368348481
 41
3.965798794746603
 42
5.300431964632162
  0
ELLIPSE
  5
1C717
330
1F
100
AcDbEntity
  8
AM_0
100
AcDbEllipse
 10
3.18826452227546
 20
4.201735888209669
 30
0.0
 11
-0.1339517885066567
 21
-0.0675049506026122
 31
0.0
210
0.0
220
0.0
230
1.0
 40
0.9810430368348481
 41
1.871403692353113
 42
3.206036862239081
  0
ELLIPSE
  5
1C718
330
1F
100
AcDbEntity
  8
AM_0
100
AcDbEllipse
 10
3.118495009518654
 20
4.340181304932287
 30
0.0
 11
0.1339517885066567
 21
0.0675049506026122
 31
0.0
210
0.0
220
0.0
230
1.0
 40
0.9810430368348481
 41
5.012996345942912
 42
5.72840207552639
  0
LINE
  5
1C719
330
1F
100
AcDbEntity
  8
AM_0
100
AcDbLine
 10
3.218772641025396
 20
3.692453421238554
 30
0.0
 11
3.149003128268475
 21
3.830898837961172
 31
0.0
  0
LINE
  5
1C71A
330
1F
100
AcDbEntity
  8
AM_0
100
AcDbLine
 10
2.391073394155967
 20
3.156196953900292
 30
0.0
 11
2.32130388139916
 21
3.29464237062291
 31
0.0
  0
LINE
  5
1C71B
330
1F
100
AcDbEntity
  8
AM_0
100
AcDbLine
 10
1.906804196411429
 20
3.978016915684947
 30
0.0
 11
1.837034683654622
 21
4.116462332407565
 31
0.0
  0
LINE
  5
1C71C
330
1F
100
AcDbEntity
  8
AM_0
100
AcDbLine
 10
6.449349044901453
 20
3.223419023586494
 30
0.0
 11
6.512043462683039
 21
3.09901289757277
 31
0.0
  0
LINE
  5
1C71D
330
1F
100
AcDbEntity
  8
AM_0
100
AcDbLine
 10
6.235146827165352
 20
3.110576905577119
 30
0.0
 11
6.233459055073524
 21
3.11124279210253
 31
0.0
  0
ELLIPSE
  5
1C71E
330
1F
100
AcDbEntity
  8
AM_0
100
AcDbEllipse
 10
7.748961593634419
 20
-0.4340441696718429
 30
0.0
 11
-8.868591663318963
 21
-4.620411188149943
 31
0.0
210
0.0
220
0.0
230
1.0
 40
0.3844695621969561
 41
4.682862706567937
 42
4.709550248426905
  0
ELLIPSE
  5
1C71F
330
1F
100
AcDbEntity
  8
AM_0
100
AcDbEllipse
 10
6.800514792973956
 20
1.391672098693952
 30
0.0
 11
11.51666803564306
 21
-0.5558207460036067
 31
0.0
210
0.0
220
0.0
230
0.9999999999999999
 40
0.1467747369466565
 41
1.602930043109206
 42
1.626989678340236
  0
ELLIPSE
  5
1C720
330
1F
100
AcDbEntity
  8
AM_0
100
AcDbEllipse
 10
6.900349268903426
 20
3.678873375602585
 30
0.0
 11
0.1786023846755692
 21
0.09000660080349664
 31
0.0
210
0.0
220
0.0
230
1.0
 40
0.9810430368348484
 41
4.725029915681249
 42
6.819425018074427
  0
LINE
  5
1C721
330
1F
100
AcDbEntity
  8
AM_0
100
AcDbLine
 10
0.4013332766647295
 20
7.981950115986649
 30
0.0
 11
4.850746699200101
 21
5.19666469483883
 31
0.0
  0
LINE
  5
1C722
330
1F
100
AcDbEntity
  8
AM_0
100
AcDbLine
 10
0.4530605626688953
 20
8.968965530718549
 30
0.0
 11
0.4013332766647295
 21
7.981950115986678
 31
0.0
  0
LINE
  5
1C723
330
1F
100
AcDbEntity
  8
AM_0
100
AcDbLine
 10
0.4990447736569763
 20
7.807909740750574
 30
0.0
 11
0.4013332766647295
 21
7.981950115986678
 31
0.0
  0
ELLIPSE
  5
1C724
330
1F
100
AcDbEntity
  8
AM_0
100
AcDbEllipse
 10
9.673586353897747
 20
4.999999999999965
 30
0.0
 11
-48.54616548827873
 21
-0.7438312784087375
 31
0.0
210
0.0
220
0.0
230
1.0
 40
0.0861942720354896
 41
4.850677156194498
 42
4.902162181010221
  0
ELLIPSE
  5
1C725
330
1F
100
AcDbEntity
  8
AM_0
100
AcDbEllipse
 10
0.3245229829267942
 20
4.999999999999972
 30
0.0
 11
-0.2945644601243603
 21
-4.249909106634672
 31
0.0
210
0.0
220
0.0
230
0.9999999999999999
 40
0.0943610762184384
 41
3.148132798913388
 42
3.513831191811551
  0
ELLIPSE
  5
1C726
330
1F
100
AcDbEntity
  8
AM_0
100
AcDbEllipse
 10
0.5887780304182684
 20
7.62984975960228
 30
0.0
 11
0.1786023846755692
 21
0.09000660080349664
 31
0.0
210
0.0
220
0.0
230
1.0
 40
0.9810430368348484
 41
0.5362397108947976
 42
2.630634813289008
  0
LINE
  5
1C727
330
1F
100
AcDbEntity
  8
AM_0
100
AcDbLine
 10
0.4990447736568626
 20
7.807909740750546
 30
0.0
 11
0.4700974582876256
 21
7.786247750738255
 31
0.0
  0
LINE
  5
1C728
330
1F
100
AcDbEntity
  8
AM_0
100
AcDbLine
 10
0.4990447736568626
 20
7.807909740750546
 30
0.0
 11
0.5336779572740511
 21
7.818289117943721
 31
0.0
  0
ELLIPSE
  5
1C729
330
1F
100
AcDbEntity
  8
AM_0
100
AcDbEllipse
 10
2.562788418718412
 20
4.549211775138588
 30
0.0
 11
-0.1339517885066567
 21
-0.0675049506026122
 31
0.0
210
0.0
220
0.0
230
1.0
 40
0.9810430368348481
 41
4.253234413435775
 42
5.587867583321813
  0
ELLIPSE
  5
1C72A
330
1F
100
AcDbEntity
  8
AM_0
100
AcDbEllipse
 10
2.562788418718412
 20
4.549211775138588
 30
0.0
 11
-0.1339517885066567
 21
-0.0675049506026122
 31
0.0
210
0.0
220
0.0
230
1.0
 40
0.9810430368348481
 41
2.918601243549732
 42
4.253234413435775
  0
ELLIPSE
  5
1C72B
330
1F
100
AcDbEntity
  8
AM_0
100
AcDbEllipse
 10
2.977288103706144
 20
4.810230351151859
 30
0.0
 11
-0.3125541731822462
 21
-0.157511551406119
 31
0.0
210
0.0
220
0.0
230
0.9999999999999999
 40
0.9810430368348483
 41
6.249579020054092
 42
6.283185307179588
  0
LINE
  5
1C72C
330
1F
100
AcDbEntity
  8
AM_0
100
AcDbLine
 10
2.734503443280744
 20
4.514273383023124
 30
0.0
 11
2.664733930523937
 21
4.652718799745742
 31
0.0
  0
ELLIPSE
  5
1C72E
330
1F
100
AcDbEntity
  8
AM_0
100
AcDbEllipse
 10
5.756399008518258
 20
3.401546740488413
 30
0.0
 11
11.51666803564306
 21
-0.5558207460036058
 31
0.0
210
0.0
220
0.0
230
0.9999999999999999
 40
0.1467747369466565
 41
1.502511780894262
 42
1.647240698549575
  0
ARC
  5
1C733
330
1F
100
AcDbEntity
  8
AM_0
100
AcDbCircle
 10
14.00000000000006
 20
1.199999999999989
 30
0.0
 40
3.354101966249723
100
AcDbArc
 50
47.01688236569789
 51
87.02024989373129
  0
LINE
  5
1C734
330
1F
100
AcDbEntity
  8
AM_0
100
AcDbLine
 10
18.00000000000006
 20
1.249999999999965
 30
0.0
 11
13.00000000000006
 21
1.249999999999965
 31
0.0
  0
LINE
  5
1C736
330
1F
100
AcDbEntity
  8
AM_0
100
AcDbLine
 10
13.00000000000006
 20
6.346291201783593
 30
0.0
 11
18.00000000000006
 21
6.346291201783593
 31
0.0
  0
SPLINE
  5
1C737
330
1F
100
AcDbEntity
  8
AM_0
100
AcDbSpline
210
0.0
220
0.0
230
1.0
 70
     8
 71
     3
 72
    20
 73
    16
 74
     0
 42
0.0000000001
 43
0.0000000001
 40
4.602643980254344
 40
4.602643980254344
 40
4.602643980254344
 40
4.602643980254344
 40
4.77997780433639
 40
4.77997780433639
 40
5.310088869021994
 40
5.310088869021994
 40
5.840199933707599
 40
5.840199933707599
 40
6.531143801784916
 40
6.531143801784916
 40
7.222087669862232
 40
7.222087669862232
 40
7.913031537939547
 40
7.913031537939547
 40
8.603975406016863
 40
8.603975406016863
 40
8.603975406016863
 40
8.603975406016863
 10
16.76039342970597
 20
2.721549886338998
 30
0.0
 10
16.7666912643802
 20
2.672935105165202
 30
0.0
 10
16.76968643854906
 20
2.625734715381491
 30
0.0
 10
16.76968643854906
 20
2.445565029104351
 30
0.0
 10
16.74130213199663
 20
2.309400845027646
 30
0.0
 10
16.6258850865168
 20
2.069950396840874
 30
0.0
 10
16.53901232930224
 20
1.966317781241763
 30
0.0
 10
16.31358763186557
 20
1.777709222658579
 30
0.0
 10
16.15590889463221
 20
1.694667063277613
 30
0.0
 10
15.79646285736664
 20
1.563853310927122
 30
0.0
 10
15.59455851958973
 20
1.516129485767401
 30
0.0
 10
15.16351138762371
 20
1.445572955918173
 30
0.0
 10
14.93411359143346
 20
1.422635498590687
 30
0.0
 10
14.46751982210304
 20
1.393453466581541
 30
0.0
 10
14.23031462269245
 20
1.387181544622585
 30
0.0
 10
14.00000000000006
 20
1.387181544622585
 30
0.0
  0
ARC
  5
1C739
330
1F
100
AcDbEntity
  8
AM_0
100
AcDbCircle
 10
15.00247944607116
 20
2.62163121007768
 30
0.0
 40
2.104030490739995
100
AcDbArc
 50
118.4542387359634
 51
149.9614017451778
  0
ARC
  5
1C73A
330
1F
100
AcDbEntity
  8
AM_0
100
AcDbCircle
 10
11.00000412738933
 20
-6.70005009911964
 30
0.0
 40
8.000048348885779
100
AcDbArc
 50
78.82286104082296
 51
110.5960497658374
  0
LINE
  5
1C73B
330
1F
100
AcDbEntity
  8
AM_0
100
AcDbLine
 10
13.00000000000006
 20
1.30805274310989
 30
0.0
 11
13.00000000000006
 21
1.249999999999965
 31
0.0
  0
LINE
  5
1C73C
330
1F
100
AcDbEntity
  8
AM_0
100
AcDbLine
 10
13.00000000000006
 20
1.249999999999965
 30
0.0
 11
12.59055427877269
 21
1.140289349652697
 31
0.0
  0
SPLINE
  5
1C73D
330
1F
100
AcDbEntity
  8
AM_0
100
AcDbSpline
210
0.0
220
0.0
230
1.0
 70
     8
 71
     3
 72
     8
 73
     4
 74
     0
 42
0.0000000001
 43
0.0000000001
 40
-0.3748097491711014
 40
-0.3748097491711014
 40
-0.3748097491711014
 40
-0.3748097491711014
 40
0.0
 40
0.0
 40
0.0
 40
0.0
 10
12.55075697300293
 20
1.148257947511802
 30
0.0
 10
12.57747089492062
 20
1.142979476770726
 30
0.0
 10
12.59055427877269
 20
1.140289349652697
 30
0.0
 10
12.59055427877269
 20
1.140289349652697
 30
0.0
  0
LINE
  5
1C73E
330
1F
100
AcDbEntity
  8
AM_0
100
AcDbLine
 10
14.00000000000006
 20
1.387181544622585
 30
0.0
 11
13.57746034155292
 21
1.387181544622585
 31
0.0
  0
SPLINE
  5
1C73F
330
1F
100
AcDbEntity
  8
AM_0
100
AcDbSpline
210
0.0
220
0.0
230
1.0
 70
     8
 71
     3
 72
    18
 73
    14
 74
     0
 42
0.0000000001
 43
0.0000000001
 40
1.848571244101434
 40
1.848571244101434
 40
1.848571244101434
 40
1.848571244101434
 40
2.529988410144211
 40
2.529988410144211
 40
3.054527147290727
 40
3.054527147290727
 40
3.316796515863984
 40
3.316796515863984
 40
3.579065884437242
 40
3.579065884437242
 40
4.150443031769627
 40
4.150443031769627
 40
4.469560495702257
 40
4.469560495702257
 40
4.469560495702257
 40
4.469560495702257
 10
13.57746034155292
 20
1.387181544622585
 30
0.0
 10
13.42806094705446
 20
1.571337977860303
 30
0.0
 10
13.29683828242224
 20
1.762685639784131
 30
0.0
 10
13.11503612959808
 20
2.112646383817172
 30
0.0
 10
13.04627883595919
 20
2.284351310750871
 30
0.0
 10
12.98479870691432
 20
2.541822457039125
 30
0.0
 10
12.97093249076232
 20
2.627679474893846
 30
0.0
 10
12.95657741953636
 20
2.794152196742395
 30
0.0
 10
12.95606537118221
 20
2.874766137018803
 30
0.0
 10
12.97098004943706
 20
3.11505568420062
 30
0.0
 10
13.00884959758076
 20
3.282797114944565
 30
0.0
 10
13.10020616149808
 20
3.520203062508408
 30
0.0
 10
13.13904776632393
 20
3.600733592158171
 30
0.0
 10
13.18104471173587
 20
3.674873734152918
 30
0.0
  0
ARC
  5
1C740
330
1F
100
AcDbEntity
  8
AM_0
100
AcDbCircle
 10
12.41476182954187
 20
7.725598955646973
 30
0.0
 40
6.444175905902174
100
AcDbArc
 50
275.2105874416503
 51
280.3945888111043
  0
ARC
  5
1C741
330
1F
100
AcDbEntity
  8
AM_0
100
AcDbCircle
 10
10.10655243758998
 20
8.731225063542581
 30
0.0
 40
7.967152947901435
100
AcDbArc
 50
287.8655975347286
 51
291.2951330227584
  0
ARC
  5
1C744
330
1F
100
AcDbEntity
  8
AM_0
100
AcDbCircle
 10
5.166451965793897
 20
-0.4865639477311845
 30
0.0
 40
10.30919063202346
100
AcDbArc
 50
43.15657026697891
 51
52.12995149037091
  0
LINE
  5
1C74E
330
1F
100
AcDbEntity
  8
AM_0
100
AcDbLine
 10
13.00000000000006
 20
8.124244788367996
 30
0.0
 11
13.00000000000006
 21
6.346291201783593
 31
0.0
  0
ELLIPSE
  5
1C751
330
1F
100
AcDbEntity
  8
AM_0
100
AcDbEllipse
 10
21.58409194261111
 20
-26.94103084040557
 30
0.0
 11
-23.79030031958645
 21
45.79522888635766
 31
0.0
210
0.0
220
0.0
230
1.0
 40
0.1937758396000326
 41
5.365542504836659
 42
5.427413590542453
  0
SPLINE
  5
1C752
330
1F
100
AcDbEntity
  8
AM_0
100
AcDbSpline
210
0.0
220
0.0
230
1.0
 70
     8
 71
     3
 72
     8
 73
     4
 74
     0
 42
0.0000000001
 43
0.0000000001
 40
5.852885314483533
 40
5.852885314483533
 40
5.852885314483533
 40
5.852885314483533
 40
6.144290745364564
 40
6.144290745364564
 40
6.144290745364564
 40
6.144290745364564
 10
14.00000000000006
 20
4.471490465850529
 30
0.0
 10
14.05733695629027
 20
4.502584619408644
 30
0.0
 10
14.11584424419283
 20
4.528616231352821
 30
0.0
 10
14.17435631612869
 20
4.549567117558063
 30
0.0
  0
SPLINE
  5
1C754
330
1F
100
AcDbEntity
  8
AM_0
100
AcDbSpline
210
0.0
220
0.0
230
1.0
 70
    12
 71
     2
 72
     6
 73
     3
 74
     0
 42
0.0000000001
 43
0.0000000001
 40
1.688552114703669
 40
1.688552114703669
 40
1.688552114703669
 40
2.151099478579633
 40
2.151099478579633
 40
2.151099478579633
 10
12.68687559558026
 20
6.564864270435002
 30
0.0
 41
1.003033916774283
 10
12.85519267701335
 20
6.454368688663031
 30
0.0
 41
1.001934263379553
 10
13.00000000000034
 20
6.346291201783593
 30
0.0
 41
1.000004490685315
  0
LINE
  5
1C763
330
1F
100
AcDbEntity
  8
AM_0
100
AcDbLine
 10
18.25000000000006
 20
3.063508326896276
 30
0.0
 11
18.25000000000006
 21
0.9999999999999645
 31
0.0
  0
LINE
  5
1C764
330
1F
100
AcDbEntity
  8
AM_0
100
AcDbLine
 10
18.00000000000006
 20
3.653708798216336
 30
0.0
 11
18.00000000000006
 21
1.249999999999965
 31
0.0
  0
LINE
  5
1C765
330
1F
100
AcDbEntity
  8
AM_0
100
AcDbLine
 10
18.00000000000006
 20
1.249999999999965
 30
0.0
 11
18.25000000000006
 21
0.9999999999999645
 31
0.0
  0
SPLINE
  5
1C766
330
1F
100
AcDbEntity
  8
AM_0
100
AcDbSpline
210
0.0
220
0.0
230
1.0
 70
    12
 71
     2
 72
     6
 73
     3
 74
     0
 42
0.0000000001
 43
0.0000000001
 40
0.0
 40
0.0
 40
0.0
 40
0.6411910719227565
 40
0.6411910719227565
 40
0.6411910719227565
 10
18.25000000000006
 20
3.063508326896248
 30
0.0
 41
1.0
 10
18.10252667120352
 20
3.368127924996934
 30
0.0
 41
1.0029124587545
 10
18.00000000000006
 20
3.653708798216336
 30
0.0
 41
1.0
  0
LINE
  5
1C767
330
1F
100
AcDbEntity
  8
AM_0
100
AcDbLine
 10
18.00000000000006
 20
3.653708798216336
 30
0.0
 11
16.28676914741214
 21
3.653708798216336
 31
0.0
  0
ARC
  5
1C768
330
1F
100
AcDbEntity
  8
AM_0
100
AcDbCircle
 10
14.9920514595438
 20
2.409468336856321
 30
0.0
 40
1.795669294988483
100
AcDbArc
 50
10.00864600959176
 51
43.86104814832969
  0
LINE
  5
1C769
330
1F
100
AcDbEntity
  8
AM_0
100
AcDbLine
 10
18.00000000000006
 20
8.124244788367996
 30
0.0
 11
18.00000000000006
 21
6.346291201783593
 31
0.0
  0
LINE
  5
1C76A
330
1F
100
AcDbEntity
  8
AM_0
100
AcDbLine
 10
18.25000000000006
 20
8.391292617484218
 30
0.0
 11
18.25000000000006
 21
6.936491673103653
 31
0.0
  0
SPLINE
  5
1C76D
330
1F
100
AcDbEntity
  8
AM_0
100
AcDbSpline
210
0.0
220
0.0
230
1.0
 70
    12
 71
     2
 72
     6
 73
     3
 74
     0
 42
0.0000000001
 43
0.0000000001
 40
0.0
 40
0.0
 40
0.0
 40
0.6411910719227565
 40
0.6411910719227565
 40
0.6411910719227565
 10
18.00000000000006
 20
6.346291201783593
 30
0.0
 41
1.0
 10
18.10252667120352
 20
6.631872075002796
 30
0.0
 41
1.0029124587545
 10
18.25000000000006
 20
6.936491673103681
 30
0.0
 41
1.0
  0
LINE
  5
1C77A
330
1F
100
AcDbEntity
  8
AM_0
100
AcDbLine
 10
100.0
 20
-40.95570964599067
 30
0.0
 11
100.0
 21
-43.95570964599067
 31
0.0
  0
LINE
  5
1C77B
330
1F
100
AcDbEntity
  8
AM_0
100
AcDbLine
 10
99.0
 20
-44.45570964599067
 30
0.0
 11
99.0
 21
-37.45570964599067
 31
0.0
  0
LINE
  5
1C77C
330
1F
100
AcDbEntity
  8
AM_0
100
AcDbLine
 10
100.0
 20
-43.95570964599067
 30
0.0
 11
99.5
 21
-44.45570964599067
 31
0.0
  0
LINE
  5
1C77D
330
1F
100
AcDbEntity
  8
AM_0
100
AcDbLine
 10
99.0
 20
-44.45570964599067
 30
0.0
 11
99.5
 21
-44.45570964599067
 31
0.0
  0
LINE
  5
1C77E
330
1F
100
AcDbEntity
  8
AM_0
100
AcDbLine
 10
100.0
 20
-37.95570964599067
 30
0.0
 11
100.0
 21
-40.95570964599067
 31
0.0
  0
LINE
  5
1C77F
330
1F
100
AcDbEntity
  8
AM_0
100
AcDbLine
 10
100.0
 20
-37.95570964599067
 30
0.0
 11
99.5
 21
-37.45570964599067
 31
0.0
  0
LINE
  5
1C780
330
1F
100
AcDbEntity
  8
AM_0
100
AcDbLine
 10
99.0
 20
-37.45570964599067
 30
0.0
 11
99.5
 21
-37.45570964599067
 31
0.0
  0
LINE
  5
1C781
330
1F
100
AcDbEntity
  8
AM_0
100
AcDbLine
 10
100.0
 20
7.999999999999957
 30
0.0
 11
100.0
 21
1.999999999999957
 31
0.0
  0
SPLINE
  5
1C782
330
1F
100
AcDbEntity
  8
AM_0
100
AcDbSpline
210
0.0
220
0.0
230
1.0
 70
    12
 71
     2
 72
     6
 73
     3
 74
     0
 42
0.0000000001
 43
0.0000000001
 40
0.0
 40
0.0
 40
0.0
 40
4.0
 40
4.0
 40
4.0
 10
99.0
 20
6.936491673103646
 30
0.0
 41
1.0
 10
99.93749999999993
 20
4.999999999999957
 30
0.0
 41
1.142857142857143
 10
99.0
 20
3.063508326896269
 30
0.0
 41
1.0
  0
LINE
  5
1C783
330
1F
100
AcDbEntity
  8
AM_0
100
AcDbLine
 10
99.0
 20
0.9999999999999574
 30
0.0
 11
99.0
 21
3.063508326896269
 31
0.0
  0
LINE
  5
1C784
330
1F
100
AcDbEntity
  8
AM_0
100
AcDbLine
 10
100.0
 20
1.999999999999957
 30
0.0
 11
99.0
 21
0.9999999999999574
 31
0.0
  0
LINE
  5
1C785
330
1F
100
AcDbEntity
  8
AM_0
100
AcDbLine
 10
99.0
 20
6.936491673103646
 30
0.0
 11
99.0
 21
8.999999999999957
 31
0.0
  0
LINE
  5
1C786
330
1F
100
AcDbEntity
  8
AM_0
100
AcDbLine
 10
100.0
 20
7.999999999999957
 30
0.0
 11
99.0
 21
8.999999999999957
 31
0.0
  0
LINE
  5
1CA18
330
1F
100
AcDbEntity
  8
AM_7
100
AcDbLine
 10
104.3694191239463
 20
-40.95570964599067
 30
0.0
 11
-8.505480525475321
 21
-40.95570964599065
 31
0.0
1001
GENIUS_GENODEF_13
1002
{
1000
HIER
1070
     0
1002
}
1002
{
1000
MANEDIT
1070
     0
1002
}
1002
{
1000
NOSEL
1070
     0
1002
}
1002
{
1000
BEHIND
1070
     0
1002
}
1002
{
1000
OTHER
1070
     0
1002
}
1002
{
1000
REACTOR
1002
}
1001
GENIUS_GENOBJ-N-CEN_13
1002
{
1000
OWNER
1000
GEN
1002
}
  0
SPLINE
  5
1CA73
330
1F
100
AcDbEntity
  8
AM_11
  6
ACJISTGB
100
AcDbSpline
210
0.0
220
0.0
230
1.0
 70
     8
 71
     3
 72
    22
 73
    18
 74
     0
 42
0.0000000001
 43
0.0000000001
 40
7.603887525856504
 40
7.603887525856504
 40
7.603887525856504
 40
7.603887525856504
 40
8.133087655571812
 40
8.133087655571812
 40
8.691766987486119
 40
8.691766987486119
 40
9.250446319400428
 40
9.250446319400428
 40
9.694462761120615
 40
9.694462761120615
 40
10.1384792028408
 40
10.1384792028408
 40
10.58028186514417
 40
10.58028186514417
 40
11.02208452744753
 40
11.02208452744753
 40
11.44776102849365
 40
11.44776102849365
 40
11.44776102849365
 40
11.44776102849365
 10
14.81752531771036
 20
-37.455733422848
 30
0.0
 10
14.87928897323565
 20
-37.5183311981265
 30
0.0
 10
14.92969658022599
 20
-37.59444406648356
 30
0.0
 10
15.00068915410003
 20
-37.77656549101556
 30
0.0
 10
15.01945470006609
 20
-37.88429944206519
 30
0.0
 10
15.015089476789
 20
-38.12009908710445
 30
0.0
 10
14.99184600638165
 20
-38.24816071684518
 30
0.0
 10
14.91357038344341
 20
-38.48429875085978
 30
0.0
 10
14.8618251473693
 20
-38.60186987499989
 30
0.0
 10
14.72881013816328
 20
-38.83763741189824
 30
0.0
 10
14.64764258880683
 20
-38.95572155715914
 30
0.0
 10
14.48159881384112
 20
-39.16643909144227
 30
0.0
 10
14.38648958136906
 20
-39.27298904935697
 30
0.0
 10
14.17646951117177
 20
-39.48208407057464
 30
0.0
 10
14.06158165060066
 20
-39.58462941583196
 30
0.0
 10
13.82395782396105
 20
-39.77678133679467
 30
0.0
 10
13.70149396550715
 20
-39.86661452593538
 30
0.0
 10
13.57746034155304
 20
-39.95070078608717
 30
0.0
  0
ARC
  5
1CDAA
330
1F
100
AcDbEntity
  8
AM_0
100
AcDbCircle
 10
73.60971874882279
 20
4.999999999999993
 30
0.0
 40
4.000000000000028
100
AcDbArc
 50
28.95502437185958
 51
151.0449756281423
  0
LINE
  5
1CDB0
330
1F
100
AcDbEntity
  8
AM_0
100
AcDbLine
 10
77.1097187488229
 20
6.936491673103646
 30
0.0
 11
77.1097187488229
 21
3.063508326896269
 31
0.0
  0
LINE
  5
1CDB1
330
1F
100
AcDbEntity
  8
AM_0
100
AcDbLine
 10
70.10971874882267
 20
6.936491673103646
 30
0.0
 11
70.10971874882279
 21
3.063508326896269
 31
0.0
  0
ARC
  5
1CDB2
330
1F
100
AcDbEntity
  8
AM_0
100
AcDbCircle
 10
73.60971874882279
 20
4.999999999999993
 30
0.0
 40
4.000000000000028
100
AcDbArc
 50
208.955024371861
 51
331.0449756281403
  0
LINE
  5
1CDC3
330
1F
100
AcDbEntity
  8
AM_0
100
AcDbLine
 10
69.26291626827691
 20
8.999999999999957
 30
0.0
 11
29.33060188826727
 21
8.999999999999965
 31
0.0
  0
LINE
  5
1CDC4
330
1F
100
AcDbEntity
  8
AM_0
100
AcDbLine
 10
78.16351238579222
 20
6.936491673103646
 30
0.0
 11
99.0
 21
6.936491673103646
 31
0.0
  0
LINE
  5
1CDC5
330
1F
100
AcDbEntity
  8
AM_0
100
AcDbLine
 10
69.26291626827691
 20
3.063508326896269
 30
0.0
 11
18.24999999999994
 21
3.063508326896276
 31
0.0
  0
LINE
  5
1CDC6
330
1F
100
AcDbEntity
  8
AM_0
100
AcDbLine
 10
69.26291626827691
 20
0.9999999999999574
 30
0.0
 11
18.24999999999994
 21
0.9999999999999645
 31
0.0
  0
LINE
  5
1CDD8
330
1F
100
AcDbEntity
  8
AM_7
  6
AM_ISO08W050x2
100
AcDbLine
 10
73.60971874882279
 20
11.79400000000003
 30
0.0
 11
73.60971874882279
 21
-1.794000000000054
 31
0.0
1001
GENIUS_GENODEF_13
1002
{
1000
HIER
1070
     0
1002
}
1002
{
1000
MANEDIT
1070
     0
1002
}
1002
{
1000
NOSEL
1070
     0
1002
}
1002
{
1000
BEHIND
1070
     0
1002
}
1002
{
1000
OTHER
1070
     0
1002
}
1002
{
1000
REACTOR
1002
}
1001
GENIUS_GENOBJ-N-CEN_13
1002
{
1000
OWNER
1000
GEN
1002
}
  0
LINE
  5
1CE6A
330
1F
100
AcDbEntity
  8
AM_7
100
AcDbLine
 10
104.3694191239463
 20
4.999999999999957
 30
0.0
 11
-6.056891232370219
 21
4.999999999999972
 31
0.0
1001
GENIUS_GENOBJ-N-CEN_13
1002
{
1000
OWNER
1000
GEN
1002
}
1001
GENIUS_GENODEF_13
1002
{
1000
HIER
1070
     0
1002
}
1002
{
1000
MANEDIT
1070
     0
1002
}
1002
{
1000
NOSEL
1070
     0
1002
}
1002
{
1000
BEHIND
1070
     0
1002
}
1002
{
1000
OTHER
1070
     0
1002
}
1002
{
1000
REACTOR
1002
}
  0
DIMENSION
  5
1D052
330
1F
100
AcDbEntity
  8
AM_5
100
AcDbDimension
  2
*D4
 10
-31.42742571042908
 20
7.22548869735699
 30
0.0
 11
-65.67050824947302
 21
-3.068204598914534
 31
0.0
 70
   163
  1
最小加工径\P<>.0
 71
     5
 42
9.750029084245714
  3
AM_JIS$3
100
AcDbDiametricDimension
 15
-40.2259969622142
 25
3.024511302643019
 35
0.0
 40
0.0
1001
ACAD
1000
DSTYLE
1002
{
1070
   179
1070
     0
1070
   271
1070
     0
1002
}
  0
CIRCLE
  5
1D7CE
330
1F
100
AcDbEntity
  8
AM_0
100
AcDbCircle
 10
2.562788418718299
 20
3.835235168461708
 30
0.0
 40
1.35
  0
LINE
  5
1DB8A
330
1F
100
AcDbEntity
  8
AM_0
100
AcDbLine
 10
18.25000000000006
 20
8.912237150484963
 30
0.0
 11
28.00000000000006
 21
8.912237150484963
 31
0.0
  0
LINE
  5
1DB8B
330
1F
100
AcDbEntity
  8
AM_0
100
AcDbLine
 10
27.99999999999994
 20
8.391292617484218
 30
0.0
 11
18.24999999999994
 21
8.391292617484218
 31
0.0
  0
LINE
  5
1DB8E
330
1F
100
AcDbEntity
  8
AM_0
100
AcDbLine
 10
13.00000000000006
 20
8.645189321368711
 30
0.0
 11
18.00000000000006
 21
8.645189321368711
 31
0.0
  0
LINE
  5
1DB8F
330
1F
100
AcDbEntity
  8
AM_0
100
AcDbLine
 10
18.00000000000006
 20
8.124244788367967
 30
0.0
 11
13.00000000000006
 21
8.124244788367967
 31
0.0
  0
ARC
  5
1DB9B
330
1F
100
AcDbEntity
  8
AM_0
100
AcDbCircle
 10
15.51842309848831
 20
20.9065207235445
 30
0.0
 40
12.4813963984268
100
AcDbArc
 50
249.4344548992455
 51
253.6267595169199
  0
ARC
  5
1DB9C
330
1F
100
AcDbEntity
  8
AM_0
100
AcDbCircle
 10
13.00720675325368
 20
11.84370428178764
 30
0.0
 40
3.578038851319473
100
AcDbArc
 50
238.4302601487313
 51
253.6504368195574
  0
LINE
  5
1DB9E
330
1F
100
AcDbEntity
  8
AM_0
100
AcDbLine
 10
11.13397459621564
 20
8.795202468209389
 30
0.0
 11
11.13397459621564
 21
8.251384824780466
 31
0.0
  0
SPLINE
  5
1DB9F
330
1F
100
AcDbEntity
  8
AM_0
100
AcDbSpline
210
0.0
220
0.0
230
1.0
 70
     8
 71
     3
 72
    22
 73
    18
 74
     0
 42
0.0000000001
 43
0.0000000001
 40
0.8885249490445564
 40
0.8885249490445564
 40
0.8885249490445564
 40
0.8885249490445564
 40
1.141113512414215
 40
1.141113512414215
 40
1.711333071156131
 40
1.711333071156131
 40
1.996442850527088
 40
1.996442850527088
 40
2.281552629898046
 40
2.281552629898046
 40
2.566662409269005
 40
2.566662409269005
 40
2.851772188639965
 40
2.851772188639965
 40
3.421991747381883
 40
3.421991747381883
 40
3.674580310751542
 40
3.674580310751542
 40
3.674580310751542
 40
3.674580310751542
 10
11.13397459621564
 20
8.795202468209389
 30
0.0
 10
11.06320304427112
 20
8.818723605371211
 30
0.0
 10
10.99791088501075
 20
8.843777231645781
 30
0.0
 10
10.80711546416904
 20
8.925333663098023
 30
0.0
 10
10.69191994986164
 20
8.98978183105455
 30
0.0
 10
10.57671924678772
 20
9.075167570459136
 30
0.0
 10
10.54754293553998
 20
9.101803763656129
 30
0.0
 10
10.50917789530871
 20
9.14868886527838
 30
0.0
 10
10.50000000000006
 20
9.168930019094283
 30
0.0
 10
10.50000000000006
 20
9.201935881509449
 30
0.0
 10
10.50917789530871
 20
9.215738992836485
 30
0.0
 10
10.54754293553998
 20
9.236397301291156
 30
0.0
 10
10.57671924678772
 20
9.243261193747991
 30
0.0
 10
10.69191994986164
 20
9.25402102356454
 30
0.0
 10
10.80711546416904
 20
9.2477760352836
 30
0.0
 10
10.99791088501075
 20
9.232482158104055
 30
0.0
 10
11.06320304427112
 20
9.226693268525843
 30
0.0
 10
11.13397459621564
 20
9.220551898257462
 30
0.0
  0
ARC
  5
1DBA0
330
1F
100
AcDbEntity
  8
AM_0
100
AcDbCircle
 10
12.25462360137971
 20
12.21632636552332
 30
0.0
 40
5.146545764451421
100
AcDbArc
 50
222.409116756866
 51
230.7733334781453
  0
LINE
  5
1DBA1
330
1F
100
AcDbEntity
  8
AM_0
100
AcDbLine
 10
8.454681633622556
 20
8.745393587829391
 30
0.0
 11
9.000000000000057
 21
8.745393587829391
 31
0.0
  0
ARC
  5
1DBA2
330
1F
100
AcDbEntity
  8
AM_0
100
AcDbCircle
 10
9.960969219561832
 20
7.136853845802563
 30
0.0
 40
1.618060850759372
100
AcDbArc
 50
18.54823418673713
 51
43.53571430968675
  0
ARC
  5
1DBA3
330
1F
100
AcDbEntity
  8
AM_0
100
AcDbCircle
 10
10.83017520669904
 20
10.45580508754756
 30
0.0
 40
2.881967691413322
100
AcDbArc
 50
230.5767799552973
 51
283.3369935071141
  0
ARC
  5
1DBA4
330
1F
100
AcDbEntity
  8
AM_0
100
AcDbCircle
 10
9.214656221656185
 20
4.81656612793077
 30
0.0
 40
3.934687090881496
100
AcDbArc
 50
60.80428254391124
 51
93.12731461810999
  0
SPLINE
  5
1DBA6
330
1F
100
AcDbEntity
  8
AM_0
100
AcDbSpline
210
0.0
220
0.0
230
1.0
 70
    12
 71
     2
 72
     6
 73
     3
 74
     0
 42
0.0000000001
 43
0.0000000001
 40
0.0
 40
0.0
 40
0.0
 40
1.041332810746095
 40
1.041332810746095
 40
1.041332810746095
 10
12.00000000000006
 20
8.931298180531535
 30
0.0
 41
1.0
 10
12.52027546714538
 20
8.783309202853117
 30
0.0
 41
1.000700366872094
 10
12.99999999999983
 20
8.645189321368484
 30
0.0
 41
1.000000492231356
  0
SPLINE
  5
1DBA9
330
1F
100
AcDbEntity
  8
AM_0
100
AcDbSpline
210
0.0
220
0.0
230
1.0
 70
    12
 71
     2
 72
     6
 73
     3
 74
     0
 42
0.0000000001
 43
0.0000000001
 40
0.0003660630376323
 40
0.0003660630376323
 40
0.0003660630376323
 40
1.041698873783735
 40
1.041698873783735
 40
1.041698873783735
 10
12.99999999999977
 20
8.124244788368003
 30
0.0
 41
1.000000492231359
 10
12.52027546713595
 20
8.262364669855479
 30
0.0
 41
1.000700366876629
 10
12.00000000000006
 20
8.410353647530791
 30
0.0
 41
1.0
  0
SPLINE
  5
1DBB3
330
1F
100
AcDbEntity
  8
AM_0
100
AcDbSpline
210
0.0
220
0.0
230
1.0
 70
    12
 71
     2
 72
     6
 73
     3
 74
     0
 42
0.0000000001
 43
0.0000000001
 40
0.0
 40
0.0
 40
0.0
 40
0.3688252596023161
 40
0.3688252596023161
 40
0.3688252596023161
 10
18.00000000000006
 20
8.645189321368711
 30
0.0
 41
1.0
 10
18.12025601302804
 20
8.774406012875758
 30
0.0
 41
1.000612689955682
 10
18.25000000000006
 20
8.912237150484963
 30
0.0
 41
1.0
  0
SPLINE
  5
1DBB4
330
1F
100
AcDbEntity
  8
AM_0
100
AcDbSpline
210
0.0
220
0.0
230
1.0
 70
    12
 71
     2
 72
     6
 73
     3
 74
     0
 42
0.0000000001
 43
0.0000000001
 40
0.0
 40
0.0
 40
0.0
 40
0.3688252596023121
 40
0.3688252596023121
 40
0.3688252596023121
 10
18.25000000000006
 20
8.391292617484218
 30
0.0
 41
1.0
 10
18.12025601302975
 20
8.253461479876357
 30
0.0
 41
1.000612689955237
 10
18.00000000000006
 20
8.124244788367967
 30
0.0
 41
1.0
  0
SPLINE
  5
1DBB6
330
1F
100
AcDbEntity
  8
AM_0
100
AcDbSpline
210
0.0
220
0.0
230
1.0
 70
     8
 71
     3
 72
    30
 73
    26
 74
     0
 42
0.0000000001
 43
0.0000000001
 40
-4.569053827421409
 40
-4.569053827421409
 40
-4.569053827421409
 40
-4.569053827421409
 40
-4.283378582664495
 40
-4.283378582664495
 40
-3.997703337907582
 40
-3.997703337907582
 40
-3.426352848393757
 40
-3.426352848393757
 40
-2.855439881052229
 40
-2.855439881052229
 40
-2.569983397381465
 40
-2.569983397381465
 40
-2.284526913710701
 40
-2.284526913710701
 40
-1.999070430039939
 40
-1.999070430039939
 40
-1.713613946369178
 40
-1.713613946369178
 40
-1.142700979027655
 40
-1.142700979027655
 40
-0.5713504895138275
 40
-0.5713504895138275
 40
-0.2856752447569129
 40
-0.2856752447569129
 40
0.0
 40
0.0
 40
0.0
 40
0.0
 10
27.99999999999994
 20
8.912237150484963
 30
0.0
 10
28.09522508158563
 20
8.912237150484963
 30
0.0
 10
28.19336259810558
 20
8.9143511745878
 30
0.0
 10
28.38793607186273
 20
8.922651347245129
 30
0.0
 10
28.48437574196663
 20
8.928822611208908
 30
0.0
 10
28.76106167613688
 20
8.950683850779249
 30
0.0
 10
28.92846781265092
 20
8.969553320821227
 30
0.0
 10
29.19275130217233
 20
8.995237277915145
 30
0.0
 10
29.30791685298271
 20
9.003785756617354
 30
0.0
 10
29.4231716677221
 20
8.995428686825441
 30
0.0
 10
29.45237998515512
 20
8.989195712515134
 30
0.0
 10
29.49079973180579
 20
8.969362981961176
 30
0.0
 10
29.49999999999994
 20
8.955754011446366
 30
0.0
 10
29.49999999999994
 20
8.922708012651263
 30
0.0
 10
29.49079973180579
 20
8.902243036007143
 30
0.0
 10
29.45237998515512
 20
8.854496982047145
 30
0.0
 10
29.4231716677221
 20
8.827224129807711
 30
0.0
 10
29.30791685298271
 20
8.739450243697171
 30
0.0
 10
29.19275130217233
 20
8.672748634165508
 30
0.0
 10
28.92846781265092
 20
8.555279984385855
 30
0.0
 10
28.76106167613688
 20
8.496440765870737
 30
0.0
 10
28.48437574196663
 20
8.434567186187103
 30
0.0
 10
28.38793607186273
 20
8.418253212736907
 30
0.0
 10
28.19336259810558
 20
8.396606404835914
 30
0.0
 10
28.09522508158563
 20
8.391292617484218
 30
0.0
 10
27.99999999999994
 20
8.391292617484218
 30
0.0
  0
DIMENSION
  5
1EEC5
330
1F
100
AcDbEntity
  8
AM_5
100
AcDbDimension
  2
*D6
 10
-8.914156416147478
 20
-0.0000000000000259
 30
0.0
 11
-8.914156416147478
 21
2.499999999999972
 31
0.0
 70
   160
 71
     5
 42
4.999999999999998
  3
AM_JIS$0
100
AcDbAlignedDimension
 13
-6.056891232370219
 23
4.999999999999972
 33
0.0
 14
0.0
 24
-0.0000000000000284
 34
0.0
 50
90.0
100
AcDbRotatedDimension
1001
ACAD
1000
DSTYLE
1002
{
1070
   271
1070
     0
1002
}
  0
DIMENSION
  5
1EF41
330
1F
100
AcDbEntity
  8
AM_5
100
AcDbDimension
  2
*D7
 10
100.0
 20
-22.74760220100704
 30
0.0
 11
50.0
 21
-19.34760220100704
 31
0.0
 70
    32
 71
     5
 42
100.0
  3
AM_JIS$0
100
AcDbAlignedDimension
 13
0.0
 23
-0.0000000000000284
 33
0.0
 14
100.0
 24
1.999999999999957
 34
0.0
100
AcDbRotatedDimension
1001
ACAD
1000
DSTYLE
1002
{
1070
   271
1070
     0
1002
}
  0
DIMENSION
  5
1EF6D
330
1F
100
AcDbEntity
  8
AM_5
100
AcDbDimension
  2
*D8
 10
77.1097187488229
 20
-7.917965325591851
 30
0.0
 11
73.60971874882284
 21
-7.917965325591851
 31
0.0
 70
   160
 71
     5
 42
7.000000000000114
  3
AM_JIS$0
100
AcDbAlignedDimension
 13
70.10971874882279
 23
3.063508326896269
 33
0.0
 14
77.1097187488229
 24
3.063508326896269
 34
0.0
100
AcDbRotatedDimension
1001
ACAD
1000
DSTYLE
1002
{
1070
   271
1070
     0
1002
}
  0
DIMENSION
  5
1EFB5
330
1F
100
AcDbEntity
  8
AM_5
100
AcDbDimension
  2
*D9
 10
72.58973336521841
 20
1.132231933371124
 30
0.0
 11
81.03217182243787
 21
18.09164617876572
 31
0.0
 70
   163
 71
     5
 42
8.000000000000021
  3
AM_JIS$3
100
AcDbDiametricDimension
 15
74.62970413242734
 25
8.867768066628681
 35
0.0
 40
0.0
1001
ACAD
1000
DSTYLE
1002
{
1070
   179
1070
     0
1070
   271
1070
     0
1002
}
  0
DIMENSION
  5
1F08D
330
1F
100
AcDbEntity
  8
AM_5
100
AcDbDimension
  2
*D10
 10
0.0
 20
-0.0000000000000284
 30
0.0
 11
-16.67553845181512
 21
17.5613579321033
 31
0.0
 70
    34
 71
     5
 42
1.623156204354729
  3
AM_JIS$2
100
AcDb2LineAngularDimension
 13
0.3898073492171648
 23
7.637022318907526
 33
0.0
 14
0.0002672756322113
 24
0.2041549294855827
 34
0.0
 15
0.1961731935820694
 25
-0.0000000000000284
 35
0.0
 16
-9.780163995078272
 26
18.37419346446076
 36
0.0
1001
ACAD
1000
DSTYLE
1002
{
1070
   179
1070
     0
1070
   271
1070
     0
1002
}
  0
DIMENSION
  5
1F176
330
1F
100
AcDbEntity
  8
AM_5
100
AcDbDimension
  2
*D11
 10
-35.82671133632181
 20
-2.044000000000011
 30
0.0
 11
-42.60801894012775
 21
-15.74927072780449
 31
0.0
 70
   162
 71
     5
 42
0.1700826358036931
  3
AM_JIS$2
100
AcDb2LineAngularDimension
 13
-34.5141872803427
 23
7.637006476613237
 33
0.0
 14
-35.79072200463924
 24
0.2041390871912938
 34
0.0
 15
-35.82671133632181
 25
4.999999999999972
 35
0.0
 16
-36.79805444576991
 26
-17.12007597847298
 36
0.0
1001
ACAD
1000
DSTYLE
1002
{
1070
   179
1070
     0
1070
   271
1070
     0
1002
}
  0
TEXT
  5
1F3B4
330
1F
100
AcDbEntity
  8
0
370
    -3
100
AcDbText
 10
11.10547782212097
 20
-76.01307572535556
 30
0.0
 40
5.0
  1
XBPT-608R
100
AcDbText
  0
ENDSEC
  0
SECTION
  2
OBJECTS
  0
DICTIONARY
  5
C
330
0
100
AcDbDictionary
281
     1
  3
ACAD_COLOR
350
1E9B6
  3
ACAD_GROUP
350
D
  3
ACAD_LAYOUT
350
1A
  3
ACAD_MATERIAL
350
1E9B5
  3
ACAD_MLINESTYLE
350
17
  3
ACAD_PLOTSETTINGS
350
19
  3
ACAD_PLOTSTYLENAME
350
E
  3
ACAD_TABLESTYLE
350
1E9B7
  3
AcAmCatalogState
350
1EA1A
  3
ACDBHEADERROUNDTRIPXREC
350
1F418
  3
AcDbVariableDictionary
350
30
  3
ACDMSYSVARMGR
350
1E9D0
  3
ACGREF_MASTER
350
17540
  3
ACGREFACAD_MASTER
350
17544
  3
AcmDictionary
350
4D
  3
ACME_BOM_MANAGER_NAME
350
1E7CD
  3
ACME_COMMAND_HISTORY
350
1E7C8
  3
ACME_SCOPE_NAME
350
1E7C7
  3
ACMESTATEMGR
350
1E7D2
  3
AcmeSysVarManager
350
1E7C9
  3
AcmSystemVariableManager
350
1E83C
  3
AD_APPL
350
1E9F8
  3
ADSYSVARMGR
350
1E9F7
  3
AmdtNamedDwgMgr
350
1E9EB
  3
AMG
350
3F
  3
AMGSNAPSETTINGS
350
73
  3
AMI_MASTER
350
17545
  3
AUTOCAD_ASSEMBLIES_PROJECT
350
1EA00
  3
Designer_Assemblies_SysVars
350
1E9FB
  3
DWGPROPS
350
1F41B
  3
eng_data
350
2A40
  3
FILENAME
350
2916
  3
GREFAM_MODULE
350
1E9F1
  3
line_dic_data
350
2A3E
  3
table_dic_data
350
1688
  3
ZWKSIZE
350
2918
  0
DICTIONARY
  5
165
330
1F
100
AcDbDictionary
280
     1
281
     1
  3
ACAD_LAYOUTSELFREF
360
1E6DC
  0
DICTIONARY
  5
1BC81
330
1B
100
AcDbDictionary
280
     1
281
     1
  3
ACAD_LAYOUTSELFREF
360
1E6DB
  0
DICTIONARY
  5
1BC83
330
23
100
AcDbDictionary
280
     1
281
     1
  3
ACAD_LAYOUTSELFREF
360
1E6DD
  0
DICTIONARY
  5
1E9B6
102
{ACAD_REACTORS
330
C
102
}
330
C
100
AcDbDictionary
281
     1
  0
DICTIONARY
  5
D
102
{ACAD_REACTORS
330
C
102
}
330
C
100
AcDbDictionary
281
     1
  0
DICTIONARY
  5
1A
102
{ACAD_REACTORS
330
C
102
}
330
C
100
AcDbDictionary
281
     1
  3
Model
350
22
  3
ﾚｲｱｳﾄ1
350
1E
  3
ﾚｲｱｳﾄ2
350
26
  0
DICTIONARY
  5
1E9B5
102
{ACAD_REACTORS
330
C
102
}
330
C
100
AcDbDictionary
281
     1
  0
DICTIONARY
  5
17
102
{ACAD_REACTORS
330
C
102
}
330
C
100
AcDbDictionary
281
     1
  3
Standard
350
18
  0
DICTIONARY
  5
19
102
{ACAD_REACTORS
330
C
102
}
330
C
100
AcDbDictionary
281
     1
  0
ACDBDICTIONARYWDFLT
  5
E
102
{ACAD_REACTORS
330
C
102
}
330
C
100
AcDbDictionary
281
     1
  3
Normal
350
F
100
AcDbDictionaryWithDefault
340
F
  0
DICTIONARY
  5
1E9B7
102
{ACAD_REACTORS
330
C
102
}
330
C
100
AcDbDictionary
281
     1
  3
Standard
350
1E9B8
  0
ACAD_PROXY_OBJECT
  5
1EA1A
102
{ACAD_REACTORS
330
C
102
}
330
C
100
AcDbProxyObject
 90
      499
 91
      582
 95
       25
 70
     0
 93
      736
310
3FFFFFFFE00A0281402A1A19D2E2237B1BAB6B2B73A399030B7321029B2BA3A34B733B9AE20B236B4B734B9BA3930BA37B92E41B341AC41A741B3C1B141BB2E413BC1B7C0ADCAE7C6AC483ECB654008C874D37E035C6B22C1B3C7640
  0
DICTIONARY
  5
1F418
102
{ACAD_REACTORS
330
C
102
}
330
C
100
AcDbDictionary
281
     1
  3
COLORDICT
350
1F419
  3
MATERIALDICT
350
1F41A
  0
DICTIONARY
  5
30
102
{ACAD_REACTORS
330
C
102
}
330
C
100
AcDbDictionary
281
     1
  3
CTABLESTYLE
350
1ED26
  3
HIDETEXT
350
1F417
  3
INDEXCTL
350
1F416
  0
ACAD_PROXY_OBJECT
  5
1E9D0
102
{ACAD_REACTORS
330
C
102
}
330
C
100
AcDbProxyObject
 90
      499
 91
      507
 95
       25
 70
     0
 93
      240
310
4C51A47A0000000000000000000000000000000000000000000000000000
330
1E9D1
330
1E9D2
330
1E9D3
330
1E9D4
330
1E9D5
330
1E9D6
330
1E9D7
330
1E9D8
330
1E9D9
330
1E9DA
330
1E9DB
330
1E9DC
330
1E9DD
330
1E9DE
330
1E9DF
330
1E9E0
330
1E9E1
330
1E9E2
330
1E9E3
330
1E9E4
330
1E9E5
330
1E9E6
330
1E9E7
330
1E9E8
330
1E9E9
330
1E9EA
 94
        0
  0
ACAD_PROXY_OBJECT
  5
17540
102
{ACAD_REACTORS
330
C
102
}
330
C
100
AcDbProxyObject
 90
      499
 91
      534
 95
       25
 70
     0
 93
       34
310
0400004280
  0
ACAD_PROXY_OBJECT
  5
17544
102
{ACAD_REACTORS
330
C
102
}
330
C
100
AcDbProxyObject
 90
      499
 91
      535
 95
       25
 70
     0
 93
      114
310
04000041C080000000000000000000
  0
DICTIONARY
  5
4D
102
{ACAD_REACTORS
330
C
102
}
330
C
100
AcDbDictionary
281
     1
  3
AcmBOMDATA
350
1E7D6
  3
AcmStdDictionary
350
17E
  3
AMDTSECTSYM_ARROWCOLOR
350
1EA0E
  0
ACAD_PROXY_OBJECT
  5
1E7CD
102
{ACAD_REACTORS
330
C
102
}
330
C
100
AcDbProxyObject
 90
      499
 91
      510
 95
       25
 70
     0
 93
       50
310
00010040400000
330
0
330
0
330
1E7CE
 94
        0
  0
ACAD_PROXY_OBJECT
  5
1E7C8
102
{ACAD_REACTORS
330
C
102
}
330
C
100
AcDbProxyObject
 90
      499
 91
      505
 95
       25
 70
     0
 93
     5722
310
478050C475249505F535452455443488050C475249505F53545245544348805055153415645404052D4D5347202D205050413A2020206465736B746F702E6172782046696C6556657273696F6E3A20392E322E302E34014191111151125510101461354D1C80B4810DBDB5B585B990810D05390D1531311510B8050C475249
310
505F5354524554434840405184D5347202D20436F6D6D616E642043414E43454C4C45442E014194D1531150D5201415454D05591501014B5354D1C80B481414104E88080819195CDADD1BDC0B985C9E08119A5B1955995C9CDA5BDB8E880E4B8C8B8C0B8D0050E414D4454524553455444424D4F4440805084E202D20554E4
310
44F014213880B4815539113C0504554E444F80504554E444F8050844524F5047454F4D8050844524F5047454F4D404052D4D5347202D205050413A2020206465736B746F702E6172782046696C6556657273696F6E3A20392E322E302E34014390535115149154D15511109353D1102014213880B4815539113C05084E202D
310
20554E444F014115539113E014115539113E014154155491D1601415454D05591501014B5354D1C80B481414104E88080819195CDADD1BDC0B985C9E08119A5B1955995C9CDA5BDB8E880E4B8C8B8C0B8D0050E414D4454524553455444424D4F4440805084E202D20554E444F014213880B4815539113C0504554E444F805
310
04554E444F805055153415645404052D4D5347202D205050413A2020206465736B746F702E6172782046696C6556657273696F6E3A20392E322E302E34014390535115149154D15511109353D1102014213880B4815539113C05084E202D20554E444F014115539113E014115539113E01419493D510551160142111493D41
310
1D153D36014151549054D1601411353D591601411693D3D3601415454D05591501014B5354D1C80B481414104E88080819195CDADD1BDC0B985C9E08119A5B1955995C9CDA5BDB8E880E4B8C8B8C0B8D00
  0
ACAD_PROXY_OBJECT
  5
1E7C7
102
{ACAD_REACTORS
330
C
102
}
330
C
100
AcDbProxyObject
 90
      499
 91
      504
 95
       25
 70
     0
 93
      586
310
09000046408000000000000000001344E200000000000000000000000000000000000000000000000000000000000000000000000000000000000000000000000000000000AAA406AA80
360
1E7CA
360
1E7CB
360
1E7CC
360
1E7CE
360
1E83D
360
1E83E
360
1E9C9
360
1E9CA
360
1E9CB
360
1E9CC
360
1E9CD
360
1E9CE
360
1E9D1
360
1E9D2
360
1E9D3
360
1E9D4
360
1E9D5
360
1E9D6
360
1E9D7
360
1E9D8
360
1E9D9
360
1E9DA
360
1E9DB
360
1E9DC
360
1E9DD
360
1E9DE
360
1E9DF
360
1E9E0
360
1E9E1
360
1E9E2
360
1E9E3
360
1E9E4
360
1E9E5
360
1E9E6
360
1E9E7
360
1E9E8
360
1E9E9
360
1E9EA
360
1E9F3
360
1E9F4
360
1E9F5
360
1E9F6
360
1E9FC
360
1E9FD
360
1E9FE
360
1E9FF
360
1EA04
360
1EA05
360
1EA06
360
1EA07
360
1EA08
360
1EA09
 94
        0
  0
ACAD_PROXY_OBJECT
  5
1E7D2
102
{ACAD_REACTORS
330
C
102
}
330
C
100
AcDbProxyObject
 90
      499
 91
      515
 95
       25
 70
     0
 93
       50
310
09000042641280
  0
ACAD_PROXY_OBJECT
  5
1E7C9
102
{ACAD_REACTORS
330
C
102
}
330
C
100
AcDbProxyObject
 90
      499
 91
      507
 95
       25
 70
     0
 93
       48
310
903412000000
330
1E7CA
330
1E7CB
330
1E7CC
 94
        0
  0
ACAD_PROXY_OBJECT
  5
1E83C
102
{ACAD_REACTORS
330
C
102
}
330
C
100
AcDbProxyObject
 90
      499
 91
      507
 95
       25
 70
     0
 93
       40
310
90240E0000
330
1E83D
330
1E83E
 94
        0
  0
ACAD_PROXY_OBJECT
  5
1E9F8
102
{ACAD_REACTORS
330
C
102
}
330
C
100
AcDbProxyObject
 90
      499
 91
      569
 95
       25
 70
     0
 93
       42
310
000900004040
330
1E9F3
 94
        0
  0
ACAD_PROXY_OBJECT
  5
1E9F7
102
{ACAD_REACTORS
330
C
102
}
330
C
100
AcDbProxyObject
 90
      499
 91
      507
 95
       25
 70
     0
 93
        8
310
AA
  0
ACAD_PROXY_OBJECT
  5
1E9EB
102
{ACAD_REACTORS
330
C
102
}
330
C
100
AcDbProxyObject
 90
      499
 91
      560
 95
       25
 70
     0
 93
       42
310
000100005E80
330
1E9C9
 94
        0
  0
DICTIONARY
  5
3F
102
{ACAD_REACTORS
330
C
102
}
330
C
100
AcDbDictionary
281
     1
  3
AcMgSettings
350
40
  3
AMGLAYCFG
350
1E7DA
  0
DICTIONARY
  5
73
102
{ACAD_REACTORS
330
C
102
}
330
C
100
AcDbDictionary
281
     1
  0
ACAD_PROXY_OBJECT
  5
17545
102
{ACAD_REACTORS
330
C
102
}
330
C
100
AcDbProxyObject
 90
      499
 91
      536
 95
       25
 70
     0
 93
       34
310
0500004280
  0
ACAD_PROXY_OBJECT
  5
1EA00
102
{ACAD_REACTORS
330
C
102
}
330
C
100
AcDbProxyObject
 90
      499
 91
      572
 95
       25
 70
     0
 93
       98
310
0900004E400000000000000000
330
1EA07
330
0
330
1EA08
330
0
330
0
330
0
330
0
330
0
 94
        0
  0
ACAD_PROXY_OBJECT
  5
1E9FB
102
{ACAD_REACTORS
330
C
102
}
330
C
100
AcDbProxyObject
 90
      499
 91
      507
 95
       25
 70
     0
 93
       56
310
90441600000000
330
1E9FC
330
1E9FD
330
1E9FE
330
1E9FF
 94
        0
  0
XRECORD
  5
1F41B
102
{ACAD_REACTORS
330
C
102
}
330
C
100
AcDbXrecord
280
     1
  1
DWGPROPS COOKIE
  2

  3

  4

  6

  7

  8

  9

300
AmdtFileType=82
301
=
302
=
303
=
304
=
305
=
306
=
307
=
308
=
309
=
 40
0.0
 41
2451943.235431667
 42
2455441.117901829
  1

 90
        1
  0
DICTIONARY
  5
2A40
102
{ACAD_REACTORS
330
C
102
}
330
C
100
AcDbDictionary
281
     1
  3
eng_id
350
2A41
  0
DICTIONARY
  5
2916
102
{ACAD_REACTORS
330
C
102
}
330
C
100
AcDbDictionary
281
     1
  3
FILENAME
350
2917
  0
ACAD_PROXY_OBJECT
  5
1E9F1
102
{ACAD_REACTORS
330
C
102
}
330
C
100
AcDbProxyObject
 90
      499
 91
      563
 95
       25
 70
     0
 93
        8
310
05
  0
DICTIONARY
  5
2A3E
102
{ACAD_REACTORS
330
C
102
}
330
C
100
AcDbDictionary
281
     1
  3
line_data
350
2A3F
  0
DICTIONARY
  5
1688
102
{ACAD_REACTORS
330
C
102
}
330
C
100
AcDbDictionary
281
     1
  3
input_data
350
168A
  3
table_data
350
1689
  0
DICTIONARY
  5
2918
102
{ACAD_REACTORS
330
C
102
}
330
C
100
AcDbDictionary
281
     1
  3
ZWKSIZE
350
2919
  0
XRECORD
  5
1E6DC
102
{ACAD_REACTORS
330
165
102
}
330
165
100
AcDbXrecord
280
     1
340
1F
  0
XRECORD
  5
1E6DB
102
{ACAD_REACTORS
330
1BC81
102
}
330
1BC81
100
AcDbXrecord
280
     1
340
1B
  0
XRECORD
  5
1E6DD
102
{ACAD_REACTORS
330
1BC83
102
}
330
1BC83
100
AcDbXrecord
280
     1
340
23
  0
LAYOUT
  5
22
102
{ACAD_REACTORS
330
1A
102
}
330
1A
100
AcDbPlotSettings
  1

  2
SII LP-2150 (D-SCAN C2)
  4
User262
  6
AM_VIEW1
 40
3.174999952316284
 41
3.174999952316284
 42
3.17498779296875
 43
3.17498779296875
 44
296.9259948730469
 45
419.9889831542969
 46
0.0
 47
0.0
 48
0.0
 49
0.0
140
420.0
141
297.0
142
1.0
143
1.022107788374329
 70
 11952
 72
     1
 73
     1
 74
     4
  7
sei_cad.ctb
 75
     0
147
0.9783703943695685
148
0.0
149
0.0
100
AcDbLayout
  1
Model
 70
     1
 71
     0
 10
0.0
 20
0.0
 11
12.0
 21
9.0
 12
0.0
 22
0.0
 32
0.0
 14
0.0
 24
0.0
 34
0.0
 15
0.0
 25
0.0
 35
0.0
146
0.0
 13
0.0
 23
0.0
 33
0.0
 16
1.0
 26
0.0
 36
0.0
 17
0.0
 27
1.0
 37
0.0
 76
     0
330
1F
  0
LAYOUT
  5
1E
102
{ACAD_REACTORS
330
1A
102
}
330
1A
100
AcDbPlotSettings
  1

  2
Canon LASER SHOT LBP-2030
  4

  6

 40
0.0
 41
0.0
 42
0.0
 43
0.0
 44
0.0
 45
0.0
 46
0.0
 47
0.0
 48
0.0
 49
0.0
140
0.0
141
0.0
142
1.0
143
1.0
 70
   688
 72
     0
 73
     0
 74
     5
  7
sei_cad.ctb
 75
    16
147
1.0
148
0.0
149
0.0
100
AcDbLayout
  1
ﾚｲｱｳﾄ1
 70
     1
 71
     1
 10
0.0
 20
0.0
 11
420.0
 21
297.0
 12
0.0
 22
0.0
 32
0.0
 14
1.000000000000000E+20
 24
1.000000000000000E+20
 34
1.000000000000000E+20
 15
-1.000000000000000E+20
 25
-1.000000000000000E+20
 35
-1.000000000000000E+20
146
0.0
 13
0.0
 23
0.0
 33
0.0
 16
1.0
 26
0.0
 36
0.0
 17
0.0
 27
1.0
 37
0.0
 76
     0
330
1B
  0
LAYOUT
  5
26
102
{ACAD_REACTORS
330
1A
102
}
330
1A
100
AcDbPlotSettings
  1

  2
Canon LASER SHOT LBP-2030
  4

  6

 40
0.0
 41
0.0
 42
0.0
 43
0.0
 44
0.0
 45
0.0
 46
0.0
 47
0.0
 48
0.0
 49
0.0
140
0.0
141
0.0
142
1.0
143
1.0
 70
   688
 72
     0
 73
     0
 74
     5
  7
sei_cad.ctb
 75
    16
147
1.0
148
0.0
149
0.0
100
AcDbLayout
  1
ﾚｲｱｳﾄ2
 70
     1
 71
     2
 10
0.0
 20
0.0
 11
12.0
 21
9.0
 12
0.0
 22
0.0
 32
0.0
 14
0.0
 24
0.0
 34
0.0
 15
0.0
 25
0.0
 35
0.0
146
0.0
 13
0.0
 23
0.0
 33
0.0
 16
1.0
 26
0.0
 36
0.0
 17
0.0
 27
1.0
 37
0.0
 76
     0
330
23
  0
MLINESTYLE
  5
18
102
{ACAD_REACTORS
330
17
102
}
330
17
100
AcDbMlineStyle
  2
STANDARD
 70
     0
  3

 62
   256
 51
90.0
 52
90.0
 71
     2
 49
0.5
 62
   256
  6
BYLAYER
 49
-0.5
 62
   256
  6
BYLAYER
  0
ACDBPLACEHOLDER
  5
F
102
{ACAD_REACTORS
330
E
102
}
330
E
  0
TABLESTYLE
  5
1E9B8
102
{ACAD_REACTORS
330
1E9B7
102
}
330
1E9B7
100
AcDbTableStyle
  3
Standard
 70
     0
 71
     8
 40
1.5
 41
1.5
280
     0
281
     0
  7
STANDARD
140
4.5
170
     2
 62
     0
 63
     7
283
     0
274
    -2
284
     1
 64
     0
275
    -2
285
     1
 65
     0
276
    -2
286
     1
 66
     0
277
    -2
287
     1
 67
     0
278
    -2
288
     1
 68
     0
279
    -2
289
     1
 69
     0
  7
STANDARD
140
6.0
170
     5
 62
     0
 63
     7
283
     0
274
    -2
284
     1
 64
     0
275
    -2
285
     1
 65
     0
276
    -2
286
     1
 66
     0
277
    -2
287
     1
 67
     0
278
    -2
288
     1
 68
     0
279
    -2
289
     1
 69
     0
  7
STANDARD
140
4.5
170
     5
 62
     0
 63
     7
283
     0
274
    -2
284
     1
 64
     0
275
    -2
285
     1
 65
     0
276
    -2
286
     1
 66
     0
277
    -2
287
     1
 67
     0
278
    -2
288
     1
 68
     0
279
    -2
289
     1
 69
     0
  0
XRECORD
  5
1F419
102
{ACAD_REACTORS
330
1F418
102
}
330
1F418
100
AcDbXrecord
280
     1
340
1E9B6
  0
XRECORD
  5
1F41A
102
{ACAD_REACTORS
330
1F418
102
}
330
1F418
100
AcDbXrecord
280
     1
340
1E9B5
  0
DICTIONARYVAR
  5
1ED26
102
{ACAD_REACTORS
330
30
102
}
330
30
100
DictionaryVariables
280
     0
  1
STANDARD
  0
DICTIONARYVAR
  5
1F417
102
{ACAD_REACTORS
330
30
102
}
330
30
100
DictionaryVariables
280
     0
  1
0
  0
DICTIONARYVAR
  5
1F416
102
{ACAD_REACTORS
330
30
102
}
330
30
100
DictionaryVariables
280
     0
  1
1
  0
ACAD_PROXY_OBJECT
  5
1E7D6
102
{ACAD_REACTORS
330
4D
102
}
330
4D
100
AcDbProxyObject
 90
      499
 91
      520
 95
       25
 70
     0
 93
      118
310
405010040CA904C415CD5B075DD048
350
1E7D7
 94
        0
  0
DICTIONARY
  5
17E
102
{ACAD_REACTORS
330
4D
102
}
330
4D
100
AcDbDictionary
281
     1
  3
JIS
350
1E83F
  0
XRECORD
  5
1EA0E
102
{ACAD_REACTORS
330
4D
102
}
330
4D
100
AcDbXrecord
280
     1
 90
-1023410169
  0
ACAD_PROXY_OBJECT
  5
1E7CA
330
1E7C7
100
AcDbProxyObject
 90
      499
 91
      508
 95
       25
 70
     0
 93
      156
310
00010143D050D351505391D5531054925390D490
330
1E7C7
 94
        0
  0
ACAD_PROXY_OBJECT
  5
1E7CB
330
1E7C7
100
AcDbProxyObject
 90
      499
 91
      508
 95
       25
 70
     0
 93
      148
310
000101439050D351531253915054925390D490
330
1E7C7
 94
        0
  0
ACAD_PROXY_OBJECT
  5
1E7CC
330
1E7C7
100
AcDbProxyObject
 90
      499
 91
      509
 95
       25
 70
     0
 93
      156
310
000101439050D35154D6535093D314D256915080
330
1E7C7
 94
        0
  0
ACAD_PROXY_OBJECT
  5
1E7CE
330
1E7C7
100
AcDbProxyObject
 90
      499
 91
      511
 95
       25
 70
     0
 93
       88
310
000101411093D34C402B00
330
1E7C7
330
0
330
0
 94
        0
  0
ACAD_PROXY_OBJECT
  5
1E83D
330
1E7C7
100
AcDbProxyObject
 90
      499
 91
      509
 95
       25
 70
     0
 93
      108
310
00010142505351D153D35054D4E0
330
1E7C7
 94
        0
  0
ACAD_PROXY_OBJECT
  5
1E83E
330
1E7C7
100
AcDbProxyObject
 90
      499
 91
      522
 95
       25
 70
     0
 93
      140
310
00010142105350D55494D511005034A49530
330
1E7C7
 94
        0
  0
ACAD_PROXY_OBJECT
  5
1E9C9
330
1E7C7
100
AcDbProxyObject
 90
      499
 91
      556
 95
       25
 70
     0
 93
      358
310
0001014124FEA55D00507392E322E302E32014124FEA55D00507392E322E302E3240501000041505391D311658
330
1E7C7
330
1E9CA
330
1E9D0
 94
        0
  0
ACAD_PROXY_OBJECT
  5
1E9CA
330
1E7C7
100
AcDbProxyObject
 90
      499
 91
      557
 95
       25
 70
     0
 93
       56
310
000190240E0000
330
1E7C7
330
1E9CB
330
1E9CD
 94
        0
  0
ACAD_PROXY_OBJECT
  5
1E9CB
330
1E7C7
100
AcDbProxyObject
 90
      499
 91
      558
 95
       25
 70
     0
 93
       48
310
0001AA000000
330
1E7C7
330
1E
330
1E9CC
330
0
 94
        0
  0
ACAD_PROXY_OBJECT
  5
1E9CC
330
1E7C7
100
AcDbProxyObject
 90
      499
 91
      559
 95
       25
 70
     0
 93
       28
310
0001AAA0
330
1E7C7
 94
        0
  0
ACAD_PROXY_OBJECT
  5
1E9CD
330
1E7C7
100
AcDbProxyObject
 90
      499
 91
      558
 95
       25
 70
     0
 93
       48
310
0001AA000000
330
1E7C7
330
26
330
1E9CE
330
0
 94
        0
  0
ACAD_PROXY_OBJECT
  5
1E9CE
330
1E7C7
100
AcDbProxyObject
 90
      499
 91
      559
 95
       25
 70
     0
 93
       28
310
0001AAA0
330
1E7C7
 94
        0
  0
ACAD_PROXY_OBJECT
  5
1E9D1
330
1E7C7
100
AcDbProxyObject
 90
      499
 91
      509
 95
       25
 70
     0
 93
      108
310
000101421053521310D05310D010
330
1E7C7
 94
        0
  0
ACAD_PROXY_OBJECT
  5
1E9D2
330
1E7C7
100
AcDbProxyObject
 90
      499
 91
      509
 95
       25
 70
     0
 93
      124
310
00010142905354915554D15112535010
330
1E7C7
 94
        0
  0
ACAD_PROXY_OBJECT
  5
1E9D3
330
1E7C7
100
AcDbProxyObject
 90
      499
 91
      509
 95
       25
 70
     0
 93
      132
310
00010143105354D150D51253D391125360
330
1E7C7
 94
        0
  0
ACAD_PROXY_OBJECT
  5
1E9D4
330
1E7C7
100
AcDbProxyObject
 90
      499
 91
      509
 95
       25
 70
     0
 93
      124
310
00010142905355941093D49111549010
330
1E7C7
 94
        0
  0
ACAD_PROXY_OBJECT
  5
1E9D5
330
1E7C7
100
AcDbProxyObject
 90
      499
 91
      509
 95
       25
 70
     0
 93
      116
310
0001014290535115D1D0D3D313D4A0
330
1E7C7
 94
        0
  0
ACAD_PROXY_OBJECT
  5
1E9D6
330
1E7C7
100
AcDbProxyObject
 90
      499
 91
      509
 95
       25
 70
     0
 93
      148
310
00010143505355925155D49151949154D21010
330
1E7C7
 94
        0
  0
ACAD_PROXY_OBJECT
  5
1E9D7
330
1E7C7
100
AcDbProxyObject
 90
      499
 91
      509
 95
       25
 70
     0
 93
      172
310
00010144105350539393D51154149154D15495915010
330
1E7C7
 94
        0
  0
ACAD_PROXY_OBJECT
  5
1E9D8
330
1E7C7
100
AcDbProxyObject
 90
      499
 91
      509
 95
       25
 70
     0
 93
      172
310
00010144105350555513D11253505494905391D15010
330
1E7C7
 94
        0
  0
ACAD_PROXY_OBJECT
  5
1E9D9
330
1E7C7
100
AcDbProxyObject
 90
      499
 91
      509
 95
       25
 70
     0
 93
      124
310
00010142D05351561514915191125360
330
1E7C7
 94
        0
  0
ACAD_PROXY_OBJECT
  5
1E9DA
330
1E7C7
100
AcDbProxyObject
 90
      499
 91
      509
 95
       25
 70
     0
 93
      132
310
00010142D05355105410539393D5115010
330
1E7C7
 94
        0
  0
ACAD_PROXY_OBJECT
  5
1E9DB
330
1E7C7
100
AcDbProxyObject
 90
      499
 91
      509
 95
       25
 70
     0
 93
      108
310
00010142105350555513D0D31010
330
1E7C7
 94
        0
  0
ACAD_PROXY_OBJECT
  5
1E9DC
330
1E7C7
100
AcDbProxyObject
 90
      499
 91
      509
 95
       25
 70
     0
 93
      108
310
00010142105350D3119150551050
330
1E7C7
 94
        0
  0
ACAD_PROXY_OBJECT
  5
1E9DD
330
1E7C7
100
AcDbProxyObject
 90
      499
 91
      509
 95
       25
 70
     0
 93
      108
310
00010142105350D315925155D3F0
330
1E7C7
 94
        0
  0
ACAD_PROXY_OBJECT
  5
1E9DE
330
1E7C7
100
AcDbProxyObject
 90
      499
 91
      509
 95
       25
 70
     0
 93
      148
310
0001014350535212511156915493D112535010
330
1E7C7
 94
        0
  0
ACAD_PROXY_OBJECT
  5
1E9DF
330
1E7C7
100
AcDbProxyObject
 90
      499
 91
      509
 95
       25
 70
     0
 93
      124
310
00010142905352105510D21254D3D010
330
1E7C7
 94
        0
  0
ACAD_PROXY_OBJECT
  5
1E9E0
330
1E7C7
100
AcDbProxyObject
 90
      499
 91
      509
 95
       25
 70
     0
 93
      148
310
00010143905354D25391D31152105513105660
330
1E7C7
 94
        0
  0
ACAD_PROXY_OBJECT
  5
1E9E1
330
1E7C7
100
AcDbProxyObject
 90
      499
 91
      509
 95
       25
 70
     0
 93
      124
310
00010142D0535115D1D193111254D420
330
1E7C7
 94
        0
  0
ACAD_PROXY_OBJECT
  5
1E9E2
330
1E7C7
100
AcDbProxyObject
 90
      499
 91
      509
 95
       25
 70
     0
 93
      100
310
00010142105350555513D213A0
330
1E7C7
 94
        0
  0
ACAD_PROXY_OBJECT
  5
1E9E3
330
1E7C7
100
AcDbProxyObject
 90
      499
 91
      509
 95
       25
 70
     0
 93
      116
310
000101425053521390D3D553951010
330
1E7C7
 94
        0
  0
ACAD_PROXY_OBJECT
  5
1E9E4
330
1E7C7
100
AcDbProxyObject
 90
      499
 91
      509
 95
       25
 70
     0
 93
      108
310
0001014210535213941493D29010
330
1E7C7
 94
        0
  0
ACAD_PROXY_OBJECT
  5
1E9E5
330
1E7C7
100
AcDbProxyObject
 90
      499
 91
      509
 95
       25
 70
     0
 93
      108
310
0001014210535213951654115070
330
1E7C7
 94
        0
  0
ACAD_PROXY_OBJECT
  5
1E9E6
330
1E7C7
100
AcDbProxyObject
 90
      499
 91
      509
 95
       25
 70
     0
 93
      108
310
000101421053521395925155D0F0
330
1E7C7
 94
        0
  0
ACAD_PROXY_OBJECT
  5
1E9E7
330
1E7C7
100
AcDbProxyObject
 90
      499
 91
      509
 95
       25
 70
     0
 93
      140
310
00010143505354D150D51253D390D3D41660
330
1E7C7
 94
        0
  0
ACAD_PROXY_OBJECT
  5
1E9E8
330
1E7C7
100
AcDbProxyObject
 90
      499
 91
      509
 95
       25
 70
     0
 93
      108
310
00010142105350D3141493D29030
330
1E7C7
 94
        0
  0
ACAD_PROXY_OBJECT
  5
1E9E9
330
1E7C7
100
AcDbProxyObject
 90
      499
 91
      508
 95
       25
 70
     0
 93
      212
310
00010143905350555513D2105510D21493D500000000000002E400
330
1E7C7
 94
        0
  0
ACAD_PROXY_OBJECT
  5
1E9EA
330
1E7C7
100
AcDbProxyObject
 90
      499
 91
      509
 95
       25
 70
     0
 93
      156
310
00010143905350555513D2105510D21111551010
330
1E7C7
 94
        0
  0
ACAD_PROXY_OBJECT
  5
1E9F3
330
1E7C7
100
AcDbProxyObject
 90
      499
 91
      565
 95
       25
 70
     0
 93
      698
310
0001000000009AA6A9AA4051E547565204A756E2030362030373A33323A333420323030362028555443290141CE4B8C8B8C0B8C80518576564205365702030312031313A34393A343620323031300141CE4B8C8B8C0B8C80
330
1E7C7
330
1E9F4
330
1E9F5
330
1E9F7
330
0
 94
        0
  0
ACAD_PROXY_OBJECT
  5
1E9F4
330
1E7C7
100
AcDbProxyObject
 90
      499
 91
      566
 95
       25
 70
     0
 93
       70
310
0001AAA80820000000
330
1E7C7
330
1E9F4
330
1E9F4
 94
        0
  0
ACAD_PROXY_OBJECT
  5
1E9F5
330
1E7C7
100
AcDbProxyObject
 90
      499
 91
      567
 95
       25
 70
     0
 93
       48
310
000100000000
330
1E7C7
330
0
330
1E9F6
330
0
330
0
 94
        0
  0
ACAD_PROXY_OBJECT
  5
1E9F6
330
1E7C7
100
AcDbProxyObject
 90
      499
 91
      568
 95
       25
 70
     0
 93
       40
310
000100AAAA
330
1E7C7
330
0
 94
        0
  0
ACAD_PROXY_OBJECT
  5
1E9FC
330
1E7C7
100
AcDbProxyObject
 90
      499
 91
      522
 95
       25
 70
     0
 93
      180
310
00010143105050D3D35411119390535140504434F4D500
330
1E7C7
 94
        0
  0
ACAD_PROXY_OBJECT
  5
1E9FD
330
1E7C7
100
AcDbProxyObject
 90
      499
 91
      522
 95
       25
 70
     0
 93
      212
310
0001014390505193D311115491119390535140506466F6C6465720
330
1E7C7
 94
        0
  0
ACAD_PROXY_OBJECT
  5
1E9FE
330
1E7C7
100
AcDbProxyObject
 90
      499
 91
      522
 95
       25
 70
     0
 93
      180
310
00010143105050539393D1119390535140504284156290
330
1E7C7
 94
        0
  0
ACAD_PROXY_OBJECT
  5
1E9FF
330
1E7C7
100
AcDbProxyObject
 90
      499
 91
      522
 95
       25
 70
     0
 93
      436
310
00010143905050D3D35415925155D31254D50052295BD96CA0A90B396CA0A894591A496CA0A8DB691A496CA0A89BA96CA0A95E28F95310
330
1E7C7
 94
        0
  0
ACAD_PROXY_OBJECT
  5
1EA04
330
1E7C7
100
AcDbProxyObject
 90
      499
 91
      573
 95
       25
 70
     0
 93
       32
310
00010000
330
1E7C7
340
1EA01
330
1EA06
330
1EA01
 94
        0
  0
ACAD_PROXY_OBJECT
  5
1EA05
330
1E7C7
100
AcDbProxyObject
 90
      499
 91
      574
 95
       25
 70
     0
 93
       18
310
000180
330
1E7C7
 94
        0
  0
ACAD_PROXY_OBJECT
  5
1EA06
330
1E7C7
100
AcDbProxyObject
 90
      499
 91
      575
 95
       25
 70
     0
 93
      162
310
00010142561094150B4D8C0E149050055401550000
330
1E7C7
330
1EA04
330
1EA05
 94
        0
  0
ACAD_PROXY_OBJECT
  5
1EA07
330
1E7C7
100
AcDbProxyObject
 90
      499
 91
      576
 95
       25
 70
     0
 93
      178
310
000100AAAAAA8E64EC146F2110136462E1A79FB58BB200
330
1E7C7
330
1EA06
 94
        0
  0
ACAD_PROXY_OBJECT
  5
1EA08
330
1E7C7
100
AcDbProxyObject
 90
      499
 91
      577
 95
       25
 70
     0
 93
      108
310
000190140A000000000000AAAAA0
330
1E7C7
330
1EA09
330
1EA09
330
1EA09
330
1EA09
330
1EA09
330
0
 94
        0
  0
ACAD_PROXY_OBJECT
  5
1EA09
330
1E7C7
100
AcDbProxyObject
 90
      499
 91
      578
 95
       25
 70
     0
 93
       51
310
00010000AAAA80
330
1E7C7
330
1EA08
330
1EA06
 94
        0
  0
DICTIONARY
  5
40
102
{ACAD_REACTORS
330
3F
102
}
330
3F
100
AcDbDictionary
281
     1
  3
DWGSETTINGS
350
1E7C4
  3
TRANSSETTINGS
350
1E7C5
  0
ACAD_PROXY_OBJECT
  5
1E7DA
102
{ACAD_REACTORS
330
3F
102
}
330
3F
100
AcDbProxyObject
 90
      499
 91
      519
 95
       25
 70
     0
 93
    23256
310
41501491013041105357CC201C00030C0132441013141105357CC603800030C0132441013241105357CCA01400030C0132441013341105357CCE01800030C01199013441105357CD200C00030C01199013541105357CD600C00030C01199013641105357CDA00800030C01239013741105357CDE01000030C0119901384110
310
5357CE200400030C01199013941105357CE63F400030C0241102324141505357CC4C201C00030C0132902344141505357CC4C600C00030C0119902495041505357CC4CA01C00030C013240902304E41505357CC13A01C00030C0132902314E41505357CC53A03800030C0132902324E41505357CC93A01400030C013290233
310
4E41505357CCD3A01800030C0119902344E41505357CD13A00C00030C0119902354E41505357CD53A00C00030C0119902364E41505357CD93A00800030C0123902374E41505357CDD3A01000030C0119902384E41505357CE13A00400030C0119902394E41505357CE53A3F400030C024110332414E41905357CC4C13A01C0
310
0030C013290334414E41905357CC4C53A00C00030C011990349504E41905357CC4C93A01C00030C0132409044B4C494E41505357D0D3200400030C011942504494E464F42105357D410549151A01000030C011942D055241484D3541905357D093D4A01C00030C0132425045649455742105357D5925155D4E00400030C011
310
942D06424548494E4441905357D25395A3F400030C0243505545241494C41505357D514A00C00030C01194250348494441905357D21251201C00030C01194250356495341905357D59254E01C00030C01324250650415244494D42505357D41054911253600C00030C01194250652454644494D42505357D49151911253601
310
000030C0119425774110531514901348070000C3004C9034110915312501348000000C0003FFFFFFFD034110921395901398000000C0003FFFFFFFE415092139594D06424548494E448000000C0003FFFFFFFE411093125110234418000000C0003FFFFFFFD03411093D05410234418000000C0003FFFFFFFD03411093D48C
310
9055241484D358010000C300466411093D48CD055241484D358020000C30048E411093D48D5055241484D358000000C0003FFFFFFFE411093D48DD055241484D3581E0000C30051903411094105410234418000000C0003FFFFFFFD03411094115610234418000000C0003FFFFFFFD034110951112501358000000C0003FFF
310
FFFFD034110D0530C901348000000C0003FFFFFFFE4110D0530CD01348020000C30048E4110D0530D501348070000C3004CA4110D0530DD013481E0000C30051A4110D15393901378000000C0003FFFFFFFE4110D15395D01378000000C0003FFFFFFFE4110D312539044B4C494E8000000C0003FFFFFFFE4110D3D38C5013
310
08000000C0003FFFFFFFD034110D3D38C901318000000C0003FFFFFFFD034110D3D38CD01328000000C0003FFFFFFFD034110D3D38D101328000000C0003FFFFFFFD034111115494101348000000C0003FFFFFFFD034111115510501348000000C0003FFFFFFFE4111125051D01358000000C0003FFFFFFFE4111125312501
310
358000000C0003FFFFFFFE411112535410650415244494D8000000C0003FFFFFFFE411112535490652454644494D8000000C0003FFFFFFFE411156135410234418000000C0003FFFFFFFD034111915353901388000000C0003FFFFFFFE415191535413901388030000C3003FFFFFFFE4151915354D410234418000000C0003
310
FFFFFFFE4151915354D510234418030000C300466415191535593901328000000C0003FFFFFFFE415191535595101328030000C3004664111931055101308000000C0003FFFFFFFD03411194905490234418000000C0003FFFFFFFD034111D49312501358000000C0003FFFFFFFD034111D5931250234418000000C0003FFF
310
FFFFD034112105510D01388000000C0003FFFFFFFD014112125113901338000000C0003FFFFFFFD034112125115D01338000000C0003FFFFFFFD034112131253901348000000C0003FFFFFFFD01411213D0D3901378000000C0003FFFFFFFE411213D0D5D01378000000C0003FFFFFFFE4112539193D04494E464F8000000C
310
0003FFFFFFFE4113105112501348000000C0003FFFFFFFD034113115051101358000000C0003FFFFFFFE419397D0921395902394E8000000C0003FFFFFFFE419397D0D3D38C502304E8000000C0003FFFFFFFD03419397D0D3D38C902314E8000000C0003FFFFFFFD03419397D0D3D38CD02324E8000000C0003FFFFFFFD03
310
419397D0D3D38D102324E8000000C0003FFFFFFFD03419397D0D15393902374E8000000C0003FFFFFFFE419397D0D15395D02374E8000000C0003FFFFFFFE419397D1125312502354E8000000C0003FFFFFFFE419397D2105510D02384E8000000C0003FFFFFFFD01419397D2125113902334E8000000C0003FFFFFFFD0341
310
9397D2125115D02334E8000000C0003FFFFFFFD03419397D3115051102354E8000000C0003FFFFFFFE419397D391D25410349504E8000000C0003FFFFFFFE419397D412105390334414E8000000C0003FFFFFFFE419397D510D3D3902304E8000000C0003FFFFFFFD03419397D5121312502344E8000000C0003FFFFFFFD01
310
419397D5131153902304E8000000C0003FFFFFFFD03419397D516150CD02364E8000000C0003FFFFFFFD03419397D594131250332414E8000000C0003FFFFFFFE411391D25410249508000000C0003FFFFFFFE411410530C9055241484D358010000C300466411410530CD055241484D358020000C30048E411410530D5055
310
241484D358000000C0003FFFFFFFE411410530DD055241484D3581E0000C30051903411412105390234418000000C0003FFFFFFFE411413D4D3901368070000C3004CA419413D4D49151901368050000C3004C903411413D4D6101368000000C0003FFFFFFFD03411414D150D0234418000000C0003FFFFFFFD03411490D1D
310
3901378000000C0003FFFFFFFE411490D1D5D01378000000C0003FFFFFFFE4114919112501348000000C0003FFFFFFFD034114945514901348070000C3004C903411494D093D01348000000C0003FFFFFFFD034114D09492D01348000000C0003FFFFFFFD014114D0D153901378000000C0003FFFFFFFD034114D150D51013
310
48000000C0003FFFFFFFD014114D15313901378000000C0003FFFFFFFD034114D15315D01378000000C0003FFFFFFFD034114D4D654D01308000000C0003FFFFFFFD034114D51312501348070000C3004C9034114D6508C501358000000C0003FFFFFFFD034114D6508C901358000000C0003FFFFFFFD034114D6508CD0135
310
8020000C30048E4114D6508D501358070000C3004C9034114D65353901378000000C0003FFFFFFFD034114D65355D01378000000C0003FFFFFFFD03411510D3D3901308000000C0003FFFFFFFD034115121312501348000000C0003FFFFFFFD01411512550C9055241484D358010000C300466411512550CD055241484D358
310
020000C30048E411512550D5055241484D358000000C0003FFFFFFFE411512550DD055241484D3581E0000C300519034115131153901308000000C0003FFFFFFFD03415514905253105545241494C8000000C0003FFFFFFFE41151492D3901378000000C0003FFFFFFFD0341151492D5D01378000000C0003FFFFFFFD03411
310
5149312501348000000C0003FFFFFFFD01411516150C501368030000C300466411516150C901368030000C300466411516150CD01368000000C0003FFFFFFFE411516150D501368070000C3004CA411516150DD013681E0000C30051A4115925155D04564945578000000C0003FFFFFFFE41159151121034849448000000C0
310
003FFFFFFFD0241159151159035649538000000C0003FFFFFFFD02411594131250232418000000C0003FFFFFFFE4116925690501348000000C0003FFFFFFFD01411354D653501358020000C30048EAAA00000030401013F90A405194092340D1941119415324191941D3243932479467F6
340
16
340
16
340
16
340
43
340
16
340
16
340
16
340
44
340
16
340
16
340
44
340
45
340
16
340
16
340
16
340
16
340
43
340
16
340
16
340
16
340
44
340
16
340
16
340
44
340
45
340
16
340
46
340
16
340
16
340
16
340
16
340
16
340
43
340
16
340
16
340
16
340
47
340
15
340
15
340
15
340
15
340
15
340
15
340
15
340
15
340
15
340
15
340
15
340
15
340
15
340
15
340
15
340
15
340
48
340
15
340
15
340
15
340
15
340
15
340
15
340
15
340
15
340
15
340
15
340
15
340
15
340
15
340
15
340
15
340
16
340
15
340
15
340
15
340
15
340
15
340
15
340
15
340
15
340
47
340
15
340
15
340
48
340
15
340
15
340
15
340
15
340
15
340
15
340
15
340
15
340
15
340
48
340
15
340
15
340
15
340
47
340
15
340
15
340
15
340
15
340
15
340
15
340
15
340
15
340
15
340
15
340
15
340
15
340
15
340
15
340
15
340
15
340
15
340
15
340
15
340
48
340
15
340
15
340
48
340
15
340
15
340
16
340
15
340
48
340
15
340
15
340
47
340
15
340
15
340
16
340
15
340
48
340
15
340
15
340
15
340
15
340
15
340
15
340
15
340
15
340
15
340
48
340
15
340
15
340
15
340
15
340
15
340
15
340
15
340
15
340
15
340
15
340
15
340
4B
340
16
 94
        0
  0
XRECORD
  5
2A41
102
{ACAD_REACTORS
330
2A40
102
}
330
2A40
100
AcDbXrecord
280
     1
  1
LINE
  0

  0
XRECORD
  5
2917
102
{ACAD_REACTORS
330
2916
102
}
330
2916
100
AcDbXrecord
280
     1
  1
25000259__00___
  0

  0
XRECORD
  5
2A3F
102
{ACAD_REACTORS
330
2A3E
102
}
330
2A3E
100
AcDbXrecord
280
     1
  1
110 ^M^J ^M^J ^M^J ^M^J ^M^J ^M^J ^M^J ^M^J ^M^J ^M^J ^M^Jボーリングクイル ^M^J鋼 ^M^J特型 ^M^J直付け ^M^Jストレート ^M^J25 ^M^J2 ^M^J ^M^Jアルミ ^M^J ^M^J
  0

  0
XRECORD
  5
168A
102
{ACAD_REACTORS
330
1688
102
}
330
1688
100
AcDbXrecord
280
     1
  1
1,,,,,,,,,^M^J2,,,,,,,,,^M^J3,,,,,,,,,^M^J4,,,,,,,,,^M^J5,,,,,,,,,^M^J6,,,,,,,,,^M^J7,,,,,,,,,^M^J8,,,,,,,,,^M^J9,,,,,,,,,^M^J10,,,,,,,,,
  0

  0
XRECORD
  5
1689
102
{ACAD_REACTORS
330
1688
102
}
330
1688
100
AcDbXrecord
280
     1
  1
10,10
  0

  0
XRECORD
  5
2919
102
{ACAD_REACTORS
330
2918
102
}
330
2918
100
AcDbXrecord
280
     1
  1
3
  0

  0
ACAD_PROXY_OBJECT
  5
1E7D7
102
{ACAD_REACTORS
330
1E7D6
102
}
330
1E7D6
100
AcDbProxyObject
 90
      499
 91
      521
 95
       25
 70
     0
 93
      157
310
057356C1D77406406AA8FFFFFFFF05DD01009010
330
1F
330
0
330
1EA06
 94
        0
  0
ACAD_PROXY_OBJECT
  5
1E83F
102
{ACAD_REACTORS
330
17E
102
}
330
17E
100
AcDbProxyObject
 90
      499
 91
      526
 95
       25
 70
     0
 93
     2379
310
5DC33333333333309408000000C00040D29254D01640600800030C0200800030C003333333333330940C8121E8720B1B6A9BAB9332A32BC3A29BA3220480A1282C6DA8C868CA6E8C88120286A0B1B6ABB2B63234B733A9BA3220480A1082C6DA92C8A6E8C88120285A0B1B6A230BA3AB6A9BA3220480A1282C6DA849E9AA6E
310
8C88120286A0B1A0B6B3AA34BA3632A9BA3220480A2082DAC8E888CAE8C2D2D8A6F2DAA6E8C88120288A0B6B23A29B2B1BA34B7B729BCB6A9BA3220480A2282DAC8E886CADCE8CAE498D2DCCAA6E8C88120288A0B6B23A2A343932B0B22634B732A9BA3220480A1682DAC8E89CDEE8CAA6E8C88120285A0B1A0B6B3A630BCA
310
9BA3220480A1682C682DACE88D2DAA6E8C88120288A0B1A0B6B3A437B632A1B430B93A29BA3220480C812020
340
180
360
1E840
360
1E841
360
1E842
360
1E843
360
1E844
360
1E845
360
1EA0B
360
1EA0C
360
1EA0D
360
1EA0F
360
1EA10
360
1EA11
360
1EA17
360
1EA18
360
1EA19
340
0
340
0
 94
        0
  0
ACAD_PROXY_OBJECT
  5
1E7C4
102
{ACAD_REACTORS
330
40
102
}
330
40
100
AcDbProxyObject
 90
      499
 91
      518
 95
       25
 70
     0
 93
     2616
310
4050B44574753455454494E4753A0E8482A68AA6A88882A069492A684A1A0A723A0A92920ACA0A8419983E1A1ABE1B1820C868A9C829C8E82A12686AF87260F862666A8321A2A72224A0A50000000000000122020E868A9C889282A682A106260F86460F8666083A1A2A72224A9AA250000000000000042020C868A9C988A9
310
C94000000000000048808321A2A727A32325000000000000012202128698929C82A4A482B282A066260608421A624A722AA2CA820A82AC2624A722A1288AE8EAAA68682988A94283A620A9AA27A12520A8298A09922A0A109A82968AAC928AAE9FA04832829A1A0A622830020000419491559254D2505404C1055343414C45
310
41503313A314214D510539110549110540D29254D0954494D455354414D504A019E2CC51722B734141D5915494D253D3905414C4D4B8C0C1107B44574753455454494E4753454E447D
  0
ACAD_PROXY_OBJECT
  5
1E7C5
102
{ACAD_REACTORS
330
40
102
}
330
40
100
AcDbProxyObject
 90
      499
 91
      518
 95
       25
 70
     0
 93
      852
310
4050D5452414E5353455454494E4753A2488A482AE929C8EA8A4829CA69882A8929E9C0C00800050D4F524947494E414C4C595F4F4E0600400008529A7AAA921A2A620A723A0A81A52827212AAA0A48AA68AA4AC8A0C0080001107B44574753455454494E4753454E447D0
  0
ACAD_PROXY_OBJECT
  5
1E840
330
1E83F
100
AcDbProxyObject
 90
      499
 91
      527
 95
       25
 70
     0
 93
       86
310
5DEA0C80A0280A0280A034
  0
ACAD_PROXY_OBJECT
  5
1E841
330
1E83F
100
AcDbProxyObject
 90
      499
 91
      528
 95
       25
 70
     0
 93
      282
310
5DD0E4050140501405014050140501405014050141101405014048000000000000001000
340
187
 94
        0
  0
ACAD_PROXY_OBJECT
  5
1E842
330
1E83F
100
AcDbProxyObject
 90
      499
 91
      529
 95
       25
 70
     0
 93
      323
310
5DCC199999999999E99F91740501405014050140501405014050140501405014050140501405014040
340
0
 94
        0
  0
ACAD_PROXY_OBJECT
  5
1E843
330
1E83F
100
AcDbProxyObject
 90
      499
 91
      530
 95
       25
 70
     0
 93
       10
310
5DC0
  0
ACAD_PROXY_OBJECT
  5
1E844
330
1E83F
100
AcDbProxyObject
 90
      499
 91
      531
 95
       25
 70
     0
 93
      257
310
5DE0C16A22A7D90F49F80000000000001081400000000000004204010000618000
340
188
340
189
 94
        0
  0
ACAD_PROXY_OBJECT
  5
1E845
330
1E83F
100
AcDbProxyObject
 90
      499
 91
      532
 95
       25
 70
     0
 93
     5277
310
5DD06411255115350141236025B6901405014069010000000000000910240690120281A8AA2CA0282484A4BE52028120280A032020000000000001220480D202405044E414D454050496BC914F4051C40640A80000000000004E4090193C3D3C4946284953424C414E4B28504152543A4E414D45292C424C4F434B3A4E414D
310
452C504152543A4E414D45293E3C41435F44455343524950544E3E40480A109A82A88AA492829880A091BBD2F7E80A3A80C81D0E27A15AF46E08A81203480901411393D5115014124A363B7D0147501904A0000000000000F902406428F4F1050D7D393D5114F901202832B22A72227A92028366EF6EE06F582028EA0320B4
310
0000000000001F20480C879E9E20A1AFAB27222FA620A122A61F20240506445020000000000000490201C00030C00010180000000000003E400000000000000F901073D3C4954454D3E4050180000000000003E400000000000000F901073D3C4954454D3E40501800000000000034400000000000000D101073D3C4954454
310
D3E40501800000000000034400000000000000D101073D3C4954454D3E405029010000000000000F9000000000000003E4041CF4F125511534F901418F4F1455164F9014060000000000000F9000000000000003E4041CF4F125511534F901800000000000034400000000000000D101073D3C4954454D3E40640400000000
310
0000003E400000000000000F90288800000000000020810000001800120881A068120480A032208521122080D21480D211480A1485214852050000000000003C2FC000000000000F0BF40600800030C0200400030C00CDCCCCCCCCCCEC3F3373333333333B0FC3333333333330940C80D069014090341504901A1999999999
310
9984A040100006180400800061804010000618008098A02808
340
0
340
0
 94
        0
  0
ACAD_PROXY_OBJECT
  5
1EA0B
330
1E83F
100
AcDbProxyObject
 90
      499
 91
      537
 95
       25
 70
     0
 93
     3042
310
5DD9740D29254D064A49535F413342929254D7D512551311505134A49535F42525F5265766973696F6E6C6973744190F4134522028323937783231306D6D2941D29254D7D04D1490E41312028353934783834316D6D2941929254D7D04C50F41344C2028323130783239376D6D2941D29254D7D04D1310E413320283239377
310
83432306D6D2941929254D7D04CD0E41322028343230783539346D6D2941929254D7D04C90F4130202838343178313138396D6D2941929254D7D04C10243129254C82557247A25E4C81050A4A49535F5449544C454143129254C82557247A25E4C81090A4A49535F5449544C45424110E979A97F0838A835883675F42525F4
310
4D29254D7D09497D4995D9A5CDA5BDB9B1A5CDD10E979A97F0838A835883675F54525F44D29254D7D51497D4995D9A5CDA5BDB9B1A5CDD10E979A97F0838A835883675F424C5F44D29254D7D09317D4995D9A5CDA5BDB9B1A5CDD10E979A97F0838A835883675F544C5F44D29254D7D51317D4995D9A5CDA5BDB9B1A5CDD00
  0
ACAD_PROXY_OBJECT
  5
1EA0C
330
1E83F
100
AcDbProxyObject
 90
      499
 91
      538
 95
       25
 70
     0
 93
      898
310
5DC4000000000000124048CF4F11115510525317D3105091530F880A0F11115510525317D05094D4D0D053114F8A50241C9A9999999999B93F26A666666666724FC000000000000E03F400000000000000400000000000000510000000000000024408070000C300000000000000049000
340
16
340
180
 94
        0
  0
ACAD_PROXY_OBJECT
  5
1EA0D
330
1E83F
100
AcDbProxyObject
 90
      499
 91
      539
 95
       25
 70
     0
 93
      823
310
5DC0B00000000000002480959E9E29A2A1AA24A7A72FA620A122A62FA324A929AA1F169E29A2A1AA24A7A72FA620A122A62FA620A9AA1F000000000000048803FFFE01C00030C008140380006180000000000000048800000000000000A2000000000000002480
340
652
340
180
 94
        0
  0
ACAD_PROXY_OBJECT
  5
1EA0F
330
1E83F
100
AcDbProxyObject
 90
      499
 91
      540
 95
       25
 70
     0
 93
      152
310
5DE8273108AC1C5A0640A3D0A5723F0BD1F200
  0
ACAD_PROXY_OBJECT
  5
1EA10
330
1E83F
100
AcDbProxyObject
 90
      499
 91
      579
 95
       25
 70
     0
 93
       14
310
5DE0
340
0
 94
        0
  0
ACAD_PROXY_OBJECT
  5
1EA11
330
1E83F
100
AcDbProxyObject
 90
      499
 91
      541
 95
       25
 70
     0
 93
     6059
310
5DD084050BA4050AA405024050E836583938376838C815B83672031405983D3C486F6C653A6469613E3C696628657175616C28486F6C653A7465726D696E6174696F6E2C223022292C2220905B82B320222C22208368838A838B22293E3C696628657175616C28486F6C653A7465726D696E6174696F6E2C223022292C486F
310
6C653A64657074682C2222293E2C203C486F6C653A63746469613E2082B482AE82E882CC905B82B3203C486F6C653A637464657074683E406901405034050E836583938376838C815B83672031405EF3D3C486F6C653A6374616E676C653E252564202525633C486F6C653A63746469613E208E4D8C8A2C203C69662865717
310
5616C28486F6C653A7461707065642C223022292C22252563222C486F6C653A6E6F6D696E616C202220782022293E3C696628657175616C28486F6C653A7461707065642C223022292C486F6C653A6469612C486F6C653A706974636864657363293E203C696628657175616C28486F6C653A7465726D696E6174696F6E2C2
310
23022292C22905B82B320222C222022293E3C696628657175616C28486F6C653A7465726D696E6174696F6E2C223022292C486F6C653A64657074682C2222293E406901405014050E836583938376838C815B83672031405C73D3C696628657175616C28486F6C653A7461707065642C223022292C22252563222C486F6C65
310
3A6E6F6D696E616C202220782022293E3C696628657175616C28486F6C653A7461707065642C223022292C486F6C653A6469612C486F6C653A706974636864657363293E203C696628657175616C28486F6C653A7465726D696E6174696F6E2C223022292C22905B82B320222C222022293E3C696628657175616C28486F6C
310
653A7465726D696E6174696F6E2C223022292C486F6C653A64657074682C2222293E4069014051E4090E836583938376838C815B83672032405173D3C535444503A444553433E203C535444503A5354443E40690E836583938376838C815B836720314050C3D3C535444503A444553433E40690240515AAABBA120
360
1EA15
330
1EA15
360
1EA16
330
1EA16
360
1EA14
330
1EA14
360
1EA13
360
1EA12
330
1EA13
330
1EA12
 94
        0
  0
ACAD_PROXY_OBJECT
  5
1EA17
330
1E83F
100
AcDbProxyObject
 90
      499
 91
      542
 95
       25
 70
     0
 93
       26
310
5DD02A80
340
1E7DA
 94
        0
  0
ACAD_PROXY_OBJECT
  5
1EA18
330
1E83F
100
AcDbProxyObject
 90
      499
 91
      543
 95
       25
 70
     0
 93
      250
310
5DD020000000000000A1000000000000002440408F0F9023C3E409A0DCFFFF80
340
0
340
0
340
0
340
0
340
0
340
0
340
0
340
0
340
0
340
0
 94
        0
  0
ACAD_PROXY_OBJECT
  5
1EA19
330
1E83F
100
AcDbProxyObject
 90
      499
 91
      581
 95
       25
 70
     0
 93
    13889
310
5DD1D003FFFFFFFD030300030CCCCCCCCCCCC250200800030C01030300030CCCCCCCCCCCC250200800030C00050C8DC0955782CC838A83588367014ED1D15395149050D3CB1294138B0C0B23702555E0B320E2A0D620D9CB11D15395149055160B095CCB0A11D1539354D1C819D95B991A5B5E880CCC0A78000C0000000000
310
00000000000000000000010CCCCCCCCCCCC250200800030C010CCCCCCCCCCCC250200800030C020143CF4F111959985D5B1D151A5D1B194F8050A8C8A8365815B8375838B014E51D15395149050D3CB1294138B0C0B2322A0D96056E0DD60E2CB11D15395149055160B095CCB0A11D1539354D1C819D95B991A5B5E880CCC4
310
A78000C000000000000000000000000000000010CCCCCCCCCCCC250200800030C010CCCCCCCCCCCC250200800030C020143CF4F111959985D5B1D151A5D1B194F90D44111409034110541D0C4350F4050E44D03449074510F000141232D24D7C053247454E545241434F2C4A504E2C302C8CB4935F2C47454E54524154582C
310
25732C2847454E4D53472067656E64696D7A20312900010104002214000281464500A608E8A9CA8A482869E5894A09C5860591914588E8A9CA8A482A8B0584AE658508E8A9C9AA68E40CECADCC8D2DAF4406452029E9E9E27B934B3B4B71F1E24A31427A91424A9A12620A7259427B934B3B4B7149624A9A12620A7259424B
310
A32B6949496111116111711149F1E24BA32B69F00808200111A000140560052F47454E545241434F2C4A504E2C302C582C47454E54524154582C25732C2847454E4D53472067656E64696D7A20332900010100002054000280AC80A5E8E8A9CA8A482869E5894A09C586058B2588E8A9CA8A482A8B0584AE658508E8A9C9AA
310
68E40CECADCC8D2DAF4406852000202000040E800050152014BD1D15395149050D3CB1294138B0C0B148B11D15395149055160B095CCB0A11D1539354D1C819D95B991A5B5E880D8A400040400008250000A0507A6029823A2A72A2920A1A79625282716181641E99623A2A72A2920AA2C1612B9961423A2A726A9A39033B2
310
B73234B6BD101B948000808180105A000140A0F4C053047454E545241434F2C4A504E2C302C83D32C47454E54524154582C25732C2847454E4D53472067656E64696D7A203829000101010020F400028248704B5F00A668E8A9CA8A482869E5894A09C58605921C12D7C588E8A9CA8A482A8B0584AE658508E8A9C9AA68E40
310
CECADCC8D2DAF440646052000200080043280005048B4B8A69014CD1D15395149050D3CB1294138B0C0B22D2E29A4B11D15395149055160B095CCB0A11D1539354D1C819D95B991A5B5E880C8C4A4000400100086D0000A09196926BE029923A2A72A2920A1A796252827161816465A49AF9623A2A72A2920AA2C1612B9961
310
423A2A726A9A39033B2B73234B6BD10189480A02620202080043E80005048D8096DA014CD1D15395149050D3CB1294138B0C0B236025B68B11D15395149055160B095CCB0A11D1539354D1C819D95B991A5B5E880C4D0A4000404140280D0000A190687072706CD06C5069D06B0029DA3A2A72A2920A1A7962528271618164
310
1A1C1C9C1B341B141A741AC1623A2A72A2920AA2C1612B9961423A2A726A9A39033B2B73234B6BD10189A94800080820050EA000143A322A0D0E0E4E0D9A0D8A0D3A0D60053D47454E545241434F2C4A504E2C302C8C8A8343839383668362834E83582C47454E54524154582C25732C2847454E4D53472067656E64696D7A
310
2031372900010105002274000281464500A628E8A9CA8A482869E5894A09C5860591914588E8A9CA8A482A8B0584AE658508E8A9C9AA68E40CECADCC8D2DAF440626C52000202080044A8000504909497CA014CD1D15395149050D3CB1294138B0C0B242525F28B11D15395149055160B095CCB0A11D1539354D1C819D95B9
310
91A5B5E880C4E4A400040418008A521E000000000000001CA040C00000000000034408080000000000006881010000000000000D102040000000000001A204080000000000003440818000000000000728103000000000000125020600000000004028A040000000000000034408000000000000004881000000000000000D
310
102000000000000001A204000000000000003440818000000000000508143C0000000000000039408180000000000006881030000000000000D102060000000000001A2040C00000000000034408180000000000006881030000000000000E5020600000000000024A040C0000000000805140800000000000000688100000
310
00000000009102000000000000001A2040000000000000034408180000000000006881030000000000000A10284220000000878000002020000008380000020400000081800000208000000828000002028900000000
340
0
340
0
340
0
340
0
340
180
340
180
 94
        0
  0
ACAD_PROXY_OBJECT
  5
1EA15
330
1EA11
100
AcDbProxyObject
 90
      499
 91
      580
 95
       25
 70
     0
 93
     1376
310
5DE0143A0D960E4E0DDA0E32056E0D9C80C405983D3C486F6C653A6469613E3C696628657175616C28486F6C653A7465726D696E6174696F6E2C223022292C2220905B82B320222C22208368838A838B22293E3C696628657175616C28486F6C653A7465726D696E6174696F6E2C223022292C486F6C653A64657074682C22
310
22293E2C203C486F6C653A63746469613E2082B482AE82E882CC905B82B3203C486F6C653A637464657074683E
  0
ACAD_PROXY_OBJECT
  5
1EA16
330
1EA11
100
AcDbProxyObject
 90
      499
 91
      580
 95
       25
 70
     0
 93
     2072
310
5DE0143A0D960E4E0DDA0E32056E0D9C80C405EF3D3C486F6C653A6374616E676C653E252564202525633C486F6C653A63746469613E208E4D8C8A2C203C696628657175616C28486F6C653A7461707065642C223022292C22252563222C486F6C653A6E6F6D696E616C202220782022293E3C696628657175616C28486F6C
310
653A7461707065642C223022292C486F6C653A6469612C486F6C653A706974636864657363293E203C696628657175616C28486F6C653A7465726D696E6174696F6E2C223022292C22905B82B320222C222022293E3C696628657175616C28486F6C653A7465726D696E6174696F6E2C223022292C486F6C653A6465707468
310
2C2222293E
  0
ACAD_PROXY_OBJECT
  5
1EA14
330
1EA11
100
AcDbProxyObject
 90
      499
 91
      580
 95
       25
 70
     0
 93
     1752
310
5DE0143A0D960E4E0DDA0E32056E0D9C80C405C73D3C696628657175616C28486F6C653A7461707065642C223022292C22252563222C486F6C653A6E6F6D696E616C202220782022293E3C696628657175616C28486F6C653A7461707065642C223022292C486F6C653A6469612C486F6C653A706974636864657363293E20
310
3C696628657175616C28486F6C653A7465726D696E6174696F6E2C223022292C22905B82B320222C222022293E3C696628657175616C28486F6C653A7465726D696E6174696F6E2C223022292C486F6C653A64657074682C2222293E
  0
ACAD_PROXY_OBJECT
  5
1EA13
330
1EA11
100
AcDbProxyObject
 90
      499
 91
      580
 95
       25
 70
     0
 93
      344
310
5DE0143A0D960E4E0DDA0E32056E0D9C80C805173D3C535444503A444553433E203C535444503A5354443E
  0
ACAD_PROXY_OBJECT
  5
1EA12
330
1EA11
100
AcDbProxyObject
 90
      499
 91
      580
 95
       25
 70
     0
 93
      256
310
5DE0143A0D960E4E0DDA0E32056E0D9C80C4050C3D3C535444503A444553433E
  0
ENDSEC
  0
EOF
