  0
SECTION
  2
HEADER
  9
$ACADVER
  1
AC1015
  9
$ACADMAINTVER
 70
     6
  9
$DWGCODEPAGE
  3
ANSI_932
  9
$INSBASE
 10
0.0
 20
0.0
 30
0.0
  9
$EXTMIN
 10
-117.9045454088598
 20
-138.8268236054663
 30
-0.0000000000000142
  9
$EXTMAX
 10
98.85712060941451
 20
57.65083035569171
 30
0.0
  9
$LIMMIN
 10
0.0
 20
0.0
  9
$LIMMAX
 10
420.0
 20
297.0
  9
$ORTHOMODE
 70
     0
  9
$REGENMODE
 70
     1
  9
$FILLMODE
 70
     1
  9
$QTEXTMODE
 70
     0
  9
$MIRRTEXT
 70
     1
  9
$LTSCALE
 40
1.0
  9
$ATTMODE
 70
     1
  9
$TEXTSIZE
 40
4.0
  9
$TRACEWID
 40
1.0
  9
$TEXTSTYLE
  7
STANDARD
  9
$CLAYER
  8
AM_0
  9
$CELTYPE
  6
ByLayer
  9
$CECOLOR
 62
   256
  9
$CELTSCALE
 40
1.0
  9
$DISPSILH
 70
     0
  9
$DIMSCALE
 40
1.0
  9
$DIMASZ
 40
2.5
  9
$DIMEXO
 40
0.0
  9
$DIMDLI
 40
10.0
  9
$DIMRND
 40
0.0
  9
$DIMDLE
 40
0.0
  9
$DIMEXE
 40
1.0
  9
$DIMTP
 40
0.1
  9
$DIMTM
 40
0.1000000001
  9
$DIMTXT
 40
3.8
  9
$DIMCEN
 40
0.0
  9
$DIMTSZ
 40
0.0
  9
$DIMTOL
 70
     0
  9
$DIMLIM
 70
     0
  9
$DIMTIH
 70
     0
  9
$DIMTOH
 70
     0
  9
$DIMSE1
 70
     0
  9
$DIMSE2
 70
     0
  9
$DIMTAD
 70
     3
  9
$DIMZIN
 70
     1
  9
$DIMBLK
  1
Open30
  9
$DIMASO
 70
     1
  9
$DIMSHO
 70
     1
  9
$DIMPOST
  1

  9
$DIMAPOST
  1
"
  9
$DIMALT
 70
     0
  9
$DIMALTD
 70
     2
  9
$DIMALTF
 40
0.0393701
  9
$DIMLFAC
 40
1.0
  9
$DIMTOFL
 70
     1
  9
$DIMTVP
 40
0.0
  9
$DIMTIX
 70
     0
  9
$DIMSOXD
 70
     0
  9
$DIMSAH
 70
     0
  9
$DIMBLK1
  1

  9
$DIMBLK2
  1

  9
$DIMSTYLE
  2
AM_JIS
  9
$DIMCLRD
 70
   256
  9
$DIMCLRE
 70
   256
  9
$DIMCLRT
 70
     2
  9
$DIMTFAC
 40
0.71
  9
$DIMGAP
 40
1.5
  9
$DIMJUST
 70
     0
  9
$DIMSD1
 70
     0
  9
$DIMSD2
 70
     0
  9
$DIMTOLJ
 70
     0
  9
$DIMTZIN
 70
     8
  9
$DIMALTZ
 70
     0
  9
$DIMALTTZ
 70
     0
  9
$DIMUPT
 70
     0
  9
$DIMDEC
 70
     0
  9
$DIMTDEC
 70
     3
  9
$DIMALTU
 70
     2
  9
$DIMALTTD
 70
     2
  9
$DIMTXSTY
  7
STANDARD
  9
$DIMAUNIT
 70
     1
  9
$DIMADEC
 70
     0
  9
$DIMALTRND
 40
0.0
  9
$DIMAZIN
 70
     2
  9
$DIMDSEP
 70
    46
  9
$DIMATFIT
 70
     3
  9
$DIMFRAC
 70
     0
  9
$DIMLDRBLK
  1
Open30
  9
$DIMLUNIT
 70
     2
  9
$DIMLWD
 70
    -1
  9
$DIMLWE
 70
    -1
  9
$DIMTMOVE
 70
     0
  9
$LUNITS
 70
     2
  9
$LUPREC
 70
     2
  9
$SKETCHINC
 40
1.0
  9
$FILLETRAD
 40
1.5
  9
$AUNITS
 70
     1
  9
$AUPREC
 70
     5
  9
$MENU
  1
.
  9
$ELEVATION
 40
0.0
  9
$PELEVATION
 40
0.0
  9
$THICKNESS
 40
0.0
  9
$LIMCHECK
 70
     0
  9
$CHAMFERA
 40
2.5
  9
$CHAMFERB
 40
2.5
  9
$CHAMFERC
 40
20.0
  9
$CHAMFERD
 40
0.0
  9
$SKPOLY
 70
     0
  9
$TDCREATE
 40
2451943.610431667
  9
$TDUCREATE
 40
2451943.235431667
  9
$TDUPDATE
 40
2455478.561113461
  9
$TDUUPDATE
 40
2455478.186113461
  9
$TDINDWG
 40
0.53020625
  9
$TDUSRTIMER
 40
0.5302060764
  9
$USRTIMER
 70
     1
  9
$ANGBASE
 50
0.0
  9
$ANGDIR
 70
     0
  9
$PDMODE
 70
     0
  9
$PDSIZE
 40
0.0
  9
$PLINEWID
 40
0.0
  9
$SPLFRAME
 70
     0
  9
$SPLINETYPE
 70
     6
  9
$SPLINESEGS
 70
     8
  9
$HANDSEED
  5
10963
  9
$SURFTAB1
 70
     6
  9
$SURFTAB2
 70
     6
  9
$SURFTYPE
 70
     6
  9
$SURFU
 70
     6
  9
$SURFV
 70
     6
  9
$UCSBASE
  2

  9
$UCSNAME
  2

  9
$UCSORG
 10
0.0
 20
0.0
 30
0.0
  9
$UCSXDIR
 10
1.0
 20
0.0
 30
0.0
  9
$UCSYDIR
 10
0.0
 20
1.0
 30
0.0
  9
$UCSORTHOREF
  2

  9
$UCSORTHOVIEW
 70
     0
  9
$UCSORGTOP
 10
0.0
 20
0.0
 30
0.0
  9
$UCSORGBOTTOM
 10
0.0
 20
0.0
 30
0.0
  9
$UCSORGLEFT
 10
0.0
 20
0.0
 30
0.0
  9
$UCSORGRIGHT
 10
0.0
 20
0.0
 30
0.0
  9
$UCSORGFRONT
 10
0.0
 20
0.0
 30
0.0
  9
$UCSORGBACK
 10
0.0
 20
0.0
 30
0.0
  9
$PUCSBASE
  2

  9
$PUCSNAME
  2

  9
$PUCSORG
 10
0.0
 20
0.0
 30
0.0
  9
$PUCSXDIR
 10
1.0
 20
0.0
 30
0.0
  9
$PUCSYDIR
 10
0.0
 20
1.0
 30
0.0
  9
$PUCSORTHOREF
  2

  9
$PUCSORTHOVIEW
 70
     0
  9
$PUCSORGTOP
 10
0.0
 20
0.0
 30
0.0
  9
$PUCSORGBOTTOM
 10
0.0
 20
0.0
 30
0.0
  9
$PUCSORGLEFT
 10
0.0
 20
0.0
 30
0.0
  9
$PUCSORGRIGHT
 10
0.0
 20
0.0
 30
0.0
  9
$PUCSORGFRONT
 10
0.0
 20
0.0
 30
0.0
  9
$PUCSORGBACK
 10
0.0
 20
0.0
 30
0.0
  9
$USERI1
 70
     0
  9
$USERI2
 70
     0
  9
$USERI3
 70
     0
  9
$USERI4
 70
     0
  9
$USERI5
 70
     0
  9
$USERR1
 40
0.0
  9
$USERR2
 40
0.0
  9
$USERR3
 40
0.0
  9
$USERR4
 40
0.0
  9
$USERR5
 40
0.0
  9
$WORLDVIEW
 70
     1
  9
$SHADEDGE
 70
     3
  9
$SHADEDIF
 70
    70
  9
$TILEMODE
 70
     1
  9
$MAXACTVP
 70
    48
  9
$PINSBASE
 10
0.0
 20
0.0
 30
0.0
  9
$PLIMCHECK
 70
     0
  9
$PEXTMIN
 10
1.000000000000000E+20
 20
1.000000000000000E+20
 30
1.000000000000000E+20
  9
$PEXTMAX
 10
-1.000000000000000E+20
 20
-1.000000000000000E+20
 30
-1.000000000000000E+20
  9
$PLIMMIN
 10
0.0
 20
0.0
  9
$PLIMMAX
 10
420.0
 20
297.0
  9
$UNITMODE
 70
     0
  9
$VISRETAIN
 70
     1
  9
$PLINEGEN
 70
     0
  9
$PSLTSCALE
 70
     1
  9
$TREEDEPTH
 70
  3020
  9
$CMLSTYLE
  2
Standard
  9
$CMLJUST
 70
     0
  9
$CMLSCALE
 40
20.0
  9
$PROXYGRAPHICS
 70
     1
  9
$MEASUREMENT
 70
     1
  9
$CELWEIGHT
370
    -1
  9
$ENDCAPS
280
     0
  9
$JOINSTYLE
280
     0
  9
$LWDISPLAY
290
     0
  9
$INSUNITS
 70
     4
  9
$HYPERLINKBASE
  1

  9
$STYLESHEET
  1
sei_cad.ctb
  9
$XEDIT
290
     1
  9
$CEPSNTYPE
380
     0
  9
$PSTYLEMODE
290
     1
  9
$FINGERPRINTGUID
  2
{C77AB3BE-9CA2-11D3-BAF3-006094EB760E}
  9
$VERSIONGUID
  2
{54210814-B247-427F-ACC9-E2628043E4DF}
  9
$EXTNAMES
290
     1
  9
$PSVPSCALE
 40
0.0
  9
$OLESTARTUP
290
     0
  0
ENDSEC
  0
SECTION
  2
CLASSES
  0
CLASS
  1
ACDBDICTIONARYWDFLT
  2
AcDbDictionaryWithDefault
  3
ObjectDBX Classes
 90
        0
280
     0
281
     0
  0
CLASS
  1
ACDBPLACEHOLDER
  2
AcDbPlaceHolder
  3
ObjectDBX Classes
 90
        0
280
     0
281
     0
  0
CLASS
  1
LAYOUT
  2
AcDbLayout
  3
ObjectDBX Classes
 90
        0
280
     0
281
     0
  0
CLASS
  1
ACME_DOCUMENT
  2
AcMeDbDoc
  3
AcMeServices
 90
        0
280
     1
281
     0
  0
CLASS
  1
ACMESCOPE
  2
AcMeScope
  3
AcMeServices
 90
        0
280
     1
281
     0
  0
CLASS
  1
ACMECOMMANDHISTORY
  2
AcMeCommandHistory
  3
AcMeServices
 90
        0
280
     1
281
     0
  0
CLASS
  1
DICTIONARYVAR
  2
AcDbDictionaryVar
  3
ObjectDBX Classes
 90
        0
280
     0
281
     0
  0
CLASS
  1
ACIMSYSVARMAN
  2
AcImSysVarManager
  3
AcMeServices
 90
        0
280
     1
281
     0
  0
CLASS
  1
ACIMREALSYSVAR
  2
AcImRealSysVar
  3
AcMeServices
 90
        0
280
     1
281
     0
  0
CLASS
  1
ACIMINTSYSVAR
  2
AcImIntSysVar
  3
AcMeServices
 90
        0
280
     1
281
     0
  0
CLASS
  1
ACMEDRAWINGMAN
  2
AcMeDrawingMan
  3
AcMeServices
 90
        0
280
     1
281
     0
  0
CLASS
  1
ACMEVIEW
  2
AcMeView
  3
AcMeServices
 90
        0
280
     1
281
     0
  0
CLASS
  1
ACDBENTITYCACHE
  2
AcMeEntityCache
  3
AcMeServices
 90
        0
280
     1
281
     0
  0
CLASS
  1
GSMANAGER
  2
AcMeGSManager
  3
AcMeServices
 90
        0
280
     1
281
     0
  0
CLASS
  1
AMDTINTERNALREACTOR
  2
AmdtInternalReactor
  3
AcMeServices
 90
        0
280
     1
281
     0
  0
CLASS
  1
ACMESTATEMGR
  2
AcMeStateMgr
  3
AcMeServices
 90
        0
280
     1
281
     0
  0
CLASS
  1
ACME_DATABASE
  2
AcMeDbDatabase
  3
AcMeServices
 90
        0
280
     1
281
     0
  0
CLASS
  1
ACRFINSADJUSTERMGR
  2
AcRfInsAdjusterMgr
  3
AcMeServices
 90
        0
280
     1
281
     0
  0
CLASS
  1
AMGSETTINGSOBJ
  2
AmgSettingsObj
  3
"AcadM|Product Description: AutoCAD Mechanical 2000|Company: Autodesk"
 90
        0
280
     1
281
     0
  0
CLASS
  1
AMGOBJPROPCFG
  2
AmgObjPropCfg
  3
"AmgLay|Product Description: AutoCAD Mechanical 2000|Company: Autodesk"
 90
        1
280
     1
281
     0
  0
CLASS
  1
ACMDATADICTIONARY
  2
AcmDataDictionary
  3
"AcmSymBB|Product Description: AutoCAD Mechanical 2004 DX|Company: Autodesk"
 90
        0
280
     1
281
     0
  0
CLASS
  1
ACMDATAENTRYBLOCK
  2
AcmDataEntryBlock
  3
"AcmSymBB|Product Description: AutoCAD Mechanical 2004 DX|Company: Autodesk"
 90
        0
280
     1
281
     0
  0
CLASS
  1
ACIMSTRSYSVAR
  2
AcImStrSysVar
  3
AcMeServices
 90
        0
280
     1
281
     0
  0
CLASS
  1
ACAMGFILTERDAT
  2
AcAmgFilterDat
  3
"AcadM|Product Description: AutoCAD Mechanical 2000|Company: Autodesk"
 90
        0
280
     1
281
     0
  0
CLASS
  1
LAYER_INDEX
  2
AcDbLayerIndex
  3
ObjectDBX Classes
 90
        0
280
     0
281
     0
  0
CLASS
  1
IDBUFFER
  2
AcDbIdBuffer
  3
ObjectDBX Classes
 90
        0
280
     0
281
     0
  0
CLASS
  1
ACMSTANDARDJIS
  2
AcmStandardJIS
  3
"Amdt_StdImp|Product Description: AutoCAD Mechanical 2004 DX|Company: Autodesk"
 90
        0
280
     1
281
     0
  0
CLASS
  1
ACMSURFSTANDARDJIS
  2
AcmSurfTextStdJIS
  3
"Amdt_StdImp|Product Description: AutoCAD Mechanical 2004 DX|Company: Autodesk"
 90
        0
280
     1
281
     0
  0
CLASS
  1
ACMFCFSTANDARDJIS
  2
AcmFCFStdJIS
  3
"Amdt_StdImp|Product Description: AutoCAD Mechanical 2004 DX|Company: Autodesk"
 90
        0
280
     1
281
     0
  0
CLASS
  1
ACMWELDSTANDARDJIS
  2
AcmWeldingStdJIS
  3
"Amdt_StdImp|Product Description: AutoCAD Mechanical 2004 DX|Company: Autodesk"
 90
        0
280
     1
281
     0
  0
CLASS
  1
ACMIDSTANDARDJIS
  2
AcmIdStdJIS
  3
"Amdt_StdImp|Product Description: AutoCAD Mechanical 2004 DX|Company: Autodesk"
 90
        0
280
     1
281
     0
  0
CLASS
  1
ACMDATUMSTANDARDJIS
  2
AcmDatumStdJIS
  3
"Amdt_StdImp|Product Description: AutoCAD Mechanical 2004 DX|Company: Autodesk"
 90
        0
280
     1
281
     0
  0
CLASS
  1
ACMBOMSTANDARDJIS
  2
AcmBOMStdJIS
  3
"Amdt_StdImp|Product Description: AutoCAD Mechanical 2004 DX|Company: Autodesk"
 90
        0
280
     1
281
     0
  0
CLASS
  1
AMDTNOTE
  2
AmdtNote
  3
"AcmSymBB|Product Description: AutoCAD Mechanical 2004 DX|Company: Autodesk"
 90
     1023
280
     1
281
     1
  0
CLASS
  1
ACGREFMASTER
  2
AcGrefMaster
  3
AcAttribServices
 90
        0
280
     1
281
     0
  0
CLASS
  1
ACGREFACADMASTER
  2
AcGrefacadMaster
  3
AcGrefServices
 90
        0
280
     1
281
     0
  0
CLASS
  1
AMIMASTER
  2
AmiMaster
  3
AmiServices
 90
        0
280
     1
281
     0
  0
CLASS
  1
ACAMGTITLESTD
  2
AcAmgTitleStd
  3
"TITLEAPP"
 90
        0
280
     1
281
     0
  0
CLASS
  1
ACMDETAILSTANDARDJIS
  2
AmdtDetailSymStdJIS
  3
"Amdt_StdImp|Product Description: AutoCAD Mechanical 2004 DX|Company: Autodesk"
 90
        0
280
     1
281
     0
  0
CLASS
  1
ACMSECTIONSTANDARDJIS
  2
AmdtSectionSymStdJIS
  3
"Amdt_StdImp|Product Description: AutoCAD Mechanical 2004 DX|Company: Autodesk"
 90
        0
280
     1
281
     0
  0
CLASS
  1
ACMCENTERLINESTANDARDJIS
  2
AmdtCenterLineStdJIS
  3
"Amdt_StdImp|Product Description: AutoCAD Mechanical 2004 DX|Company: Autodesk"
 90
        0
280
     1
281
     0
  0
CLASS
  1
ACMNOTESTANDARDJIS
  2
AmdtNoteStdJIS
  3
"Amdt_StdImp|Product Description: AutoCAD Mechanical 2004 DX|Company: Autodesk"
 90
        0
280
     1
281
     0
  0
CLASS
  1
ACAMGLAYSTD
  2
AcAmgLayStd
  3
"AcAmgLayStd|Product Description: AutoCAD Mechanical 2000|Company: Autodesk"
 90
        0
280
     1
281
     0
  0
CLASS
  1
ACAMGDIMSTD
  2
AcAmgDimStd
  3
"AcAmgDimStd|Product Description: AutoCAD Mechanical 2000|Company: Autodesk"
 90
        0
280
     1
281
     0
  0
CLASS
  1
AMDTFORMULAUPDATEDISPATCHER
  2
AmdtFormulaUpdateDispatcher
  3
AcMeServices
 90
        0
280
     1
281
     0
  0
CLASS
  1
DUMMY
  2
AcDbLongTransaction
  3
DUMMY
 90
        0
280
     0
281
     0
  0
CLASS
  1
LWPOLYLINE
  2
AcDbPolyline
  3
AutoCAD 2000
 90
        0
280
     0
281
     1
  0
CLASS
  1
HATCH
  2
AcDbHatch
  3
AutoCAD 2000
 90
        0
280
     0
281
     1
  0
CLASS
  1
XRECORD
  2
AcDbXrecord
  3
AutoCAD 2000
 90
        0
280
     0
281
     0
  0
CLASS
  1
DUMMY
  2
AcDbLongTransaction
  3
DUMMY
 90
        0
280
     0
281
     0
  0
CLASS
  1
LWPOLYLINE
  2
AcDbPolyline
  3
AutoCAD 2000
 90
        0
280
     0
281
     1
  0
CLASS
  1
HATCH
  2
AcDbHatch
  3
AutoCAD 2000
 90
        0
280
     0
281
     1
  0
CLASS
  1
XRECORD
  2
AcDbXrecord
  3
AutoCAD 2000
 90
        0
280
     0
281
     0
  0
CLASS
  1
ACDBCIRCARCRES
  2
AcDbCircArcRes
  3
AcGrefServices
 90
        0
280
     1
281
     0
  0
CLASS
  1
ACDBLINERES
  2
AcDbLineRes
  3
AcGrefServices
 90
        0
280
     1
281
     0
  0
CLASS
  1
ACDBELLIPSERES
  2
AcDbEllipseRes
  3
AcGrefServices
 90
        0
280
     1
281
     0
  0
CLASS
  1
DUMMY
  2
AcDbLongTransaction
  3
DUMMY
 90
        0
280
     0
281
     0
  0
CLASS
  1
LWPOLYLINE
  2
AcDbPolyline
  3
AutoCAD 2000
 90
        0
280
     0
281
     1
  0
CLASS
  1
HATCH
  2
AcDbHatch
  3
AutoCAD 2000
 90
        0
280
     0
281
     1
  0
CLASS
  1
XRECORD
  2
AcDbXrecord
  3
AutoCAD 2000
 90
        0
280
     0
281
     0
  0
CLASS
  1
TABLESTYLE
  2
AcDbTableStyle
  3
ObjectDBX Classes
 90
     2047
280
     0
281
     0
  0
CLASS
  1
AM_DRAWING_MGR
  2
AcDmDwgMgr
  3
AcMechDwgViewMgmt
 90
        0
280
     1
281
     0
  0
CLASS
  1
AM_DWG_DOCUMENT
  2
AcDmDwgDocument
  3
AcMechDwgViewMgmt
 90
        0
280
     1
281
     0
  0
CLASS
  1
AM_DWG_SHEET
  2
AcDmSheet
  3
AcMechDwgViewMgmt
 90
        0
280
     1
281
     0
  0
CLASS
  1
AM_VIEWDIMPARMAP
  2
AcDmViewDimParMap
  3
AcMechDwgViewMgmt
 90
        0
280
     1
281
     0
  0
CLASS
  1
AM_DWGMGR_NAME
  2
AcDmDwgMgrName
  3
AcMechDwgViewMgmt
 90
        0
280
     1
281
     0
  0
CLASS
  1
AMDTMENUSTATEMGR
  2
AmdtMenuStateMgr
  3
McadcomServices
 90
        0
280
     1
281
     0
  0
CLASS
  1
AMDTMCOMMENUSTATE
  2
AmdtMcomMenuState
  3
McadcomServices
 90
        0
280
     1
281
     0
  0
CLASS
  1
MAPIAMMOUDLE
  2
MApiAmModule
  3
MApiAmServices
 90
        0
280
     1
281
     0
  0
CLASS
  1
AMDTADMENUSTATE
  2
AmdtAdMenuState
  3
DesignerServices
 90
        0
280
     1
281
     0
  0
CLASS
  1
ADAPPL
  2
AcAdAppl
  3
DesignerServices
 90
        0
280
     1
281
     0
  0
CLASS
  1
DEPMGR
  2
AcAdDepMgr
  3
DesignerServices
 90
        0
280
     1
281
     0
  0
CLASS
  1
PARAMMGR
  2
AcAdParamMgr
  3
DesignerServices
 90
        0
280
     1
281
     0
  0
CLASS
  1
PARAMSCOPE
  2
AcAdParamScope
  3
DesignerServices
 90
        0
280
     1
281
     0
  0
CLASS
  1
NAMEDAPPL
  2
AcAdNamedAppl
  3
DesignerServices
 90
        0
280
     1
281
     0
  0
CLASS
  1
AMDTDMMENUSTATE
  2
AmdtDmMenuState
  3
AcMechDwgViewMgmt
 90
        0
280
     1
281
     0
  0
CLASS
  1
AMDTAMMENUSTATE
  2
AmdtAmMenuState
  3
DesignerAssemblies
 90
        0
280
     1
281
     0
  0
CLASS
  1
ACAMPROJECT
  2
AcAmProject
  3
DesignerAssemblies
 90
        0
280
     1
281
     0
  0
CLASS
  1
ACAMGRCOMPDEF
  2
AcAmGrCompDef
  3
DesignerAssemblies
 90
        0
280
     1
281
     0
  0
CLASS
  1
ACCMCONTEXT
  2
AcCmContext
  3
DesignerAssemblies
 90
        0
280
     1
281
     0
  0
CLASS
  1
ACAMCOMPDEF
  2
AcAmCompDef
  3
DesignerAssemblies
 90
        0
280
     1
281
     0
  0
CLASS
  1
ACAMCOMPDEFMGR
  2
AcAmCompDefMgr
  3
DesignerAssemblies
 90
        0
280
     1
281
     0
  0
CLASS
  1
AMCONTEXTMGR
  2
AcAmContextMgr
  3
DesignerAssemblies
 90
        0
280
     1
281
     0
  0
CLASS
  1
ACAMCONTEXTMODELER
  2
AcAmContextModeler
  3
DesignerAssemblies
 90
        0
280
     1
281
     0
  0
CLASS
  1
CATALOGSTATE
  2
AcAmCatalogState
  3
DesignerAssemblies
 90
        0
280
     1
281
     0
  0
CLASS
  1
ACAMGRCOMPDEFSET
  2
AcAmGrCompDefSet
  3
DesignerAssemblies
 90
        0
280
     1
281
     0
  0
CLASS
  1
AMDTBROWSERDBTAB
  2
AmdtBrowserDbTab
  3
McadcomServices
 90
        0
280
     1
281
     0
  0
CLASS
  1
CBROWSERAPPOBJECT
  2
CBrowserAppObject
  3
McadcomServices
 90
        0
280
     1
281
     0
  0
CLASS
  1
DM_PLACEHOLDER
  2
AcDmSelsetPlaceholder
  3
AcMechDwgViewMgmt
 90
        0
280
     1
281
     0
  0
CLASS
  1
ACMSTANDARDISO
  2
AcmStandardISO
  3
"Amdt_StdImp|Product Description: AutoCAD Mechanical 2004 DX|Company: Autodesk"
 90
        0
280
     1
281
     0
  0
CLASS
  1
AMDTEDGESTANDARDISO13715
  2
AmdtEdgeStdISO13715
  3
"Amdt_StdImp|Product Description: AutoCAD Mechanical 2004 DX|Company: Autodesk"
 90
        0
280
     1
281
     0
  0
CLASS
  1
ACMSURFSTANDARDISO
  2
AcmSurfTextStdISO
  3
"Amdt_StdImp|Product Description: AutoCAD Mechanical 2004 DX|Company: Autodesk"
 90
        0
280
     1
281
     0
  0
CLASS
  1
ACMFCFSTANDARDISO
  2
AcmFCFStdISO
  3
"Amdt_StdImp|Product Description: AutoCAD Mechanical 2004 DX|Company: Autodesk"
 90
        0
280
     1
281
     0
  0
CLASS
  1
ACMWELDSTANDARDISO
  2
AcmWeldingStdISO
  3
"Amdt_StdImp|Product Description: AutoCAD Mechanical 2004 DX|Company: Autodesk"
 90
        0
280
     1
281
     0
  0
CLASS
  1
ACMIDSTANDARDISO
  2
AcmIdStdISO
  3
"Amdt_StdImp|Product Description: AutoCAD Mechanical 2004 DX|Company: Autodesk"
 90
        0
280
     1
281
     0
  0
CLASS
  1
ACMDATUMSTANDARDISO
  2
AcmDatumStdISO
  3
"Amdt_StdImp|Product Description: AutoCAD Mechanical 2004 DX|Company: Autodesk"
 90
        0
280
     1
281
     0
  0
CLASS
  1
ACMBOMSTANDARDISO
  2
AcmBOMStdISO
  3
"Amdt_StdImp|Product Description: AutoCAD Mechanical 2004 DX|Company: Autodesk"
 90
        0
280
     1
281
     0
  0
CLASS
  1
ACMDETAILSTANDARDISO
  2
AmdtDetailSymStdISO
  3
"Amdt_StdImp|Product Description: AutoCAD Mechanical 2004 DX|Company: Autodesk"
 90
        0
280
     1
281
     0
  0
CLASS
  1
ACMSECTIONSTANDARDISO
  2
AmdtSectionSymStdISO
  3
"Amdt_StdImp|Product Description: AutoCAD Mechanical 2004 DX|Company: Autodesk"
 90
        0
280
     1
281
     0
  0
CLASS
  1
ACMCENTERLINESTANDARDISO
  2
AmdtCenterLineStdISO
  3
"Amdt_StdImp|Product Description: AutoCAD Mechanical 2004 DX|Company: Autodesk"
 90
        0
280
     1
281
     0
  0
CLASS
  1
ACMTHREADLINESTANDARDISO
  2
AmdtThreadLineStdISO
  3
"Amdt_StdImp|Product Description: AutoCAD Mechanical 2004 DX|Company: Autodesk"
 90
        0
280
     1
281
     0
  0
CLASS
  1
ACMNOTESTANDARDISO
  2
AmdtNoteStdISO
  3
"Amdt_StdImp|Product Description: AutoCAD Mechanical 2004 DX|Company: Autodesk"
 90
        0
280
     1
281
     0
  0
CLASS
  1
AMDTNOTETEMPLATEDB
  2
AmdtNoteTemplateDB
  3
AMDT_STDIMP_MODULE_NAME
 90
        0
280
     1
281
     0
  0
CLASS
  1
ACAMGHOLECHARTSTDISO
  2
AcAmgHoleChartStdISO
  3
ACMSYMBB_MODULE_NAME
 90
        0
280
     1
281
     0
  0
CLASS
  1
ACMTHREADLINESTANDARDJIS
  2
AmdtThreadLineStdJIS
  3
"Amdt_StdImp|Product Description: AutoCAD Mechanical 2004 DX|Company: Autodesk"
 90
        0
280
     1
281
     0
  0
CLASS
  1
ACAMGHOLECHARTSTDJIS
  2
AcAmgHoleChartStdJIS
  3
ACMSYMBB_MODULE_NAME
 90
        0
280
     1
281
     0
  0
CLASS
  1
SORTENTSTABLE
  2
AcDbSortentsTable
  3
ObjectDBX Classes
 90
        0
280
     0
281
     0
  0
CLASS
  1
ACMSTANDARDANSI
  2
AcmStandardANSI
  3
"Amdt_StdImp|Product Description: AutoCAD Mechanical 2004 DX|Company: Autodesk"
 90
        0
280
     1
281
     0
  0
CLASS
  1
ACMSURFSTANDARDANSI
  2
AcmSurfTextStdANSI
  3
"Amdt_StdImp|Product Description: AutoCAD Mechanical 2004 DX|Company: Autodesk"
 90
        0
280
     1
281
     0
  0
CLASS
  1
ACMFCFSTANDARDANSI
  2
AcmFCFStdANSI
  3
"Amdt_StdImp|Product Description: AutoCAD Mechanical 2004 DX|Company: Autodesk"
 90
        0
280
     1
281
     0
  0
CLASS
  1
ACMWELDSTANDARDANSI
  2
AcmWeldingStdANSI
  3
"Amdt_StdImp|Product Description: AutoCAD Mechanical 2004 DX|Company: Autodesk"
 90
        0
280
     1
281
     0
  0
CLASS
  1
ACMIDSTANDARDANSI
  2
AcmIdStdANSI
  3
"Amdt_StdImp|Product Description: AutoCAD Mechanical 2004 DX|Company: Autodesk"
 90
        0
280
     1
281
     0
  0
CLASS
  1
ACMDATUMSTANDARDANSI
  2
AcmDatumStdANSI
  3
"Amdt_StdImp|Product Description: AutoCAD Mechanical 2004 DX|Company: Autodesk"
 90
        0
280
     1
281
     0
  0
CLASS
  1
ACMBOMSTANDARDANSI
  2
AcmBOMStdANSI
  3
"Amdt_StdImp|Product Description: AutoCAD Mechanical 2004 DX|Company: Autodesk"
 90
        0
280
     1
281
     0
  0
CLASS
  1
ACMDETAILSTANDARDANSI
  2
AmdtDetailSymStdANSI
  3
"Amdt_StdImp|Product Description: AutoCAD Mechanical 2004 DX|Company: Autodesk"
 90
        0
280
     1
281
     0
  0
CLASS
  1
ACMSECTIONSTANDARDANSI
  2
AmdtSectionSymStdANSI
  3
"Amdt_StdImp|Product Description: AutoCAD Mechanical 2004 DX|Company: Autodesk"
 90
        0
280
     1
281
     0
  0
CLASS
  1
ACMCENTERLINESTANDARDANSI
  2
AmdtCenterLineStdANSI
  3
"Amdt_StdImp|Product Description: AutoCAD Mechanical 2004 DX|Company: Autodesk"
 90
        0
280
     1
281
     0
  0
CLASS
  1
ACMTHREADLINESTANDARDANSI
  2
AmdtThreadLineStdANSI
  3
"Amdt_StdImp|Product Description: AutoCAD Mechanical 2004 DX|Company: Autodesk"
 90
        0
280
     1
281
     0
  0
CLASS
  1
ACMNOTESTANDARDANSI
  2
AmdtNoteStdANSI
  3
"Amdt_StdImp|Product Description: AutoCAD Mechanical 2004 DX|Company: Autodesk"
 90
        0
280
     1
281
     0
  0
CLASS
  1
ACAMGHOLECHARTSTDANSI
  2
AcAmgHoleChartStdANSI
  3
ACMSYMBB_MODULE_NAME
 90
        0
280
     1
281
     0
  0
ENDSEC
  0
SECTION
  2
TABLES
  0
TABLE
  2
VPORT
  5
8
330
0
100
AcDbSymbolTable
 70
     3
  0
VPORT
  5
1095C
330
8
100
AcDbSymbolTableRecord
100
AcDbViewportTableRecord
  2
*Active
 70
     0
 10
0.0
 20
0.0
 11
1.0
 21
1.0
 12
29.52404298135872
 22
-34.2253605937054
 13
0.0
 23
0.0
 14
2.5
 24
2.5
 15
10.0
 25
10.0
 16
0.0
 26
0.0
 36
1.0
 17
0.0
 27
0.0
 37
0.0
 40
346.8604799951849
 41
1.943262411347518
 42
50.0
 43
0.0
 44
0.0
 50
0.0
 51
0.0
 71
    16
 72
  2000
 73
     1
 74
     3
 75
     0
 76
     0
 77
     0
 78
     0
281
     0
 65
     1
110
0.0
120
0.0
130
0.0
111
1.0
121
0.0
131
0.0
112
0.0
122
1.0
132
0.0
 79
     0
146
0.0
  0
ENDTAB
  0
TABLE
  2
LTYPE
  5
5
330
0
100
AcDbSymbolTable
 70
    18
  0
LTYPE
  5
14
330
5
100
AcDbSymbolTableRecord
100
AcDbLinetypeTableRecord
  2
ByBlock
 70
     0
  3

 72
    65
 73
     0
 40
0.0
  0
LTYPE
  5
15
330
5
100
AcDbSymbolTableRecord
100
AcDbLinetypeTableRecord
  2
ByLayer
 70
     0
  3

 72
    65
 73
     0
 40
0.0
  0
LTYPE
  5
16
330
5
100
AcDbSymbolTableRecord
100
AcDbLinetypeTableRecord
  2
Continuous
 70
     0
  3
Solid line
 72
    65
 73
     0
 40
0.0
  0
LTYPE
  5
43
330
5
100
AcDbSymbolTableRecord
100
AcDbLinetypeTableRecord
  2
AM_ISO02W050
 70
     0
  3
__ __ __ __ __ __ __ __ __ __ __ __ __ __ __
 72
    65
 73
     2
 40
7.5
 49
6.0
 74
     0
 49
-1.5
 74
     0
  0
LTYPE
  5
44
330
5
100
AcDbSymbolTableRecord
100
AcDbLinetypeTableRecord
  2
AM_ISO08W050
 70
     0
  3
____ . ____ . ____ . ____ . ____ . ____ . ____
 72
    65
 73
     4
 40
18.0
 49
12.0
 74
     0
 49
-1.5
 74
     0
 49
3.0
 74
     0
 49
-1.5
 74
     0
  0
LTYPE
  5
45
330
5
100
AcDbSymbolTableRecord
100
AcDbLinetypeTableRecord
  2
AM_ISO09W050
 70
     0
  3
_____ . . _____ . . _____ . . ____ .. ____
 72
    65
 73
     6
 40
22.5
 49
12.0
 74
     0
 49
-1.5
 74
     0
 49
3.0
 74
     0
 49
-1.5
 74
     0
 49
3.0
 74
     0
 49
-1.5
 74
     0
  0
LTYPE
  5
46
330
5
100
AcDbSymbolTableRecord
100
AcDbLinetypeTableRecord
  2
Amconstr
 70
     0
  3
_______________________
 72
    65
 73
     2
 40
9999.0
 49
9999.0
 74
     0
 49
0.0
 74
     0
  0
LTYPE
  5
47
330
5
100
AcDbSymbolTableRecord
100
AcDbLinetypeTableRecord
  2
AM_ISO02W050x2
 70
     0
  3
 _ _ _ _ _ _ _ _ _ _ _ _
 72
    65
 73
     2
 40
3.75
 49
3.0
 74
     0
 49
-0.75
 74
     0
  0
LTYPE
  5
48
330
5
100
AcDbSymbolTableRecord
100
AcDbLinetypeTableRecord
  2
AM_ISO08W050x2
 70
     0
  3
__ . __ . __ . __ . __ . __
 72
    65
 73
     4
 40
9.0
 49
6.0
 74
     0
 49
-0.75
 74
     0
 49
1.5
 74
     0
 49
-0.75
 74
     0
  0
LTYPE
  5
4B
330
5
100
AcDbSymbolTableRecord
100
AcDbLinetypeTableRecord
  2
Amzigzag
 70
     0
  3
/\/-/\/-/\/-/\/-/\/-/\/
 72
    65
 73
     2
 40
11.0001
 49
0.0001
 74
     4
 75
   135
340
4A
 46
0.04
 50
0.0
 44
0.0
 45
0.0
 49
-11.0
 74
     0
  0
LTYPE
  5
188
330
5
100
AcDbSymbolTableRecord
100
AcDbLinetypeTableRecord
  2
ACJISTGB
 70
     0
  3
__ . . __ . .
 72
    65
 73
     6
 40
9.0
 49
4.0
 74
     0
 49
-1.0
 74
     0
 49
1.0
 74
     0
 49
-1.0
 74
     0
 49
1.0
 74
     0
 49
-1.0
 74
     0
  0
LTYPE
  5
189
330
5
100
AcDbSymbolTableRecord
100
AcDbLinetypeTableRecord
  2
ACJISTGL
 70
     0
  3
_ _ _ _ _
 72
    65
 73
     2
 40
3.0
 49
2.0
 74
     0
 49
-1.0
 74
     0
  0
LTYPE
  5
652
330
5
100
AcDbSymbolTableRecord
100
AcDbLinetypeTableRecord
  2
CENTER
 70
     0
  3
____ _ ____ _ ____ _ ____ _ ____ _ ____ _ ____
 72
    65
 73
     4
 40
17.5
 49
13.0
 74
     0
 49
-1.5
 74
     0
 49
1.5
 74
     0
 49
-1.5
 74
     0
  0
LTYPE
  5
12AB
330
5
100
AcDbSymbolTableRecord
100
AcDbLinetypeTableRecord
  2
HIDDEN
 70
     0
  3
Hidden __ __ __ __ __ __ __ __ __ __ __ __ __ _
 72
    65
 73
     2
 40
0.375
 49
0.25
 74
     0
 49
-0.125
 74
     0
  0
LTYPE
  5
12AC
330
5
100
AcDbSymbolTableRecord
100
AcDbLinetypeTableRecord
  2
PHANTOM2
 70
     0
  3
Phantom (.5x) ___ _ _ ___ _ _ ___ _ _ ___ _ _
 72
    65
 73
     6
 40
1.25
 49
0.625
 74
     0
 49
-0.125
 74
     0
 49
0.125
 74
     0
 49
-0.125
 74
     0
 49
0.125
 74
     0
 49
-0.125
 74
     0
  0
LTYPE
  5
9A44
330
5
100
AcDbSymbolTableRecord
100
AcDbLinetypeTableRecord
  2
ACISOWELD
 70
     0
  3
_ _ _ _ _
 72
    65
 73
     2
 40
2.0
 49
2.0
 74
     0
 49
-1.0
 74
     0
  0
LTYPE
  5
9A45
330
5
100
AcDbSymbolTableRecord
100
AcDbLinetypeTableRecord
  2
ACISOTGB
 70
     0
  3
__ . . __ . .
 72
    65
 73
     6
 40
9.0
 49
4.0
 74
     0
 49
-1.0
 74
     0
 49
1.0
 74
     0
 49
-1.0
 74
     0
 49
1.0
 74
     0
 49
-1.0
 74
     0
  0
LTYPE
  5
9A46
330
5
100
AcDbSymbolTableRecord
100
AcDbLinetypeTableRecord
  2
ACISOTGL
 70
     0
  3
_ _ _ _ _
 72
    65
 73
     2
 40
3.0
 49
2.0
 74
     0
 49
-1.0
 74
     0
  0
LTYPE
  5
A6BA
330
5
100
AcDbSymbolTableRecord
100
AcDbLinetypeTableRecord
  2
ACANSTGB
 70
     0
  3
__ . . __ . .
 72
    65
 73
     6
 40
0.35433070866
 49
0.15748031496
 74
     0
 49
-0.03937007874
 74
     0
 49
0.03937007874
 74
     0
 49
-0.03937007874
 74
     0
 49
0.03937007874
 74
     0
 49
-0.03937007874
 74
     0
  0
LTYPE
  5
A6BB
330
5
100
AcDbSymbolTableRecord
100
AcDbLinetypeTableRecord
  2
ACANSTGL
 70
     0
  3
_ _ _ _ _
 72
    65
 73
     2
 40
0.11811023622
 49
0.07874015748
 74
     0
 49
-0.03937007874
 74
     0
  0
ENDTAB
  0
TABLE
  2
LAYER
  5
2
102
{ACAD_XDICTIONARY
360
9B25
102
}
330
0
100
AcDbSymbolTable
 70
     5
  0
LAYER
  5
10
330
2
100
AcDbSymbolTableRecord
100
AcDbLayerTableRecord
  2
0
 70
     0
 62
     7
  6
Continuous
370
    -3
390
F
  0
LAYER
  5
7D
330
2
100
AcDbSymbolTableRecord
100
AcDbLayerTableRecord
  2
AM_5
 70
     0
 62
     3
  6
Continuous
370
    13
390
F
  0
LAYER
  5
7F
330
2
100
AcDbSymbolTableRecord
100
AcDbLayerTableRecord
  2
Defpoints
 70
     0
 62
     7
  6
Continuous
290
     0
370
    -3
390
F
  0
LAYER
  5
12B1
330
2
100
AcDbSymbolTableRecord
100
AcDbLayerTableRecord
  2
AM_0
 70
     0
 62
     7
  6
Continuous
370
    30
390
F
  0
LAYER
  5
1896
330
2
100
AcDbSymbolTableRecord
100
AcDbLayerTableRecord
  2
AM_7
 70
     0
 62
     4
  6
AM_ISO08W050
370
    13
390
F
  0
ENDTAB
  0
TABLE
  2
STYLE
  5
3
330
0
100
AcDbSymbolTable
 70
     8
  0
STYLE
  5
11
330
3
100
AcDbSymbolTableRecord
100
AcDbTextStyleTableRecord
  2
STANDARD
 70
     0
 40
0.0
 41
1.0
 50
0.0
 71
     0
 42
4.0
  3
ISOCP.SHX
  4
EXTFONT.SHX
  0
STYLE
  5
4A
330
3
100
AcDbSymbolTableRecord
100
AcDbTextStyleTableRecord
  2

 70
     1
 40
0.0
 41
1.0
 50
0.0
 71
     0
 42
2.5
  3
ltypeshp.shx
  4

  0
STYLE
  5
180
330
3
100
AcDbSymbolTableRecord
100
AcDbTextStyleTableRecord
  2
ACJISTS
 70
     0
 40
1.0
 41
1.0
 50
0.0
 71
     0
 42
2.5
  3
isocp.shx
  4
bigfont.shx
  0
STYLE
  5
187
330
3
100
AcDbSymbolTableRecord
100
AcDbTextStyleTableRecord
  2
ACJISGDT
 70
     0
 40
0.0
 41
1.0
 50
0.0
 71
     0
 42
2.5
  3
amgdt.shx
  4

  0
STYLE
  5
9A36
330
3
100
AcDbSymbolTableRecord
100
AcDbTextStyleTableRecord
  2
ACISOTS
 70
     0
 40
1.0
 41
1.0
 50
0.0
 71
     0
 42
3.15
  3
isocp.shx
  4
extfont.shx
  0
STYLE
  5
9A43
330
3
100
AcDbSymbolTableRecord
100
AcDbTextStyleTableRecord
  2
ACISOGDT
 70
     0
 40
0.0
 41
1.0
 50
0.0
 71
     0
 42
3.15
  3
amgdt.shx
  4

  0
STYLE
  5
A6BC
330
3
100
AcDbSymbolTableRecord
100
AcDbTextStyleTableRecord
  2
ACANSTS
 70
     0
 40
1.0
 41
1.0
 50
0.0
 71
     0
 42
1.0
  3
romans.shx
  4
extfont.shx
  0
STYLE
  5
A6BD
330
3
100
AcDbSymbolTableRecord
100
AcDbTextStyleTableRecord
  2
ACANSGDT
 70
     0
 40
0.0
 41
1.0
 50
0.0
 71
     0
 42
1.0
  3
amgdtans.shx
  4

  0
ENDTAB
  0
TABLE
  2
VIEW
  5
6
330
0
100
AcDbSymbolTable
 70
     6
  0
VIEW
  5
A30
330
6
100
AcDbSymbolTableRecord
100
AcDbViewTableRecord
  2
AM_VIEW1
 70
     0
 40
148.5
 10
108.6929657794677
 20
222.75
 41
217.3859315589354
 11
0.0
 21
0.0
 31
1.0
 12
0.0
 22
0.0
 32
0.0
 42
50.0
 43
0.0
 44
0.0
 50
0.0
 71
    16
281
     0
 72
     0
  0
VIEW
  5
A31
330
6
100
AcDbSymbolTableRecord
100
AcDbViewTableRecord
  2
AM_VIEW2
 70
     0
 40
148.5
 10
311.3070342205323
 20
222.75
 41
217.3859315589354
 11
0.0
 21
0.0
 31
1.0
 12
0.0
 22
0.0
 32
0.0
 42
50.0
 43
0.0
 44
0.0
 50
0.0
 71
    16
281
     0
 72
     0
  0
VIEW
  5
A32
330
6
100
AcDbSymbolTableRecord
100
AcDbViewTableRecord
  2
AM_VIEW3
 70
     0
 40
148.5
 10
108.6929657794677
 20
74.25
 41
217.3859315589354
 11
0.0
 21
0.0
 31
1.0
 12
0.0
 22
0.0
 32
0.0
 42
50.0
 43
0.0
 44
0.0
 50
0.0
 71
    16
281
     0
 72
     0
  0
VIEW
  5
A33
330
6
100
AcDbSymbolTableRecord
100
AcDbViewTableRecord
  2
AM_VIEW4
 70
     0
 40
148.5
 10
311.3070342205323
 20
74.25
 41
217.3859315589354
 11
0.0
 21
0.0
 31
1.0
 12
0.0
 22
0.0
 32
0.0
 42
50.0
 43
0.0
 44
0.0
 50
0.0
 71
    16
281
     0
 72
     0
  0
VIEW
  5
A34
330
6
100
AcDbSymbolTableRecord
100
AcDbViewTableRecord
  2
AM_VIEW5
 70
     0
 40
148.5
 10
210.0
 20
148.5
 41
217.3859315589353
 11
0.0
 21
0.0
 31
1.0
 12
0.0
 22
0.0
 32
0.0
 42
50.0
 43
0.0
 44
0.0
 50
0.0
 71
    16
281
     0
 72
     0
  0
VIEW
  5
A35
330
6
100
AcDbSymbolTableRecord
100
AcDbViewTableRecord
  2
AM_VIEW6
 70
     0
 40
296.99703
 10
210.0
 20
148.5
 41
434.7675153992395
 11
0.0
 21
0.0
 31
1.0
 12
0.0
 22
0.0
 32
0.0
 42
50.0
 43
0.0
 44
0.0
 50
0.0
 71
    16
281
     0
 72
     0
  0
ENDTAB
  0
TABLE
  2
UCS
  5
7
330
0
100
AcDbSymbolTable
 70
     0
  0
ENDTAB
  0
TABLE
  2
APPID
  5
9
330
0
100
AcDbSymbolTable
 70
    47
  0
APPID
  5
12
330
9
100
AcDbSymbolTableRecord
100
AcDbRegAppTableRecord
  2
ACAD
 70
     0
  0
APPID
  5
2C
330
9
100
AcDbSymbolTableRecord
100
AcDbRegAppTableRecord
  2
MCAD_NO_VIS
 70
     0
  0
APPID
  5
2D
330
9
100
AcDbSymbolTableRecord
100
AcDbRegAppTableRecord
  2
ACAD_TEMP_GRAPHIC
 70
     0
  0
APPID
  5
B9
330
9
100
AcDbSymbolTableRecord
100
AcDbRegAppTableRecord
  2
GENIUS_GENDTOL_13
 70
     0
  0
APPID
  5
359
330
9
100
AcDbSymbolTableRecord
100
AcDbRegAppTableRecord
  2
GENIUS_GENREC_14
 70
     0
  0
APPID
  5
35A
330
9
100
AcDbSymbolTableRecord
100
AcDbRegAppTableRecord
  2
GENIUS_GENODEF_13
 70
     0
  0
APPID
  5
35B
330
9
100
AcDbSymbolTableRecord
100
AcDbRegAppTableRecord
  2
GENIUS_GENOBJ-N-REC_13
 70
     0
  0
APPID
  5
667
330
9
100
AcDbSymbolTableRecord
100
AcDbRegAppTableRecord
  2
GENIUS_GENCFG_13
 70
     0
1001
GENIUS_GENCFG0_13
1000
GEN
  0
APPID
  5
668
330
9
100
AcDbSymbolTableRecord
100
AcDbRegAppTableRecord
  2
GENIUS_GENCFG0_13
 70
     0
1001
GENIUS_GENCFG_13
1071
1094015123
1000
668
1000
GEN
1070
     0
  0
APPID
  5
669
330
9
100
AcDbSymbolTableRecord
100
AcDbRegAppTableRecord
  2
GENIUS_GENCFG1_13
 70
     0
  0
APPID
  5
66A
330
9
100
AcDbSymbolTableRecord
100
AcDbRegAppTableRecord
  2
GENIUS_GENCFG2_13
 70
     0
  0
APPID
  5
66B
330
9
100
AcDbSymbolTableRecord
100
AcDbRegAppTableRecord
  2
GENIUS_GENCFG3_13
 70
     0
  0
APPID
  5
66C
330
9
100
AcDbSymbolTableRecord
100
AcDbRegAppTableRecord
  2
GENIUS_GENCFG4_13
 70
     0
  0
APPID
  5
A76
330
9
100
AcDbSymbolTableRecord
100
AcDbRegAppTableRecord
  2
GENIUS_GENBLLY_14
 70
     0
  0
APPID
  5
A77
330
9
100
AcDbSymbolTableRecord
100
AcDbRegAppTableRecord
  2
GENIUS_GENOBJ-N-CEN_13
 70
     0
  0
APPID
  5
A83
330
9
100
AcDbSymbolTableRecord
100
AcDbRegAppTableRecord
  2
GENIUS_GENTRA_14
 70
     0
  0
APPID
  5
A8D
330
9
100
AcDbSymbolTableRecord
100
AcDbRegAppTableRecord
  2
GENIUS_GENOBJ-N-TIT_13
 70
     0
  0
APPID
  5
A8E
330
9
100
AcDbSymbolTableRecord
100
AcDbRegAppTableRecord
  2
GENIUS_GENTITLE_13
 70
     0
  0
APPID
  5
A8F
330
9
100
AcDbSymbolTableRecord
100
AcDbRegAppTableRecord
  2
GENIUS_GENOENT_13
 70
     0
  0
APPID
  5
A90
330
9
100
AcDbSymbolTableRecord
100
AcDbRegAppTableRecord
  2
GENIUS_GENOREF_13
 70
     0
  0
APPID
  5
A91
330
9
100
AcDbSymbolTableRecord
100
AcDbRegAppTableRecord
  2
GENIUS_GENOLIS_13
 70
     0
  0
APPID
  5
A92
330
9
100
AcDbSymbolTableRecord
100
AcDbRegAppTableRecord
  2
GENIUS_GENZVEED_13
 70
     0
  0
APPID
  5
A93
330
9
100
AcDbSymbolTableRecord
100
AcDbRegAppTableRecord
  2
GENIUS_GENSCREG_15
 70
     0
  0
APPID
  5
A94
330
9
100
AcDbSymbolTableRecord
100
AcDbRegAppTableRecord
  2
GENIUS_GENOBJ-N-SDF_13
 70
     0
  0
APPID
  5
12B5
330
9
100
AcDbSymbolTableRecord
100
AcDbRegAppTableRecord
  2
GENIUS_GENOBJ-N-RSBK_13
 70
     0
  0
APPID
  5
12B6
330
9
100
AcDbSymbolTableRecord
100
AcDbRegAppTableRecord
  2
GENIUS_GENOBJ-N-LIB_13
 70
     0
  0
APPID
  5
12B7
330
9
100
AcDbSymbolTableRecord
100
AcDbRegAppTableRecord
  2
GENIUS_GENSCALE_13
 70
     0
  0
APPID
  5
12B8
330
9
100
AcDbSymbolTableRecord
100
AcDbRegAppTableRecord
  2
GENIUS_GENOBJ-N-HTC_13
 70
     0
  0
APPID
  5
12B9
330
9
100
AcDbSymbolTableRecord
100
AcDbRegAppTableRecord
  2
GENIUS_GENHATCH_13
 70
     0
  0
APPID
  5
189B
330
9
100
AcDbSymbolTableRecord
100
AcDbRegAppTableRecord
  2
BASE_TYPE
 70
     0
  0
APPID
  5
189C
330
9
100
AcDbSymbolTableRecord
100
AcDbRegAppTableRecord
  2
GENIUS_GENOBJ-N-FIL_13
 70
     0
  0
APPID
  5
23D0
330
9
100
AcDbSymbolTableRecord
100
AcDbRegAppTableRecord
  2
ACATTRIBSERVICES
 70
     0
  0
APPID
  5
264C
330
9
100
AcDbSymbolTableRecord
100
AcDbRegAppTableRecord
  2
GENIUS_GENSCREG_13
 70
     0
  0
APPID
  5
26E5
330
9
100
AcDbSymbolTableRecord
100
AcDbRegAppTableRecord
  2
CONTENTBLOCKICON
 70
     0
  0
APPID
  5
2747
330
9
100
AcDbSymbolTableRecord
100
AcDbRegAppTableRecord
  2
GENIUS_GENFIL_13
 70
     0
  0
APPID
  5
2748
330
9
100
AcDbSymbolTableRecord
100
AcDbRegAppTableRecord
  2
GENIUS_GENOBJ-N-CHA_13
 70
     0
  0
APPID
  5
2749
330
9
100
AcDbSymbolTableRecord
100
AcDbRegAppTableRecord
  2
GENIUS_GENDIMSH_14
 70
     0
  0
APPID
  5
274A
330
9
100
AcDbSymbolTableRecord
100
AcDbRegAppTableRecord
  2
GENIUS_GENOBJ-N-DIM_13
 70
     0
  0
APPID
  5
274B
330
9
100
AcDbSymbolTableRecord
100
AcDbRegAppTableRecord
  2
GENIUS_GENDIM_13
 70
     0
  0
APPID
  5
2A08
330
9
100
AcDbSymbolTableRecord
100
AcDbRegAppTableRecord
  2
GENIUS_GENOBJ-N-CRS_13
 70
     0
  0
APPID
  5
9A0B
330
9
100
AcDbSymbolTableRecord
100
AcDbRegAppTableRecord
  2
AD_DRAW
 70
     0
  0
APPID
  5
9A29
330
9
100
AcDbSymbolTableRecord
100
AcDbRegAppTableRecord
  2
DESIGNERASSEMBLIES
 70
     0
  0
APPID
  5
9A2F
330
9
100
AcDbSymbolTableRecord
100
AcDbRegAppTableRecord
  2
ACADM_DIM_EDIT
 70
     0
  0
APPID
  5
9A30
330
9
100
AcDbSymbolTableRecord
100
AcDbRegAppTableRecord
  2
AMDT_DM_ADJ
 70
     0
  0
APPID
  5
9B24
330
9
100
AcDbSymbolTableRecord
100
AcDbRegAppTableRecord
  2
GENIUS_GENCEN_19
 70
     0
  0
APPID
  5
A33D
330
9
100
AcDbSymbolTableRecord
100
AcDbRegAppTableRecord
  2
ACAD_DSTYLE_DIMTEXT_FILL
 70
     0
  0
APPID
  5
A33E
330
9
100
AcDbSymbolTableRecord
100
AcDbRegAppTableRecord
  2
ACAD_PSEXT
 70
     0
  0
ENDTAB
  0
TABLE
  2
DIMSTYLE
  5
A
330
0
100
AcDbSymbolTable
 70
    16
100
AcDbDimStyleTable
  0
DIMSTYLE
105
58
330
A
100
AcDbSymbolTableRecord
100
AcDbDimStyleTableRecord
  2
AM_JIS
 70
     0
  4
"
 41
2.5
 42
0.0
 43
10.0
 44
1.0
 47
0.1
 48
0.1000000001
 73
     0
 74
     0
 77
     3
 78
     1
 79
     2
140
3.8
141
0.0
143
0.0393701
146
0.71
147
1.5
172
     1
176
   256
177
   256
178
     2
179
     2
271
     3
272
     3
275
     1
283
     0
284
     8
340
11
341
59
342
59
371
    -1
372
    -1
  0
DIMSTYLE
105
5F
330
A
100
AcDbSymbolTableRecord
100
AcDbDimStyleTableRecord
  2
AM_JIS$3
 70
     0
  4
"
 41
2.5
 42
0.0
 43
10.0
 44
1.0
 47
0.1
 48
0.1000000001
 73
     0
 77
     3
 78
     1
 79
     2
140
3.8
141
0.0
143
0.0393701
146
0.71
147
1.5
172
     1
176
   256
177
   256
178
     2
179
     2
271
     3
272
     3
275
     1
283
     0
284
     8
288
     1
289
     0
340
11
341
59
342
59
371
    -1
372
    -1
  0
DIMSTYLE
105
60
330
A
100
AcDbSymbolTableRecord
100
AcDbDimStyleTableRecord
  2
AM_JIS$4
 70
     0
  4
"
 41
2.5
 42
0.0
 43
10.0
 44
1.0
 47
0.1
 48
0.1000000001
 73
     0
 77
     3
 78
     1
 79
     2
140
3.8
141
0.0
143
0.0393701
146
0.71
147
1.5
172
     1
176
   256
177
   256
178
     2
179
     2
271
     3
272
     3
275
     1
283
     0
284
     8
288
     1
289
     0
340
11
341
59
342
59
371
    -1
372
    -1
  0
DIMSTYLE
105
61
330
A
100
AcDbSymbolTableRecord
100
AcDbDimStyleTableRecord
  2
AM_JIS$6
 70
     0
  4
"
 41
2.5
 42
0.0
 43
10.0
 44
1.0
 47
0.1
 48
0.1000000001
 73
     0
 74
     0
 78
     1
 79
     2
140
3.8
141
0.0
143
0.0393701
146
0.71
147
1.5
172
     1
176
   256
177
   256
178
     2
179
     2
271
     3
272
     3
275
     1
283
     0
284
     8
340
11
341
59
342
59
371
    -1
372
    -1
  0
DIMSTYLE
105
62
330
A
100
AcDbSymbolTableRecord
100
AcDbDimStyleTableRecord
  2
AM_JIS$7
 70
     0
  4
"
 41
2.5
 42
0.0
 43
10.0
 44
1.0
 47
0.1
 48
0.1000000001
 73
     0
 74
     0
 77
     3
 78
     1
 79
     2
140
5.0
141
0.0
143
0.0393701
146
0.71
147
1.5
172
     1
176
   256
177
   256
178
     2
179
     2
271
     3
272
     3
275
     1
283
     0
284
     8
340
11
341
59
342
59
371
    -1
372
    -1
  0
DIMSTYLE
105
63
330
A
100
AcDbSymbolTableRecord
100
AcDbDimStyleTableRecord
  2
AM_JIS$SF
 70
     0
  4
"
 41
2.5
 42
1.0
 43
10.0
 44
1.0
 47
0.1
 48
0.1
 73
     0
 74
     0
 75
     1
 76
     1
 77
     3
 78
     8
 79
     2
140
3.5
141
0.0
143
0.0393701
146
0.71
147
1.5
176
   256
177
   256
178
     2
271
     2
272
     3
274
     4
340
11
341
59
342
59
343
59
344
59
371
    -1
372
    -1
  0
DIMSTYLE
105
68
330
A
100
AcDbSymbolTableRecord
100
AcDbDimStyleTableRecord
  2
AM_JIS$SH
 70
     0
  4
"
 41
2.5
 42
1.0
 43
10.0
 44
1.0
 47
0.1
 48
0.1
 73
     0
 74
     0
 75
     1
 76
     1
 77
     3
 78
     8
 79
     2
140
3.5
141
0.0
143
0.0393701
144
2.0
146
0.71
147
1.5
173
     1
176
   256
177
   256
178
     2
271
     2
272
     3
274
     4
340
11
341
59
342
59
343
64
344
59
371
    -1
372
    -1
  0
DIMSTYLE
105
65F
330
A
100
AcDbSymbolTableRecord
100
AcDbDimStyleTableRecord
  2
STANDARD
 70
     0
340
11
  0
DIMSTYLE
105
1899
102
{ACAD_REACTORS
330
7A0E
330
868E
330
9D0C
102
}
330
A
100
AcDbSymbolTableRecord
100
AcDbDimStyleTableRecord
  2
AM_JIS$0
 70
     0
  4
"
 41
2.5
 42
0.0
 43
10.0
 44
1.0
 47
0.1
 48
0.1000000001
 73
     0
 74
     0
 77
     3
 78
     1
 79
     2
140
3.8
141
0.0
143
0.0393701
146
0.71
147
1.5
172
     1
176
     3
177
     3
178
     2
271
     3
272
     3
275
     1
283
     0
284
     8
289
     0
340
11
341
59
342
59
371
    13
372
    13
  0
DIMSTYLE
105
189A
102
{ACAD_REACTORS
330
B5B0
330
106FF
102
}
330
A
100
AcDbSymbolTableRecord
100
AcDbDimStyleTableRecord
  2
AM_JIS$2
 70
     0
  4
"
 41
2.5
 42
0.0
 43
10.0
 44
1.0
 47
0.1
 48
0.1000000001
 73
     0
 74
     0
 77
     3
 78
     1
 79
     2
140
3.8
141
0.0
143
0.0393701
146
0.71
147
1.5
172
     1
176
     3
177
     3
178
     2
179
     3
271
     3
272
     3
275
     1
283
     0
284
     8
289
     0
340
11
341
59
342
59
371
    13
372
    13
  0
DIMSTYLE
105
A6BE
330
A
100
AcDbSymbolTableRecord
100
AcDbDimStyleTableRecord
  2
AM_ANSI
 70
     0
  4
mm
 41
0.1
 42
0.05
 43
0.5
 44
0.1
 47
0.1
 48
0.1
 78
     7
 79
     2
140
0.12
141
0.0
146
0.71
147
0.06
176
   256
177
   256
178
     2
274
     4
284
     7
340
11
371
    -1
372
    -1
  0
DIMSTYLE
105
A6C1
330
A
100
AcDbSymbolTableRecord
100
AcDbDimStyleTableRecord
  2
AM_ANSI$3
 70
     0
  4
mm
 41
0.1
 42
0.05
 43
0.5
 44
0.1
 47
0.1
 48
0.1
 78
     7
 79
     2
140
0.12
141
0.0
146
0.71
147
0.06
176
   256
177
   256
178
     2
274
     4
284
     7
288
     1
289
     0
340
11
371
    -1
372
    -1
  0
DIMSTYLE
105
A6C2
330
A
100
AcDbSymbolTableRecord
100
AcDbDimStyleTableRecord
  2
AM_ANSI$4
 70
     0
  4
mm
 41
0.1
 42
0.05
 43
0.5
 44
0.1
 47
0.1
 48
0.1
 78
     7
 79
     2
140
0.12
141
0.0
146
0.71
147
0.06
176
   256
177
   256
178
     2
274
     4
284
     7
288
     1
289
     0
340
11
371
    -1
372
    -1
  0
DIMSTYLE
105
A6C3
330
A
100
AcDbSymbolTableRecord
100
AcDbDimStyleTableRecord
  2
AM_ANSI$7
 70
     0
  4
mm
 41
0.1
 42
0.05
 43
0.5
 44
0.1
 47
0.1
 48
0.1
 78
     7
 79
     2
140
0.24
141
0.0
146
0.71
147
0.06
176
   256
177
   256
178
     2
274
     4
284
     7
340
11
371
    -1
372
    -1
  0
DIMSTYLE
105
A6C4
330
A
100
AcDbSymbolTableRecord
100
AcDbDimStyleTableRecord
  2
AM_ANSI$SF
 70
     0
  4
mm
 41
0.1
 42
0.05
 43
0.5
 44
0.1
 47
0.1
 48
0.1
 75
     1
 76
     1
 78
     7
 79
     2
140
0.12
141
0.0
146
0.71
147
0.06
176
   256
177
   256
178
     2
274
     4
284
     7
340
11
371
    -1
372
    -1
  0
DIMSTYLE
105
A6C5
330
A
100
AcDbSymbolTableRecord
100
AcDbDimStyleTableRecord
  2
AM_ANSI$SH
 70
     0
  4
mm
 41
0.1
 42
0.05
 43
0.5
 44
0.1
 47
0.1
 48
0.1
 75
     1
 76
     1
 78
     7
 79
     2
140
0.12
141
0.0
146
0.71
147
0.06
173
     1
176
   256
177
   256
178
     2
274
     4
284
     7
340
11
343
64
371
    -1
372
    -1
  0
ENDTAB
  0
TABLE
  2
BLOCK_RECORD
  5
1
330
0
100
AcDbSymbolTable
 70
     9
  0
BLOCK_RECORD
  5
1F
102
{ACAD_XDICTIONARY
360
165
102
}
330
1
100
AcDbSymbolTableRecord
100
AcDbBlockTableRecord
  2
*Model_Space
340
22
  0
BLOCK_RECORD
  5
1B
102
{ACAD_XDICTIONARY
360
264F
102
}
330
1
100
AcDbSymbolTableRecord
100
AcDbBlockTableRecord
  2
*Paper_Space
340
1E
  0
BLOCK_RECORD
  5
23
102
{ACAD_XDICTIONARY
360
2651
102
}
330
1
100
AcDbSymbolTableRecord
100
AcDbBlockTableRecord
  2
*Paper_Space0
340
26
  0
BLOCK_RECORD
  5
59
330
1
100
AcDbSymbolTableRecord
100
AcDbBlockTableRecord
  2
_Open30
340
0
102
{BLKREFS
331
10887
331
10888
331
10890
331
10891
331
10899
331
1089A
331
108A2
331
108A3
331
108AD
331
108AE
102
}
  0
BLOCK_RECORD
  5
64
330
1
100
AcDbSymbolTableRecord
100
AcDbBlockTableRecord
  2
GENAXEH
340
0
  0
BLOCK_RECORD
  5
7A0F
330
1
100
AcDbSymbolTableRecord
100
AcDbBlockTableRecord
  2
*D3
340
0
  0
BLOCK_RECORD
  5
868F
330
1
100
AcDbSymbolTableRecord
100
AcDbBlockTableRecord
  2
*D4
340
0
  0
BLOCK_RECORD
  5
9A20
330
1
100
AcDbSymbolTableRecord
100
AcDbBlockTableRecord
  2
*U5
340
0
  0
BLOCK_RECORD
  5
9E80
330
1
100
AcDbSymbolTableRecord
100
AcDbBlockTableRecord
  2
*D6
340
0
  0
BLOCK_RECORD
  5
B5B1
330
1
100
AcDbSymbolTableRecord
100
AcDbBlockTableRecord
  2
*D7
340
0
  0
BLOCK_RECORD
  5
10700
330
1
100
AcDbSymbolTableRecord
100
AcDbBlockTableRecord
  2
*D8
340
0
  0
ENDTAB
  0
ENDSEC
  0
SECTION
  2
BLOCKS
  0
BLOCK
  5
20
330
1F
100
AcDbEntity
  8
0
100
AcDbBlockBegin
  2
*Model_Space
 70
     0
 71
     0
 10
0.0
 20
0.0
 30
0.0
  3
*Model_Space
  1

  0
ENDBLK
  5
21
330
1F
100
AcDbEntity
  8
0
100
AcDbBlockEnd
  0
BLOCK
  5
1C
330
1B
100
AcDbEntity
 67
     1
  8
0
100
AcDbBlockBegin
  2
*Paper_Space
 70
     0
 71
     0
 10
0.0
 20
0.0
 30
0.0
  3
*Paper_Space
  1

  0
ENDBLK
  5
1D
330
1B
100
AcDbEntity
 67
     1
  8
0
100
AcDbBlockEnd
  0
BLOCK
  5
24
330
23
100
AcDbEntity
  8
0
100
AcDbBlockBegin
  2
*Paper_Space0
 70
     0
 71
     0
 10
0.0
 20
0.0
 30
0.0
  3
*Paper_Space0
  1

  0
ENDBLK
  5
25
330
23
100
AcDbEntity
  8
0
100
AcDbBlockEnd
  0
BLOCK
  5
2F22
330
59
100
AcDbEntity
  8
0
100
AcDbBlockBegin
  2
_Open30
 70
     0
 71
     0
 10
0.0
 20
0.0
 30
0.0
  3
_Open30
  1

  0
LINE
  5
2F1F
330
59
100
AcDbEntity
  8
0
 62
     0
370
    -2
100
AcDbLine
 10
-1.0
 20
0.26794919
 30
0.0
 11
0.0
 21
0.0
 31
0.0
  0
LINE
  5
2F20
330
59
100
AcDbEntity
  8
0
 62
     0
370
    -2
100
AcDbLine
 10
0.0
 20
0.0
 30
0.0
 11
-1.0
 21
-0.26794919
 31
0.0
  0
LINE
  5
2F21
330
59
100
AcDbEntity
  8
0
 62
     0
370
    -2
100
AcDbLine
 10
0.0
 20
0.0
 30
0.0
 11
-1.0
 21
0.0
 31
0.0
  0
ENDBLK
  5
2F23
330
59
100
AcDbEntity
  8
0
100
AcDbBlockEnd
  0
BLOCK
  5
2F2E
330
64
100
AcDbEntity
  8
0
100
AcDbBlockBegin
  2
GENAXEH
 70
     0
 71
     0
 10
0.0
 20
0.0
 30
0.0
  3
GENAXEH
  1

  0
LINE
  5
2F2D
330
64
100
AcDbEntity
  8
0
100
AcDbLine
 10
-1.0
 20
0.0
 30
0.0
 11
1.0
 21
0.0
 31
0.0
  0
ENDBLK
  5
2F2F
330
64
100
AcDbEntity
  8
0
100
AcDbBlockEnd
  0
BLOCK
  5
7A19
330
7A0F
100
AcDbEntity
  8
0
100
AcDbBlockBegin
  2
*D3
 70
     1
 71
     0
 10
0.0
 20
0.0
 30
0.0
  3
*D3
  1

  0
LINE
  5
10884
330
7A0F
100
AcDbEntity
  8
AM_5
 62
     3
370
    13
100
AcDbLine
 10
0.0
 20
-3.843116733177368
 30
0.0
 11
-0.0000000000000018
 21
-33.80012784441342
 31
0.0
  0
LINE
  5
10885
330
7A0F
100
AcDbEntity
  8
AM_5
 62
     3
370
    13
100
AcDbLine
 10
49.99999999999989
 20
7.299999999999955
 30
0.0
 11
49.99999999999989
 21
-33.80012784441342
 31
0.0
  0
LINE
  5
10886
330
7A0F
100
AcDbEntity
  8
AM_5
 62
     3
370
    13
100
AcDbLine
 10
2.499999999999998
 20
-32.80012784441342
 30
0.0
 11
47.49999999999989
 21
-32.80012784441342
 31
0.0
  0
INSERT
  5
10887
330
7A0F
100
AcDbEntity
  8
AM_5
 62
     3
370
    13
100
AcDbBlockReference
  2
_Open30
 10
-0.0000000000000018
 20
-32.80012784441342
 30
0.0
 41
2.5
 42
2.5
 43
2.5
 50
180.0
  0
INSERT
  5
10888
330
7A0F
100
AcDbEntity
  8
AM_5
 62
     3
370
    13
100
AcDbBlockReference
  2
_Open30
 10
49.99999999999989
 20
-32.80012784441342
 30
0.0
 41
2.5
 42
2.5
 43
2.5
  0
MTEXT
  5
10889
330
7A0F
100
AcDbEntity
  8
AM_5
 62
     2
100
AcDbMText
 10
24.99999999999994
 20
-29.40012784441343
 30
0.0
 40
3.8
 41
0.0
 71
     5
 72
     1
  1
50
 73
     1
 44
1.0
  0
POINT
  5
1088A
330
7A0F
100
AcDbEntity
  8
Defpoints
 62
     0
100
AcDbPoint
 10
0.0
 20
-3.843116733177368
 30
0.0
  0
POINT
  5
1088B
330
7A0F
100
AcDbEntity
  8
Defpoints
 62
     0
100
AcDbPoint
 10
49.99999999999989
 20
7.299999999999955
 30
0.0
  0
POINT
  5
1088C
330
7A0F
100
AcDbEntity
  8
Defpoints
 62
     0
100
AcDbPoint
 10
49.99999999999989
 20
-32.80012784441342
 30
0.0
  0
ENDBLK
  5
7A1A
330
7A0F
100
AcDbEntity
  8
0
100
AcDbBlockEnd
  0
BLOCK
  5
8699
330
868F
100
AcDbEntity
  8
0
100
AcDbBlockBegin
  2
*D4
 70
     1
 71
     0
 10
0.0
 20
0.0
 30
0.0
  3
*D4
  1

  0
LINE
  5
1088D
330
868F
100
AcDbEntity
  8
AM_5
 62
     3
370
    13
100
AcDbLine
 10
-8.711052558828726
 20
27.00000000000003
 30
0.0
 11
-17.58450712434188
 21
27.00000000000003
 31
0.0
  0
LINE
  5
1088E
330
868F
100
AcDbEntity
  8
AM_5
 62
     3
370
    13
100
AcDbLine
 10
-3.263955659574606
 20
0.0
 30
0.0
 11
-17.58450712434188
 21
0.0000000000000041
 31
0.0
  0
LINE
  5
1088F
330
868F
100
AcDbEntity
  8
AM_5
 62
     3
370
    13
100
AcDbLine
 10
-16.58450712434188
 20
24.50000000000003
 30
0.0
 11
-16.58450712434188
 21
2.500000000000004
 31
0.0
  0
INSERT
  5
10890
330
868F
100
AcDbEntity
  8
AM_5
 62
     3
370
    13
100
AcDbBlockReference
  2
_Open30
 10
-16.58450712434188
 20
27.00000000000003
 30
0.0
 41
2.5
 42
2.5
 43
2.5
 50
90.0
  0
INSERT
  5
10891
330
868F
100
AcDbEntity
  8
AM_5
 62
     3
370
    13
100
AcDbBlockReference
  2
_Open30
 10
-16.58450712434188
 20
0.0000000000000038
 30
0.0
 41
2.5
 42
2.5
 43
2.5
 50
270.0
  0
MTEXT
  5
10892
330
868F
100
AcDbEntity
  8
AM_5
 62
     2
100
AcDbMText
 10
-19.98488114008991
 20
13.50000000000001
 30
0.0
 40
3.8
 41
0.0
 71
     5
 72
     1
  1
27
 11
6.123031769111886E-17
 21
1.0
 31
0.0
 73
     1
 44
1.0
  0
POINT
  5
10893
330
868F
100
AcDbEntity
  8
Defpoints
 62
     0
100
AcDbPoint
 10
-8.711052558828726
 20
27.00000000000003
 30
0.0
  0
POINT
  5
10894
330
868F
100
AcDbEntity
  8
Defpoints
 62
     0
100
AcDbPoint
 10
-3.263955659574606
 20
0.0
 30
0.0
  0
POINT
  5
10895
330
868F
100
AcDbEntity
  8
Defpoints
 62
     0
100
AcDbPoint
 10
-16.58450712434188
 20
0.0000000000000038
 30
0.0
  0
ENDBLK
  5
869A
330
868F
100
AcDbEntity
  8
0
100
AcDbBlockEnd
  0
BLOCK
  5
9A21
330
9A20
100
AcDbEntity
  8
0
100
AcDbBlockBegin
  2
*U5
 70
     1
 71
     0
 10
0.0
 20
0.0
 30
0.0
  3
*U5
  1

  0
ENDBLK
  5
9A22
330
9A20
100
AcDbEntity
  8
0
100
AcDbBlockEnd
  0
BLOCK
  5
9F2A
330
9E80
100
AcDbEntity
  8
0
100
AcDbBlockBegin
  2
*D6
 70
     1
 71
     0
 10
0.0
 20
0.0
 30
0.0
  3
*D6
  1

  0
LINE
  5
10896
330
9E80
100
AcDbEntity
  8
AM_5
 62
     3
370
    13
100
AcDbLine
 10
49.69999999999988
 20
47.00000000000007
 30
0.0
 11
98.85712060941451
 21
47.00000000000006
 31
0.0
  0
LINE
  5
10897
330
9E80
100
AcDbEntity
  8
AM_5
 62
     3
370
    13
100
AcDbLine
 10
49.69999999999982
 20
7.0
 30
0.0
 11
98.85712060941449
 21
6.999999999999986
 31
0.0
  0
LINE
  5
10898
330
9E80
100
AcDbEntity
  8
AM_5
 62
     3
370
    13
100
AcDbLine
 10
97.85712060941451
 20
44.50000000000006
 30
0.0
 11
97.85712060941449
 21
9.499999999999986
 31
0.0
  0
INSERT
  5
10899
330
9E80
100
AcDbEntity
  8
AM_5
 62
     3
370
    13
100
AcDbBlockReference
  2
_Open30
 10
97.85712060941451
 20
47.00000000000006
 30
0.0
 41
2.5
 42
2.5
 43
2.5
 50
90.0
  0
INSERT
  5
1089A
330
9E80
100
AcDbEntity
  8
AM_5
 62
     3
370
    13
100
AcDbBlockReference
  2
_Open30
 10
97.85712060941449
 20
6.999999999999987
 30
0.0
 41
2.5
 42
2.5
 43
2.5
 50
270.0
  0
MTEXT
  5
1089B
330
9E80
100
AcDbEntity
  8
AM_5
 62
     2
100
AcDbMText
 10
94.45712060941449
 20
27.00000000000004
 30
0.0
 40
3.8
 41
0.0
 71
     5
 72
     1
  1
%%c40
 11
6.123031769111886E-17
 21
1.0
 31
0.0
 73
     1
 44
1.0
  0
POINT
  5
1089C
330
9E80
100
AcDbEntity
  8
Defpoints
 62
     0
100
AcDbPoint
 10
49.69999999999988
 20
47.00000000000007
 30
0.0
  0
POINT
  5
1089D
330
9E80
100
AcDbEntity
  8
Defpoints
 62
     0
100
AcDbPoint
 10
49.69999999999982
 20
7.0
 30
0.0
  0
POINT
  5
1089E
330
9E80
100
AcDbEntity
  8
Defpoints
 62
     0
100
AcDbPoint
 10
97.85712060941449
 20
6.999999999999987
 30
0.0
  0
ENDBLK
  5
9F2B
330
9E80
100
AcDbEntity
  8
0
100
AcDbBlockEnd
  0
BLOCK
  5
B5F8
330
B5B1
100
AcDbEntity
  8
0
100
AcDbBlockBegin
  2
*D7
 70
     1
 71
     0
 10
0.0
 20
0.0
 30
0.0
  3
*D7
  1

  0
LINE
  5
1089F
330
B5B1
100
AcDbEntity
  8
AM_5
 62
     3
370
    13
100
AcDbLine
 10
0.0
 20
-3.843116733177368
 30
0.0
 11
-0.0000000000000053
 21
-20.44881847774267
 31
0.0
  0
LINE
  5
108A0
330
B5B1
100
AcDbEntity
  8
AM_5
 62
     3
370
    13
100
AcDbLine
 10
12.05069578119156
 20
0.9809986186196502
 30
0.0
 11
20.29798283103616
 21
1.702542740325201
 31
0.0
  0
ARC
  5
108A1
330
B5B1
100
AcDbEntity
  8
AM_5
 62
     3
370
    13
100
AcDbCircle
 10
-0.0000000000000001
 20
-0.0733006498342948
 30
0.0
 40
19.37551782790837
100
AcDbArc
 50
277.3979441292592
 51
357.6020558707407
  0
INSERT
  5
108A2
330
B5B1
100
AcDbEntity
  8
AM_5
 62
     3
370
    13
100
AcDbBlockReference
  2
_Open30
 10
-0.0000000000000053
 20
-19.44881847774267
 30
0.0
 41
2.5
 42
2.5
 43
2.5
 50
183.6989720646296
  0
INSERT
  5
108A3
330
B5B1
100
AcDbEntity
  8
AM_5
 62
     3
370
    13
100
AcDbBlockReference
  2
_Open30
 10
19.30178813294442
 20
1.615386997577545
 30
0.0
 41
2.5
 42
2.5
 43
2.5
 50
91.3010279353704
  0
MTEXT
  5
108A4
330
B5B1
100
AcDbEntity
  8
AM_5
 62
     2
100
AcDbMText
 10
11.77838723832294
 20
-10.8662040559586
 30
0.0
 40
3.8
 41
0.0
 71
     5
 72
     1
  1
95°
 11
0.6755902076156604
 21
0.737277336810124
 31
0.0
 73
     1
 44
1.0
  0
POINT
  5
108A5
330
B5B1
100
AcDbEntity
  8
Defpoints
 62
     0
100
AcDbPoint
 10
10.17169309150664
 20
-16.56412691026744
 30
0.0
  0
POINT
  5
108A6
330
B5B1
100
AcDbEntity
  8
Defpoints
 62
     0
100
AcDbPoint
 10
-0.0000000000000001
 20
0.8030303056014816
 30
0.0
  0
POINT
  5
108A7
330
B5B1
100
AcDbEntity
  8
Defpoints
 62
     0
100
AcDbPoint
 10
12.05069578119156
 20
0.9809986186196502
 30
0.0
  0
POINT
  5
108A8
330
B5B1
100
AcDbEntity
  8
Defpoints
 62
     0
100
AcDbPoint
 10
0.8724480063390843
 20
0.0030286602361684
 30
0.0
  0
POINT
  5
108A9
330
B5B1
100
AcDbEntity
  8
Defpoints
 62
     0
100
AcDbPoint
 10
0.0
 20
-3.843116733177368
 30
0.0
  0
ENDBLK
  5
B5F9
330
B5B1
100
AcDbEntity
  8
0
100
AcDbBlockEnd
  0
BLOCK
  5
1072B
330
10700
100
AcDbEntity
  8
0
100
AcDbBlockBegin
  2
*D8
 70
     1
 71
     0
 10
0.0
 20
0.0
 30
0.0
  3
*D8
  1

  0
LINE
  5
108AA
330
10700
100
AcDbEntity
  8
AM_5
 62
     3
370
    13
100
AcDbLine
 10
-0.0730893003609905
 20
-0.0796951350408666
 30
0.0
 11
-19.29641496281032
 21
-1.761518205772161
 31
0.0
  0
LINE
  5
108AB
330
10700
100
AcDbEntity
  8
AM_5
 62
     3
370
    13
100
AcDbLine
 10
-0.0730893003609905
 20
-0.0796951350408666
 30
0.0
 11
-1.610435895826178
 21
-19.31511412739033
 31
0.0
  0
ARC
  5
108AC
330
10700
100
AcDbEntity
  8
AM_5
 62
     3
370
    13
100
AcDbCircle
 10
-0.0730893003609905
 20
-0.0796951350408666
 30
0.0
 40
18.29675564352275
100
AcDbArc
 50
192.8347829204891
 51
257.5956967223444
  0
INSERT
  5
108AD
330
10700
100
AcDbEntity
  8
AM_5
 62
     3
370
    13
100
AcDbBlockReference
  2
_Open30
 10
-18.30022026471858
 20
-1.674362463024503
 30
0.0
 41
2.5
 42
2.5
 43
2.5
 50
98.91739146024453
  0
INSERT
  5
108AE
330
10700
100
AcDbEntity
  8
AM_5
 62
     3
370
    13
100
AcDbBlockReference
  2
_Open30
 10
-1.530767239401997
 20
-18.31829272654484
 30
0.0
 41
2.5
 42
2.5
 43
2.5
 50
351.5130881825888
  0
MTEXT
  5
108AF
330
10700
100
AcDbEntity
  8
AM_5
 62
     2
100
AcDbMText
 10
-9.031887525518338
 20
-11.98151277201314
 30
0.0
 40
3.8
 41
0.0
 71
     5
 72
     1
  1
80°
 11
0.7989536729863255
 21
-0.6013925742987352
 31
0.0
 73
     1
 44
1.0
  0
POINT
  5
108B0
330
10700
100
AcDbEntity
  8
Defpoints
 62
     0
100
AcDbPoint
 10
-15.621658304938
 20
-9.724033836511726
 30
0.0
  0
POINT
  5
108B1
330
10700
100
AcDbEntity
  8
Defpoints
 62
     0
100
AcDbPoint
 10
0.0025298982130266
 20
0.866459084656583
 30
0.0
  0
POINT
  5
108B2
330
10700
100
AcDbEntity
  8
Defpoints
 62
     0
100
AcDbPoint
 10
12.05069578119156
 20
0.9809986186197071
 30
0.0
  0
POINT
  5
108B3
330
10700
100
AcDbEntity
  8
Defpoints
 62
     0
100
AcDbPoint
 10
0.8724480063390843
 20
0.0030286602362253
 30
0.0
  0
POINT
  5
108B4
330
10700
100
AcDbEntity
  8
Defpoints
 62
     0
100
AcDbPoint
 10
0.8965085198986449
 20
12.05200007394961
 30
0.0
  0
ENDBLK
  5
1072C
330
10700
100
AcDbEntity
  8
0
100
AcDbBlockEnd
  0
ENDSEC
  0
SECTION
  2
ENTITIES
  0
LINE
  5
6E5E
330
1F
100
AcDbEntity
  8
AM_7
100
AcDbLine
 10
-8.711052558828726
 20
27.00000000000003
 30
0.0
 11
80.0690205802124
 21
27.0
 31
0.0
1001
GENIUS_GENODEF_13
1002
{
1000
HIER
1070
     0
1002
}
1002
{
1000
MANEDIT
1070
     0
1002
}
1002
{
1000
NOSEL
1070
     0
1002
}
1002
{
1000
BEHIND
1070
     0
1002
}
1002
{
1000
OTHER
1070
     0
1002
}
1002
{
1000
REACTOR
1002
}
1001
GENIUS_GENOBJ-N-CEN_13
1002
{
1000
OWNER
1000
GEN
1002
}
  0
LINE
  5
6E5F
330
1F
100
AcDbEntity
  8
AM_7
100
AcDbLine
 10
79.62674035578749
 20
-90.03062362343826
 30
0.0
 11
-7.213871338467811
 21
-90.0306236234382
 31
0.0
1001
GENIUS_GENOBJ-N-CEN_13
1002
{
1000
OWNER
1000
GEN
1002
}
1001
GENIUS_GENODEF_13
1002
{
1000
HIER
1070
     0
1002
}
1002
{
1000
MANEDIT
1070
     0
1002
}
1002
{
1000
NOSEL
1070
     0
1002
}
1002
{
1000
BEHIND
1070
     0
1002
}
1002
{
1000
OTHER
1070
     0
1002
}
1002
{
1000
REACTOR
1002
}
  0
LINE
  5
6E60
330
1F
100
AcDbEntity
  8
AM_7
100
AcDbLine
 10
-87.25371505316804
 20
27.00000000000006
 30
0.0
 11
-56.60288469747644
 21
27.00000000000006
 31
0.0
1001
GENIUS_GENOREF_13
1005
7482
  0
LINE
  5
6E61
330
1F
100
AcDbEntity
  8
AM_7
100
AcDbLine
 10
-87.25371505316804
 20
27.00000000000006
 30
0.0
 11
-87.25371505316804
 21
57.65083035569171
 31
0.0
1001
GENIUS_GENOREF_13
1005
7482
  0
LINE
  5
6E62
330
1F
100
AcDbEntity
  8
AM_7
100
AcDbLine
 10
-87.25371505316804
 20
27.00000000000006
 30
0.0
 11
-117.9045454088598
 21
27.00000000000006
 31
0.0
1001
GENIUS_GENOREF_13
1005
7482
  0
LINE
  5
6E63
330
1F
100
AcDbEntity
  8
AM_7
100
AcDbLine
 10
-87.25371505316804
 20
27.00000000000006
 30
0.0
 11
-87.25371505316804
 21
-3.650830355691596
 31
0.0
1001
GENIUS_GENOREF_13
1005
7482
  0
POINT
  5
7482
330
1F
100
AcDbEntity
  8
0
 60
     1
100
AcDbPoint
 10
-1445.539078366914
 20
-1038.999287544443
 30
0.0
1001
GENIUS_GENOENT_13
1002
{
1000
MYREF
1005
7482
1002
}
1002
{
1000
GRP
1005
0
1002
}
1001
GENIUS_GENOBJ-N-CRS_13
1002
{
1000
OWNER
1000
GEN
1002
}
1001
GENIUS_GENODEF_13
1002
{
1000
HIER
1070
    10
1002
}
1002
{
1000
MANEDIT
1070
     0
1002
}
1002
{
1000
NOSEL
1070
     0
1002
}
1002
{
1000
BEHIND
1070
     0
1002
}
1002
{
1000
OTHER
1070
     0
1002
}
1002
{
1000
REACTOR
1002
}
1001
GENIUS_GENOLIS_13
1002
{
1000
ENT
1005
6E63
1005
6E62
1005
6E61
1005
6E60
1002
}
1001
GENIUS_GENCEN_19
1002
{
1040
2.794
1002
}
  0
DIMENSION
  5
7A0E
330
1F
100
AcDbEntity
  8
AM_5
100
AcDbDimension
  2
*D3
 10
49.99999999999989
 20
-32.80012784441342
 30
0.0
 11
24.99999999999994
 21
-29.40012784441343
 31
0.0
 70
    32
 71
     5
 42
49.99999999999989
  3
AM_JIS$0
100
AcDbAlignedDimension
 13
0.0
 23
-3.843116733177368
 33
0.0
 14
49.99999999999989
 24
7.299999999999955
 34
0.0
100
AcDbRotatedDimension
1001
ACAD
1000
DSTYLE
1002
{
1070
   179
1070
     0
1070
   271
1070
     0
1070
   272
1070
     2
1002
}
  0
DIMENSION
  5
868E
330
1F
100
AcDbEntity
  8
AM_5
100
AcDbDimension
  2
*D4
 10
-16.58450712434188
 20
0.0000000000000038
 30
0.0
 11
-19.98488114008991
 21
13.50000000000001
 31
0.0
 70
    32
 71
     5
 42
27.00000000000003
  3
AM_JIS$0
100
AcDbAlignedDimension
 13
-8.711052558828726
 23
27.00000000000003
 33
0.0
 14
-3.263955659574606
 24
0.0
 34
0.0
 50
90.0
100
AcDbRotatedDimension
1001
ACAD
1000
DSTYLE
1002
{
1070
   271
1070
     0
1070
   272
1070
     2
1002
}
  0
DIMENSION
  5
9D0C
330
1F
100
AcDbEntity
  8
AM_5
100
AcDbDimension
  2
*D6
 10
97.85712060941449
 20
6.999999999999987
 30
0.0
 11
94.45712060941449
 21
27.00000000000004
 31
0.0
 70
    32
  1
%%c<>
 71
     5
 42
40.00000000000007
  3
AM_JIS$0
100
AcDbAlignedDimension
 13
49.69999999999988
 23
47.00000000000007
 33
0.0
 14
49.69999999999982
 24
7.0
 34
0.0
 50
90.0
100
AcDbRotatedDimension
1001
ACAD
1000
DSTYLE
1002
{
1070
   179
1070
     0
1070
   271
1070
     0
1070
   272
1070
     2
1002
}
  0
LINE
  5
ACE1
330
1F
100
AcDbEntity
  8
AM_0
100
AcDbLine
 10
49.99999999999989
 20
46.70000000000003
 30
0.0
 11
49.69999999999988
 21
47.00000000000007
 31
0.0
  0
LINE
  5
ACE2
330
1F
100
AcDbEntity
  8
AM_0
100
AcDbLine
 10
49.99999999999989
 20
7.299999999999955
 30
0.0
 11
49.69999999999988
 21
6.999999999999943
 31
0.0
  0
LINE
  5
ACEF
330
1F
100
AcDbEntity
  8
AM_0
100
AcDbLine
 10
49.69999999999988
 20
7.0
 30
0.0
 11
49.69999999999988
 21
47.00000000000004
 31
0.0
  0
LINE
  5
ACF3
330
1F
100
AcDbEntity
  8
AM_0
100
AcDbLine
 10
49.99999999999989
 20
7.300000000000011
 30
0.0
 11
49.99999999999989
 21
46.70000000000003
 31
0.0
  0
LINE
  5
ADEA
330
1F
100
AcDbEntity
  8
AM_0
100
AcDbLine
 10
49.99999999999983
 20
-70.33062362343819
 30
0.0
 11
49.69999999999982
 21
-70.03062362343815
 31
0.0
  0
LINE
  5
ADEB
330
1F
100
AcDbEntity
  8
AM_0
100
AcDbLine
 10
49.99999999999983
 20
-109.7306236234383
 30
0.0
 11
49.69999999999982
 21
-110.0306236234383
 31
0.0
  0
LINE
  5
ADF6
330
1F
100
AcDbEntity
  8
AM_0
100
AcDbLine
 10
49.69999999999982
 20
-110.0306236234383
 30
0.0
 11
49.69999999999982
 21
-70.0306236234382
 31
0.0
  0
LINE
  5
ADF9
330
1F
100
AcDbEntity
  8
AM_0
100
AcDbLine
 10
49.99999999999983
 20
-109.7306236234383
 30
0.0
 11
49.99999999999983
 21
-70.33062362343821
 31
0.0
  0
LINE
  5
B533
330
1F
100
AcDbEntity
  8
AM_5
100
AcDbLine
 10
0.8030572776121403
 20
0.0
 30
0.0
 11
-3.263955659574606
 21
0.0
 31
0.0
  0
LINE
  5
B535
330
1F
100
AcDbEntity
  8
AM_5
100
AcDbLine
 10
0.0
 20
0.8030303056014816
 30
0.0
 11
0.0
 21
-3.843116733177368
 31
0.0
  0
DIMENSION
  5
B5B0
330
1F
100
AcDbEntity
  8
AM_5
100
AcDbDimension
  2
*D7
 10
0.0
 20
-3.843116733177368
 30
0.0
 11
11.77838723832294
 21
-10.8662040559586
 31
0.0
 70
    34
 71
     5
 42
1.658062789394613
  3
AM_JIS$2
100
AcDb2LineAngularDimension
 13
12.05069578119156
 23
0.9809986186196511
 33
0.0
 14
0.8724480063390843
 24
0.0030286602361684
 34
0.0
 15
0.0
 25
0.8030303056014816
 35
0.0
 16
10.17169309150664
 26
-16.56412691026744
 36
0.0
1001
ACAD
1000
DSTYLE
1002
{
1070
   179
1070
     0
1002
}
  0
TEXT
  5
C2CE
330
1F
100
AcDbEntity
  8
AM_0
100
AcDbText
 10
-74.31161809129424
 20
-138.7920517813348
 30
0.0
 40
5.0
  1
C4-DCLNR-C12
100
AcDbText
  0
LINE
  5
C2F2
330
1F
100
AcDbEntity
  8
AM_0
100
AcDbLine
 10
72.50047316798003
 20
-96.29248128865231
 30
0.0
 11
51.80045575182879
 21
-96.40577628597418
 31
0.0
  0
LINE
  5
C2F3
330
1F
100
AcDbEntity
  8
AM_0
100
AcDbLine
 10
72.50047316798009
 20
-75.7853516327134
 30
0.0
 11
51.80045575182862
 21
-75.28913929699624
 31
0.0
  0
LINE
  5
C2F4
330
1F
100
AcDbEntity
  8
AM_0
100
AcDbLine
 10
51.80049456977974
 20
-75.28916806366905
 30
0.0
 11
51.92860576886358
 21
-75.11629390867731
 31
0.0
  0
SPLINE
  5
C2F5
330
1F
100
AcDbEntity
  8
AM_0
100
AcDbSpline
210
0.0
220
0.0
230
1.0
 70
     8
 71
     3
 72
     8
 73
     4
 74
     0
 42
0.0000000001
 43
0.0000000001
 40
10.03823589428376
 40
10.03823589428376
 40
10.03823589428376
 40
10.03823589428376
 40
11.4263414718188
 40
11.4263414718188
 40
11.4263414718188
 40
11.4263414718188
 10
51.80045575182862
 20
-75.28913929699624
 30
0.0
 10
51.69829645467229
 20
-75.42639848939777
 30
0.0
 10
51.59767924404508
 20
-75.58347063564426
 30
0.0
 10
51.49999999999983
 20
-75.76045855058075
 30
0.0
  0
LINE
  5
C2F6
330
1F
100
AcDbEntity
  8
AM_0
100
AcDbLine
 10
51.30513435949371
 20
-75.92064707337224
 30
0.0
 11
51.49781807757091
 21
-75.6169878672915
 31
0.0
  0
SPLINE
  5
C2F7
330
1F
100
AcDbEntity
  8
AM_0
100
AcDbSpline
210
0.0
220
0.0
230
1.0
 70
     8
 71
     3
 72
    24
 73
    20
 74
     0
 42
0.0000000001
 43
0.0000000001
 40
-3.999896960420581
 40
-3.999896960420581
 40
-3.999896960420581
 40
-3.999896960420581
 40
-3.241209529363331
 40
-3.241209529363331
 40
-2.656961131893444
 40
-2.656961131893444
 40
-2.413811581886892
 40
-2.413811581886892
 40
-2.271213086977644
 40
-2.271213086977644
 40
-2.150707784993695
 40
-2.150707784993695
 40
-2.013423534242694
 40
-2.013423534242694
 40
-1.79902907678595
 40
-1.79902907678595
 40
-1.275628665959264
 40
-1.275628665959264
 40
-0.0006279875274451
 40
-0.0006279875274451
 40
-0.0006279875274451
 40
-0.0006279875274451
 10
49.99999999999983
 20
-76.08876116420433
 30
0.0
 10
50.04410434651072
 20
-76.15077176582255
 30
0.0
 10
50.09718487658745
 20
-76.2178416365841
 30
0.0
 10
50.2078585348101
 20
-76.32924612138558
 30
0.0
 10
50.27124922518829
 20
-76.38510385957804
 30
0.0
 10
50.37924914069174
 20
-76.44684758554158
 30
0.0
 10
50.41696712744454
 20
-76.46498785258936
 30
0.0
 10
50.48466955740639
 20
-76.48646514404729
 30
0.0
 10
50.51213359367523
 20
-76.49305201762249
 30
0.0
 10
50.5667725008044
 20
-76.50024215476751
 30
0.0
 10
50.59231135267226
 20
-76.50147865080041
 30
0.0
 10
50.6479421869459
 20
-76.49917702771037
 30
0.0
 10
50.67600517093365
 20
-76.49504040926624
 30
0.0
 10
50.74345353936394
 20
-76.47944473487527
 30
0.0
 10
50.7800880167182
 20
-76.46524175647082
 30
0.0
 10
50.88756348076714
 20
-76.41386128678968
 30
0.0
 10
50.95097556496495
 20
-76.36392622232208
 30
0.0
 10
51.11395485128338
 20
-76.21596608196623
 30
0.0
 10
51.21845981347229
 20
-76.07437325386238
 30
0.0
 10
51.30710678118641
 20
-75.92189865256941
 30
0.0
  0
SPLINE
  5
C2F8
330
1F
100
AcDbEntity
  8
AM_0
100
AcDbSpline
210
0.0
220
0.0
230
1.0
 70
     8
 71
     3
 72
    22
 73
    18
 74
     0
 42
0.0000000001
 43
0.0000000001
 40
-3.789017543819824
 40
-3.789017543819824
 40
-3.789017543819824
 40
-3.789017543819824
 40
-2.349380245924635
 40
-2.349380245924635
 40
-1.988985132555065
 40
-1.988985132555065
 40
-1.805402222024331
 40
-1.805402222024331
 40
-1.673041914779449
 40
-1.673041914779449
 40
-1.538036274591823
 40
-1.538036274591823
 40
-1.352140350214221
 40
-1.352140350214221
 40
-1.035461664151104
 40
-1.035461664151104
 40
0.0
 40
0.0
 40
0.0
 40
0.0
 10
51.30710678118641
 20
-95.10432783557337
 30
0.0
 10
51.19802945561645
 20
-94.59854309658476
 30
0.0
 10
51.06459720696586
 20
-94.18864734046986
 30
0.0
 10
50.87979475478272
 20
-93.87881566896067
 30
0.0
 10
50.83406530444142
 20
-93.81380174018756
 30
0.0
 10
50.75426945538754
 20
-93.73905053876263
 30
0.0
 10
50.72378777698879
 20
-93.71624048136118
 30
0.0
 10
50.66608334876656
 20
-93.68952716156366
 30
0.0
 10
50.64065194864708
 20
-93.68227344167235
 30
0.0
 10
50.58695918058743
 20
-93.67840800800286
 30
0.0
 10
50.56048583429657
 20
-93.68214382886367
 30
0.0
 10
50.49922252458765
 20
-93.70263362899675
 30
0.0
 10
50.4668699785359
 20
-93.72316303046785
 30
0.0
 10
50.38930019237932
 20
-93.7879176064863
 30
0.0
 10
50.34668530437563
 20
-93.84232254836127
 30
0.0
 10
50.19740977566266
 20
-94.06864850777049
 30
0.0
 10
50.09221688048262
 20
-94.33729677024468
 30
0.0
 10
49.99999999999983
 20
-94.66738404185651
 30
0.0
  0
LINE
  5
C2F9
330
1F
100
AcDbEntity
  8
AM_0
100
AcDbLine
 10
51.3062718248645
 20
-95.10451296117128
 30
0.0
 11
51.49916219577762
 21
-95.97449008182764
 31
0.0
  0
LINE
  5
C2FA
330
1F
100
AcDbEntity
  8
AM_0
100
AcDbLine
 10
51.49830048707293
 20
-95.00961669408076
 30
0.0
 11
51.79866516545422
 21
-96.40616139996178
 31
0.0
  0
ARC
  5
C2FB
330
1F
100
AcDbEntity
  8
AM_0
100
AcDbCircle
 10
48.0252512231566
 20
-97.40136578665999
 30
0.0
 40
3.904275564964924
100
AcDbArc
 50
345.2264265107015
 51
14.77357348930162
  0
SPLINE
  5
C2FC
330
1F
100
AcDbEntity
  8
AM_0
100
AcDbSpline
210
0.0
220
0.0
230
1.0
 70
     8
 71
     3
 72
    24
 73
    20
 74
     0
 42
0.0000000001
 43
0.0000000001
 40
-3.777697266556959
 40
-3.777697266556959
 40
-3.777697266556959
 40
-3.777697266556959
 40
-3.00628604336144
 40
-3.00628604336144
 40
-2.510016079060591
 40
-2.510016079060591
 40
-2.296553637283721
 40
-2.296553637283721
 40
-2.167806233881147
 40
-2.167806233881147
 40
-2.055476249429752
 40
-2.055476249429752
 40
-1.925013221604042
 40
-1.925013221604042
 40
-1.7182260087146
 40
-1.7182260087146
 40
-1.098287052404742
 40
-1.098287052404742
 40
-0.0006279884606319
 40
-0.0006279884606319
 40
-0.0006279884606319
 40
-0.0006279884606319
 10
49.99999999999983
 20
-99.33572566425414
 30
0.0
 10
50.04840997086393
 20
-99.4409432539893
 30
0.0
 10
50.10819564106726
 20
-99.5505595885171
 30
0.0
 10
50.22610983114765
 20
-99.70752834728012
 30
0.0
 10
50.28625483550093
 20
-99.77500479034984
 30
0.0
 10
50.38897995618646
 20
-99.84833604590767
 30
0.0
 10
50.42543527856833
 20
-99.86984030049268
 30
0.0
 10
50.49129773134274
 20
-99.89520160320819
 30
0.0
 10
50.51833905898252
 20
-99.90290534808622
 30
0.0
 10
50.57272955548353
 20
-99.91109374058988
 30
0.0
 10
50.59844517101203
 20
-99.91220196788402
 30
0.0
 10
50.65474083042142
 20
-99.90826148926726
 30
0.0
 10
50.68323840842265
 20
-99.90234253751726
 30
0.0
 10
50.75184996983637
 20
-99.88068175352873
 30
0.0
 10
50.78920668371711
 20
-99.86113427305691
 30
0.0
 10
50.91576635596493
 20
-99.77910387509996
 30
0.0
 10
50.99253969884467
 20
-99.68706317767021
 30
0.0
 10
51.14285286926059
 20
-99.47096839994413
 30
0.0
 10
51.23079007009505
 20
-99.2882538928742
 30
0.0
 10
51.30710678118641
 20
-99.0656443821722
 30
0.0
  0
LINE
  5
C2FD
330
1F
100
AcDbEntity
  8
AM_0
100
AcDbLine
 10
51.30730346791427
 20
-99.06571135695918
 30
0.0
 11
51.50018915462908
 21
-98.49925857256119
 31
0.0
  0
ARC
  5
C2FE
330
1F
100
AcDbEntity
  8
AM_0
100
AcDbCircle
 10
61.93180562248722
 20
-119.6917188140061
 30
0.0
 40
17.00856428742091
100
AcDbArc
 50
82.30228448421372
 51
100.5760488497858
  0
LINE
  5
C2FF
330
1F
100
AcDbEntity
  8
AM_0
100
AcDbLine
 10
51.50037173590613
 20
-99.3222818751334
 30
0.0
 11
51.80083650767494
 21
-98.39707893991306
 31
0.0
  0
LINE
  5
C300
330
1F
100
AcDbEntity
  8
AM_0
100
AcDbLine
 10
72.50047316798003
 20
-98.0140379489502
 30
0.0
 11
51.80045575182885
 21
-98.39695528734558
 31
0.0
  0
LINE
  5
C301
330
1F
100
AcDbEntity
  8
AM_0
100
AcDbLine
 10
69.99999959464697
 20
-102.5003286837429
 30
0.0
 11
72.5004727712182
 21
-102.4420656853278
 31
0.0
  0
LINE
  5
C302
330
1F
100
AcDbEntity
  8
AM_0
100
AcDbLine
 10
72.49947017185593
 20
-102.4402645596288
 30
0.0
 11
73.99867597936174
 21
-101.6132180024914
 31
0.0
  0
LINE
  5
C303
330
1F
100
AcDbEntity
  8
AM_0
100
AcDbLine
 10
72.50047316798003
 20
-98.0140379489502
 30
0.0
 11
73.99999999999983
 21
-97.33905550200143
 31
0.0
  0
LINE
  5
C304
330
1F
100
AcDbEntity
  8
AM_0
100
AcDbLine
 10
72.49947017185593
 20
-102.4402645596288
 30
0.0
 11
73.99867597936174
 21
-101.6132180024914
 31
0.0
  0
LINE
  5
C305
330
1F
100
AcDbEntity
  8
AM_0
100
AcDbLine
 10
72.50047316798003
 20
-96.29248128865231
 30
0.0
 11
73.99999999999983
 21
-96.0927720385049
 31
0.0
  0
LINE
  5
C306
330
1F
100
AcDbEntity
  8
AM_0
100
AcDbLine
 10
72.50047316798009
 20
-75.7853516327134
 30
0.0
 11
73.99999999999983
 21
-76.66004332980958
 31
0.0
  0
LINE
  5
C309
330
1F
100
AcDbEntity
  8
AM_0
100
AcDbLine
 10
72.50047316798015
 20
-75.63310512534008
 30
0.0
 11
51.92856987607075
 21
-75.11626730974044
 31
0.0
  0
LINE
  5
C30A
330
1F
100
AcDbEntity
  8
AM_0
100
AcDbLine
 10
51.30710678118641
 20
-75.73773040462478
 30
0.0
 11
51.92856987607075
 21
-75.11626730974049
 31
0.0
  0
LINE
  5
C30B
330
1F
100
AcDbEntity
  8
AM_0
100
AcDbLine
 10
49.99999999999983
 20
-102.9306236234381
 30
0.0
 11
51.49999999999983
 21
-102.9306236234381
 31
0.0
  0
LINE
  5
C30C
330
1F
100
AcDbEntity
  8
AM_0
100
AcDbLine
 10
58.81004622225157
 20
-102.9720932988706
 30
0.0
 11
51.49999999999983
 21
-103.1557471041521
 31
0.0
  0
LINE
  5
C30D
330
1F
100
AcDbEntity
  8
AM_0
100
AcDbLine
 10
69.99999999999983
 20
-102.6909627109475
 30
0.0
 11
64.21004622225217
 21
-102.8364265030164
 31
0.0
  0
LINE
  5
C30E
330
1F
100
AcDbEntity
  8
AM_0
100
AcDbLine
 10
73.99999999999983
 20
-76.54982778541864
 30
0.0
 11
72.50047316798009
 21
-75.63310512534014
 31
0.0
  0
LINE
  5
C310
330
1F
100
AcDbEntity
  8
AM_0
100
AcDbLine
 10
51.49999999999983
 20
-95.00925116789892
 30
0.0
 11
51.49999999999983
 21
-75.76045855058081
 31
0.0
  0
LINE
  5
C311
330
1F
100
AcDbEntity
  8
AM_0
100
AcDbLine
 10
51.49999999999983
 20
-75.76045855058075
 30
0.0
 11
51.49999999999983
 21
-75.61837238295161
 31
0.0
  0
LINE
  5
C313
330
1F
100
AcDbEntity
  8
AM_0
100
AcDbLine
 10
51.30710678118641
 20
-75.92189865256941
 30
0.0
 11
51.30710678118641
 21
-75.73773040462478
 31
0.0
  0
LINE
  5
C314
330
1F
100
AcDbEntity
  8
AM_0
100
AcDbLine
 10
51.30710678118641
 20
-99.0656443821722
 30
0.0
 11
51.30710678118641
 21
-95.10432783557337
 31
0.0
  0
LINE
  5
C315
330
1F
100
AcDbEntity
  8
AM_0
100
AcDbLine
 10
51.49999999999983
 20
-95.97430432479632
 30
0.0
 11
51.49999999999983
 21
-95.00925116789779
 31
0.0
  0
LINE
  5
C316
330
1F
100
AcDbEntity
  8
AM_0
100
AcDbLine
 10
51.49999999999983
 20
-99.32216115183974
 30
0.0
 11
51.49999999999983
 21
-98.49919416256705
 31
0.0
  0
LINE
  5
C317
330
1F
100
AcDbEntity
  8
AM_0
100
AcDbLine
 10
51.49999999999983
 20
-103.1557471041521
 30
0.0
 11
51.49999999999983
 21
-99.32216115184184
 31
0.0
  0
LINE
  5
C318
330
1F
100
AcDbEntity
  8
AM_0
100
AcDbLine
 10
69.99999999999983
 20
-102.5003460802718
 30
0.0
 11
69.99999999999983
 21
-102.6909627109475
 31
0.0
  0
LINE
  5
C319
330
1F
100
AcDbEntity
  8
AM_0
100
AcDbLine
 10
72.50047316798003
 20
-102.442082713155
 30
0.0
 11
72.50047316798003
 21
-98.0140379489502
 31
0.0
  0
LINE
  5
C31A
330
1F
100
AcDbEntity
  8
AM_0
100
AcDbLine
 10
73.99999999999983
 20
-97.33905550200143
 30
0.0
 11
73.99999999999983
 21
-101.6156180843402
 31
0.0
  0
LINE
  5
C31B
330
1F
100
AcDbEntity
  8
AM_0
100
AcDbLine
 10
72.50047316798003
 20
-98.01403794895009
 30
0.0
 11
72.50047316798003
 21
-96.29248128865231
 31
0.0
  0
LINE
  5
C31C
330
1F
100
AcDbEntity
  8
AM_0
100
AcDbLine
 10
73.99999999999983
 20
-96.0927720385049
 30
0.0
 11
73.99999999999983
 21
-97.33905550200143
 31
0.0
  0
LINE
  5
C31D
330
1F
100
AcDbEntity
  8
AM_0
100
AcDbLine
 10
72.50047316798003
 20
-96.29248128865231
 30
0.0
 11
72.50047316798003
 21
-75.78535163271351
 31
0.0
  0
LINE
  5
C31E
330
1F
100
AcDbEntity
  8
AM_0
100
AcDbLine
 10
73.99999999999983
 20
-76.66004332980958
 30
0.0
 11
73.99999999999983
 21
-96.0927720385049
 31
0.0
  0
LINE
  5
C31F
330
1F
100
AcDbEntity
  8
AM_0
100
AcDbLine
 10
72.50047316798009
 20
-75.78535163271351
 30
0.0
 11
72.50047316798009
 21
-75.63310512534008
 31
0.0
  0
LINE
  5
C320
330
1F
100
AcDbEntity
  8
AM_0
100
AcDbLine
 10
73.99999999999983
 20
-76.54982778541864
 30
0.0
 11
73.99999999999983
 21
-76.66004332980953
 31
0.0
  0
ARC
  5
C321
330
1F
100
AcDbEntity
  8
AM_0
100
AcDbCircle
 10
50.5999999999998
 20
-75.03062362343826
 30
0.0
 40
1.0
100
AcDbArc
 50
233.1301023541544
 51
314.9999999999999
  0
LINE
  5
C3E1
330
1F
100
AcDbEntity
  8
AM_0
100
AcDbLine
 10
51.49891622005038
 20
29.4898167811134
 30
0.0
 11
51.79941336979999
 21
28.14937405381022
 31
0.0
  0
ARC
  5
C3E2
330
1F
100
AcDbEntity
  8
AM_0
100
AcDbCircle
 10
46.70661962176803
 20
26.99999999999974
 30
0.0
 40
5.221950254302755
100
AcDbArc
 50
347.2822085558777
 51
12.71779144412234
  0
LINE
  5
C3E3
330
1F
100
AcDbEntity
  8
AM_0
100
AcDbLine
 10
51.49891622005038
 20
24.51018321888637
 30
0.0
 11
51.79941336979999
 21
25.85062594618921
 31
0.0
  0
LINE
  5
C3E4
330
1F
100
AcDbEntity
  8
AM_0
100
AcDbLine
 10
51.30667598375641
 20
24.71303303323379
 30
0.0
 11
51.49958358225769
 21
25.54235103538883
 31
0.0
  0
SPLINE
  5
C3E5
330
1F
100
AcDbEntity
  8
AM_0
100
AcDbSpline
210
0.0
220
0.0
230
1.0
 70
     8
 71
     3
 72
    24
 73
    20
 74
     0
 42
0.0000000001
 43
0.0000000001
 40
-3.999896960420581
 40
-3.999896960420581
 40
-3.999896960420581
 40
-3.999896960420581
 40
-3.241209529363331
 40
-3.241209529363331
 40
-2.656961131893444
 40
-2.656961131893444
 40
-2.413811581886892
 40
-2.413811581886892
 40
-2.271213086977644
 40
-2.271213086977644
 40
-2.150707784993695
 40
-2.150707784993695
 40
-2.013423534242694
 40
-2.013423534242694
 40
-1.79902907678595
 40
-1.79902907678595
 40
-1.275628665959264
 40
-1.275628665959264
 40
-0.0006279875274451
 40
-0.0006279875274451
 40
-0.0006279875274451
 40
-0.0006279875274451
 10
49.99999999999989
 20
24.30473170763958
 30
0.0
 10
50.04410434651078
 20
24.15824091503339
 30
0.0
 10
50.09718487658751
 20
24.00577685519795
 30
0.0
 10
50.20785853481016
 20
23.76109940829105
 30
0.0
 10
50.27124922518834
 20
23.64191799179088
 30
0.0
 10
50.3792491406918
 20
23.51307890591011
 30
0.0
 10
50.41696712744459
 20
23.47561830304414
 30
0.0
 10
50.48466955740645
 20
23.43153221219052
 30
0.0
 10
50.51213359367529
 20
23.41807672380389
 30
0.0
 10
50.56677250080446
 20
23.40340559464403
 30
0.0
 10
50.59231135267231
 20
23.40088895789626
 30
0.0
 10
50.64794218694595
 20
23.40558007638344
 30
0.0
 10
50.67600517093371
 20
23.41400843450731
 30
0.0
 10
50.743453539364
 20
23.44591312136691
 30
0.0
 10
50.78008801671825
 20
23.47508039986485
 30
0.0
 10
50.8875634807672
 20
23.58152870506063
 30
0.0
 10
50.95097556496495
 20
23.68689742361812
 30
0.0
 10
51.11395485128338
 20
24.0072612810884
 30
0.0
 10
51.21845981347229
 20
24.32632390518495
 30
0.0
 10
51.30710678118646
 20
24.71293282547578
 30
0.0
  0
SPLINE
  5
C3E6
330
1F
100
AcDbEntity
  8
AM_0
100
AcDbSpline
210
0.0
220
0.0
230
1.0
 70
     8
 71
     3
 72
    22
 73
    18
 74
     0
 42
0.0000000001
 43
0.0000000001
 40
-3.830082917561853
 40
-3.830082917561853
 40
-3.830082917561853
 40
-3.830082917561853
 40
-2.381890930071555
 40
-2.381890930071555
 40
-2.005485942645415
 40
-2.005485942645415
 40
-1.816686732793245
 40
-1.816686732793245
 40
-1.682523477226034
 40
-1.682523477226034
 40
-1.547081220829608
 40
-1.547081220829608
 40
-1.36278353353746
 40
-1.36278353353746
 40
-1.047600271033861
 40
-1.047600271033861
 40
0.0
 40
0.0
 40
0.0
 40
0.0
 10
51.30710678118646
 20
29.28706717452417
 30
0.0
 10
51.19973778311731
 20
29.755326986299
 30
0.0
 10
51.0688208984057
 20
30.12511518815859
 30
0.0
 10
50.88625011883011
 20
30.409617116851
 30
0.0
 10
50.83949067618357
 20
30.47125507381549
 30
0.0
 10
50.75811945716527
 20
30.54162519008548
 30
0.0
 10
50.72725886753347
 20
30.56299381245651
 30
0.0
 10
50.66908070244983
 20
30.58805237873088
 30
0.0
 10
50.64358769028547
 20
30.59495837155527
 30
0.0
 10
50.58992829660775
 20
30.59912963604825
 30
0.0
 10
50.56353443697941
 20
30.59616335339206
 30
0.0
 10
50.50268724535931
 20
30.57870353110127
 30
0.0
 10
50.47064635726878
 20
30.56097270844737
 30
0.0
 10
50.39336697438733
 20
30.50425306330226
 30
0.0
 10
50.35083575236098
 20
30.45607432192503
 30
0.0
 10
50.19992858503383
 20
30.25204868176479
 30
0.0
 10
50.09329792915776
 20
30.0051535683495
 30
0.0
 10
49.99999999999989
 20
29.69526829236037
 30
0.0
  0
LINE
  5
C3E7
330
1F
100
AcDbEntity
  8
AM_0
100
AcDbLine
 10
51.3066759835985
 20
29.28696696673069
 30
0.0
 11
51.49958357973748
 21
28.45764896402613
 31
0.0
  0
LINE
  5
C3EC
330
1F
100
AcDbEntity
  8
AM_0
100
AcDbLine
 10
72.50047316798009
 20
40.25399401955451
 30
0.0
 11
51.49999999999989
 21
40.78159900217008
 31
0.0
  0
LINE
  5
C3ED
330
1F
100
AcDbEntity
  8
AM_0
100
AcDbLine
 10
72.50047316798009
 20
13.74600598044583
 30
0.0
 11
51.49999999999989
 21
13.21840099783026
 31
0.0
  0
LINE
  5
C3EE
330
1F
100
AcDbEntity
  8
AM_0
100
AcDbLine
 10
49.99999999999989
 20
13.44352447854396
 30
0.0
 11
51.49999999999989
 21
13.44352447854396
 31
0.0
  0
LINE
  5
C3EF
330
1F
100
AcDbEntity
  8
AM_0
100
AcDbLine
 10
49.99999999999989
 20
40.55647552145615
 30
0.0
 11
51.49999999999989
 21
40.55647552145615
 31
0.0
  0
LINE
  5
C3F0
330
1F
100
AcDbEntity
  8
AM_0
100
AcDbLine
 10
73.99999999999994
 20
14.66272864052434
 30
0.0
 11
72.50047316798015
 21
13.74600598044583
 31
0.0
  0
LINE
  5
C3F1
330
1F
100
AcDbEntity
  8
AM_0
100
AcDbLine
 10
73.99999999999994
 20
39.33727135947601
 30
0.0
 11
72.50047316798015
 21
40.25399401955451
 31
0.0
  0
LINE
  5
C3F4
330
1F
100
AcDbEntity
  8
AM_0
100
AcDbLine
 10
51.49999999999989
 20
13.2184009978302
 30
0.0
 11
51.49999999999989
 21
24.5099402597661
 31
0.0
  0
LINE
  5
C3F5
330
1F
100
AcDbEntity
  8
AM_0
100
AcDbLine
 10
51.49999999999989
 20
24.5099402597661
 30
0.0
 11
51.49999999999989
 21
25.54225417248892
 31
0.0
  0
LINE
  5
C3F7
330
1F
100
AcDbEntity
  8
AM_0
100
AcDbLine
 10
51.49999999999989
 20
29.49005974023368
 30
0.0
 11
51.49999999999989
 21
40.78159900217014
 31
0.0
  0
LINE
  5
C3F8
330
1F
100
AcDbEntity
  8
AM_0
100
AcDbLine
 10
51.49999999999989
 20
28.45774582751102
 30
0.0
 11
51.49999999999989
 21
29.49005974023368
 31
0.0
  0
LINE
  5
C3F9
330
1F
100
AcDbEntity
  8
AM_0
100
AcDbLine
 10
72.50047316798009
 20
13.74600598044583
 30
0.0
 11
72.50047316798009
 21
26.00605879875133
 31
0.0
  0
LINE
  5
C3FA
330
1F
100
AcDbEntity
  8
AM_0
100
AcDbLine
 10
73.99999999999989
 20
26.28045790686321
 30
0.0
 11
73.99999999999989
 21
14.66272864052428
 31
0.0
  0
LINE
  5
C3FB
330
1F
100
AcDbEntity
  8
AM_0
100
AcDbLine
 10
72.50047316798015
 20
26.00605879875127
 30
0.0
 11
72.50047316798015
 21
27.99394120124822
 31
0.0
  0
LINE
  5
C3FC
330
1F
100
AcDbEntity
  8
AM_0
100
AcDbLine
 10
73.99999999999989
 20
27.71954209313634
 30
0.0
 11
73.99999999999989
 21
26.28045790686321
 31
0.0
  0
LINE
  5
C3FD
330
1F
100
AcDbEntity
  8
AM_0
100
AcDbLine
 10
72.50047316798009
 20
27.99394120124822
 30
0.0
 11
72.50047316798009
 21
40.25399401955457
 31
0.0
  0
LINE
  5
C3FE
330
1F
100
AcDbEntity
  8
AM_0
100
AcDbLine
 10
73.99999999999989
 20
39.33727135947606
 30
0.0
 11
73.99999999999989
 21
27.7195420931364
 31
0.0
  0
ELLIPSE
  5
FDFD
330
1F
100
AcDbEntity
  8
AM_0
100
AcDbEllipse
 10
7.246230545475385
 20
7.29367011026028
 30
0.0
 11
-1.417325227138288
 21
1.411095035962283
 31
0.0
210
0.0
220
0.0
230
1.0
 40
0.9924047398487847
 41
2.361630669550499
 42
2.989370878133561
  0
LINE
  5
FDFE
330
1F
100
AcDbEntity
  8
AM_0
100
AcDbLine
 10
12.05069578119156
 20
0.9809986186197079
 30
0.0
 11
0.8724480063390843
 21
0.0030286602362253
 31
0.0
  0
LINE
  5
FDFF
330
1F
100
AcDbEntity
  8
AM_0
100
AcDbLine
 10
0.0025298982130266
 20
0.866459084656583
 30
0.0
 11
0.8965085198986458
 21
12.05200007394961
 31
0.0
  0
LINE
  5
FE00
330
1F
100
AcDbEntity
  8
AM_0
100
AcDbLine
 10
1.615492756467745
 20
12.77642093431581
 30
0.0
 11
1.982554107286831
 21
12.80853464133099
 31
0.0
  0
LINE
  5
FE01
330
1F
100
AcDbEntity
  8
AM_0
100
AcDbLine
 10
1.615492756467631
 20
12.77642093431587
 30
0.0
 11
2.011801394609677
 21
13.17447933311706
 31
0.0
  0
LINE
  5
FE02
330
1F
100
AcDbEntity
  8
AM_0
100
AcDbLine
 10
12.76968001776066
 20
1.705419478985846
 30
0.0
 11
13.16439015180339
 21
2.10187231605812
 31
0.0
  0
LINE
  5
FE03
330
1F
100
AcDbEntity
  8
AM_0
100
AcDbLine
 10
12.79880933665146
 20
2.06988813912983
 30
0.0
 11
12.76968001776066
 21
1.705419478985846
 31
0.0
  0
LINE
  5
FE04
330
1F
100
AcDbEntity
  8
AM_0
100
AcDbLine
 10
12.54215893626844
 20
1.210486246628022
 30
0.0
 11
12.95529521291411
 21
1.625446580420658
 31
0.0
  0
LINE
  5
FE05
330
1F
100
AcDbEntity
  8
AM_0
100
AcDbLine
 10
1.124029601390987
 20
12.54693330630744
 30
0.0
 11
1.537165878036888
 21
12.96189364010007
 31
0.0
  0
ELLIPSE
  5
FE06
330
1F
100
AcDbEntity
  8
AM_0
100
AcDbEllipse
 10
11.97522884541303
 20
1.774924261012984
 30
0.0
 11
-0.5669300908553153
 21
0.5644380143849137
 31
0.0
210
0.0
220
0.0
230
1.0
 40
0.9924047398487847
 41
2.445012877194915
 42
3.841276278790343
  0
ELLIPSE
  5
FE07
330
1F
100
AcDbEntity
  8
AM_0
100
AcDbEllipse
 10
12.38836512205882
 20
2.189884594805619
 30
0.0
 11
0.5669300908553153
 21
-0.5644380143849137
 31
0.0
210
0.0
220
0.0
230
1.0
 40
0.9924047398487847
 41
0.0000000000000406
 42
0.6782104012326214
  0
ELLIPSE
  5
FE08
330
1F
100
AcDbEntity
  8
AM_0
100
AcDbEllipse
 10
0.7969810705606619
 20
0.7969543026295014
 30
0.0
 11
-0.5669300908553153
 21
0.5644380143849137
 31
0.0
210
0.0
220
0.0
230
1.0
 40
0.9924047398487847
 41
0.6996836252005677
 42
2.445012877194915
  0
ELLIPSE
  5
FE09
330
1F
100
AcDbEntity
  8
AM_0
100
AcDbEllipse
 10
1.690959692246281
 20
11.98249529192253
 30
0.0
 11
-0.5669300908553153
 21
0.5644380143849137
 31
0.0
210
0.0
220
0.0
230
1.0
 40
0.9924047398487847
 41
5.586605530784779
 42
6.982868932380172
  0
ELLIPSE
  5
FE0A
330
1F
100
AcDbEntity
  8
AM_0
100
AcDbEllipse
 10
2.104095968892068
 20
12.39745562571517
 30
0.0
 11
0.5669300908553153
 21
-0.5644380143849137
 31
0.0
210
0.0
220
0.0
230
1.0
 40
0.9924047398487847
 41
2.464692570277673
 42
3.141592653589733
  0
ELLIPSE
  5
FE0B
330
1F
100
AcDbEntity
  8
AM_0
100
AcDbEllipse
 10
7.246230545475385
 20
7.293670110260337
 30
0.0
 11
1.828349543008392
 21
-1.820312596391346
 31
0.0
210
0.0
220
0.0
230
1.0
 40
0.9924047398487849
 41
3.256191312495143
 42
6.168586648274345
  0
ELLIPSE
  5
FE0C
330
1F
100
AcDbEntity
  8
AM_0
100
AcDbEllipse
 10
6.833094268829598
 20
6.878709776467701
 30
0.0
 11
-1.828349543008392
 21
1.820312596391346
 31
0.0
210
0.0
220
0.0
230
1.0
 40
0.9924047398487849
 41
5.990360266764458
 42
9.896782594114786
  0
LINE
  5
FE0F
330
1F
100
AcDbEntity
  8
AM_0
100
AcDbLine
 10
43.33660254037829
 20
46.02457441013222
 30
0.0
 11
43.33660254037829
 21
33.16973001948577
 31
0.0
  0
LINE
  5
FE11
330
1F
100
AcDbEntity
  8
AM_0
100
AcDbLine
 10
40.66339745962131
 20
46.02457441013222
 30
0.0
 11
40.66339745962131
 21
33.16973001948577
 31
0.0
  0
LINE
  5
FE12
330
1F
100
AcDbEntity
  8
AM_0
100
AcDbLine
 10
43.33660254037829
 20
20.83026998051429
 30
0.0
 11
43.33660254037829
 21
7.975425589867825
 31
0.0
  0
LINE
  5
FE28
330
1F
100
AcDbEntity
  8
AM_0
100
AcDbLine
 10
26.67436372419746
 20
20.56068114991734
 30
0.0
 11
26.68952144926931
 21
20.54804175111684
 31
0.0
  0
LINE
  5
FE29
330
1F
100
AcDbEntity
  8
AM_0
100
AcDbLine
 10
26.57495424650205
 20
20.43296871737607
 30
0.0
 11
26.68952144926931
 21
20.54804175111684
 31
0.0
  0
SPLINE
  5
FE2A
330
1F
100
AcDbEntity
  8
AM_0
100
AcDbSpline
210
0.0
220
0.0
230
1.0
 70
     8
 71
     3
 72
    26
 73
    22
 74
     0
 42
0.0000000001
 43
0.0000000001
 40
0.0
 40
0.0
 40
0.0
 40
0.0
 40
0.2713201130182744
 40
0.2713201130182744
 40
0.5426402260365488
 40
0.5426402260365488
 40
0.8170010649550962
 40
0.8170010649550962
 40
1.091361903873644
 40
1.091361903873644
 40
1.603653698997412
 40
1.603653698997412
 40
2.11594549412118
 40
2.11594549412118
 40
2.454564954443047
 40
2.454564954443047
 40
2.793184414764914
 40
2.793184414764914
 40
2.985940191262559
 40
2.985940191262559
 40
3.172776157269178
 40
3.172776157269178
 40
3.172776157269178
 40
3.172776157269178
 10
17.77359654339062
 20
30.19697056766285
 30
0.0
 10
17.70414066259588
 20
30.2548869484022
 30
0.0
 10
17.62114008206817
 20
30.3078833929647
 30
0.0
 10
17.44500086758984
 20
30.38710721419926
 30
0.0
 10
17.35187605108405
 20
30.4133598134776
 30
0.0
 10
17.17794349485183
 20
30.43937598639741
 30
0.0
 10
17.08281429152606
 20
30.44101256100953
 30
0.0
 10
16.8997140659057
 20
30.41682895826477
 30
0.0
 10
16.81175106711208
 20
30.39107703113751
 30
0.0
 10
16.5955753185404
 20
30.29621158035644
 30
0.0
 10
16.46913091241237
 20
30.19659651238851
 30
0.0
 10
16.28647889896917
 20
29.95106554977917
 30
0.0
 10
16.2303392492725
 20
29.80537438404656
 30
0.0
 10
16.19934616912525
 20
29.56754754106049
 30
0.0
 10
16.20190573963993
 20
29.46232109205334
 30
0.0
 10
16.24429638420253
 20
29.25442004252062
 30
0.0
 10
16.28404214857204
 20
29.15171520298742
 30
0.0
 10
16.36636869816749
 20
29.0079602946347
 30
0.0
 10
16.40441200966103
 20
28.95250589787929
 30
0.0
 10
16.49080175141745
 20
28.84969597993336
 30
0.0
 10
16.53885675816645
 20
28.80212227693772
 30
0.0
 10
16.58670363172149
 20
28.76177693700049
 30
0.0
  0
LINE
  5
FE2B
330
1F
100
AcDbEntity
  8
AM_0
100
AcDbLine
 10
17.77359654339062
 20
30.19697056766285
 30
0.0
 11
17.92697377913811
 21
30.38622667449209
 31
0.0
  0
LINE
  5
FE2C
330
1F
100
AcDbEntity
  8
AM_0
100
AcDbLine
 10
27.75729926584319
 20
21.87197459258357
 30
0.0
 11
17.77359654339062
 21
30.19697056766285
 31
0.0
  0
LINE
  5
FE2D
330
1F
100
AcDbEntity
  8
AM_0
100
AcDbLine
 10
27.75729926584319
 20
21.87197459258351
 30
0.0
 11
27.91067650159079
 21
22.06123069941282
 31
0.0
  0
LINE
  5
FE2E
330
1F
100
AcDbEntity
  8
AM_0
100
AcDbLine
 10
25.65161023009847
 20
19.34462599907482
 30
0.0
 11
26.57495424650205
 21
20.43296871737607
 31
0.0
  0
SPLINE
  5
FE2F
330
1F
100
AcDbEntity
  8
AM_0
100
AcDbSpline
210
0.0
220
0.0
230
1.0
 70
     8
 71
     3
 72
    26
 73
    22
 74
     0
 42
0.0000000001
 43
0.0000000001
 40
-3.178695967760197
 40
-3.178695967760197
 40
-3.178695967760197
 40
-3.178695967760197
 40
-2.98594019126255
 40
-2.98594019126255
 40
-2.793184414764904
 40
-2.793184414764904
 40
-2.454564954443034
 40
-2.454564954443034
 40
-2.115945494121164
 40
-2.115945494121164
 40
-1.603653698997393
 40
-1.603653698997393
 40
-1.091361903873622
 40
-1.091361903873622
 40
-0.8170010649550754
 40
-0.8170010649550754
 40
-0.5426402260365277
 40
-0.5426402260365277
 40
-0.2713201130182643
 40
-0.2713201130182643
 40
0.0
 40
0.0
 40
0.0
 40
0.0
 10
26.57495424650205
 20
20.43296871737607
 30
0.0
 10
26.62429825600424
 20
20.39182279267055
 30
0.0
 10
26.68129920545329
 20
20.35178253513334
 30
0.0
 10
26.79928500279056
 20
20.28465207300053
 30
0.0
 10
26.86030911417237
 20
20.25749825117941
 30
0.0
 10
27.01543991188163
 20
20.20324731785985
 30
0.0
 10
27.12269003651517
 20
20.18337837707094
 30
0.0
 10
27.33280856825928
 20
20.18072248847523
 30
0.0
 10
27.43569177684816
 20
20.19802457354223
 30
0.0
 10
27.6615150656599
 20
20.27339057929731
 30
0.0
 10
27.7930758712651
 20
20.35619116857458
 30
0.0
 10
27.9986408311342
 20
20.58261597467299
 30
0.0
 10
28.07243010190331
 20
20.72613797798516
 30
0.0
 10
28.12500662640997
 20
20.9574220421535
 30
0.0
 10
28.13386861943792
 20
21.04913302003877
 30
0.0
 10
28.12359560338649
 20
21.23456255561621
 30
0.0
 10
28.10439416150172
 20
21.32826156817708
 30
0.0
 10
28.04679201790253
 20
21.49531258663643
 30
0.0
 10
28.00391161490842
 20
21.58246910383548
 30
0.0
 10
27.89390447842135
 20
21.7418508667509
 30
0.0
 10
27.82675514663794
 20
21.81405821184416
 30
0.0
 10
27.75729926584319
 20
21.87197459258351
 30
0.0
  0
LINE
  5
FE30
330
1F
100
AcDbEntity
  8
AM_0
100
AcDbLine
 10
2.557315425974423
 20
20.00000000000006
 30
0.0
 11
12.73668623747182
 21
37.63118743459734
 31
0.0
  0
LINE
  5
FE31
330
1F
100
AcDbEntity
  8
AM_0
100
AcDbLine
 10
28.07117478475499
 20
3.405894697599535
 30
0.0
 11
28.84141839018645
 21
6.350941661185686
 31
0.0
  0
LINE
  5
FE32
330
1F
100
AcDbEntity
  8
AM_0
100
AcDbLine
 10
13.28641933747741
 20
8.250811524460744
 30
0.0
 11
12.79237829260211
 21
2.069325495680857
 31
0.0
  0
LINE
  5
FE33
330
1F
100
AcDbEntity
  8
AM_0
100
AcDbLine
 10
1.982041684498483
 20
12.80212316127597
 30
0.0
 11
6.934730700855255
 21
13.23542730433013
 31
0.0
  0
LINE
  5
FE34
330
1F
100
AcDbEntity
  8
AM_0
100
AcDbLine
 10
17.92697377913822
 20
30.38622667449209
 30
0.0
 11
27.91067650159079
 21
22.06123069941282
 31
0.0
  0
LINE
  5
FE35
330
1F
100
AcDbEntity
  8
AM_0
100
AcDbLine
 10
25.65161023009858
 20
19.34462599907482
 30
0.0
 11
25.65091949614754
 21
19.34520197349252
 31
0.0
  0
LINE
  5
FE36
330
1F
100
AcDbEntity
  8
AM_0
100
AcDbLine
 10
18.29011026139159
 20
47.25000000000004
 30
0.0
 11
17.99778042547968
 21
46.74366987163232
 31
0.0
  0
LINE
  5
FE37
330
1F
100
AcDbEntity
  8
AM_0
100
AcDbLine
 10
12.79237829260211
 20
2.069325495680857
 30
0.0
 11
28.07073847659643
 21
3.406008809046114
 31
0.0
  0
LINE
  5
FE38
330
1F
100
AcDbEntity
  8
AM_0
100
AcDbLine
 10
28.07073847659643
 20
3.406008809046114
 30
0.0
 11
28.1172919067705
 21
3.410081706434596
 31
0.0
  0
LINE
  5
FE39
330
1F
100
AcDbEntity
  8
AM_0
100
AcDbLine
 10
1.982041684498483
 20
12.802123161276
 30
0.0
 11
2.557315425974423
 21
20.00000000000006
 31
0.0
  0
LINE
  5
FE3A
330
1F
100
AcDbEntity
  8
AM_0
100
AcDbLine
 10
28.9786010192783
 20
21.46066786414923
 30
0.0
 11
12.73668623747182
 21
37.63118743459739
 31
0.0
  0
LINE
  5
FE3B
330
1F
100
AcDbEntity
  8
AM_0
100
AcDbLine
 10
12.73668623747182
 20
37.63118743459739
 30
0.0
 11
17.99778042547968
 21
46.74366987163232
 31
0.0
  0
LINE
  5
FE3C
330
1F
100
AcDbEntity
  8
AM_0
100
AcDbLine
 10
17.99778042547968
 20
46.74366987163232
 30
0.0
 11
28.97860101927842
 21
46.74366987163232
 31
0.0
  0
ELLIPSE
  5
FE3D
330
1F
100
AcDbEntity
  8
AM_0
100
AcDbEllipse
 10
28.97860101927842
 20
66.99607139060737
 30
0.0
 11
0.3511687079077756
 21
-45.70920785517441
 31
0.0
210
0.0
220
0.0
230
1.0
 40
0.0871718289761082
 41
6.195279961376563
 42
6.571629705407126
  0
LINE
  5
FE3F
330
1F
100
AcDbEntity
  8
AM_0
100
AcDbLine
 10
28.97860429980193
 20
46.74406774247983
 30
0.0
 11
29.26685933687946
 21
46.74169102286298
 31
0.0
  0
LINE
  5
FE43
330
1F
100
AcDbEntity
  8
AM_0
100
AcDbLine
 10
40.66339745962131
 20
20.83026998051429
 30
0.0
 11
40.66339745962131
 21
7.975425589867825
 31
0.0
  0
SPLINE
  5
FE45
330
1F
100
AcDbEntity
  8
AM_0
100
AcDbSpline
210
0.0
220
0.0
230
1.0
 70
     8
 71
     3
 72
    14
 73
    10
 74
     0
 42
0.0000000001
 43
0.0000000001
 40
5.014210686979189
 40
5.014210686979189
 40
5.014210686979189
 40
5.014210686979189
 40
5.065613498702748
 40
5.065613498702748
 40
5.584631632890783
 40
5.584631632890783
 40
5.844140699984801
 40
5.844140699984801
 40
5.883761673786141
 40
5.883761673786141
 40
5.883761673786141
 40
5.883761673786141
 10
41.41770949552091
 20
12.67483003673732
 30
0.0
 10
41.40511554536852
 20
12.67050850444031
 30
0.0
 10
41.39267989646493
 20
12.66637035598137
 30
0.0
 10
41.25639805541488
 20
12.62302101786884
 30
0.0
 10
41.13039691595935
 20
12.60116187791186
 30
0.0
 10
40.97410394921292
 20
12.62686307276579
 30
0.0
 10
40.92725559878954
 20
12.64496115407712
 30
0.0
 10
40.8819859103761
 20
12.67766277956872
 30
0.0
 10
40.87616664551064
 20
12.68223428569849
 30
0.0
 10
40.87052391498628
 20
12.68703353978992
 30
0.0
  0
ELLIPSE
  5
FE46
330
1F
100
AcDbEntity
  8
AM_0
100
AcDbEllipse
 10
41.99999999999989
 20
12.30639828737162
 30
0.0
 11
1.25
 21
-2.717983064866209E-16
 31
0.0
210
0.0
220
0.0
230
1.0
 40
0.7180150430616905
 41
3.674298662736887
 42
5.750479298032222
  0
SPLINE
  5
FE47
330
1F
100
AcDbEntity
  8
AM_0
100
AcDbSpline
210
0.0
220
0.0
230
1.0
 70
     8
 71
     3
 72
    16
 73
    12
 74
     0
 42
0.0000000001
 43
0.0000000001
 40
0.6075385206422639
 40
0.6075385206422639
 40
0.6075385206422639
 40
0.6075385206422639
 40
0.9073583094654095
 40
0.9073583094654095
 40
1.075708028475403
 40
1.075708028475403
 40
1.244057747485396
 40
1.244057747485396
 40
1.58975702093034
 40
1.58975702093034
 40
1.898721094785724
 40
1.898721094785724
 40
1.898721094785724
 40
1.898721094785724
 10
40.92320508075665
 20
11.8505787769995
 30
0.0
 10
40.87233033529992
 20
11.91253849366865
 30
0.0
 10
40.82873634450061
 20
11.97245354360314
 30
0.0
 10
40.78235069888041
 20
12.07029548615009
 30
0.0
 10
40.76989653241486
 20
12.1064811475315
 30
0.0
 10
40.75372452848831
 20
12.18176643708648
 30
0.0
 10
40.74999999999989
 20
12.22092705226868
 30
0.0
 10
40.74999999999989
 20
12.34208956174433
 30
0.0
 10
40.76614308716358
 20
12.43862904209067
 30
0.0
 10
40.82832963248251
 20
12.61693232832471
 30
0.0
 10
40.87087620461392
 20
12.6984871134855
 30
0.0
 10
40.92320508075665
 20
12.76221779774369
 30
0.0
  0
ELLIPSE
  5
FE48
330
1F
100
AcDbEntity
  8
AM_0
100
AcDbEllipse
 10
41.99999999999989
 20
12.30639828737162
 30
0.0
 11
1.25
 21
-2.717983064866209E-16
 31
0.0
210
0.0
220
0.0
230
1.0
 40
0.7180150430616905
 41
0.5327060091473659
 42
2.6088866444427
  0
SPLINE
  5
FE49
330
1F
100
AcDbEntity
  8
AM_0
100
AcDbSpline
210
0.0
220
0.0
230
1.0
 70
     8
 71
     3
 72
    16
 73
    12
 74
     0
 42
0.0000000001
 43
0.0000000001
 40
0.5698062158317234
 40
0.5698062158317234
 40
0.5698062158317234
 40
0.5698062158317234
 40
0.8787702896866458
 40
0.8787702896866458
 40
1.224469563131688
 40
1.224469563131688
 40
1.392819282141721
 40
1.392819282141721
 40
1.561169001151754
 40
1.561169001151754
 40
1.860988789976399
 40
1.860988789976399
 40
1.860988789976399
 40
1.860988789976399
 10
43.07679491924296
 20
12.76221779774392
 30
0.0
 10
43.12912379538562
 20
12.69848711348578
 30
0.0
 10
43.17167036751727
 20
12.61693232832459
 30
0.0
 10
43.23385691283619
 20
12.43862904209067
 30
0.0
 10
43.24999999999989
 20
12.34208956174427
 30
0.0
 10
43.24999999999989
 20
12.22092705226856
 30
0.0
 10
43.24627547151147
 20
12.18176643708637
 30
0.0
 10
43.23010346758485
 20
12.10648114753138
 30
0.0
 10
43.21764930111937
 20
12.07029548614997
 30
0.0
 10
43.17126365549893
 20
11.97245354360268
 30
0.0
 10
43.12766966469991
 20
11.91253849366871
 30
0.0
 10
43.07679491924296
 20
11.85057877699927
 30
0.0
  0
ARC
  5
FE4A
330
1F
100
AcDbEntity
  8
AM_0
100
AcDbCircle
 10
30.08259674572895
 20
47.75325877785096
 30
0.0
 40
1.299807756997929
100
AcDbArc
 50
231.1277820584437
 51
266.3566645508363
  0
ARC
  5
FE4B
330
1F
100
AcDbEntity
  8
AM_0
100
AcDbCircle
 10
30.04361956786829
 20
6.044885914765501
 30
0.0
 40
1.241094551913694
100
AcDbArc
 50
104.1911107135884
 51
165.7169087641351
  0
ARC
  5
FE4C
330
1F
100
AcDbEntity
  8
AM_0
100
AcDbCircle
 10
30.01973346614687
 20
6.09367700623298
 30
0.0
 40
1.187989310097964
100
AcDbArc
 50
90.95177314864374
 51
103.6511428894824
  0
ELLIPSE
  5
FE4D
330
1F
100
AcDbEntity
  8
AM_0
100
AcDbEllipse
 10
32.25022672948137
 20
27.00000000000006
 30
0.0
 11
-5.886657314452596E-15
 21
-20.00000000000001
 31
0.0
210
0.0
220
0.0
230
1.0
 40
0.0874886635259252
 41
0.7368915352190657
 42
2.721802482693574
  0
SPLINE
  5
FE4E
330
1F
100
AcDbEntity
  8
AM_0
100
AcDbSpline
210
0.0
220
0.0
230
1.0
 70
     8
 71
     3
 72
    20
 73
    16
 74
     0
 42
0.0000000001
 43
0.0000000001
 40
13.78174860226607
 40
13.78174860226607
 40
13.78174860226607
 40
13.78174860226607
 40
14.27938304760889
 40
14.27938304760889
 40
15.02844418226425
 40
15.02844418226425
 40
15.77750531691961
 40
15.77750531691961
 40
16.5855065717432
 40
16.5855065717432
 40
17.39350782656678
 40
17.39350782656678
 40
18.20150908139036
 40
18.20150908139036
 40
18.63157733552393
 40
18.63157733552393
 40
18.63157733552393
 40
18.63157733552393
 10
29.99999999999989
 20
46.45607799525088
 30
0.0
 10
30.16891907972087
 20
46.44545552392491
 30
0.0
 10
30.33572337998879
 20
46.43197563771206
 30
0.0
 10
30.74173347958958
 20
46.39076777390436
 30
0.0
 10
30.97529586539815
 20
46.35918130679879
 30
0.0
 10
31.40648341110853
 20
46.28262451304248
 30
0.0
 10
31.60409541411809
 20
46.23759574615364
 30
0.0
 10
31.96711788080415
 20
46.1329243231293
 30
0.0
 10
32.14161360758976
 20
46.06876137835296
 30
0.0
 10
32.44566812845756
 20
45.92032014319516
 30
0.0
 10
32.57525170673495
 20
45.8359909868265
 30
0.0
 10
32.78086479148556
 20
45.64980355380963
 30
0.0
 10
32.85709114365682
 20
45.54775363072831
 30
0.0
 10
32.93283124117119
 20
45.38247633039542
 30
0.0
 10
32.95162746795467
 20
45.32344384700728
 30
0.0
 10
32.96337981164527
 20
45.26348960442503
 30
0.0
  0
ELLIPSE
  5
FE4F
330
1F
100
AcDbEntity
  8
AM_0
100
AcDbEllipse
 10
-28.03869320356574
 20
27.00000000000009
 30
0.0
 11
-229.5628142198339
 21
1.763416363601068
 31
0.0
210
0.0
220
0.0
230
1.0
 40
0.0867828156508692
 41
1.827059543468976
 42
1.85561823376896
  0
ARC
  5
FE50
330
1F
100
AcDbEntity
  8
AM_0
100
AcDbCircle
 10
43.0998336167101
 20
45.7892724486081
 30
0.0
 40
0.3338061358215411
100
AcDbArc
 50
44.82195371150836
 51
93.95759762903124
  0
LINE
  5
FE51
330
1F
100
AcDbEntity
  8
AM_0
100
AcDbLine
 10
40.92320508075665
 20
46.12228259069256
 30
0.0
 11
43.07679491924296
 21
46.12228259069256
 31
0.0
  0
ARC
  5
FE52
330
1F
100
AcDbEntity
  8
AM_0
100
AcDbCircle
 10
40.90016638328962
 20
45.78927244860782
 30
0.0
 40
0.3338061358217969
100
AcDbArc
 50
86.04240237099161
 51
135.1780462884767
  0
ELLIPSE
  5
FE53
330
1F
100
AcDbEntity
  8
AM_0
100
AcDbEllipse
 10
50.9489291724384
 20
27.00000000000006
 30
0.0
 11
-9.367417879781181
 21
19.74174915275001
 31
0.0
210
0.0
220
0.0
230
1.0
 40
0.3419987131196345
 41
0.1527262448983671
 42
1.096319527499923
  0
SPLINE
  5
FE54
330
1F
100
AcDbEntity
  8
AM_0
100
AcDbSpline
210
0.0
220
0.0
230
1.0
 70
     8
 71
     3
 72
    14
 73
    10
 74
     0
 42
0.0000000001
 43
0.0000000001
 40
1.533355615793644
 40
1.533355615793644
 40
1.533355615793644
 40
1.533355615793644
 40
1.589552708280136
 40
1.589552708280136
 40
1.645749800766627
 40
1.645749800766627
 40
1.75814398573961
 40
1.75814398573961
 40
1.965559087554582
 40
1.965559087554582
 40
1.965559087554582
 40
1.965559087554582
 10
40.92320508075665
 20
32.85988980456949
 30
0.0
 10
40.90447271659446
 20
32.85988980456949
 30
0.0
 10
40.88629303117722
 20
32.86348335353347
 30
0.0
 10
40.8517509782007
 20
32.87642445821649
 30
0.0
 10
40.83539156175726
 20
32.88577906532692
 30
0.0
 10
40.78989093031362
 20
32.91979211262805
 30
0.0
 10
40.76436180914163
 20
32.95053364689477
 30
0.0
 10
40.70787757700538
 20
33.0368053192434
 30
0.0
 10
40.68216106361439
 20
33.10170948971302
 30
0.0
 10
40.66339745962131
 20
33.16973001948583
 30
0.0
  0
LINE
  5
FE55
330
1F
100
AcDbEntity
  8
AM_0
100
AcDbLine
 10
43.07679491924296
 20
32.85988980456949
 30
0.0
 11
40.92320508075665
 21
32.85988980456949
 31
0.0
  0
SPLINE
  5
FE56
330
1F
100
AcDbEntity
  8
AM_0
100
AcDbSpline
210
0.0
220
0.0
230
1.0
 70
     8
 71
     3
 72
    14
 73
    10
 74
     0
 42
0.0000000001
 43
0.0000000001
 40
1.101152144031581
 40
1.101152144031581
 40
1.101152144031581
 40
1.101152144031581
 40
1.308567245847678
 40
1.308567245847678
 40
1.420961430820661
 40
1.420961430820661
 40
1.477158523307153
 40
1.477158523307153
 40
1.533355615793644
 40
1.533355615793644
 40
1.533355615793644
 40
1.533355615793644
 10
43.33660254037829
 20
33.16973001948583
 30
0.0
 10
43.3178389363851
 20
33.10170948971262
 30
0.0
 10
43.2921224229944
 20
33.03680531924374
 30
0.0
 10
43.23563819085797
 20
32.95053364689477
 30
0.0
 10
43.21010906968598
 20
32.91979211262805
 30
0.0
 10
43.16460843824234
 20
32.88577906532692
 30
0.0
 10
43.1482490217989
 20
32.87642445821649
 30
0.0
 10
43.11370696882239
 20
32.86348335353347
 30
0.0
 10
43.09552728340515
 20
32.85988980456949
 30
0.0
 10
43.07679491924296
 20
32.85988980456949
 30
0.0
  0
ELLIPSE
  5
FE57
330
1F
100
AcDbEntity
  8
AM_0
100
AcDbEllipse
 10
33.05107082756064
 20
27.00000000000006
 30
0.0
 11
-9.367417879782545
 21
-19.74174915274962
 31
0.0
210
0.0
220
0.0
230
1.0
 40
0.3419987131196469
 41
2.045273126090475
 42
2.988866408692031
  0
ARC
  5
FE58
330
1F
100
AcDbEntity
  8
AM_0
100
AcDbCircle
 10
40.90016638328967
 20
8.210727551392296
 30
0.0
 40
0.3338061358218802
100
AcDbArc
 50
224.8219537115279
 51
273.9575976289985
  0
LINE
  5
FE59
330
1F
100
AcDbEntity
  8
AM_0
100
AcDbLine
 10
43.07679491924296
 20
7.877717409307479
 30
0.0
 11
40.92320508075665
 21
7.877717409307479
 31
0.0
  0
ARC
  5
FE5A
330
1F
100
AcDbEntity
  8
AM_0
100
AcDbCircle
 10
43.09983361670982
 20
8.210727551392552
 30
0.0
 40
0.3338061358221371
100
AcDbArc
 50
266.0424023710244
 51
315.1780462884537
  0
ELLIPSE
  5
FE5B
330
1F
100
AcDbEntity
  8
AM_0
100
AcDbEllipse
 10
33.05107082756064
 20
27.00000000000006
 30
0.0
 11
-9.367417879781836
 21
19.74174915274995
 31
0.0
210
0.0
220
0.0
230
1.0
 40
0.3419987131196471
 41
3.294318898488142
 42
4.237912181089698
  0
SPLINE
  5
FE5C
330
1F
100
AcDbEntity
  8
AM_0
100
AcDbSpline
210
0.0
220
0.0
230
1.0
 70
     8
 71
     3
 72
    14
 73
    10
 74
     0
 42
0.0000000001
 43
0.0000000001
 40
1.533355615793642
 40
1.533355615793642
 40
1.533355615793642
 40
1.533355615793642
 40
1.589552708280132
 40
1.589552708280132
 40
1.645749800766622
 40
1.645749800766622
 40
1.758143985739602
 40
1.758143985739602
 40
1.96555908755458
 40
1.96555908755458
 40
1.96555908755458
 40
1.96555908755458
 10
43.07679491924296
 20
21.14011019543062
 30
0.0
 10
43.09552728340515
 20
21.14011019543062
 30
0.0
 10
43.11370696882239
 20
21.13651664646665
 30
0.0
 10
43.1482490217989
 20
21.12357554178362
 30
0.0
 10
43.16460843824234
 20
21.11422093467314
 30
0.0
 10
43.21010906968598
 20
21.08020788737201
 30
0.0
 10
43.23563819085797
 20
21.04946635310529
 30
0.0
 10
43.29212242299423
 20
20.96319468075666
 30
0.0
 10
43.31783893638522
 20
20.89829051028704
 30
0.0
 10
43.33660254037829
 20
20.83026998051429
 30
0.0
  0
LINE
  5
FE5D
330
1F
100
AcDbEntity
  8
AM_0
100
AcDbLine
 10
40.92320508075665
 20
21.14011019543062
 30
0.0
 11
43.07679491924296
 21
21.14011019543062
 31
0.0
  0
SPLINE
  5
FE5E
330
1F
100
AcDbEntity
  8
AM_0
100
AcDbSpline
210
0.0
220
0.0
230
1.0
 70
     8
 71
     3
 72
    14
 73
    10
 74
     0
 42
0.0000000001
 43
0.0000000001
 40
1.101152144031579
 40
1.101152144031579
 40
1.101152144031579
 40
1.101152144031579
 40
1.308567245847681
 40
1.308567245847681
 40
1.420961430820661
 40
1.420961430820661
 40
1.477158523307151
 40
1.477158523307151
 40
1.533355615793641
 40
1.533355615793641
 40
1.533355615793641
 40
1.533355615793641
 10
40.66339745962131
 20
20.83026998051429
 30
0.0
 10
40.6821610636145
 20
20.89829051028744
 30
0.0
 10
40.70787757700515
 20
20.96319468075637
 30
0.0
 10
40.76436180914163
 20
21.04946635310529
 30
0.0
 10
40.78989093031362
 20
21.08020788737201
 30
0.0
 10
40.83539156175726
 20
21.11422093467314
 30
0.0
 10
40.8517509782007
 20
21.12357554178362
 30
0.0
 10
40.88629303117722
 20
21.13651664646665
 30
0.0
 10
40.90447271659446
 20
21.14011019543062
 30
0.0
 10
40.92320508075665
 20
21.14011019543062
 30
0.0
  0
ELLIPSE
  5
FE5F
330
1F
100
AcDbEntity
  8
AM_0
100
AcDbEllipse
 10
50.9489291724384
 20
27.00000000000006
 30
0.0
 11
-9.36741787978189
 21
-19.74174915274967
 31
0.0
210
0.0
220
0.0
230
1.0
 40
0.3419987131196347
 41
5.186865779680252
 42
6.130459062281807
  0
ELLIPSE
  5
FE60
330
1F
100
AcDbEntity
  8
AM_0
100
AcDbEllipse
 10
28.97860101927842
 20
25.9942155450189
 30
0.0
 11
3.977872400302212
 21
-11.03839550839395
 31
0.0
210
0.0
220
0.0
230
1.0
 40
0.0380631516375425
 41
0.1924996111904716
 42
1.299679731355077
  0
LINE
  5
FE61
330
1F
100
AcDbEntity
  8
AM_0
100
AcDbLine
 10
32.96337981164527
 20
15.18867596236879
 30
0.0
 11
33.42605538949033
 21
12.18878024326773
 31
0.0
  0
ELLIPSE
  5
FE62
330
1F
100
AcDbEntity
  8
AM_0
100
AcDbEllipse
 10
29.62743625310276
 20
27.00000000000006
 30
0.0
 11
-7.385755193529041
 21
19.98486994964907
 31
0.0
210
0.0
220
0.0
230
1.0
 40
0.105310850947236
 41
2.365801300389916
 42
2.906156389688879
  0
LINE
  5
FE6B
330
1F
100
AcDbEntity
  8
AM_0
100
AcDbLine
 10
28.84088900845308
 20
6.110582854123095
 30
0.0
 11
28.1172919067705
 21
3.410081706434539
 31
0.0
  0
LINE
  5
FE6C
330
1F
100
AcDbEntity
  8
AM_0
100
AcDbLine
 10
29.26685608506926
 20
47.25000000000004
 30
0.0
 11
18.29011026139159
 21
47.25000000000004
 31
0.0
  0
LINE
  5
FE6D
330
1F
100
AcDbEntity
  8
AM_0
100
AcDbLine
 10
29.99999999999989
 20
7.0
 30
0.0
 11
49.69999999999982
 21
7.0
 31
0.0
  0
LINE
  5
FE6E
330
1F
100
AcDbEntity
  8
AM_0
100
AcDbLine
 10
29.99999999999989
 20
47.00000000000004
 30
0.0
 11
49.69999999999988
 21
47.00000000000004
 31
0.0
  0
ELLIPSE
  5
FE80
330
1F
100
AcDbEntity
  8
AM_0
100
AcDbEllipse
 10
22.01495467673573
 20
25.09208534263655
 30
0.0
 11
1.062993920353716
 21
-1.058321276971712
 31
0.0
210
0.0
220
0.0
230
1.0
 40
0.992404739848785
 41
2.287901833659064
 42
2.572002796334814
  0
ELLIPSE
  5
FE81
330
1F
100
AcDbEntity
  8
AM_0
100
AcDbEllipse
 10
22.01495467673573
 20
25.09208534263655
 30
0.0
 11
1.062993920353716
 21
-1.058321276971712
 31
0.0
210
0.0
220
0.0
230
1.0
 40
0.992404739848785
 41
0.7472266312600999
 42
1.031327593935876
  0
ELLIPSE
  5
FE82
330
1F
100
AcDbEntity
  8
AM_0
100
AcDbEllipse
 10
17.34038790420226
 20
29.63612893415626
 30
0.0
 11
0.7086626135691443
 21
-0.7055475179811418
 31
0.0
210
0.0
220
0.0
230
1.0
 40
0.9924047398487847
 41
3.267722668506059
 42
4.795312835124642
  0
ELLIPSE
  5
FE83
330
1F
100
AcDbEntity
  8
AM_0
100
AcDbEllipse
 10
27.32409062665482
 20
21.31113295907699
 30
0.0
 11
0.7086626135691443
 21
-0.7055475179811418
 31
0.0
210
0.0
220
0.0
230
1.0
 40
0.9924047398487847
 41
4.801207367387234
 42
6.161876887213647
  0
ELLIPSE
  5
FE84
330
1F
100
AcDbEntity
  8
AM_0
100
AcDbEllipse
 10
26.78114336584468
 20
20.70292834924379
 30
0.0
 11
-1.261419452153077
 21
1.255874582006432
 31
0.0
210
0.0
220
0.0
230
1.0
 40
0.9924047398487847
 41
1.659614713797462
 42
4.801207367387259
  0
ELLIPSE
  5
FE85
330
1F
100
AcDbEntity
  8
AM_0
100
AcDbEllipse
 10
16.79744064339212
 20
29.02792432432312
 30
0.0
 11
-1.261419452153077
 21
1.255874582006432
 31
0.0
210
0.0
220
0.0
230
1.0
 40
0.9924047398487847
 41
4.801207367387258
 42
7.909597684541441
  0
LINE
  5
FE86
330
1F
100
AcDbEntity
  8
AM_0
100
AcDbLine
 10
29.26685608506915
 20
46.74129663443931
 30
0.0
 11
29.26685608506915
 21
47.25000000000004
 31
0.0
  0
LINE
  5
FE87
330
1F
100
AcDbEntity
  8
AM_0
100
AcDbLine
 10
28.84088900845308
 20
6.351080114969307
 30
0.0
 11
28.84088900845308
 21
6.110582854123095
 31
0.0
  0
LINE
  5
FE88
330
1F
100
AcDbEntity
  8
AM_0
100
AcDbLine
 10
29.99999999999989
 20
7.000000000000057
 30
0.0
 11
29.99999999999989
 21
7.281502410583698
 31
0.0
  0
LINE
  5
FE89
330
1F
100
AcDbEntity
  8
AM_0
100
AcDbLine
 10
29.99999999999989
 20
46.45607799525088
 30
0.0
 11
29.99999999999989
 21
47.00000000000004
 31
0.0
  0
ARC
  5
FE8C
330
1F
100
AcDbEntity
  8
AM_0
100
AcDbCircle
 10
29.99999999999989
 20
5.800000000000011
 30
0.0
 40
1.2
100
AcDbArc
 50
90.0
 51
164.9999999999984
  0
ARC
  5
FE8D
330
1F
100
AcDbEntity
  8
AM_0
100
AcDbCircle
 10
29.99999999999989
 20
48.20000000000002
 30
0.0
 40
1.2
100
AcDbArc
 50
232.341537993796
 51
270.0
  0
LINE
  5
FE8E
330
1F
100
AcDbEntity
  8
AM_0
100
AcDbLine
 10
25.48348879488123
 20
19.14810381385496
 30
0.0
 11
26.57495424668974
 21
20.43296871755791
 31
0.0
  0
LINE
  5
FE8F
330
1F
100
AcDbEntity
  8
AM_0
100
AcDbLine
 10
18.78576701838261
 20
11.09794408653011
 30
0.0
 11
25.4628925609008
 21
19.12741664448618
 31
0.0
  0
LINE
  5
FE90
330
1F
100
AcDbEntity
  8
AM_0
100
AcDbLine
 10
11.57326051868853
 20
7.449226546171246
 30
0.0
 11
17.95486182599422
 21
10.43517022475282
 31
0.0
  0
LINE
  5
FE91
330
1F
100
AcDbEntity
  8
AM_0
100
AcDbLine
 10
11.36493015171487
 20
7.056603484972072
 30
0.0
 11
11.57326051868853
 21
7.449226546171246
 31
0.0
  0
LINE
  5
FE92
330
1F
100
AcDbEntity
  8
AM_0
100
AcDbLine
 10
8.044171407787815
 20
5.502824409464552
 30
0.0
 11
11.36493015171487
 21
7.056603484972072
 31
0.0
  0
LINE
  5
FE93
330
1F
100
AcDbEntity
  8
AM_0
100
AcDbLine
 10
14.21648738761002
 20
22.85774955403633
 30
0.0
 11
13.58191821022439
 21
22.09465834607624
 31
0.0
  0
LINE
  5
FE94
330
1F
100
AcDbEntity
  8
AM_0
100
AcDbLine
 10
13.93006938069158
 20
22.57006696968432
 30
0.0
 11
14.2164873876099
 21
22.85774955403633
 31
0.0
  0
ELLIPSE
  5
FE95
330
1F
100
AcDbEntity
  8
AM_0
100
AcDbEllipse
 10
25.4229885479453
 20
21.39354517622093
 30
0.0
 11
1.135490423194896
 21
1.246489879833401
 31
0.0
210
0.0
220
0.0
230
1.0
 40
0.8893736011383863
 41
4.751334541908436
 42
5.170136964977048
  0
LINE
  5
FE96
330
1F
100
AcDbEntity
  8
AM_0
100
AcDbLine
 10
25.99813831691603
 20
19.85360606100517
 30
0.0
 11
26.57495424668974
 21
20.43296871755791
 31
0.0
  0
LINE
  5
FE97
330
1F
100
AcDbEntity
  8
AM_0
100
AcDbLine
 10
22.53028939249856
 20
15.68339874702883
 30
0.0
 11
25.99813831691603
 21
19.85360606100511
 31
0.0
  0
ELLIPSE
  5
FE98
330
1F
100
AcDbEntity
  8
AM_0
100
AcDbEllipse
 10
17.74321722298197
 20
27.7973882339744
 30
0.0
 11
1.135490423194907
 21
1.246489879833391
 31
0.0
210
0.0
220
0.0
230
1.0
 40
0.8893736011383863
 41
1.19093946525004
 42
1.520923501316126
  0
LINE
  5
FE99
330
1F
100
AcDbEntity
  8
AM_0
100
AcDbLine
 10
26.43161773288722
 20
22.59520807881125
 30
0.0
 11
25.7980263842498
 21
21.95881933160831
 31
0.0
  0
LINE
  5
FE9A
330
1F
100
AcDbEntity
  8
AM_0
100
AcDbLine
 10
25.7980263842498
 20
21.95881933160831
 30
0.0
 11
18.11825505928636
 21
28.36266238936179
 31
0.0
  0
LINE
  5
FE9B
330
1F
100
AcDbEntity
  8
AM_0
100
AcDbLine
 10
18.11825505928636
 20
28.36266238936179
 30
0.0
 11
18.75184640792378
 21
28.99905113656473
 31
0.0
  0
LINE
  5
FE9C
330
1F
100
AcDbEntity
  8
AM_0
100
AcDbLine
 10
22.5917320704055
 20
25.79712960768802
 30
0.0
 11
18.75184640792378
 21
28.99905113656473
 31
0.0
  0
LINE
  5
FE9D
330
1F
100
AcDbEntity
  8
AM_0
100
AcDbLine
 10
26.43161773288722
 20
22.59520807881125
 30
0.0
 11
22.5917320704055
 21
25.79712960768796
 31
0.0
  0
LINE
  5
FE9E
330
1F
100
AcDbEntity
  8
AM_0
100
AcDbLine
 10
25.4628925609008
 20
19.12741664448612
 30
0.0
 11
25.48348879488123
 21
19.14810381385496
 31
0.0
  0
LINE
  5
FE9F
330
1F
100
AcDbEntity
  8
AM_0
100
AcDbLine
 10
6.184886019801581
 20
11.37602762526922
 30
0.0
 11
5.260076785997796
 21
7.82436554154549
 31
0.0
  0
LINE
  5
FEA0
330
1F
100
AcDbEntity
  8
AM_0
100
AcDbLine
 10
6.524331494783667
 20
11.6593192313174
 30
0.0
 11
6.184886019801581
 21
11.37602762526922
 31
0.0
  0
LINE
  5
FEA1
330
1F
100
AcDbEntity
  8
AM_0
100
AcDbLine
 10
8.301565034029466
 20
18.4846543864378
 30
0.0
 11
6.524331494783667
 21
11.6593192313174
 31
0.0
  0
LINE
  5
FEA2
330
1F
100
AcDbEntity
  8
AM_0
100
AcDbLine
 10
22.08943861408062
 20
15.49827641238693
 30
0.0
 11
17.95486182599422
 21
10.43517022475288
 31
0.0
  0
LINE
  5
FEA3
330
1F
100
AcDbEntity
  8
AM_0
100
AcDbLine
 10
18.78576701838261
 20
11.09794408653011
 30
0.0
 11
22.53028939249856
 21
15.68339874702889
 31
0.0
  0
ELLIPSE
  5
FEA4
330
1F
100
AcDbEntity
  8
AM_0
100
AcDbEllipse
 10
18.0177898858862
 20
11.73832839230545
 30
0.0
 11
-1.073381588170957
 21
-1.292719643079237
 31
0.0
210
0.0
220
0.0
230
1.0
 40
0.5951098857367496
 41
0.9012700124421861
 42
1.569554909814177
  0
ELLIPSE
  5
FEA5
330
1F
100
AcDbEntity
  8
AM_0
100
AcDbEllipse
 10
21.02503105160992
 20
15.00024137704941
 30
0.0
 11
1.127110434945462
 21
0.6580100560249315
 31
0.0
210
0.0
220
0.0
230
1.0
 40
0.184433135297595
 41
5.824670314571928
 42
7.395466641366827
  0
ELLIPSE
  5
FEA6
330
1F
100
AcDbEntity
  8
AM_0
100
AcDbEllipse
 10
20.69790469753144
 20
15.82574801746665
 30
0.0
 11
-1.857225913531386
 21
0.08056886394218639
 31
0.0
210
0.0
220
0.0
230
0.9999999999999999
 40
0.219536401636837
 41
2.987102061155668
 42
4.557898387950565
  0
LINE
  5
FEA7
330
1F
100
AcDbEntity
  8
AM_0
100
AcDbLine
 10
14.56329477039941
 20
12.27194816899447
 30
0.0
 11
21.41508546558026
 21
15.47789290418467
 31
0.0
  0
LINE
  5
FEA8
330
1F
100
AcDbEntity
  8
AM_0
100
AcDbLine
 10
7.554849457562398
 20
5.339500598851089
 30
0.0
 11
10.03340901820076
 21
8.909503139401352
 31
0.0
  0
ELLIPSE
  5
FEA9
330
1F
100
AcDbEntity
  8
AM_0
100
AcDbEllipse
 10
19.74749332488028
 20
9.385008985542186
 30
0.0
 11
10.26852583871405
 21
2.651773983184964
 31
0.0
210
0.0
220
0.0
230
1.0
 40
0.4219952275631647
 41
1.988031719749352
 42
2.686163420547089
  0
ARC
  5
FEAA
330
1F
100
AcDbEntity
  8
AM_0
100
AcDbCircle
 10
7.175802449454807
 20
7.068990393191342
 30
0.0
 40
1.770539912874686
100
AcDbArc
 50
251.1719895979516
 51
282.3618839753833
  0
ELLIPSE
  5
FEAB
330
1F
100
AcDbEntity
  8
AM_0
100
AcDbEllipse
 10
6.887824208849054
 20
7.006599139735272
 30
0.0
 11
2.126188875576141
 21
-0.2912158319876287
 31
0.0
210
0.0
220
0.0
230
0.9999999999999998
 40
0.7989094964151495
 41
5.138526047123675
 42
5.392567212069415
  0
ELLIPSE
  5
FEAC
330
1F
100
AcDbEntity
  8
AM_0
100
AcDbEllipse
 10
6.887824208849054
 20
7.006599139735272
 30
0.0
 11
0.4838389629660403
 21
-2.055371017889246
 31
0.0
210
0.0
220
0.0
230
1.0
 40
0.7944860926729579
 41
4.125688606196668
 42
4.379729771142326
  0
LINE
  5
FEAD
330
1F
100
AcDbEntity
  8
AM_0
100
AcDbLine
 10
9.231901907104259
 20
9.177723101697779
 30
0.0
 11
6.604398850070595
 21
5.393189238610944
 31
0.0
  0
ELLIPSE
  5
FEAE
330
1F
100
AcDbEntity
  8
AM_0
100
AcDbEllipse
 10
7.042828630799079
 20
7.162287928901662
 30
0.0
 11
-1.478036945682447
 21
1.347965736940495
 31
0.0
210
0.0
220
0.0
230
1.0
 40
0.8892325226268162
 41
1.221620838595814
 42
2.019716694441785
  0
ELLIPSE
  5
FEAF
330
1F
100
AcDbEntity
  8
AM_0
100
AcDbEllipse
 10
19.42036697080192
 20
10.21051562595943
 30
0.0
 11
-10.82627073625436
 21
-3.599340658208096
 31
0.0
210
0.0
220
0.0
230
0.9999999999999998
 40
0.406001844855084
 41
5.081719912322376
 42
5.779851613120114
  0
LINE
  5
FEB0
330
1F
100
AcDbEntity
  8
AM_0
100
AcDbLine
 10
8.578941035175546
 20
9.722200114065686
 30
0.0
 11
9.231901907104259
 21
9.177723101697779
 31
0.0
  0
LINE
  5
FEB1
330
1F
100
AcDbEntity
  8
AM_0
100
AcDbLine
 10
17.03621129006348
 20
27.08726076635253
 30
0.0
 11
24.71598261502692
 21
20.68341770859905
 31
0.0
  0
LINE
  5
FEB2
330
1F
100
AcDbEntity
  8
AM_0
100
AcDbLine
 10
24.71598261502692
 20
20.68341770859905
 30
0.0
 11
21.00116577607213
 21
16.21622300388924
 31
0.0
  0
LINE
  5
FEB3
330
1F
100
AcDbEntity
  8
AM_0
100
AcDbLine
 10
21.00116577607213
 20
16.21622300388918
 30
0.0
 11
19.88169224753
 21
15.69242266837421
 31
0.0
  0
LINE
  5
FEB4
330
1F
100
AcDbEntity
  8
AM_0
100
AcDbLine
 10
20.84186357315861
 20
16.80660821770618
 30
0.0
 11
20.2072943957732
 21
16.0435170097461
 31
0.0
  0
LINE
  5
FEB5
330
1F
100
AcDbEntity
  8
AM_0
100
AcDbLine
 10
13.29550020330618
 20
21.80697576172423
 30
0.0
 11
13.93006938069158
 21
22.57006696968432
 31
0.0
  0
LINE
  5
FEB6
330
1F
100
AcDbEntity
  8
AM_0
100
AcDbLine
 10
17.26509372977586
 20
14.4681193270593
 30
0.0
 11
14.14937508089116
 21
13.01027826869898
 31
0.0
  0
LINE
  5
FEB7
330
1F
100
AcDbEntity
  8
AM_0
100
AcDbLine
 10
14.14937508089116
 20
13.01027826869898
 30
0.0
 11
11.41321629315513
 21
15.29184769522595
 31
0.0
  0
LINE
  5
FEB8
330
1F
100
AcDbEntity
  8
AM_0
100
AcDbLine
 10
13.29550020330618
 20
21.80697576172423
 30
0.0
 11
13.58191821022439
 21
22.09465834607624
 31
0.0
  0
ARC
  5
FEB9
330
1F
100
AcDbEntity
  8
AM_0
100
AcDbCircle
 10
16.7819845637386
 20
18.90889456766388
 30
0.0
 40
4.466976517050012
100
AcDbArc
 50
276.2087551066679
 51
313.9409207421531
  0
LINE
  5
FEBA
330
1F
100
AcDbEntity
  8
AM_0
100
AcDbLine
 10
13.32139445110857
 20
22.62006606164243
 30
0.0
 11
17.03621129006348
 21
27.08726076635253
 31
0.0
  0
LINE
  5
FEBB
330
1F
100
AcDbEntity
  8
AM_0
100
AcDbLine
 10
8.301565034029466
 20
18.4846543864378
 30
0.0
 11
12.43614182211587
 21
23.54776057407185
 31
0.0
  0
ELLIPSE
  5
FEBC
330
1F
100
AcDbEntity
  8
AM_0
100
AcDbEllipse
 10
9.57004142842635
 20
18.78255575583404
 30
0.0
 11
-1.073381588170953
 21
-1.292719643079233
 31
0.0
210
0.0
220
0.0
230
1.0
 40
0.5951098857367514
 41
4.726126457344995
 42
5.379432460775965
  0
ELLIPSE
  5
FEBD
330
1F
100
AcDbEntity
  8
AM_0
100
AcDbEllipse
 10
13.018133372568
 20
22.2295910752199
 30
0.0
 11
-0.4138879401528781
 21
1.819123303906166
 31
0.0
210
0.0
220
0.0
230
1.0
 40
0.2078915210989308
 41
4.881212745963483
 42
6.441014318983047
  0
ELLIPSE
  5
FEBE
330
1F
100
AcDbEntity
  8
AM_0
100
AcDbEllipse
 10
12.13971139214146
 20
22.40934123295892
 30
0.0
 11
0.4388139336558944
 21
1.232124323619095
 31
0.0
210
0.0
220
0.0
230
1.0
 40
0.1768031565886894
 41
5.172539468578647
 42
6.743335795373542
  0
LINE
  5
FEBF
330
1F
100
AcDbEntity
  8
AM_0
100
AcDbLine
 10
8.174899811767148
 20
10.45923694992558
 30
0.0
 11
5.186382703389825
 21
7.314466875767096
 31
0.0
  0
LINE
  5
FEC0
330
1F
100
AcDbEntity
  8
AM_0
100
AcDbLine
 10
5.410835671495363
 20
6.388452111903007
 30
0.0
 11
8.578941035175546
 21
9.722200114065743
 31
0.0
  0
ARC
  5
FEC1
330
1F
100
AcDbEntity
  8
AM_0
100
AcDbCircle
 10
6.932499458260338
 20
7.247491539062537
 30
0.0
 40
1.747400760377064
100
AcDbArc
 50
177.8033978194918
 51
209.4464474238293
  0
LINE
  5
FEC2
330
1F
100
AcDbEntity
  8
AM_0
100
AcDbLine
 10
11.41321629315513
 20
15.29184769522595
 30
0.0
 11
12.28092322359481
 21
18.62421256787246
 31
0.0
  0
LINE
  5
FEC3
330
1F
100
AcDbEntity
  8
AM_0
100
AcDbLine
 10
12.52976580611181
 20
22.88699276009419
 30
0.0
 11
10.62158764815837
 21
15.55877439367777
 31
0.0
  0
LINE
  5
FEC4
330
1F
100
AcDbEntity
  8
AM_0
100
AcDbLine
 10
13.00962851566129
 20
21.42275183569097
 30
0.0
 11
13.32139445110857
 21
22.62006606164243
 31
0.0
  0
ARC
  5
FEC5
330
1F
100
AcDbEntity
  8
AM_0
100
AcDbCircle
 10
16.75976658139354
 20
18.952119298177
 30
0.0
 40
4.49083073021873
100
AcDbArc
 50
146.6226650672493
 51
184.1872890252064
  0
ELLIPSE
  5
FEC6
330
1F
100
AcDbEntity
  8
AM_0
100
AcDbEllipse
 10
7.878091111839979
 20
19.83514115222027
 30
0.0
 11
1.695089163379389
 21
11.25489179764098
 31
0.0
210
0.0
220
0.0
230
0.9999999999999999
 40
0.3910909829689938
 41
3.658326741078423
 42
4.35645844187616
  0
ELLIPSE
  5
FEC7
330
1F
100
AcDbEntity
  8
AM_0
100
AcDbEllipse
 10
6.999669131413555
 20
20.0148913099593
 30
0.0
 11
-0.869915755188858
 21
-10.53734089778423
 31
0.0
210
0.0
220
0.0
230
1.0
 40
0.4087581913751469
 41
0.4700323841487741
 42
1.168164084946511
  0
LINE
  5
FEC8
330
1F
100
AcDbEntity
  8
AM_0
100
AcDbLine
 10
16.10340737285452
 20
28.27634685439335
 30
0.0
 11
16.69260709035399
 21
28.8681479749078
 31
0.0
  0
LINE
  5
FEC9
330
1F
100
AcDbEntity
  8
AM_0
100
AcDbLine
 10
12.54994938484009
 20
24.01258029803324
 30
0.0
 11
16.0130738430351
 21
28.17710627928005
 31
0.0
  0
LINE
  5
FECA
330
1F
100
AcDbEntity
  8
AM_0
100
AcDbLine
 10
12.54000969586895
 20
24.00051807307324
 30
0.0
 11
8.786058688603191
 21
19.40351732858863
 31
0.0
  0
LINE
  5
FECB
330
1F
100
AcDbEntity
  8
AM_0
100
AcDbLine
 10
12.54000075120013
 20
24.00052544374859
 30
0.0
 11
12.54994040801927
 21
24.0125876952028
 31
0.0
  0
ELLIPSE
  5
FECC
330
1F
100
AcDbEntity
  8
AM_0
100
AcDbEllipse
 10
17.67238448384347
 20
19.97602017804729
 30
0.0
 11
3.188981761061149
 21
-3.174963830915139
 31
0.0
210
0.0
220
0.0
230
1.0
 40
0.9924047398487846
 41
3.187059240168823
 42
3.230411040592355
  0
ELLIPSE
  5
FECD
330
1F
100
AcDbEntity
  8
AM_0
100
AcDbEllipse
 10
25.479763966809
 20
21.45057126687112
 30
0.0
 11
1.062993920353716
 21
-1.058321276971713
 31
0.0
210
0.0
220
0.0
230
1.0
 40
0.9924047398487849
 41
0.5076208100711727
 42
1.659614713797477
  0
ELLIPSE
  5
FECE
330
1F
100
AcDbEntity
  8
AM_0
100
AcDbEllipse
 10
17.79999264184568
 20
27.8544143246246
 30
0.0
 11
1.062993920353717
 21
-1.058321276971713
 31
0.0
210
0.0
220
0.0
230
1.0
 40
0.9924047398487851
 41
1.65961471379747
 42
2.811608617523758
  0
ELLIPSE
  5
FECF
330
1F
100
AcDbEntity
  8
AM_0
100
AcDbEllipse
 10
17.16640129320814
 20
27.21802557742166
 30
0.0
 11
1.062993920353717
 21
-1.058321276971713
 31
0.0
210
0.0
220
0.0
230
1.0
 40
0.9924047398487851
 41
1.659614713797477
 42
3.141592653589816
  0
ELLIPSE
  5
FED0
330
1F
100
AcDbEntity
  8
AM_0
100
AcDbEllipse
 10
17.16640129320814
 20
27.21802557742166
 30
0.0
 11
-0.9606336492301801
 21
-1.152034284197614
 31
0.0
210
0.0
220
0.0
230
1.0
 40
0.0109116854486056
 41
3.264439381856171
 42
4.835235708651077
  0
ELLIPSE
  5
FED1
330
1F
100
AcDbEntity
  8
AM_0
100
AcDbEllipse
 10
24.84617261817158
 20
20.81418251966818
 30
0.0
 11
-1.153327450173045
 21
0.9590807018584746
 31
0.0
210
0.0
220
0.0
230
1.0
 40
0.122530679612645
 41
1.559801573019532
 42
3.130597899814452
  0
ELLIPSE
  5
FED2
330
1F
100
AcDbEntity
  8
AM_0
100
AcDbEllipse
 10
24.84617261817158
 20
20.81418251966818
 30
0.0
 11
0.9606336492301802
 21
1.152034284197614
 31
0.0
210
0.0
220
0.0
230
1.0
 40
0.0109116854486056
 41
0.1228467282663908
 42
1.693643055061285
  0
ELLIPSE
  5
FED3
330
1F
100
AcDbEntity
  8
AM_0
100
AcDbEllipse
 10
24.84617261817158
 20
20.81418251966818
 30
0.0
 11
1.062993920353716
 21
-1.058321276971713
 31
0.0
210
0.0
220
0.0
230
1.0
 40
0.9924047398487849
 41
0.0888183870025584
 42
1.659614713797477
  0
ELLIPSE
  5
FED4
330
1F
100
AcDbEntity
  8
AM_0
100
AcDbEllipse
 10
21.85387276759906
 20
24.87371809164262
 30
0.0
 11
1.027560789675259
 21
-1.023043901072656
 31
0.0
210
0.0
220
0.0
230
1.0
 40
0.9924047398487849
 41
1.052300426638596
 42
2.266929000956281
  0
ELLIPSE
  5
FED5
330
1F
100
AcDbEntity
  8
AM_0
100
AcDbEllipse
 10
21.76231226000226
 20
16.32378305280417
 30
0.0
 11
-0.7745541066733936
 21
0.6325076567405215
 31
0.0
210
0.0
220
0.0
230
1.0
 40
0.6850479837283865
 41
2.458328862276774
 42
3.126613759648741
  0
ELLIPSE
  5
FED6
330
1F
100
AcDbEntity
  8
AM_0
100
AcDbEllipse
 10
21.0879591115019
 20
16.30339954460197
 30
0.0
 11
0.423801691293281
 21
-0.9057550035506026
 31
0.0
210
0.0
220
0.0
230
1.0
 40
0.115661986620784
 41
4.754578921152181
 42
5.801776472348803
  0
ELLIPSE
  5
FED7
330
1F
100
AcDbEntity
  8
AM_0
100
AcDbEllipse
 10
14.23616841632094
 20
13.09745480941172
 30
0.0
 11
0.4238016912932825
 21
-0.9057550035506038
 31
0.0
210
0.0
220
0.0
230
1.0
 40
0.1156619866207859
 41
4.754578921152123
 42
5.801776472348744
  0
ELLIPSE
  5
FED8
330
1F
100
AcDbEntity
  8
AM_0
100
AcDbEllipse
 10
9.706282664122284
 20
9.735009779818597
 30
0.0
 11
-0.8214355966616643
 21
0.5703012892648104
 31
0.0
210
0.0
220
0.0
230
1.0
 40
0.7302024193017412
 41
1.498882428566471
 42
2.403124701674091
  0
ELLIPSE
  5
FED9
330
1F
100
AcDbEntity
  8
AM_0
100
AcDbEllipse
 10
17.38596647692515
 20
19.68833759369528
 30
0.0
 11
-3.188981761061149
 21
3.174963830915139
 31
0.0
210
0.0
220
0.0
230
1.0
 40
0.9924047398487846
 41
3.230411040592325
 42
6.372003694182131
  0
ELLIPSE
  5
FEDA
330
1F
100
AcDbEntity
  8
AM_0
100
AcDbEllipse
 10
16.75139729953963
 20
18.92524638573519
 30
0.0
 11
-3.188981761061149
 21
3.174963830915139
 31
0.0
210
0.0
220
0.0
230
1.0
 40
0.9924047398487846
 41
0.0888183870025443
 42
0.196091196024875
  0
ELLIPSE
  5
FEDB
330
1F
100
AcDbEntity
  8
AM_0
100
AcDbEllipse
 10
17.03781530645796
 20
19.21292897008721
 30
0.0
 11
3.188981761061149
 21
-3.174963830915139
 31
0.0
210
0.0
220
0.0
230
1.0
 40
0.9924047398487846
 41
3.230411040592355
 42
6.237718720600626
  0
ELLIPSE
  5
FEDC
330
1F
100
AcDbEntity
  8
AM_0
100
AcDbEllipse
 10
16.75139729953963
 20
18.92524638573519
 30
0.0
 11
-3.188981761061149
 21
3.174963830915139
 31
0.0
210
0.0
220
0.0
230
1.0
 40
0.9924047398487846
 41
3.12313823157016
 42
3.230411040592342
  0
ELLIPSE
  5
FEDD
330
1F
100
AcDbEntity
  8
AM_0
100
AcDbEllipse
 10
16.75139729953963
 20
18.92524638573519
 30
0.0
 11
-3.188981761061149
 21
3.174963830915139
 31
0.0
210
0.0
220
0.0
230
1.0
 40
0.9924047398487846
 41
0.8542102039773888
 42
2.465019223617358
  0
ELLIPSE
  5
FEDE
330
1F
100
AcDbEntity
  8
AM_0
100
AcDbEllipse
 10
17.16640129320814
 20
27.21802557742166
 30
0.0
 11
-1.153327450173045
 21
0.9590807018584746
 31
0.0
210
0.0
220
0.0
230
1.0
 40
0.122530679612645
 41
-0.0000000000000646
 42
1.559801573019543
  0
ELLIPSE
  5
FEDF
330
1F
100
AcDbEntity
  8
AM_0
100
AcDbEllipse
 10
13.31456380254241
 20
23.36801041633277
 30
0.0
 11
-0.7745541066733939
 21
0.632507656740518
 31
0.0
210
0.0
220
0.0
230
1.0
 40
0.6850479837283876
 41
0.0000000000000492
 42
0.6533060034309852
  0
ELLIPSE
  5
FEE0
330
1F
100
AcDbEntity
  8
AM_0
100
AcDbEllipse
 10
13.40818778653835
 20
22.70724260235517
 30
0.0
 11
0.9677310630484101
 21
-0.2519852964186489
 31
0.0
210
0.0
220
0.0
230
1.0
 40
0.1064390315468819
 41
3.603126189697681
 42
4.650323740894282
  0
ELLIPSE
  5
FEE1
330
1F
100
AcDbEntity
  8
AM_0
100
AcDbEllipse
 10
9.053321792193685
 20
10.2794867921865
 30
0.0
 11
-0.7248859871907364
 21
0.6888688594896035
 31
0.0
210
0.0
220
0.0
230
0.9999999999999998
 40
0.7313414883481675
 41
0.7065902234692931
 42
1.610832496576915
  0
ELLIPSE
  5
FEE2
330
1F
100
AcDbEntity
  8
AM_0
100
AcDbEllipse
 10
11.50000962858491
 20
15.37902423593869
 30
0.0
 11
0.9677310630484096
 21
-0.2519852964186509
 31
0.0
210
0.0
220
0.0
230
1.0
 40
0.1064390315468838
 41
3.603126189697701
 42
4.650323740894302
  0
ARC
  5
FEE3
330
1F
100
AcDbEntity
  8
AM_0
100
AcDbCircle
 10
17.16640129320814
 20
27.21802557742163
 30
0.0
 40
1.5
100
AcDbArc
 50
135.1262058143469
 51
140.2538651645903
  0
LINE
  5
FEE4
330
1F
100
AcDbEntity
  8
AM_0
100
AcDbLine
 10
19.18982485376029
 20
18.75896508761684
 30
0.0
 11
17.72435011222859
 21
16.9966814302889
 31
0.0
  0
LINE
  5
FEE5
330
1F
100
AcDbEntity
  8
AM_0
100
AcDbLine
 10
17.72435011222871
 20
16.9966814302889
 30
0.0
 11
15.45565847647009
 21
17.39630821317559
 31
0.0
  0
LINE
  5
FEE6
330
1F
100
AcDbEntity
  8
AM_0
100
AcDbLine
 10
15.71603848275942
 20
17.65783783531379
 30
0.0
 11
17.94731305189902
 21
17.26480201513101
 31
0.0
  0
LINE
  5
FEE7
330
1F
100
AcDbEntity
  8
AM_0
100
AcDbLine
 10
15.45565847647009
 20
17.39630821317559
 30
0.0
 11
15.71603848275942
 21
17.65783783531379
 31
0.0
  0
LINE
  5
FEE8
330
1F
100
AcDbEntity
  8
AM_0
100
AcDbLine
 10
15.45565847647009
 20
17.39630821317559
 30
0.0
 11
14.65244158224328
 21
19.55821865339027
 31
0.0
  0
LINE
  5
FEE9
330
1F
100
AcDbEntity
  8
AM_0
100
AcDbLine
 10
14.91282158853261
 20
19.81974827552847
 30
0.0
 11
15.71603848275942
 21
17.65783783531379
 31
0.0
  0
LINE
  5
FEEA
330
1F
100
AcDbEntity
  8
AM_0
100
AcDbLine
 10
14.65244158224328
 20
19.55821865339027
 30
0.0
 11
14.91282158853261
 21
19.81974827552847
 31
0.0
  0
LINE
  5
FEEB
330
1F
100
AcDbEntity
  8
AM_0
100
AcDbLine
 10
14.65244158224328
 20
19.55821865339027
 30
0.0
 11
16.11791632377509
 21
21.32050231071821
 31
0.0
  0
LINE
  5
FEEC
330
1F
100
AcDbEntity
  8
AM_0
100
AcDbLine
 10
16.15533339039399
 20
21.31391134801436
 30
0.0
 11
14.91282158853261
 21
19.81974827552853
 31
0.0
  0
LINE
  5
FEED
330
1F
100
AcDbEntity
  8
AM_0
100
AcDbLine
 10
16.11791632377509
 20
21.32050231071821
 30
0.0
 11
18.38660795953359
 21
20.92087552783153
 31
0.0
  0
LINE
  5
FEEE
330
1F
100
AcDbEntity
  8
AM_0
100
AcDbLine
 10
18.38660795953348
 20
20.92087552783153
 30
0.0
 11
19.18982485376029
 21
18.75896508761684
 31
0.0
  0
LINE
  5
FEEF
330
1F
100
AcDbEntity
  8
AM_0
100
AcDbLine
 10
20.07739197161658
 20
16.30509530045862
 30
0.0
 11
20.36691600281966
 21
16.59589762264739
 31
0.0
  0
LINE
  5
FEF0
330
1F
100
AcDbEntity
  8
AM_0
100
AcDbLine
 10
14.05375975627879
 20
22.30224920329835
 30
0.0
 11
14.34328378748188
 21
22.59305152548711
 31
0.0
  0
ARC
  5
FEF1
330
1F
100
AcDbEntity
  8
AM_0
100
AcDbCircle
 10
17.0830428936377
 20
19.32121640106195
 30
0.0
 40
4.250072104599748
100
AcDbArc
 50
135.4599560494739
 51
314.7924555792242
  0
ELLIPSE
  5
FEF2
330
1F
100
AcDbEntity
  8
AM_0
100
AcDbEllipse
 10
16.9211332180019
 20
19.15859187050353
 30
0.0
 11
-1.832450175020329
 21
1.82439520309696
 31
0.0
210
0.0
220
0.0
230
1.0
 40
0.9924047398487851
 41
-0.0000000000000033
 42
6.283185307179583
  0
ELLIPSE
  5
FEF3
330
1F
100
AcDbEntity
  8
AM_0
100
AcDbEllipse
 10
17.35509989515077
 20
19.59447457406725
 30
0.0
 11
3.011816107668863
 21
-2.998576951419853
 31
0.0
210
0.0
220
0.0
230
1.0
 40
0.9924047398487849
 41
0.0000000000000099
 42
3.141592653589802
  0
ELLIPSE
  5
FEF4
330
1F
100
AcDbEntity
  8
AM_0
100
AcDbEllipse
 10
16.94655439738739
 20
19.18412528811791
 30
0.0
 11
2.333550314648453
 21
-2.323292637510765
 31
0.0
210
0.0
220
0.0
230
1.0
 40
0.9924047398487849
 41
-0.0000000000000009
 42
6.283185307179585
  0
ELLIPSE
  5
FEF5
330
1F
100
AcDbEntity
  8
AM_0
100
AcDbEllipse
 10
17.0042037079034
 20
19.24202912878013
 30
0.0
 11
-2.804253633727844
 21
2.791926867852514
 31
0.0
210
0.0
220
0.0
230
0.9999999999999999
 40
0.9924047398487849
 41
0.0000000000000029
 42
6.283185307179589
  0
ELLIPSE
  5
FEF6
330
1F
100
AcDbEntity
  8
AM_0
100
AcDbEllipse
 10
17.06557586394757
 20
19.30367225187848
 30
0.0
 11
3.011816107668863
 21
-2.998576951419853
 31
0.0
210
0.0
220
0.0
230
1.0
 40
0.9924047398487849
 41
0.0000000000000173
 42
3.141592653589787
  0
LINE
  5
FEF7
330
1F
100
AcDbEntity
  8
AM_0
100
AcDbLine
 10
30.14385550906275
 20
9.099874979074741
 30
0.0
 11
30.70747764507706
 21
8.989026586024522
 31
0.0
  0
LINE
  5
FEF8
330
1F
100
AcDbEntity
  8
AM_0
100
AcDbLine
 10
29.35612475120473
 20
11.38761121472624
 30
0.0
 11
29.73201997015195
 21
11.82196137625454
 31
0.0
  0
LINE
  5
FEF9
330
1F
100
AcDbEntity
  8
AM_0
100
AcDbLine
 10
33.29319836643413
 20
13.05019855407409
 30
0.0
 11
29.7376403688026
 21
11.82592175483671
 31
0.0
  0
LINE
  5
FEFA
330
1F
100
AcDbEntity
  8
AM_0
100
AcDbLine
 10
42.61591090379864
 20
13.08740386789009
 30
0.0
 11
41.4177094955208
 21
12.67483003673749
 31
0.0
  0
LINE
  5
FEFB
330
1F
100
AcDbEntity
  8
AM_0
100
AcDbLine
 10
34.42442045091883
 20
10.26684751096514
 30
0.0
 11
30.71434483217405
 21
8.98936602803866
 31
0.0
  0
ELLIPSE
  5
FEFC
330
1F
100
AcDbEntity
  8
AM_0
100
AcDbEllipse
 10
29.7550323045088
 20
10.24547925676882
 30
0.0
 11
0.3943688008780797
 21
-1.145330161326181
 31
0.0
210
0.0
220
0.0
230
1.0
 40
0.0871557427476582
 41
3.192125761129577
 42
6.23265219963933
  0
ELLIPSE
  5
FEFD
330
1F
100
AcDbEntity
  8
AM_0
100
AcDbEllipse
 10
30.22599260048838
 20
10.40764389143766
 30
0.0
 11
0.4883522316857752
 21
-1.418277863399205
 31
0.0
210
0.0
220
0.0
230
1.0
 40
0.0871557427476581
 41
3.14159265358981
 42
6.283185307179612
  0
LINE
  5
FEFE
330
1F
100
AcDbEntity
  8
AM_0
100
AcDbLine
 10
13.15342657074348
 20
-93.50464143179642
 30
0.0
 11
13.51505908275283
 21
-97.63958816732992
 31
0.0
  0
LINE
  5
FEFF
330
1F
100
AcDbEntity
  8
AM_0
100
AcDbLine
 10
12.07123360932883
 20
-93.65192004040449
 30
0.0
 11
12.48387431082062
 21
-98.37010014014601
 31
0.0
  0
LINE
  5
FF00
330
1F
100
AcDbEntity
  8
AM_0
100
AcDbLine
 10
2.242182430618186
 20
-99.34452471143737
 30
0.0
 11
12.48387431082051
 21
-98.37010014014601
 31
0.0
  0
LINE
  5
FF01
330
1F
100
AcDbEntity
  8
AM_0
100
AcDbLine
 10
1.829541729126504
 20
-94.6263446116958
 30
0.0
 11
2.2421824306183
 21
-99.34452471143737
 31
0.0
  0
LINE
  5
FF02
330
1F
100
AcDbEntity
  8
AM_0
100
AcDbLine
 10
0.5273888580807125
 20
-94.71032608140649
 30
0.0
 11
0.9335451655001634
 21
-99.35436289145082
 31
0.0
  0
ELLIPSE
  5
FF03
330
1F
100
AcDbEntity
  8
AM_0
100
AcDbEllipse
 10
12.37067390715288
 20
-98.27538828292688
 30
0.0
 11
1.195436861450516
 21
0.1045500372326011
 31
0.0
210
0.0
220
0.0
230
1.0
 40
0.087176540712736
 41
4.799597958772701
 42
6.164753034500248
  0
ELLIPSE
  5
FF04
330
1F
100
AcDbEntity
  8
AM_0
100
AcDbEllipse
 10
2.128982026950553
 20
-99.24981285421825
 30
0.0
 11
1.195436861450517
 21
0.1045500372326011
 31
0.0
210
0.0
220
0.0
230
1.0
 40
0.087176540712736
 41
3.141592653589794
 42
4.799597958772655
  0
LINE
  5
FF05
330
1F
100
AcDbEntity
  8
AM_0
100
AcDbLine
 10
12.05069578119151
 20
-88.89072051210974
 30
0.0
 11
0.8724480063390274
 21
-89.95425175511213
 31
0.0
  0
LINE
  5
FF06
330
1F
100
AcDbEntity
  8
AM_0
100
AcDbLine
 10
12.05069578119151
 20
-88.89072051210974
 30
0.0
 11
12.46383205783729
 21
-93.61456707378994
 31
0.0
  0
LINE
  5
FF07
330
1F
100
AcDbEntity
  8
AM_0
100
AcDbLine
 10
1.285584282984928
 20
-94.67809831679233
 30
0.0
 11
12.46383205783729
 21
-93.61456707378994
 31
0.0
  0
LINE
  5
FF08
330
1F
100
AcDbEntity
  8
AM_0
100
AcDbLine
 10
0.8724480063390274
 20
-89.95425175511213
 30
0.0
 11
1.285584282984928
 21
-94.67809831679233
 31
0.0
  0
LINE
  5
FF09
330
1F
100
AcDbEntity
  8
AM_0
100
AcDbLine
 10
0.0025298982129698
 20
-89.9544857489642
 30
0.0
 11
0.8965085198985889
 21
-88.89372080744801
 31
0.0
  0
LINE
  5
FF0A
330
1F
100
AcDbEntity
  8
AM_0
100
AcDbLine
 10
1.615492756467688
 20
-88.76720433730372
 30
0.0
 11
5.32887074484961
 21
-88.41390267614298
 31
0.0
  0
LINE
  5
FF0B
330
1F
100
AcDbEntity
  8
AM_0
100
AcDbLine
 10
11.53199593823501
 20
-87.82371917150982
 30
0.0
 11
12.79374053132017
 21
-87.70367309430134
 31
0.0
  0
LINE
  5
FF0C
330
1F
100
AcDbEntity
  8
AM_0
100
AcDbLine
 10
12.76968001776061
 20
-88.7642040419654
 30
0.0
 11
13.16439015270476
 21
-93.27736403109611
 31
0.0
  0
LINE
  5
FF0D
330
1F
100
AcDbEntity
  8
AM_0
100
AcDbLine
 10
13.66365863944623
 20
-87.7034391004492
 30
0.0
 11
13.48779447272045
 21
-87.91211360116603
 31
0.0
  0
LINE
  5
FF0E
330
1F
100
AcDbEntity
  8
AM_0
100
AcDbLine
 10
12.79880933671279
 20
-88.72964017257851
 30
0.0
 11
12.76968001776061
 21
-88.7642040419654
 31
0.0
  0
LINE
  5
FF0F
330
1F
100
AcDbEntity
  8
AM_0
100
AcDbLine
 10
13.66365863944634
 20
-87.7034391004492
 30
0.0
 11
13.67940963915771
 21
-87.88353779919783
 31
0.0
  0
LINE
  5
FF10
330
1F
100
AcDbEntity
  8
AM_0
100
AcDbLine
 10
0.0000231629269365
 20
-89.96081054178774
 30
0.0
 11
0.4131594395728371
 21
-94.68465710346794
 31
0.0
  0
LINE
  5
FF11
330
1F
100
AcDbEntity
  8
AM_0
100
AcDbLine
 10
13.66616537473237
 20
-87.69711430762567
 30
0.0
 11
13.68242858067447
 21
-87.88306962991032
 31
0.0
  0
ELLIPSE
  5
FF12
330
1F
100
AcDbEntity
  8
AM_0
100
AcDbEllipse
 10
11.97522884541297
 20
-88.82757927396364
 30
0.0
 11
0.7969579076336785
 21
0.06970002482172694
 31
0.0
210
0.0
220
0.0
230
1.0
 40
0.0871765407127359
 41
4.799597958772754
 42
6.195861360368181
  0
ELLIPSE
  5
FF13
330
1F
100
AcDbEntity
  8
AM_0
100
AcDbEllipse
 10
12.38836512205876
 20
-93.55142583564384
 30
0.0
 11
0.7969579076336781
 21
0.06970002482173413
 31
0.0
210
0.0
220
0.0
230
0.9999999999999998
 40
0.0871765407127359
 41
4.799597958772775
 42
6.176569778941872
  0
ELLIPSE
  5
FF14
330
1F
100
AcDbEntity
  8
AM_0
100
AcDbEllipse
 10
0.7969810705606051
 20
-89.89111051696602
 30
0.0
 11
0.7969579076336785
 21
0.06970002482172694
 31
0.0
210
0.0
220
0.0
230
1.0
 40
0.0871765407127359
 41
3.054268706778405
 42
4.799597958772754
  0
ELLIPSE
  5
FF15
330
1F
100
AcDbEntity
  8
AM_0
100
AcDbEllipse
 10
1.210117347206278
 20
-94.61495707864623
 30
0.0
 11
0.7969579076336781
 21
0.06970002482173413
 31
0.0
210
0.0
220
0.0
230
0.9999999999999998
 40
0.0871765407127359
 41
3.141592653589776
 42
4.799597958772846
  0
ELLIPSE
  5
FF16
330
1F
100
AcDbEntity
  8
AM_0
100
AcDbEllipse
 10
1.690959692246224
 20
-88.83034557544983
 30
0.0
 11
0.7969579076336785
 21
0.06970002482172694
 31
0.0
210
0.0
220
0.0
230
1.0
 40
0.0871765407127359
 41
1.658005305183031
 42
3.054268706778425
  0
ELLIPSE
  5
FF17
330
1F
100
AcDbEntity
  8
AM_0
100
AcDbEllipse
 10
12.8692074670987
 20
-87.76681433244744
 30
0.0
 11
0.7969579076336785
 21
0.06970002482172694
 31
0.0
210
0.0
220
0.0
230
1.0
 40
0.0871765407127359
 41
6.195861360368181
 42
7.941190612362547
  0
ELLIPSE
  5
FF18
330
1F
100
AcDbEntity
  8
AM_0
100
AcDbEllipse
 10
6.833094268829541
 20
-88.82896242470673
 30
0.0
 11
2.570189252118613
 21
0.2247825800500692
 31
0.0
210
0.0
220
0.0
230
0.9999999999999999
 40
0.087176540712736
 41
2.253227088245112
 42
6.624639779840885
  0
LINE
  5
FF1C
330
1F
100
AcDbEntity
  8
AM_0
100
AcDbLine
 10
40.66339745962125
 20
-96.20035364292403
 30
0.0
 11
40.66339745962125
 21
-109.0551980335704
 31
0.0
  0
LINE
  5
FF1D
330
1F
100
AcDbEntity
  8
AM_0
100
AcDbLine
 10
43.33660254037824
 20
-71.00604921330603
 30
0.0
 11
43.33660254037824
 21
-83.86089360395249
 31
0.0
  0
LINE
  5
FF1E
330
1F
100
AcDbEntity
  8
AM_0
100
AcDbLine
 10
43.33660254037824
 20
-96.20035364292403
 30
0.0
 11
43.33660254037824
 21
-109.0551980335704
 31
0.0
  0
LINE
  5
FF3E
330
1F
100
AcDbEntity
  8
AM_0
100
AcDbLine
 10
21.34988234350624
 20
-86.2670670271296
 30
0.0
 11
21.37154147466902
 21
-86.51471996408077
 31
0.0
  0
LINE
  5
FF3F
330
1F
100
AcDbEntity
  8
AM_0
100
AcDbLine
 10
27.33326533940158
 20
-85.88947279222725
 30
0.0
 11
26.82022140452159
 21
-85.89676229838813
 31
0.0
  0
LINE
  5
FF40
330
1F
100
AcDbEntity
  8
AM_0
100
AcDbLine
 10
27.7831030900993
 20
-85.83092722192288
 30
0.0
 11
27.91067650159073
 21
-85.57126605368762
 31
0.0
  0
LINE
  5
FF41
330
1F
100
AcDbEntity
  8
AM_0
100
AcDbLine
 10
2.557315425974366
 20
-87.96967633783913
 30
0.0
 11
6.170383767459725
 21
-87.10395837660104
 31
0.0
  0
LINE
  5
FF42
330
1F
100
AcDbEntity
  8
AM_0
100
AcDbLine
 10
28.07079437097923
 20
-87.19614385395346
 30
0.0
 11
28.84095750432959
 21
-86.87011203701201
 31
0.0
  0
LINE
  5
FF43
330
1F
100
AcDbEntity
  8
AM_0
100
AcDbLine
 10
13.40394941848604
 20
-87.9239700554071
 30
0.0
 11
12.79237829260205
 21
-88.64963976839198
 31
0.0
  0
LINE
  5
FF44
330
1F
100
AcDbEntity
  8
AM_0
100
AcDbLine
 10
1.982041684498427
 20
-88.65227679598223
 30
0.0
 11
5.383644892256029
 21
-88.32863830086944
 31
0.0
  0
LINE
  5
FF45
330
1F
100
AcDbEntity
  8
AM_0
100
AcDbLine
 10
26.79314296293978
 20
-85.58714435778813
 30
0.0
 11
27.91067650159073
 21
-85.57126605368762
 31
0.0
  0
LINE
  5
FF46
330
1F
100
AcDbEntity
  8
AM_0
100
AcDbLine
 10
25.65161023009853
 20
-86.00747527310864
 30
0.0
 11
22.45937740042052
 21
-86.05283162428401
 31
0.0
  0
LINE
  5
FF47
330
1F
100
AcDbEntity
  8
AM_0
100
AcDbLine
 10
13.12374375085176
 20
-98.29158522984079
 30
0.0
 11
13.56410358067308
 21
-98.2496881054783
 31
0.0
  0
LINE
  5
FF48
330
1F
100
AcDbEntity
  8
AM_0
100
AcDbLine
 10
13.5641035803792
 20
-98.24968810404329
 30
0.0
 11
12.79237829246881
 21
-88.64963976840278
 31
0.0
  0
LINE
  5
FF49
330
1F
100
AcDbEntity
  8
AM_0
100
AcDbLine
 10
12.79237829260205
 20
-88.64963976839198
 30
0.0
 11
28.07073847659638
 21
-87.1960118183946
 31
0.0
  0
SPLINE
  5
FF4A
330
1F
100
AcDbEntity
  8
AM_0
100
AcDbSpline
210
0.0
220
0.0
230
1.0
 70
    12
 71
     2
 72
     6
 73
     3
 74
     0
 42
0.0000000001
 43
0.0000000001
 40
28.4575853579031
 40
28.4575853579031
 40
28.4575853579031
 40
56.10299053505958
 40
56.10299053505958
 40
56.10299053505958
 10
28.07073847659632
 20
-87.1960118183946
 30
0.0
 41
1.350904111656203
 10
28.39616379222252
 20
-97.14069211483181
 30
0.0
 41
1.387316378263446
 10
26.07137892054749
 20
-110.2806236234382
 30
-0.0000000000000142
 41
1.163314453321047
  0
LINE
  5
FF4B
330
1F
100
AcDbEntity
  8
AM_0
100
AcDbLine
 10
2.22028702541661
 20
-108.0233247828633
 30
0.0
 11
2.22028702541661
 21
-99.34659008207143
 31
0.0
  0
LINE
  5
FF4C
330
1F
100
AcDbEntity
  8
AM_0
100
AcDbLine
 10
1.982041684498427
 20
-88.65227679598223
 30
0.0
 11
2.557315425974366
 21
-87.96967633783913
 31
0.0
  0
LINE
  5
FF4D
330
1F
100
AcDbEntity
  8
AM_0
100
AcDbLine
 10
1.982554107276201
 20
-88.73228104498799
 30
0.0
 11
1.982041684498427
 21
-88.65227679598223
 31
0.0
  0
LINE
  5
FF4E
330
1F
100
AcDbEntity
  8
AM_0
100
AcDbLine
 10
21.9605671615916
 20
-110.2806236234383
 30
0.0
 11
26.07137892054743
 21
-110.2806236234383
 31
0.0
  0
LINE
  5
FF4F
330
1F
100
AcDbEntity
  8
AM_0
100
AcDbLine
 10
26.07137892054743
 20
-110.2806236234383
 30
0.0
 11
28.84088900845302
 21
-110.2806236234383
 31
0.0
  0
ELLIPSE
  5
FF50
330
1F
100
AcDbEntity
  8
AM_0
100
AcDbEllipse
 10
297.7512918201072
 20
-90.03062362343837
 30
0.0
 11
360.0466475370049
 21
-1.040515795177147E-13
 31
0.0
210
0.0
220
0.0
230
1.0
 40
0.0874886635259185
 41
3.74955591245506
 42
3.839815126952351
  0
LINE
  5
FF51
330
1F
100
AcDbEntity
  8
AM_0
100
AcDbLine
 10
21.9605671615916
 20
-110.2806236234383
 30
0.0
 11
1.188354533936263
 21
-110.2806236234383
 31
0.0
  0
ELLIPSE
  5
FF52
330
1F
100
AcDbEntity
  8
AM_0
100
AcDbEllipse
 10
3.116774316499914
 20
-90.03062362343826
 30
0.0
 11
-9.103333629765700E-15
 21
-31.5
 31
0.0
210
0.0
220
0.0
230
1.0
 40
0.0799226986465035
 41
5.377807107043186
 42
5.41061145374725
  0
SPLINE
  5
FF53
330
1F
100
AcDbEntity
  8
AM_0
100
AcDbSpline
210
0.0
220
0.0
230
1.0
 70
     8
 71
     3
 72
    21
 73
    17
 74
     0
 42
0.0000000001
 43
0.0000000001
 40
-2.182587147419127
 40
-2.182587147419127
 40
-2.182587147419127
 40
-2.182587147419127
 40
-2.055270747762569
 40
-2.055270747762569
 40
-1.404238250742392
 40
-1.404238250742392
 40
-0.7532057537222139
 40
-0.7532057537222139
 40
-0.3766028768611065
 40
-0.3766028768611065
 40
-0.1883014384305533
 40
-0.1883014384305533
 40
0.0
 40
0.0
 40
0.0
 40
0.0875124779591514
 40
0.0875124779591514
 40
0.0875124779591514
 40
0.0875124779591514
 10
1.136309881823536
 20
-109.4783490778601
 30
0.0
 10
1.1341522008006
 20
-109.4439501271478
 30
0.0
 10
1.133131282668956
 20
-109.4098993189486
 30
0.0
 10
1.133131282668956
 20
-109.2051448160165
 30
0.0
 10
1.160758001424483
 20
-109.0175634415698
 30
0.0
 10
1.281947141123851
 20
-108.6560252127818
 30
0.0
 10
1.374600969764515
 20
-108.4818992614995
 30
0.0
 10
1.573139929242302
 20
-108.2547428978371
 30
0.0
 10
1.666497055815285
 20
-108.1722058896574
 30
0.0
 10
1.829257273841222
 20
-108.0831539375614
 30
0.0
 10
1.887294663381908
 20
-108.0591282683735
 30
0.0
 10
2.007843915137528
 20
-108.0264677384715
 30
0.0
 10
2.070364136525541
 20
-108.0178553089372
 30
0.0
 10
2.133131282668956
 20
-108.0178553089372
 30
0.0
 10
2.162302108655467
 20
-108.0178553089372
 30
0.0
 10
2.191423167863945
 20
-108.0196959695957
 30
0.0
 10
2.22028702541661
 20
-108.0233247828633
 30
0.0
  0
LINE
  5
FF54
330
1F
100
AcDbEntity
  8
AM_0
100
AcDbLine
 10
28.97860101927836
 20
-85.53062362343826
 30
0.0
 11
26.78819979523996
 21
-85.53062362343826
 31
0.0
  0
ARC
  5
FF55
330
1F
100
AcDbEntity
  8
AM_0
100
AcDbCircle
 10
28.9786010192783
 20
-81.53062362343826
 30
0.0
 40
4.0
100
AcDbArc
 50
270.0
 51
291.5632519537823
  0
LINE
  5
FF58
330
1F
100
AcDbEntity
  8
AM_0
100
AcDbLine
 10
40.66339745962125
 20
-71.00604921330603
 30
0.0
 11
40.66339745962125
 21
-83.86089360395249
 31
0.0
  0
SPLINE
  5
FF5A
330
1F
100
AcDbEntity
  8
AM_0
100
AcDbSpline
210
0.0
220
0.0
230
1.0
 70
     8
 71
     3
 72
    18
 73
    14
 74
     0
 42
0.0000000001
 43
0.0000000001
 40
0.2929971660687499
 40
0.2929971660687499
 40
0.2929971660687499
 40
0.2929971660687499
 40
0.5162819560529652
 40
0.5162819560529652
 40
0.7744229340794478
 40
0.7744229340794478
 40
1.032563912105931
 40
1.032563912105931
 40
1.502769891248439
 40
1.502769891248439
 40
1.737872880819694
 40
1.737872880819694
 40
1.776064001822351
 40
1.776064001822351
 40
1.776064001822351
 40
1.776064001822351
 10
41.95590882773593
 20
-79.74892540193665
 30
0.0
 10
42.02980337000258
 20
-79.74208841605469
 30
0.0
 10
42.10400749090411
 20
-79.73607349626479
 30
0.0
 10
42.26111315135137
 20
-79.72895058062082
 30
0.0
 10
42.34383620633611
 20
-79.72882501083024
 30
0.0
 10
42.50178186823513
 20
-79.73990687737333
 30
0.0
 10
42.5769928043261
 20
-79.75115198693811
 30
0.0
 10
42.77201174237212
 20
-79.79946726512597
 30
0.0
 10
42.89451296660138
 20
-79.85542536972602
 30
0.0
 10
43.04175328981506
 20
-79.9809925537636
 30
0.0
 10
43.08499071028712
 20
-80.02958890102036
 30
0.0
 10
43.12665792134027
 20
-80.09226043335286
 30
0.0
 10
43.1322853026719
 20
-80.10115891899324
 30
0.0
 10
43.13772162756658
 20
-80.11018090121971
 30
0.0
  0
SPLINE
  5
FF5B
330
1F
100
AcDbEntity
  8
AM_0
100
AcDbSpline
210
0.0
220
0.0
230
1.0
 70
     8
 71
     3
 72
    12
 73
     8
 74
     0
 42
0.0000000001
 43
0.0000000001
 40
6.859989230701761
 40
6.859989230701761
 40
6.859989230701761
 40
6.859989230701761
 40
7.14168603673556
 40
7.14168603673556
 40
7.701516918135081
 40
7.701516918135081
 40
7.950372224189583
 40
7.950372224189583
 40
7.950372224189583
 40
7.950372224189583
 10
40.81432019371158
 20
-80.01433363680096
 30
0.0
 10
40.84166993345872
 20
-79.97590341450393
 30
0.0
 10
40.87595813484995
 20
-79.9445529427791
 30
0.0
 10
40.99070499344578
 20
-79.87072455422731
 30
0.0
 10
41.09449739030941
 20
-79.84016722555879
 30
0.0
 10
41.27686914234937
 20
-79.81262198619663
 30
0.0
 10
41.33739526941929
 20
-79.80615942613909
 30
0.0
 10
41.40260681826533
 20
-79.80012233723124
 30
0.0
  0
ELLIPSE
  5
FF5C
330
1F
100
AcDbEntity
  8
AM_0
100
AcDbEllipse
 10
41.99999999999983
 20
-79.74205294080471
 30
0.0
 11
1.25
 21
-4.882801707546048E-16
 31
0.0
210
0.0
220
0.0
230
1.0
 40
0.7180150430616905
 41
3.674298662736887
 42
5.750479298032222
  0
ARC
  5
FF5D
330
1F
100
AcDbEntity
  8
AM_0
100
AcDbCircle
 10
41.43224604690909
 20
-79.74205294080471
 30
0.0
 40
0.6832965178144979
100
AcDbArc
 50
138.1572210081311
 51
221.8427789918748
  0
ELLIPSE
  5
FF5E
330
1F
100
AcDbEntity
  8
AM_0
100
AcDbEllipse
 10
41.99999999999983
 20
-79.74205294080471
 30
0.0
 11
1.25
 21
-4.882801707546048E-16
 31
0.0
210
0.0
220
0.0
230
1.0
 40
0.7180150430616905
 41
0.5327060091473659
 42
2.6088866444427
  0
ARC
  5
FF5F
330
1F
100
AcDbEntity
  8
AM_0
100
AcDbCircle
 10
42.56775395309069
 20
-79.74205294080471
 30
0.0
 40
0.683296517814314
100
AcDbArc
 50
318.1572210080872
 51
41.84277899190692
  0
LINE
  5
FF60
330
1F
100
AcDbEntity
  8
AM_0
100
AcDbLine
 10
28.84088900845302
 20
-110.2806236234383
 30
0.0
 11
29.26685608506909
 21
-110.2806236234383
 31
0.0
  0
ARC
  5
FF61
330
1F
100
AcDbEntity
  8
AM_0
100
AcDbCircle
 10
30.06827267043599
 20
-91.23376040963689
 30
0.0
 40
4.533134666490714
100
AcDbArc
 50
94.16093507420638
 51
105.7093928079201
  0
LINE
  5
FF62
330
1F
100
AcDbEntity
  8
AM_0
100
AcDbLine
 10
29.73932429751051
 20
-86.71224666893329
 30
0.0
 11
29.99997202390392
 21
-86.6865615030996
 31
0.0
  0
LINE
  5
FF63
330
1F
100
AcDbEntity
  8
AM_0
100
AcDbLine
 10
33.42605538949033
 20
-76.59084054044973
 30
0.0
 11
33.99999999999983
 21
-70.03062362343823
 31
0.0
  0
ELLIPSE
  5
FF64
330
1F
100
AcDbEntity
  8
AM_0
100
AcDbEllipse
 10
-28.0386932035658
 20
-90.03062362343826
 30
0.0
 11
-229.5628157222543
 21
-19.92442360333071
 31
0.0
210
0.0
220
0.0
230
1.0
 40
0.0075667759589531
 41
1.825736167806022
 42
1.854294858106007
  0
SPLINE
  5
FF65
330
1F
100
AcDbEntity
  8
AM_0
100
AcDbSpline
210
0.0
220
0.0
230
1.0
 70
     8
 71
     3
 72
    14
 73
    10
 74
     0
 42
0.0000000001
 43
0.0000000001
 40
1.533355615793641
 40
1.533355615793641
 40
1.533355615793641
 40
1.533355615793641
 40
1.589552708280131
 40
1.589552708280131
 40
1.645749800766621
 40
1.645749800766621
 40
1.758143985739601
 40
1.758143985739601
 40
1.96555908755458
 40
1.96555908755458
 40
1.96555908755458
 40
1.96555908755458
 10
40.92320508075659
 20
-84.17073381886883
 30
0.0
 10
40.9044727165944
 20
-84.17073381886883
 30
0.0
 10
40.88629303117716
 20
-84.16714026990485
 30
0.0
 10
40.85175097820064
 20
-84.15419916522183
 30
0.0
 10
40.83539156175721
 20
-84.14484455811135
 30
0.0
 10
40.78989093031356
 20
-84.11083151081022
 30
0.0
 10
40.76436180914158
 20
-84.08008997654349
 30
0.0
 10
40.70787757700532
 20
-83.99381830419486
 30
0.0
 10
40.68216106361433
 20
-83.92891413372527
 30
0.0
 10
40.66339745962125
 20
-83.86089360395249
 30
0.0
  0
LINE
  5
FF66
330
1F
100
AcDbEntity
  8
AM_0
100
AcDbLine
 10
43.0767949192429
 20
-84.17073381886883
 30
0.0
 11
40.92320508075659
 21
-84.17073381886883
 31
0.0
  0
SPLINE
  5
FF67
330
1F
100
AcDbEntity
  8
AM_0
100
AcDbSpline
210
0.0
220
0.0
230
1.0
 70
     8
 71
     3
 72
    14
 73
    10
 74
     0
 42
0.0000000001
 43
0.0000000001
 40
1.101152144031578
 40
1.101152144031578
 40
1.101152144031578
 40
1.101152144031578
 40
1.308567245847681
 40
1.308567245847681
 40
1.420961430820661
 40
1.420961430820661
 40
1.477158523307151
 40
1.477158523307151
 40
1.533355615793641
 40
1.533355615793641
 40
1.533355615793641
 40
1.533355615793641
 10
43.33660254037824
 20
-83.86089360395249
 30
0.0
 10
43.31783893638504
 20
-83.92891413372564
 30
0.0
 10
43.2921224229944
 20
-83.99381830419458
 30
0.0
 10
43.23563819085791
 20
-84.08008997654349
 30
0.0
 10
43.21010906968593
 20
-84.11083151081022
 30
0.0
 10
43.16460843824228
 20
-84.14484455811135
 30
0.0
 10
43.14824902179885
 20
-84.15419916522183
 30
0.0
 10
43.11370696882233
 20
-84.16714026990482
 30
0.0
 10
43.09552728340509
 20
-84.17073381886883
 30
0.0
 10
43.0767949192429
 20
-84.17073381886883
 30
0.0
  0
ELLIPSE
  5
FF68
330
1F
100
AcDbEntity
  8
AM_0
100
AcDbEllipse
 10
33.05107082756058
 20
-90.03062362343826
 30
0.0
 11
9.367417879782549
 21
19.74174915274961
 31
0.0
210
0.0
220
0.0
230
1.0
 40
0.3419987131196471
 41
5.186865779680268
 42
6.130459062281823
  0
ARC
  5
FF69
330
1F
100
AcDbEntity
  8
AM_0
100
AcDbCircle
 10
43.09983361670982
 20
-71.24135117483056
 30
0.0
 40
0.3338061358219125
100
AcDbArc
 50
44.82195371153129
 51
93.95759762899527
  0
LINE
  5
FF6A
330
1F
100
AcDbEntity
  8
AM_0
100
AcDbLine
 10
40.92320508075659
 20
-70.90834103274568
 30
0.0
 11
43.0767949192429
 21
-70.90834103274568
 31
0.0
  0
ARC
  5
FF6B
330
1F
100
AcDbEntity
  8
AM_0
100
AcDbCircle
 10
40.90016638328956
 20
-71.24135117483058
 30
0.0
 40
0.3338061358219296
100
AcDbArc
 50
86.04240237100473
 51
135.1780462884676
  0
ELLIPSE
  5
FF6C
330
1F
100
AcDbEntity
  8
AM_0
100
AcDbEllipse
 10
50.94892917243834
 20
-90.03062362343826
 30
0.0
 11
9.367417879781181
 21
-19.74174915275001
 31
0.0
210
0.0
220
0.0
230
1.0
 40
0.3419987131196345
 41
3.29431889848816
 42
4.237912181089714
  0
ARC
  5
FF6D
330
1F
100
AcDbEntity
  8
AM_0
100
AcDbCircle
 10
40.90016638328967
 20
-108.8198960720457
 30
0.0
 40
0.3338061358221887
100
AcDbArc
 50
224.8219537115509
 51
273.9575976289725
  0
LINE
  5
FF6E
330
1F
100
AcDbEntity
  8
AM_0
100
AcDbLine
 10
43.0767949192429
 20
-109.1529062141308
 30
0.0
 11
40.92320508075659
 21
-109.1529062141308
 31
0.0
  0
ARC
  5
FF6F
330
1F
100
AcDbEntity
  8
AM_0
100
AcDbCircle
 10
43.09983361670982
 20
-108.819896072046
 30
0.0
 40
0.3338061358219234
100
AcDbArc
 50
266.0424023710048
 51
315.1780462884674
  0
ELLIPSE
  5
FF70
330
1F
100
AcDbEntity
  8
AM_0
100
AcDbEllipse
 10
33.05107082756058
 20
-90.03062362343826
 30
0.0
 11
-9.367417879781835
 21
19.74174915274995
 31
0.0
210
0.0
220
0.0
230
0.9999999999999999
 40
0.341998713119647
 41
3.294318898488143
 42
4.237912181089698
  0
SPLINE
  5
FF71
330
1F
100
AcDbEntity
  8
AM_0
100
AcDbSpline
210
0.0
220
0.0
230
1.0
 70
     8
 71
     3
 72
    14
 73
    10
 74
     0
 42
0.0000000001
 43
0.0000000001
 40
1.533355615793645
 40
1.533355615793645
 40
1.533355615793645
 40
1.533355615793645
 40
1.589552708280137
 40
1.589552708280137
 40
1.645749800766629
 40
1.645749800766629
 40
1.758143985739612
 40
1.758143985739612
 40
1.965559087554582
 40
1.965559087554582
 40
1.965559087554582
 40
1.965559087554582
 10
43.0767949192429
 20
-95.89051342800769
 30
0.0
 10
43.09552728340509
 20
-95.89051342800769
 30
0.0
 10
43.11370696882233
 20
-95.89410697697167
 30
0.0
 10
43.14824902179885
 20
-95.90704808165469
 30
0.0
 10
43.16460843824228
 20
-95.91640268876512
 30
0.0
 10
43.21010906968593
 20
-95.9504157360663
 30
0.0
 10
43.23563819085791
 20
-95.98115727033303
 30
0.0
 10
43.29212242299417
 20
-96.06742894268166
 30
0.0
 10
43.31783893638516
 20
-96.13233311315122
 30
0.0
 10
43.33660254037824
 20
-96.20035364292403
 30
0.0
  0
LINE
  5
FF72
330
1F
100
AcDbEntity
  8
AM_0
100
AcDbLine
 10
40.92320508075659
 20
-95.89051342800769
 30
0.0
 11
43.0767949192429
 21
-95.89051342800769
 31
0.0
  0
SPLINE
  5
10275
330
1F
100
AcDbEntity
  8
AM_0
100
AcDbSpline
210
0.0
220
0.0
230
1.0
 70
     8
 71
     3
 72
    14
 73
    10
 74
     0
 42
0.0000000001
 43
0.0000000001
 40
1.101152144031585
 40
1.101152144031585
 40
1.101152144031585
 40
1.101152144031585
 40
1.308567245847678
 40
1.308567245847678
 40
1.420961430820662
 40
1.420961430820662
 40
1.477158523307153
 40
1.477158523307153
 40
1.533355615793645
 40
1.533355615793645
 40
1.533355615793645
 40
1.533355615793645
 10
40.66339745962125
 20
-96.20035364292403
 30
0.0
 10
40.68216106361444
 20
-96.13233311315082
 30
0.0
 10
40.70787757700515
 20
-96.06742894268194
 30
0.0
 10
40.76436180914158
 20
-95.98115727033303
 30
0.0
 10
40.78989093031356
 20
-95.9504157360663
 30
0.0
 10
40.83539156175721
 20
-95.91640268876512
 30
0.0
 10
40.85175097820064
 20
-95.90704808165469
 30
0.0
 10
40.88629303117716
 20
-95.89410697697167
 30
0.0
 10
40.9044727165944
 20
-95.89051342800769
 30
0.0
 10
40.92320508075659
 20
-95.89051342800769
 30
0.0
  0
ELLIPSE
  5
10276
330
1F
100
AcDbEntity
  8
AM_0
100
AcDbEllipse
 10
50.94892917243834
 20
-90.03062362343826
 30
0.0
 11
-9.36741787978189
 21
-19.74174915274967
 31
0.0
210
0.0
220
0.0
230
1.0
 40
0.3419987131196347
 41
5.186865779680252
 42
6.130459062281807
  0
ELLIPSE
  5
10277
330
1F
100
AcDbEntity
  8
AM_0
100
AcDbEllipse
 10
34.21752531881242
 20
-81.97136427417692
 30
0.0
 11
-0.1783091314514191
 21
1.489845710021501
 31
0.0
210
0.0
220
0.0
230
1.0
 40
0.3406060950518384
 41
3.132445685237312
 42
6.274038338827654
  0
LINE
  5
10278
330
1F
100
AcDbEntity
  8
AM_0
100
AcDbLine
 10
30.44871358797246
 20
-85.25067322463542
 30
0.0
 11
36.31849841994932
 21
-86.12515097644462
 31
0.0
  0
ARC
  5
10279
330
1F
100
AcDbEntity
  8
AM_0
100
AcDbCircle
 10
28.9786010192783
 20
-81.53062362343826
 30
0.0
 40
4.0
100
AcDbArc
 50
291.5632519537823
 51
328.0295915841863
  0
LINE
  5
1027A
330
1F
100
AcDbEntity
  8
AM_0
100
AcDbLine
 10
33.07788843590794
 20
-80.57040702998876
 30
0.0
 11
33.42605538949027
 21
-76.59084054044973
 31
0.0
  0
ELLIPSE
  5
1027B
330
1F
100
AcDbEntity
  8
AM_0
100
AcDbEllipse
 10
29.6274362531027
 20
-90.03062362343826
 30
0.0
 11
-2.747276654303593
 21
19.97566484927634
 31
0.0
210
0.0
220
0.0
230
1.0
 40
0.3590148992097151
 41
4.859589752272818
 42
5.399944841571782
  0
LINE
  5
10284
330
1F
100
AcDbEntity
  8
AM_0
100
AcDbLine
 10
1.133131282668956
 20
-109.3764071328119
 30
0.0
 11
1.133131282668956
 21
-99.39433577185167
 31
0.0
  0
LINE
  5
10285
330
1F
100
AcDbEntity
  8
AM_0
100
AcDbLine
 10
29.99999999999983
 20
-110.0306236234383
 30
0.0
 11
49.69999999999976
 21
-110.0306236234383
 31
0.0
  0
LINE
  5
10286
330
1F
100
AcDbEntity
  8
AM_0
100
AcDbLine
 10
33.99999999999983
 20
-70.03062362343823
 30
0.0
 11
49.69999999999976
 21
-70.03062362343823
 31
0.0
  0
ELLIPSE
  5
1029F
330
1F
100
AcDbEntity
  8
AM_0
100
AcDbEllipse
 10
11.99940250105851
 20
-87.83925586627157
 30
0.0
 11
2.739542807490768
 21
0.2395938353246861
 31
0.0
210
0.0
220
0.0
230
1.0
 40
0.0871765407127359
 41
5.243067050715218
 42
7.463938470082406
  0
ELLIPSE
  5
102A0
330
1F
100
AcDbEntity
  8
AM_0
100
AcDbEllipse
 10
26.78114336584463
 20
-85.78937066339813
 30
0.0
 11
1.773231344484934
 21
0.1550825552283422
 31
0.0
210
0.0
220
0.0
230
1.0
 40
0.087176540712736
 41
4.01419979537528
 42
7.155792448965078
  0
ELLIPSE
  5
102A1
330
1F
100
AcDbEntity
  8
AM_0
100
AcDbEllipse
 10
17.66459235161278
 20
-86.65674603629626
 30
0.0
 11
4.233838884303917
 21
0.370281381865424
 31
0.0
210
0.0
220
0.0
230
1.0
 40
0.087176540712736
 41
4.304653655434022
 42
6.571786767594267
  0
LINE
  5
102A2
330
1F
100
AcDbEntity
  8
AM_0
100
AcDbLine
 10
28.84088900845302
 20
-86.86995023378859
 30
0.0
 11
28.84088900845302
 21
-110.2806236234383
 31
0.0
  0
LINE
  5
102A3
330
1F
100
AcDbEntity
  8
AM_0
100
AcDbLine
 10
29.99999999999983
 20
-110.0306236234383
 30
0.0
 11
29.99999999999983
 21
-86.68684539870787
 31
0.0
  0
ARC
  5
102A5
330
1F
100
AcDbEntity
  8
AM_0
100
AcDbCircle
 10
29.99999999999977
 20
-111.2306236234383
 30
0.0
 40
1.2
100
AcDbArc
 50
90.0
 51
127.6584620062049
  0
LINE
  5
102A6
330
1F
100
AcDbEntity
  8
AM_0
100
AcDbLine
 10
25.48348879488117
 20
-85.70837440565879
 30
0.0
 11
25.71376514785345
 21
-86.00639069405298
 31
0.0
  0
LINE
  5
102A7
330
1F
100
AcDbEntity
  8
AM_0
100
AcDbLine
 10
18.78576701838256
 20
-86.76217899378247
 30
0.0
 11
25.46289256090074
 21
-85.47287475440129
 31
0.0
  0
LINE
  5
102A8
330
1F
100
AcDbEntity
  8
AM_0
100
AcDbLine
 10
11.57326051868847
 20
-87.71348447552333
 30
0.0
 11
17.95486182599416
 21
-86.89306849924537
 31
0.0
  0
LINE
  5
102A9
330
1F
100
AcDbEntity
  8
AM_0
100
AcDbLine
 10
11.36493015171482
 20
-88.27002072079006
 30
0.0
 11
11.57326051868847
 21
-87.71348447552333
 31
0.0
  0
LINE
  5
102AA
330
1F
100
AcDbEntity
  8
AM_0
100
AcDbLine
 10
8.044171407787758
 20
-88.69693606627919
 30
0.0
 11
11.36493015171482
 21
-88.27002072079006
 31
0.0
  0
LINE
  5
102AB
330
1F
100
AcDbEntity
  8
AM_0
100
AcDbLine
 10
25.99813831691597
 20
-80.52553598370815
 30
0.0
 11
26.47424709086567
 21
-85.96941714821907
 31
0.0
  0
LINE
  5
102AC
330
1F
100
AcDbEntity
  8
AM_0
100
AcDbLine
 10
22.5302893924985
 20
-81.19515231656186
 30
0.0
 11
25.99813831691597
 21
-80.52553598370815
 31
0.0
  0
LINE
  5
102AD
330
1F
100
AcDbEntity
  8
AM_0
100
AcDbLine
 10
25.46289256090074
 20
-85.47287475440129
 30
0.0
 11
25.48348879488117
 21
-85.70837440565884
 31
0.0
  0
LINE
  5
102AE
330
1F
100
AcDbEntity
  8
AM_0
100
AcDbLine
 10
24.14476563935364
 20
-85.72739544854898
 30
0.0
 11
25.48348879488117
 21
-85.70837440565884
 31
0.0
  0
LINE
  5
102AF
330
1F
100
AcDbEntity
  8
AM_0
100
AcDbLine
 10
21.26619447766052
 20
-86.28322654360602
 30
0.0
 11
21.28818134238441
 21
-86.53462682288335
 31
0.0
  0
LINE
  5
102B0
330
1F
100
AcDbEntity
  8
AM_0
100
AcDbLine
 10
22.08943861408056
 20
-80.74614320981431
 30
0.0
 11
17.95486182599416
 21
-86.89306849924537
 31
0.0
  0
LINE
  5
102B1
330
1F
100
AcDbEntity
  8
AM_0
100
AcDbLine
 10
18.78576701838256
 20
-86.76217899378247
 30
0.0
 11
22.5302893924985
 21
-81.19515231656186
 31
0.0
  0
ELLIPSE
  5
102B2
330
1F
100
AcDbEntity
  8
AM_0
100
AcDbEllipse
 10
18.01778988588615
 20
-86.77309067923108
 30
0.0
 11
1.320519313442327
 21
0.1763376137911919
 31
0.0
210
0.0
220
0.0
230
1.0
 40
0.0831562856853579
 41
4.653615893714561
 42
5.321900791086552
  0
ELLIPSE
  5
102B3
330
1F
100
AcDbEntity
  8
AM_0
100
AcDbEllipse
 10
21.02503105160986
 20
-80.88298299774061
 30
0.0
 11
1.122725546716045
 21
0.3936704427551953
 31
0.0
210
0.0
220
0.0
230
1.0
 40
0.3983594904888661
 41
5.793147516543443
 42
7.363943843338341
  0
ELLIPSE
  5
102B4
330
1F
100
AcDbEntity
  8
AM_0
100
AcDbEllipse
 10
20.69790469753139
 20
-81.3429037899368
 30
0.0
 11
1.722976188048093
 21
0.9435843864688875
 31
0.0
210
0.0
220
0.0
230
1.0
 40
0.7349723955175463
 41
5.736506264504156
 42
7.307302591299053
  0
LINE
  5
102B5
330
1F
100
AcDbEntity
  8
AM_0
100
AcDbLine
 10
14.56329477039935
 20
-81.18394771147996
 30
0.0
 11
21.41508546558021
 21
-80.30308438553016
 31
0.0
  0
LINE
  5
102B6
330
1F
100
AcDbEntity
  8
AM_0
100
AcDbLine
 10
7.554849457562341
 20
-88.64204571173008
 30
0.0
 11
10.0334090182007
 21
-83.99720536673914
 31
0.0
  0
ELLIPSE
  5
102B7
330
1F
100
AcDbEntity
  8
AM_0
100
AcDbEllipse
 10
19.74749332488022
 20
-90.05303018737476
 30
0.0
 11
-9.421328334594483
 21
6.535250571819336
 31
0.0
210
0.0
220
0.0
230
1.0
 40
0.6479918140983803
 41
5.660602665887424
 42
6.358734366685161
  0
ARC
  5
102B8
330
1F
100
AcDbEntity
  8
AM_0
100
AcDbCircle
 10
7.163869846382056
 20
-90.06151376691815
 30
0.0
 40
1.472329656041078
100
AcDbArc
 50
74.60026381850599
 51
112.3330821812835
  0
ELLIPSE
  5
102B9
330
1F
100
AcDbEntity
  8
AM_0
100
AcDbEllipse
 10
6.887824208848997
 20
-85.17535648942675
 30
0.0
 11
1.361605528887295
 21
-3.469283161627233
 31
0.0
210
0.0
220
0.0
230
1.0
 40
0.4754573734421093
 41
5.91025431794842
 42
6.164295482894159
  0
LINE
  5
102BA
330
1F
100
AcDbEntity
  8
AM_0
100
AcDbLine
 10
9.231901907104202
 20
-83.77566122531067
 30
0.0
 11
6.604398850070538
 21
-88.69962286807777
 31
0.0
  0
ELLIPSE
  5
102BB
330
1F
100
AcDbEntity
  8
AM_0
100
AcDbEllipse
 10
7.042828630799022
 20
-86.94769444923571
 30
0.0
 11
-1.699563806452113
 21
-1.710974410997861
 31
0.0
210
0.0
220
0.0
230
1.0
 40
0.5003385661205673
 41
0.0736205013566089
 42
0.8717163572025799
  0
ELLIPSE
  5
102BC
330
1F
100
AcDbEntity
  8
AM_0
100
AcDbEllipse
 10
19.42036697080187
 20
-90.51295097957092
 30
0.0
 11
-9.685807458332061
 21
7.510115415182043
 31
0.0
210
0.0
220
0.0
230
1.0
 40
0.6727728367306027
 41
5.696707041429752
 42
6.394838742227489
  0
LINE
  5
102BD
330
1F
100
AcDbEntity
  8
AM_0
100
AcDbLine
 10
8.57894103517549
 20
-83.78493871983915
 30
0.0
 11
9.231901907104202
 21
-83.77566122531067
 31
0.0
  0
LINE
  5
102BE
330
1F
100
AcDbEntity
  8
AM_0
100
AcDbLine
 10
21.21177734108608
 20
-79.10308536596972
 30
0.0
 11
24.71598261502686
 21
-79.05329640210789
 31
0.0
  0
LINE
  5
102BF
330
1F
100
AcDbEntity
  8
AM_0
100
AcDbLine
 10
24.71598261502686
 20
-79.05329640210789
 30
0.0
 11
21.00116577607207
 21
-79.77060043787753
 31
0.0
  0
LINE
  5
102C0
330
1F
100
AcDbEntity
  8
AM_0
100
AcDbLine
 10
21.00116577607207
 20
-79.77060043787753
 30
0.0
 11
19.88169224752994
 21
-79.91451948320943
 31
0.0
  0
LINE
  5
102C1
330
1F
100
AcDbEntity
  8
AM_0
100
AcDbLine
 10
20.84186357315855
 20
-79.73267098270173
 30
0.0
 11
20.20729439577315
 21
-79.85520166231439
 31
0.0
  0
LINE
  5
102C2
330
1F
100
AcDbEntity
  8
AM_0
100
AcDbLine
 10
17.2650937297758
 20
-80.25090828659853
 30
0.0
 11
14.14937508089111
 21
-80.65146376382739
 31
0.0
  0
LINE
  5
102C3
330
1F
100
AcDbEntity
  8
AM_0
100
AcDbLine
 10
14.14937508089111
 20
-80.65146376382737
 30
0.0
 11
11.41321629315507
 21
-80.69034005683909
 31
0.0
  0
ARC
  5
102C4
330
1F
100
AcDbEntity
  8
AM_0
100
AcDbCircle
 10
16.48197389920819
 20
-63.814621622885
 30
0.0
 40
16.45493226849615
100
AcDbArc
 50
272.7278396389896
 51
281.9236378796873
  0
LINE
  5
102C5
330
1F
100
AcDbEntity
  8
AM_0
100
AcDbLine
 10
5.410835671495306
 20
-88.71658142767092
 30
0.0
 11
8.57894103517549
 21
-83.78493871983915
 31
0.0
  0
SPLINE
  5
102C6
330
1F
100
AcDbEntity
  8
AM_0
100
AcDbSpline
210
0.0
220
0.0
230
1.0
 70
     8
 71
     3
 72
    14
 73
    10
 74
     0
 42
0.0000000001
 43
0.0000000001
 40
-2.647855154292468
 40
-2.647855154292468
 40
-2.647855154292468
 40
-2.647855154292468
 40
-2.638080451239741
 40
-2.638080451239741
 40
-2.201983172992293
 40
-2.201983172992293
 40
-1.765885894744844
 40
-1.765885894744844
 40
-1.717671851544119
 40
-1.717671851544119
 40
-1.717671851544119
 40
-1.717671851544119
 10
5.185864471905575
 20
-88.6704733102855
 30
0.0
 10
5.185778313365063
 20
-88.66948800450399
 30
0.0
 10
5.185700835757416
 20
-88.66852271725531
 30
0.0
 10
5.182558022377407
 20
-88.62539116673258
 30
0.0
 10
5.196908498729158
 20
-88.61046218682628
 30
0.0
 10
5.267398610130158
 20
-88.62468366915977
 30
0.0
 10
5.323647792871384
 20
-88.65472926645407
 30
0.0
 10
5.395839371841248
 20
-88.70563987703099
 30
0.0
 10
5.403237785093097
 20
-88.71097510397061
 30
0.0
 10
5.410835671495306
 20
-88.71658142767092
 30
0.0
  0
LINE
  5
102C7
330
1F
100
AcDbEntity
  8
AM_0
100
AcDbLine
 10
11.41321629315507
 20
-80.69034005683909
 30
0.0
 11
12.28092322359476
 21
-80.32172510976204
 31
0.0
  0
SPLINE
  5
102C8
330
1F
100
AcDbEntity
  8
AM_0
100
AcDbSpline
210
0.0
220
0.0
230
1.0
 70
     8
 71
     3
 72
    16
 73
    12
 74
     0
 42
0.0000000001
 43
0.0000000001
 40
9.28033164244842
 40
9.28033164244842
 40
9.28033164244842
 40
9.28033164244842
 40
9.31735987719081
 40
9.31735987719081
 40
10.01296202430315
 40
10.01296202430315
 40
10.70856417141549
 40
10.70856417141549
 40
11.40416631852782
 40
11.40416631852782
 40
11.79981242630603
 40
11.79981242630603
 40
11.79981242630603
 40
11.79981242630603
 10
12.28092322359476
 20
-80.32172510976204
 30
0.0
 10
12.27996507119678
 20
-80.3206856018308
 30
0.0
 10
12.27906339012634
 20
-80.31966606128253
 30
0.0
 10
12.2623425858327
 20
-80.29985407073957
 30
0.0
 10
12.26671322151981
 20
-80.28705955633572
 30
0.0
 10
12.31401972028289
 20
-80.25517379704991
 30
0.0
 10
12.35695095196888
 20
-80.23587223279264
 30
0.0
 10
12.47314147156385
 20
-80.18651275353895
 30
0.0
 10
12.55036146733335
 20
-80.15477227030755
 30
0.0
 10
12.70115121462629
 20
-80.09996189977539
 30
0.0
 10
12.76193888219348
 20
-80.07912267663096
 30
0.0
 10
12.82825434277504
 20
-80.05938760774302
 30
0.0
  0
ELLIPSE
  5
102C9
330
1F
100
AcDbEntity
  8
AM_0
100
AcDbEllipse
 10
7.878091111839922
 20
-90.67694763807123
 30
0.0
 11
4.113116173216977
 21
10.01118399595068
 31
0.0
210
0.0
220
0.0
230
1.0
 40
0.2306197133827398
 41
0.2120333920991577
 42
0.9101650928968941
  0
LINE
  5
102CA
330
1F
100
AcDbEntity
  8
AM_0
100
AcDbLine
 10
26.34046869498468
 20
-80.41121596534032
 30
0.0
 11
26.8241215464069
 21
-85.94135695849451
 31
0.0
  0
LINE
  5
102CB
330
1F
100
AcDbEntity
  8
AM_0
100
AcDbLine
 10
21.20735266753979
 20
-79.09345372755757
 30
0.0
 11
24.82486224887043
 21
-79.0420548968001
 31
0.0
  0
LINE
  5
102CC
330
1F
100
AcDbEntity
  8
AM_0
100
AcDbLine
 10
5.185864471905461
 20
-88.67047331028556
 30
0.0
 11
5.22733121556746
 21
-89.14460871195456
 31
0.0
  0
LINE
  5
102CD
330
1F
100
AcDbEntity
  8
AM_0
100
AcDbLine
 10
9.190557952225845
 20
-88.54955709495891
 30
0.0
 11
9.204607050835875
 21
-88.71019606547509
 31
0.0
  0
LINE
  5
102CE
330
1F
100
AcDbEntity
  8
AM_0
100
AcDbLine
 10
5.191482271215818
 20
-88.62776894205172
 30
0.0
 11
8.211969811214772
 21
-83.92591605499092
 31
0.0
  0
LINE
  5
102CF
330
1F
100
AcDbEntity
  8
AM_0
100
AcDbLine
 10
11.10901319079062
 20
-80.76235260548231
 30
0.0
 11
12.82942762138964
 21
-80.03149469477685
 31
0.0
  0
ARC
  5
102D0
330
1F
100
AcDbEntity
  8
AM_0
100
AcDbCircle
 10
15.6298859758727
 20
-87.81062647414626
 30
0.0
 40
8.373556906511572
100
AcDbArc
 50
122.6767455965069
 51
152.3592659075859
  0
ELLIPSE
  5
102D1
330
1F
100
AcDbEntity
  8
AM_0
100
AcDbEllipse
 10
24.84617261817152
 20
-80.54190351188106
 30
0.0
 11
-0.2843859407894468
 21
1.472794838625293
 31
0.0
210
0.0
220
0.0
230
0.9999999999999999
 40
0.7630912079600898
 41
4.577089073030175
 42
6.147885399825097
  0
ELLIPSE
  5
102D2
330
1F
100
AcDbEntity
  8
AM_0
100
AcDbEllipse
 10
24.84617261817152
 20
-80.54190351188106
 30
0.0
 11
-0.02131036930109088
 21
1.499848615080953
 31
0.0
210
0.0
220
0.0
230
0.9999999999999999
 40
0.6403843057753463
 41
0.0000000000000384
 42
0.1137481770315705
  0
ELLIPSE
  5
102D3
330
1F
100
AcDbEntity
  8
AM_0
100
AcDbEllipse
 10
24.84617261817152
 20
-80.54190351188106
 30
0.0
 11
1.494296076813146
 21
0.1306875465407514
 31
0.0
210
0.0
220
0.0
230
0.9999999999999999
 40
0.0871765407127359
 41
5.584996122170084
 42
6.283185307179577
  0
ELLIPSE
  5
102D4
330
1F
100
AcDbEntity
  8
AM_0
100
AcDbEllipse
 10
21.7623122600022
 20
-81.20606400201046
 30
0.0
 11
-0.8297613375487311
 21
0.5581183769679559
 31
0.0
210
0.0
220
0.0
230
1.0
 40
0.5642610771933507
 41
4.029356993460722
 42
4.697641890832689
  0
ELLIPSE
  5
102D5
330
1F
100
AcDbEntity
  8
AM_0
100
AcDbEllipse
 10
21.08795911150185
 20
-80.76300517772631
 30
0.0
 11
-0.1275101806332104
 21
0.9918372617697338
 31
0.0
210
0.0
220
0.0
230
1.0
 40
0.4209574018406319
 41
5.139732449436833
 42
6.186930000633454
  0
ELLIPSE
  5
102D6
330
1F
100
AcDbEntity
  8
AM_0
100
AcDbEllipse
 10
14.23616841632088
 20
-81.64386850367617
 30
0.0
 11
-0.1275101806332126
 21
0.9918372617697353
 31
0.0
210
0.0
220
0.0
230
1.0
 40
0.4209574018406326
 41
5.139732449436834
 42
6.186930000633454
  0
ELLIPSE
  5
102D7
330
1F
100
AcDbEntity
  8
AM_0
100
AcDbEllipse
 10
9.706282664122227
 20
-84.4571261589353
 30
0.0
 11
-0.8822494934502543
 21
0.4707821484580518
 31
0.0
210
0.0
220
0.0
230
1.0
 40
0.5612301604369173
 41
4.640241845008359
 42
5.54448411811598
  0
ELLIPSE
  5
102D8
330
1F
100
AcDbEntity
  8
AM_0
100
AcDbEllipse
 10
17.38596647692509
 20
-79.78177356722046
 30
0.0
 11
4.48288823043944
 21
0.3920626396222136
 31
0.0
210
0.0
220
0.0
230
0.9999999999999999
 40
0.0871765407127359
 41
5.584996122170139
 42
6.80081860870196
  0
ELLIPSE
  5
102D9
330
1F
100
AcDbEntity
  8
AM_0
100
AcDbEllipse
 10
16.75139729953958
 20
-79.90430424683311
 30
0.0
 11
4.48288823043944
 21
0.3920626396222136
 31
0.0
210
0.0
220
0.0
230
0.9999999999999999
 40
0.0871765407127359
 41
5.477723313147974
 42
5.584996122170157
  0
ELLIPSE
  5
102DA
330
1F
100
AcDbEntity
  8
AM_0
100
AcDbEllipse
 10
16.75139729953958
 20
-79.90430424683311
 30
0.0
 11
4.48288823043944
 21
0.3920626396222136
 31
0.0
210
0.0
220
0.0
230
0.9999999999999999
 40
0.0871765407127359
 41
3.208795285555204
 42
4.819604305195174
  0
ELLIPSE
  5
102DB
330
1F
100
AcDbEntity
  8
AM_0
100
AcDbEllipse
 10
9.053321792193628
 20
-84.46640365346377
 30
0.0
 11
-0.8413519809788634
 21
0.5404875984728402
 31
0.0
210
0.0
220
0.0
230
1.0
 40
0.4943805482517096
 41
5.58723459894764
 42
6.283185307179569
  0
ELLIPSE
  5
102DC
330
1F
100
AcDbEntity
  8
AM_0
100
AcDbEllipse
 10
11.50000962858485
 20
-81.68274479668787
 30
0.0
 11
-0.3909964377942957
 21
0.9203921912055599
 31
0.0
210
0.0
220
0.0
230
1.0
 40
0.9622336061462342
 41
5.957205648353638
 42
6.283185307179572
  0
ARC
  5
102DD
330
1F
100
AcDbEntity
  8
AM_0
100
AcDbCircle
 10
24.84617261817147
 20
-80.54190351188106
 30
0.0
 40
1.5
100
AcDbArc
 50
4.99823362883169
 51
90.81402353203741
  0
LINE
  5
102DE
330
1F
100
AcDbEntity
  8
AM_0
100
AcDbLine
 10
19.18982485376023
 20
-77.99264123666995
 30
0.0
 11
17.72435011222854
 21
-78.27561372010334
 31
0.0
  0
LINE
  5
102DF
330
1F
100
AcDbEntity
  8
AM_0
100
AcDbLine
 10
17.72435011222865
 20
-78.27561372010334
 30
0.0
 11
15.45565847647004
 21
-78.43892333271725
 31
0.0
  0
LINE
  5
102E0
330
1F
100
AcDbEntity
  8
AM_0
100
AcDbLine
 10
15.45565847647004
 20
-78.43892333271725
 30
0.0
 11
14.65244158224323
 21
-78.31926046189776
 31
0.0
  0
LINE
  5
102E1
330
1F
100
AcDbEntity
  8
AM_0
100
AcDbLine
 10
14.65244158224323
 20
-78.31926046189776
 30
0.0
 11
16.11791632377503
 21
-78.03628797846437
 31
0.0
  0
LINE
  5
102E2
330
1F
100
AcDbEntity
  8
AM_0
100
AcDbLine
 10
16.11791632377503
 20
-78.03628797846437
 30
0.0
 11
16.14876634821962
 21
-78.38903062087795
 31
0.0
  0
LINE
  5
102E3
330
1F
100
AcDbEntity
  8
AM_0
100
AcDbLine
 10
16.11791632377503
 20
-78.03628797846437
 30
0.0
 11
18.38660795953354
 21
-77.87297836585046
 31
0.0
  0
LINE
  5
102E4
330
1F
100
AcDbEntity
  8
AM_0
100
AcDbLine
 10
18.38660795953354
 20
-77.87297836585046
 30
0.0
 11
18.41023859092604
 21
-78.14317365772973
 31
0.0
  0
LINE
  5
102E5
330
1F
100
AcDbEntity
  8
AM_0
100
AcDbLine
 10
18.38660795953342
 20
-77.87297836585046
 30
0.0
 11
19.18982485376023
 21
-77.99264123666995
 31
0.0
  0
LINE
  5
102E6
330
1F
100
AcDbEntity
  8
AM_0
100
AcDbLine
 10
20.18119019930475
 20
-86.73741394223924
 30
0.0
 11
20.1601463639704
 21
-86.49679636685704
 31
0.0
  0
ARC
  5
102E7
330
1F
100
AcDbEntity
  8
AM_0
100
AcDbCircle
 10
17.86801928280255
 20
-88.9827524020983
 30
0.0
 40
11.09735590587939
100
AcDbArc
 50
77.80535091515489
 51
112.1911163425083
  0
LINE
  5
102E8
330
1F
100
AcDbEntity
  8
AM_0
100
AcDbLine
 10
12.83173697964367
 20
-80.17780565856899
 30
0.0
 11
12.85442049743051
 21
-80.43717154716654
 31
0.0
  0
LINE
  5
102E9
330
1F
100
AcDbEntity
  8
AM_0
100
AcDbLine
 10
21.29941474825159
 20
-79.43724289483805
 30
0.0
 11
21.31628024088502
 21
-79.63008483075913
 31
0.0
  0
LINE
  5
102EA
330
1F
100
AcDbEntity
  8
AM_0
100
AcDbLine
 10
13.67657873121152
 20
-78.70738699719738
 30
0.0
 11
13.07463720723149
 21
-79.41915542550498
 31
0.0
  0
LINE
  5
102EB
330
1F
100
AcDbEntity
  8
AM_0
100
AcDbLine
 10
20.21215276247915
 20
-78.13580138666467
 30
0.0
 11
20.92850995667789
 21
-78.73227457478532
 31
0.0
  0
ARC
  5
102EC
330
1F
100
AcDbEntity
  8
AM_0
100
AcDbCircle
 10
13.86269190502657
 20
-80.08968051285223
 30
0.0
 40
1.034714501434696
100
AcDbArc
 50
139.606832681405
 51
184.8857178850612
  0
ARC
  5
102ED
330
1F
100
AcDbEntity
  8
AM_0
100
AcDbCircle
 10
20.2688138885722
 20
-79.52941646755261
 30
0.0
 40
1.034714501434356
100
AcDbArc
 50
5.110749372588845
 51
50.38963457625567
  0
ELLIPSE
  5
102EE
330
1F
100
AcDbEntity
  8
AM_0
100
AcDbEllipse
 10
16.92113321800184
 20
-78.15595084928384
 30
0.0
 11
2.575953686148351
 21
0.2252867236078499
 31
0.0
210
0.0
220
0.0
230
1.0
 40
0.0871765407127359
 41
2.354585081577815
 42
8.637770388757399
  0
ELLIPSE
  5
102EF
330
1F
100
AcDbEntity
  8
AM_0
100
AcDbEllipse
 10
16.94655439738733
 20
-78.44661946790387
 30
0.0
 11
3.280371612158369
 21
0.2868934238582718
 31
0.0
210
0.0
220
0.0
230
1.0
 40
0.0871765407127359
 41
3.053970875350577
 42
6.370807085418783
  0
ELLIPSE
  5
102F0
330
1F
100
AcDbEntity
  8
AM_0
100
AcDbEllipse
 10
17.00420370790334
 20
-79.10578815547478
 30
0.0
 11
3.942059425771839
 21
0.3447630510886576
 31
0.0
210
0.0
220
0.0
230
1.0
 40
0.0871765407127359
 41
3.053970875350637
 42
6.370807085418834
  0
ELLIPSE
  5
102F1
330
1F
100
AcDbEntity
  8
AM_0
100
AcDbEllipse
 10
17.06557586394752
 20
-79.80752427670353
 30
0.0
 11
4.233838884303913
 21
0.370281381865462
 31
0.0
210
0.0
220
0.0
230
1.0
 40
0.0871765407127359
 41
3.141592653589787
 42
6.283185307179584
  0
LINE
  5
102F2
330
1F
100
AcDbEntity
  8
AM_0
100
AcDbLine
 10
29.7869924633178
 20
-83.57374759045609
 30
0.0
 11
30.26556929835249
 21
-83.81363645753044
 31
0.0
  0
LINE
  5
102F3
330
1F
100
AcDbEntity
  8
AM_0
100
AcDbLine
 10
29.56819565641592
 20
-81.20913900152573
 30
0.0
 11
29.99463024663669
 21
-80.88550959025201
 31
0.0
  0
LINE
  5
102F4
330
1F
100
AcDbEntity
  8
AM_0
100
AcDbLine
 10
41.95590882773553
 20
-79.74892540193656
 30
0.0
 11
41.40260681826561
 21
-79.8001223372311
 31
0.0
  0
LINE
  5
102F5
330
1F
100
AcDbEntity
  8
AM_0
100
AcDbLine
 10
34.04386521581506
 20
-80.48102537250244
 30
0.0
 11
30.08778824642343
 21
-80.84708046204776
 31
0.0
  0
LINE
  5
102F6
330
1F
100
AcDbEntity
  8
AM_0
100
AcDbLine
 10
34.39118542180944
 20
-83.46170317585143
 30
0.0
 11
30.36419695455322
 21
-83.83431969352398
 31
0.0
  0
ELLIPSE
  5
102F7
330
1F
100
AcDbEntity
  8
AM_0
100
AcDbEllipse
 10
29.75503230450875
 20
-82.3842779491597
 30
0.0
 11
-0.1116069137240363
 21
1.206172386667207
 31
0.0
210
0.0
220
0.0
230
0.9999999999999999
 40
0.3243292693377112
 41
4.682387855753897
 42
10.96557316293348
  0
ELLIPSE
  5
102F8
330
1F
100
AcDbEntity
  8
AM_0
100
AcDbEllipse
 10
30.22599260048833
 20
-82.34070007778587
 30
0.0
 11
-0.1382043540648766
 21
1.493619615738291
 31
0.0
210
0.0
220
0.0
230
1.0
 40
0.3243292693377111
 41
2.942324482435661
 42
6.48245347833374
  0
LINE
  5
102F9
330
1F
100
AcDbEntity
  8
AM_0
100
AcDbLine
 10
-91.84975839202724
 20
1.826219542438935
 30
0.0
 11
-96.5679671319453
 21
2.24068462890088
 31
0.0
  0
LINE
  5
102FA
330
1F
100
AcDbEntity
  8
AM_0
100
AcDbLine
 10
-95.59607709093456
 20
12.48905867044232
 30
0.0
 11
-96.5679671319453
 21
2.240684628900908
 31
0.0
  0
LINE
  5
102FB
330
1F
100
AcDbEntity
  8
AM_0
100
AcDbLine
 10
-90.87786835101639
 20
12.0745935839804
 30
0.0
 11
-95.59607709093456
 21
12.48905867044232
 31
0.0
  0
LINE
  5
102FC
330
1F
100
AcDbEntity
  8
AM_0
100
AcDbLine
 10
-90.7291971746958
 20
13.1648355621013
 30
0.0
 11
-94.13886620262855
 21
13.46435363058194
 31
0.0
  0
LINE
  5
102FD
330
1F
100
AcDbEntity
  8
AM_0
100
AcDbLine
 10
-91.93374177151333
 20
0.5330694432310565
 30
0.0
 11
-96.57791239791158
 21
0.9410307451397557
 31
0.0
  0
ELLIPSE
  5
102FE
330
1F
100
AcDbEntity
  8
AM_0
100
AcDbEllipse
 10
-96.47290428394803
 20
2.136427455860456
 30
0.0
 11
0.1050081139635431
 21
1.195396710720679
 31
0.0
210
0.0
220
0.0
230
1.0
 40
0.0867933354297821
 41
1.491096483166965
 42
3.141592653589787
  0
ELLIPSE
  5
102FF
330
1F
100
AcDbEntity
  8
AM_0
100
AcDbEllipse
 10
-95.50101424293729
 20
12.38480149740173
 30
0.0
 11
0.1050081139635431
 21
1.195396710720679
 31
0.0
210
0.0
220
0.0
230
1.0
 40
0.0867933354297821
 41
0.1592113596232343
 42
1.49109648316687
  0
LINE
  5
10300
330
1F
100
AcDbEntity
  8
AM_0
100
AcDbLine
 10
-86.11381194183952
 20
0.9809986186197079
 30
0.0
 11
-87.17734318484185
 21
0.0030286602362253
 31
0.0
  0
LINE
  5
10301
330
1F
100
AcDbEntity
  8
AM_0
100
AcDbLine
 10
-87.17757717869398
 20
0.866459084656583
 30
0.0
 11
-86.11681223717784
 21
12.05200007394961
 31
0.0
  0
LINE
  5
10302
330
1F
100
AcDbEntity
  8
AM_0
100
AcDbLine
 10
-87.17757717869398
 20
0.866459084656583
 30
0.0
 11
-91.90142374037424
 21
1.28141941844919
 31
0.0
  0
LINE
  5
10303
330
1F
100
AcDbEntity
  8
AM_0
100
AcDbLine
 10
-90.8406587988581
 20
12.46696040774222
 30
0.0
 11
-91.90142374037424
 21
1.28141941844919
 31
0.0
  0
LINE
  5
10304
330
1F
100
AcDbEntity
  8
AM_0
100
AcDbLine
 10
-86.11681223717784
 20
12.05200007394961
 30
0.0
 11
-90.8406587988581
 21
12.46696040774225
 31
0.0
  0
LINE
  5
10305
330
1F
100
AcDbEntity
  8
AM_0
100
AcDbLine
 10
-85.9902957670335
 20
12.77642093431581
 30
0.0
 11
-85.95537247477768
 21
12.80853464126963
 31
0.0
  0
LINE
  5
10306
330
1F
100
AcDbEntity
  8
AM_0
100
AcDbLine
 10
-85.13513593399631
 20
13.56278300109031
 30
0.0
 11
-84.92676452403106
 21
13.75439089269929
 31
0.0
  0
LINE
  5
10307
330
1F
100
AcDbEntity
  8
AM_0
100
AcDbLine
 10
-85.9902957670335
 20
12.77642093431587
 30
0.0
 11
-90.5217332117499
 21
13.17447933229039
 31
0.0
  0
LINE
  5
10308
330
1F
100
AcDbEntity
  8
AM_0
100
AcDbLine
 10
-84.92676452403106
 20
13.75439089269929
 30
0.0
 11
-85.10423148638739
 21
13.76998025382162
 31
0.0
  0
LINE
  5
10309
330
1F
100
AcDbEntity
  8
AM_0
100
AcDbLine
 10
-84.92653053017904
 20
12.89096046827896
 30
0.0
 11
-85.04510144700106
 21
11.64065533625336
 31
0.0
  0
LINE
  5
1030A
330
1F
100
AcDbEntity
  8
AM_0
100
AcDbLine
 10
-85.63358460086266
 20
5.435225479551207
 30
0.0
 11
-85.98729547169518
 21
1.705419478985846
 31
0.0
  0
LINE
  5
1030B
330
1F
100
AcDbEntity
  8
AM_0
100
AcDbLine
 10
-87.18420735600483
 20
0.0000231621490343
 30
0.0
 11
-91.90805391768498
 21
0.4149834959416694
 31
0.0
  0
LINE
  5
1030C
330
1F
100
AcDbEntity
  8
AM_0
100
AcDbLine
 10
-84.91990035286818
 20
13.75739639078648
 30
0.0
 11
-85.10367767044926
 21
13.77354007709195
 31
0.0
  0
ELLIPSE
  5
1030D
330
1F
100
AcDbEntity
  8
AM_0
100
AcDbEllipse
 10
-86.05067070369336
 20
1.774924261012984
 30
0.0
 11
0.07000540930903594
 21
0.7969311404804527
 31
0.0
210
0.0
220
0.0
230
1.0
 40
0.086793335429782
 41
3.23642573516122
 42
4.632689136756647
  0
ELLIPSE
  5
1030E
330
1F
100
AcDbEntity
  8
AM_0
100
AcDbEllipse
 10
-87.1142019466958
 20
0.7969543026295014
 30
0.0
 11
0.07000540930903594
 21
0.7969311404804527
 31
0.0
210
0.0
220
0.0
230
1.0
 40
0.086793335429782
 41
1.491096483166871
 42
3.236425735161217
  0
ELLIPSE
  5
1030F
330
1F
100
AcDbEntity
  8
AM_0
100
AcDbEllipse
 10
-91.83804850837595
 20
1.211914636422108
 30
0.0
 11
0.07000540930902878
 21
0.7969311404804531
 31
0.0
210
0.0
220
0.0
230
1.0
 40
0.0867933354297821
 41
1.491096483166818
 42
3.141592653589812
  0
ELLIPSE
  5
10310
330
1F
100
AcDbEntity
  8
AM_0
100
AcDbEllipse
 10
-86.05343700517955
 20
11.98249529192253
 30
0.0
 11
0.07000540930903594
 21
0.7969311404804527
 31
0.0
210
0.0
220
0.0
230
1.0
 40
0.086793335429782
 41
0.0948330815714964
 42
1.491096483166889
  0
ELLIPSE
  5
10311
330
1F
100
AcDbEntity
  8
AM_0
100
AcDbEllipse
 10
-90.77728356685981
 20
12.39745562571517
 30
0.0
 11
0.07000540930902878
 21
0.7969311404804531
 31
0.0
210
0.0
220
0.0
230
1.0
 40
0.0867933354297821
 41
0.1127743276500883
 42
1.491096483166835
  0
ELLIPSE
  5
10312
330
1F
100
AcDbEntity
  8
AM_0
100
AcDbEllipse
 10
-84.98990576217722
 20
12.96046525030604
 30
0.0
 11
0.07000540930903594
 21
0.7969311404804527
 31
0.0
210
0.0
220
0.0
230
1.0
 40
0.086793335429782
 41
4.632689136756647
 42
6.378018388751012
  0
ELLIPSE
  5
10313
330
1F
100
AcDbEntity
  8
AM_0
100
AcDbEllipse
 10
-86.05205385443645
 20
6.878709776467701
 30
0.0
 11
0.2257674450216407
 21
2.570102928049459
 31
0.0
210
0.0
220
0.0
230
1.0
 40
0.086793335429782
 41
6.081126850367224
 42
10.34970382031453
  0
LINE
  5
10314
330
1F
100
AcDbEntity
  8
AM_0
100
AcDbLine
 10
-83.6470034375721
 20
23.92124751967276
 30
0.0
 11
-83.40896255172783
 21
23.90033711876188
 31
0.0
  0
LINE
  5
10315
330
1F
100
AcDbEntity
  8
AM_0
100
AcDbLine
 10
-83.16005930156138
 20
30.25052066589893
 30
0.0
 11
-82.93620939424926
 21
30.38622667449207
 31
0.0
  0
LINE
  5
10316
330
1F
100
AcDbEntity
  8
AM_0
100
AcDbLine
 10
-83.23130820016269
 20
29.19439799783675
 30
0.0
 11
-83.23983963748032
 21
29.69509045177759
 31
0.0
  0
LINE
  5
10317
330
1F
100
AcDbEntity
  8
AM_0
100
AcDbLine
 10
-85.19276776756891
 20
20.00000000000006
 30
0.0
 11
-82.75371505316804
 21
37.63118743459737
 31
0.0
  0
LINE
  5
10318
330
1F
100
AcDbEntity
  8
AM_0
100
AcDbLine
 10
-84.41906295634868
 20
3.4060043480508
 30
0.0
 11
-84.09299281333
 21
6.351074706409889
 31
0.0
  0
LINE
  5
10319
330
1F
100
AcDbEntity
  8
AM_0
100
AcDbLine
 10
-85.54723708540081
 20
5.501591775628782
 30
0.0
 11
-85.8727311981217
 21
2.069325495680857
 31
0.0
  0
LINE
  5
1031A
330
1F
100
AcDbEntity
  8
AM_0
100
AcDbLine
 10
-85.87536822571195
 20
12.80212316127597
 30
0.0
 11
-85.14807763001801
 21
13.47090309464906
 31
0.0
  0
LINE
  5
1031B
330
1F
100
AcDbEntity
  8
AM_0
100
AcDbLine
 10
-82.93620939424926
 20
30.38622667449209
 30
0.0
 11
-82.9154286890452
 21
29.16664996121867
 31
0.0
  0
LINE
  5
1031C
330
1F
100
AcDbEntity
  8
AM_0
100
AcDbLine
 10
-83.31786018642725
 20
24.4677004452775
 30
0.0
 11
-83.37241861367028
 21
27.66962197415415
 31
0.0
  0
LINE
  5
1031D
330
1F
100
AcDbEntity
  8
AM_0
100
AcDbLine
 10
-83.40896255172783
 20
23.90033711876185
 30
0.0
 11
-83.31786018642725
 21
24.46770044527747
 31
0.0
  0
ARC
  5
1031E
330
1F
100
AcDbEntity
  8
AM_0
100
AcDbCircle
 10
-87.25371505316804
 20
27.00000000000006
 30
0.0
 40
20.25
100
AcDbArc
 50
77.16041159309559
 51
180.0
  0
LINE
  5
1031F
330
1F
100
AcDbEntity
  8
AM_0
100
AcDbLine
 10
-85.9527316023802
 20
2.069888139129773
 30
0.0
 11
-85.87273119813261
 21
2.069325495669176
 31
0.0
  0
LINE
  5
10320
330
1F
100
AcDbEntity
  8
AM_0
100
AcDbLine
 10
-85.8727311981217
 20
2.069325495680857
 30
0.0
 11
-84.41910324812437
 21
3.406008809046114
 31
0.0
  0
LINE
  5
10321
330
1F
100
AcDbEntity
  8
AM_0
100
AcDbLine
 10
-85.19276776756891
 20
20.00000000000006
 30
0.0
 11
-107.5037150531681
 21
20.00000000000006
 31
0.0
  0
LINE
  5
10322
330
1F
100
AcDbEntity
  8
AM_0
100
AcDbLine
 10
-85.87536822571195
 20
12.802123161276
 30
0.0
 11
-85.19276776756891
 21
20.00000000000006
 31
0.0
  0
LINE
  5
10323
330
1F
100
AcDbEntity
  8
AM_0
100
AcDbLine
 10
-95.47587793313261
 20
13.5715007380457
 30
0.0
 11
-85.87536822571195
 21
12.80212316127597
 31
0.0
  0
LINE
  5
10324
330
1F
100
AcDbEntity
  8
AM_0
100
AcDbLine
 10
-95.51766549448661
 20
13.1308597797393
 30
0.0
 11
-95.47587793313261
 21
13.5715007380457
 31
0.0
  0
LINE
  5
10325
330
1F
100
AcDbEntity
  8
AM_0
100
AcDbLine
 10
-96.56988952554735
 20
2.22025071455667
 30
0.0
 11
-106.70144050759
 21
2.22025071455667
 31
0.0
  0
LINE
  5
10326
330
1F
100
AcDbEntity
  8
AM_0
100
AcDbLine
 10
-107.5037150531681
 20
27.00000000000006
 30
0.0
 11
-107.5037150531681
 21
20.00000000000006
 31
0.0
  0
LINE
  5
10327
330
1F
100
AcDbEntity
  8
AM_0
100
AcDbLine
 10
-107.5037150531681
 20
20.00000000000006
 30
0.0
 11
-107.5037150531681
 21
2.87143808678195
 31
0.0
  0
ARC
  5
10328
330
1F
100
AcDbEntity
  8
AM_0
100
AcDbCircle
 10
-87.25371505316804
 20
27.00000000000006
 30
0.0
 40
31.5
100
AcDbArc
 50
229.9947991151383
 51
231.8743497309686
  0
LINE
  5
10329
330
1F
100
AcDbEntity
  8
AM_0
100
AcDbLine
 10
-106.7038197830716
 20
2.217036661167469
 30
0.0
 11
-105.2440408358934
 21
1.136402385053998
 31
0.0
  0
LINE
  5
1032A
330
1F
100
AcDbEntity
  8
AM_0
100
AcDbLine
 10
-82.75371505316804
 20
29.15244443116052
 30
0.0
 11
-82.75371505316804
 21
37.63118743459739
 31
0.0
  0
LINE
  5
1032B
330
1F
100
AcDbEntity
  8
AM_0
100
AcDbLine
 10
-82.75371505316804
 20
37.63118743459739
 30
0.0
 11
-82.75371505316804
 21
46.74366987163234
 31
0.0
  0
LINE
  5
1032C
330
1F
100
AcDbEntity
  8
AM_0
100
AcDbLine
 10
-82.753714916869
 20
46.74367046880752
 30
0.0
 11
-82.74331511788336
 21
46.74129682150016
 31
0.0
  0
SPLINE
  5
1032E
330
1F
100
AcDbEntity
  8
AM_0
100
AcDbSpline
210
0.0
220
0.0
230
1.0
 70
     8
 71
     3
 72
    10
 73
     6
 74
     0
 42
0.0000000001
 43
0.0000000001
 40
-0.8129900621320929
 40
-0.8129900621320929
 40
-0.8129900621320929
 40
-0.8129900621320929
 40
-0.5005468289901207
 40
-0.5005468289901207
 40
0.0
 40
0.0
 40
0.0
 40
0.0
 10
-82.74331516057799
 20
46.74129663443932
 30
0.0
 10
-82.73748853812998
 20
46.67612665890033
 30
0.0
 10
-82.7286413147728
 20
46.62111846858306
 30
0.0
 10
-82.69484929337517
 20
46.50676945316087
 30
0.0
 10
-82.66363636254954
 20
46.46620375500919
 30
0.0
 10
-82.62111005784249
 20
46.45607799525089
 30
0.0
  0
LINE
  5
1032F
330
1F
100
AcDbEntity
  8
AM_0
100
AcDbLine
 10
-84.09354024642715
 20
6.35114128198029
 30
0.0
 11
-84.05720565518453
 21
6.64731083306441
 31
0.0
  0
ARC
  5
10330
330
1F
100
AcDbEntity
  8
AM_0
100
AcDbCircle
 10
-87.25371505316804
 20
27.00000000000006
 30
0.0
 40
20.00000000000001
100
AcDbArc
 50
312.2207749269701
 51
65.94779492656974
  0
ARC
  5
10331
330
1F
100
AcDbEntity
  8
AM_0
100
AcDbCircle
 10
-87.2541492601037
 20
26.99871885787718
 30
0.0
 40
20.00134687590887
100
AcDbArc
 50
65.94815485427363
 51
76.60656969000702
  0
ELLIPSE
  5
10332
330
1F
100
AcDbEntity
  8
AM_0
100
AcDbEllipse
 10
-79.19445570390673
 20
11.78203882570529
 30
0.0
 11
1.427238842351267
 21
-0.4623111561267245
 31
0.0
210
0.0
220
0.0
230
0.9999999999999999
 40
0.9336693152095097
 41
0.0473708278722889
 42
0.9217165746634151
  0
LINE
  5
10333
330
1F
100
AcDbEntity
  8
AM_0
100
AcDbLine
 10
-77.50437565242913
 20
14.28221748900154
 30
0.0
 11
-73.81393197017945
 21
12.18878024326779
 31
0.0
  0
ARC
  5
10334
330
1F
100
AcDbEntity
  8
AM_0
100
AcDbCircle
 10
-87.25371505316804
 20
27.00000000000006
 30
0.0
 40
20.00000000000001
100
AcDbArc
 50
282.2702170423066
 51
312.2207749269701
  0
LINE
  5
10335
330
1F
100
AcDbEntity
  8
AM_0
100
AcDbLine
 10
-105.2409467386671
 20
1.140582058132509
 30
0.0
 11
-96.61755702951069
 21
1.140582058132509
 31
0.0
  0
ELLIPSE
  5
10336
330
1F
100
AcDbEntity
  8
AM_0
100
AcDbEllipse
 10
-85.06234729600141
 20
12.08410507154707
 30
0.0
 11
0.2406435944998108
 21
2.739450795401554
 31
0.0
210
0.0
220
0.0
230
1.0
 40
0.0867933354297821
 41
5.609491085987257
 42
7.33081269846601
  0
ELLIPSE
  5
10337
330
1F
100
AcDbEntity
  8
AM_0
100
AcDbEllipse
 10
-83.15431400395977
 20
29.02792432432312
 30
0.0
 11
0.1557620357126049
 21
1.773171787569006
 31
0.0
210
0.0
220
0.0
230
1.0
 40
0.0867933354297821
 41
5.592620225353539
 42
8.734212878943332
  0
ELLIPSE
  5
10338
330
1F
100
AcDbEntity
  8
AM_0
100
AcDbEllipse
 10
-83.87983746602612
 20
19.9053334850428
 30
0.0
 11
0.3719037369542533
 21
4.233696683802403
 31
0.0
210
0.0
220
0.0
230
0.9999999999999998
 40
0.086793335429782
 41
5.953332945717069
 42
8.570944089485874
  0
LINE
  5
10339
330
1F
100
AcDbEntity
  8
AM_0
100
AcDbLine
 10
-82.83781809496298
 20
27.45241261956568
 30
0.0
 11
-84.12712233434417
 21
19.42294006160938
 31
0.0
  0
LINE
  5
1033A
330
1F
100
AcDbEntity
  8
AM_0
100
AcDbLine
 10
-83.37321687537718
 20
27.7458920331523
 30
0.0
 11
-83.07331774622043
 21
27.47309978893449
 31
0.0
  0
LINE
  5
1033B
330
1F
100
AcDbEntity
  8
AM_0
100
AcDbLine
 10
-83.33829088022679
 20
28.65715816024783
 30
0.0
 11
-77.89047932426973
 21
28.17860203608464
 31
0.0
  0
LINE
  5
1033C
330
1F
100
AcDbEntity
  8
AM_0
100
AcDbLine
 10
-83.07331774622043
 20
27.47309978893446
 30
0.0
 11
-82.83781809496298
 21
27.45241261956562
 31
0.0
  0
LINE
  5
1033D
330
1F
100
AcDbEntity
  8
AM_0
100
AcDbLine
 10
-83.59209671877539
 20
22.75494919242146
 30
0.0
 11
-83.90073197327735
 21
22.78206086646844
 31
0.0
  0
LINE
  5
1033E
330
1F
100
AcDbEntity
  8
AM_0
100
AcDbLine
 10
-83.07331774622043
 20
27.47309978893452
 30
0.0
 11
-83.05040615845604
 21
26.12846597467876
 31
0.0
  0
ELLIPSE
  5
1033F
330
1F
100
AcDbEntity
  8
AM_0
100
AcDbEllipse
 10
-83.48360444752137
 20
24.34725519311564
 30
0.0
 11
0.4404909090092605
 21
-0.515492282147779
 31
0.0
210
0.0
220
0.0
230
1.0
 40
0.3228276383904153
 41
1.563899957292617
 42
1.573207995867422
  0
LINE
  5
10340
330
1F
100
AcDbEntity
  8
AM_0
100
AcDbLine
 10
-83.40050193501537
 20
23.95302777752249
 30
0.0
 11
-83.39973035834004
 21
23.95295999934416
 31
0.0
  0
LINE
  5
10341
330
1F
100
AcDbEntity
  8
AM_0
100
AcDbLine
 10
-85.5667120140908
 20
11.37602762526922
 30
0.0
 11
-85.95958487797606
 21
7.82436554154549
 31
0.0
  0
LINE
  5
10342
330
1F
100
AcDbEntity
  8
AM_0
100
AcDbLine
 10
-85.00831283989618
 20
11.6593192313174
 30
0.0
 11
-85.5667120140908
 21
11.37602762526922
 31
0.0
  0
LINE
  5
10343
330
1F
100
AcDbEntity
  8
AM_0
100
AcDbLine
 10
-84.25331731775526
 20
18.4846543864378
 30
0.0
 11
-85.00831283989618
 21
11.6593192313174
 31
0.0
  0
LINE
  5
10344
330
1F
100
AcDbEntity
  8
AM_0
100
AcDbLine
 10
-85.92269425520016
 20
5.393212771825233
 30
0.0
 11
-85.81142847515451
 21
5.29845069128595
 31
0.0
  0
ELLIPSE
  5
10345
330
1F
100
AcDbEntity
  8
AM_0
100
AcDbEllipse
 10
-82.39844791915635
 20
7.006599139735272
 30
0.0
 11
-3.530643732846006
 21
0.9766237962806591
 31
0.0
210
0.0
220
0.0
230
1.0
 40
0.5236791545794375
 41
0.0841490386096735
 42
0.3381902035553322
  0
LINE
  5
10346
330
1F
100
AcDbEntity
  8
AM_0
100
AcDbLine
 10
-80.99875265504051
 20
9.177723101697779
 30
0.0
 11
-85.92271429780755
 21
5.393189238610944
 31
0.0
  0
ELLIPSE
  5
10347
330
1F
100
AcDbEntity
  8
AM_0
100
AcDbEllipse
 10
-84.17078587896555
 20
7.162287928901662
 30
0.0
 11
-1.779405219502374
 21
-1.743583796517883
 31
0.0
210
0.0
220
0.0
230
1.0
 40
0.3991127557554114
 41
5.522768094671519
 42
6.32086395051749
  0
ELLIPSE
  5
10348
330
1F
100
AcDbEntity
  8
AM_0
100
AcDbEllipse
 10
-87.73604240930075
 20
10.21051562595943
 30
0.0
 11
-9.806261425963662
 21
-4.113176000698852
 31
0.0
210
0.0
220
0.0
230
1.0
 40
0.3996266366188324
 41
2.149195307381119
 42
2.847327008178856
  0
LINE
  5
10349
330
1F
100
AcDbEntity
  8
AM_0
100
AcDbLine
 10
-81.00803014956892
 20
9.722200114065714
 30
0.0
 11
-80.99875265504051
 21
9.177723101697779
 31
0.0
  0
LINE
  5
1034A
330
1F
100
AcDbEntity
  8
AM_0
100
AcDbLine
 10
-76.38550468632371
 20
27.08726076635253
 30
0.0
 11
-76.32351307698826
 21
23.44910111676123
 31
0.0
  0
LINE
  5
1034B
330
1F
100
AcDbEntity
  8
AM_0
100
AcDbLine
 10
-77.17649826108158
 20
21.80697576172423
 30
0.0
 11
-77.05396758146895
 21
22.57006696968432
 31
0.0
  0
LINE
  5
1034C
330
1F
100
AcDbEntity
  8
AM_0
100
AcDbLine
 10
-77.47399971632825
 20
14.4681193270593
 30
0.0
 11
-77.87455519355711
 21
13.01027826869901
 31
0.0
  0
LINE
  5
1034D
330
1F
100
AcDbEntity
  8
AM_0
100
AcDbLine
 10
-77.87455519355711
 20
13.01027826869901
 30
0.0
 11
-77.91343148656887
 21
15.29184769522598
 31
0.0
  0
ARC
  5
1034E
330
1F
100
AcDbEntity
  8
AM_0
100
AcDbCircle
 10
-80.6777216930364
 20
15.7855380525578
 30
0.0
 40
3.46401885132527
100
AcDbArc
 50
337.646797072846
 51
348.0167538245536
  0
LINE
  5
1034F
330
1F
100
AcDbEntity
  8
AM_0
100
AcDbLine
 10
-77.89047932426973
 20
28.17860203608467
 30
0.0
 11
-78.56009565712355
 21
24.00839472210814
 31
0.0
  0
LINE
  5
10350
330
1F
100
AcDbEntity
  8
AM_0
100
AcDbLine
 10
-77.10280872209336
 20
22.62006606164243
 30
0.0
 11
-76.38550468632371
 21
27.08726076635253
 31
0.0
  0
LINE
  5
10351
330
1F
100
AcDbEntity
  8
AM_0
100
AcDbLine
 10
-78.56009565712355
 20
24.00839472210811
 30
0.0
 11
-84.12712233434417
 21
19.42294006160938
 31
0.0
  0
LINE
  5
10352
330
1F
100
AcDbEntity
  8
AM_0
100
AcDbLine
 10
-84.25331731775526
 20
18.4846543864378
 30
0.0
 11
-78.10639202832414
 21
23.54776057407185
 31
0.0
  0
ELLIPSE
  5
10353
330
1F
100
AcDbEntity
  8
AM_0
100
AcDbEllipse
 10
-84.11621064889556
 20
18.78255575583404
 30
0.0
 11
-0.1819070181508988
 21
-1.44187509577172
 31
0.0
210
0.0
220
0.0
230
1.0
 40
0.0695719566216693
 41
4.260978701415816
 42
4.929263598787809
  0
ELLIPSE
  5
10354
330
1F
100
AcDbEntity
  8
AM_0
100
AcDbEllipse
 10
-78.67511207415265
 20
22.2295910752199
 30
0.0
 11
1.022246376100314
 21
1.665537064215205
 31
0.0
210
0.0
220
0.0
230
1.0
 40
0.7205831156484758
 41
5.344882398031942
 42
6.915678724826838
  0
ELLIPSE
  5
10355
330
1F
100
AcDbEntity
  8
AM_0
100
AcDbEllipse
 10
-78.23232013080184
 20
22.40934123295892
 30
0.0
 11
0.3943404591368466
 21
1.22630181605869
 31
0.0
210
0.0
220
0.0
230
1.0
 40
0.3616046631491321
 41
5.225415990832127
 42
6.796212317627022
  0
LINE
  5
10356
330
1F
100
AcDbEntity
  8
AM_0
100
AcDbLine
 10
-81.24670313984274
 20
10.45923694992558
 30
0.0
 11
-85.89878913853551
 21
7.314466875767096
 31
0.0
  0
LINE
  5
10357
330
1F
100
AcDbEntity
  8
AM_0
100
AcDbLine
 10
-85.93967285740069
 20
6.388452111903007
 30
0.0
 11
-81.00803014956892
 21
9.722200114065743
 31
0.0
  0
ARC
  5
10358
330
1F
100
AcDbEntity
  8
AM_0
100
AcDbCircle
 10
-87.24182006403879
 20
6.909852039679322
 30
0.0
 40
1.402656491248188
100
AcDbArc
 50
338.1780705868918
 51
16.76597479250408
  0
LINE
  5
10359
330
1F
100
AcDbEntity
  8
AM_0
100
AcDbLine
 10
-77.91343148656887
 20
15.29184769522595
 30
0.0
 11
-77.54481653949182
 21
18.62421256787246
 31
0.0
  0
LINE
  5
1035A
330
1F
100
AcDbEntity
  8
AM_0
100
AcDbLine
 10
-77.65242151859133
 20
22.88699276009422
 30
0.0
 11
-78.46304428306684
 21
15.55877439367777
 31
0.0
  0
LINE
  5
1035B
330
1F
100
AcDbEntity
  8
AM_0
100
AcDbLine
 10
-77.23525157781324
 20
21.422751835691
 30
0.0
 11
-77.10280872209336
 21
22.62006606164243
 31
0.0
  0
ARC
  5
1035C
330
1F
100
AcDbEntity
  8
AM_0
100
AcDbCircle
 10
-58.17914206864879
 20
17.89843821505468
 30
0.0
 40
19.37926975202804
100
AcDbArc
 50
169.5218828074722
 51
177.8537099305172
  0
ELLIPSE
  5
1035D
330
1F
100
AcDbEntity
  8
AM_0
100
AcDbEllipse
 10
-87.90003906780106
 20
19.83514115222027
 30
0.0
 11
6.898768252012089
 21
-10.10833422395937
 31
0.0
210
0.0
220
0.0
230
1.0
 40
0.7238046603633633
 41
6.282261855978844
 42
6.98039355677658
  0
ELLIPSE
  5
1035E
330
1F
100
AcDbEntity
  8
AM_0
100
AcDbEllipse
 10
-87.45724712445025
 20
20.0148913099593
 30
0.0
 11
6.046363208613641
 21
-9.662468758927307
 31
0.0
210
0.0
220
0.0
230
1.0
 40
0.6977499369807474
 41
0.0246264051949761
 42
0.7227581059927124
  0
LINE
  5
1035F
330
1F
100
AcDbEntity
  8
AM_0
100
AcDbLine
 10
-77.74285165364239
 20
28.71227146582248
 30
0.0
 11
-83.29367540926427
 21
29.19987656653464
 31
0.0
  0
LINE
  5
10360
330
1F
100
AcDbEntity
  8
AM_0
100
AcDbLine
 10
-76.37432950140777
 20
27.24358078309024
 30
0.0
 11
-76.3095639892253
 21
23.4426264985751
 31
0.0
  0
LINE
  5
10361
330
1F
100
AcDbEntity
  8
AM_0
100
AcDbLine
 10
-83.9194690793359
 20
22.66870876097545
 30
0.0
 11
-83.61030528847931
 21
22.64155065832006
 31
0.0
  0
LINE
  5
10362
330
1F
100
AcDbEntity
  8
AM_0
100
AcDbLine
 10
-77.40541532743686
 20
14.64238838447994
 30
0.0
 11
-77.90269524016634
 21
12.83251405873071
 31
0.0
  0
LINE
  5
10363
330
1F
100
AcDbEntity
  8
AM_0
100
AcDbLine
 10
-81.07082340829601
 20
8.942142367868598
 30
0.0
 11
-85.81121933626349
 21
5.298696253663991
 31
0.0
  0
ARC
  5
10364
330
1F
100
AcDbEntity
  8
AM_0
100
AcDbCircle
 10
-85.64948578294508
 20
15.90595081231498
 30
0.0
 40
8.334193253817022
100
AcDbArc
 50
303.3246803505467
 51
338.3599514845909
  0
LINE
  5
10365
330
1F
100
AcDbEntity
  8
AM_0
100
AcDbLine
 10
-85.79495447740459
 20
9.312662660760452
 30
0.0
 11
-85.90858175623606
 21
9.322644105529292
 31
0.0
  0
LINE
  5
10366
330
1F
100
AcDbEntity
  8
AM_0
100
AcDbLine
 10
-85.81124941902675
 20
5.298690683189705
 30
0.0
 11
-86.36607850727745
 21
5.34742894355702
 31
0.0
  0
ELLIPSE
  5
10367
330
1F
100
AcDbEntity
  8
AM_0
100
AcDbEllipse
 10
-77.87411179609688
 20
27.21802557742166
 30
0.0
 11
0.131260142454429
 21
1.494245888400851
 31
0.0
210
0.0
220
0.0
230
1.0
 40
0.086793335429782
 41
-0.000000000000052
 42
0.8802312449688139
  0
ELLIPSE
  5
10368
330
1F
100
AcDbEntity
  8
AM_0
100
AcDbEllipse
 10
-77.87411179609688
 20
27.21802557742166
 30
0.0
 11
1.499782294689211
 21
0.02555520566860581
 31
0.0
210
0.0
220
0.0
230
1.0
 40
0.7679771324963387
 41
6.147253550818793
 42
6.283185307179535
  0
ELLIPSE
  5
10369
330
1F
100
AcDbEntity
  8
AM_0
100
AcDbEllipse
 10
-78.86695993340589
 20
13.09745480941174
 30
0.0
 11
0.9642646932396656
 21
-0.2649407506810046
 31
0.0
210
0.0
220
0.0
230
1.0
 40
0.8996761476701032
 41
-0.0000000000000155
 42
0.2001464602092115
  0
ELLIPSE
  5
1036A
330
1F
100
AcDbEntity
  8
AM_0
100
AcDbEllipse
 10
-81.68021758866502
 20
9.735009779818597
 30
0.0
 11
0.609394180369051
 21
-0.7928674119500325
 31
0.0
210
0.0
220
0.0
230
1.0
 40
0.3896474481654365
 41
0.0000000000001505
 42
0.5411143706312009
  0
ELLIPSE
  5
1036B
330
1F
100
AcDbEntity
  8
AM_0
100
AcDbEllipse
 10
-77.00486499695029
 20
19.68833759369528
 30
0.0
 11
0.3937804273633266
 21
4.482737665202544
 31
0.0
210
0.0
220
0.0
230
1.0
 40
0.0867933354297821
 41
5.737243319988603
 42
7.163416552148422
  0
ELLIPSE
  5
1036C
330
1F
100
AcDbEntity
  8
AM_0
100
AcDbEllipse
 10
-77.12739567656291
 20
18.92524638573519
 30
0.0
 11
0.3937804273633266
 21
4.482737665202544
 31
0.0
210
0.0
220
0.0
230
1.0
 40
0.0867933354297821
 41
0.8802312449688179
 42
0.9875040539911487
  0
ELLIPSE
  5
1036D
330
1F
100
AcDbEntity
  8
AM_0
100
AcDbEllipse
 10
-77.12739567656291
 20
18.92524638573519
 30
0.0
 11
0.3937804273633266
 21
4.482737665202544
 31
0.0
210
0.0
220
0.0
230
1.0
 40
0.0867933354297821
 41
1.645623061943662
 42
3.256432081583627
  0
ELLIPSE
  5
1036E
330
1F
100
AcDbEntity
  8
AM_0
100
AcDbEllipse
 10
-77.87411179609688
 20
27.21802557742166
 30
0.0
 11
1.481028679209059
 21
-0.2378109571913656
 31
0.0
210
0.0
220
0.0
230
1.0
 40
0.6345691773854721
 41
0.1125380108044805
 42
1.683334337599353
  0
ELLIPSE
  5
1036F
330
1F
100
AcDbEntity
  8
AM_0
100
AcDbEllipse
 10
-78.54918397167495
 20
23.36801041633277
 30
0.0
 11
0.6357770181262018
 21
-0.7718727765782103
 31
0.0
210
0.0
220
0.0
230
0.9999999999999999
 40
0.4607805299209917
 41
1.427534087374669
 42
2.09581898474665
  0
ELLIPSE
  5
10370
330
1F
100
AcDbEntity
  8
AM_0
100
AcDbEllipse
 10
-78.09521346194214
 20
22.70724260235517
 30
0.0
 11
0.993937560209647
 21
-0.1099460158645797
 31
0.0
210
0.0
220
0.0
230
1.0
 40
0.2505538260856826
 41
0.0897735642688275
 42
1.13697111546543
  0
ELLIPSE
  5
10371
330
1F
100
AcDbEntity
  8
AM_0
100
AcDbEllipse
 10
-81.68949508319355
 20
10.2794867921865
 30
0.0
 11
0.5600369732625505
 21
-0.8284676146832276
 31
0.0
210
0.0
220
0.0
230
1.0
 40
0.4698164545128512
 41
0.5673286348235975
 42
1.471570907931219
  0
ELLIPSE
  5
10372
330
1F
100
AcDbEntity
  8
AM_0
100
AcDbEllipse
 10
-78.90583622641765
 20
15.37902423593872
 30
0.0
 11
0.9939375602096467
 21
-0.1099460158645819
 31
0.0
210
0.0
220
0.0
230
1.0
 40
0.2505538260856846
 41
0.0897735642688282
 42
1.13697111546543
  0
ARC
  5
10373
330
1F
100
AcDbEntity
  8
AM_0
100
AcDbCircle
 10
-77.87411179609688
 20
27.21802557742166
 30
0.0
 40
1.5
100
AcDbArc
 50
0.9761841801632798
 51
84.97981096334692
  0
LINE
  5
10374
330
1F
100
AcDbEntity
  8
AM_0
100
AcDbLine
 10
-75.21573266639979
 20
18.75896508761684
 30
0.0
 11
-75.49870514983314
 21
16.9966814302889
 31
0.0
  0
LINE
  5
10375
330
1F
100
AcDbEntity
  8
AM_0
100
AcDbLine
 10
-75.49870514983314
 20
16.9966814302889
 30
0.0
 11
-75.66201476244709
 21
17.39630821317559
 31
0.0
  0
LINE
  5
10376
330
1F
100
AcDbEntity
  8
AM_0
100
AcDbLine
 10
-75.66201476244709
 20
17.39630821317559
 30
0.0
 11
-75.54235189162756
 21
19.55821865339027
 31
0.0
  0
LINE
  5
10377
330
1F
100
AcDbEntity
  8
AM_0
100
AcDbLine
 10
-75.54235189162756
 20
19.55821865339027
 30
0.0
 11
-75.25937940819421
 21
21.32050231071821
 31
0.0
  0
LINE
  5
10378
330
1F
100
AcDbEntity
  8
AM_0
100
AcDbLine
 10
-75.25937940819421
 20
21.32050231071824
 30
0.0
 11
-75.09606979558026
 21
20.92087552783153
 31
0.0
  0
LINE
  5
10379
330
1F
100
AcDbEntity
  8
AM_0
100
AcDbLine
 10
-75.09606979558026
 20
20.92087552783153
 30
0.0
 11
-75.32038407219892
 21
20.94058013209519
 31
0.0
  0
LINE
  5
1037A
330
1F
100
AcDbEntity
  8
AM_0
100
AcDbLine
 10
-75.09606979558026
 20
20.92087552783153
 30
0.0
 11
-75.21573266639979
 21
18.75896508761684
 31
0.0
  0
LINE
  5
1037B
330
1F
100
AcDbEntity
  8
AM_0
100
AcDbLine
 10
-75.21573266639979
 20
18.75896508761684
 30
0.0
 11
-75.58479653239834
 21
18.79138503670407
 31
0.0
  0
LINE
  5
1037C
330
1F
100
AcDbEntity
  8
AM_0
100
AcDbLine
 10
-84.39576283055811
 20
17.44102718061242
 30
0.0
 11
-84.36901969681782
 21
17.43867796381238
 31
0.0
  0
LINE
  5
1037D
330
1F
100
AcDbEntity
  8
AM_0
100
AcDbLine
 10
-83.95822902237654
 20
22.42184680861521
 30
0.0
 11
-83.6499320492639
 21
22.39476485046953
 31
0.0
  0
ARC
  5
1037E
330
1F
100
AcDbEntity
  8
AM_0
100
AcDbCircle
 10
-86.22416252891713
 20
20.11126775871452
 30
0.0
 40
11.11508583474411
100
AcDbArc
 50
337.8146012179029
 51
12.14502070879119
  0
LINE
  5
1037F
330
1F
100
AcDbEntity
  8
AM_0
100
AcDbLine
 10
-76.65871196947904
 20
23.53736893568086
 30
0.0
 11
-76.86602212263625
 21
23.55557983419956
 31
0.0
  0
LINE
  5
10380
330
1F
100
AcDbEntity
  8
AM_0
100
AcDbLine
 10
-77.40251944338758
 20
15.06997556807605
 30
0.0
 11
-77.66490252153022
 21
15.093024278119
 31
0.0
  0
LINE
  5
10381
330
1F
100
AcDbEntity
  8
AM_0
100
AcDbLine
 10
-75.35785204302164
 20
22.44973510675436
 30
0.0
 11
-75.95411529545851
 21
23.16634914140778
 31
0.0
  0
LINE
  5
10382
330
1F
100
AcDbEntity
  8
AM_0
100
AcDbLine
 10
-75.93196158399434
 20
15.9141577026092
 30
0.0
 11
-76.64402918174773
 21
15.31247233873654
 31
0.0
  0
ARC
  5
10383
330
1F
100
AcDbEntity
  8
AM_0
100
AcDbCircle
 10
-77.31400796782015
 20
16.10059130555439
 30
0.0
 40
1.034409531880451
100
AcDbArc
 50
265.0913610066432
 51
310.3678142927815
  0
ARC
  5
10384
330
1F
100
AcDbEntity
  8
AM_0
100
AcDbCircle
 10
-76.75123580748692
 20
22.50710565911237
 30
0.0
 40
1.034409531880546
100
AcDbArc
 50
39.59180763391668
 51
84.86826092005128
  0
ELLIPSE
  5
10385
330
1F
100
AcDbEntity
  8
AM_0
100
AcDbEllipse
 10
-75.37904227901362
 20
19.15859187050356
 30
0.0
 11
0.2262737974397815
 21
2.575867168471119
 31
0.0
210
0.0
220
0.0
230
0.9999999999999999
 40
0.086793335429782
 41
0.7914128579662674
 42
7.074598165145852
  0
ELLIPSE
  5
10386
330
1F
100
AcDbEntity
  8
AM_0
100
AcDbEllipse
 10
-75.66971089763359
 20
19.18412528811794
 30
0.0
 11
0.2881504219924511
 21
3.280261435436693
 31
0.0
210
0.0
220
0.0
230
1.0
 40
0.086793335429782
 41
6.195952610980659
 42
9.512010656968219
  0
ELLIPSE
  5
10387
330
1F
100
AcDbEntity
  8
AM_0
100
AcDbEllipse
 10
-76.32887958520456
 20
19.24202912878013
 30
0.0
 11
0.3462735998706574
 21
3.941927025167411
 31
0.0
210
0.0
220
0.0
230
1.0
 40
0.086793335429782
 41
6.195952610980709
 42
9.512010656968258
  0
ELLIPSE
  5
10388
330
1F
100
AcDbEntity
  8
AM_0
100
AcDbEllipse
 10
-77.03061570643325
 20
19.30367225187848
 30
0.0
 11
0.371903736954215
 21
4.233696683802408
 31
0.0
210
0.0
220
0.0
230
1.0
 40
0.086793335429782
 41
-0.0000000000000515
 42
3.141592653589741
  0
LINE
  5
10389
330
1F
100
AcDbEntity
  8
AM_0
100
AcDbLine
 10
-77.7483781511574
 20
11.38334758066966
 30
0.0
 11
-78.11518451046453
 21
10.01836536891869
 31
0.0
  0
ELLIPSE
  5
1038A
330
1F
100
AcDbEntity
  8
AM_0
100
AcDbEllipse
 10
-79.60736937888947
 20
10.24547925676885
 30
0.0
 11
1.16982245048553
 21
-0.3143618359303503
 31
0.0
210
0.0
220
0.0
230
1.0
 40
0.9419205919593064
 41
4.19156970143476
 42
7.400882986664566
  0
ELLIPSE
  5
1038B
330
1F
100
AcDbEntity
  8
AM_0
100
AcDbEllipse
 10
-79.56379150751565
 20
10.40764389143769
 30
0.0
 11
1.448606997051334
 21
-0.3892785225190394
 31
0.0
210
0.0
220
0.0
230
1.0
 40
0.9419205919593067
 41
4.245481329841844
 42
7.380390592752461
  0
DIMENSION
  5
106FF
330
1F
100
AcDbEntity
  8
AM_5
100
AcDbDimension
  2
*D8
 10
0.8965085198986458
 20
12.05200007394961
 30
0.0
 11
-11.07662227813404
 21
-14.69795526016665
 31
0.0
 70
   162
 71
     5
 42
1.403776688725715
  3
AM_JIS$2
100
AcDb2LineAngularDimension
 13
12.05069578119156
 23
0.9809986186197079
 33
0.0
 14
0.8724480063390843
 24
0.0030286602362253
 34
0.0
 15
0.0025298982130266
 25
0.866459084656583
 35
0.0
 16
-15.621658304938
 26
-9.724033836511726
 36
0.0
1001
ACAD
1000
DSTYLE
1002
{
1070
   179
1070
     0
1070
   271
1070
     0
1002
}
  0
ENDSEC
  0
SECTION
  2
OBJECTS
  0
DICTIONARY
  5
C
330
0
100
AcDbDictionary
281
     1
  3
ACAD_COLOR
350
99D5
  3
ACAD_GROUP
350
D
  3
ACAD_LAYOUT
350
1A
  3
ACAD_MATERIAL
350
99D4
  3
ACAD_MLINESTYLE
350
17
  3
ACAD_PLOTSETTINGS
350
19
  3
ACAD_PLOTSTYLENAME
350
E
  3
ACAD_TABLESTYLE
350
99D6
  3
AcAmCatalogState
350
9A2C
  3
ACDBHEADERROUNDTRIPXREC
350
1095F
  3
AcDbVariableDictionary
350
30
  3
ACDMSYSVARMGR
350
99EF
  3
ACGREF_MASTER
350
23CD
  3
ACGREFACAD_MASTER
350
23D1
  3
AcmDictionary
350
4D
  3
ACME_BOM_MANAGER_NAME
350
99A7
  3
ACME_COMMAND_HISTORY
350
99A2
  3
ACME_SCOPE_NAME
350
99A1
  3
ACMESTATEMGR
350
99AC
  3
AcmeSysVarManager
350
99A3
  3
AcmSystemVariableManager
350
9A2A
  3
AD_APPL
350
9A17
  3
ADSYSVARMGR
350
9A16
  3
AmdtNamedDwgMgr
350
9A0A
  3
AMG
350
3F
  3
AMGSNAPSETTINGS
350
73
  3
AMI_MASTER
350
23D2
  3
AUTOCAD_ASSEMBLIES_PROJECT
350
9A1F
  3
Designer_Assemblies_SysVars
350
9A1A
  3
DWGPROPS
350
10962
  3
FILENAME
350
1C9F
  3
GREFAM_MODULE
350
9A10
  3
ZWKSIZE
350
1CA1
  0
DICTIONARY
  5
9B25
330
2
100
AcDbDictionary
280
     1
281
     1
  3
ACAD_LAYERFILTERS
360
9F3B
  3
ACAD_LAYERSTATES
360
9B26
  3
ACLYDICTIONARY
360
9F3A
  3
AMLAYER_GROUPCOLORS
360
9F39
  0
DICTIONARY
  5
165
330
1F
100
AcDbDictionary
280
     1
281
     1
  3
ACAD_LAYOUTSELFREF
360
98ED
  0
DICTIONARY
  5
264F
330
1B
100
AcDbDictionary
280
     1
281
     1
  3
ACAD_LAYOUTSELFREF
360
98EC
  0
DICTIONARY
  5
2651
330
23
100
AcDbDictionary
280
     1
281
     1
  3
ACAD_LAYOUTSELFREF
360
98EE
  0
DICTIONARY
  5
99D5
102
{ACAD_REACTORS
330
C
102
}
330
C
100
AcDbDictionary
281
     1
  0
DICTIONARY
  5
D
102
{ACAD_REACTORS
330
C
102
}
330
C
100
AcDbDictionary
281
     1
  0
DICTIONARY
  5
1A
102
{ACAD_REACTORS
330
C
102
}
330
C
100
AcDbDictionary
281
     1
  3
Model
350
22
  3
ﾚｲｱｳﾄ1
350
1E
  3
ﾚｲｱｳﾄ2
350
26
  0
DICTIONARY
  5
99D4
102
{ACAD_REACTORS
330
C
102
}
330
C
100
AcDbDictionary
281
     1
  0
DICTIONARY
  5
17
102
{ACAD_REACTORS
330
C
102
}
330
C
100
AcDbDictionary
281
     1
  3
Standard
350
18
  0
DICTIONARY
  5
19
102
{ACAD_REACTORS
330
C
102
}
330
C
100
AcDbDictionary
281
     1
  0
ACDBDICTIONARYWDFLT
  5
E
102
{ACAD_REACTORS
330
C
102
}
330
C
100
AcDbDictionary
281
     1
  3
Normal
350
F
100
AcDbDictionaryWithDefault
340
F
  0
DICTIONARY
  5
99D6
102
{ACAD_REACTORS
330
C
102
}
330
C
100
AcDbDictionary
281
     1
  3
Standard
350
99D7
  0
ACAD_PROXY_OBJECT
  5
9A2C
102
{ACAD_REACTORS
330
C
102
}
330
C
100
AcDbProxyObject
 90
      499
 91
      584
 95
       25
 70
     0
 93
      424
310
3FFFFFFFE00A0281402902C1D2E482B415AC15141BA41A441C5C1AFAE20A1A0A226991818182E24A1AA26C00A3FFFFFFFCFFFF1F40
  0
DICTIONARY
  5
1095F
102
{ACAD_REACTORS
330
C
102
}
330
C
100
AcDbDictionary
281
     1
  3
COLORDICT
350
10960
  3
MATERIALDICT
350
10961
  0
DICTIONARY
  5
30
102
{ACAD_REACTORS
330
C
102
}
330
C
100
AcDbDictionary
281
     1
  3
CTABLESTYLE
350
9A53
  3
HIDETEXT
350
1095E
  3
INDEXCTL
350
1095D
  0
ACAD_PROXY_OBJECT
  5
99EF
102
{ACAD_REACTORS
330
C
102
}
330
C
100
AcDbProxyObject
 90
      499
 91
      507
 95
       25
 70
     0
 93
      240
310
4C51A47A0000000000000000000000000000000000000000000000000000
330
99F0
330
99F1
330
99F2
330
99F3
330
99F4
330
99F5
330
99F6
330
99F7
330
99F8
330
99F9
330
99FA
330
99FB
330
99FC
330
99FD
330
99FE
330
99FF
330
9A00
330
9A01
330
9A02
330
9A03
330
9A04
330
9A05
330
9A06
330
9A07
330
9A08
330
9A09
 94
        0
  0
ACAD_PROXY_OBJECT
  5
23CD
102
{ACAD_REACTORS
330
C
102
}
330
C
100
AcDbProxyObject
 90
      499
 91
      534
 95
       25
 70
     0
 93
       34
310
0400004280
  0
ACAD_PROXY_OBJECT
  5
23D1
102
{ACAD_REACTORS
330
C
102
}
330
C
100
AcDbProxyObject
 90
      499
 91
      535
 95
       25
 70
     0
 93
      114
310
04000041C080000000000000000000
  0
DICTIONARY
  5
4D
102
{ACAD_REACTORS
330
C
102
}
330
C
100
AcDbDictionary
281
     1
  3
AcmBOMDATA
350
99B0
  3
AcmStdDictionary
350
17E
  3
AMDTSECTSYM_ARROWCOLOR
350
9A47
  0
ACAD_PROXY_OBJECT
  5
99A7
102
{ACAD_REACTORS
330
C
102
}
330
C
100
AcDbProxyObject
 90
      499
 91
      510
 95
       25
 70
     0
 93
       50
310
00010040400000
330
0
330
0
330
99A8
 94
        0
  0
ACAD_PROXY_OBJECT
  5
99A2
102
{ACAD_REACTORS
330
C
102
}
330
C
100
AcDbProxyObject
 90
      499
 91
      505
 95
       25
 70
     0
 93
     5188
310
47805054552415345805054552415345805054552415345404052D4D5347202D205050413A2020206465736B746F702E6172782046696C6556657273696F6E3A20392E322E302E34014151549054D16014151549054D16014151549054D16014151549054D16014151549054D16014151549054D1501014B5354D1C80B4814
310
14104E88080819195CDADD1BDC0B985C9E08119A5B1955995C9CDA5BDB8E880E4B8C8B8C0B8D005054552415345805054552415345805055153415645404052D4D5347202D205050413A2020206465736B746F702E6172782046696C6556657273696F6E3A20392E322E302E3401411693D3D3601415454D05591501014B53
310
54D1C80B481414104E88080819195CDADD1BDC0B985C9E08119A5B1955995C9CDA5BDB8E880E4B8C8B8C0B8D0050E414D4454524553455444424D4F4440805084E202D20554E444F014213880B4815539113C0504554E444F80504554E444F805054552415345805055153415645404052D4D5347202D205050413A2020206
310
465736B746F702E6172782046696C6556657273696F6E3A20392E322E302E34014390535115149154D15511109353D1102014213880B4815539113C05084E202D20554E444F014115539113E014115539113E014151549054D16014151549054D16014151549054D1501014B5354D1C80B481414104E88080819195CDADD1B
310
DC0B985C9E08119A5B1955995C9CDA5BDB8E880E4B8C8B8C0B8D0050E414D4454524553455444424D4F4440805084E202D20554E444F014213880B4815539113C0504554E444F80504554E444F805055055524745805055153415645404052D4D5347202D205050413A2020206465736B746F702E6172782046696C6556657
310
273696F6E3A20392E322E302E340
  0
ACAD_PROXY_OBJECT
  5
99A1
102
{ACAD_REACTORS
330
C
102
}
330
C
100
AcDbProxyObject
 90
      499
 91
      504
 95
       25
 70
     0
 93
      578
310
09000046408000000000000000001334DE000000000000000000000000000000000000000000000000000000000000000000000000000000000000000000000000000000AAA406AA80
360
99A4
360
99A5
360
99A6
360
99A8
360
99E8
360
99E9
360
99EA
360
99EB
360
99EC
360
99ED
360
99F0
360
99F1
360
99F2
360
99F3
360
99F4
360
99F5
360
99F6
360
99F7
360
99F8
360
99F9
360
99FA
360
99FB
360
99FC
360
99FD
360
99FE
360
99FF
360
9A00
360
9A01
360
9A02
360
9A03
360
9A04
360
9A05
360
9A06
360
9A07
360
9A08
360
9A09
360
9A12
360
9A13
360
9A14
360
9A15
360
9A1B
360
9A1C
360
9A1D
360
9A1E
360
9A23
360
9A24
360
9A25
360
9A26
360
9A27
360
9A28
360
9A2B
 94
        0
  0
ACAD_PROXY_OBJECT
  5
99AC
102
{ACAD_REACTORS
330
C
102
}
330
C
100
AcDbProxyObject
 90
      499
 91
      515
 95
       25
 70
     0
 93
       50
310
09000042641280
  0
ACAD_PROXY_OBJECT
  5
99A3
102
{ACAD_REACTORS
330
C
102
}
330
C
100
AcDbProxyObject
 90
      499
 91
      507
 95
       25
 70
     0
 93
       48
310
903412000000
330
99A4
330
99A5
330
99A6
 94
        0
  0
ACAD_PROXY_OBJECT
  5
9A2A
102
{ACAD_REACTORS
330
C
102
}
330
C
100
AcDbProxyObject
 90
      499
 91
      507
 95
       25
 70
     0
 93
       32
310
90140A00
330
9A2B
 94
        0
  0
ACAD_PROXY_OBJECT
  5
9A17
102
{ACAD_REACTORS
330
C
102
}
330
C
100
AcDbProxyObject
 90
      499
 91
      574
 95
       25
 70
     0
 93
       42
310
000900004040
330
9A12
 94
        0
  0
ACAD_PROXY_OBJECT
  5
9A16
102
{ACAD_REACTORS
330
C
102
}
330
C
100
AcDbProxyObject
 90
      499
 91
      507
 95
       25
 70
     0
 93
        8
310
AA
  0
ACAD_PROXY_OBJECT
  5
9A0A
102
{ACAD_REACTORS
330
C
102
}
330
C
100
AcDbProxyObject
 90
      499
 91
      565
 95
       25
 70
     0
 93
       42
310
000100005E80
330
99E8
 94
        0
  0
DICTIONARY
  5
3F
102
{ACAD_REACTORS
330
C
102
}
330
C
100
AcDbDictionary
281
     1
  3
AcMgSettings
350
40
  3
AMGLAYCFG
350
99B4
  0
DICTIONARY
  5
73
102
{ACAD_REACTORS
330
C
102
}
330
C
100
AcDbDictionary
281
     1
  0
ACAD_PROXY_OBJECT
  5
23D2
102
{ACAD_REACTORS
330
C
102
}
330
C
100
AcDbProxyObject
 90
      499
 91
      536
 95
       25
 70
     0
 93
       34
310
0500004280
  0
ACAD_PROXY_OBJECT
  5
9A1F
102
{ACAD_REACTORS
330
C
102
}
330
C
100
AcDbProxyObject
 90
      499
 91
      577
 95
       25
 70
     0
 93
       98
310
0900004E400000000000000000
330
9A26
330
0
330
9A27
330
0
330
0
330
0
330
0
330
0
 94
        0
  0
ACAD_PROXY_OBJECT
  5
9A1A
102
{ACAD_REACTORS
330
C
102
}
330
C
100
AcDbProxyObject
 90
      499
 91
      507
 95
       25
 70
     0
 93
       56
310
90441600000000
330
9A1B
330
9A1C
330
9A1D
330
9A1E
 94
        0
  0
XRECORD
  5
10962
102
{ACAD_REACTORS
330
C
102
}
330
C
100
AcDbXrecord
280
     1
  1
DWGPROPS COOKIE
  2

  3

  4

  6

  7

  8

  9

300
AmdtFileType=84
301
=
302
=
303
=
304
=
305
=
306
=
307
=
308
=
309
=
 40
0.0
 41
2451943.235431667
 42
2455478.186113461
  1

 90
        1
  0
DICTIONARY
  5
1C9F
102
{ACAD_REACTORS
330
C
102
}
330
C
100
AcDbDictionary
281
     1
  3
FILENAME
350
1CA0
  0
ACAD_PROXY_OBJECT
  5
9A10
102
{ACAD_REACTORS
330
C
102
}
330
C
100
AcDbProxyObject
 90
      499
 91
      568
 95
       25
 70
     0
 93
        8
310
05
  0
DICTIONARY
  5
1CA1
102
{ACAD_REACTORS
330
C
102
}
330
C
100
AcDbDictionary
281
     1
  3
ZWKSIZE
350
1CA2
  0
DICTIONARY
  5
9F3B
102
{ACAD_REACTORS
330
9B25
102
}
330
9B25
100
AcDbDictionary
281
     1
  0
DICTIONARY
  5
9B26
102
{ACAD_REACTORS
330
9B25
102
}
330
9B25
100
AcDbDictionary
281
     1
  0
DICTIONARY
  5
9F3A
102
{ACAD_REACTORS
330
9B25
102
}
330
9B25
100
AcDbDictionary
281
     1
1001
ACAD
1000
<All
  0
DICTIONARY
  5
9F39
102
{ACAD_REACTORS
330
9B25
102
}
330
9B25
100
AcDbDictionary
280
     1
281
     1
  0
XRECORD
  5
98ED
102
{ACAD_REACTORS
330
165
102
}
330
165
100
AcDbXrecord
280
     1
340
1F
  0
XRECORD
  5
98EC
102
{ACAD_REACTORS
330
264F
102
}
330
264F
100
AcDbXrecord
280
     1
340
1B
  0
XRECORD
  5
98EE
102
{ACAD_REACTORS
330
2651
102
}
330
2651
100
AcDbXrecord
280
     1
340
23
  0
LAYOUT
  5
22
102
{ACAD_REACTORS
330
1A
102
}
330
1A
100
AcDbPlotSettings
  1

  2
SII LP-1010 (C2 VR)2R
  4
A4
  6
AM_VIEW1
 40
5.789083480834961
 41
5.789072036743164
 42
5.789093017578125
 43
5.789093017578125
 44
209.9733276367188
 45
296.9259948730469
 46
0.0
 47
0.0
 48
-148.846823965139
 49
-146.3739405309267
140
113.6689596454883
141
93.85009168898716
142
1.0
143
1.210836206639185
 70
 11952
 72
     1
 73
     1
 74
     4
  7
sei_cad.ctb
 75
     0
147
0.8258755350367452
148
148.846823965139
149
146.3739405309267
100
AcDbLayout
  1
Model
 70
     1
 71
     0
 10
0.0
 20
0.0
 11
12.0
 21
9.0
 12
0.0
 22
0.0
 32
0.0
 14
0.0
 24
0.0
 34
0.0
 15
0.0
 25
0.0
 35
0.0
146
0.0
 13
0.0
 23
0.0
 33
0.0
 16
1.0
 26
0.0
 36
0.0
 17
0.0
 27
1.0
 37
0.0
 76
     0
330
1F
1001
ACAD_PSEXT
1000
SII LP-1010 (C2 VR)2R
1000
SII LP-1010 (C2 VR)2R
1000
133.153.16.130#9100
1000

1070
     0
  0
LAYOUT
  5
1E
102
{ACAD_REACTORS
330
1A
102
}
330
1A
100
AcDbPlotSettings
  1

  2
Canon LASER SHOT LBP-2030
  4

  6

 40
0.0
 41
0.0
 42
0.0
 43
0.0
 44
0.0
 45
0.0
 46
0.0
 47
0.0
 48
0.0
 49
0.0
140
0.0
141
0.0
142
1.0
143
1.0
 70
   688
 72
     0
 73
     0
 74
     5
  7
sei_cad.ctb
 75
    16
147
1.0
148
0.0
149
0.0
100
AcDbLayout
  1
ﾚｲｱｳﾄ1
 70
     1
 71
     1
 10
0.0
 20
0.0
 11
420.0
 21
297.0
 12
0.0
 22
0.0
 32
0.0
 14
1.000000000000000E+20
 24
1.000000000000000E+20
 34
1.000000000000000E+20
 15
-1.000000000000000E+20
 25
-1.000000000000000E+20
 35
-1.000000000000000E+20
146
0.0
 13
0.0
 23
0.0
 33
0.0
 16
1.0
 26
0.0
 36
0.0
 17
0.0
 27
1.0
 37
0.0
 76
     0
330
1B
  0
LAYOUT
  5
26
102
{ACAD_REACTORS
330
1A
102
}
330
1A
100
AcDbPlotSettings
  1

  2
Canon LASER SHOT LBP-2030
  4

  6

 40
0.0
 41
0.0
 42
0.0
 43
0.0
 44
0.0
 45
0.0
 46
0.0
 47
0.0
 48
0.0
 49
0.0
140
0.0
141
0.0
142
1.0
143
1.0
 70
   688
 72
     0
 73
     0
 74
     5
  7
sei_cad.ctb
 75
    16
147
1.0
148
0.0
149
0.0
100
AcDbLayout
  1
ﾚｲｱｳﾄ2
 70
     1
 71
     2
 10
0.0
 20
0.0
 11
12.0
 21
9.0
 12
0.0
 22
0.0
 32
0.0
 14
0.0
 24
0.0
 34
0.0
 15
0.0
 25
0.0
 35
0.0
146
0.0
 13
0.0
 23
0.0
 33
0.0
 16
1.0
 26
0.0
 36
0.0
 17
0.0
 27
1.0
 37
0.0
 76
     0
330
23
  0
MLINESTYLE
  5
18
102
{ACAD_REACTORS
330
17
102
}
330
17
100
AcDbMlineStyle
  2
STANDARD
 70
     0
  3

 62
   256
 51
90.0
 52
90.0
 71
     2
 49
0.5
 62
   256
  6
BYLAYER
 49
-0.5
 62
   256
  6
BYLAYER
  0
ACDBPLACEHOLDER
  5
F
102
{ACAD_REACTORS
330
E
102
}
330
E
  0
TABLESTYLE
  5
99D7
102
{ACAD_REACTORS
330
99D6
102
}
330
99D6
100
AcDbTableStyle
  3
Standard
 70
     0
 71
     8
 40
1.5
 41
1.5
280
     0
281
     0
  7
STANDARD
140
4.5
170
     2
 62
     0
 63
     7
283
     0
274
    -2
284
     1
 64
     0
275
    -2
285
     1
 65
     0
276
    -2
286
     1
 66
     0
277
    -2
287
     1
 67
     0
278
    -2
288
     1
 68
     0
279
    -2
289
     1
 69
     0
  7
STANDARD
140
6.0
170
     5
 62
     0
 63
     7
283
     0
274
    -2
284
     1
 64
     0
275
    -2
285
     1
 65
     0
276
    -2
286
     1
 66
     0
277
    -2
287
     1
 67
     0
278
    -2
288
     1
 68
     0
279
    -2
289
     1
 69
     0
  7
STANDARD
140
4.5
170
     5
 62
     0
 63
     7
283
     0
274
    -2
284
     1
 64
     0
275
    -2
285
     1
 65
     0
276
    -2
286
     1
 66
     0
277
    -2
287
     1
 67
     0
278
    -2
288
     1
 68
     0
279
    -2
289
     1
 69
     0
  0
XRECORD
  5
10960
102
{ACAD_REACTORS
330
1095F
102
}
330
1095F
100
AcDbXrecord
280
     1
340
99D5
  0
XRECORD
  5
10961
102
{ACAD_REACTORS
330
1095F
102
}
330
1095F
100
AcDbXrecord
280
     1
340
99D4
  0
DICTIONARYVAR
  5
9A53
102
{ACAD_REACTORS
330
30
102
}
330
30
100
DictionaryVariables
280
     0
  1
STANDARD
  0
DICTIONARYVAR
  5
1095E
102
{ACAD_REACTORS
330
30
102
}
330
30
100
DictionaryVariables
280
     0
  1
0
  0
DICTIONARYVAR
  5
1095D
102
{ACAD_REACTORS
330
30
102
}
330
30
100
DictionaryVariables
280
     0
  1
1
  0
ACAD_PROXY_OBJECT
  5
99B0
102
{ACAD_REACTORS
330
4D
102
}
330
4D
100
AcDbProxyObject
 90
      499
 91
      520
 95
       25
 70
     0
 93
      118
310
405010040CA904C415CD5B075DD158
350
99B1
 94
        0
  0
DICTIONARY
  5
17E
102
{ACAD_REACTORS
330
4D
102
}
330
4D
100
AcDbDictionary
281
     1
  3
ANSI
350
AC70
  3
ISO
350
9A35
  3
JIS
350
9CBB
  0
XRECORD
  5
9A47
102
{ACAD_REACTORS
330
4D
102
}
330
4D
100
AcDbXrecord
280
     1
 90
-1023410169
  0
ACAD_PROXY_OBJECT
  5
99A4
330
99A1
100
AcDbProxyObject
 90
      499
 91
      508
 95
       25
 70
     0
 93
      156
310
00010143D050D351505391D5531054925390D490
330
99A1
 94
        0
  0
ACAD_PROXY_OBJECT
  5
99A5
330
99A1
100
AcDbProxyObject
 90
      499
 91
      508
 95
       25
 70
     0
 93
      148
310
000101439050D351531253915054925390D490
330
99A1
 94
        0
  0
ACAD_PROXY_OBJECT
  5
99A6
330
99A1
100
AcDbProxyObject
 90
      499
 91
      509
 95
       25
 70
     0
 93
      156
310
000101439050D35154D6535093D314D256915080
330
99A1
 94
        0
  0
ACAD_PROXY_OBJECT
  5
99A8
330
99A1
100
AcDbProxyObject
 90
      499
 91
      511
 95
       25
 70
     0
 93
       88
310
000101411093D34C402B00
330
99A1
330
0
330
0
 94
        0
  0
ACAD_PROXY_OBJECT
  5
99E8
330
99A1
100
AcDbProxyObject
 90
      499
 91
      561
 95
       25
 70
     0
 93
      358
310
0001014124FEA55D00507392E322E302E32014124FEA55D00507392E322E302E3240501000041505391D311658
330
99A1
330
99E9
330
99EF
 94
        0
  0
ACAD_PROXY_OBJECT
  5
99E9
330
99A1
100
AcDbProxyObject
 90
      499
 91
      562
 95
       25
 70
     0
 93
       56
310
000190240E0000
330
99A1
330
99EA
330
99EC
 94
        0
  0
ACAD_PROXY_OBJECT
  5
99EA
330
99A1
100
AcDbProxyObject
 90
      499
 91
      563
 95
       25
 70
     0
 93
       48
310
0001AA000000
330
99A1
330
1E
330
99EB
330
0
 94
        0
  0
ACAD_PROXY_OBJECT
  5
99EB
330
99A1
100
AcDbProxyObject
 90
      499
 91
      564
 95
       25
 70
     0
 93
       28
310
0001AAA0
330
99A1
 94
        0
  0
ACAD_PROXY_OBJECT
  5
99EC
330
99A1
100
AcDbProxyObject
 90
      499
 91
      563
 95
       25
 70
     0
 93
       48
310
0001AA000000
330
99A1
330
26
330
99ED
330
0
 94
        0
  0
ACAD_PROXY_OBJECT
  5
99ED
330
99A1
100
AcDbProxyObject
 90
      499
 91
      564
 95
       25
 70
     0
 93
       28
310
0001AAA0
330
99A1
 94
        0
  0
ACAD_PROXY_OBJECT
  5
99F0
330
99A1
100
AcDbProxyObject
 90
      499
 91
      509
 95
       25
 70
     0
 93
      108
310
000101421053521310D05310D010
330
99A1
 94
        0
  0
ACAD_PROXY_OBJECT
  5
99F1
330
99A1
100
AcDbProxyObject
 90
      499
 91
      509
 95
       25
 70
     0
 93
      124
310
00010142905354915554D15112535010
330
99A1
 94
        0
  0
ACAD_PROXY_OBJECT
  5
99F2
330
99A1
100
AcDbProxyObject
 90
      499
 91
      509
 95
       25
 70
     0
 93
      132
310
00010143105354D150D51253D391125360
330
99A1
 94
        0
  0
ACAD_PROXY_OBJECT
  5
99F3
330
99A1
100
AcDbProxyObject
 90
      499
 91
      509
 95
       25
 70
     0
 93
      124
310
00010142905355941093D49111549010
330
99A1
 94
        0
  0
ACAD_PROXY_OBJECT
  5
99F4
330
99A1
100
AcDbProxyObject
 90
      499
 91
      509
 95
       25
 70
     0
 93
      116
310
0001014290535115D1D0D3D313D4A0
330
99A1
 94
        0
  0
ACAD_PROXY_OBJECT
  5
99F5
330
99A1
100
AcDbProxyObject
 90
      499
 91
      509
 95
       25
 70
     0
 93
      148
310
00010143505355925155D49151949154D21010
330
99A1
 94
        0
  0
ACAD_PROXY_OBJECT
  5
99F6
330
99A1
100
AcDbProxyObject
 90
      499
 91
      509
 95
       25
 70
     0
 93
      172
310
00010144105350539393D51154149154D15495915010
330
99A1
 94
        0
  0
ACAD_PROXY_OBJECT
  5
99F7
330
99A1
100
AcDbProxyObject
 90
      499
 91
      509
 95
       25
 70
     0
 93
      172
310
00010144105350555513D11253505494905391D15010
330
99A1
 94
        0
  0
ACAD_PROXY_OBJECT
  5
99F8
330
99A1
100
AcDbProxyObject
 90
      499
 91
      509
 95
       25
 70
     0
 93
      124
310
00010142D05351561514915191125360
330
99A1
 94
        0
  0
ACAD_PROXY_OBJECT
  5
99F9
330
99A1
100
AcDbProxyObject
 90
      499
 91
      509
 95
       25
 70
     0
 93
      132
310
00010142D05355105410539393D5115010
330
99A1
 94
        0
  0
ACAD_PROXY_OBJECT
  5
99FA
330
99A1
100
AcDbProxyObject
 90
      499
 91
      509
 95
       25
 70
     0
 93
      108
310
00010142105350555513D0D31010
330
99A1
 94
        0
  0
ACAD_PROXY_OBJECT
  5
99FB
330
99A1
100
AcDbProxyObject
 90
      499
 91
      509
 95
       25
 70
     0
 93
      108
310
00010142105350D3119150551050
330
99A1
 94
        0
  0
ACAD_PROXY_OBJECT
  5
99FC
330
99A1
100
AcDbProxyObject
 90
      499
 91
      509
 95
       25
 70
     0
 93
      108
310
00010142105350D315925155D3F0
330
99A1
 94
        0
  0
ACAD_PROXY_OBJECT
  5
99FD
330
99A1
100
AcDbProxyObject
 90
      499
 91
      509
 95
       25
 70
     0
 93
      148
310
0001014350535212511156915493D112535010
330
99A1
 94
        0
  0
ACAD_PROXY_OBJECT
  5
99FE
330
99A1
100
AcDbProxyObject
 90
      499
 91
      509
 95
       25
 70
     0
 93
      124
310
00010142905352105510D21254D3D010
330
99A1
 94
        0
  0
ACAD_PROXY_OBJECT
  5
99FF
330
99A1
100
AcDbProxyObject
 90
      499
 91
      509
 95
       25
 70
     0
 93
      148
310
00010143905354D25391D31152105513105660
330
99A1
 94
        0
  0
ACAD_PROXY_OBJECT
  5
9A00
330
99A1
100
AcDbProxyObject
 90
      499
 91
      509
 95
       25
 70
     0
 93
      124
310
00010142D0535115D1D193111254D420
330
99A1
 94
        0
  0
ACAD_PROXY_OBJECT
  5
9A01
330
99A1
100
AcDbProxyObject
 90
      499
 91
      509
 95
       25
 70
     0
 93
      100
310
00010142105350555513D213A0
330
99A1
 94
        0
  0
ACAD_PROXY_OBJECT
  5
9A02
330
99A1
100
AcDbProxyObject
 90
      499
 91
      509
 95
       25
 70
     0
 93
      116
310
000101425053521390D3D553951010
330
99A1
 94
        0
  0
ACAD_PROXY_OBJECT
  5
9A03
330
99A1
100
AcDbProxyObject
 90
      499
 91
      509
 95
       25
 70
     0
 93
      108
310
0001014210535213941493D29010
330
99A1
 94
        0
  0
ACAD_PROXY_OBJECT
  5
9A04
330
99A1
100
AcDbProxyObject
 90
      499
 91
      509
 95
       25
 70
     0
 93
      108
310
0001014210535213951654115070
330
99A1
 94
        0
  0
ACAD_PROXY_OBJECT
  5
9A05
330
99A1
100
AcDbProxyObject
 90
      499
 91
      509
 95
       25
 70
     0
 93
      108
310
000101421053521395925155D0F0
330
99A1
 94
        0
  0
ACAD_PROXY_OBJECT
  5
9A06
330
99A1
100
AcDbProxyObject
 90
      499
 91
      509
 95
       25
 70
     0
 93
      140
310
00010143505354D150D51253D390D3D41660
330
99A1
 94
        0
  0
ACAD_PROXY_OBJECT
  5
9A07
330
99A1
100
AcDbProxyObject
 90
      499
 91
      509
 95
       25
 70
     0
 93
      108
310
00010142105350D3141493D29030
330
99A1
 94
        0
  0
ACAD_PROXY_OBJECT
  5
9A08
330
99A1
100
AcDbProxyObject
 90
      499
 91
      508
 95
       25
 70
     0
 93
      212
310
00010143905350555513D2105510D21493D500000000000002E400
330
99A1
 94
        0
  0
ACAD_PROXY_OBJECT
  5
9A09
330
99A1
100
AcDbProxyObject
 90
      499
 91
      509
 95
       25
 70
     0
 93
      156
310
00010143905350555513D2105510D21111551010
330
99A1
 94
        0
  0
ACAD_PROXY_OBJECT
  5
9A12
330
99A1
100
AcDbProxyObject
 90
      499
 91
      570
 95
       25
 70
     0
 93
      698
310
0001000000009AA6A9AA4051E467269204A756E2032332030373A34373A333020323030362028555443290141CE4B8C8B8C0B8C80518467269204F63742030382031333A32383A303020323031300141CE4B8C8B8C0B8C80
330
99A1
330
9A13
330
9A14
330
9A16
330
0
 94
        0
  0
ACAD_PROXY_OBJECT
  5
9A13
330
99A1
100
AcDbProxyObject
 90
      499
 91
      571
 95
       25
 70
     0
 93
       70
310
0001AAA80820000000
330
99A1
330
9A13
330
9A13
 94
        0
  0
ACAD_PROXY_OBJECT
  5
9A14
330
99A1
100
AcDbProxyObject
 90
      499
 91
      572
 95
       25
 70
     0
 93
       48
310
000100000000
330
99A1
330
0
330
9A15
330
0
330
0
 94
        0
  0
ACAD_PROXY_OBJECT
  5
9A15
330
99A1
100
AcDbProxyObject
 90
      499
 91
      573
 95
       25
 70
     0
 93
       40
310
000100AAAA
330
99A1
330
0
 94
        0
  0
ACAD_PROXY_OBJECT
  5
9A1B
330
99A1
100
AcDbProxyObject
 90
      499
 91
      522
 95
       25
 70
     0
 93
      180
310
00010143105050D3D35411119390535140504434F4D500
330
99A1
 94
        0
  0
ACAD_PROXY_OBJECT
  5
9A1C
330
99A1
100
AcDbProxyObject
 90
      499
 91
      522
 95
       25
 70
     0
 93
      212
310
0001014390505193D311115491119390535140506466F6C6465720
330
99A1
 94
        0
  0
ACAD_PROXY_OBJECT
  5
9A1D
330
99A1
100
AcDbProxyObject
 90
      499
 91
      522
 95
       25
 70
     0
 93
      180
310
00010143105050539393D1119390535140504284156290
330
99A1
 94
        0
  0
ACAD_PROXY_OBJECT
  5
9A1E
330
99A1
100
AcDbProxyObject
 90
      499
 91
      522
 95
       25
 70
     0
 93
      436
310
00010143905050D3D35415925155D31254D50052295BD96CA0A90B396CA0A894591A496CA0A8DB691A496CA0A89BA96CA0A95E28F95310
330
99A1
 94
        0
  0
ACAD_PROXY_OBJECT
  5
9A23
330
99A1
100
AcDbProxyObject
 90
      499
 91
      578
 95
       25
 70
     0
 93
       32
310
00010000
330
99A1
340
9A20
330
9A25
330
9A20
 94
        0
  0
ACAD_PROXY_OBJECT
  5
9A24
330
99A1
100
AcDbProxyObject
 90
      499
 91
      579
 95
       25
 70
     0
 93
       18
310
000180
330
99A1
 94
        0
  0
ACAD_PROXY_OBJECT
  5
9A25
330
99A1
100
AcDbProxyObject
 90
      499
 91
      580
 95
       25
 70
     0
 93
      186
310
0001014310CD0B5110D313948B50CC4C9050055401550000
330
99A1
330
9A23
330
9A24
 94
        0
  0
ACAD_PROXY_OBJECT
  5
9A26
330
99A1
100
AcDbProxyObject
 90
      499
 91
      581
 95
       25
 70
     0
 93
      178
310
000100AAAAAAB54A018816C84011E71A8B242D3714CA40
330
99A1
330
9A25
 94
        0
  0
ACAD_PROXY_OBJECT
  5
9A27
330
99A1
100
AcDbProxyObject
 90
      499
 91
      582
 95
       25
 70
     0
 93
      108
310
000190140A000000000000AAAAA0
330
99A1
330
9A28
330
9A28
330
9A28
330
9A28
330
9A28
330
0
 94
        0
  0
ACAD_PROXY_OBJECT
  5
9A28
330
99A1
100
AcDbProxyObject
 90
      499
 91
      583
 95
       25
 70
     0
 93
       51
310
00010000AAAA80
330
99A1
330
9A27
330
9A25
 94
        0
  0
ACAD_PROXY_OBJECT
  5
9A2B
330
99A1
100
AcDbProxyObject
 90
      499
 91
      522
 95
       25
 70
     0
 93
      140
310
00010142105350D55494D511005034A49530
330
99A1
 94
        0
  0
DICTIONARY
  5
40
102
{ACAD_REACTORS
330
3F
102
}
330
3F
100
AcDbDictionary
281
     1
  3
DWGSETTINGS
350
999E
  3
Shaft
350
9F38
  3
TRANSSETTINGS
350
999F
  0
ACAD_PROXY_OBJECT
  5
99B4
102
{ACAD_REACTORS
330
3F
102
}
330
3F
100
AcDbProxyObject
 90
      499
 91
      519
 95
       25
 70
     0
 93
    17944
310
41502491013041105357CC201C00030C0132441013141105357CC603800030C0132441013241105357CCA01400030C0132441013341105357CCE01800030C01199013441105357CD200C00030C01199013541105357CD600C00030C01199013641105357CDA00800030C01239013741105357CDE01000030C0119901384110
310
5357CE200400030C01199013941105357CE63F400030C0241102324141505357CC4C201C00030C0132902344141505357CC4C600C00030C0119902495041505357CC4CA01C00030C013240902304E41505357CC13A01C00030C0132902314E41505357CC53A03800030C0132902324E41505357CC93A01400030C013290233
310
4E41505357CCD3A01800030C0119902344E41505357CD13A00C00030C0119902354E41505357CD53A00C00030C0119902364E41505357CD93A00800030C0123902374E41505357CDD3A01000030C0119902384E41505357CE13A00400030C0119902394E41505357CE53A3F400030C024110332414E41905357CC4C13A01C0
310
0030C013290334414E41905357CC4C53A00C00030C011990349504E41905357CC4C93A01C00030C0132409044B4C494E41505357D0D3200400030C011942504494E464F42105357D410549151A01000030C011942D055241484D3541905357D093D4A01C00030C0132425045649455742105357D5925155D4E00400030C011
310
942D06424548494E4441905357D25395A3F400030C0243505545241494C41505357D514A00C00030C01194250348494441905357D21251201C00030C01194250356495341905357D59254E01C00030C01324250650415244494D42505357D41054911253600C00030C01194250652454644494D42505357D49151911253601
310
000030C0119425534110921395901398000000C0003FFFFFFFE415092139594D06424548494E448000000C0003FFFFFFFE411093D48C9055241484D358010000C300466411093D48CD055241484D358020000C30048E411093D48D5055241484D358000000C0003FFFFFFFE4110D0530C901348000000C0003FFFFFFFE4110
310
D0530CD01348020000C30048E4110D0530D501348070000C3004CA4110D0530DD013481E0000C30051A4110D15393901378000000C0003FFFFFFFE4110D15395D01378000000C0003FFFFFFFE4110D312539044B4C494E8000000C0003FFFFFFFE4110D3D38C501308000000C0003FFFFFFFD034110D3D38C901318000000C
310
0003FFFFFFFD034110D3D38CD01328000000C0003FFFFFFFD034110D3D38D101328000000C0003FFFFFFFD034111115510501348000000C0003FFFFFFFE4111125051D01358000000C0003FFFFFFFE4111125312501358000000C0003FFFFFFFE411112535410650415244494D8000000C0003FFFFFFFE4111125354906524
310
54644494D8000000C0003FFFFFFFE4111915353901388000000C0003FFFFFFFE415191535413901388030000C3003FFFFFFFE4151915354D410234418000000C0003FFFFFFFE4151915354D510234418030000C300466415191535593901328000000C0003FFFFFFFE415191535595101328030000C3004664112105510D01
310
388000000C0003FFFFFFFD014112125113901338000000C0003FFFFFFFD034112125115D01338000000C0003FFFFFFFD034112131253901348000000C0003FFFFFFFD01411213D0D3901378000000C0003FFFFFFFE411213D0D5D01378000000C0003FFFFFFFE4112539193D04494E464F8000000C0003FFFFFFFE41131150
310
51101358000000C0003FFFFFFFE419397D0921395902394E8000000C0003FFFFFFFE419397D0D3D38C502304E8000000C0003FFFFFFFD03419397D0D3D38C902314E8000000C0003FFFFFFFD03419397D0D3D38CD02324E8000000C0003FFFFFFFD03419397D0D3D38D102324E8000000C0003FFFFFFFD03419397D0D15393
310
902374E8000000C0003FFFFFFFE419397D0D15395D02374E8000000C0003FFFFFFFE419397D1125312502354E8000000C0003FFFFFFFE419397D2105510D02384E8000000C0003FFFFFFFD01419397D2125113902334E8000000C0003FFFFFFFD03419397D2125115D02334E8000000C0003FFFFFFFD03419397D311505110
310
2354E8000000C0003FFFFFFFE419397D391D25410349504E8000000C0003FFFFFFFE419397D412105390334414E8000000C0003FFFFFFFE419397D510D3D3902304E8000000C0003FFFFFFFD03419397D5121312502344E8000000C0003FFFFFFFD01419397D5131153902304E8000000C0003FFFFFFFD03419397D5941312
310
50332414E8000000C0003FFFFFFFE411391D25410249508000000C0003FFFFFFFE411410530C9055241484D358010000C300466411410530CD055241484D358020000C30048E411410530D5055241484D358000000C0003FFFFFFFE411412105390234418000000C0003FFFFFFFE411413D4D3901358000000C0003FFFFFFF
310
E411490D1D3901378000000C0003FFFFFFFE411490D1D5D01378000000C0003FFFFFFFE4114D09492D01348000000C0003FFFFFFFD014114D150D5101348000000C0003FFFFFFFD014114D6508CD01358020000C30048E411354D653501358020000C30048E411510D3D3901308000000C0003FFFFFFFD0341151213125013
310
48000000C0003FFFFFFFD01411512550C9055241484D358010000C300466411512550CD055241484D358020000C30048E411512550D5055241484D358000000C0003FFFFFFFE4115131153901308000000C0003FFFFFFFD03415514905253105545241494C8000000C0003FFFFFFFE4115149312501348000000C0003FFFFF
310
FFD01411516150C501368030000C300466411516150C901368030000C300466411516150CD01368000000C0003FFFFFFFE411516150D501368070000C3004CA411516150DD013681E0000C30051A4115925155D04564945578000000C0003FFFFFFFE41159151121034849448000000C0003FFFFFFFD024115915115903564
310
9538000000C0003FFFFFFFD02411594131250232418000000C0003FFFFFFFE4116925690501348000000C0003FFFFFFFD01AAA00000030401013F90A4393241D3241919415324111940D194092340519479467F6
340
16
340
16
340
16
340
43
340
16
340
16
340
16
340
44
340
16
340
16
340
44
340
45
340
16
340
16
340
16
340
16
340
43
340
16
340
16
340
16
340
44
340
16
340
16
340
44
340
45
340
16
340
46
340
16
340
16
340
16
340
16
340
16
340
43
340
16
340
16
340
16
340
15
340
15
340
15
340
15
340
15
340
15
340
15
340
15
340
15
340
48
340
15
340
15
340
15
340
15
340
15
340
15
340
15
340
15
340
15
340
15
340
15
340
15
340
15
340
16
340
15
340
15
340
15
340
15
340
47
340
15
340
15
340
48
340
15
340
15
340
15
340
15
340
15
340
15
340
15
340
15
340
48
340
15
340
15
340
15
340
47
340
15
340
15
340
15
340
15
340
15
340
15
340
15
340
15
340
15
340
15
340
15
340
15
340
15
340
15
340
48
340
15
340
15
340
15
340
15
340
15
340
15
340
15
340
15
340
15
340
15
340
15
340
15
340
15
340
15
340
15
340
15
340
15
340
15
340
15
340
15
340
15
340
15
340
4B
 94
        0
  0
XRECORD
  5
1CA0
102
{ACAD_REACTORS
330
1C9F
102
}
330
1C9F
100
AcDbXrecord
280
     1
  1
21000845__00___
  0

  0
XRECORD
  5
1CA2
102
{ACAD_REACTORS
330
1CA1
102
}
330
1CA1
100
AcDbXrecord
280
     1
  1
3
  0

  0
ACAD_PROXY_OBJECT
  5
99B1
102
{ACAD_REACTORS
330
99B0
102
}
330
99B0
100
AcDbProxyObject
 90
      499
 91
      521
 95
       25
 70
     0
 93
      157
310
057356C1D77406406AA8FFFFFFFF05DD01009010
330
1F
330
0
330
9A25
 94
        0
  0
ACAD_PROXY_OBJECT
  5
AC70
102
{ACAD_REACTORS
330
17E
102
}
330
17E
100
AcDbProxyObject
 90
      499
 91
      607
 95
       25
 70
     0
 93
     2395
310
5DCB81E85EB51B8BE3F8030000C30041105394D2501640600800030C0200800030C00B81E85EB51B8BE3F48821E8720B1B6A9BAB9332A32BC3A29BA3220480A1282C6DA8C868CA6E8C88120286A0B1B6ABB2B63234B733A9BA3220480A1082C6DA92C8A6E8C88120285A0B1B6A230BA3AB6A9BA3220480A1282C6DA849E9AA
310
6E8C8812028820B6B23A2232BA30B4B629BCB6A9BA3220480A2282DAC8E8A6CAC6E8D2DEDCA6F2DAA6E8C88120288A0B6B23A21B2B73A32B92634B732A9BA3220480A2282DAC8E8A8D0E4CAC2C898D2DCCAA6E8C88120285A0B6B23A2737BA32A9BA3220480A1682C682DACE98C2F2A6E8C88120285A0B1A0B6B3A234B6A9B
310
A3220480A2282C682DACE90DED8CA86D0C2E4E8A6E8C88120286A0B1A0B6B3AA34BA3632A9BA3220480A02812020
340
A6BC
360
AC71
360
AC72
360
AC73
360
AC74
360
AC75
360
AC76
360
AC77
360
AC78
360
AC79
360
AC7A
360
AC7B
360
AC81
360
AC82
360
AC83
360
AC84
340
0
340
0
 94
        0
  0
ACAD_PROXY_OBJECT
  5
9A35
102
{ACAD_REACTORS
330
17E
102
}
330
17E
100
AcDbProxyObject
 90
      499
 91
      589
 95
       25
 70
     0
 93
     2497
310
5DC0000000000000C408030000C30040D254D3D01640600800030C0200800030C000000000000000C40C88A2085A0B6B23A22B233B2A9BA3220480A1C82C6DAA6EAE4CCA8CAF0E8A6E8C88120284A0B1B6A321A329BA3220480A1A82C6DAAECAD8C8D2DCCEA6E8C8812028420B1B6A4B229BA3220480A1682C6DA88C2E8EAD
310
AA6E8C88120284A0B1B6A127A6A9BA3220480A2082DAC8E888CAE8C2D2D8A6F2DAA6E8C88120288A0B6B23A29B2B1BA34B7B729BCB6A9BA3220480A2282DAC8E886CADCE8CAE498D2DCCAA6E8C88120288A0B6B23A2A343932B0B22634B732A9BA3220480A1682DAC8E89CDEE8CAA6E8C88120285A0B1A0B6B3A630BCA9BA3
310
220480A1682C682DACE88D2DAA6E8C88120288A0B1A0B6B3A437B632A1B430B93A29BA3220480A1A82C682DACEA8D2E8D8CAA6E8C8812032048080
340
9A36
360
9A37
360
9A38
360
9A39
360
9A3A
360
9A3B
360
9A3C
360
9A3D
360
9A3E
360
9A3F
360
9A40
360
9A41
360
9A42
360
9A4D
360
9A4E
360
9A4F
360
9A50
340
0
340
0
 94
        0
  0
ACAD_PROXY_OBJECT
  5
9CBB
102
{ACAD_REACTORS
330
17E
102
}
330
17E
100
AcDbProxyObject
 90
      499
 91
      526
 95
       25
 70
     0
 93
     2379
310
5DC33333333333309408000000C00040D29254D01640600800030C0200800030C003333333333330940C8121E8720B1B6A9BAB9332A32BC3A29BA3220480A1282C6DA8C868CA6E8C88120286A0B1B6ABB2B63234B733A9BA3220480A1082C6DA92C8A6E8C88120285A0B1B6A230BA3AB6A9BA3220480A1282C6DA849E9AA6E
310
8C88120286A0B1A0B6B3AA34BA3632A9BA3220480A2082DAC8E888CAE8C2D2D8A6F2DAA6E8C88120288A0B6B23A29B2B1BA34B7B729BCB6A9BA3220480A2282DAC8E886CADCE8CAE498D2DCCAA6E8C88120288A0B6B23A2A343932B0B22634B732A9BA3220480A1682DAC8E89CDEE8CAA6E8C88120285A0B1A0B6B3A630BCA
310
9BA3220480A1682C682DACE88D2DAA6E8C88120288A0B1A0B6B3A437B632A1B430B93A29BA3220480C812020
340
180
360
9CBC
360
9CBD
360
9CBE
360
9CBF
360
9CC0
360
9CC1
360
9CC2
360
9CC3
360
9CC4
360
9CC5
360
9CC6
360
9CC7
360
9CCD
360
9CCE
360
9CCF
340
0
340
0
 94
        0
  0
ACAD_PROXY_OBJECT
  5
999E
102
{ACAD_REACTORS
330
40
102
}
330
40
100
AcDbProxyObject
 90
      499
 91
      518
 95
       25
 70
     0
 93
     2828
310
4050B44574753455454494E4753A0E8482A68AA6A88882A069492A684A1A0A723A0A92920ACA0A811C1AA0C868A9C829C8E82A12686AF87260F862666A8321A2A72224A0A503675799DACEDA5A020E868A9C889282A682A106260F86460F8666083A1A2A72224A9AA250000000000000042020C868A9C988A9C94000000000
310
000048808321A2A727A323250000000000000122020E868A9C9E8C8C62940000000000000488083A1A2A727A3231925000000000000012202128698929C82A4A482B282A026A8421A624A722AA2CA820A82AC2624A722A1288AE8EAAA68682988A94283A620A9AA27A12520A821B9A1C192109A82968AAC928AAE9FA048328
310
29A1A0A622830020000419491559254D2505404C1055343414C4541503313A314214D510539110549110540D29254D0954494D455354414D504A045B91F02792B734141D5915494D253D3905414C4D4B8C0C1107B44574753455454494E4753454E447D0
  0
ACAD_PROXY_OBJECT
  5
9F38
102
{ACAD_REACTORS
330
40
102
}
330
40
100
AcDbProxyObject
 90
      499
 91
      518
 95
       25
 70
     0
 93
      199
310
405055368616674220F688AE8EA68AA8A8929C8EA68A9C88FA
  0
ACAD_PROXY_OBJECT
  5
999F
102
{ACAD_REACTORS
330
40
102
}
330
40
100
AcDbProxyObject
 90
      499
 91
      518
 95
       25
 70
     0
 93
      852
310
4050D5452414E5353455454494E4753A2488A482AE929C8EA8A4829CA69882A8929E9C0C00800050D4F524947494E414C4C595F4F4E0600400008529A7AAA921A2A620A723A0A81A52827212AAA0A48AA68AA4AC8A0C0080001107B44574753455454494E4753454E447D0
  0
ACAD_PROXY_OBJECT
  5
AC71
330
AC70
100
AcDbProxyObject
 90
      499
 91
      608
 95
       25
 70
     0
 93
       96
310
5DC20E80A0280A0280A02808
  0
ACAD_PROXY_OBJECT
  5
AC72
330
AC70
100
AcDbProxyObject
 90
      499
 91
      609
 95
       25
 70
     0
 93
      332
310
5DD0E4050140501405014050140501405014050142501405014050140501405012000000000000000400
340
A6BD
 94
        0
  0
ACAD_PROXY_OBJECT
  5
AC73
330
AC70
100
AcDbProxyObject
 90
      499
 91
      610
 95
       25
 70
     0
 93
      403
310
5DCC199999999999E99F91F4050140501405014050140501405014050140501405014050140501405014050140501405014040
340
0
 94
        0
  0
ACAD_PROXY_OBJECT
  5
AC74
330
AC70
100
AcDbProxyObject
 90
      499
 91
      611
 95
       25
 70
     0
 93
       10
310
5DC0
  0
ACAD_PROXY_OBJECT
  5
AC75
330
AC70
100
AcDbProxyObject
 90
      499
 91
      612
 95
       25
 70
     0
 93
      257
310
5DE290EA22A7D90F49F9353333333333727F44D4CCCCCCCCCDC9FC010000618000
340
A6BA
340
A6BB
 94
        0
  0
ACAD_PROXY_OBJECT
  5
AC76
330
AC70
100
AcDbProxyObject
 90
      499
 91
      613
 95
       25
 70
     0
 93
    13023
310
5DD0E411255115350141236025B6901405014069011309A4F2590CB64FD3347454E545241434F2C4A504E2C302C8D8096DA2C47454E54524154582C25732C2847454E4D53472067656E647767203232322940690120281A8AA2CA0282484A4BE52028120280A03202261349E4B2196C9FA668E8A9CA8A482869E5894A09C58
310
605921292F94588E8A9CA8A482A8B0584AE658508E8A9C9AA68E40CECADCC8EECE406464665280D202405044E414D454050496BC914F4051C40640A8B95C2E97CBE502404CD1D15395149050D3CB1294138B0C0B25AF2453CB11D15395149055160B095CCB0A11D1539354D1C819D95B991DD9C80C8C8D8A50192C3D494628
310
4953424C414E4B28504152543A4E414D45292C424C4F434B3A4E414D452C504152543A4E414D452940480A0A888AA686A480A09251B1DBE80A3A80C81D10782C06030180C8099A3A2A72A2920A1A7962528271618164946C76F9623A2A72A2920AA2C1612B9961423A2A726A9A39033B2B7323BB39019189B94A0248090142
310
14D51053911054911014122D2E29A50147501904A383BFDFEFF5FBFCFD3347454E545241434F2C4A504E2C302C8B4B8A692C47454E54524154582C25732C2847454E4D53472067656E64776720323138294049012028426A0AA22A924A0A62028246EF4BDFA028EA0320B41396D838E9017D9FA668E8A9CA8A482869E5894A
310
09C5860591BBD2F7E588E8A9CA8A482A8B0584AE658508E8A9C9AA68E40CECADCC8EECE406464625280D202405044E4F544540504928D8B4C4051D40641A8B95C2E97CBE5F23F4CD1D15395149050D3CB1294138B0C0B24A362D30B11D15395149055160B095CCB0A11D1539354D1C819D95B991DD9C80C8C8D4A501A40480
310
A0CAC8A9C889EA480A1106F1072706BF02B680A3A80C83D172B85D2F97CBE47E9BA3A2A72A2920A1A79625282716181641BC41C9C1AFC0AD9623A2A72A2920AA2C1612B9961423A2A726A9A39033B2B7323BB39019191A14A0348090141911154D0D48C90141A43825AF880C90147501908A20F0580C0603019013447454E5
310
45241434F2C4A504E2C302C90E096BE20322C47454E54524154582C25732C2847454E4D53472067656E6477672033362940490120284A9AA20A72220A922192028345A5C53490192028EA0321347077FBFDFEBF7F9FA6A8E8A9CA8A482869E5894A09C586059169714D24064588E8A9CA8A482A8B0584AE658508E8A9C9AA6
310
8E40CECADCC8EECE4064646052809202405094D4154455249414C32405068DDE97BF20324051D40642A8272DB071D202FB3F4D11D15395149050D3CB1294138B0C0B2377A5EFC80C8B11D15395149055160B095CCB0A11D1539354D1C819D95B991DD9C80D0C0A501240480A089A82A6A680A091D7F2F9480A3A80A0485A06
310
81172B85D2F97CBE47E9923A2A72A2920A1A796252827161816475FCBE51623A2A72A2920AA2C1612B9961423A2A726A9A39033B2B7323BB3901A1914A024809014154149250D150141226FE29A501475014090C409022E570BA5F2F97C8FD3247454E545241434F2C4A504E2C302C89BF8A692C47454E54524154582C2573
310
2C2847454E4D53472067656E6477672034332940490120281A224A6A02824850CB202028EA028121A81A045CAE174BE5F2F91FA648E8A9CA8A482869E5894A09C58605921432C80588E8A9CA8A482A8B0584AE658508E8A9C9AA68E40CECADCC8EECE406868528092024050E441022E07A17AD46E338FE07800030C0001018
310
ACD56AB55AADF63F2B355AAD56AB7D8FD073D3C4954454D3E405018ACD56AB55AADF63F2B355AAD56AB7D8FD073D3C4954454D3E40501890C7E3F1783CEE3F2431F8FC5E0F3B8FD073D3C4954454D3E40501890C7E3F1783CEE3F2431F8FC5E0F3B8FD073D3C4954454D3E405029012B355AAD56AB7D8FCACD56AB55AADF63
310
F41CF4F125511534F901418F4F1455164F9014062B355AAD56AB7D8FCACD56AB55AADF63F41CF4F125511534F9014061309A4F2590CBA4FC4C2693C96432E93F41CF4F125511534F901901002B355AAD56AB7D8FCACD56AB55AADF63FA2000000000000008204018000618048220681A048120280C88214844882034852034
310
8452028521485214814000000000000F0BF0000000000003C2FD018020000C3008070000C3000EF7D3E365DBA88FC3BDF4F8D976EA23F2E07A17AD46E2F8FF20341A405024150741A4069703D0BD6A3717C7F0040001860100400018601002000186002026280A02
340
0
340
0
 94
        0
  0
ACAD_PROXY_OBJECT
  5
AC77
330
AC70
100
AcDbProxyObject
 90
      499
 91
      614
 95
       25
 70
     0
 93
      994
310
5DC0B81E85EB51B8CE3F4BCF511155105253080F11115510525317D3105091530F971414D0D05311480F11115510525317D05094D4D0D053114F92341C9A9999999999B93F26A666666666724FC000000000000E03F4000000000000004000000000000005100000000000000244081E0000C3002E07A17AD46E338FC0
340
12AC
340
A6BC
 94
        0
  0
ACAD_PROXY_OBJECT
  5
AC78
330
AC70
100
AcDbProxyObject
 90
      499
 91
      615
 95
       25
 70
     0
 93
      823
310
5DC031703D0BD6A3719C7E999EA9A2A1AA24A7A7101E29A2A1AA24A7A72FA620A122A62FA324A929AA1F169E29A2A1AA24A7A72FA620A122A62FA620A9AA1F1353333333333B27E3FFFE01C00030C008840F000061801353333333333B27F1703D0BD6A3719C7E
340
12AC
340
A6BC
 94
        0
  0
ACAD_PROXY_OBJECT
  5
AC79
330
AC70
100
AcDbProxyObject
 90
      499
 91
      616
 95
       25
 70
     0
 93
      280
310
5DC2B8716D9CEF7C33F0A5723F0BD4A2F0FC295C8FC2F528BC3FA199999999999F99FC
  0
ACAD_PROXY_OBJECT
  5
AC7A
330
AC70
100
AcDbProxyObject
 90
      499
 91
      617
 95
       25
 70
     0
 93
       14
310
5DE4
340
0
 94
        0
  0
ACAD_PROXY_OBJECT
  5
AC7B
330
AC70
100
AcDbProxyObject
 90
      499
 91
      618
 95
       25
 70
     0
 93
     7123
310
5DD084050BA4050AA405024050E836583938376838C815B8367203140405013D3C696628657175616C28486F6C653A7461707065642C223022292C22252563222C486F6C653A6E6F6D696E616C2022202220696628657175616C28486F6C653A756E6974732C223122292C2278222C222D222920222022293E3C6966286571
310
75616C28486F6C653A7461707065642C223022292C486F6C653A6469612C486F6C653A706974636864657363293E207B5C46414D4744543B787D203C696628657175616C28486F6C653A7465726D696E6174696F6E2C223022292C486F6C653A64657074682C228AD192CA22293E5C507B5C46414D4744543B767D2525633C
310
486F6C653A63746469613E207B5C46414D4744543B787D203C486F6C653A637464657074683E406901405034050E836583938376838C815B83672031405FE3D3C696628657175616C28486F6C653A7461707065642C223022292C22252563222C486F6C653A6E6F6D696E616C2022202220696628657175616C28486F6C653
310
A756E6974732C223122292C2278222C222D222920222022293E3C696628657175616C28486F6C653A7461707065642C223022292C486F6C653A6469612C486F6C653A706974636864657363293E207B5C46414D4744543B787D203C696628657175616C28486F6C653A7465726D696E6174696F6E2C223022292C486F6C653
310
A64657074682C228AD192CA22293E5C507B5C46414D4744543B777D2525633C486F6C653A63746469613E2058203C486F6C653A6374616E676C653E252564406901405014050E836583938376838C815B83672031405CF3D3C696628657175616C28486F6C653A7461707065642C223022292C22252563222C486F6C653A6E
310
6F6D696E616C2022202220696628657175616C28486F6C653A756E6974732C223122292C2278222C222D222920222022293E3C696628657175616C28486F6C653A7461707065642C223022292C486F6C653A6469612C486F6C653A706974636864657363293E5C507B5C46414D4744543B787D203C696628657175616C2848
310
6F6C653A7465726D696E6174696F6E2C223022292C486F6C653A64657074682C228AD192CA22293E4069014051E4090E836583938376838C815B83672032405173D3C535444503A444553433E203C535444503A5354443E40690E836583938376838C815B836720314050C3D3C535444503A444553433E40690240515AAABB
310
A060
360
AC7C
330
AC7C
360
AC7D
330
AC7D
360
AC7E
330
AC7E
360
AC7F
360
AC80
330
AC7F
330
AC80
 94
        0
  0
ACAD_PROXY_OBJECT
  5
AC81
330
AC70
100
AcDbProxyObject
 90
      499
 91
      542
 95
       25
 70
     0
 93
       26
310
5DD02A80
340
0
 94
        0
  0
ACAD_PROXY_OBJECT
  5
AC82
330
AC70
100
AcDbProxyObject
 90
      499
 91
      543
 95
       25
 70
     0
 93
      258
310
5DD02000000000000380FC000000000000E03F408F0F9023C3E40DB18CCCFFFF80
340
A6BE
340
0
340
0
340
A6C1
340
A6C2
340
0
340
A6C3
340
A6C4
340
A6C5
340
0
 94
        0
  0
ACAD_PROXY_OBJECT
  5
AC83
330
AC70
100
AcDbProxyObject
 90
      499
 91
      619
 95
       25
 70
     0
 93
    13993
310
5DD1D023FFFFFFFD010300002E07A17AD46E2F8FE00800030C01010300002E07A17AD46E2F8FE00800030C00050C8DC0955782CC838A83588367014ED1D15395149050D3CB1294138B0C0B23702555E0B320E2A0D620D9CB11D15395149055160B095CCB0A11D1539354D1C819D95B991A5B5E880CCC0A78000C0000000000
310
00000000000000000000007B14AE47E17AA43F2E07A17AD46E2F8FE00800030C007B14AE47E17AA43F2E07A17AD46E2F8FE00800030C020143CF4F111959985D5B1D151A5D1B194F8050A8C8A8365815B8375838B014E51D15395149050D3CB1294138B0C0B2322A0D96056E0DD60E2CB11D15395149055160B095CCB0A11D
310
1539354D1C819D95B991A5B5E880CCC4A78000C000000000000000000000000000000007B14AE47E17AA43F2E07A17AD46E2F8FE00800030C007B14AE47E17AA43F2E07A17AD46E2F8FE00800030C020143CF4F111959985D5B1D151A5D1B194F90D4410F4450240D0441507431014391244D05449074510C4350F00014123
310
2D24D7C053247454E545241434F2C4A504E2C302C8CB4935F2C47454E54524154582C25732C2847454E4D53472067656E64696D7A20312900010104002214000282465A49AF80A648E8A9CA8A482869E5894A09C586059196926BE588E8A9CA8A482A8B0584AE658508E8A9C9AA68E40CECADCC8D2DAF44062520002020800
310
43E80005028C8A014C11D15395149050D3CB1294138B0C0B23228B11D15395149055160B095CCB0A11D1539354D1C819D95B991A5B5E880C8A4054E3D3C4946284953424C414E4B28486F6C654974656D292C4F726967696E2C20486F6C654974656D293E3C4946284953424C414E4B28486F6C654974656D292C22222C204
310
86F6C65496E646578293E010104002234000280AC00A5E8E8A9CA8A482869E5894A09C586058B0588E8A9CA8A482A8B0584AE658508E8A9C9AA68E40CECADCC8D2DAF4406652000202000040A800050159014BD1D15395149050D3CB1294138B0C0B164B11D15395149055160B095CCB0A11D1539354D1C819D95B991A5B5E
310
880D0A4000404000081D0000A02A40297A3A2A72A2920A1A796252827161816291623A2A72A2920AA2C1612B9961423A2A726A9A39033B2B73234B6BD101B148000808000104A000140A0F4C053047454E545241434F2C4A504E2C302C83D32C47454E54524154582C25732C2847454E4D53472067656E64696D7A20372900
310
0101030020B400028141E980A608E8A9CA8A482869E5894A09C58605907A6588E8A9CA8A482A8B0584AE658508E8A9C9AA68E40CECADCC8D2DAF4407052000202020041E800050490E096BE014CD1D15395149050D3CB1294138B0C0B243825AF8B11D15395149055160B095CCB0A11D1539354D1C819D95B991A5B5E880C8
310
C0A400040010008650000A091B012DB40299A3A2A72A2920A1A79625282716181646C04B6D1623A2A72A2920AA2C1612B9961423A2A726A9A39033B2B73234B6BD10189A148000808280501A00014320D0E0E4E0D9A0D8A0D3A0D60053B47454E545241434F2C4A504E2C302C8343839383668362834E83582C47454E54524
310
154582C25732C2847454E4D53472067656E64696D7A203135290001010500A1D4000281464500A628E8A9CA8A482869E5894A09C5860591914588E8A9CA8A482A8B0584AE658508E8A9C9AA68E40CECADCC8D2DAF440626C52000202080044A800050E8C8A8343839383668362834E8358014F51D15395149050D3CB129413
310
8B0C0B2322A0D0E0E4E0D9A0D8A0D3A0D60B11D15395149055160B095CCB0A11D1539354D1C819D95B991A5B5E880C4DCA4000404140089D0000A0921292F940299A3A2A72A2920A1A796252827161816484A4BE51623A2A72A2920AA2C1612B9961423A2A726A9A39033B2B73234B6BD10189C948000808300114A0001412
310
2D2E29A4053347454E545241434F2C4A504E2C302C8B4B8A692C47454E54524154582C25732C2847454E4D53472067656E64696D7A20323129000100040021B4878030026A6666666667A4FE064D4CCCCCCCCCF49FC049A9999999999E93F809353333333333D27F0226A6666666667A4FE044D4CCCCCCCCCF49FC0D818000
310
00000000000810026A666666666764FE004D4CCCCCCCCCF49FC009A9999999999E93F801353333333333D27F032E07A17AD46E378FE0633B333333333032050F006004D4CCCCCCCCCF49FC0C9A9999999999E93F819353333333333D27F0326A6666666667A4FE064D4CCCCCCCCCF49FC0C9A9999999999E93F81B03000000
310
00000000102004D4CCCCCCCCCEC9FC009A9999999999E93F819353333333333D27F0026A6666666667A4FE065C0F42F5A8DC6F1FC0C6766666666660640A088800000021E000000890000002260000008220E000200890000002060002008100008000
340
0
340
0
340
0
340
0
340
A6BC
340
A6BC
 94
        0
  0
ACAD_PROXY_OBJECT
  5
AC84
330
AC70
100
AcDbProxyObject
 90
      499
 91
      537
 95
       25
 70
     0
 93
     5214
310
5DD9741105394D2506414E53495F4342905394D257D512551554D15414E53495F54525F5265766973696F6E6C697374614191143202831372E307832322E30696E63682941905394D257D0D1146202832382E307834302E30696E63682941905394D257D191142202831312E307831372E30696E63682941905394D257D091
310
144202832322E307833342E30696E63682941905394D257D111145202833342E307834342E30696E63682941905394D257D1510412028382E357831312E30696E63682941905394D257D050543905B9CDA482557247A25E4C81110D0C414E53495F5449544C45444343505B9CDA482557247A25E4C81050B414E53495F5449
310
544C454143905B9CDA482557247A25E4C81050D0C414E53495F5449544C45414343505B9CDA482557247A25E4C81110B414E53495F5449544C4544425554C82557247A25E4D0A414E53495F544954555342110979A97F0838A8358836720415F42525F45505394D257D09497D4995D9A5CDA5BDB9B1A5CDD18510979A97F08
310
38A8358836720415F54525F45505394D257D51497D4995D9A5CDA5BDB9B1A5CDD18510979A97F0838A8358836720445F42525F45505394D257D09497D4995D9A5CDA5BDB9B1A5CDD19110979A97F0838A8358836720445F54525F45505394D257D51497D4995D9A5CDA5BDB9B1A5CDD19110979A97F0838A8358836720415F
310
424C5F45505394D257D09317D4995D9A5CDA5BDB9B1A5CDD18510979A97F0838A8358836720415F544C5F45505394D257D51317D4995D9A5CDA5BDB9B1A5CDD18510979A97F0838A8358836720445F424C5F45505394D257D09317D4995D9A5CDA5BDB9B1A5CDD19110979A97F0838A8358836720445F544C5F45505394D25
310
7D51317D4995D9A5CDA5BDB9B1A5CDD190
  0
ACAD_PROXY_OBJECT
  5
9A37
330
9A35
100
AcDbProxyObject
 90
      499
 91
      590
 95
       25
 70
     0
 93
       13
310
5DD8
  0
ACAD_PROXY_OBJECT
  5
9A38
330
9A35
100
AcDbProxyObject
 90
      499
 91
      591
 95
       25
 70
     0
 93
       96
310
5DEA0E80A0280A0280A0280F
  0
ACAD_PROXY_OBJECT
  5
9A39
330
9A35
100
AcDbProxyObject
 90
      499
 91
      592
 95
       25
 70
     0
 93
      272
310
5DD0E4050140501405014050140501405014050140D01405012C0000000000000040
340
9A43
 94
        0
  0
ACAD_PROXY_OBJECT
  5
9A3A
330
9A35
100
AcDbProxyObject
 90
      499
 91
      593
 95
       25
 70
     0
 93
      497
310
5DE8666666666667A67E199999999999E99FD22405014050140501405014050140501405014050140501405014050140501405014050140501405014050100
340
9A44
 94
        0
  0
ACAD_PROXY_OBJECT
  5
9A3B
330
9A35
100
AcDbProxyObject
 90
      499
 91
      594
 95
       25
 70
     0
 93
       10
310
5DC0
  0
ACAD_PROXY_OBJECT
  5
9A3C
330
9A35
100
AcDbProxyObject
 90
      499
 91
      595
 95
       25
 70
     0
 93
      257
310
5DE290EA22A7D90F49F80000000000001081400000000000004204010000618000
340
9A45
340
9A46
 94
        0
  0
ACAD_PROXY_OBJECT
  5
9A3D
330
9A35
100
AcDbProxyObject
 90
      499
 91
      596
 95
       25
 70
     0
 93
    13013
310
5DD0E411255115350141236025B690140501406901000000000000091013347454E545241434F2C4A504E2C302C8D8096DA2C47454E54524154582C25732C2847454E4D53472067656E647767203232322940690120281A8AA2CA0282484A4BE52028120280A0320200000000000012202668E8A9CA8A482869E5894A09C58
310
605921292F94588E8A9CA8A482A8B0584AE658508E8A9C9AA68E40CECADCC8EECE406464665280D202405044E414D454050496BC914F4051C40640A80000000000004E404CD1D15395149050D3CB1294138B0C0B25AF2453CB11D15395149055160B095CCB0A11D1539354D1C819D95B991DD9C80C8C8D8A50192C3D494628
310
4953424C414E4B28504152543A4E414D45292C424C4F434B3A4E414D452C504152543A4E414D452940480A0A888AA686A480A09251B1DBE80A3A80C81D0000000000100A28099A3A2A72A2920A1A7962528271618164946C76F9623A2A72A2920AA2C1612B9961423A2A726A9A39033B2B7323BB39019189B94A0348090142
310
14D51053911054911014122D2E29A50147501904A000000000000125013347454E545241434F2C4A504E2C302C8B4B8A692C47454E54524154582C25732C2847454E4D53472067656E64776720323138294069012028426A0AA22A924A0A62028246EF4BDFA028EA0320B40000000000001CA02668E8A9CA8A482869E5894A
310
09C5860591BBD2F7E588E8A9CA8A482A8B0584AE658508E8A9C9AA68E40CECADCC8EECE406464625280D202405044E4F544540504928D8B4C4051D40641A80000000000003E404CD1D15395149050D3CB1294138B0C0B24A362D30B11D15395149055160B095CCB0A11D1539354D1C819D95B991DD9C80C8C8D4A501240480
310
A0CAC8A9C889EA480A1106F1072706BF02B680A3A80C83D00000000000007C809BA3A2A72A2920A1A79625282716181641BC41C9C1AFC0AD9623A2A72A2920AA2C1612B9961423A2A726A9A39033B2B7323BB39019191A14A0248090141911154D0D48C90141A43825AF880C90147501908A000000000020145013447454E5
310
45241434F2C4A504E2C302C90E096BE20322C47454E54524154582C25732C2847454E4D53472067656E6477672033362940490120284A9AA20A72220A922192028345A5C53490192028EA03213400000000000024A026A8E8A9CA8A482869E5894A09C586059169714D24064588E8A9CA8A482A8B0584AE658508E8A9C9AA6
310
8E40CECADCC8EECE4064646052809202405094D4154455249414C32405068DDE97BF20324051D40642A8713D0AD7A37045404D11D15395149050D3CB1294138B0C0B2377A5EFC80C8B11D15395149055160B095CCB0A11D1539354D1C819D95B991DD9C80D0C0A501240480A089A82A6A680A091D7F2F9480A3A80A0485A06
310
8100000000000007C809923A2A72A2920A1A796252827161816475FCBE51623A2A72A2920AA2C1612B9961423A2A726A9A39033B2B7323BB3901A1914A024809014154149250D150141226FE29A501475014090C409020000000000000F9013247454E545241434F2C4A504E2C302C89BF8A692C47454E54524154582C2573
310
2C2847454E4D53472067656E6477672034332940490120281A224A6A02824850CB202028EA028121A81A040000000000001F202648E8A9CA8A482869E5894A09C58605921432C80588E8A9CA8A482A8B0584AE658508E8A9C9AA68E40CECADCC8EECE406868528092024050E445020000000000000510201C00030C0001018
310
0000000000003E400000000000000F901073D3C4954454D3E4050180000000000003E400000000000000F901073D3C4954454D3E40501800000000000034400000000000000D101073D3C4954454D3E40501800000000000034400000000000000D101073D3C4954454D3E405029010000000000000F9000000000000003E4
310
041CF4F125511534F901418F4F1455164F9014060000000000000F9000000000000003E4041CF4F125511534F9014060000000000000D100000000000000344041CF4F125511534F901901000000000000000F9000000000000003E40A2200000000000008204038000618048220681A048120280C88214844882034852034
310
8452028521485214814000000000000F0BF0000000000003C2FD018020000C3008070000C3003373333333333B0FCCDCCCCCCCCCCEC3F000000000000031012034164050341105901A000000000000062040100006180401000061804008000618008098A02808
340
0
340
0
 94
        0
  0
ACAD_PROXY_OBJECT
  5
9A3E
330
9A35
100
AcDbProxyObject
 90
      499
 91
      597
 95
       25
 70
     0
 93
      898
310
5DC4000000000000144048CF4F11115510525317D3105091530F880A0F11115510525317D05094D4D0D053114F8A51141C9A9999999999B93F26A666666666724FC000000000000E03F400000000000000400000000000000510000000000000024408070000C300000000000000051000
340
16
340
9A36
 94
        0
  0
ACAD_PROXY_OBJECT
  5
9A3F
330
9A35
100
AcDbProxyObject
 90
      499
 91
      598
 95
       25
 70
     0
 93
      823
310
5DC0B00000000000002880959E9E29A2A1AA24A7A72FA620A122A62FA324A929AA1F169E29A2A1AA24A7A72FA620A122A62FA620A9AA1F000000000000048803FFFE01C00030C0088C0380006180000000000000048800000000000000A2000000000000002880
340
652
340
9A36
 94
        0
  0
ACAD_PROXY_OBJECT
  5
9A40
330
9A35
100
AcDbProxyObject
 90
      499
 91
      599
 95
       25
 70
     0
 93
      152
310
5DE80000000000000840A3D0A5723F0BD1F200
  0
ACAD_PROXY_OBJECT
  5
9A41
330
9A35
100
AcDbProxyObject
 90
      499
 91
      600
 95
       25
 70
     0
 93
       14
310
5DE0
340
0
 94
        0
  0
ACAD_PROXY_OBJECT
  5
9A42
330
9A35
100
AcDbProxyObject
 90
      499
 91
      601
 95
       25
 70
     0
 93
     8619
310
5DD084050BA4050AA405024050E836583938376838C815B836720314043A013D2525633C486F6C653A63746469613E2078203C486F6C653A637464657074683E20555C503C696628657175616C28486F6C653A7461707065642C223022292C22252563222C486F6C653A6E6F6D696E616C202220782022293E3C6966286571
310
75616C28486F6C653A7461707065642C223022292C486F6C653A6469612C486F6C653A706974636864657363293E3C696628657175616C28486F6C653A7461707065642C223122292C22207820222C2222293E3C696628657175616C28486F6C653A7461707065642C223122292C486F6C653A74617064657074682C222229
310
3E203C696628657175616C28486F6C653A7465726D696E6174696F6E2C223022292C22202F20222C2222293E3C696628657175616C28486F6C653A7465726D696E6174696F6E2C223022292C486F6C653A64657074682C2222293E406901405034050E836583938376838C815B836720314043B013D2525633C486F6C653A6
310
3746469613E2078203C486F6C653A6374616E676C653E2525645C503C696628657175616C28486F6C653A7461707065642C223022292C22252563222C486F6C653A6E6F6D696E616C202220782022293E3C696628657175616C28486F6C653A7461707065642C223022292C486F6C653A6469612C486F6C653A70697463686
310
4657363293E3C696628657175616C28486F6C653A7461707065642C223122292C22207820222C2222293E3C696628657175616C28486F6C653A7461707065642C223122292C486F6C653A74617064657074682C2222293E203C696628657175616C28486F6C653A7465726D696E6174696F6E2C223022292C22202F20222C2
310
222293E3C696628657175616C28486F6C653A7465726D696E6174696F6E2C223022292C486F6C653A64657074682C2222293E406901405014050E836583938376838C815B8367203140416013D3C696628657175616C28486F6C653A7461707065642C223022292C22252563222C486F6C653A6E6F6D696E616C2022207820
310
22293E3C696628657175616C28486F6C653A7461707065642C223022292C486F6C653A6469612C486F6C653A706974636864657363293E3C696628657175616C28486F6C653A7461707065642C223122292C22207820222C2222293E3C696628657175616C28486F6C653A7461707065642C223122292C486F6C653A746170
310
64657074682C2222293E203C696628657175616C28486F6C653A7465726D696E6174696F6E2C223022292C22202F20222C2222293E3C696628657175616C28486F6C653A7465726D696E6174696F6E2C223022292C486F6C653A64657074682C2222293E4069014051E4090E836583938376838C815B83672032405173D3C5
310
35444503A444553433E203C535444503A5354443E40690E836583938376838C815B836720314050C3D3C535444503A444553433E40690240515AAABBA120
360
9A4B
330
9A4B
360
9A4C
330
9A4C
360
9A4A
330
9A4A
360
9A49
360
9A48
330
9A49
330
9A48
 94
        0
  0
ACAD_PROXY_OBJECT
  5
9A4D
330
9A35
100
AcDbProxyObject
 90
      499
 91
      542
 95
       25
 70
     0
 93
    23182
310
5DD02491013041105357CC201C00030C0132441013141105357CC603800030C0132441013241105357CCA01400030C0132441013341105357CCE01800030C01199013441105357CD200C00030C01199013541105357CD600C00030C01199013641105357CDA00800030C01239013741105357CDE01000030C0119901384110
310
5357CE200400030C01199013941105357CE63F400030C0241102324141505357CC4C201C00030C0132902344141505357CC4C600C00030C0119902495041505357CC4CA01C00030C013240902304E41505357CC13A01C00030C0132902314E41505357CC53A03800030C0132902324E41505357CC93A01400030C013290233
310
4E41505357CCD3A01800030C0119902344E41505357CD13A00C00030C0119902354E41505357CD53A00C00030C0119902364E41505357CD93A00800030C0123902374E41505357CDD3A01000030C0119902384E41505357CE13A00400030C0119902394E41505357CE53A3F400030C024110332414E41905357CC4C13A01C0
310
0030C013290334414E41905357CC4C53A00C00030C011990349504E41905357CC4C93A01C00030C0132409044B4C494E41505357D0D3200400030C011942504494E464F42105357D410549151A01000030C011942D055241484D3541905357D093D4A01C00030C0132425045649455742105357D5925155D4E00400030C011
310
942D06424548494E4441905357D25395A3F400030C0243505545241494C41505357D514A00C00030C01194250348494441905357D21251201C00030C01194250356495341905357D59254E01C00030C01324250650415244494D42505357D41054911253600C00030C01194250652454644494D42505357D49151911253601
310
000030C0119425774110531514901348070000C3004C9034110915312501348000000C0003FFFFFFFD034110921395901398000000C0003FFFFFFFE415092139594D06424548494E448000000C0003FFFFFFFE411093125110234418000000C0003FFFFFFFD03411093D05410234418000000C0003FFFFFFFD03411093D48C
310
9055241484D358010000C300466411093D48CD055241484D358020000C30048E411093D48D5055241484D358000000C0003FFFFFFFE411093D48DD055241484D3581E0000C30051903411094105410234418000000C0003FFFFFFFD03411094115610234418000000C0003FFFFFFFD034110951112501358000000C0003FFF
310
FFFFD034110D0530C901348000000C0003FFFFFFFE4110D0530CD01348020000C30048E4110D0530D501348070000C3004CA4110D0530DD013481E0000C30051A4110D15393901378000000C0003FFFFFFFE4110D15395D01378000000C0003FFFFFFFE4110D312539044B4C494E8000000C0003FFFFFFFE4110D3D38C5013
310
08000000C0003FFFFFFFD034110D3D38C901318000000C0003FFFFFFFD034110D3D38CD01328000000C0003FFFFFFFD034110D3D38D101328000000C0003FFFFFFFD034111115494101348000000C0003FFFFFFFD034111115510501348000000C0003FFFFFFFE4111125051D01358000000C0003FFFFFFFE4111125312501
310
358000000C0003FFFFFFFE411112535410650415244494D8000000C0003FFFFFFFE411112535490652454644494D8000000C0003FFFFFFFE411156135410234418000000C0003FFFFFFFD034111915353901388000000C0003FFFFFFFE415191535413901388030000C3003FFFFFFFE4151915354D410234418000000C0003
310
FFFFFFFE4151915354D510234418030000C300466415191535593901328000000C0003FFFFFFFE415191535595101328030000C3004664111931055101308000000C0003FFFFFFFD03411194905490234418000000C0003FFFFFFFD034111D49312501358000000C0003FFFFFFFD034111D5931250234418000000C0003FFF
310
FFFFD034112105510D01388000000C0003FFFFFFFD014112125113901338000000C0003FFFFFFFD034112125115D01338000000C0003FFFFFFFD034112131253901348000000C0003FFFFFFFD01411213D0D3901378000000C0003FFFFFFFE411213D0D5D01378000000C0003FFFFFFFE4112539193D04494E464F8000000C
310
0003FFFFFFFE4113105112501348000000C0003FFFFFFFD034113115051101358000000C0003FFFFFFFE419397D0921395902394E8000000C0003FFFFFFFE419397D0D3D38C502304E8000000C0003FFFFFFFD03419397D0D3D38C902314E8000000C0003FFFFFFFD03419397D0D3D38CD02324E8000000C0003FFFFFFFD03
310
419397D0D3D38D102324E8000000C0003FFFFFFFD03419397D0D15393902374E8000000C0003FFFFFFFE419397D0D15395D02374E8000000C0003FFFFFFFE419397D1125312502354E8000000C0003FFFFFFFE419397D2105510D02384E8000000C0003FFFFFFFD01419397D2125113902334E8000000C0003FFFFFFFD0341
310
9397D2125115D02334E8000000C0003FFFFFFFD03419397D3115051102354E8000000C0003FFFFFFFE419397D391D25410349504E8000000C0003FFFFFFFE419397D412105390334414E8000000C0003FFFFFFFE419397D510D3D3902304E8000000C0003FFFFFFFD03419397D5121312502344E8000000C0003FFFFFFFD01
310
419397D5131153902304E8000000C0003FFFFFFFD03419397D516150CD02364E8000000C0003FFFFFFFD03419397D594131250332414E8000000C0003FFFFFFFE411391D25410249508000000C0003FFFFFFFE411410530C9055241484D358010000C300466411410530CD055241484D358020000C30048E411410530D5055
310
241484D358000000C0003FFFFFFFE411410530DD055241484D3581E0000C30051903411412105390234418000000C0003FFFFFFFE411413D4D3901368070000C3004CA419413D4D49151901368050000C3004C903411413D4D6101368000000C0003FFFFFFFD03411414D150D0234418000000C0003FFFFFFFD03411490D1D
310
3901378000000C0003FFFFFFFE411490D1D5D01378000000C0003FFFFFFFE4114919112501348000000C0003FFFFFFFD034114945514901348070000C3004C903411494D093D01348000000C0003FFFFFFFD034114D09492D01348000000C0003FFFFFFFD014114D0D153901378000000C0003FFFFFFFD034114D150D51013
310
48000000C0003FFFFFFFD014114D15313901378000000C0003FFFFFFFD034114D15315D01378000000C0003FFFFFFFD034114D4D654D01308000000C0003FFFFFFFD034114D51312501348070000C3004C9034114D6508C501358000000C0003FFFFFFFD034114D6508C901358000000C0003FFFFFFFD034114D6508CD0135
310
8020000C30048E4114D6508D501358070000C3004C9034114D65353901378000000C0003FFFFFFFD034114D65355D01378000000C0003FFFFFFFD03411510D3D3901308000000C0003FFFFFFFD034115121312501348000000C0003FFFFFFFD01411512550C9055241484D358010000C300466411512550CD055241484D358
310
020000C30048E411512550D5055241484D358000000C0003FFFFFFFE411512550DD055241484D3581E0000C300519034115131153901308000000C0003FFFFFFFD03415514905253105545241494C8000000C0003FFFFFFFE41151492D3901378000000C0003FFFFFFFD0341151492D5D01378000000C0003FFFFFFFD03411
310
5149312501348000000C0003FFFFFFFD01411516150C501368030000C300466411516150C901368030000C300466411516150CD01368000000C0003FFFFFFFE411516150D501368070000C3004CA411516150DD013681E0000C30051A4115925155D04564945578000000C0003FFFFFFFE41159151121034849448000000C0
310
003FFFFFFFD0241159151159035649538000000C0003FFFFFFFD02411594131250232418000000C0003FFFFFFFE4116925690501348000000C0003FFFFFFFD01411354D653501358020000C30048E4290E4C9074C906465054C904465034650248D014651E519FD8
340
99B4
340
16
340
16
340
16
340
43
340
16
340
16
340
16
340
44
340
16
340
16
340
44
340
45
340
16
340
16
340
16
340
16
340
43
340
16
340
16
340
16
340
44
340
16
340
16
340
44
340
45
340
16
340
46
340
16
340
16
340
16
340
16
340
16
340
43
340
16
340
16
340
16
340
47
340
15
340
15
340
15
340
15
340
15
340
15
340
15
340
15
340
15
340
15
340
15
340
15
340
15
340
15
340
15
340
15
340
48
340
15
340
15
340
15
340
15
340
15
340
15
340
15
340
15
340
15
340
15
340
15
340
15
340
15
340
15
340
15
340
16
340
15
340
15
340
15
340
15
340
15
340
15
340
15
340
15
340
47
340
15
340
15
340
48
340
15
340
15
340
15
340
15
340
15
340
15
340
15
340
15
340
15
340
48
340
15
340
15
340
15
340
47
340
15
340
15
340
15
340
15
340
15
340
15
340
15
340
15
340
15
340
15
340
15
340
15
340
15
340
15
340
15
340
15
340
15
340
15
340
15
340
48
340
15
340
15
340
48
340
15
340
15
340
16
340
15
340
48
340
15
340
15
340
47
340
15
340
15
340
16
340
15
340
48
340
15
340
15
340
15
340
15
340
15
340
15
340
15
340
15
340
15
340
48
340
15
340
15
340
15
340
15
340
15
340
15
340
15
340
15
340
15
340
15
340
15
340
4B
340
16
 94
        0
  0
ACAD_PROXY_OBJECT
  5
9A4E
330
9A35
100
AcDbProxyObject
 90
      499
 91
      543
 95
       25
 70
     0
 93
      250
310
5DD020000000000000A1000000000000002440408F0F9023C3E409A0DCFFFF80
340
0
340
0
340
0
340
0
340
0
340
0
340
0
340
0
340
0
340
0
 94
        0
  0
ACAD_PROXY_OBJECT
  5
9A4F
330
9A35
100
AcDbProxyObject
 90
      499
 91
      603
 95
       25
 70
     0
 93
    13889
310
5DD1D003FFFFFFFD030300030000000000000310200800030C01030300030000000000000310200800030C00050C8DC0955782CC838A83588367014ED1D15395149050D3CB1294138B0C0B23702555E0B320E2A0D620D9CB11D15395149055160B095CCB0A11D1539354D1C819D95B991A5B5E880CCC0A78000C0000000000
310
00000000000000000000010000000000000310200800030C010000000000000310200800030C020143CF4F111959985D5B1D151A5D1B194F8050A8C8A8365815B8375838B014E51D15395149050D3CB1294138B0C0B2322A0D96056E0DD60E2CB11D15395149055160B095CCB0A11D1539354D1C819D95B991A5B5E880CCC4
310
A78000C000000000000000000000000000000010000000000000310200800030C010000000000000310200800030C020143CF4F111959985D5B1D151A5D1B194F90D44111409034110541D0C4350F4050E44D03449074510F000141232D24D7C053247454E545241434F2C4A504E2C302C8CB4935F2C47454E54524154582C
310
25732C2847454E4D53472067656E64696D7A20312900010104002214000281464500A608E8A9CA8A482869E5894A09C5860591914588E8A9CA8A482A8B0584AE658508E8A9C9AA68E40CECADCC8D2DAF4406452029E9E9E27B934B3B4B71F1E24A31427A91424A9A12620A7259427B934B3B4B7149624A9A12620A7259424B
310
A32B6949496111116111711149F1E24BA32B69F00808200111A000140560052F47454E545241434F2C4A504E2C302C582C47454E54524154582C25732C2847454E4D53472067656E64696D7A20332900010100002054000280AC80A5E8E8A9CA8A482869E5894A09C586058B2588E8A9CA8A482A8B0584AE658508E8A9C9AA
310
68E40CECADCC8D2DAF4406852000202000040E800050152014BD1D15395149050D3CB1294138B0C0B148B11D15395149055160B095CCB0A11D1539354D1C819D95B991A5B5E880D8A400040400008250000A0507A6029823A2A72A2920A1A79625282716181641E99623A2A72A2920AA2C1612B9961423A2A726A9A39033B2
310
B73234B6BD101B948000808180105A000140A0F4C053047454E545241434F2C4A504E2C302C83D32C47454E54524154582C25732C2847454E4D53472067656E64696D7A203829000101010020F400028248704B5F00A668E8A9CA8A482869E5894A09C58605921C12D7C588E8A9CA8A482A8B0584AE658508E8A9C9AA68E40
310
CECADCC8D2DAF440646052000200080043280005048B4B8A69014CD1D15395149050D3CB1294138B0C0B22D2E29A4B11D15395149055160B095CCB0A11D1539354D1C819D95B991A5B5E880C8C4A4000400100086D0000A09196926BE029923A2A72A2920A1A796252827161816465A49AF9623A2A72A2920AA2C1612B9961
310
423A2A726A9A39033B2B73234B6BD10189480A02620202080043E80005048D8096DA014CD1D15395149050D3CB1294138B0C0B236025B68B11D15395149055160B095CCB0A11D1539354D1C819D95B991A5B5E880C4D0A4000404140280D0000A190687072706CD06C5069D06B0029DA3A2A72A2920A1A7962528271618164
310
1A1C1C9C1B341B141A741AC1623A2A72A2920AA2C1612B9961423A2A726A9A39033B2B73234B6BD10189A94800080828050EA000143A322A0D0E0E4E0D9A0D8A0D3A0D60053D47454E545241434F2C4A504E2C302C8C8A8343839383668362834E83582C47454E54524154582C25732C2847454E4D53472067656E64696D7A
310
2031372900010105002274000281464500A628E8A9CA8A482869E5894A09C5860591914588E8A9CA8A482A8B0584AE658508E8A9C9AA68E40CECADCC8D2DAF440626C52000202080044A8000504909497CA014CD1D15395149050D3CB1294138B0C0B242525F28B11D15395149055160B095CCB0A11D1539354D1C819D95B9
310
91A5B5E880C4E4A400040418008A521E000000000000001CA040C00000000000034408080000000000006881010000000000000D102040000000000001A204080000000000003440818000000000000728103000000000000125020600000000004028A040000000000000034408000000000000004881000000000000000D
310
102000000000000001A204000000000000003440818000000000000508143C0000000000000039408180000000000006881030000000000000D102060000000000001A2040C00000000000034408180000000000006881030000000000000E5020600000000000024A040C0000000000805140800000000000000688100000
310
00000000009102000000000000001A2040000000000000034408180000000000006881030000000000000A10284220000000878000002020000008380000020400000081800000208000000828000002028900000000
340
0
340
0
340
0
340
0
340
9A36
340
9A36
 94
        0
  0
ACAD_PROXY_OBJECT
  5
9A50
330
9A35
100
AcDbProxyObject
 90
      499
 91
      537
 95
       25
 70
     0
 93
     7018
310
5DD9740D254D3D0649534F5F4133429254D3D7D5125513115051349534F5F42525F5265766973696F6E6C69737446111413478342028323937783834316D6D2920421254D3D7D04D1E0D11141327835202835393478323130326D6D29421254D3D7D04C9E0D51141347839202832393778313839326D6D29421254D3D7D04D
310
1E0E51141337837202834323078323038306D6D29421254D3D7D04CDE0DD1141347838202832393778313638326D6D29421254D3D7D04D1E0E11141327834202835393478313638326D6D29421254D3D7D04C9E0D10E41312028353934783834316D6D29419254D3D7D04C51141347837202832393778313437316D6D29421
310
254D3D7D04D1E0DD1141347836202832393778313236316D6D29421254D3D7D04D1E0D91141347835202832393778313035316D6D29421254D3D7D04D1E0D5104130202838343078313138396D6D2920419254D3D7D04C10E41332028323937783432306D6D29419254D3D7D04CD1141327833202835393478313236316D6D
310
29421254D3D7D04C9E0CD10413478332028323937783633306D6D29421254D3D7D04D1E0CD1141337834202834323078313138396D6D29421254D3D7D04CDE0D11141337836202834323078313738336D6D29421254D3D7D04CDE0D91141337835202834323078313438366D6D29421254D3D7D04CDE0D50E4132202834323
310
0783539346D6D29419254D3D7D04C910413378332028343230783839316D6D29421254D3D7D04CDE0CD0E41342028323937783231306D6D29419254D3D7D04D1124130783220283131383978313638326D6D29421254D3D7D04C1E0C9124130783320283131383978323532336D6D29421254D3D7D04C1E0CD114131783420
310
2838343178323337386D6D29421254D3D7D04C5E0D11141317833202838343178313738336D6D29421254D3D7D04C5E0CD02431254D3C82557247A25E4C81050A49534F5F5449544C4541431254D3C82557247A25E4C81090A49534F5F5449544C45424110E979A97F0838A835883675F42525F44D254D3D7D09497D4995D9
310
A5CDA5BDB9B1A5CDD10E979A97F0838A835883675F54525F44D254D3D7D51497D4995D9A5CDA5BDB9B1A5CDD10E979A97F0838A835883675F424C5F44D254D3D7D09317D4995D9A5CDA5BDB9B1A5CDD10E979A97F0838A835883675F544C5F44D254D3D7D51317D4995D9A5CDA5BDB9B1A5CDD00
  0
ACAD_PROXY_OBJECT
  5
9CBC
330
9CBB
100
AcDbProxyObject
 90
      499
 91
      527
 95
       25
 70
     0
 93
       86
310
5DEA0C80A0280A0280A034
  0
ACAD_PROXY_OBJECT
  5
9CBD
330
9CBB
100
AcDbProxyObject
 90
      499
 91
      528
 95
       25
 70
     0
 93
      282
310
5DD0E4050140501405014050140501405014050141101405014041000000000000001000
340
187
 94
        0
  0
ACAD_PROXY_OBJECT
  5
9CBE
330
9CBB
100
AcDbProxyObject
 90
      499
 91
      529
 95
       25
 70
     0
 93
      323
310
5DCC199999999999E99F91740501405014050140501405014050140501405014050140501405014040
340
0
 94
        0
  0
ACAD_PROXY_OBJECT
  5
9CBF
330
9CBB
100
AcDbProxyObject
 90
      499
 91
      530
 95
       25
 70
     0
 93
       10
310
5DC0
  0
ACAD_PROXY_OBJECT
  5
9CC0
330
9CBB
100
AcDbProxyObject
 90
      499
 91
      531
 95
       25
 70
     0
 93
      257
310
5DE0C16A22A7D90F49F80000000000001081400000000000004204010000618000
340
188
340
189
 94
        0
  0
ACAD_PROXY_OBJECT
  5
9CC1
330
9CBB
100
AcDbProxyObject
 90
      499
 91
      532
 95
       25
 70
     0
 93
     5277
310
5DD06411255115350141236025B6901405014069010000000000000910240690120281A8AA2CA0282484A4BE52028120280A032020000000000001220480D202405044E414D454050496BC914F4051C40640A80000000000004E4090193C3D3C4946284953424C414E4B28504152543A4E414D45292C424C4F434B3A4E414D
310
452C504152543A4E414D45293E3C41435F44455343524950544E3E40480A109A82A88AA492829880A091BBD2F7E80A3A80C81D0E27A15AF46E08A81203480901411393D5115014124A363B7D0147501904A0000000000000F902406428F4F1050D7D393D5114F901202832B22A72227A92028366EF6EE06F582028EA0320B4
310
0000000000001F20480C879E9E20A1AFAB27222FA620A122A61F20240506445020000000000000490201C00030C00010180000000000003E400000000000000F901073D3C4954454D3E4050180000000000003E400000000000000F901073D3C4954454D3E40501800000000000034400000000000000D101073D3C4954454
310
D3E40501800000000000034400000000000000D101073D3C4954454D3E405029010000000000000F9000000000000003E4041CF4F125511534F901418F4F1455164F9014060000000000000F9000000000000003E4041CF4F125511534F901800000000000034400000000000000D101073D3C4954454D3E40640400000000
310
0000003E400000000000000F90288800000000000020810000001800120881A068120480A032208521122080D21480D211480A1485214852050000000000003C2FC000000000000F0BF40600800030C0200400030C00CDCCCCCCCCCCEC3F3373333333333B0FC3333333333330940C80D069014090341504901A1999999999
310
9984A040100006180400800061804010000618008098A02808
340
0
340
0
 94
        0
  0
ACAD_PROXY_OBJECT
  5
9CC2
330
9CBB
100
AcDbProxyObject
 90
      499
 91
      537
 95
       25
 70
     0
 93
     3042
310
5DD9740D29254D064A49535F413342929254D7D512551311505134A49535F42525F5265766973696F6E6C6973744190F4134522028323937783231306D6D2941D29254D7D04D1490E41312028353934783834316D6D2941929254D7D04C50F41344C2028323130783239376D6D2941D29254D7D04D1310E413320283239377
310
83432306D6D2941929254D7D04CD0E41322028343230783539346D6D2941929254D7D04C90F4130202838343178313138396D6D2941929254D7D04C10243129254C82557247A25E4C81050A4A49535F5449544C454143129254C82557247A25E4C81090A4A49535F5449544C45424110E979A97F0838A835883675F42525F4
310
4D29254D7D09497D4995D9A5CDA5BDB9B1A5CDD10E979A97F0838A835883675F54525F44D29254D7D51497D4995D9A5CDA5BDB9B1A5CDD10E979A97F0838A835883675F424C5F44D29254D7D09317D4995D9A5CDA5BDB9B1A5CDD10E979A97F0838A835883675F544C5F44D29254D7D51317D4995D9A5CDA5BDB9B1A5CDD00
  0
ACAD_PROXY_OBJECT
  5
9CC3
330
9CBB
100
AcDbProxyObject
 90
      499
 91
      538
 95
       25
 70
     0
 93
      898
310
5DC4000000000000124048CF4F11115510525317D3105091530F880A0F11115510525317D05094D4D0D053114F8A50241C9A9999999999B93F26A666666666724FC000000000000E03F400000000000000400000000000000510000000000000024408070000C300000000000000049000
340
16
340
180
 94
        0
  0
ACAD_PROXY_OBJECT
  5
9CC4
330
9CBB
100
AcDbProxyObject
 90
      499
 91
      539
 95
       25
 70
     0
 93
      823
310
5DC0B00000000000002480959E9E29A2A1AA24A7A72FA620A122A62FA324A929AA1F169E29A2A1AA24A7A72FA620A122A62FA620A9AA1F000000000000048803FFFE01C00030C008140380006180000000000000048800000000000000A2000000000000002480
340
652
340
180
 94
        0
  0
ACAD_PROXY_OBJECT
  5
9CC5
330
9CBB
100
AcDbProxyObject
 90
      499
 91
      540
 95
       25
 70
     0
 93
      152
310
5DE8273108AC1C5A0640A3D0A5723F0BD1F200
  0
ACAD_PROXY_OBJECT
  5
9CC6
330
9CBB
100
AcDbProxyObject
 90
      499
 91
      604
 95
       25
 70
     0
 93
       14
310
5DE0
340
0
 94
        0
  0
ACAD_PROXY_OBJECT
  5
9CC7
330
9CBB
100
AcDbProxyObject
 90
      499
 91
      541
 95
       25
 70
     0
 93
     6059
310
5DD084050BA4050AA405024050E836583938376838C815B83672031405983D3C486F6C653A6469613E3C696628657175616C28486F6C653A7465726D696E6174696F6E2C223022292C2220905B82B320222C22208368838A838B22293E3C696628657175616C28486F6C653A7465726D696E6174696F6E2C223022292C486F
310
6C653A64657074682C2222293E2C203C486F6C653A63746469613E2082B482AE82E882CC905B82B3203C486F6C653A637464657074683E406901405034050E836583938376838C815B83672031405EF3D3C486F6C653A6374616E676C653E252564202525633C486F6C653A63746469613E208E4D8C8A2C203C69662865717
310
5616C28486F6C653A7461707065642C223022292C22252563222C486F6C653A6E6F6D696E616C202220782022293E3C696628657175616C28486F6C653A7461707065642C223022292C486F6C653A6469612C486F6C653A706974636864657363293E203C696628657175616C28486F6C653A7465726D696E6174696F6E2C2
310
23022292C22905B82B320222C222022293E3C696628657175616C28486F6C653A7465726D696E6174696F6E2C223022292C486F6C653A64657074682C2222293E406901405014050E836583938376838C815B83672031405C73D3C696628657175616C28486F6C653A7461707065642C223022292C22252563222C486F6C65
310
3A6E6F6D696E616C202220782022293E3C696628657175616C28486F6C653A7461707065642C223022292C486F6C653A6469612C486F6C653A706974636864657363293E203C696628657175616C28486F6C653A7465726D696E6174696F6E2C223022292C22905B82B320222C222022293E3C696628657175616C28486F6C
310
653A7465726D696E6174696F6E2C223022292C486F6C653A64657074682C2222293E4069014051E4090E836583938376838C815B83672032405173D3C535444503A444553433E203C535444503A5354443E40690E836583938376838C815B836720314050C3D3C535444503A444553433E40690240515AAABBA120
360
9CC8
330
9CC8
360
9CC9
330
9CC9
360
9CCA
330
9CCA
360
9CCB
360
9CCC
330
9CCB
330
9CCC
 94
        0
  0
ACAD_PROXY_OBJECT
  5
9CCD
330
9CBB
100
AcDbProxyObject
 90
      499
 91
      542
 95
       25
 70
     0
 93
       26
310
5DD02A80
340
0
 94
        0
  0
ACAD_PROXY_OBJECT
  5
9CCE
330
9CBB
100
AcDbProxyObject
 90
      499
 91
      543
 95
       25
 70
     0
 93
      250
310
5DD020000000000000A1000000000000002440408F0F9023C3E409A0DCFFFF80
340
58
340
1899
340
189A
340
5F
340
60
340
61
340
62
340
63
340
68
340
0
 94
        0
  0
ACAD_PROXY_OBJECT
  5
9CCF
330
9CBB
100
AcDbProxyObject
 90
      499
 91
      605
 95
       25
 70
     0
 93
    13889
310
5DD1D003FFFFFFFD030300030CCCCCCCCCCCC250200800030C01030300030CCCCCCCCCCCC250200800030C00050C8DC0955782CC838A83588367014ED1D15395149050D3CB1294138B0C0B23702555E0B320E2A0D620D9CB11D15395149055160B095CCB0A11D1539354D1C819D95B991A5B5E880CCC0A78000C0000000000
310
00000000000000000000010CCCCCCCCCCCC250200800030C010CCCCCCCCCCCC250200800030C020143CF4F111959985D5B1D151A5D1B194F8050A8C8A8365815B8375838B014E51D15395149050D3CB1294138B0C0B2322A0D96056E0DD60E2CB11D15395149055160B095CCB0A11D1539354D1C819D95B991A5B5E880CCC4
310
A78000C000000000000000000000000000000010CCCCCCCCCCCC250200800030C010CCCCCCCCCCCC250200800030C020143CF4F111959985D5B1D151A5D1B194F90D44111409034110541D0C4350F4050E44D03449074510F000141232D24D7C053247454E545241434F2C4A504E2C302C8CB4935F2C47454E54524154582C
310
25732C2847454E4D53472067656E64696D7A20312900010104002214000281464500A608E8A9CA8A482869E5894A09C5860591914588E8A9CA8A482A8B0584AE658508E8A9C9AA68E40CECADCC8D2DAF4406452029E9E9E27B934B3B4B71F1E24A31427A91424A9A12620A7259427B934B3B4B7149624A9A12620A7259424B
310
A32B6949496111116111711149F1E24BA32B69F00808200111A000140560052F47454E545241434F2C4A504E2C302C582C47454E54524154582C25732C2847454E4D53472067656E64696D7A20332900010100002054000280AC80A5E8E8A9CA8A482869E5894A09C586058B2588E8A9CA8A482A8B0584AE658508E8A9C9AA
310
68E40CECADCC8D2DAF4406852000202000040E800050152014BD1D15395149050D3CB1294138B0C0B148B11D15395149055160B095CCB0A11D1539354D1C819D95B991A5B5E880D8A400040400008250000A0507A6029823A2A72A2920A1A79625282716181641E99623A2A72A2920AA2C1612B9961423A2A726A9A39033B2
310
B73234B6BD101B948000808180105A000140A0F4C053047454E545241434F2C4A504E2C302C83D32C47454E54524154582C25732C2847454E4D53472067656E64696D7A203829000101010020F400028248704B5F00A668E8A9CA8A482869E5894A09C58605921C12D7C588E8A9CA8A482A8B0584AE658508E8A9C9AA68E40
310
CECADCC8D2DAF440646052000200080043280005048B4B8A69014CD1D15395149050D3CB1294138B0C0B22D2E29A4B11D15395149055160B095CCB0A11D1539354D1C819D95B991A5B5E880C8C4A4000400100086D0000A09196926BE029923A2A72A2920A1A796252827161816465A49AF9623A2A72A2920AA2C1612B9961
310
423A2A726A9A39033B2B73234B6BD10189480A02620202080043E80005048D8096DA014CD1D15395149050D3CB1294138B0C0B236025B68B11D15395149055160B095CCB0A11D1539354D1C819D95B991A5B5E880C4D0A4000404140280D0000A190687072706CD06C5069D06B0029DA3A2A72A2920A1A7962528271618164
310
1A1C1C9C1B341B141A741AC1623A2A72A2920AA2C1612B9961423A2A726A9A39033B2B73234B6BD10189A94800080820050EA000143A322A0D0E0E4E0D9A0D8A0D3A0D60053D47454E545241434F2C4A504E2C302C8C8A8343839383668362834E83582C47454E54524154582C25732C2847454E4D53472067656E64696D7A
310
2031372900010105002274000281464500A628E8A9CA8A482869E5894A09C5860591914588E8A9CA8A482A8B0584AE658508E8A9C9AA68E40CECADCC8D2DAF440626C52000202080044A8000504909497CA014CD1D15395149050D3CB1294138B0C0B242525F28B11D15395149055160B095CCB0A11D1539354D1C819D95B9
310
91A5B5E880C4E4A400040418008A521E000000000000001CA040C00000000000034408080000000000006881010000000000000D102040000000000001A204080000000000003440818000000000000728103000000000000125020600000000004028A040000000000000034408000000000000004881000000000000000D
310
102000000000000001A204000000000000003440818000000000000508143C0000000000000039408180000000000006881030000000000000D102060000000000001A2040C00000000000034408180000000000006881030000000000000E5020600000000000024A040C0000000000805140800000000000000688100000
310
00000000009102000000000000001A2040000000000000034408180000000000006881030000000000000A10284220000000878000002020000008380000020400000081800000208000000828000002028900000000
340
0
340
0
340
0
340
0
340
180
340
180
 94
        0
  0
ACAD_PROXY_OBJECT
  5
AC7C
330
AC7B
100
AcDbProxyObject
 90
      499
 91
      602
 95
       25
 70
     0
 93
     2256
310
5DE0143A0D960E4E0DDA0E32056E0D9C80C40405013D3C696628657175616C28486F6C653A7461707065642C223022292C22252563222C486F6C653A6E6F6D696E616C2022202220696628657175616C28486F6C653A756E6974732C223122292C2278222C222D222920222022293E3C696628657175616C28486F6C653A74
310
61707065642C223022292C486F6C653A6469612C486F6C653A706974636864657363293E207B5C46414D4744543B787D203C696628657175616C28486F6C653A7465726D696E6174696F6E2C223022292C486F6C653A64657074682C228AD192CA22293E5C507B5C46414D4744543B767D2525633C486F6C653A6374646961
310
3E207B5C46414D4744543B787D203C486F6C653A637464657074683E
  0
ACAD_PROXY_OBJECT
  5
AC7D
330
AC7B
100
AcDbProxyObject
 90
      499
 91
      602
 95
       25
 70
     0
 93
     2192
310
5DE0143A0D960E4E0DDA0E32056E0D9C80C405FE3D3C696628657175616C28486F6C653A7461707065642C223022292C22252563222C486F6C653A6E6F6D696E616C2022202220696628657175616C28486F6C653A756E6974732C223122292C2278222C222D222920222022293E3C696628657175616C28486F6C653A7461
310
707065642C223022292C486F6C653A6469612C486F6C653A706974636864657363293E207B5C46414D4744543B787D203C696628657175616C28486F6C653A7465726D696E6174696F6E2C223022292C486F6C653A64657074682C228AD192CA22293E5C507B5C46414D4744543B777D2525633C486F6C653A63746469613E
310
2058203C486F6C653A6374616E676C653E252564
  0
ACAD_PROXY_OBJECT
  5
AC7E
330
AC7B
100
AcDbProxyObject
 90
      499
 91
      602
 95
       25
 70
     0
 93
     1816
310
5DE0143A0D960E4E0DDA0E32056E0D9C80C405CF3D3C696628657175616C28486F6C653A7461707065642C223022292C22252563222C486F6C653A6E6F6D696E616C2022202220696628657175616C28486F6C653A756E6974732C223122292C2278222C222D222920222022293E3C696628657175616C28486F6C653A7461
310
707065642C223022292C486F6C653A6469612C486F6C653A706974636864657363293E5C507B5C46414D4744543B787D203C696628657175616C28486F6C653A7465726D696E6174696F6E2C223022292C486F6C653A64657074682C228AD192CA22293E
  0
ACAD_PROXY_OBJECT
  5
AC7F
330
AC7B
100
AcDbProxyObject
 90
      499
 91
      602
 95
       25
 70
     0
 93
      344
310
5DE0143A0D960E4E0DDA0E32056E0D9C80C805173D3C535444503A444553433E203C535444503A5354443E
  0
ACAD_PROXY_OBJECT
  5
AC80
330
AC7B
100
AcDbProxyObject
 90
      499
 91
      602
 95
       25
 70
     0
 93
      256
310
5DE0143A0D960E4E0DDA0E32056E0D9C80C4050C3D3C535444503A444553433E
  0
ACAD_PROXY_OBJECT
  5
9A4B
330
9A42
100
AcDbProxyObject
 90
      499
 91
      602
 95
       25
 70
     0
 93
     2680
310
5DE0143A0D960E4E0DDA0E32056E0D9C80C4043A013D2525633C486F6C653A63746469613E2078203C486F6C653A637464657074683E20555C503C696628657175616C28486F6C653A7461707065642C223022292C22252563222C486F6C653A6E6F6D696E616C202220782022293E3C696628657175616C28486F6C653A74
310
61707065642C223022292C486F6C653A6469612C486F6C653A706974636864657363293E3C696628657175616C28486F6C653A7461707065642C223122292C22207820222C2222293E3C696628657175616C28486F6C653A7461707065642C223122292C486F6C653A74617064657074682C2222293E203C69662865717561
310
6C28486F6C653A7465726D696E6174696F6E2C223022292C22202F20222C2222293E3C696628657175616C28486F6C653A7465726D696E6174696F6E2C223022292C486F6C653A64657074682C2222293E
  0
ACAD_PROXY_OBJECT
  5
9A4C
330
9A42
100
AcDbProxyObject
 90
      499
 91
      602
 95
       25
 70
     0
 93
     2688
310
5DE0143A0D960E4E0DDA0E32056E0D9C80C4043B013D2525633C486F6C653A63746469613E2078203C486F6C653A6374616E676C653E2525645C503C696628657175616C28486F6C653A7461707065642C223022292C22252563222C486F6C653A6E6F6D696E616C202220782022293E3C696628657175616C28486F6C653A
310
7461707065642C223022292C486F6C653A6469612C486F6C653A706974636864657363293E3C696628657175616C28486F6C653A7461707065642C223122292C22207820222C2222293E3C696628657175616C28486F6C653A7461707065642C223122292C486F6C653A74617064657074682C2222293E203C696628657175
310
616C28486F6C653A7465726D696E6174696F6E2C223022292C22202F20222C2222293E3C696628657175616C28486F6C653A7465726D696E6174696F6E2C223022292C486F6C653A64657074682C2222293E
  0
ACAD_PROXY_OBJECT
  5
9A4A
330
9A42
100
AcDbProxyObject
 90
      499
 91
      602
 95
       25
 70
     0
 93
     2392
310
5DE0143A0D960E4E0DDA0E32056E0D9C80C40416013D3C696628657175616C28486F6C653A7461707065642C223022292C22252563222C486F6C653A6E6F6D696E616C202220782022293E3C696628657175616C28486F6C653A7461707065642C223022292C486F6C653A6469612C486F6C653A706974636864657363293E
310
3C696628657175616C28486F6C653A7461707065642C223122292C22207820222C2222293E3C696628657175616C28486F6C653A7461707065642C223122292C486F6C653A74617064657074682C2222293E203C696628657175616C28486F6C653A7465726D696E6174696F6E2C223022292C22202F20222C2222293E3C69
310
6628657175616C28486F6C653A7465726D696E6174696F6E2C223022292C486F6C653A64657074682C2222293E
  0
ACAD_PROXY_OBJECT
  5
9A49
330
9A42
100
AcDbProxyObject
 90
      499
 91
      602
 95
       25
 70
     0
 93
      344
310
5DE0143A0D960E4E0DDA0E32056E0D9C80C805173D3C535444503A444553433E203C535444503A5354443E
  0
ACAD_PROXY_OBJECT
  5
9A48
330
9A42
100
AcDbProxyObject
 90
      499
 91
      602
 95
       25
 70
     0
 93
      256
310
5DE0143A0D960E4E0DDA0E32056E0D9C80C4050C3D3C535444503A444553433E
  0
ACAD_PROXY_OBJECT
  5
9CC8
330
9CC7
100
AcDbProxyObject
 90
      499
 91
      602
 95
       25
 70
     0
 93
     1376
310
5DE0143A0D960E4E0DDA0E32056E0D9C80C405983D3C486F6C653A6469613E3C696628657175616C28486F6C653A7465726D696E6174696F6E2C223022292C2220905B82B320222C22208368838A838B22293E3C696628657175616C28486F6C653A7465726D696E6174696F6E2C223022292C486F6C653A64657074682C22
310
22293E2C203C486F6C653A63746469613E2082B482AE82E882CC905B82B3203C486F6C653A637464657074683E
  0
ACAD_PROXY_OBJECT
  5
9CC9
330
9CC7
100
AcDbProxyObject
 90
      499
 91
      602
 95
       25
 70
     0
 93
     2072
310
5DE0143A0D960E4E0DDA0E32056E0D9C80C405EF3D3C486F6C653A6374616E676C653E252564202525633C486F6C653A63746469613E208E4D8C8A2C203C696628657175616C28486F6C653A7461707065642C223022292C22252563222C486F6C653A6E6F6D696E616C202220782022293E3C696628657175616C28486F6C
310
653A7461707065642C223022292C486F6C653A6469612C486F6C653A706974636864657363293E203C696628657175616C28486F6C653A7465726D696E6174696F6E2C223022292C22905B82B320222C222022293E3C696628657175616C28486F6C653A7465726D696E6174696F6E2C223022292C486F6C653A6465707468
310
2C2222293E
  0
ACAD_PROXY_OBJECT
  5
9CCA
330
9CC7
100
AcDbProxyObject
 90
      499
 91
      602
 95
       25
 70
     0
 93
     1752
310
5DE0143A0D960E4E0DDA0E32056E0D9C80C405C73D3C696628657175616C28486F6C653A7461707065642C223022292C22252563222C486F6C653A6E6F6D696E616C202220782022293E3C696628657175616C28486F6C653A7461707065642C223022292C486F6C653A6469612C486F6C653A706974636864657363293E20
310
3C696628657175616C28486F6C653A7465726D696E6174696F6E2C223022292C22905B82B320222C222022293E3C696628657175616C28486F6C653A7465726D696E6174696F6E2C223022292C486F6C653A64657074682C2222293E
  0
ACAD_PROXY_OBJECT
  5
9CCB
330
9CC7
100
AcDbProxyObject
 90
      499
 91
      602
 95
       25
 70
     0
 93
      344
310
5DE0143A0D960E4E0DDA0E32056E0D9C80C805173D3C535444503A444553433E203C535444503A5354443E
  0
ACAD_PROXY_OBJECT
  5
9CCC
330
9CC7
100
AcDbProxyObject
 90
      499
 91
      602
 95
       25
 70
     0
 93
      256
310
5DE0143A0D960E4E0DDA0E32056E0D9C80C4050C3D3C535444503A444553433E
  0
ENDSEC
  0
EOF
