  0
SECTION
  2
HEADER
  9
$ACADVER
  1
AC1015
  9
$ACADMAINTVER
 70
     6
  9
$DWGCODEPAGE
  3
ANSI_932
  9
$INSBASE
 10
0.0
 20
0.0
 30
0.0
  9
$EXTMIN
 10
-117.9045454088598
 20
-113.0740228740342
 30
-0.0000000000000013
  9
$EXTMAX
 10
89.04877426065436
 20
57.65083035569171
 30
0.0000000000000009
  9
$LIMMIN
 10
0.0
 20
0.0
  9
$LIMMAX
 10
420.0
 20
297.0
  9
$ORTHOMODE
 70
     0
  9
$REGENMODE
 70
     1
  9
$FILLMODE
 70
     1
  9
$QTEXTMODE
 70
     0
  9
$MIRRTEXT
 70
     1
  9
$LTSCALE
 40
1.0
  9
$ATTMODE
 70
     1
  9
$TEXTSIZE
 40
4.0
  9
$TRACEWID
 40
1.0
  9
$TEXTSTYLE
  7
STANDARD
  9
$CLAYER
  8
AM_0
  9
$CELTYPE
  6
ByLayer
  9
$CECOLOR
 62
   256
  9
$CELTSCALE
 40
1.0
  9
$DISPSILH
 70
     0
  9
$DIMSCALE
 40
1.0
  9
$DIMASZ
 40
2.5
  9
$DIMEXO
 40
0.0
  9
$DIMDLI
 40
10.0
  9
$DIMRND
 40
0.0
  9
$DIMDLE
 40
0.0
  9
$DIMEXE
 40
1.0
  9
$DIMTP
 40
0.1
  9
$DIMTM
 40
0.1000000001
  9
$DIMTXT
 40
3.8
  9
$DIMCEN
 40
0.0
  9
$DIMTSZ
 40
0.0
  9
$DIMTOL
 70
     0
  9
$DIMLIM
 70
     0
  9
$DIMTIH
 70
     0
  9
$DIMTOH
 70
     0
  9
$DIMSE1
 70
     0
  9
$DIMSE2
 70
     0
  9
$DIMTAD
 70
     3
  9
$DIMZIN
 70
     1
  9
$DIMBLK
  1
Open30
  9
$DIMASO
 70
     1
  9
$DIMSHO
 70
     1
  9
$DIMPOST
  1

  9
$DIMAPOST
  1
"
  9
$DIMALT
 70
     0
  9
$DIMALTD
 70
     2
  9
$DIMALTF
 40
0.0393701
  9
$DIMLFAC
 40
1.0
  9
$DIMTOFL
 70
     1
  9
$DIMTVP
 40
0.0
  9
$DIMTIX
 70
     0
  9
$DIMSOXD
 70
     0
  9
$DIMSAH
 70
     0
  9
$DIMBLK1
  1

  9
$DIMBLK2
  1

  9
$DIMSTYLE
  2
AM_JIS
  9
$DIMCLRD
 70
   256
  9
$DIMCLRE
 70
   256
  9
$DIMCLRT
 70
     2
  9
$DIMTFAC
 40
0.71
  9
$DIMGAP
 40
1.5
  9
$DIMJUST
 70
     0
  9
$DIMSD1
 70
     0
  9
$DIMSD2
 70
     0
  9
$DIMTOLJ
 70
     0
  9
$DIMTZIN
 70
     8
  9
$DIMALTZ
 70
     0
  9
$DIMALTTZ
 70
     0
  9
$DIMUPT
 70
     0
  9
$DIMDEC
 70
     0
  9
$DIMTDEC
 70
     3
  9
$DIMALTU
 70
     2
  9
$DIMALTTD
 70
     2
  9
$DIMTXSTY
  7
STANDARD
  9
$DIMAUNIT
 70
     1
  9
$DIMADEC
 70
     0
  9
$DIMALTRND
 40
0.0
  9
$DIMAZIN
 70
     2
  9
$DIMDSEP
 70
    46
  9
$DIMATFIT
 70
     3
  9
$DIMFRAC
 70
     0
  9
$DIMLDRBLK
  1
Open30
  9
$DIMLUNIT
 70
     2
  9
$DIMLWD
 70
    -1
  9
$DIMLWE
 70
    -1
  9
$DIMTMOVE
 70
     0
  9
$LUNITS
 70
     2
  9
$LUPREC
 70
     2
  9
$SKETCHINC
 40
1.0
  9
$FILLETRAD
 40
1.5
  9
$AUNITS
 70
     1
  9
$AUPREC
 70
     5
  9
$MENU
  1
.
  9
$ELEVATION
 40
0.0
  9
$PELEVATION
 40
0.0
  9
$THICKNESS
 40
0.0
  9
$LIMCHECK
 70
     0
  9
$CHAMFERA
 40
2.5
  9
$CHAMFERB
 40
2.5
  9
$CHAMFERC
 40
20.0
  9
$CHAMFERD
 40
0.0
  9
$SKPOLY
 70
     0
  9
$TDCREATE
 40
2451943.610431667
  9
$TDUCREATE
 40
2451943.235431667
  9
$TDUPDATE
 40
2455478.563659028
  9
$TDUUPDATE
 40
2455478.188659028
  9
$TDINDWG
 40
0.5122060648
  9
$TDUSRTIMER
 40
0.5122058912
  9
$USRTIMER
 70
     1
  9
$ANGBASE
 50
0.0
  9
$ANGDIR
 70
     0
  9
$PDMODE
 70
     0
  9
$PDSIZE
 40
0.0
  9
$PLINEWID
 40
0.0
  9
$SPLFRAME
 70
     0
  9
$SPLINETYPE
 70
     6
  9
$SPLINESEGS
 70
     8
  9
$HANDSEED
  5
11082
  9
$SURFTAB1
 70
     6
  9
$SURFTAB2
 70
     6
  9
$SURFTYPE
 70
     6
  9
$SURFU
 70
     6
  9
$SURFV
 70
     6
  9
$UCSBASE
  2

  9
$UCSNAME
  2

  9
$UCSORG
 10
0.0
 20
0.0
 30
0.0
  9
$UCSXDIR
 10
1.0
 20
0.0
 30
0.0
  9
$UCSYDIR
 10
0.0
 20
1.0
 30
0.0
  9
$UCSORTHOREF
  2

  9
$UCSORTHOVIEW
 70
     0
  9
$UCSORGTOP
 10
0.0
 20
0.0
 30
0.0
  9
$UCSORGBOTTOM
 10
0.0
 20
0.0
 30
0.0
  9
$UCSORGLEFT
 10
0.0
 20
0.0
 30
0.0
  9
$UCSORGRIGHT
 10
0.0
 20
0.0
 30
0.0
  9
$UCSORGFRONT
 10
0.0
 20
0.0
 30
0.0
  9
$UCSORGBACK
 10
0.0
 20
0.0
 30
0.0
  9
$PUCSBASE
  2

  9
$PUCSNAME
  2

  9
$PUCSORG
 10
0.0
 20
0.0
 30
0.0
  9
$PUCSXDIR
 10
1.0
 20
0.0
 30
0.0
  9
$PUCSYDIR
 10
0.0
 20
1.0
 30
0.0
  9
$PUCSORTHOREF
  2

  9
$PUCSORTHOVIEW
 70
     0
  9
$PUCSORGTOP
 10
0.0
 20
0.0
 30
0.0
  9
$PUCSORGBOTTOM
 10
0.0
 20
0.0
 30
0.0
  9
$PUCSORGLEFT
 10
0.0
 20
0.0
 30
0.0
  9
$PUCSORGRIGHT
 10
0.0
 20
0.0
 30
0.0
  9
$PUCSORGFRONT
 10
0.0
 20
0.0
 30
0.0
  9
$PUCSORGBACK
 10
0.0
 20
0.0
 30
0.0
  9
$USERI1
 70
     0
  9
$USERI2
 70
     0
  9
$USERI3
 70
     0
  9
$USERI4
 70
     0
  9
$USERI5
 70
     0
  9
$USERR1
 40
0.0
  9
$USERR2
 40
0.0
  9
$USERR3
 40
0.0
  9
$USERR4
 40
0.0
  9
$USERR5
 40
0.0
  9
$WORLDVIEW
 70
     1
  9
$SHADEDGE
 70
     3
  9
$SHADEDIF
 70
    70
  9
$TILEMODE
 70
     1
  9
$MAXACTVP
 70
    48
  9
$PINSBASE
 10
0.0
 20
0.0
 30
0.0
  9
$PLIMCHECK
 70
     0
  9
$PEXTMIN
 10
1.000000000000000E+20
 20
1.000000000000000E+20
 30
1.000000000000000E+20
  9
$PEXTMAX
 10
-1.000000000000000E+20
 20
-1.000000000000000E+20
 30
-1.000000000000000E+20
  9
$PLIMMIN
 10
0.0
 20
0.0
  9
$PLIMMAX
 10
420.0
 20
297.0
  9
$UNITMODE
 70
     0
  9
$VISRETAIN
 70
     1
  9
$PLINEGEN
 70
     0
  9
$PSLTSCALE
 70
     1
  9
$TREEDEPTH
 70
  3020
  9
$CMLSTYLE
  2
Standard
  9
$CMLJUST
 70
     0
  9
$CMLSCALE
 40
20.0
  9
$PROXYGRAPHICS
 70
     1
  9
$MEASUREMENT
 70
     1
  9
$CELWEIGHT
370
    -1
  9
$ENDCAPS
280
     0
  9
$JOINSTYLE
280
     0
  9
$LWDISPLAY
290
     0
  9
$INSUNITS
 70
     4
  9
$HYPERLINKBASE
  1

  9
$STYLESHEET
  1
sei_cad.ctb
  9
$XEDIT
290
     1
  9
$CEPSNTYPE
380
     0
  9
$PSTYLEMODE
290
     1
  9
$FINGERPRINTGUID
  2
{C77AB3BE-9CA2-11D3-BAF3-006094EB760E}
  9
$VERSIONGUID
  2
{3BBEC25C-C946-4C7F-BEBC-2BB8A39D2632}
  9
$EXTNAMES
290
     1
  9
$PSVPSCALE
 40
0.0
  9
$OLESTARTUP
290
     0
  0
ENDSEC
  0
SECTION
  2
CLASSES
  0
CLASS
  1
ACDBDICTIONARYWDFLT
  2
AcDbDictionaryWithDefault
  3
ObjectDBX Classes
 90
        0
280
     0
281
     0
  0
CLASS
  1
ACDBPLACEHOLDER
  2
AcDbPlaceHolder
  3
ObjectDBX Classes
 90
        0
280
     0
281
     0
  0
CLASS
  1
LAYOUT
  2
AcDbLayout
  3
ObjectDBX Classes
 90
        0
280
     0
281
     0
  0
CLASS
  1
ACME_DOCUMENT
  2
AcMeDbDoc
  3
AcMeServices
 90
        0
280
     1
281
     0
  0
CLASS
  1
ACMESCOPE
  2
AcMeScope
  3
AcMeServices
 90
        0
280
     1
281
     0
  0
CLASS
  1
ACMECOMMANDHISTORY
  2
AcMeCommandHistory
  3
AcMeServices
 90
        0
280
     1
281
     0
  0
CLASS
  1
DICTIONARYVAR
  2
AcDbDictionaryVar
  3
ObjectDBX Classes
 90
        0
280
     0
281
     0
  0
CLASS
  1
ACIMSYSVARMAN
  2
AcImSysVarManager
  3
AcMeServices
 90
        0
280
     1
281
     0
  0
CLASS
  1
ACIMREALSYSVAR
  2
AcImRealSysVar
  3
AcMeServices
 90
        0
280
     1
281
     0
  0
CLASS
  1
ACIMINTSYSVAR
  2
AcImIntSysVar
  3
AcMeServices
 90
        0
280
     1
281
     0
  0
CLASS
  1
ACMEDRAWINGMAN
  2
AcMeDrawingMan
  3
AcMeServices
 90
        0
280
     1
281
     0
  0
CLASS
  1
ACMEVIEW
  2
AcMeView
  3
AcMeServices
 90
        0
280
     1
281
     0
  0
CLASS
  1
ACDBENTITYCACHE
  2
AcMeEntityCache
  3
AcMeServices
 90
        0
280
     1
281
     0
  0
CLASS
  1
GSMANAGER
  2
AcMeGSManager
  3
AcMeServices
 90
        0
280
     1
281
     0
  0
CLASS
  1
AMDTINTERNALREACTOR
  2
AmdtInternalReactor
  3
AcMeServices
 90
        0
280
     1
281
     0
  0
CLASS
  1
ACMESTATEMGR
  2
AcMeStateMgr
  3
AcMeServices
 90
        0
280
     1
281
     0
  0
CLASS
  1
ACME_DATABASE
  2
AcMeDbDatabase
  3
AcMeServices
 90
        0
280
     1
281
     0
  0
CLASS
  1
ACRFINSADJUSTERMGR
  2
AcRfInsAdjusterMgr
  3
AcMeServices
 90
        0
280
     1
281
     0
  0
CLASS
  1
AMGSETTINGSOBJ
  2
AmgSettingsObj
  3
"AcadM|Product Description: AutoCAD Mechanical 2000|Company: Autodesk"
 90
        0
280
     1
281
     0
  0
CLASS
  1
AMGOBJPROPCFG
  2
AmgObjPropCfg
  3
"AmgLay|Product Description: AutoCAD Mechanical 2000|Company: Autodesk"
 90
        1
280
     1
281
     0
  0
CLASS
  1
ACMDATADICTIONARY
  2
AcmDataDictionary
  3
"AcmSymBB|Product Description: AutoCAD Mechanical 2004 DX|Company: Autodesk"
 90
        0
280
     1
281
     0
  0
CLASS
  1
ACMDATAENTRYBLOCK
  2
AcmDataEntryBlock
  3
"AcmSymBB|Product Description: AutoCAD Mechanical 2004 DX|Company: Autodesk"
 90
        0
280
     1
281
     0
  0
CLASS
  1
ACIMSTRSYSVAR
  2
AcImStrSysVar
  3
AcMeServices
 90
        0
280
     1
281
     0
  0
CLASS
  1
ACAMGFILTERDAT
  2
AcAmgFilterDat
  3
"AcadM|Product Description: AutoCAD Mechanical 2000|Company: Autodesk"
 90
        0
280
     1
281
     0
  0
CLASS
  1
LAYER_INDEX
  2
AcDbLayerIndex
  3
ObjectDBX Classes
 90
        0
280
     0
281
     0
  0
CLASS
  1
IDBUFFER
  2
AcDbIdBuffer
  3
ObjectDBX Classes
 90
        0
280
     0
281
     0
  0
CLASS
  1
ACMSTANDARDJIS
  2
AcmStandardJIS
  3
"Amdt_StdImp|Product Description: AutoCAD Mechanical 2004 DX|Company: Autodesk"
 90
        0
280
     1
281
     0
  0
CLASS
  1
ACMSURFSTANDARDJIS
  2
AcmSurfTextStdJIS
  3
"Amdt_StdImp|Product Description: AutoCAD Mechanical 2004 DX|Company: Autodesk"
 90
        0
280
     1
281
     0
  0
CLASS
  1
ACMFCFSTANDARDJIS
  2
AcmFCFStdJIS
  3
"Amdt_StdImp|Product Description: AutoCAD Mechanical 2004 DX|Company: Autodesk"
 90
        0
280
     1
281
     0
  0
CLASS
  1
ACMWELDSTANDARDJIS
  2
AcmWeldingStdJIS
  3
"Amdt_StdImp|Product Description: AutoCAD Mechanical 2004 DX|Company: Autodesk"
 90
        0
280
     1
281
     0
  0
CLASS
  1
ACMIDSTANDARDJIS
  2
AcmIdStdJIS
  3
"Amdt_StdImp|Product Description: AutoCAD Mechanical 2004 DX|Company: Autodesk"
 90
        0
280
     1
281
     0
  0
CLASS
  1
ACMDATUMSTANDARDJIS
  2
AcmDatumStdJIS
  3
"Amdt_StdImp|Product Description: AutoCAD Mechanical 2004 DX|Company: Autodesk"
 90
        0
280
     1
281
     0
  0
CLASS
  1
ACMBOMSTANDARDJIS
  2
AcmBOMStdJIS
  3
"Amdt_StdImp|Product Description: AutoCAD Mechanical 2004 DX|Company: Autodesk"
 90
        0
280
     1
281
     0
  0
CLASS
  1
AMDTNOTE
  2
AmdtNote
  3
"AcmSymBB|Product Description: AutoCAD Mechanical 2004 DX|Company: Autodesk"
 90
     1023
280
     1
281
     1
  0
CLASS
  1
ACGREFMASTER
  2
AcGrefMaster
  3
AcAttribServices
 90
        0
280
     1
281
     0
  0
CLASS
  1
ACGREFACADMASTER
  2
AcGrefacadMaster
  3
AcGrefServices
 90
        0
280
     1
281
     0
  0
CLASS
  1
AMIMASTER
  2
AmiMaster
  3
AmiServices
 90
        0
280
     1
281
     0
  0
CLASS
  1
ACAMGTITLESTD
  2
AcAmgTitleStd
  3
"TITLEAPP"
 90
        0
280
     1
281
     0
  0
CLASS
  1
ACMDETAILSTANDARDJIS
  2
AmdtDetailSymStdJIS
  3
"Amdt_StdImp|Product Description: AutoCAD Mechanical 2004 DX|Company: Autodesk"
 90
        0
280
     1
281
     0
  0
CLASS
  1
ACMSECTIONSTANDARDJIS
  2
AmdtSectionSymStdJIS
  3
"Amdt_StdImp|Product Description: AutoCAD Mechanical 2004 DX|Company: Autodesk"
 90
        0
280
     1
281
     0
  0
CLASS
  1
ACMCENTERLINESTANDARDJIS
  2
AmdtCenterLineStdJIS
  3
"Amdt_StdImp|Product Description: AutoCAD Mechanical 2004 DX|Company: Autodesk"
 90
        0
280
     1
281
     0
  0
CLASS
  1
ACMNOTESTANDARDJIS
  2
AmdtNoteStdJIS
  3
"Amdt_StdImp|Product Description: AutoCAD Mechanical 2004 DX|Company: Autodesk"
 90
        0
280
     1
281
     0
  0
CLASS
  1
ACAMGLAYSTD
  2
AcAmgLayStd
  3
"AcAmgLayStd|Product Description: AutoCAD Mechanical 2000|Company: Autodesk"
 90
        0
280
     1
281
     0
  0
CLASS
  1
ACAMGDIMSTD
  2
AcAmgDimStd
  3
"AcAmgDimStd|Product Description: AutoCAD Mechanical 2000|Company: Autodesk"
 90
        0
280
     1
281
     0
  0
CLASS
  1
AMDTFORMULAUPDATEDISPATCHER
  2
AmdtFormulaUpdateDispatcher
  3
AcMeServices
 90
        0
280
     1
281
     0
  0
CLASS
  1
DUMMY
  2
AcDbLongTransaction
  3
DUMMY
 90
        0
280
     0
281
     0
  0
CLASS
  1
LWPOLYLINE
  2
AcDbPolyline
  3
AutoCAD 2000
 90
        0
280
     0
281
     1
  0
CLASS
  1
HATCH
  2
AcDbHatch
  3
AutoCAD 2000
 90
        0
280
     0
281
     1
  0
CLASS
  1
XRECORD
  2
AcDbXrecord
  3
AutoCAD 2000
 90
        0
280
     0
281
     0
  0
CLASS
  1
DUMMY
  2
AcDbLongTransaction
  3
DUMMY
 90
        0
280
     0
281
     0
  0
CLASS
  1
LWPOLYLINE
  2
AcDbPolyline
  3
AutoCAD 2000
 90
        0
280
     0
281
     1
  0
CLASS
  1
HATCH
  2
AcDbHatch
  3
AutoCAD 2000
 90
        0
280
     0
281
     1
  0
CLASS
  1
XRECORD
  2
AcDbXrecord
  3
AutoCAD 2000
 90
        0
280
     0
281
     0
  0
CLASS
  1
ACDBCIRCARCRES
  2
AcDbCircArcRes
  3
AcGrefServices
 90
        0
280
     1
281
     0
  0
CLASS
  1
ACDBLINERES
  2
AcDbLineRes
  3
AcGrefServices
 90
        0
280
     1
281
     0
  0
CLASS
  1
ACDBELLIPSERES
  2
AcDbEllipseRes
  3
AcGrefServices
 90
        0
280
     1
281
     0
  0
CLASS
  1
DUMMY
  2
AcDbLongTransaction
  3
DUMMY
 90
        0
280
     0
281
     0
  0
CLASS
  1
LWPOLYLINE
  2
AcDbPolyline
  3
AutoCAD 2000
 90
        0
280
     0
281
     1
  0
CLASS
  1
HATCH
  2
AcDbHatch
  3
AutoCAD 2000
 90
        0
280
     0
281
     1
  0
CLASS
  1
XRECORD
  2
AcDbXrecord
  3
AutoCAD 2000
 90
        0
280
     0
281
     0
  0
CLASS
  1
TABLESTYLE
  2
AcDbTableStyle
  3
ObjectDBX Classes
 90
     2047
280
     0
281
     0
  0
CLASS
  1
AM_DRAWING_MGR
  2
AcDmDwgMgr
  3
AcMechDwgViewMgmt
 90
        0
280
     1
281
     0
  0
CLASS
  1
AM_DWG_DOCUMENT
  2
AcDmDwgDocument
  3
AcMechDwgViewMgmt
 90
        0
280
     1
281
     0
  0
CLASS
  1
AM_DWG_SHEET
  2
AcDmSheet
  3
AcMechDwgViewMgmt
 90
        0
280
     1
281
     0
  0
CLASS
  1
AM_VIEWDIMPARMAP
  2
AcDmViewDimParMap
  3
AcMechDwgViewMgmt
 90
        0
280
     1
281
     0
  0
CLASS
  1
AM_DWGMGR_NAME
  2
AcDmDwgMgrName
  3
AcMechDwgViewMgmt
 90
        0
280
     1
281
     0
  0
CLASS
  1
AMDTMENUSTATEMGR
  2
AmdtMenuStateMgr
  3
McadcomServices
 90
        0
280
     1
281
     0
  0
CLASS
  1
AMDTMCOMMENUSTATE
  2
AmdtMcomMenuState
  3
McadcomServices
 90
        0
280
     1
281
     0
  0
CLASS
  1
MAPIAMMOUDLE
  2
MApiAmModule
  3
MApiAmServices
 90
        0
280
     1
281
     0
  0
CLASS
  1
AMDTADMENUSTATE
  2
AmdtAdMenuState
  3
DesignerServices
 90
        0
280
     1
281
     0
  0
CLASS
  1
ADAPPL
  2
AcAdAppl
  3
DesignerServices
 90
        0
280
     1
281
     0
  0
CLASS
  1
DEPMGR
  2
AcAdDepMgr
  3
DesignerServices
 90
        0
280
     1
281
     0
  0
CLASS
  1
PARAMMGR
  2
AcAdParamMgr
  3
DesignerServices
 90
        0
280
     1
281
     0
  0
CLASS
  1
PARAMSCOPE
  2
AcAdParamScope
  3
DesignerServices
 90
        0
280
     1
281
     0
  0
CLASS
  1
NAMEDAPPL
  2
AcAdNamedAppl
  3
DesignerServices
 90
        0
280
     1
281
     0
  0
CLASS
  1
AMDTDMMENUSTATE
  2
AmdtDmMenuState
  3
AcMechDwgViewMgmt
 90
        0
280
     1
281
     0
  0
CLASS
  1
AMDTAMMENUSTATE
  2
AmdtAmMenuState
  3
DesignerAssemblies
 90
        0
280
     1
281
     0
  0
CLASS
  1
ACAMPROJECT
  2
AcAmProject
  3
DesignerAssemblies
 90
        0
280
     1
281
     0
  0
CLASS
  1
ACAMGRCOMPDEF
  2
AcAmGrCompDef
  3
DesignerAssemblies
 90
        0
280
     1
281
     0
  0
CLASS
  1
ACCMCONTEXT
  2
AcCmContext
  3
DesignerAssemblies
 90
        0
280
     1
281
     0
  0
CLASS
  1
ACAMCOMPDEF
  2
AcAmCompDef
  3
DesignerAssemblies
 90
        0
280
     1
281
     0
  0
CLASS
  1
ACAMCOMPDEFMGR
  2
AcAmCompDefMgr
  3
DesignerAssemblies
 90
        0
280
     1
281
     0
  0
CLASS
  1
AMCONTEXTMGR
  2
AcAmContextMgr
  3
DesignerAssemblies
 90
        0
280
     1
281
     0
  0
CLASS
  1
ACAMCONTEXTMODELER
  2
AcAmContextModeler
  3
DesignerAssemblies
 90
        0
280
     1
281
     0
  0
CLASS
  1
CATALOGSTATE
  2
AcAmCatalogState
  3
DesignerAssemblies
 90
        0
280
     1
281
     0
  0
CLASS
  1
ACAMGRCOMPDEFSET
  2
AcAmGrCompDefSet
  3
DesignerAssemblies
 90
        0
280
     1
281
     0
  0
CLASS
  1
AMDTBROWSERDBTAB
  2
AmdtBrowserDbTab
  3
McadcomServices
 90
        0
280
     1
281
     0
  0
CLASS
  1
CBROWSERAPPOBJECT
  2
CBrowserAppObject
  3
McadcomServices
 90
        0
280
     1
281
     0
  0
CLASS
  1
DM_PLACEHOLDER
  2
AcDmSelsetPlaceholder
  3
AcMechDwgViewMgmt
 90
        0
280
     1
281
     0
  0
CLASS
  1
ACMSTANDARDISO
  2
AcmStandardISO
  3
"Amdt_StdImp|Product Description: AutoCAD Mechanical 2004 DX|Company: Autodesk"
 90
        0
280
     1
281
     0
  0
CLASS
  1
AMDTEDGESTANDARDISO13715
  2
AmdtEdgeStdISO13715
  3
"Amdt_StdImp|Product Description: AutoCAD Mechanical 2004 DX|Company: Autodesk"
 90
        0
280
     1
281
     0
  0
CLASS
  1
ACMSURFSTANDARDISO
  2
AcmSurfTextStdISO
  3
"Amdt_StdImp|Product Description: AutoCAD Mechanical 2004 DX|Company: Autodesk"
 90
        0
280
     1
281
     0
  0
CLASS
  1
ACMFCFSTANDARDISO
  2
AcmFCFStdISO
  3
"Amdt_StdImp|Product Description: AutoCAD Mechanical 2004 DX|Company: Autodesk"
 90
        0
280
     1
281
     0
  0
CLASS
  1
ACMWELDSTANDARDISO
  2
AcmWeldingStdISO
  3
"Amdt_StdImp|Product Description: AutoCAD Mechanical 2004 DX|Company: Autodesk"
 90
        0
280
     1
281
     0
  0
CLASS
  1
ACMIDSTANDARDISO
  2
AcmIdStdISO
  3
"Amdt_StdImp|Product Description: AutoCAD Mechanical 2004 DX|Company: Autodesk"
 90
        0
280
     1
281
     0
  0
CLASS
  1
ACMDATUMSTANDARDISO
  2
AcmDatumStdISO
  3
"Amdt_StdImp|Product Description: AutoCAD Mechanical 2004 DX|Company: Autodesk"
 90
        0
280
     1
281
     0
  0
CLASS
  1
ACMBOMSTANDARDISO
  2
AcmBOMStdISO
  3
"Amdt_StdImp|Product Description: AutoCAD Mechanical 2004 DX|Company: Autodesk"
 90
        0
280
     1
281
     0
  0
CLASS
  1
ACMDETAILSTANDARDISO
  2
AmdtDetailSymStdISO
  3
"Amdt_StdImp|Product Description: AutoCAD Mechanical 2004 DX|Company: Autodesk"
 90
        0
280
     1
281
     0
  0
CLASS
  1
ACMSECTIONSTANDARDISO
  2
AmdtSectionSymStdISO
  3
"Amdt_StdImp|Product Description: AutoCAD Mechanical 2004 DX|Company: Autodesk"
 90
        0
280
     1
281
     0
  0
CLASS
  1
ACMCENTERLINESTANDARDISO
  2
AmdtCenterLineStdISO
  3
"Amdt_StdImp|Product Description: AutoCAD Mechanical 2004 DX|Company: Autodesk"
 90
        0
280
     1
281
     0
  0
CLASS
  1
ACMTHREADLINESTANDARDISO
  2
AmdtThreadLineStdISO
  3
"Amdt_StdImp|Product Description: AutoCAD Mechanical 2004 DX|Company: Autodesk"
 90
        0
280
     1
281
     0
  0
CLASS
  1
ACMNOTESTANDARDISO
  2
AmdtNoteStdISO
  3
"Amdt_StdImp|Product Description: AutoCAD Mechanical 2004 DX|Company: Autodesk"
 90
        0
280
     1
281
     0
  0
CLASS
  1
AMDTNOTETEMPLATEDB
  2
AmdtNoteTemplateDB
  3
AMDT_STDIMP_MODULE_NAME
 90
        0
280
     1
281
     0
  0
CLASS
  1
ACAMGHOLECHARTSTDISO
  2
AcAmgHoleChartStdISO
  3
ACMSYMBB_MODULE_NAME
 90
        0
280
     1
281
     0
  0
CLASS
  1
ACMTHREADLINESTANDARDJIS
  2
AmdtThreadLineStdJIS
  3
"Amdt_StdImp|Product Description: AutoCAD Mechanical 2004 DX|Company: Autodesk"
 90
        0
280
     1
281
     0
  0
CLASS
  1
ACAMGHOLECHARTSTDJIS
  2
AcAmgHoleChartStdJIS
  3
ACMSYMBB_MODULE_NAME
 90
        0
280
     1
281
     0
  0
CLASS
  1
SORTENTSTABLE
  2
AcDbSortentsTable
  3
ObjectDBX Classes
 90
        0
280
     0
281
     0
  0
CLASS
  1
ACMSTANDARDANSI
  2
AcmStandardANSI
  3
"Amdt_StdImp|Product Description: AutoCAD Mechanical 2004 DX|Company: Autodesk"
 90
        0
280
     1
281
     0
  0
CLASS
  1
ACMSURFSTANDARDANSI
  2
AcmSurfTextStdANSI
  3
"Amdt_StdImp|Product Description: AutoCAD Mechanical 2004 DX|Company: Autodesk"
 90
        0
280
     1
281
     0
  0
CLASS
  1
ACMFCFSTANDARDANSI
  2
AcmFCFStdANSI
  3
"Amdt_StdImp|Product Description: AutoCAD Mechanical 2004 DX|Company: Autodesk"
 90
        0
280
     1
281
     0
  0
CLASS
  1
ACMWELDSTANDARDANSI
  2
AcmWeldingStdANSI
  3
"Amdt_StdImp|Product Description: AutoCAD Mechanical 2004 DX|Company: Autodesk"
 90
        0
280
     1
281
     0
  0
CLASS
  1
ACMIDSTANDARDANSI
  2
AcmIdStdANSI
  3
"Amdt_StdImp|Product Description: AutoCAD Mechanical 2004 DX|Company: Autodesk"
 90
        0
280
     1
281
     0
  0
CLASS
  1
ACMDATUMSTANDARDANSI
  2
AcmDatumStdANSI
  3
"Amdt_StdImp|Product Description: AutoCAD Mechanical 2004 DX|Company: Autodesk"
 90
        0
280
     1
281
     0
  0
CLASS
  1
ACMBOMSTANDARDANSI
  2
AcmBOMStdANSI
  3
"Amdt_StdImp|Product Description: AutoCAD Mechanical 2004 DX|Company: Autodesk"
 90
        0
280
     1
281
     0
  0
CLASS
  1
ACMDETAILSTANDARDANSI
  2
AmdtDetailSymStdANSI
  3
"Amdt_StdImp|Product Description: AutoCAD Mechanical 2004 DX|Company: Autodesk"
 90
        0
280
     1
281
     0
  0
CLASS
  1
ACMSECTIONSTANDARDANSI
  2
AmdtSectionSymStdANSI
  3
"Amdt_StdImp|Product Description: AutoCAD Mechanical 2004 DX|Company: Autodesk"
 90
        0
280
     1
281
     0
  0
CLASS
  1
ACMCENTERLINESTANDARDANSI
  2
AmdtCenterLineStdANSI
  3
"Amdt_StdImp|Product Description: AutoCAD Mechanical 2004 DX|Company: Autodesk"
 90
        0
280
     1
281
     0
  0
CLASS
  1
ACMTHREADLINESTANDARDANSI
  2
AmdtThreadLineStdANSI
  3
"Amdt_StdImp|Product Description: AutoCAD Mechanical 2004 DX|Company: Autodesk"
 90
        0
280
     1
281
     0
  0
CLASS
  1
ACMNOTESTANDARDANSI
  2
AmdtNoteStdANSI
  3
"Amdt_StdImp|Product Description: AutoCAD Mechanical 2004 DX|Company: Autodesk"
 90
        0
280
     1
281
     0
  0
CLASS
  1
ACAMGHOLECHARTSTDANSI
  2
AcAmgHoleChartStdANSI
  3
ACMSYMBB_MODULE_NAME
 90
        0
280
     1
281
     0
  0
ENDSEC
  0
SECTION
  2
TABLES
  0
TABLE
  2
VPORT
  5
8
330
0
100
AcDbSymbolTable
 70
     3
  0
VPORT
  5
1107B
330
8
100
AcDbSymbolTableRecord
100
AcDbViewportTableRecord
  2
*Active
 70
     0
 10
0.0
 20
0.0
 11
1.0
 21
1.0
 12
65.27269439325534
 22
-49.9133763035332
 13
0.0
 23
0.0
 14
2.5
 24
2.5
 15
10.0
 25
10.0
 16
0.0
 26
0.0
 36
1.0
 17
0.0
 27
0.0
 37
0.0
 40
208.0005070264763
 41
1.943262411347518
 42
50.0
 43
0.0
 44
0.0
 50
0.0
 51
0.0
 71
    16
 72
  2000
 73
     1
 74
     3
 75
     0
 76
     0
 77
     0
 78
     0
281
     0
 65
     1
110
0.0
120
0.0
130
0.0
111
1.0
121
0.0
131
0.0
112
0.0
122
1.0
132
0.0
 79
     0
146
0.0
  0
ENDTAB
  0
TABLE
  2
LTYPE
  5
5
330
0
100
AcDbSymbolTable
 70
    18
  0
LTYPE
  5
14
330
5
100
AcDbSymbolTableRecord
100
AcDbLinetypeTableRecord
  2
ByBlock
 70
     0
  3

 72
    65
 73
     0
 40
0.0
  0
LTYPE
  5
15
330
5
100
AcDbSymbolTableRecord
100
AcDbLinetypeTableRecord
  2
ByLayer
 70
     0
  3

 72
    65
 73
     0
 40
0.0
  0
LTYPE
  5
16
330
5
100
AcDbSymbolTableRecord
100
AcDbLinetypeTableRecord
  2
Continuous
 70
     0
  3
Solid line
 72
    65
 73
     0
 40
0.0
  0
LTYPE
  5
43
330
5
100
AcDbSymbolTableRecord
100
AcDbLinetypeTableRecord
  2
AM_ISO02W050
 70
     0
  3
__ __ __ __ __ __ __ __ __ __ __ __ __ __ __
 72
    65
 73
     2
 40
7.5
 49
6.0
 74
     0
 49
-1.5
 74
     0
  0
LTYPE
  5
44
330
5
100
AcDbSymbolTableRecord
100
AcDbLinetypeTableRecord
  2
AM_ISO08W050
 70
     0
  3
____ . ____ . ____ . ____ . ____ . ____ . ____
 72
    65
 73
     4
 40
18.0
 49
12.0
 74
     0
 49
-1.5
 74
     0
 49
3.0
 74
     0
 49
-1.5
 74
     0
  0
LTYPE
  5
45
330
5
100
AcDbSymbolTableRecord
100
AcDbLinetypeTableRecord
  2
AM_ISO09W050
 70
     0
  3
_____ . . _____ . . _____ . . ____ .. ____
 72
    65
 73
     6
 40
22.5
 49
12.0
 74
     0
 49
-1.5
 74
     0
 49
3.0
 74
     0
 49
-1.5
 74
     0
 49
3.0
 74
     0
 49
-1.5
 74
     0
  0
LTYPE
  5
46
330
5
100
AcDbSymbolTableRecord
100
AcDbLinetypeTableRecord
  2
Amconstr
 70
     0
  3
_______________________
 72
    65
 73
     2
 40
9999.0
 49
9999.0
 74
     0
 49
0.0
 74
     0
  0
LTYPE
  5
47
330
5
100
AcDbSymbolTableRecord
100
AcDbLinetypeTableRecord
  2
AM_ISO02W050x2
 70
     0
  3
 _ _ _ _ _ _ _ _ _ _ _ _
 72
    65
 73
     2
 40
3.75
 49
3.0
 74
     0
 49
-0.75
 74
     0
  0
LTYPE
  5
48
330
5
100
AcDbSymbolTableRecord
100
AcDbLinetypeTableRecord
  2
AM_ISO08W050x2
 70
     0
  3
__ . __ . __ . __ . __ . __
 72
    65
 73
     4
 40
9.0
 49
6.0
 74
     0
 49
-0.75
 74
     0
 49
1.5
 74
     0
 49
-0.75
 74
     0
  0
LTYPE
  5
4B
330
5
100
AcDbSymbolTableRecord
100
AcDbLinetypeTableRecord
  2
Amzigzag
 70
     0
  3
/\/-/\/-/\/-/\/-/\/-/\/
 72
    65
 73
     2
 40
11.0001
 49
0.0001
 74
     4
 75
   135
340
4A
 46
0.04
 50
0.0
 44
0.0
 45
0.0
 49
-11.0
 74
     0
  0
LTYPE
  5
188
330
5
100
AcDbSymbolTableRecord
100
AcDbLinetypeTableRecord
  2
ACJISTGB
 70
     0
  3
__ . . __ . .
 72
    65
 73
     6
 40
9.0
 49
4.0
 74
     0
 49
-1.0
 74
     0
 49
1.0
 74
     0
 49
-1.0
 74
     0
 49
1.0
 74
     0
 49
-1.0
 74
     0
  0
LTYPE
  5
189
330
5
100
AcDbSymbolTableRecord
100
AcDbLinetypeTableRecord
  2
ACJISTGL
 70
     0
  3
_ _ _ _ _
 72
    65
 73
     2
 40
3.0
 49
2.0
 74
     0
 49
-1.0
 74
     0
  0
LTYPE
  5
652
330
5
100
AcDbSymbolTableRecord
100
AcDbLinetypeTableRecord
  2
CENTER
 70
     0
  3
____ _ ____ _ ____ _ ____ _ ____ _ ____ _ ____
 72
    65
 73
     4
 40
17.5
 49
13.0
 74
     0
 49
-1.5
 74
     0
 49
1.5
 74
     0
 49
-1.5
 74
     0
  0
LTYPE
  5
12AB
330
5
100
AcDbSymbolTableRecord
100
AcDbLinetypeTableRecord
  2
HIDDEN
 70
     0
  3
Hidden __ __ __ __ __ __ __ __ __ __ __ __ __ _
 72
    65
 73
     2
 40
0.375
 49
0.25
 74
     0
 49
-0.125
 74
     0
  0
LTYPE
  5
12AC
330
5
100
AcDbSymbolTableRecord
100
AcDbLinetypeTableRecord
  2
PHANTOM2
 70
     0
  3
Phantom (.5x) ___ _ _ ___ _ _ ___ _ _ ___ _ _
 72
    65
 73
     6
 40
1.25
 49
0.625
 74
     0
 49
-0.125
 74
     0
 49
0.125
 74
     0
 49
-0.125
 74
     0
 49
0.125
 74
     0
 49
-0.125
 74
     0
  0
LTYPE
  5
9A44
330
5
100
AcDbSymbolTableRecord
100
AcDbLinetypeTableRecord
  2
ACISOWELD
 70
     0
  3
_ _ _ _ _
 72
    65
 73
     2
 40
2.0
 49
2.0
 74
     0
 49
-1.0
 74
     0
  0
LTYPE
  5
9A45
330
5
100
AcDbSymbolTableRecord
100
AcDbLinetypeTableRecord
  2
ACISOTGB
 70
     0
  3
__ . . __ . .
 72
    65
 73
     6
 40
9.0
 49
4.0
 74
     0
 49
-1.0
 74
     0
 49
1.0
 74
     0
 49
-1.0
 74
     0
 49
1.0
 74
     0
 49
-1.0
 74
     0
  0
LTYPE
  5
9A46
330
5
100
AcDbSymbolTableRecord
100
AcDbLinetypeTableRecord
  2
ACISOTGL
 70
     0
  3
_ _ _ _ _
 72
    65
 73
     2
 40
3.0
 49
2.0
 74
     0
 49
-1.0
 74
     0
  0
LTYPE
  5
A6BA
330
5
100
AcDbSymbolTableRecord
100
AcDbLinetypeTableRecord
  2
ACANSTGB
 70
     0
  3
__ . . __ . .
 72
    65
 73
     6
 40
0.35433070866
 49
0.15748031496
 74
     0
 49
-0.03937007874
 74
     0
 49
0.03937007874
 74
     0
 49
-0.03937007874
 74
     0
 49
0.03937007874
 74
     0
 49
-0.03937007874
 74
     0
  0
LTYPE
  5
A6BB
330
5
100
AcDbSymbolTableRecord
100
AcDbLinetypeTableRecord
  2
ACANSTGL
 70
     0
  3
_ _ _ _ _
 72
    65
 73
     2
 40
0.11811023622
 49
0.07874015748
 74
     0
 49
-0.03937007874
 74
     0
  0
ENDTAB
  0
TABLE
  2
LAYER
  5
2
102
{ACAD_XDICTIONARY
360
9B25
102
}
330
0
100
AcDbSymbolTable
 70
     5
  0
LAYER
  5
10
330
2
100
AcDbSymbolTableRecord
100
AcDbLayerTableRecord
  2
0
 70
     0
 62
     7
  6
Continuous
370
    -3
390
F
  0
LAYER
  5
7D
330
2
100
AcDbSymbolTableRecord
100
AcDbLayerTableRecord
  2
AM_5
 70
     0
 62
     3
  6
Continuous
370
    13
390
F
  0
LAYER
  5
7F
330
2
100
AcDbSymbolTableRecord
100
AcDbLayerTableRecord
  2
Defpoints
 70
     0
 62
     7
  6
Continuous
290
     0
370
    -3
390
F
  0
LAYER
  5
12B1
330
2
100
AcDbSymbolTableRecord
100
AcDbLayerTableRecord
  2
AM_0
 70
     0
 62
     7
  6
Continuous
370
    30
390
F
  0
LAYER
  5
1896
330
2
100
AcDbSymbolTableRecord
100
AcDbLayerTableRecord
  2
AM_7
 70
     0
 62
     4
  6
AM_ISO08W050
370
    13
390
F
  0
ENDTAB
  0
TABLE
  2
STYLE
  5
3
330
0
100
AcDbSymbolTable
 70
     8
  0
STYLE
  5
11
330
3
100
AcDbSymbolTableRecord
100
AcDbTextStyleTableRecord
  2
STANDARD
 70
     0
 40
0.0
 41
1.0
 50
0.0
 71
     0
 42
4.0
  3
ISOCP.SHX
  4
EXTFONT.SHX
  0
STYLE
  5
4A
330
3
100
AcDbSymbolTableRecord
100
AcDbTextStyleTableRecord
  2

 70
     1
 40
0.0
 41
1.0
 50
0.0
 71
     0
 42
2.5
  3
ltypeshp.shx
  4

  0
STYLE
  5
180
330
3
100
AcDbSymbolTableRecord
100
AcDbTextStyleTableRecord
  2
ACJISTS
 70
     0
 40
1.0
 41
1.0
 50
0.0
 71
     0
 42
2.5
  3
isocp.shx
  4
bigfont.shx
  0
STYLE
  5
187
330
3
100
AcDbSymbolTableRecord
100
AcDbTextStyleTableRecord
  2
ACJISGDT
 70
     0
 40
0.0
 41
1.0
 50
0.0
 71
     0
 42
2.5
  3
amgdt.shx
  4

  0
STYLE
  5
9A36
330
3
100
AcDbSymbolTableRecord
100
AcDbTextStyleTableRecord
  2
ACISOTS
 70
     0
 40
1.0
 41
1.0
 50
0.0
 71
     0
 42
3.15
  3
isocp.shx
  4
extfont.shx
  0
STYLE
  5
9A43
330
3
100
AcDbSymbolTableRecord
100
AcDbTextStyleTableRecord
  2
ACISOGDT
 70
     0
 40
0.0
 41
1.0
 50
0.0
 71
     0
 42
3.15
  3
amgdt.shx
  4

  0
STYLE
  5
A6BC
330
3
100
AcDbSymbolTableRecord
100
AcDbTextStyleTableRecord
  2
ACANSTS
 70
     0
 40
1.0
 41
1.0
 50
0.0
 71
     0
 42
1.0
  3
romans.shx
  4
extfont.shx
  0
STYLE
  5
A6BD
330
3
100
AcDbSymbolTableRecord
100
AcDbTextStyleTableRecord
  2
ACANSGDT
 70
     0
 40
0.0
 41
1.0
 50
0.0
 71
     0
 42
1.0
  3
amgdtans.shx
  4

  0
ENDTAB
  0
TABLE
  2
VIEW
  5
6
330
0
100
AcDbSymbolTable
 70
     6
  0
VIEW
  5
A30
330
6
100
AcDbSymbolTableRecord
100
AcDbViewTableRecord
  2
AM_VIEW1
 70
     0
 40
148.5
 10
108.6929657794677
 20
222.75
 41
217.3859315589354
 11
0.0
 21
0.0
 31
1.0
 12
0.0
 22
0.0
 32
0.0
 42
50.0
 43
0.0
 44
0.0
 50
0.0
 71
    16
281
     0
 72
     0
  0
VIEW
  5
A31
330
6
100
AcDbSymbolTableRecord
100
AcDbViewTableRecord
  2
AM_VIEW2
 70
     0
 40
148.5
 10
311.3070342205323
 20
222.75
 41
217.3859315589354
 11
0.0
 21
0.0
 31
1.0
 12
0.0
 22
0.0
 32
0.0
 42
50.0
 43
0.0
 44
0.0
 50
0.0
 71
    16
281
     0
 72
     0
  0
VIEW
  5
A32
330
6
100
AcDbSymbolTableRecord
100
AcDbViewTableRecord
  2
AM_VIEW3
 70
     0
 40
148.5
 10
108.6929657794677
 20
74.25
 41
217.3859315589354
 11
0.0
 21
0.0
 31
1.0
 12
0.0
 22
0.0
 32
0.0
 42
50.0
 43
0.0
 44
0.0
 50
0.0
 71
    16
281
     0
 72
     0
  0
VIEW
  5
A33
330
6
100
AcDbSymbolTableRecord
100
AcDbViewTableRecord
  2
AM_VIEW4
 70
     0
 40
148.5
 10
311.3070342205323
 20
74.25
 41
217.3859315589354
 11
0.0
 21
0.0
 31
1.0
 12
0.0
 22
0.0
 32
0.0
 42
50.0
 43
0.0
 44
0.0
 50
0.0
 71
    16
281
     0
 72
     0
  0
VIEW
  5
A34
330
6
100
AcDbSymbolTableRecord
100
AcDbViewTableRecord
  2
AM_VIEW5
 70
     0
 40
148.5
 10
210.0
 20
148.5
 41
217.3859315589353
 11
0.0
 21
0.0
 31
1.0
 12
0.0
 22
0.0
 32
0.0
 42
50.0
 43
0.0
 44
0.0
 50
0.0
 71
    16
281
     0
 72
     0
  0
VIEW
  5
A35
330
6
100
AcDbSymbolTableRecord
100
AcDbViewTableRecord
  2
AM_VIEW6
 70
     0
 40
296.99703
 10
210.0
 20
148.5
 41
434.7675153992395
 11
0.0
 21
0.0
 31
1.0
 12
0.0
 22
0.0
 32
0.0
 42
50.0
 43
0.0
 44
0.0
 50
0.0
 71
    16
281
     0
 72
     0
  0
ENDTAB
  0
TABLE
  2
UCS
  5
7
330
0
100
AcDbSymbolTable
 70
     0
  0
ENDTAB
  0
TABLE
  2
APPID
  5
9
330
0
100
AcDbSymbolTable
 70
    47
  0
APPID
  5
12
330
9
100
AcDbSymbolTableRecord
100
AcDbRegAppTableRecord
  2
ACAD
 70
     0
  0
APPID
  5
2C
330
9
100
AcDbSymbolTableRecord
100
AcDbRegAppTableRecord
  2
MCAD_NO_VIS
 70
     0
  0
APPID
  5
2D
330
9
100
AcDbSymbolTableRecord
100
AcDbRegAppTableRecord
  2
ACAD_TEMP_GRAPHIC
 70
     0
  0
APPID
  5
B9
330
9
100
AcDbSymbolTableRecord
100
AcDbRegAppTableRecord
  2
GENIUS_GENDTOL_13
 70
     0
  0
APPID
  5
359
330
9
100
AcDbSymbolTableRecord
100
AcDbRegAppTableRecord
  2
GENIUS_GENREC_14
 70
     0
  0
APPID
  5
35A
330
9
100
AcDbSymbolTableRecord
100
AcDbRegAppTableRecord
  2
GENIUS_GENODEF_13
 70
     0
  0
APPID
  5
35B
330
9
100
AcDbSymbolTableRecord
100
AcDbRegAppTableRecord
  2
GENIUS_GENOBJ-N-REC_13
 70
     0
  0
APPID
  5
667
330
9
100
AcDbSymbolTableRecord
100
AcDbRegAppTableRecord
  2
GENIUS_GENCFG_13
 70
     0
1001
GENIUS_GENCFG0_13
1000
GEN
  0
APPID
  5
668
330
9
100
AcDbSymbolTableRecord
100
AcDbRegAppTableRecord
  2
GENIUS_GENCFG0_13
 70
     0
1001
GENIUS_GENCFG_13
1071
1094015123
1000
668
1000
GEN
1070
     0
  0
APPID
  5
669
330
9
100
AcDbSymbolTableRecord
100
AcDbRegAppTableRecord
  2
GENIUS_GENCFG1_13
 70
     0
  0
APPID
  5
66A
330
9
100
AcDbSymbolTableRecord
100
AcDbRegAppTableRecord
  2
GENIUS_GENCFG2_13
 70
     0
  0
APPID
  5
66B
330
9
100
AcDbSymbolTableRecord
100
AcDbRegAppTableRecord
  2
GENIUS_GENCFG3_13
 70
     0
  0
APPID
  5
66C
330
9
100
AcDbSymbolTableRecord
100
AcDbRegAppTableRecord
  2
GENIUS_GENCFG4_13
 70
     0
  0
APPID
  5
A76
330
9
100
AcDbSymbolTableRecord
100
AcDbRegAppTableRecord
  2
GENIUS_GENBLLY_14
 70
     0
  0
APPID
  5
A77
330
9
100
AcDbSymbolTableRecord
100
AcDbRegAppTableRecord
  2
GENIUS_GENOBJ-N-CEN_13
 70
     0
  0
APPID
  5
A83
330
9
100
AcDbSymbolTableRecord
100
AcDbRegAppTableRecord
  2
GENIUS_GENTRA_14
 70
     0
  0
APPID
  5
A8D
330
9
100
AcDbSymbolTableRecord
100
AcDbRegAppTableRecord
  2
GENIUS_GENOBJ-N-TIT_13
 70
     0
  0
APPID
  5
A8E
330
9
100
AcDbSymbolTableRecord
100
AcDbRegAppTableRecord
  2
GENIUS_GENTITLE_13
 70
     0
  0
APPID
  5
A8F
330
9
100
AcDbSymbolTableRecord
100
AcDbRegAppTableRecord
  2
GENIUS_GENOENT_13
 70
     0
  0
APPID
  5
A90
330
9
100
AcDbSymbolTableRecord
100
AcDbRegAppTableRecord
  2
GENIUS_GENOREF_13
 70
     0
  0
APPID
  5
A91
330
9
100
AcDbSymbolTableRecord
100
AcDbRegAppTableRecord
  2
GENIUS_GENOLIS_13
 70
     0
  0
APPID
  5
A92
330
9
100
AcDbSymbolTableRecord
100
AcDbRegAppTableRecord
  2
GENIUS_GENZVEED_13
 70
     0
  0
APPID
  5
A93
330
9
100
AcDbSymbolTableRecord
100
AcDbRegAppTableRecord
  2
GENIUS_GENSCREG_15
 70
     0
  0
APPID
  5
A94
330
9
100
AcDbSymbolTableRecord
100
AcDbRegAppTableRecord
  2
GENIUS_GENOBJ-N-SDF_13
 70
     0
  0
APPID
  5
12B5
330
9
100
AcDbSymbolTableRecord
100
AcDbRegAppTableRecord
  2
GENIUS_GENOBJ-N-RSBK_13
 70
     0
  0
APPID
  5
12B6
330
9
100
AcDbSymbolTableRecord
100
AcDbRegAppTableRecord
  2
GENIUS_GENOBJ-N-LIB_13
 70
     0
  0
APPID
  5
12B7
330
9
100
AcDbSymbolTableRecord
100
AcDbRegAppTableRecord
  2
GENIUS_GENSCALE_13
 70
     0
  0
APPID
  5
12B8
330
9
100
AcDbSymbolTableRecord
100
AcDbRegAppTableRecord
  2
GENIUS_GENOBJ-N-HTC_13
 70
     0
  0
APPID
  5
12B9
330
9
100
AcDbSymbolTableRecord
100
AcDbRegAppTableRecord
  2
GENIUS_GENHATCH_13
 70
     0
  0
APPID
  5
189B
330
9
100
AcDbSymbolTableRecord
100
AcDbRegAppTableRecord
  2
BASE_TYPE
 70
     0
  0
APPID
  5
189C
330
9
100
AcDbSymbolTableRecord
100
AcDbRegAppTableRecord
  2
GENIUS_GENOBJ-N-FIL_13
 70
     0
  0
APPID
  5
23D0
330
9
100
AcDbSymbolTableRecord
100
AcDbRegAppTableRecord
  2
ACATTRIBSERVICES
 70
     0
  0
APPID
  5
264C
330
9
100
AcDbSymbolTableRecord
100
AcDbRegAppTableRecord
  2
GENIUS_GENSCREG_13
 70
     0
  0
APPID
  5
26E5
330
9
100
AcDbSymbolTableRecord
100
AcDbRegAppTableRecord
  2
CONTENTBLOCKICON
 70
     0
  0
APPID
  5
2747
330
9
100
AcDbSymbolTableRecord
100
AcDbRegAppTableRecord
  2
GENIUS_GENFIL_13
 70
     0
  0
APPID
  5
2748
330
9
100
AcDbSymbolTableRecord
100
AcDbRegAppTableRecord
  2
GENIUS_GENOBJ-N-CHA_13
 70
     0
  0
APPID
  5
2749
330
9
100
AcDbSymbolTableRecord
100
AcDbRegAppTableRecord
  2
GENIUS_GENDIMSH_14
 70
     0
  0
APPID
  5
274A
330
9
100
AcDbSymbolTableRecord
100
AcDbRegAppTableRecord
  2
GENIUS_GENOBJ-N-DIM_13
 70
     0
  0
APPID
  5
274B
330
9
100
AcDbSymbolTableRecord
100
AcDbRegAppTableRecord
  2
GENIUS_GENDIM_13
 70
     0
  0
APPID
  5
2A08
330
9
100
AcDbSymbolTableRecord
100
AcDbRegAppTableRecord
  2
GENIUS_GENOBJ-N-CRS_13
 70
     0
  0
APPID
  5
9A0B
330
9
100
AcDbSymbolTableRecord
100
AcDbRegAppTableRecord
  2
AD_DRAW
 70
     0
  0
APPID
  5
9A29
330
9
100
AcDbSymbolTableRecord
100
AcDbRegAppTableRecord
  2
DESIGNERASSEMBLIES
 70
     0
  0
APPID
  5
9A2F
330
9
100
AcDbSymbolTableRecord
100
AcDbRegAppTableRecord
  2
ACADM_DIM_EDIT
 70
     0
  0
APPID
  5
9A30
330
9
100
AcDbSymbolTableRecord
100
AcDbRegAppTableRecord
  2
AMDT_DM_ADJ
 70
     0
  0
APPID
  5
9B24
330
9
100
AcDbSymbolTableRecord
100
AcDbRegAppTableRecord
  2
GENIUS_GENCEN_19
 70
     0
  0
APPID
  5
A33D
330
9
100
AcDbSymbolTableRecord
100
AcDbRegAppTableRecord
  2
ACAD_DSTYLE_DIMTEXT_FILL
 70
     0
  0
APPID
  5
A33E
330
9
100
AcDbSymbolTableRecord
100
AcDbRegAppTableRecord
  2
ACAD_PSEXT
 70
     0
  0
ENDTAB
  0
TABLE
  2
DIMSTYLE
  5
A
330
0
100
AcDbSymbolTable
 70
    16
100
AcDbDimStyleTable
  0
DIMSTYLE
105
58
330
A
100
AcDbSymbolTableRecord
100
AcDbDimStyleTableRecord
  2
AM_JIS
 70
     0
  4
"
 41
2.5
 42
0.0
 43
10.0
 44
1.0
 47
0.1
 48
0.1000000001
 73
     0
 74
     0
 77
     3
 78
     1
 79
     2
140
3.8
141
0.0
143
0.0393701
146
0.71
147
1.5
172
     1
176
   256
177
   256
178
     2
179
     2
271
     3
272
     3
275
     1
283
     0
284
     8
340
11
341
59
342
59
371
    -1
372
    -1
  0
DIMSTYLE
105
5F
330
A
100
AcDbSymbolTableRecord
100
AcDbDimStyleTableRecord
  2
AM_JIS$3
 70
     0
  4
"
 41
2.5
 42
0.0
 43
10.0
 44
1.0
 47
0.1
 48
0.1000000001
 73
     0
 77
     3
 78
     1
 79
     2
140
3.8
141
0.0
143
0.0393701
146
0.71
147
1.5
172
     1
176
   256
177
   256
178
     2
179
     2
271
     3
272
     3
275
     1
283
     0
284
     8
288
     1
289
     0
340
11
341
59
342
59
371
    -1
372
    -1
  0
DIMSTYLE
105
60
330
A
100
AcDbSymbolTableRecord
100
AcDbDimStyleTableRecord
  2
AM_JIS$4
 70
     0
  4
"
 41
2.5
 42
0.0
 43
10.0
 44
1.0
 47
0.1
 48
0.1000000001
 73
     0
 77
     3
 78
     1
 79
     2
140
3.8
141
0.0
143
0.0393701
146
0.71
147
1.5
172
     1
176
   256
177
   256
178
     2
179
     2
271
     3
272
     3
275
     1
283
     0
284
     8
288
     1
289
     0
340
11
341
59
342
59
371
    -1
372
    -1
  0
DIMSTYLE
105
61
330
A
100
AcDbSymbolTableRecord
100
AcDbDimStyleTableRecord
  2
AM_JIS$6
 70
     0
  4
"
 41
2.5
 42
0.0
 43
10.0
 44
1.0
 47
0.1
 48
0.1000000001
 73
     0
 74
     0
 78
     1
 79
     2
140
3.8
141
0.0
143
0.0393701
146
0.71
147
1.5
172
     1
176
   256
177
   256
178
     2
179
     2
271
     3
272
     3
275
     1
283
     0
284
     8
340
11
341
59
342
59
371
    -1
372
    -1
  0
DIMSTYLE
105
62
330
A
100
AcDbSymbolTableRecord
100
AcDbDimStyleTableRecord
  2
AM_JIS$7
 70
     0
  4
"
 41
2.5
 42
0.0
 43
10.0
 44
1.0
 47
0.1
 48
0.1000000001
 73
     0
 74
     0
 77
     3
 78
     1
 79
     2
140
5.0
141
0.0
143
0.0393701
146
0.71
147
1.5
172
     1
176
   256
177
   256
178
     2
179
     2
271
     3
272
     3
275
     1
283
     0
284
     8
340
11
341
59
342
59
371
    -1
372
    -1
  0
DIMSTYLE
105
63
330
A
100
AcDbSymbolTableRecord
100
AcDbDimStyleTableRecord
  2
AM_JIS$SF
 70
     0
  4
"
 41
2.5
 42
1.0
 43
10.0
 44
1.0
 47
0.1
 48
0.1
 73
     0
 74
     0
 75
     1
 76
     1
 77
     3
 78
     8
 79
     2
140
3.5
141
0.0
143
0.0393701
146
0.71
147
1.5
176
   256
177
   256
178
     2
271
     2
272
     3
274
     4
340
11
341
59
342
59
343
59
344
59
371
    -1
372
    -1
  0
DIMSTYLE
105
68
330
A
100
AcDbSymbolTableRecord
100
AcDbDimStyleTableRecord
  2
AM_JIS$SH
 70
     0
  4
"
 41
2.5
 42
1.0
 43
10.0
 44
1.0
 47
0.1
 48
0.1
 73
     0
 74
     0
 75
     1
 76
     1
 77
     3
 78
     8
 79
     2
140
3.5
141
0.0
143
0.0393701
144
2.0
146
0.71
147
1.5
173
     1
176
   256
177
   256
178
     2
271
     2
272
     3
274
     4
340
11
341
59
342
59
343
64
344
59
371
    -1
372
    -1
  0
DIMSTYLE
105
65F
330
A
100
AcDbSymbolTableRecord
100
AcDbDimStyleTableRecord
  2
STANDARD
 70
     0
340
11
  0
DIMSTYLE
105
1899
102
{ACAD_REACTORS
330
7A0E
330
868E
330
9D0C
102
}
330
A
100
AcDbSymbolTableRecord
100
AcDbDimStyleTableRecord
  2
AM_JIS$0
 70
     0
  4
"
 41
2.5
 42
0.0
 43
10.0
 44
1.0
 47
0.1
 48
0.1000000001
 73
     0
 74
     0
 77
     3
 78
     1
 79
     2
140
3.8
141
0.0
143
0.0393701
146
0.71
147
1.5
172
     1
176
     3
177
     3
178
     2
271
     3
272
     3
275
     1
283
     0
284
     8
289
     0
340
11
341
59
342
59
371
    13
372
    13
  0
DIMSTYLE
105
189A
102
{ACAD_REACTORS
330
CB72
102
}
330
A
100
AcDbSymbolTableRecord
100
AcDbDimStyleTableRecord
  2
AM_JIS$2
 70
     0
  4
"
 41
2.5
 42
0.0
 43
10.0
 44
1.0
 47
0.1
 48
0.1000000001
 73
     0
 74
     0
 77
     3
 78
     1
 79
     2
140
3.8
141
0.0
143
0.0393701
146
0.71
147
1.5
172
     1
176
     3
177
     3
178
     2
179
     3
271
     3
272
     3
275
     1
283
     0
284
     8
289
     0
340
11
341
59
342
59
371
    13
372
    13
  0
DIMSTYLE
105
A6BE
330
A
100
AcDbSymbolTableRecord
100
AcDbDimStyleTableRecord
  2
AM_ANSI
 70
     0
  4
mm
 41
0.1
 42
0.05
 43
0.5
 44
0.1
 47
0.1
 48
0.1
 78
     7
 79
     2
140
0.12
141
0.0
146
0.71
147
0.06
176
   256
177
   256
178
     2
274
     4
284
     7
340
11
371
    -1
372
    -1
  0
DIMSTYLE
105
A6C1
330
A
100
AcDbSymbolTableRecord
100
AcDbDimStyleTableRecord
  2
AM_ANSI$3
 70
     0
  4
mm
 41
0.1
 42
0.05
 43
0.5
 44
0.1
 47
0.1
 48
0.1
 78
     7
 79
     2
140
0.12
141
0.0
146
0.71
147
0.06
176
   256
177
   256
178
     2
274
     4
284
     7
288
     1
289
     0
340
11
371
    -1
372
    -1
  0
DIMSTYLE
105
A6C2
330
A
100
AcDbSymbolTableRecord
100
AcDbDimStyleTableRecord
  2
AM_ANSI$4
 70
     0
  4
mm
 41
0.1
 42
0.05
 43
0.5
 44
0.1
 47
0.1
 48
0.1
 78
     7
 79
     2
140
0.12
141
0.0
146
0.71
147
0.06
176
   256
177
   256
178
     2
274
     4
284
     7
288
     1
289
     0
340
11
371
    -1
372
    -1
  0
DIMSTYLE
105
A6C3
330
A
100
AcDbSymbolTableRecord
100
AcDbDimStyleTableRecord
  2
AM_ANSI$7
 70
     0
  4
mm
 41
0.1
 42
0.05
 43
0.5
 44
0.1
 47
0.1
 48
0.1
 78
     7
 79
     2
140
0.24
141
0.0
146
0.71
147
0.06
176
   256
177
   256
178
     2
274
     4
284
     7
340
11
371
    -1
372
    -1
  0
DIMSTYLE
105
A6C4
330
A
100
AcDbSymbolTableRecord
100
AcDbDimStyleTableRecord
  2
AM_ANSI$SF
 70
     0
  4
mm
 41
0.1
 42
0.05
 43
0.5
 44
0.1
 47
0.1
 48
0.1
 75
     1
 76
     1
 78
     7
 79
     2
140
0.12
141
0.0
146
0.71
147
0.06
176
   256
177
   256
178
     2
274
     4
284
     7
340
11
371
    -1
372
    -1
  0
DIMSTYLE
105
A6C5
330
A
100
AcDbSymbolTableRecord
100
AcDbDimStyleTableRecord
  2
AM_ANSI$SH
 70
     0
  4
mm
 41
0.1
 42
0.05
 43
0.5
 44
0.1
 47
0.1
 48
0.1
 75
     1
 76
     1
 78
     7
 79
     2
140
0.12
141
0.0
146
0.71
147
0.06
173
     1
176
   256
177
   256
178
     2
274
     4
284
     7
340
11
343
64
371
    -1
372
    -1
  0
ENDTAB
  0
TABLE
  2
BLOCK_RECORD
  5
1
330
0
100
AcDbSymbolTable
 70
     8
  0
BLOCK_RECORD
  5
1F
102
{ACAD_XDICTIONARY
360
165
102
}
330
1
100
AcDbSymbolTableRecord
100
AcDbBlockTableRecord
  2
*Model_Space
340
22
  0
BLOCK_RECORD
  5
1B
102
{ACAD_XDICTIONARY
360
264F
102
}
330
1
100
AcDbSymbolTableRecord
100
AcDbBlockTableRecord
  2
*Paper_Space
340
1E
  0
BLOCK_RECORD
  5
23
102
{ACAD_XDICTIONARY
360
2651
102
}
330
1
100
AcDbSymbolTableRecord
100
AcDbBlockTableRecord
  2
*Paper_Space0
340
26
  0
BLOCK_RECORD
  5
59
330
1
100
AcDbSymbolTableRecord
100
AcDbBlockTableRecord
  2
_Open30
340
0
102
{BLKREFS
331
10FF9
331
10FFA
331
11002
331
11003
331
1100B
331
1100C
331
11014
331
11015
102
}
  0
BLOCK_RECORD
  5
64
330
1
100
AcDbSymbolTableRecord
100
AcDbBlockTableRecord
  2
GENAXEH
340
0
  0
BLOCK_RECORD
  5
7A0F
330
1
100
AcDbSymbolTableRecord
100
AcDbBlockTableRecord
  2
*D3
340
0
  0
BLOCK_RECORD
  5
868F
330
1
100
AcDbSymbolTableRecord
100
AcDbBlockTableRecord
  2
*D4
340
0
  0
BLOCK_RECORD
  5
9A20
330
1
100
AcDbSymbolTableRecord
100
AcDbBlockTableRecord
  2
*U5
340
0
  0
BLOCK_RECORD
  5
9E80
330
1
100
AcDbSymbolTableRecord
100
AcDbBlockTableRecord
  2
*D6
340
0
  0
BLOCK_RECORD
  5
CB73
330
1
100
AcDbSymbolTableRecord
100
AcDbBlockTableRecord
  2
*D7
340
0
  0
ENDTAB
  0
ENDSEC
  0
SECTION
  2
BLOCKS
  0
BLOCK
  5
20
330
1F
100
AcDbEntity
  8
0
100
AcDbBlockBegin
  2
*Model_Space
 70
     0
 71
     0
 10
0.0
 20
0.0
 30
0.0
  3
*Model_Space
  1

  0
ENDBLK
  5
21
330
1F
100
AcDbEntity
  8
0
100
AcDbBlockEnd
  0
BLOCK
  5
1C
330
1B
100
AcDbEntity
 67
     1
  8
0
100
AcDbBlockBegin
  2
*Paper_Space
 70
     0
 71
     0
 10
0.0
 20
0.0
 30
0.0
  3
*Paper_Space
  1

  0
ENDBLK
  5
1D
330
1B
100
AcDbEntity
 67
     1
  8
0
100
AcDbBlockEnd
  0
BLOCK
  5
24
330
23
100
AcDbEntity
  8
0
100
AcDbBlockBegin
  2
*Paper_Space0
 70
     0
 71
     0
 10
0.0
 20
0.0
 30
0.0
  3
*Paper_Space0
  1

  0
ENDBLK
  5
25
330
23
100
AcDbEntity
  8
0
100
AcDbBlockEnd
  0
BLOCK
  5
2F22
330
59
100
AcDbEntity
  8
0
100
AcDbBlockBegin
  2
_Open30
 70
     0
 71
     0
 10
0.0
 20
0.0
 30
0.0
  3
_Open30
  1

  0
LINE
  5
2F1F
330
59
100
AcDbEntity
  8
0
 62
     0
370
    -2
100
AcDbLine
 10
-1.0
 20
0.26794919
 30
0.0
 11
0.0
 21
0.0
 31
0.0
  0
LINE
  5
2F20
330
59
100
AcDbEntity
  8
0
 62
     0
370
    -2
100
AcDbLine
 10
0.0
 20
0.0
 30
0.0
 11
-1.0
 21
-0.26794919
 31
0.0
  0
LINE
  5
2F21
330
59
100
AcDbEntity
  8
0
 62
     0
370
    -2
100
AcDbLine
 10
0.0
 20
0.0
 30
0.0
 11
-1.0
 21
0.0
 31
0.0
  0
ENDBLK
  5
2F23
330
59
100
AcDbEntity
  8
0
100
AcDbBlockEnd
  0
BLOCK
  5
2F2E
330
64
100
AcDbEntity
  8
0
100
AcDbBlockBegin
  2
GENAXEH
 70
     0
 71
     0
 10
0.0
 20
0.0
 30
0.0
  3
GENAXEH
  1

  0
LINE
  5
2F2D
330
64
100
AcDbEntity
  8
0
100
AcDbLine
 10
-1.0
 20
0.0
 30
0.0
 11
1.0
 21
0.0
 31
0.0
  0
ENDBLK
  5
2F2F
330
64
100
AcDbEntity
  8
0
100
AcDbBlockEnd
  0
BLOCK
  5
7A19
330
7A0F
100
AcDbEntity
  8
0
100
AcDbBlockBegin
  2
*D3
 70
     1
 71
     0
 10
0.0
 20
0.0
 30
0.0
  3
*D3
  1

  0
LINE
  5
10FF6
330
7A0F
100
AcDbEntity
  8
AM_5
 62
     3
370
    13
100
AcDbLine
 10
0.0
 20
-3.843116733177368
 30
0.0
 11
-0.0000000000000017
 21
-31.92803418715754
 31
0.0
  0
LINE
  5
10FF7
330
7A0F
100
AcDbEntity
  8
AM_5
 62
     3
370
    13
100
AcDbLine
 10
49.99999999999989
 20
7.299999999999983
 30
0.0
 11
49.99999999999989
 21
-31.92803418715754
 31
0.0
  0
LINE
  5
10FF8
330
7A0F
100
AcDbEntity
  8
AM_5
 62
     3
370
    13
100
AcDbLine
 10
2.499999999999998
 20
-30.92803418715754
 30
0.0
 11
47.49999999999989
 21
-30.92803418715754
 31
0.0
  0
INSERT
  5
10FF9
330
7A0F
100
AcDbEntity
  8
AM_5
 62
     3
370
    13
100
AcDbBlockReference
  2
_Open30
 10
-0.0000000000000017
 20
-30.92803418715754
 30
0.0
 41
2.5
 42
2.5
 43
2.5
 50
180.0
  0
INSERT
  5
10FFA
330
7A0F
100
AcDbEntity
  8
AM_5
 62
     3
370
    13
100
AcDbBlockReference
  2
_Open30
 10
49.99999999999989
 20
-30.92803418715754
 30
0.0
 41
2.5
 42
2.5
 43
2.5
  0
MTEXT
  5
10FFB
330
7A0F
100
AcDbEntity
  8
AM_5
 62
     2
100
AcDbMText
 10
24.99999999999994
 20
-27.52803418715754
 30
0.0
 40
3.8
 41
0.0
 71
     5
 72
     1
  1
50
 73
     1
 44
1.0
  0
POINT
  5
10FFC
330
7A0F
100
AcDbEntity
  8
Defpoints
 62
     0
100
AcDbPoint
 10
0.0
 20
-3.843116733177368
 30
0.0
  0
POINT
  5
10FFD
330
7A0F
100
AcDbEntity
  8
Defpoints
 62
     0
100
AcDbPoint
 10
49.99999999999989
 20
7.299999999999983
 30
0.0
  0
POINT
  5
10FFE
330
7A0F
100
AcDbEntity
  8
Defpoints
 62
     0
100
AcDbPoint
 10
49.99999999999989
 20
-30.92803418715754
 30
0.0
  0
ENDBLK
  5
7A1A
330
7A0F
100
AcDbEntity
  8
0
100
AcDbBlockEnd
  0
BLOCK
  5
8699
330
868F
100
AcDbEntity
  8
0
100
AcDbBlockBegin
  2
*D4
 70
     1
 71
     0
 10
0.0
 20
0.0
 30
0.0
  3
*D4
  1

  0
LINE
  5
10FFF
330
868F
100
AcDbEntity
  8
AM_5
 62
     3
370
    13
100
AcDbLine
 10
-8.711052558828783
 20
27.00000000000003
 30
0.0
 11
-17.58450712434193
 21
27.00000000000003
 31
0.0
  0
LINE
  5
11000
330
868F
100
AcDbEntity
  8
AM_5
 62
     3
370
    13
100
AcDbLine
 10
-3.263955659574606
 20
0.0
 30
0.0
 11
-17.58450712434194
 21
0.0000000000000041
 31
0.0
  0
LINE
  5
11001
330
868F
100
AcDbEntity
  8
AM_5
 62
     3
370
    13
100
AcDbLine
 10
-16.58450712434193
 20
24.50000000000003
 30
0.0
 11
-16.58450712434194
 21
2.500000000000004
 31
0.0
  0
INSERT
  5
11002
330
868F
100
AcDbEntity
  8
AM_5
 62
     3
370
    13
100
AcDbBlockReference
  2
_Open30
 10
-16.58450712434193
 20
27.00000000000003
 30
0.0
 41
2.5
 42
2.5
 43
2.5
 50
90.0
  0
INSERT
  5
11003
330
868F
100
AcDbEntity
  8
AM_5
 62
     3
370
    13
100
AcDbBlockReference
  2
_Open30
 10
-16.58450712434194
 20
0.0000000000000038
 30
0.0
 41
2.5
 42
2.5
 43
2.5
 50
270.0
  0
MTEXT
  5
11004
330
868F
100
AcDbEntity
  8
AM_5
 62
     2
100
AcDbMText
 10
-19.98488114008997
 20
13.50000000000001
 30
0.0
 40
3.8
 41
0.0
 71
     5
 72
     1
  1
27
 11
6.123031769111886E-17
 21
1.0
 31
0.0
 73
     1
 44
1.0
  0
POINT
  5
11005
330
868F
100
AcDbEntity
  8
Defpoints
 62
     0
100
AcDbPoint
 10
-8.711052558828783
 20
27.00000000000003
 30
0.0
  0
POINT
  5
11006
330
868F
100
AcDbEntity
  8
Defpoints
 62
     0
100
AcDbPoint
 10
-3.263955659574606
 20
0.0
 30
0.0
  0
POINT
  5
11007
330
868F
100
AcDbEntity
  8
Defpoints
 62
     0
100
AcDbPoint
 10
-16.58450712434194
 20
0.0000000000000038
 30
0.0
  0
ENDBLK
  5
869A
330
868F
100
AcDbEntity
  8
0
100
AcDbBlockEnd
  0
BLOCK
  5
9A21
330
9A20
100
AcDbEntity
  8
0
100
AcDbBlockBegin
  2
*U5
 70
     1
 71
     0
 10
0.0
 20
0.0
 30
0.0
  3
*U5
  1

  0
ENDBLK
  5
9A22
330
9A20
100
AcDbEntity
  8
0
100
AcDbBlockEnd
  0
BLOCK
  5
9F2A
330
9E80
100
AcDbEntity
  8
0
100
AcDbBlockBegin
  2
*D6
 70
     1
 71
     0
 10
0.0
 20
0.0
 30
0.0
  3
*D6
  1

  0
LINE
  5
11008
330
9E80
100
AcDbEntity
  8
AM_5
 62
     3
370
    13
100
AcDbLine
 10
49.69999999999988
 20
47.00000000000009
 30
0.0
 11
89.04877426065436
 21
47.00000000000008
 31
0.0
  0
LINE
  5
11009
330
9E80
100
AcDbEntity
  8
AM_5
 62
     3
370
    13
100
AcDbLine
 10
49.69999999999982
 20
6.999999999999972
 30
0.0
 11
89.04877426065434
 21
6.99999999999996
 31
0.0
  0
LINE
  5
1100A
330
9E80
100
AcDbEntity
  8
AM_5
 62
     3
370
    13
100
AcDbLine
 10
88.04877426065436
 20
44.50000000000008
 30
0.0
 11
88.04877426065434
 21
9.499999999999959
 31
0.0
  0
INSERT
  5
1100B
330
9E80
100
AcDbEntity
  8
AM_5
 62
     3
370
    13
100
AcDbBlockReference
  2
_Open30
 10
88.04877426065436
 20
47.00000000000008
 30
0.0
 41
2.5
 42
2.5
 43
2.5
 50
90.0
  0
INSERT
  5
1100C
330
9E80
100
AcDbEntity
  8
AM_5
 62
     3
370
    13
100
AcDbBlockReference
  2
_Open30
 10
88.04877426065434
 20
6.99999999999996
 30
0.0
 41
2.5
 42
2.5
 43
2.5
 50
270.0
  0
MTEXT
  5
1100D
330
9E80
100
AcDbEntity
  8
AM_5
 62
     2
100
AcDbMText
 10
84.64877426065434
 20
27.00000000000004
 30
0.0
 40
3.8
 41
0.0
 71
     5
 72
     1
  1
%%c40
 11
6.123031769111886E-17
 21
1.0
 31
0.0
 73
     1
 44
1.0
  0
POINT
  5
1100E
330
9E80
100
AcDbEntity
  8
Defpoints
 62
     0
100
AcDbPoint
 10
49.69999999999988
 20
47.00000000000009
 30
0.0
  0
POINT
  5
1100F
330
9E80
100
AcDbEntity
  8
Defpoints
 62
     0
100
AcDbPoint
 10
49.69999999999982
 20
6.999999999999972
 30
0.0
  0
POINT
  5
11010
330
9E80
100
AcDbEntity
  8
Defpoints
 62
     0
100
AcDbPoint
 10
88.04877426065434
 20
6.99999999999996
 30
0.0
  0
ENDBLK
  5
9F2B
330
9E80
100
AcDbEntity
  8
0
100
AcDbBlockEnd
  0
BLOCK
  5
CBA1
330
CB73
100
AcDbEntity
  8
0
100
AcDbBlockBegin
  2
*D7
 70
     1
 71
     0
 10
0.0
 20
0.0
 30
0.0
  3
*D7
  1

  0
LINE
  5
11011
330
CB73
100
AcDbEntity
  8
AM_5
 62
     3
370
    13
100
AcDbLine
 10
0.0
 20
-3.843116733177367
 30
0.0
 11
0.0000000000000107
 21
-18.82714276278084
 31
0.0
  0
LINE
  5
11012
330
CB73
100
AcDbEntity
  8
AM_5
 62
     3
370
    13
100
AcDbLine
 10
14.68038300500296
 20
0.7262197216705593
 30
0.0
 11
18.75825339815596
 21
0.9399318531797061
 31
0.0
  0
ARC
  5
11013
330
CB73
100
AcDbEntity
  8
AM_5
 62
     3
370
    13
100
AcDbCircle
 10
-0.000000000000002
 20
-0.0431465506459411
 30
0.0
 40
17.7839962121349
100
AcDbArc
 50
278.0610484392371
 51
354.9389515607621
  0
INSERT
  5
11014
330
CB73
100
AcDbEntity
  8
AM_5
 62
     3
370
    13
100
AcDbBlockReference
  2
_Open30
 10
0.0000000000000089
 20
-17.82714276278084
 30
0.0
 41
2.5
 42
2.5
 43
2.5
 50
184.0305242196186
  0
INSERT
  5
11015
330
CB73
100
AcDbEntity
  8
AM_5
 62
     3
370
    13
100
AcDbBlockReference
  2
_Open30
 10
17.75962386340139
 20
0.8875958969367783
 30
0.0
 41
2.5
 42
2.5
 43
2.5
 50
88.96947578038065
  0
MTEXT
  5
11016
330
CB73
100
AcDbEntity
  8
AM_5
 62
     2
100
AcDbMText
 10
10.43378220502041
 20
-9.944436160030698
 30
0.0
 40
3.8
 41
0.0
 71
     5
 72
     1
  1
93°
 11
0.688354575693759
 21
0.7253743710122829
 31
0.0
 73
     1
 44
1.0
  0
POINT
  5
11017
330
CB73
100
AcDbEntity
  8
Defpoints
 62
     0
100
AcDbPoint
 10
9.159435173305582
 20
-15.28700657949824
 30
0.0
  0
POINT
  5
11018
330
CB73
100
AcDbEntity
  8
Defpoints
 62
     0
100
AcDbPoint
 10
14.68038300500296
 20
0.7262197216705593
 30
0.0
  0
POINT
  5
11019
330
CB73
100
AcDbEntity
  8
Defpoints
 62
     0
100
AcDbPoint
 10
0.0
 20
0.8030303056014816
 30
0.0
  0
POINT
  5
1101A
330
CB73
100
AcDbEntity
  8
Defpoints
 62
     0
100
AcDbPoint
 10
0.0
 20
-3.843116733177367
 30
0.0
  0
POINT
  5
1101B
330
CB73
100
AcDbEntity
  8
Defpoints
 62
     0
100
AcDbPoint
 10
0.8439507004530353
 20
0.0010830313891574
 30
0.0
  0
ENDBLK
  5
CBA2
330
CB73
100
AcDbEntity
  8
0
100
AcDbBlockEnd
  0
ENDSEC
  0
SECTION
  2
ENTITIES
  0
LINE
  5
6E5E
330
1F
100
AcDbEntity
  8
AM_7
100
AcDbLine
 10
-8.711052558828783
 20
27.00000000000003
 30
0.0
 11
80.0690205802124
 21
27.00000000000003
 31
0.0
1001
GENIUS_GENODEF_13
1002
{
1000
HIER
1070
     0
1002
}
1002
{
1000
MANEDIT
1070
     0
1002
}
1002
{
1000
NOSEL
1070
     0
1002
}
1002
{
1000
BEHIND
1070
     0
1002
}
1002
{
1000
OTHER
1070
     0
1002
}
1002
{
1000
REACTOR
1002
}
1001
GENIUS_GENOBJ-N-CEN_13
1002
{
1000
OWNER
1000
GEN
1002
}
  0
LINE
  5
6E5F
330
1F
100
AcDbEntity
  8
AM_7
100
AcDbLine
 10
79.98891251100906
 20
-81.77700235755971
 30
0.0
 11
-6.851699183246296
 21
-81.7770023575597
 31
0.0
1001
GENIUS_GENOBJ-N-CEN_13
1002
{
1000
OWNER
1000
GEN
1002
}
1001
GENIUS_GENODEF_13
1002
{
1000
HIER
1070
     0
1002
}
1002
{
1000
MANEDIT
1070
     0
1002
}
1002
{
1000
NOSEL
1070
     0
1002
}
1002
{
1000
BEHIND
1070
     0
1002
}
1002
{
1000
OTHER
1070
     0
1002
}
1002
{
1000
REACTOR
1002
}
  0
LINE
  5
6E60
330
1F
100
AcDbEntity
  8
AM_7
100
AcDbLine
 10
-87.25371505316809
 20
27.00000000000006
 30
0.0
 11
-56.60288469747644
 21
27.00000000000003
 31
0.0
1001
GENIUS_GENOREF_13
1005
7482
  0
LINE
  5
6E61
330
1F
100
AcDbEntity
  8
AM_7
100
AcDbLine
 10
-87.25371505316809
 20
27.00000000000006
 30
0.0
 11
-87.25371505316809
 21
57.65083035569171
 31
0.0
1001
GENIUS_GENOREF_13
1005
7482
  0
LINE
  5
6E62
330
1F
100
AcDbEntity
  8
AM_7
100
AcDbLine
 10
-87.25371505316809
 20
27.00000000000006
 30
0.0
 11
-117.9045454088598
 21
27.00000000000006
 31
0.0
1001
GENIUS_GENOREF_13
1005
7482
  0
LINE
  5
6E63
330
1F
100
AcDbEntity
  8
AM_7
100
AcDbLine
 10
-87.25371505316809
 20
27.00000000000006
 30
0.0
 11
-87.25371505316809
 21
-3.650830355691596
 31
0.0
1001
GENIUS_GENOREF_13
1005
7482
  0
POINT
  5
7482
330
1F
100
AcDbEntity
  8
0
 60
     1
100
AcDbPoint
 10
-1445.539078366914
 20
-1038.999287544443
 30
0.0
1001
GENIUS_GENOENT_13
1002
{
1000
MYREF
1005
7482
1002
}
1002
{
1000
GRP
1005
0
1002
}
1001
GENIUS_GENOBJ-N-CRS_13
1002
{
1000
OWNER
1000
GEN
1002
}
1001
GENIUS_GENODEF_13
1002
{
1000
HIER
1070
    10
1002
}
1002
{
1000
MANEDIT
1070
     0
1002
}
1002
{
1000
NOSEL
1070
     0
1002
}
1002
{
1000
BEHIND
1070
     0
1002
}
1002
{
1000
OTHER
1070
     0
1002
}
1002
{
1000
REACTOR
1002
}
1001
GENIUS_GENOLIS_13
1002
{
1000
ENT
1005
6E63
1005
6E62
1005
6E61
1005
6E60
1002
}
1001
GENIUS_GENCEN_19
1002
{
1040
2.794
1002
}
  0
DIMENSION
  5
7A0E
330
1F
100
AcDbEntity
  8
AM_5
100
AcDbDimension
  2
*D3
 10
49.99999999999989
 20
-30.92803418715754
 30
0.0
 11
24.99999999999994
 21
-27.52803418715754
 31
0.0
 70
    32
 71
     5
 42
49.99999999999989
  3
AM_JIS$0
100
AcDbAlignedDimension
 13
0.0
 23
-3.843116733177368
 33
0.0
 14
49.99999999999989
 24
7.299999999999983
 34
0.0
100
AcDbRotatedDimension
1001
ACAD
1000
DSTYLE
1002
{
1070
   179
1070
     0
1070
   271
1070
     0
1070
   272
1070
     2
1002
}
  0
DIMENSION
  5
868E
330
1F
100
AcDbEntity
  8
AM_5
100
AcDbDimension
  2
*D4
 10
-16.58450712434194
 20
0.0000000000000038
 30
0.0
 11
-19.98488114008997
 21
13.50000000000001
 31
0.0
 70
    32
 71
     5
 42
27.00000000000003
  3
AM_JIS$0
100
AcDbAlignedDimension
 13
-8.711052558828783
 23
27.00000000000003
 33
0.0
 14
-3.263955659574606
 24
0.0
 34
0.0
 50
90.0
100
AcDbRotatedDimension
1001
ACAD
1000
DSTYLE
1002
{
1070
   271
1070
     0
1070
   272
1070
     2
1002
}
  0
DIMENSION
  5
9D0C
330
1F
100
AcDbEntity
  8
AM_5
100
AcDbDimension
  2
*D6
 10
88.04877426065434
 20
6.99999999999996
 30
0.0
 11
84.64877426065434
 21
27.00000000000004
 31
0.0
 70
    32
  1
%%c<>
 71
     5
 42
40.00000000000011
  3
AM_JIS$0
100
AcDbAlignedDimension
 13
49.69999999999988
 23
47.00000000000009
 33
0.0
 14
49.69999999999982
 24
6.999999999999972
 34
0.0
 50
90.0
100
AcDbRotatedDimension
1001
ACAD
1000
DSTYLE
1002
{
1070
   179
1070
     0
1070
   271
1070
     0
1070
   272
1070
     2
1002
}
  0
LINE
  5
ACE1
330
1F
100
AcDbEntity
  8
AM_0
100
AcDbLine
 10
49.99999999999989
 20
46.70000000000002
 30
0.0
 11
49.69999999999988
 21
47.00000000000009
 31
0.0
  0
LINE
  5
ACE2
330
1F
100
AcDbEntity
  8
AM_0
100
AcDbLine
 10
49.99999999999989
 20
7.299999999999983
 30
0.0
 11
49.69999999999988
 21
6.999999999999915
 31
0.0
  0
LINE
  5
ACEF
330
1F
100
AcDbEntity
  8
AM_0
100
AcDbLine
 10
49.69999999999988
 20
6.999999999999972
 30
0.0
 11
49.69999999999988
 21
47.00000000000003
 31
0.0
  0
LINE
  5
ACF3
330
1F
100
AcDbEntity
  8
AM_0
100
AcDbLine
 10
49.99999999999989
 20
7.299999999999983
 30
0.0
 11
49.99999999999989
 21
46.70000000000002
 31
0.0
  0
LINE
  5
ADEA
330
1F
100
AcDbEntity
  8
AM_0
100
AcDbLine
 10
50.3621721552214
 20
-62.07700235755966
 30
0.0
 11
50.06217215522139
 21
-61.77700235755962
 31
0.0
  0
LINE
  5
ADEB
330
1F
100
AcDbEntity
  8
AM_0
100
AcDbLine
 10
50.3621721552214
 20
-101.4770023575597
 30
0.0
 11
50.06217215522139
 21
-101.7770023575598
 31
0.0
  0
LINE
  5
ADF6
330
1F
100
AcDbEntity
  8
AM_0
100
AcDbLine
 10
50.06217215522139
 20
-101.7770023575597
 30
0.0
 11
50.06217215522139
 21
-61.77700235755968
 31
0.0
  0
LINE
  5
ADF9
330
1F
100
AcDbEntity
  8
AM_0
100
AcDbLine
 10
50.3621721552214
 20
-101.4770023575597
 30
0.0
 11
50.3621721552214
 21
-62.07700235755969
 31
0.0
  0
LINE
  5
B533
330
1F
100
AcDbEntity
  8
AM_5
100
AcDbLine
 10
0.8030572776121403
 20
0.0
 30
0.0
 11
-3.263955659574606
 21
0.0
 31
0.0
  0
LINE
  5
B535
330
1F
100
AcDbEntity
  8
AM_5
100
AcDbLine
 10
0.0
 20
0.8030303056014816
 30
0.0
 11
0.0
 21
-3.843116733177368
 31
0.0
  0
TEXT
  5
C2CE
330
1F
100
AcDbEntity
  8
AM_0
100
AcDbText
 10
-40.53838913296357
 20
-113.0496825971422
 30
0.0
 40
3.5
  1
C4-DDJNR-C15
100
AcDbText
  0
LINE
  5
C2F2
330
1F
100
AcDbEntity
  8
AM_0
100
AcDbLine
 10
72.86264532320161
 20
-88.03886002277378
 30
0.0
 11
52.16262790705036
 21
-88.15215502009563
 31
0.0
  0
LINE
  5
C2F3
330
1F
100
AcDbEntity
  8
AM_0
100
AcDbLine
 10
72.86264532320166
 20
-67.53173036683485
 30
0.0
 11
52.16262790705019
 21
-67.03551803111772
 31
0.0
  0
LINE
  5
C2F4
330
1F
100
AcDbEntity
  8
AM_0
100
AcDbLine
 10
52.16266672500132
 20
-67.03554679779053
 30
0.0
 11
52.29077792408515
 21
-66.86267264279879
 31
0.0
  0
SPLINE
  5
C2F5
330
1F
100
AcDbEntity
  8
AM_0
100
AcDbSpline
210
0.0
220
0.0
230
1.0
 70
     8
 71
     3
 72
     8
 73
     4
 74
     0
 42
0.0000000001
 43
0.0000000001
 40
10.03823589428376
 40
10.03823589428376
 40
10.03823589428376
 40
10.03823589428376
 40
11.4263414718188
 40
11.4263414718188
 40
11.4263414718188
 40
11.4263414718188
 10
52.16262790705019
 20
-67.03551803111772
 30
0.0
 10
52.06046860989386
 20
-67.17277722351925
 30
0.0
 10
51.95985139926665
 20
-67.32984936976574
 30
0.0
 10
51.8621721552214
 20
-67.50683728470223
 30
0.0
  0
LINE
  5
C2F6
330
1F
100
AcDbEntity
  8
AM_0
100
AcDbLine
 10
51.66730651471528
 20
-67.66702580749372
 30
0.0
 11
51.85999023279248
 21
-67.36336660141298
 31
0.0
  0
SPLINE
  5
C2F7
330
1F
100
AcDbEntity
  8
AM_0
100
AcDbSpline
210
0.0
220
0.0
230
1.0
 70
     8
 71
     3
 72
    24
 73
    20
 74
     0
 42
0.0000000001
 43
0.0000000001
 40
-3.999896960420581
 40
-3.999896960420581
 40
-3.999896960420581
 40
-3.999896960420581
 40
-3.241209529363331
 40
-3.241209529363331
 40
-2.656961131893444
 40
-2.656961131893444
 40
-2.413811581886892
 40
-2.413811581886892
 40
-2.271213086977644
 40
-2.271213086977644
 40
-2.150707784993695
 40
-2.150707784993695
 40
-2.013423534242694
 40
-2.013423534242694
 40
-1.79902907678595
 40
-1.79902907678595
 40
-1.275628665959264
 40
-1.275628665959264
 40
-0.0006279875274451
 40
-0.0006279875274451
 40
-0.0006279875274451
 40
-0.0006279875274451
 10
50.3621721552214
 20
-67.83513989832581
 30
0.0
 10
50.40627650173229
 20
-67.89715049994403
 30
0.0
 10
50.45935703180902
 20
-67.96422037070558
 30
0.0
 10
50.57003069003167
 20
-68.07562485550706
 30
0.0
 10
50.63342138040986
 20
-68.13148259369952
 30
0.0
 10
50.74142129591331
 20
-68.19322631966305
 30
0.0
 10
50.77913928266611
 20
-68.21136658671084
 30
0.0
 10
50.84684171262796
 20
-68.23284387816877
 30
0.0
 10
50.8743057488968
 20
-68.23943075174397
 30
0.0
 10
50.92894465602598
 20
-68.24662088888898
 30
0.0
 10
50.95448350789383
 20
-68.24785738492189
 30
0.0
 10
51.01011434216747
 20
-68.24555576183185
 30
0.0
 10
51.03817732615522
 20
-68.24141914338772
 30
0.0
 10
51.10562569458551
 20
-68.22582346899675
 30
0.0
 10
51.14226017193977
 20
-68.2116204905923
 30
0.0
 10
51.24973563598871
 20
-68.16024002091116
 30
0.0
 10
51.31314772018652
 20
-68.11030495644356
 30
0.0
 10
51.47612700650495
 20
-67.96234481608771
 30
0.0
 10
51.58063196869387
 20
-67.82075198798385
 30
0.0
 10
51.66927893640798
 20
-67.66827738669089
 30
0.0
  0
SPLINE
  5
C2F8
330
1F
100
AcDbEntity
  8
AM_0
100
AcDbSpline
210
0.0
220
0.0
230
1.0
 70
     8
 71
     3
 72
    22
 73
    18
 74
     0
 42
0.0000000001
 43
0.0000000001
 40
-3.789017543819824
 40
-3.789017543819824
 40
-3.789017543819824
 40
-3.789017543819824
 40
-2.349380245924635
 40
-2.349380245924635
 40
-1.988985132555065
 40
-1.988985132555065
 40
-1.805402222024331
 40
-1.805402222024331
 40
-1.673041914779449
 40
-1.673041914779449
 40
-1.538036274591823
 40
-1.538036274591823
 40
-1.352140350214221
 40
-1.352140350214221
 40
-1.035461664151104
 40
-1.035461664151104
 40
0.0
 40
0.0
 40
0.0
 40
0.0
 10
51.66927893640798
 20
-86.85070656969482
 30
0.0
 10
51.56020161083802
 20
-86.34492183070621
 30
0.0
 10
51.42676936218743
 20
-85.93502607459131
 30
0.0
 10
51.24196691000429
 20
-85.62519440308212
 30
0.0
 10
51.196237459663
 20
-85.56018047430901
 30
0.0
 10
51.11644161060912
 20
-85.48542927288408
 30
0.0
 10
51.08595993221036
 20
-85.46261921548263
 30
0.0
 10
51.02825550398813
 20
-85.43590589568511
 30
0.0
 10
51.00282410386865
 20
-85.4286521757938
 30
0.0
 10
50.949131335809
 20
-85.42478674212431
 30
0.0
 10
50.92265798951814
 20
-85.42852256298512
 30
0.0
 10
50.86139467980922
 20
-85.4490123631182
 30
0.0
 10
50.82904213375747
 20
-85.4695417645893
 30
0.0
 10
50.7514723476009
 20
-85.53429634060775
 30
0.0
 10
50.7088574595972
 20
-85.58870128248272
 30
0.0
 10
50.55958193088424
 20
-85.81502724189194
 30
0.0
 10
50.4543890357042
 20
-86.08367550436613
 30
0.0
 10
50.3621721552214
 20
-86.41376277597796
 30
0.0
  0
LINE
  5
C2F9
330
1F
100
AcDbEntity
  8
AM_0
100
AcDbLine
 10
51.66844398008607
 20
-86.85089169529273
 30
0.0
 11
51.86133435099919
 21
-87.72086881594909
 31
0.0
  0
LINE
  5
C2FA
330
1F
100
AcDbEntity
  8
AM_0
100
AcDbLine
 10
51.8604726422945
 20
-86.75599542820221
 30
0.0
 11
52.1608373206758
 21
-88.15254013408323
 31
0.0
  0
ARC
  5
C2FB
330
1F
100
AcDbEntity
  8
AM_0
100
AcDbCircle
 10
48.38742337837823
 20
-89.14774452078143
 30
0.0
 40
3.904275564964924
100
AcDbArc
 50
345.2264265107015
 51
14.77357348930162
  0
SPLINE
  5
C2FC
330
1F
100
AcDbEntity
  8
AM_0
100
AcDbSpline
210
0.0
220
0.0
230
1.0
 70
     8
 71
     3
 72
    24
 73
    20
 74
     0
 42
0.0000000001
 43
0.0000000001
 40
-3.777697266556959
 40
-3.777697266556959
 40
-3.777697266556959
 40
-3.777697266556959
 40
-3.00628604336144
 40
-3.00628604336144
 40
-2.510016079060591
 40
-2.510016079060591
 40
-2.296553637283721
 40
-2.296553637283721
 40
-2.167806233881147
 40
-2.167806233881147
 40
-2.055476249429752
 40
-2.055476249429752
 40
-1.925013221604042
 40
-1.925013221604042
 40
-1.7182260087146
 40
-1.7182260087146
 40
-1.098287052404742
 40
-1.098287052404742
 40
-0.0006279884606319
 40
-0.0006279884606319
 40
-0.0006279884606319
 40
-0.0006279884606319
 10
50.3621721552214
 20
-91.08210439837559
 30
0.0
 10
50.4105821260855
 20
-91.18732198811075
 30
0.0
 10
50.47036779628883
 20
-91.29693832263855
 30
0.0
 10
50.58828198636923
 20
-91.45390708140157
 30
0.0
 10
50.6484269907225
 20
-91.52138352447129
 30
0.0
 10
50.75115211140803
 20
-91.59471478002912
 30
0.0
 10
50.7876074337899
 20
-91.61621903461413
 30
0.0
 10
50.85346988656431
 20
-91.64158033732964
 30
0.0
 10
50.88051121420409
 20
-91.64928408220767
 30
0.0
 10
50.93490171070511
 20
-91.65747247471133
 30
0.0
 10
50.9606173262336
 20
-91.65858070200547
 30
0.0
 10
51.01691298564299
 20
-91.65464022338871
 30
0.0
 10
51.04541056364423
 20
-91.64872127163871
 30
0.0
 10
51.11402212505794
 20
-91.62706048765018
 30
0.0
 10
51.15137883893868
 20
-91.60751300717836
 30
0.0
 10
51.27793851118651
 20
-91.52548260922141
 30
0.0
 10
51.35471185406624
 20
-91.43344191179166
 30
0.0
 10
51.50502502448217
 20
-91.21734713406558
 30
0.0
 10
51.59296222531663
 20
-91.03463262699565
 30
0.0
 10
51.66927893640798
 20
-90.81202311629365
 30
0.0
  0
LINE
  5
C2FD
330
1F
100
AcDbEntity
  8
AM_0
100
AcDbLine
 10
51.66947562313584
 20
-90.81209009108063
 30
0.0
 11
51.86236130985066
 21
-90.24563730668264
 31
0.0
  0
ARC
  5
C2FE
330
1F
100
AcDbEntity
  8
AM_0
100
AcDbCircle
 10
62.29397777770885
 20
-111.4380975481275
 30
0.0
 40
17.00856428742091
100
AcDbArc
 50
82.30228448421372
 51
100.5760488497858
  0
LINE
  5
C2FF
330
1F
100
AcDbEntity
  8
AM_0
100
AcDbLine
 10
51.8625438911277
 20
-91.06866060925485
 30
0.0
 11
52.16300866289652
 21
-90.14345767403451
 31
0.0
  0
LINE
  5
C300
330
1F
100
AcDbEntity
  8
AM_0
100
AcDbLine
 10
72.86264532320161
 20
-89.76041668307167
 30
0.0
 11
52.16262790705042
 21
-90.14333402146703
 31
0.0
  0
LINE
  5
C301
330
1F
100
AcDbEntity
  8
AM_0
100
AcDbLine
 10
70.36217174986854
 20
-94.24670741786431
 30
0.0
 11
72.86264492643977
 21
-94.18844441944921
 31
0.0
  0
LINE
  5
C302
330
1F
100
AcDbEntity
  8
AM_0
100
AcDbLine
 10
72.8616423270775
 20
-94.18664329375022
 30
0.0
 11
74.36084813458331
 21
-93.35959673661287
 31
0.0
  0
LINE
  5
C303
330
1F
100
AcDbEntity
  8
AM_0
100
AcDbLine
 10
72.86264532320161
 20
-89.76041668307167
 30
0.0
 11
74.3621721552214
 21
-89.08543423612289
 31
0.0
  0
LINE
  5
C304
330
1F
100
AcDbEntity
  8
AM_0
100
AcDbLine
 10
72.8616423270775
 20
-94.18664329375022
 30
0.0
 11
74.36084813458331
 21
-93.35959673661287
 31
0.0
  0
LINE
  5
C305
330
1F
100
AcDbEntity
  8
AM_0
100
AcDbLine
 10
72.86264532320161
 20
-88.03886002277378
 30
0.0
 11
74.3621721552214
 21
-87.83915077262637
 31
0.0
  0
LINE
  5
C306
330
1F
100
AcDbEntity
  8
AM_0
100
AcDbLine
 10
72.86264532320166
 20
-67.53173036683485
 30
0.0
 11
74.3621721552214
 21
-68.40642206393103
 31
0.0
  0
LINE
  5
C309
330
1F
100
AcDbEntity
  8
AM_0
100
AcDbLine
 10
72.86264532320172
 20
-67.37948385946153
 30
0.0
 11
52.29074203129233
 21
-66.86264604386192
 31
0.0
  0
LINE
  5
C30A
330
1F
100
AcDbEntity
  8
AM_0
100
AcDbLine
 10
51.66927893640798
 20
-67.48410913874626
 30
0.0
 11
52.29074203129233
 21
-66.86264604386197
 31
0.0
  0
LINE
  5
C30B
330
1F
100
AcDbEntity
  8
AM_0
100
AcDbLine
 10
50.3621721552214
 20
-94.67700235755957
 30
0.0
 11
51.8621721552214
 21
-94.67700235755957
 31
0.0
  0
LINE
  5
C30C
330
1F
100
AcDbEntity
  8
AM_0
100
AcDbLine
 10
59.17221837747314
 20
-94.71847203299207
 30
0.0
 11
51.8621721552214
 21
-94.90212583827351
 31
0.0
  0
LINE
  5
C30D
330
1F
100
AcDbEntity
  8
AM_0
100
AcDbLine
 10
70.3621721552214
 20
-94.43734144506894
 30
0.0
 11
64.57221837747375
 21
-94.58280523713781
 31
0.0
  0
LINE
  5
C30E
330
1F
100
AcDbEntity
  8
AM_0
100
AcDbLine
 10
74.3621721552214
 20
-68.29620651954009
 30
0.0
 11
72.86264532320166
 21
-67.37948385946159
 31
0.0
  0
LINE
  5
C310
330
1F
100
AcDbEntity
  8
AM_0
100
AcDbLine
 10
51.8621721552214
 20
-86.75562990202037
 30
0.0
 11
51.8621721552214
 21
-67.50683728470229
 31
0.0
  0
LINE
  5
C311
330
1F
100
AcDbEntity
  8
AM_0
100
AcDbLine
 10
51.8621721552214
 20
-67.50683728470223
 30
0.0
 11
51.8621721552214
 21
-67.36475111707308
 31
0.0
  0
LINE
  5
C313
330
1F
100
AcDbEntity
  8
AM_0
100
AcDbLine
 10
51.66927893640798
 20
-67.66827738669089
 30
0.0
 11
51.66927893640798
 21
-67.48410913874626
 31
0.0
  0
LINE
  5
C314
330
1F
100
AcDbEntity
  8
AM_0
100
AcDbLine
 10
51.66927893640798
 20
-90.81202311629365
 30
0.0
 11
51.66927893640798
 21
-86.85070656969482
 31
0.0
  0
LINE
  5
C315
330
1F
100
AcDbEntity
  8
AM_0
100
AcDbLine
 10
51.8621721552214
 20
-87.72068305891777
 30
0.0
 11
51.8621721552214
 21
-86.75562990201924
 31
0.0
  0
LINE
  5
C316
330
1F
100
AcDbEntity
  8
AM_0
100
AcDbLine
 10
51.8621721552214
 20
-91.06853988596119
 30
0.0
 11
51.8621721552214
 21
-90.2455728966885
 31
0.0
  0
LINE
  5
C317
330
1F
100
AcDbEntity
  8
AM_0
100
AcDbLine
 10
51.8621721552214
 20
-94.90212583827351
 30
0.0
 11
51.8621721552214
 21
-91.06853988596329
 31
0.0
  0
LINE
  5
C318
330
1F
100
AcDbEntity
  8
AM_0
100
AcDbLine
 10
70.3621721552214
 20
-94.24672481439322
 30
0.0
 11
70.3621721552214
 21
-94.43734144506894
 31
0.0
  0
LINE
  5
C319
330
1F
100
AcDbEntity
  8
AM_0
100
AcDbLine
 10
72.86264532320161
 20
-94.18846144727641
 30
0.0
 11
72.86264532320161
 21
-89.76041668307167
 31
0.0
  0
LINE
  5
C31A
330
1F
100
AcDbEntity
  8
AM_0
100
AcDbLine
 10
74.3621721552214
 20
-89.08543423612289
 30
0.0
 11
74.3621721552214
 21
-93.36199681846168
 31
0.0
  0
LINE
  5
C31B
330
1F
100
AcDbEntity
  8
AM_0
100
AcDbLine
 10
72.86264532320161
 20
-89.76041668307155
 30
0.0
 11
72.86264532320161
 21
-88.03886002277378
 31
0.0
  0
LINE
  5
C31C
330
1F
100
AcDbEntity
  8
AM_0
100
AcDbLine
 10
74.3621721552214
 20
-87.83915077262637
 30
0.0
 11
74.3621721552214
 21
-89.08543423612289
 31
0.0
  0
LINE
  5
C31D
330
1F
100
AcDbEntity
  8
AM_0
100
AcDbLine
 10
72.86264532320161
 20
-88.03886002277378
 30
0.0
 11
72.86264532320161
 21
-67.53173036683496
 31
0.0
  0
LINE
  5
C31E
330
1F
100
AcDbEntity
  8
AM_0
100
AcDbLine
 10
74.3621721552214
 20
-68.40642206393103
 30
0.0
 11
74.3621721552214
 21
-87.83915077262637
 31
0.0
  0
LINE
  5
C31F
330
1F
100
AcDbEntity
  8
AM_0
100
AcDbLine
 10
72.86264532320166
 20
-67.53173036683496
 30
0.0
 11
72.86264532320166
 21
-67.37948385946153
 31
0.0
  0
LINE
  5
C320
330
1F
100
AcDbEntity
  8
AM_0
100
AcDbLine
 10
74.3621721552214
 20
-68.29620651954009
 30
0.0
 11
74.3621721552214
 21
-68.40642206393098
 31
0.0
  0
ARC
  5
C321
330
1F
100
AcDbEntity
  8
AM_0
100
AcDbCircle
 10
50.96217215522142
 20
-66.77700235755971
 30
0.0
 40
1.0
100
AcDbArc
 50
233.1301023541544
 51
314.9999999999999
  0
LINE
  5
C3E1
330
1F
100
AcDbEntity
  8
AM_0
100
AcDbLine
 10
51.49891622005032
 20
29.48981678111338
 30
0.0
 11
51.79941336980005
 21
28.14937405381019
 31
0.0
  0
ARC
  5
C3E2
330
1F
100
AcDbEntity
  8
AM_0
100
AcDbCircle
 10
46.70661962176803
 20
26.99999999999974
 30
0.0
 40
5.221950254302755
100
AcDbArc
 50
347.2822085558777
 51
12.71779144412234
  0
LINE
  5
C3E3
330
1F
100
AcDbEntity
  8
AM_0
100
AcDbLine
 10
51.49891622005032
 20
24.51018321888634
 30
0.0
 11
51.79941336979999
 21
25.85062594618918
 31
0.0
  0
LINE
  5
C3E4
330
1F
100
AcDbEntity
  8
AM_0
100
AcDbLine
 10
51.30667598375646
 20
24.71303303323376
 30
0.0
 11
51.49958358225774
 21
25.54235103538881
 31
0.0
  0
SPLINE
  5
C3E5
330
1F
100
AcDbEntity
  8
AM_0
100
AcDbSpline
210
0.0
220
0.0
230
1.0
 70
     8
 71
     3
 72
    24
 73
    20
 74
     0
 42
0.0000000001
 43
0.0000000001
 40
-3.999896960420581
 40
-3.999896960420581
 40
-3.999896960420581
 40
-3.999896960420581
 40
-3.241209529363331
 40
-3.241209529363331
 40
-2.656961131893444
 40
-2.656961131893444
 40
-2.413811581886892
 40
-2.413811581886892
 40
-2.271213086977644
 40
-2.271213086977644
 40
-2.150707784993695
 40
-2.150707784993695
 40
-2.013423534242694
 40
-2.013423534242694
 40
-1.79902907678595
 40
-1.79902907678595
 40
-1.275628665959264
 40
-1.275628665959264
 40
-0.0006279875274451
 40
-0.0006279875274451
 40
-0.0006279875274451
 40
-0.0006279875274451
 10
49.99999999999989
 20
24.30473170763955
 30
0.0
 10
50.04410434651078
 20
24.15824091503336
 30
0.0
 10
50.09718487658751
 20
24.00577685519792
 30
0.0
 10
50.20785853481016
 20
23.76109940829102
 30
0.0
 10
50.27124922518834
 20
23.64191799179085
 30
0.0
 10
50.3792491406918
 20
23.51307890591008
 30
0.0
 10
50.41696712744459
 20
23.47561830304412
 30
0.0
 10
50.48466955740651
 20
23.43153221219049
 30
0.0
 10
50.51213359367523
 20
23.41807672380386
 30
0.0
 10
50.56677250080446
 20
23.403405594644
 30
0.0
 10
50.59231135267231
 20
23.40088895789623
 30
0.0
 10
50.6479421869459
 20
23.40558007638342
 30
0.0
 10
50.67600517093376
 20
23.41400843450728
 30
0.0
 10
50.743453539364
 20
23.44591312136689
 30
0.0
 10
50.78008801671825
 20
23.47508039986482
 30
0.0
 10
50.8875634807672
 20
23.58152870506061
 30
0.0
 10
50.95097556496501
 20
23.68689742361809
 30
0.0
 10
51.11395485128344
 20
24.00726128108838
 30
0.0
 10
51.21845981347235
 20
24.32632390518492
 30
0.0
 10
51.30710678118646
 20
24.71293282547575
 30
0.0
  0
SPLINE
  5
C3E6
330
1F
100
AcDbEntity
  8
AM_0
100
AcDbSpline
210
0.0
220
0.0
230
1.0
 70
     8
 71
     3
 72
    22
 73
    18
 74
     0
 42
0.0000000001
 43
0.0000000001
 40
-3.830082917561853
 40
-3.830082917561853
 40
-3.830082917561853
 40
-3.830082917561853
 40
-2.381890930071555
 40
-2.381890930071555
 40
-2.005485942645415
 40
-2.005485942645415
 40
-1.816686732793245
 40
-1.816686732793245
 40
-1.682523477226034
 40
-1.682523477226034
 40
-1.547081220829608
 40
-1.547081220829608
 40
-1.36278353353746
 40
-1.36278353353746
 40
-1.047600271033861
 40
-1.047600271033861
 40
0.0
 40
0.0
 40
0.0
 40
0.0
 10
51.30710678118646
 20
29.28706717452414
 30
0.0
 10
51.19973778311726
 20
29.75532698629897
 30
0.0
 10
51.06882089840576
 20
30.12511518815856
 30
0.0
 10
50.88625011883016
 20
30.40961711685097
 30
0.0
 10
50.83949067618357
 20
30.47125507381546
 30
0.0
 10
50.75811945716532
 20
30.54162519008546
 30
0.0
 10
50.72725886753347
 20
30.56299381245648
 30
0.0
 10
50.66908070244983
 20
30.58805237873085
 30
0.0
 10
50.64358769028547
 20
30.59495837155524
 30
0.0
 10
50.58992829660781
 20
30.59912963604822
 30
0.0
 10
50.56353443697935
 20
30.59616335339203
 30
0.0
 10
50.50268724535931
 20
30.57870353110124
 30
0.0
 10
50.47064635726878
 20
30.56097270844734
 30
0.0
 10
50.39336697438733
 20
30.50425306330223
 30
0.0
 10
50.35083575236098
 20
30.456074321925
 30
0.0
 10
50.19992858503383
 20
30.25204868176476
 30
0.0
 10
50.09329792915776
 20
30.00515356834947
 30
0.0
 10
49.99999999999989
 20
29.69526829236034
 30
0.0
  0
LINE
  5
C3E7
330
1F
100
AcDbEntity
  8
AM_0
100
AcDbLine
 10
51.3066759835985
 20
29.28696696673066
 30
0.0
 11
51.49958357973742
 21
28.45764896402611
 31
0.0
  0
LINE
  5
C3EC
330
1F
100
AcDbEntity
  8
AM_0
100
AcDbLine
 10
72.50047316798009
 20
40.25399401955448
 30
0.0
 11
51.49999999999989
 21
40.78159900217005
 31
0.0
  0
LINE
  5
C3ED
330
1F
100
AcDbEntity
  8
AM_0
100
AcDbLine
 10
72.50047316798009
 20
13.7460059804458
 30
0.0
 11
51.49999999999989
 21
13.21840099783023
 31
0.0
  0
LINE
  5
C3EE
330
1F
100
AcDbEntity
  8
AM_0
100
AcDbLine
 10
49.99999999999989
 20
13.44352447854394
 30
0.0
 11
51.49999999999989
 21
13.44352447854394
 31
0.0
  0
LINE
  5
C3EF
330
1F
100
AcDbEntity
  8
AM_0
100
AcDbLine
 10
49.99999999999989
 20
40.55647552145612
 30
0.0
 11
51.49999999999989
 21
40.55647552145612
 31
0.0
  0
LINE
  5
C3F0
330
1F
100
AcDbEntity
  8
AM_0
100
AcDbLine
 10
73.99999999999994
 20
14.66272864052431
 30
0.0
 11
72.50047316798015
 21
13.7460059804458
 31
0.0
  0
LINE
  5
C3F1
330
1F
100
AcDbEntity
  8
AM_0
100
AcDbLine
 10
73.99999999999994
 20
39.33727135947598
 30
0.0
 11
72.50047316798015
 21
40.25399401955448
 31
0.0
  0
LINE
  5
C3F4
330
1F
100
AcDbEntity
  8
AM_0
100
AcDbLine
 10
51.49999999999989
 20
13.21840099783017
 30
0.0
 11
51.49999999999989
 21
24.50994025976607
 31
0.0
  0
LINE
  5
C3F5
330
1F
100
AcDbEntity
  8
AM_0
100
AcDbLine
 10
51.49999999999989
 20
24.50994025976607
 30
0.0
 11
51.49999999999989
 21
25.5422541724889
 31
0.0
  0
LINE
  5
C3F7
330
1F
100
AcDbEntity
  8
AM_0
100
AcDbLine
 10
51.49999999999989
 20
29.49005974023365
 30
0.0
 11
51.49999999999989
 21
40.78159900217011
 31
0.0
  0
LINE
  5
C3F8
330
1F
100
AcDbEntity
  8
AM_0
100
AcDbLine
 10
51.49999999999989
 20
28.45774582751099
 30
0.0
 11
51.49999999999989
 21
29.49005974023365
 31
0.0
  0
LINE
  5
C3F9
330
1F
100
AcDbEntity
  8
AM_0
100
AcDbLine
 10
72.50047316798009
 20
13.7460059804458
 30
0.0
 11
72.50047316798009
 21
26.0060587987513
 31
0.0
  0
LINE
  5
C3FA
330
1F
100
AcDbEntity
  8
AM_0
100
AcDbLine
 10
73.99999999999989
 20
26.28045790686318
 30
0.0
 11
73.99999999999989
 21
14.66272864052425
 31
0.0
  0
LINE
  5
C3FB
330
1F
100
AcDbEntity
  8
AM_0
100
AcDbLine
 10
72.50047316798015
 20
26.00605879875124
 30
0.0
 11
72.50047316798015
 21
27.99394120124819
 31
0.0
  0
LINE
  5
C3FC
330
1F
100
AcDbEntity
  8
AM_0
100
AcDbLine
 10
73.99999999999989
 20
27.71954209313631
 30
0.0
 11
73.99999999999989
 21
26.28045790686318
 31
0.0
  0
LINE
  5
C3FD
330
1F
100
AcDbEntity
  8
AM_0
100
AcDbLine
 10
72.50047316798009
 20
27.99394120124819
 30
0.0
 11
72.50047316798009
 21
40.25399401955454
 31
0.0
  0
LINE
  5
C3FE
330
1F
100
AcDbEntity
  8
AM_0
100
AcDbLine
 10
73.99999999999989
 20
39.33727135947603
 30
0.0
 11
73.99999999999989
 21
27.71954209313637
 31
0.0
  0
DIMENSION
  5
CB72
330
1F
100
AcDbEntity
  8
AM_5
100
AcDbDimension
  2
*D7
 10
0.8439507004530356
 20
0.0010830313891574
 30
0.0
 11
10.43378220502041
 21
-9.944436160030698
 31
0.0
 70
    34
 71
     5
 42
1.623156204354712
  3
AM_JIS$2
100
AcDb2LineAngularDimension
 13
0.0
 23
0.8030303056014816
 33
0.0
 14
0.0
 24
-3.843116733177368
 34
0.0
 15
14.68038300500297
 25
0.7262197216705602
 35
0.0
 16
9.159435173305582
 26
-15.28700657949824
 36
0.0
1001
ACAD
1000
DSTYLE
1002
{
1070
   179
1070
     0
1002
}
  0
LINE
  5
10614
330
1F
100
AcDbEntity
  8
AM_0
100
AcDbLine
 10
7.33940119969111
 20
13.0174670245402
 30
0.0
 11
7.917133843661532
 21
13.43230308154179
 31
0.0
  0
LINE
  5
10615
330
1F
100
AcDbEntity
  8
AM_0
100
AcDbLine
 10
8.170067280949979
 20
13.4455587612965
 30
0.0
 11
7.917133843661532
 21
13.43230308154179
 31
0.0
  0
LINE
  5
10616
330
1F
100
AcDbEntity
  8
AM_0
100
AcDbLine
 10
14.68038300500291
 20
0.7262197216705033
 30
0.0
 11
0.843950700452865
 21
0.001083031389129
 31
0.0
  0
LINE
  5
10617
330
1F
100
AcDbEntity
  8
AM_0
100
AcDbLine
 10
0.1162911106249567
 20
1.219427417477817
 30
0.0
 11
7.33940119969111
 21
13.0174670245402
 31
0.0
  0
LINE
  5
10618
330
1F
100
AcDbEntity
  8
AM_0
100
AcDbLine
 10
7.339401199690997
 20
13.0174670245402
 30
0.0
 11
8.065557585537704
 21
13.05552326813458
 31
0.0
  0
LINE
  5
10619
330
1F
100
AcDbEntity
  8
AM_0
100
AcDbLine
 10
15.25811564897333
 20
1.141055778672154
 30
0.0
 11
15.75032434813511
 21
1.945016628783122
 31
0.0
  0
LINE
  5
1061A
330
1F
100
AcDbEntity
  8
AM_0
100
AcDbLine
 10
20.50923016014144
 20
9.718089247643178
 30
0.0
 11
22.48122573803937
 21
12.93909538573459
 31
0.0
  0
LINE
  5
1061B
330
1F
100
AcDbEntity
  8
AM_0
100
AcDbLine
 10
14.68038300500291
 20
0.7262197216705033
 30
0.0
 11
15.25811564897333
 21
1.141055778672154
 31
0.0
  0
LINE
  5
1061C
330
1F
100
AcDbEntity
  8
AM_0
100
AcDbLine
 10
21.65893329165385
 20
12.1248017267292
 30
0.0
 11
19.93149751617091
 21
9.303253190641527
 31
0.0
  0
LINE
  5
1061D
330
1F
100
AcDbEntity
  8
AM_0
100
AcDbLine
 10
15.4158343412729
 20
1.927486750331099
 30
0.0
 11
14.68038300500291
 21
0.7262197216705033
 31
0.0
  0
LINE
  5
1061E
330
1F
100
AcDbEntity
  8
AM_0
100
AcDbLine
 10
22.13550708185142
 20
12.69085501769982
 30
0.0
 11
22.48122573803937
 21
12.93909538573459
 31
0.0
  0
ELLIPSE
  5
1061F
330
1F
100
AcDbEntity
  8
AM_0
100
AcDbEllipse
 10
0.7940856334673754
 20
0.7969561301562749
 30
0.0
 11
-0.4666052425765521
 21
0.6498303991043182
 31
5.916456789157592E-32
210
4.313515242654008E-32
220
-6.007333557158948E-32
230
1.0
 40
0.9887737565677319
 41
0.3946776295629982
 42
2.576339194555894
  0
ELLIPSE
  5
10620
330
1F
100
AcDbEntity
  8
AM_0
100
AcDbEllipse
 10
21.80343121519684
 20
13.3615666730561
 30
0.0
 11
0.4666052425765521
 21
-0.6498303991043182
 31
-5.916456789157592E-32
210
4.313515242654008E-32
220
-6.007333557158948E-32
230
1.0
 40
0.9887737565677319
 41
0.3946776295630495
 42
1.049089158319599
  0
ELLIPSE
  5
10621
330
1F
100
AcDbEntity
  8
AM_0
100
AcDbEllipse
 10
11.58762474631726
 20
7.286679430107
 30
0.0
 11
1.504801907309381
 21
-2.095703037111426
 31
-1.908057314503323E-31
210
4.313515242654009E-32
220
-6.007333557158948E-32
230
1.0
 40
0.9887737565677317
 41
3.506419911975793
 42
6.143327414943811
  0
ELLIPSE
  5
10622
330
1F
100
AcDbEntity
  8
AM_0
100
AcDbEllipse
 10
11.00989210234684
 20
6.871843373105406
 30
0.0
 11
-1.504801907309381
 21
2.095703037111426
 31
1.908057314503323E-31
210
4.313515242654009E-32
220
-6.007333557158948E-32
230
1.0
 40
0.9887737565677317
 41
0.0180641868864309
 42
3.92216513920372
  0
LINE
  5
10623
330
1F
100
AcDbEntity
  8
AM_0
100
AcDbLine
 10
21.144172374204
 20
10.17400415439923
 30
0.0
 11
23.13229592441473
 21
13.42135330177334
 31
0.0
  0
LINE
  5
10624
330
1F
100
AcDbEntity
  8
AM_0
100
AcDbLine
 10
15.99597413356435
 20
1.957890588518779
 30
0.0
 11
15.57168671954503
 21
1.65323458594716
 31
0.0
  0
LINE
  5
10625
330
1F
100
AcDbEntity
  8
AM_0
100
AcDbLine
 10
22.49619016964255
 20
12.96460292441506
 30
0.0
 11
23.13229592441473
 21
13.42135330177334
 31
0.0
  0
LINE
  5
10626
330
1F
100
AcDbEntity
  8
AM_0
100
AcDbLine
 10
15.4889665695456
 20
1.51812165066562
 30
0.0
 11
15.9954396533409
 21
1.881790380919739
 31
0.0
  0
ELLIPSE
  5
10627
330
1F
100
AcDbEntity
  8
AM_0
100
AcDbEllipse
 10
15.52883441076438
 20
2.531620780024042
 30
0.0
 11
0.466605242576552
 21
-0.6498303991043182
 31
-5.916456789157588E-32
210
4.313515242654006E-32
220
-6.007333557158946E-32
230
1.0
 40
0.9887737565677316
 41
0.0000000000000022
 42
0.1587160619028884
  0
ELLIPSE
  5
10628
330
1F
100
AcDbEntity
  8
AM_0
100
AcDbEllipse
 10
22.45450140157232
 20
13.84382458909491
 30
0.0
 11
0.4666052425765521
 21
-0.6498303991043182
 31
-5.916456789157592E-32
210
4.313515242654008E-32
220
-6.007333557158948E-32
230
1.0
 40
0.9887737565677319
 41
0.3946776295629886
 42
0.6549149566758954
  0
ELLIPSE
  5
10629
330
1F
100
AcDbEntity
  8
AM_0
100
AcDbEllipse
 10
12.35833951295865
 20
7.840084674216286
 30
0.0
 11
1.16651310644138
 21
-1.624575997760795
 31
-9.860761315262648E-32
210
2.875676828436004E-32
220
-4.004889038105966E-32
230
1.0
 40
0.9887737565677323
 41
5.821115647229123
 42
6.040924472538141
  0
ELLIPSE
  5
1062A
330
1F
100
AcDbEntity
  8
AM_0
100
AcDbEllipse
 10
11.58762474631737
 20
7.286679430107029
 30
0.0
 11
-1.16651310644138
 21
1.624575997760795
 31
9.860761315262648E-32
210
2.875676828436004E-32
220
-4.004889038105966E-32
230
1.0
 40
0.9887737565677323
 41
2.304440578399795
 42
3.56690078160622
  0
LINE
  5
1062B
330
1F
100
AcDbEntity
  8
AM_0
100
AcDbLine
 10
27.62513135834718
 20
21.63065149564906
 30
0.0
 11
28.59609561289312
 21
23.03789523063122
 31
0.0
  0
LINE
  5
1062C
330
1F
100
AcDbEntity
  8
AM_0
100
AcDbLine
 10
22.15468620103445
 20
12.72173239647523
 30
0.0
 11
27.59632944143516
 21
21.6099705218966
 31
0.0
  0
LINE
  5
1062D
330
1F
100
AcDbEntity
  8
AM_0
100
AcDbLine
 10
15.56551001055732
 20
8.101944101614464
 30
0.0
 11
21.42990599873122
 21
11.94918421475282
 31
0.0
  0
LINE
  5
1062E
330
1F
100
AcDbEntity
  8
AM_0
100
AcDbLine
 10
15.43994345928411
 20
7.678087003812181
 30
0.0
 11
15.56551001055732
 21
8.101944101614464
 31
0.0
  0
LINE
  5
1062F
330
1F
100
AcDbEntity
  8
AM_0
100
AcDbLine
 10
12.38832000024979
 20
5.676119843772796
 30
0.0
 11
15.43994345928422
 21
7.678087003812237
 31
0.0
  0
LINE
  5
10630
330
1F
100
AcDbEntity
  8
AM_0
100
AcDbLine
 10
15.84392340172042
 20
23.77867905216775
 30
0.0
 11
15.32676986720946
 21
22.93397395867513
 31
0.0
  0
LINE
  5
10631
330
1F
100
AcDbEntity
  8
AM_0
100
AcDbLine
 10
15.44339446787535
 20
23.49108262609516
 30
0.0
 11
15.84392340172042
 21
23.77867905216775
 31
0.0
  0
ELLIPSE
  5
10632
330
1F
100
AcDbEntity
  8
AM_0
100
AcDbEllipse
 10
27.32523088256346
 20
23.83002889435917
 30
0.0
 11
1.170372387743386
 21
1.254441134456845
 31
-5.454335467082430E-17
210
2.168789988040966E-17
220
2.324575837133706E-17
230
1.0
 40
0.8689118165993655
 41
4.880917107556186
 42
5.299719530624798
  0
LINE
  5
10633
330
1F
100
AcDbEntity
  8
AM_0
100
AcDbLine
 10
27.78947220306316
 20
22.45870608784819
 30
0.0
 11
28.59609561289312
 21
23.03789523063122
 31
0.0
  0
LINE
  5
10634
330
1F
100
AcDbEntity
  8
AM_0
100
AcDbLine
 10
24.96328651310978
 20
17.84248810198952
 30
0.0
 11
27.78947220306316
 21
22.45870608784819
 31
0.0
  0
ELLIPSE
  5
10635
330
1F
100
AcDbEntity
  8
AM_0
100
AcDbEllipse
 10
18.85279934703181
 20
29.11091998587844
 30
0.0
 11
1.170372387743394
 21
1.254441134456838
 31
-5.454335467080098E-17
210
2.168789988040051E-17
220
2.324575837132699E-17
230
1.0
 40
0.8689118165993641
 41
1.320522030897778
 42
1.344646824403328
  0
LINE
  5
10636
330
1F
100
AcDbEntity
  8
AM_0
100
AcDbLine
 10
28.18035632512681
 20
25.15409554646035
 30
0.0
 11
27.29433777449981
 21
24.51789739181501
 31
0.0
  0
LINE
  5
10637
330
1F
100
AcDbEntity
  8
AM_0
100
AcDbLine
 10
27.29433777449981
 20
24.51789739181501
 30
0.0
 11
18.82190623896815
 21
29.79878848333428
 31
0.0
  0
LINE
  5
10638
330
1F
100
AcDbEntity
  8
AM_0
100
AcDbLine
 10
18.82190623896815
 20
29.79878848333428
 30
0.0
 11
19.70792478959515
 21
30.43498663797962
 31
0.0
  0
LINE
  5
10639
330
1F
100
AcDbEntity
  8
AM_0
100
AcDbLine
 10
23.94414055736093
 20
27.79454109221999
 30
0.0
 11
19.70792478959515
 21
30.43498663797962
 31
0.0
  0
LINE
  5
1063A
330
1F
100
AcDbEntity
  8
AM_0
100
AcDbLine
 10
28.18035632512681
 20
25.1540955464603
 30
0.0
 11
23.94414055736104
 21
27.79454109221999
 31
0.0
  0
LINE
  5
1063B
330
1F
100
AcDbEntity
  8
AM_0
100
AcDbLine
 10
27.59632944143516
 20
21.6099705218966
 30
0.0
 11
27.62513135834718
 21
21.63065149564912
 31
0.0
  0
LINE
  5
1063C
330
1F
100
AcDbEntity
  8
AM_0
100
AcDbLine
 10
9.725246054687318
 20
11.24007443187244
 30
0.0
 11
9.316867729934984
 21
7.590564931267295
 31
0.0
  0
LINE
  5
1063D
330
1F
100
AcDbEntity
  8
AM_0
100
AcDbLine
 10
9.995460633729522
 20
11.57377199541961
 30
0.0
 11
9.725246054687204
 21
11.24007443187244
 31
0.0
  0
LINE
  5
1063E
330
1F
100
AcDbEntity
  8
AM_0
100
AcDbLine
 10
10.78025346334425
 20
18.58714345538411
 30
0.0
 11
9.995460633729522
 21
11.57377199541961
 31
0.0
  0
LINE
  5
1063F
330
1F
100
AcDbEntity
  8
AM_0
100
AcDbLine
 10
24.53106884331442
 20
17.60335197292486
 30
0.0
 11
21.42990599873122
 21
11.94918421475282
 31
0.0
  0
LINE
  5
10640
330
1F
100
AcDbEntity
  8
AM_0
100
AcDbLine
 10
22.15468620103445
 20
12.72173239647523
 30
0.0
 11
24.96328651310978
 21
17.84248810198957
 31
0.0
  0
ELLIPSE
  5
10641
330
1F
100
AcDbEntity
  8
AM_0
100
AcDbEllipse
 10
21.30744304748123
 20
13.24982150562718
 30
0.0
 11
-0.8692631194647387
 21
-1.43396345104379
 31
-1.347071602466517E-17
210
-4.164345616209149E-18
220
-6.869633920320240E-18
230
1.0
 40
0.5953369457109932
 41
0.8951201035857855
 42
1.563405000957777
  0
ELLIPSE
  5
10642
330
1F
100
AcDbEntity
  8
AM_0
100
AcDbEllipse
 10
23.55292759967551
 20
16.9616585681085
 30
0.0
 11
1.008058092748528
 21
0.8097783035399561
 31
-1.866077564810957E-17
210
1.125121009985509E-17
220
9.038155531880767E-18
230
1.0
 40
0.1997801794032342
 41
5.833426358531821
 42
7.40422268532672
  0
ELLIPSE
  5
10643
330
1F
100
AcDbEntity
  8
AM_0
100
AcDbEllipse
 10
23.13790211591777
 20
17.72888380632512
 30
0.0
 11
-1.832990579751833
 21
-0.1638427747128624
 31
1.859104117839835E-18
210
1.006207051464712E-18
220
8.994031778927447E-20
230
1.0
 40
0.2347864643174249
 41
3.02709967923672
 42
4.597896006031617
  0
LINE
  5
10644
330
1F
100
AcDbEntity
  8
AM_0
100
AcDbLine
 10
17.54901187701171
 20
13.36437007400062
 30
0.0
 11
23.84549013218339
 21
17.49507062076626
 31
0.0
  0
LINE
  5
10645
330
1F
100
AcDbEntity
  8
AM_0
100
AcDbLine
 10
11.9240066739452
 20
5.447447436903417
 30
0.0
 11
13.66368806164212
 21
9.37742177763343
 31
0.0
  0
ELLIPSE
  5
10646
330
1F
100
AcDbEntity
  8
AM_0
100
AcDbEllipse
 10
23.49887950208404
 20
11.12102019292129
 30
0.0
 11
9.998156618476765
 21
3.830083388575963
 31
-3.342500838414419E-16
210
2.915298540889340E-17
220
1.116789518336345E-17
230
1.0
 40
0.4402278859645939
 41
2.030840452501399
 42
2.728972153299135
  0
ARC
  5
10647
330
1F
100
AcDbEntity
  8
AM_0
100
AcDbCircle
 10
11.30845561345166
 20
7.126735261598554
 30
0.0
 40
1.788549889224239
100
AcDbArc
 50
259.386733258937
 51
290.1306547694309
  0
ELLIPSE
  5
10648
330
1F
100
AcDbEntity
  8
AM_0
100
AcDbEllipse
 10
10.86926457930179
 20
7.045420031363562
 30
0.0
 11
2.232247569974647
 21
-0.3148353939736112
 31
-7.150816983817894E-18
210
3.140935674114593E-18
220
-4.429964371814139E-19
230
1.0
 40
0.7697652579721652
 41
5.309531340505468
 42
5.563572505451208
  0
ELLIPSE
  5
10649
330
1F
100
AcDbEntity
  8
AM_0
100
AcDbEllipse
 10
10.86926457930179
 20
7.045420031363534
 30
0.0
 11
0.4496685962919775
 21
-2.023916013146043
 31
-1.404168379465789E-17
210
1.468929975374347E-18
220
-6.611515511347721E-18
230
1.0
 40
0.7422399325770361
 41
4.279956590899342
 42
4.533997755845
  0
LINE
  5
1064A
330
1F
100
AcDbEntity
  8
AM_0
100
AcDbLine
 10
12.82326603781314
 20
9.534919943655126
 30
0.0
 11
10.9790423858866
 21
5.368782579712871
 31
0.0
  0
ELLIPSE
  5
1064B
330
1F
100
AcDbEntity
  8
AM_0
100
AcDbEllipse
 10
11.08602384151743
 20
7.201062193174153
 30
0.0
 11
-1.465151232526808
 21
1.375238552488178
 31
7.221629790422047E-18
210
2.620335035659492E-18
220
-2.459531604297024E-18
230
1.0
 40
0.8648292865563643
 41
1.397848428635146
 42
2.195944284481117
  0
ELLIPSE
  5
1064C
330
1F
100
AcDbEntity
  8
AM_0
100
AcDbEllipse
 10
23.08385401832618
 20
11.8882454311379
 30
0.0
 11
-10.42629254280469
 21
-4.849917696357945
 31
1.631556378933963E-16
210
1.286483930298290E-17
220
5.984237593582241E-18
230
1.0
 40
0.4283938088154529
 41
5.12350503380873
 42
5.821636734606467
  0
LINE
  5
1064D
330
1F
100
AcDbEntity
  8
AM_0
100
AcDbLine
 10
12.10291043753455
 20
9.983919673695283
 30
0.0
 11
12.82326603781314
 21
9.534919943655126
 31
0.0
  0
LINE
  5
1064E
330
1F
100
AcDbEntity
  8
AM_0
100
AcDbLine
 10
17.8641173309087
 20
28.40100519488058
 30
0.0
 11
26.33654886644024
 21
23.12011410336126
 31
0.0
  0
LINE
  5
1064F
330
1F
100
AcDbEntity
  8
AM_0
100
AcDbLine
 10
26.33654886644024
 20
23.12011410336132
 30
0.0
 11
23.3090922442301
 21
18.17514542683969
 31
0.0
  0
LINE
  5
10650
330
1F
100
AcDbEntity
  8
AM_0
100
AcDbLine
 10
23.3090922442301
 20
18.17514542683969
 30
0.0
 11
22.28034792857795
 21
17.50025471254938
 31
0.0
  0
LINE
  5
10651
330
1F
100
AcDbEntity
  8
AM_0
100
AcDbLine
 10
23.06858284985378
 20
18.73828064372779
 30
0.0
 11
22.55142931534283
 21
17.89357555023517
 31
0.0
  0
LINE
  5
10652
330
1F
100
AcDbEntity
  8
AM_0
100
AcDbLine
 10
14.92624093336451
 20
22.64637753260254
 30
0.0
 11
15.44339446787535
 21
23.49108262609516
 31
0.0
  0
LINE
  5
10653
330
1F
100
AcDbEntity
  8
AM_0
100
AcDbLine
 10
19.87581509876725
 20
15.92280067041762
 30
0.0
 11
17.01261398905842
 21
14.044444880074
 31
0.0
  0
LINE
  5
10654
330
1F
100
AcDbEntity
  8
AM_0
100
AcDbLine
 10
17.01261398905842
 20
14.044444880074
 30
0.0
 11
13.99404520380267
 21
15.92592753831016
 31
0.0
  0
LINE
  5
10655
330
1F
100
AcDbEntity
  8
AM_0
100
AcDbLine
 10
14.92624093336451
 20
22.6463775326026
 30
0.0
 11
15.32676986720958
 21
22.93397395867513
 31
0.0
  0
ARC
  5
10656
330
1F
100
AcDbEntity
  8
AM_0
100
AcDbCircle
 10
18.79378607030981
 20
20.19350766671667
 30
0.0
 40
4.405646952112948
100
AcDbArc
 50
284.2173232961917
 51
322.3151084672726
  0
LINE
  5
10657
330
1F
100
AcDbEntity
  8
AM_0
100
AcDbLine
 10
14.83666070869845
 20
23.45603651835873
 30
0.0
 11
17.8641173309087
 21
28.40100519488058
 31
0.0
  0
LINE
  5
10658
330
1F
100
AcDbEntity
  8
AM_0
100
AcDbLine
 10
10.78025346334425
 20
18.58714345538411
 30
0.0
 11
13.88141630792745
 21
24.24131121355615
 31
0.0
  0
ELLIPSE
  5
10659
330
1F
100
AcDbEntity
  8
AM_0
100
AcDbEllipse
 10
11.98776835839635
 20
19.05880170629817
 30
0.0
 11
-0.869263119464737
 21
-1.433963451043786
 31
-1.347071602465195E-17
210
-4.164345616205084E-18
220
-6.869633920313508E-18
230
1.0
 40
0.5953369457109948
 41
4.785025475737579
 42
5.373282551919555
  0
ELLIPSE
  5
1065A
330
1F
100
AcDbEntity
  8
AM_0
100
AcDbEllipse
 10
14.665470580386
 20
23.00977489784421
 30
0.0
 11
-0.6709164416169356
 21
1.751677222347737
 31
-5.215266891000622E-17
210
-9.944596710371397E-18
220
2.596407311320264E-17
230
1.0
 40
0.1734647802734998
 41
4.903069640423229
 42
6.415825183147006
  0
ELLIPSE
  5
1065B
330
1F
100
AcDbEntity
  8
AM_0
100
AcDbEllipse
 10
13.75051821784177
 20
23.07152869958784
 30
0.0
 11
0.2468423963165138
 21
1.285059296000001
 31
5.577665648615631E-18
210
-8.040632304382955E-19
220
-4.185945948772968E-18
230
1.0
 40
0.1590904360100293
 41
5.170764682645138
 42
6.741561009440033
  0
LINE
  5
1065C
330
1F
100
AcDbEntity
  8
AM_0
100
AcDbLine
 10
11.61335461506144
 20
10.65540054763389
 30
0.0
 11
9.311080901834998
 21
7.076091631296862
 31
0.0
  0
LINE
  5
1065D
330
1F
100
AcDbEntity
  8
AM_0
100
AcDbLine
 10
9.662286731855716
 20
6.1895201889715
 30
0.0
 11
12.10291043753455
 21
9.983919673695283
 31
0.0
  0
ARC
  5
1065E
330
1F
100
AcDbEntity
  8
AM_0
100
AcDbCircle
 10
10.97957573703934
 20
7.224199136818612
 30
0.0
 40
1.675055476184479
100
AcDbArc
 50
185.0726864625977
 51
218.1482474887944
  0
LINE
  5
1065F
330
1F
100
AcDbEntity
  8
AM_0
100
AcDbLine
 10
13.99404520380256
 20
15.92592753831016
 30
0.0
 11
14.3772082277826
 21
19.35009824360864
 31
0.0
  0
LINE
  5
10660
330
1F
100
AcDbEntity
  8
AM_0
100
AcDbLine
 10
14.04308075034965
 20
23.6049407522456
 30
0.0
 11
13.20046524545376
 21
16.07483177219703
 31
0.0
  0
LINE
  5
10661
330
1F
100
AcDbEntity
  8
AM_0
100
AcDbLine
 10
14.69899074847422
 20
22.22573657995972
 30
0.0
 11
14.83666070869845
 21
23.45603651835873
 31
0.0
  0
ARC
  5
10662
330
1F
100
AcDbEntity
  8
AM_0
100
AcDbCircle
 10
18.81525003285651
 20
20.30930636175683
 30
0.0
 40
4.540517071601507
100
AcDbArc
 50
155.0344582719517
 51
192.1959238756879
  0
ELLIPSE
  5
10663
330
1F
100
AcDbEntity
  8
AM_0
100
AcDbEllipse
 10
10.35025325844424
 20
19.82513563011017
 30
0.0
 11
0.3033952628066447
 21
11.35336572879315
 31
3.523681619975690E-16
210
-8.287931914680694E-19
220
-3.101430170406930E-17
230
1.0
 40
0.3500668298884193
 41
3.673049807537087
 42
4.371181508334824
  0
ELLIPSE
  5
10664
330
1F
100
AcDbEntity
  8
AM_0
100
AcDbEllipse
 10
9.435300895900014
 20
19.88688943185386
 30
0.0
 11
0.3924165541295813
 21
-10.5316578223967
 31
-2.103359315147348E-16
210
7.431299603887268E-19
220
-1.994408843873819E-17
230
1.0
 40
0.3705507021515002
 41
0.4885240239350336
 42
1.18665572473277
  0
LINE
  5
10665
330
1F
100
AcDbEntity
  8
AM_0
100
AcDbLine
 10
17.17129110737085
 20
29.75016284141597
 30
0.0
 11
18.05298404582209
 21
30.38325502668627
 31
0.0
  0
LINE
  5
10666
330
1F
100
AcDbEntity
  8
AM_0
100
AcDbLine
 10
13.96026219730936
 20
24.73067432029038
 30
0.0
 11
16.76689031529247
 21
29.31494747824544
 31
0.0
  0
LINE
  5
10667
330
1F
100
AcDbEntity
  8
AM_0
100
AcDbLine
 10
13.91958831158286
 20
24.66044846212074
 30
0.0
 11
11.07324329173082
 21
19.47087505162037
 31
0.0
  0
LINE
  5
10668
330
1F
100
AcDbEntity
  8
AM_0
100
AcDbLine
 10
13.91931171296517
 20
24.66060863704169
 30
0.0
 11
13.95998040235827
 21
24.73083750434526
 31
0.0
  0
ELLIPSE
  5
10669
330
1F
100
AcDbEntity
  8
AM_0
100
AcDbEllipse
 10
19.65651759270963
 20
21.402278060984
 30
0.0
 11
2.624654489493103
 21
-3.655295994961789
 31
-2.107737731137391E-30
210
2.731892987014203E-31
220
-3.804644586200669E-31
230
1.0
 40
0.988773756567732
 41
3.197030569759269
 42
3.536270283152827
  0
ELLIPSE
  5
1066A
330
1F
100
AcDbEntity
  8
AM_0
100
AcDbEllipse
 10
27.40462602336038
 20
23.88703790622142
 30
0.0
 11
0.8748848298310349
 21
-1.218431998320596
 31
5.176899690512892E-31
210
-2.012973779905203E-31
220
2.803422326674178E-31
230
0.9999999999999999
 40
0.988773756567732
 41
0.8134800526316552
 42
1.965473956357933
  0
ELLIPSE
  5
1066B
330
1F
100
AcDbEntity
  8
AM_0
100
AcDbEllipse
 10
18.93219448782884
 20
29.16792899774069
 30
0.0
 11
0.8748848298310349
 21
-1.218431998320596
 31
5.176899690512892E-31
210
-2.012973779905203E-31
220
2.803422326674178E-31
230
0.9999999999999999
 40
0.988773756567732
 41
1.965473956357933
 42
3.117467860084206
  0
ELLIPSE
  5
1066C
330
1F
100
AcDbEntity
  8
AM_0
100
AcDbEllipse
 10
18.04617593720184
 20
28.53173084309535
 30
0.0
 11
0.8748848298310349
 21
-1.218431998320596
 31
5.176899690512892E-31
210
-2.012973779905203E-31
220
2.803422326674178E-31
230
0.9999999999999999
 40
0.988773756567732
 41
1.965473956357933
 42
3.141592653589746
  0
ELLIPSE
  5
1066D
330
1F
100
AcDbEntity
  8
AM_0
100
AcDbEllipse
 10
18.04617593720184
 20
28.53173084309535
 30
0.0
 11
-0.7934442988617453
 21
-1.272967456223368
 31
4.807121141190539E-31
210
1.695192383740178E-31
220
2.719692787048398E-31
230
1.0
 40
0.0574537340163577
 41
3.280197292837116
 42
4.850993619632009
  0
ELLIPSE
  5
1066E
330
1F
100
AcDbEntity
  8
AM_0
100
AcDbEllipse
 10
26.51860747273338
 20
23.25083975157608
 30
0.0
 11
-1.279285621909423
 21
0.783216635150087
 31
6.286235338479942E-31
210
3.574173548647241E-31
220
-2.188215150918143E-31
230
1.0
 40
0.1379330517697387
 41
1.512755542724023
 42
3.083551869518911
  0
ELLIPSE
  5
1066F
330
1F
100
AcDbEntity
  8
AM_0
100
AcDbEllipse
 10
26.51860747273338
 20
23.25083975157608
 30
0.0
 11
0.7934442988617453
 21
1.272967456223368
 31
-3.697785493223493E-31
210
1.303994141338599E-31
220
2.092071374652616E-31
230
1.0
 40
0.0574537340163577
 41
0.1386046392473207
 42
1.709400966042216
  0
ELLIPSE
  5
10670
330
1F
100
AcDbEntity
  8
AM_0
100
AcDbEllipse
 10
26.51860747273338
 20
23.25083975157608
 30
0.0
 11
0.8748848298310349
 21
-1.218431998320596
 31
5.176899690512892E-31
210
-2.012973779905203E-31
220
2.803422326674178E-31
230
0.9999999999999999
 40
0.988773756567732
 41
0.3946776295630402
 42
1.965473956357933
  0
ELLIPSE
  5
10671
330
1F
100
AcDbEntity
  8
AM_0
100
AcDbEllipse
 10
23.44914998113075
 20
26.75273461415637
 30
0.0
 11
0.8457220021700006
 21
-1.177817598376577
 31
-7.149051953565422E-32
210
2.875676828436002E-32
220
-4.004889038105967E-32
230
1.0
 40
0.988773756567732
 41
1.318591823406827
 42
1.784424562645337
  0
ELLIPSE
  5
10672
330
1F
100
AcDbEntity
  8
AM_0
100
AcDbEllipse
 10
23.44914998113075
 20
26.75273461415637
 30
0.0
 11
0.8457220021700006
 21
-1.177817598376577
 31
-7.149051953565422E-32
210
2.875676828436002E-32
220
-4.004889038105967E-32
230
1.0
 40
0.988773756567732
 41
2.146523350070523
 42
2.612356089309014
  0
ELLIPSE
  5
10673
330
1F
100
AcDbEntity
  8
AM_0
100
AcDbEllipse
 10
24.11604335955667
 20
18.37057721114147
 30
0.0
 11
-0.8767803588889177
 21
0.4808910503083058
 31
4.190823558986636E-31
210
3.674431784088415E-31
220
-2.015329542937865E-31
230
0.9999999999999999
 40
0.6953317699666723
 41
2.393279935027786
 42
3.06156483239979
  0
ELLIPSE
  5
10674
330
1F
100
AcDbEntity
  8
AM_0
100
AcDbEllipse
 10
23.43046464842564
 20
18.26229585898287
 30
0.0
 11
0.5485298937062778
 21
-0.8361309441173536
 31
2.711709361697224E-31
210
-1.487453647934101E-31
220
2.267344108767772E-31
230
1.0
 40
0.1492907961091491
 41
4.718681803052931
 42
5.765879354249528
  0
ELLIPSE
  5
10675
330
1F
100
AcDbEntity
  8
AM_0
100
AcDbEllipse
 10
17.13398639325385
 20
14.13159531221723
 30
0.0
 11
0.5485298937062795
 21
-0.8361309441173542
 31
9.860761315262650E-32
210
-5.408922356124012E-32
220
8.244887668246439E-32
230
1.0
 40
0.1492907961091509
 41
4.718681803052939
 42
5.765879354249518
  0
ELLIPSE
  5
10676
330
1F
100
AcDbEntity
  8
AM_0
100
AcDbEllipse
 10
13.24866257788438
 20
10.14464701585004
 30
0.0
 11
-0.9144127672193186
 21
0.4047830173640172
 31
-2.711709361697241E-31
210
-2.479621661324082E-31
220
1.097653897642052E-31
230
1.0
 40
0.7372252099281752
 41
1.428132012053715
 42
2.332374285161306
  0
ELLIPSE
  5
10677
330
1F
100
AcDbEntity
  8
AM_0
100
AcDbEllipse
 10
19.25598865886457
 20
21.11468163491148
 30
0.0
 11
-2.624654489493103
 21
3.655295994961789
 31
2.107737731137391E-30
210
2.731892987014203E-31
220
-3.804644586200669E-31
230
1.0
 40
0.988773756567732
 41
3.536270283152818
 42
6.67786293674262
  0
ELLIPSE
  5
10678
330
1F
100
AcDbEntity
  8
AM_0
100
AcDbEllipse
 10
18.73883512435361
 20
20.26997654141886
 30
0.0
 11
-2.624654489493103
 21
3.655295994961789
 31
2.107737731137391E-30
210
2.731892987014203E-31
220
-3.804644586200669E-31
230
1.0
 40
0.988773756567732
 41
0.3946776295630335
 42
0.5019504385853593
  0
ELLIPSE
  5
10679
330
1F
100
AcDbEntity
  8
AM_0
100
AcDbEllipse
 10
19.13936405819879
 20
20.55757296749138
 30
0.0
 11
2.624654489493103
 21
-3.655295994961789
 31
-2.107737731137391E-30
210
2.731892987014203E-31
220
-3.804644586200669E-31
230
1.0
 40
0.988773756567732
 41
3.536270283152827
 42
6.228161012145215
  0
ELLIPSE
  5
1067A
330
1F
100
AcDbEntity
  8
AM_0
100
AcDbEllipse
 10
18.73883512435361
 20
20.26997654141886
 30
0.0
 11
-2.624654489493103
 21
3.655295994961789
 31
2.107737731137391E-30
210
2.731892987014203E-31
220
-3.804644586200669E-31
230
1.0
 40
0.988773756567732
 41
3.428997474130644
 42
3.536270283152827
  0
ELLIPSE
  5
1067B
330
1F
100
AcDbEntity
  8
AM_0
100
AcDbEllipse
 10
18.73883512435361
 20
20.26997654141886
 30
0.0
 11
-2.624654489493103
 21
3.655295994961789
 31
2.107737731137391E-30
210
2.731892987014203E-31
220
-3.804644586200669E-31
230
1.0
 40
0.988773756567732
 41
1.160069446537876
 42
2.770878466177848
  0
ELLIPSE
  5
1067C
330
1F
100
AcDbEntity
  8
AM_0
100
AcDbEllipse
 10
18.04617593720184
 20
28.53173084309535
 30
0.0
 11
-1.279285621909423
 21
0.783216635150087
 31
6.286235338479942E-31
210
3.574173548647241E-31
220
-2.188215150918143E-31
230
1.0
 40
0.1379330517697387
 41
0.0000000000002363
 42
1.512755542724034
  0
ELLIPSE
  5
1067D
330
1F
100
AcDbEntity
  8
AM_0
100
AcDbEllipse
 10
14.79636867047179
 20
24.17955741181245
 30
0.0
 11
-0.876780358888917
 21
0.4808910503083021
 31
2.465190328815662E-31
210
2.161430461228484E-31
220
-1.185487966434032E-31
230
1.0
 40
0.6953317699666736
 41
-0.0000000000000116
 42
0.5882570761819792
  0
ELLIPSE
  5
1067E
330
1F
100
AcDbEntity
  8
AM_0
100
AcDbEllipse
 10
14.95803311289387
 20
23.54318695050191
 30
0.0
 11
0.9937974384635148
 21
-0.1112054463745225
 31
-5.238529448733282E-32
210
5.206037147466822E-32
220
-5.825530056924646E-33
230
1.0
 40
0.1007288017081376
 41
3.55403468338463
 42
4.601232234581218
  0
ELLIPSE
  5
1067F
330
1F
100
AcDbEntity
  8
AM_0
100
AcDbEllipse
 10
12.52830697760567
 20
10.5936467458902
 30
0.0
 11
-0.8410406320837038
 21
0.5409719541568117
 31
1.725633230170959E-31
210
1.451327662647633E-31
220
-9.335191806835192E-32
230
1.0
 40
0.7432227957574144
 41
0.638619891710172
 42
1.542862164817755
  0
ELLIPSE
  5
10680
330
1F
100
AcDbEntity
  8
AM_0
100
AcDbEllipse
 10
14.1154176079981
 20
16.01307797045334
 30
0.0
 11
0.9937974384635145
 21
-0.1112054463745243
 31
3.882674767884668E-31
210
-3.858592238710703E-31
220
4.317745806897177E-32
230
1.0
 40
0.1007288017081397
 41
3.554034683384648
 42
4.601232234581236
  0
ARC
  5
10681
330
1F
100
AcDbEntity
  8
AM_0
100
AcDbCircle
 10
18.04617593720184
 20
28.53173084309535
 30
0.0
 40
1.5
100
AcDbArc
 50
125.6799187447684
 51
148.5237945861283
  0
LINE
  5
10682
330
1F
100
AcDbEntity
  8
AM_0
100
AcDbLine
 10
21.08272257630767
 20
20.46337656144559
 30
0.0
 11
19.8884076468587
 21
18.51261370899036
 31
0.0
  0
LINE
  5
10683
330
1F
100
AcDbEntity
  8
AM_0
100
AcDbLine
 10
19.8884076468587
 20
18.5126137089903
 30
0.0
 11
17.59676387502793
 21
18.59341050106659
 31
0.0
  0
LINE
  5
10684
330
1F
100
AcDbEntity
  8
AM_0
100
AcDbLine
 10
17.96088108761433
 20
18.85486179749617
 30
0.0
 11
20.05278731960982
 21
18.78110717867313
 31
0.0
  0
LINE
  5
10685
330
1F
100
AcDbEntity
  8
AM_0
100
AcDbLine
 10
17.59676387502793
 20
18.59341050106659
 30
0.0
 11
17.96088108761444
 21
18.85486179749617
 31
0.0
  0
LINE
  5
10686
330
1F
100
AcDbEntity
  8
AM_0
100
AcDbLine
 10
17.59676387502793
 20
18.59341050106653
 30
0.0
 11
16.49943503264615
 21
20.62497014559804
 31
0.0
  0
LINE
  5
10687
330
1F
100
AcDbEntity
  8
AM_0
100
AcDbLine
 10
16.86355224523243
 20
20.88642144202768
 30
0.0
 11
17.96088108761433
 21
18.85486179749617
 31
0.0
  0
LINE
  5
10688
330
1F
100
AcDbEntity
  8
AM_0
100
AcDbLine
 10
16.49943503264615
 20
20.62497014559804
 30
0.0
 11
16.86355224523254
 21
20.88642144202763
 31
0.0
  0
LINE
  5
10689
330
1F
100
AcDbEntity
  8
AM_0
100
AcDbLine
 10
16.49943503264603
 20
20.62497014559804
 30
0.0
 11
17.69374996209501
 21
22.57573299805327
 31
0.0
  0
LINE
  5
1068A
330
1F
100
AcDbEntity
  8
AM_0
100
AcDbLine
 10
17.89348750193017
 20
22.56869082480003
 30
0.0
 11
16.86355224523243
 21
20.88642144202763
 31
0.0
  0
LINE
  5
1068B
330
1F
100
AcDbEntity
  8
AM_0
100
AcDbLine
 10
17.69374996209501
 20
22.57573299805327
 30
0.0
 11
19.98539373392578
 21
22.49493620597704
 31
0.0
  0
LINE
  5
1068C
330
1F
100
AcDbEntity
  8
AM_0
100
AcDbLine
 10
19.98539373392578
 20
22.49493620597704
 30
0.0
 11
21.08272257630767
 21
20.46337656144553
 31
0.0
  0
LINE
  5
1068D
330
1F
100
AcDbEntity
  8
AM_0
100
AcDbLine
 10
21.47190875682463
 20
17.23698628941949
 30
0.0
 11
21.87678117664211
 21
17.52770151899605
 31
0.0
  0
LINE
  5
1068E
330
1F
100
AcDbEntity
  8
AM_0
100
AcDbLine
 10
16.51422805444895
 20
24.14143427990294
 30
0.0
 11
16.91910047426643
 21
24.4321495094795
 31
0.0
  0
ARC
  5
1068F
330
1F
100
AcDbEntity
  8
AM_0
100
AcDbCircle
 10
19.02283328487056
 20
20.71058270539479
 30
0.0
 40
4.250157965111847
100
AcDbArc
 50
126.1739074614277
 51
305.1859300281128
  0
ELLIPSE
  5
10690
330
1F
100
AcDbEntity
  8
AM_0
100
AcDbEllipse
 10
18.7910788044768
 20
20.54417335352181
 30
0.0
 11
-1.508176884975074
 21
2.10040329095203
 31
-2.039825829894575E-30
210
-4.601082925497609E-31
220
6.407822460969548E-31
230
1.0
 40
0.9887737565677319
 41
-0.0000000000000042
 42
6.283185307179582
  0
ELLIPSE
  5
10691
330
1F
100
AcDbEntity
  8
AM_0
100
AcDbEllipse
 10
19.39794082545416
 20
20.97992551423775
 30
0.0
 11
2.478840351187932
 21
-3.452223995241689
 31
-2.095411779493313E-31
210
2.875676828436001E-32
220
-4.004889038105969E-32
230
1.0
 40
0.9887737565677321
 41
-0.0000000000000244
 42
3.141592653589769
  0
ELLIPSE
  5
10692
330
1F
100
AcDbEntity
  8
AM_0
100
AcDbEllipse
 10
18.82662795861677
 20
20.56969912411321
 30
0.0
 11
1.920601548928917
 21
-2.674777643236809
 31
-1.623521703368319E-31
210
2.875676828436003E-32
220
-4.004889038105966E-32
230
1.0
 40
0.9887737565677319
 41
0.0000000000000039
 42
6.28318530717959
  0
ELLIPSE
  5
10693
330
1F
100
AcDbEntity
  8
AM_0
100
AcDbEllipse
 10
18.90724515558122
 20
20.62758562310941
 30
0.0
 11
-2.308008461921084
 21
3.214310348646074
 31
1.951004273414391E-31
210
2.875676828436002E-32
220
-4.004889038105967E-32
230
1.0
 40
0.9887737565677319
 41
0.000000000000002
 42
6.283185307179588
  0
ELLIPSE
  5
10694
330
1F
100
AcDbEntity
  8
AM_0
100
AcDbEllipse
 10
18.99306840563679
 20
20.68921028466119
 30
0.0
 11
2.478840351187932
 21
-3.452223995241689
 31
-2.095411779493313E-31
210
2.875676828436001E-32
220
-4.004889038105969E-32
230
1.0
 40
0.9887737565677321
 41
-0.0000000000000188
 42
3.141592653589774
  0
LINE
  5
10696
330
1F
100
AcDbEntity
  8
AM_0
100
AcDbLine
 10
40.66339745962102
 20
46.02457441013215
 30
0.0
 11
40.66339745962102
 21
33.1697300194858
 31
0.0
  0
LINE
  5
10698
330
1F
100
AcDbEntity
  8
AM_0
100
AcDbLine
 10
43.33660254037807
 20
46.02457441013215
 30
0.0
 11
43.33660254037807
 21
33.16973001948585
 31
0.0
  0
LINE
  5
1069A
330
1F
100
AcDbEntity
  8
AM_0
100
AcDbLine
 10
43.33660254037807
 20
20.83026998051409
 30
0.0
 11
43.33660254037818
 21
7.975425589867797
 31
0.0
  0
LINE
  5
106A6
330
1F
100
AcDbEntity
  8
AM_0
100
AcDbLine
 10
28.69251322710193
 20
23.19269676117804
 30
0.0
 11
28.75630718693651
 21
23.152933801422
 31
0.0
  0
LINE
  5
106A7
330
1F
100
AcDbEntity
  8
AM_0
100
AcDbLine
 10
28.59609561339846
 20
23.03789523099303
 30
0.0
 11
28.75630718693651
 21
23.15293380142205
 31
0.0
  0
SPLINE
  5
106A8
330
1F
100
AcDbEntity
  8
AM_0
100
AcDbSpline
210
0.0
220
0.0
230
1.0
 70
     8
 71
     3
 72
    26
 73
    22
 74
     0
 42
0.0000000001
 43
0.0000000001
 40
0.0
 40
0.0
 40
0.0
 40
0.0
 40
0.2713201130182744
 40
0.2713201130182744
 40
0.5426402260365488
 40
0.5426402260365488
 40
0.8170010649550962
 40
0.8170010649550962
 40
1.091361903873644
 40
1.091361903873644
 40
1.603653698997412
 40
1.603653698997412
 40
2.11594549412118
 40
2.11594549412118
 40
2.454564954443047
 40
2.454564954443047
 40
2.793184414764914
 40
2.793184414764914
 40
2.985940191262559
 40
2.985940191262559
 40
3.06099897611142
 40
3.06099897611142
 40
3.06099897611142
 40
3.06099897611142
 10
18.49486928203373
 20
31.50531340481015
 30
0.0
 10
18.41824457930841
 20
31.5530738037364
 30
0.0
 10
18.32918143701045
 20
31.59402474375131
 30
0.0
 10
18.14532370223901
 20
31.6478698178752
 30
0.0
 10
18.05054008852528
 20
31.66079065707245
 30
0.0
 10
17.87710493377904
 20
31.66202624258747
 30
0.0
 10
17.78421420025359
 20
31.65017514718457
 30
0.0
 10
17.60974846205977
 20
31.60015998675348
 30
0.0
 10
17.52817414154254
 20
31.56206412322499
 30
0.0
 10
17.3327862262837
 20
31.43699036946552
 30
0.0
 10
17.22560834463513
 20
31.31988499678496
 30
-0.0000000000000009
 10
17.08758155117346
 20
31.04940132640328
 30
0.0
 10
17.05678625954135
 20
30.89625091499025
 30
-0.0000000000000009
 10
17.06603074120892
 20
30.65473407226673
 30
0.0
 10
17.08609035272525
 20
30.55015161576293
 30
0.0
 10
17.16225196598339
 20
30.34877190010744
 30
0.0
 10
17.21827263911689
 20
30.25193317204995
 30
-0.0000000000000009
 10
17.32246691449575
 20
30.12022138329419
 30
-0.0000000000000009
 10
17.36872862004259
 20
30.07031561639994
 30
-0.0000000000000009
 10
17.43992738183465
 20
30.00667205147383
 30
0.0000000000000009
 10
17.46064545622778
 20
29.98945498898368
 30
0.0000000000000009
 10
17.48167708844005
 20
29.97303287979642
 30
0.0
  0
LINE
  5
106A9
330
1F
100
AcDbEntity
  8
AM_0
100
AcDbLine
 10
18.49486928203373
 20
31.50531340481015
 30
0.0
 11
18.60568799852206
 21
31.71742870998796
 31
0.0
  0
LINE
  5
106AA
330
1F
100
AcDbEntity
  8
AM_0
100
AcDbLine
 10
29.50903027822471
 20
24.64015498583504
 30
0.0
 11
18.49486928203373
 21
31.50531340481015
 31
0.0
  0
LINE
  5
106AB
330
1F
100
AcDbEntity
  8
AM_0
100
AcDbLine
 10
29.50903027822471
 20
24.64015498583504
 30
0.0
 11
29.61984899471315
 21
24.8522702910129
 31
0.0
  0
LINE
  5
106AC
330
1F
100
AcDbEntity
  8
AM_0
100
AcDbLine
 10
27.77878241185431
 20
21.84512015817919
 30
0.0
 11
28.59609561339846
 21
23.03789523099303
 31
0.0
  0
SPLINE
  5
106AD
330
1F
100
AcDbEntity
  8
AM_0
100
AcDbSpline
210
0.0
220
0.0
230
1.0
 70
     8
 71
     3
 72
    26
 73
    22
 74
     0
 42
0.0000000001
 43
0.0000000001
 40
-3.178695967760197
 40
-3.178695967760197
 40
-3.178695967760197
 40
-3.178695967760197
 40
-2.98594019126255
 40
-2.98594019126255
 40
-2.793184414764904
 40
-2.793184414764904
 40
-2.454564954443034
 40
-2.454564954443034
 40
-2.115945494121164
 40
-2.115945494121164
 40
-1.603653698997393
 40
-1.603653698997393
 40
-1.091361903873622
 40
-1.091361903873622
 40
-0.8170010649550754
 40
-0.8170010649550754
 40
-0.5426402260365277
 40
-0.5426402260365277
 40
-0.2713201130182643
 40
-0.2713201130182643
 40
0.0
 40
0.0
 40
0.0
 40
0.0
 10
28.59609561339846
 20
23.03789523099303
 30
0.0
 10
28.65053261738024
 20
23.00396448889481
 30
0.0
 10
28.71203076637551
 20
22.97227089304553
 30
-0.0000000000000009
 10
28.836498430917
 20
22.92242151069198
 30
-0.0000000000000009
 10
28.89952929701019
 20
22.90420490143916
 30
0.0
 10
29.05730130064148
 20
22.8726323504749
 30
-0.0000000000000009
 10
29.16344855580735
 20
22.86839133958202
 30
-0.0000000000000009
 10
29.36585861061406
 20
22.89613652847103
 30
-0.0000000000000009
 10
29.46212495322732
 20
22.92821268117072
 30
0.0
 10
29.66781989281515
 20
23.03575716068721
 30
-0.0000000000000009
 10
29.78182086241952
 20
23.13704523226025
 30
0.0
 10
29.94512554003381
 20
23.39177312430664
 30
0.0
 10
29.99421353717332
 20
23.54508609008778
 30
0.0
 10
30.00911649181205
 20
23.78265664204437
 30
0.0
 10
30.00342547233652
 20
23.8751452444973
 30
0.0
 10
29.96455913571401
 20
24.0581309044488
 30
0.0
 10
29.93131869645185
 20
24.14859992481738
 30
0.0
 10
29.84932152002364
 20
24.30657605043021
 30
0.0
 10
29.7940622663225
 20
24.38717736464949
 30
0.0
 10
29.66223932974162
 20
24.53009696641797
 30
0.0
 10
29.58565498095015
 20
24.5923945869088
 30
0.0
 10
29.50903027822471
 20
24.64015498583504
 30
0.0
  0
LINE
  5
106AE
330
1F
100
AcDbEntity
  8
AM_0
100
AcDbLine
 10
19.91936027524537
 20
9.294538147063662
 30
0.0
 11
21.27994492627659
 21
10.27149449138889
 31
0.0
  0
LINE
  5
106AF
330
1F
100
AcDbEntity
  8
AM_0
100
AcDbLine
 10
17.22794001144609
 20
47.24999999999986
 30
0.0
 11
16.98429258820772
 21
46.34069543734128
 31
0.0
  0
LINE
  5
106B0
330
1F
100
AcDbEntity
  8
AM_0
100
AcDbLine
 10
16.38553018162133
 20
44.10608371429854
 30
0.0
 11
16.98429258820772
 21
46.34069543734134
 31
0.0
  0
LINE
  5
106B1
330
1F
100
AcDbEntity
  8
AM_0
100
AcDbLine
 10
16.98429258820784
 20
46.34069543734128
 30
0.0
 11
29.1098340145669
 21
46.34069543734134
 31
0.0
  0
LINE
  5
106B3
330
1F
100
AcDbEntity
  8
AM_0
100
AcDbLine
 10
29.10983499471297
 20
46.34085594978822
 30
0.0
 11
29.26685705252248
 21
46.33989711719423
 31
0.0
  0
LINE
  5
106B7
330
1F
100
AcDbEntity
  8
AM_0
100
AcDbLine
 10
40.66339745962114
 20
20.83026998051409
 30
0.0
 11
40.66339745962125
 21
7.975425589867797
 31
0.0
  0
ELLIPSE
  5
106B9
330
1F
100
AcDbEntity
  8
AM_0
100
AcDbEllipse
 10
41.99999999999989
 20
12.30639828737148
 30
0.0
 11
1.25
 21
5.996367378333030E-15
 31
-9.814726303579880E-31
210
7.851781042863904E-31
220
3.766573096579421E-45
230
1.0
 40
0.718015043061691
 41
3.674298662736799
 42
5.750479298032133
  0
SPLINE
  5
106BA
330
1F
100
AcDbEntity
  8
AM_0
100
AcDbSpline
210
0.0
220
0.0
230
1.0
 70
     8
 71
     3
 72
    16
 73
    12
 74
     0
 42
0.0000000001
 43
0.0000000001
 40
0.6075385206423026
 40
0.6075385206423026
 40
0.6075385206423026
 40
0.6075385206423026
 40
0.907358309465365
 40
0.907358309465365
 40
1.075708028475346
 40
1.075708028475346
 40
1.244057747485327
 40
1.244057747485327
 40
1.589757020930239
 40
1.589757020930239
 40
1.898721094785534
 40
1.898721094785534
 40
1.898721094785534
 40
1.898721094785534
 10
40.92320508075659
 20
11.85057877699941
 30
0.0000000000000009
 10
40.87233033529992
 20
11.91253849366856
 30
-0.0000000000000009
 10
40.82873634450061
 20
11.97245354360305
 30
-0.0000000000000009
 10
40.78235069888035
 20
12.07029548615
 30
0.0
 10
40.76989653241481
 20
12.10648114753141
 30
0.0
 10
40.75372452848831
 20
12.1817664370864
 30
0.0
 10
40.74999999999989
 20
12.22092705226859
 30
0.0
 10
40.74999999999989
 20
12.34208956174425
 30
0.0
 10
40.76614308716353
 20
12.43862904209058
 30
0.0
 10
40.82832963248245
 20
12.61693232832457
 30
0.0
 10
40.87087620461387
 20
12.6984871134853
 30
-0.0000000000000009
 10
40.92320508075659
 20
12.76221779774349
 30
0.0
  0
ELLIPSE
  5
106BB
330
1F
100
AcDbEntity
  8
AM_0
100
AcDbEllipse
 10
41.99999999999989
 20
12.30639828737148
 30
0.0
 11
1.25
 21
5.996367378333030E-15
 31
-9.814726303579880E-31
210
7.851781042863904E-31
220
3.766573096579421E-45
230
1.0
 40
0.718015043061691
 41
0.532706009147452
 42
2.60888664444279
  0
SPLINE
  5
106BC
330
1F
100
AcDbEntity
  8
AM_0
100
AcDbSpline
210
0.0
220
0.0
230
1.0
 70
     8
 71
     3
 72
    16
 73
    12
 74
     0
 42
0.0000000001
 43
0.0000000001
 40
0.5698062158316899
 40
0.5698062158316899
 40
0.5698062158316899
 40
0.5698062158316899
 40
0.8787702896867026
 40
0.8787702896867026
 40
1.224469563131779
 40
1.224469563131779
 40
1.392819282141826
 40
1.392819282141826
 40
1.561169001151872
 40
1.561169001151872
 40
1.860988789976599
 40
1.860988789976599
 40
1.860988789976599
 40
1.860988789976599
 10
43.07679491924284
 20
12.76221779774389
 30
0.0
 10
43.12912379538557
 20
12.69848711348575
 30
0.0
 10
43.17167036751721
 20
12.61693232832451
 30
0.0
 10
43.23385691283613
 20
12.43862904209053
 30
0.0
 10
43.24999999999989
 20
12.34208956174413
 30
0.0
 10
43.24999999999989
 20
12.22092705226842
 30
0.0
 10
43.24627547151147
 20
12.18176643708623
 30
0.0
 10
43.23010346758485
 20
12.10648114753124
 30
-0.0000000000000009
 10
43.21764930111931
 20
12.07029548614983
 30
-0.0000000000000009
 10
43.17126365549893
 20
11.97245354360254
 30
-0.0000000000000009
 10
43.12766966469985
 20
11.91253849366851
 30
0.0
 10
43.07679491924284
 20
11.85057877699913
 30
0.0000000000000009
  0
SPLINE
  5
106BD
330
1F
100
AcDbEntity
  8
AM_0
100
AcDbSpline
210
0.0
220
0.0
230
1.0
 70
     8
 71
     3
 72
    14
 73
    10
 74
     0
 42
0.0000000001
 43
0.0000000001
 40
5.01421068697908
 40
5.01421068697908
 40
5.01421068697908
 40
5.01421068697908
 40
5.065613498702716
 40
5.065613498702716
 40
5.584631632890745
 40
5.584631632890745
 40
5.844140699984759
 40
5.844140699984759
 40
5.883761673786093
 40
5.883761673786093
 40
5.883761673786093
 40
5.883761673786093
 10
41.41770949552097
 20
12.67483003673723
 30
0.0
 10
41.40511554536852
 20
12.67050850444016
 30
0.0
 10
41.39267989646487
 20
12.66637035598129
 30
-0.0000000000000009
 10
41.25639805541482
 20
12.62302101786875
 30
0.0
 10
41.1303969159593
 20
12.60116187791172
 30
0.0
 10
40.97410394921292
 20
12.62686307276564
 30
0.0
 10
40.92725559878954
 20
12.64496115407704
 30
0.0
 10
40.8819859103761
 20
12.67766277956858
 30
-0.0000000000000009
 10
40.87616664551058
 20
12.68223428569834
 30
-0.0000000000000009
 10
40.87052391498628
 20
12.68703353978984
 30
-0.0000000000000009
  0
LINE
  5
106BE
330
1F
100
AcDbEntity
  8
AM_0
100
AcDbLine
 10
27.81777958329531
 20
2.577445159255177
 30
0.0
 11
27.89527586739985
 21
2.581506567407843
 31
0.0
  0
LINE
  5
106BF
330
1F
100
AcDbEntity
  8
AM_0
100
AcDbLine
 10
19.91936027524514
 20
9.294538147063832
 30
0.0
 11
15.40880723999544
 21
1.927118475558331
 31
0.0
  0
LINE
  5
106C0
330
1F
100
AcDbEntity
  8
AM_0
100
AcDbLine
 10
8.063362003609996
 20
13.04732924482792
 30
0.0
 11
10.17272110352621
 21
13.15787607096482
 31
0.0
  0
LINE
  5
106C1
330
1F
100
AcDbEntity
  8
AM_0
100
AcDbLine
 10
8.063362003609996
 20
13.04732924482792
 30
0.0
 11
16.38553018162133
 21
44.10608371429848
 31
0.0
  0
LINE
  5
106C2
330
1F
100
AcDbEntity
  8
AM_0
100
AcDbLine
 10
29.1098340145669
 20
26.38523816093729
 30
0.0
 11
16.38553018162145
 21
44.10608371429854
 31
0.0
  0
ELLIPSE
  5
106C3
330
1F
100
AcDbEntity
  8
AM_0
100
AcDbEllipse
 10
29.10983401456667
 20
71.76762960762997
 30
0.0
 11
0.491045591791379
 21
-45.72299666866453
 31
2.887091567147500E-17
210
-6.780518645559715E-21
220
6.313581399066073E-19
230
1.0
 40
0.0868216246936392
 41
6.16011345610682
 42
6.411363245262007
  0
LINE
  5
106C4
330
1F
100
AcDbEntity
  8
AM_0
100
AcDbLine
 10
27.81885788849934
 20
2.577166716741175
 30
0.0
 11
28.84227570184464
 21
6.540486605993209
 31
0.0
  0
LINE
  5
106C5
330
1F
100
AcDbEntity
  8
AM_0
100
AcDbLine
 10
27.81777958329531
 20
2.577445159255234
 30
0.0
 11
15.40880723999533
 21
1.927118475558331
 31
0.0
  0
LINE
  5
106C6
330
1F
100
AcDbEntity
  8
AM_0
100
AcDbLine
 10
18.60568799852206
 20
31.71742870998796
 30
0.0
 11
29.61984899471315
 21
24.8522702910129
 31
0.0
  0
LINE
  5
106C7
330
1F
100
AcDbEntity
  8
AM_0
100
AcDbLine
 10
27.77878241185431
 20
21.84512015817919
 30
0.0
 11
27.77481556394298
 21
21.84759270596058
 31
0.0
  0
ARC
  5
106C8
330
1F
100
AcDbEntity
  8
AM_0
100
AcDbCircle
 10
30.09704998826646
 20
47.35424934380657
 30
0.0
 40
1.310898088010316
100
AcDbArc
 50
230.7058665328023
 51
265.7543253453135
  0
ARC
  5
106C9
330
1F
100
AcDbEntity
  8
AM_0
100
AcDbCircle
 10
30.06181335223084
 20
6.245537946450583
 30
0.0
 40
1.25612989807451
100
AcDbArc
 50
92.82062798639586
 51
166.4029238223
  0
ELLIPSE
  5
106CA
330
1F
100
AcDbEntity
  8
AM_0
100
AcDbEllipse
 10
32.25022672948114
 20
26.99999999999992
 30
0.0
 11
9.572663466542119E-14
 21
-20.00000000000001
 31
-9.860761315262653E-31
210
2.359843739872663E-46
220
-4.930380657631324E-32
230
1.0
 40
0.0874886635259234
 41
0.8254167858040334
 42
2.638007348814215
  0
SPLINE
  5
106CB
330
1F
100
AcDbEntity
  8
AM_0
100
AcDbSpline
210
0.0
220
0.0
230
1.0
 70
     8
 71
     3
 72
    20
 73
    16
 74
     0
 42
0.0000000001
 43
0.0000000001
 40
14.00331625332859
 40
14.00331625332859
 40
14.00331625332859
 40
14.00331625332859
 40
14.62408213524612
 40
14.62408213524612
 40
15.37081791084524
 40
15.37081791084524
 40
16.11755368644437
 40
16.11755368644437
 40
16.95580139888216
 40
16.95580139888216
 40
17.79404911131994
 40
17.79404911131994
 40
18.63229682375773
 40
18.63229682375773
 40
19.07627481008935
 40
19.07627481008935
 40
19.07627481008935
 40
19.07627481008935
 10
29.99999999999977
 20
46.04694865271571
 30
0.0
 10
30.21144137271085
 20
46.03149052648692
 30
0.0
 10
30.42050720997509
 20
46.01017308447987
 30
0.0
 10
30.86439516918154
 20
45.95004679758975
 30
0.0
 10
31.09622972138675
 20
45.9084486182297
 30
0.0
 10
31.52379303290798
 20
45.80900710685191
 30
0.0
 10
31.71951047653192
 20
45.75110463920439
 30
-0.0000000000000009
 10
32.08637265453911
 20
45.61563635161323
 30
0.0
 10
32.2649237721912
 20
45.53167224659902
 30
0.0
 10
32.57455581148304
 20
45.3397535864527
 30
0.0
 10
32.70566659729832
 20
45.23174768799876
 30
-0.0000000000000009
 10
32.9128007518251
 20
44.99598419530807
 30
0.0
 10
32.98902621699244
 20
44.86800016518399
 30
0.0
 10
33.06436449338526
 20
44.6631187571605
 30
-0.0000000000000009
 10
33.08296155664516
 20
44.59053546608655
 30
0.0
 10
33.09461280693381
 20
44.51716077005372
 30
0.0000000000000009
  0
ELLIPSE
  5
106CC
330
1F
100
AcDbEntity
  8
AM_0
100
AcDbEllipse
 10
-20.21125622028546
 20
26.99999999999966
 30
0.0
 11
163.5637316726557
 21
-1.782430566908878
 31
1.658647407936591E-15
210
-1.013947555489116E-17
220
1.104946125687151E-19
230
0.9999999999999999
 40
0.1217899285164547
 41
5.025737050296387
 42
5.071577888096702
  0
LINE
  5
106CD
330
1F
100
AcDbEntity
  8
AM_0
100
AcDbLine
 10
43.07679491924273
 20
32.85988980456952
 30
0.0
 11
40.92320508075636
 21
32.85988980456952
 31
0.0
  0
SPLINE
  5
106CE
330
1F
100
AcDbEntity
  8
AM_0
100
AcDbSpline
210
0.0
220
0.0
230
1.0
 70
     8
 71
     3
 72
    14
 73
    10
 74
     0
 42
0.0000000001
 43
0.0000000001
 40
1.101152144031598
 40
1.101152144031598
 40
1.101152144031598
 40
1.101152144031598
 40
1.308567245847696
 40
1.308567245847696
 40
1.420961430820681
 40
1.420961430820681
 40
1.477158523307173
 40
1.477158523307173
 40
1.533355615793665
 40
1.533355615793665
 40
1.533355615793665
 40
1.533355615793665
 10
43.33660254037807
 20
33.16973001948585
 30
0.0
 10
43.31783893638487
 20
33.1017094897127
 30
0.0
 10
43.29212242299423
 20
33.03680531924377
 30
0.0
 10
43.23563819085769
 20
32.95053364689485
 30
0.0000000000000009
 10
43.21010906968581
 20
32.91979211262813
 30
0.0
 10
43.16460843824211
 20
32.885779065327
 30
0.0
 10
43.14824902179862
 20
32.87642445821652
 30
0.0
 10
43.11370696882216
 20
32.8634833535335
 30
0.0
 10
43.09552728340486
 20
32.85988980456952
 30
0.0000000000000009
 10
43.07679491924273
 20
32.85988980456952
 30
0.0000000000000009
  0
ELLIPSE
  5
106CF
330
1F
100
AcDbEntity
  8
AM_0
100
AcDbEllipse
 10
33.05107082756047
 20
26.99999999999992
 30
0.0
 11
-9.367417879782414
 21
-19.74174915274967
 31
3.930705418712580E-16
210
7.711351465227925E-18
220
1.625160403954931E-17
230
1.0
 40
0.3419987131196429
 41
2.045273126090478
 42
2.988866408692021
  0
ARC
  5
106D0
330
1F
100
AcDbEntity
  8
AM_0
100
AcDbCircle
 10
43.09983361670959
 20
45.78927244860719
 30
0.0
 40
0.3338061358223747
100
AcDbArc
 50
44.82195371157278
 51
93.95759762896594
  0
LINE
  5
106D1
330
1F
100
AcDbEntity
  8
AM_0
100
AcDbLine
 10
40.92320508075636
 20
46.12228259069249
 30
0.0
 11
43.07679491924273
 21
46.12228259069249
 31
0.0
  0
ARC
  5
106D2
330
1F
100
AcDbEntity
  8
AM_0
100
AcDbCircle
 10
40.90016638328939
 20
45.78927244860776
 30
0.0
 40
0.3338061358217969
100
AcDbArc
 50
86.04240237098834
 51
135.1780462884721
  0
ELLIPSE
  5
106D3
330
1F
100
AcDbEntity
  8
AM_0
100
AcDbEllipse
 10
50.94892917243828
 20
27.00000000000003
 30
0.0
 11
-9.367417879781321
 21
19.74174915274994
 31
6.415608317705339E-16
210
1.258629312833740E-17
220
-2.652549986468822E-17
230
1.0
 40
0.3419987131196389
 41
0.1527262448983698
 42
1.096319527499914
  0
SPLINE
  5
106D4
330
1F
100
AcDbEntity
  8
AM_0
100
AcDbSpline
210
0.0
220
0.0
230
1.0
 70
     8
 71
     3
 72
    14
 73
    10
 74
     0
 42
0.0000000001
 43
0.0000000001
 40
1.533355615793665
 40
1.533355615793665
 40
1.533355615793665
 40
1.533355615793665
 40
1.589552708280158
 40
1.589552708280158
 40
1.64574980076665
 40
1.64574980076665
 40
1.758143985739635
 40
1.758143985739635
 40
1.965559087554609
 40
1.965559087554609
 40
1.965559087554609
 40
1.965559087554609
 10
40.92320508075636
 20
32.85988980456946
 30
0.0000000000000009
 10
40.90447271659423
 20
32.85988980456946
 30
0.0000000000000009
 10
40.88629303117705
 20
32.8634833535335
 30
0.0
 10
40.85175097820047
 20
32.87642445821646
 30
0.0
 10
40.83539156175698
 20
32.88577906532694
 30
0.0
 10
40.78989093031339
 20
32.91979211262807
 30
0.0
 10
40.76436180914141
 20
32.9505336468948
 30
0.0000000000000009
 10
40.70787757700509
 20
33.03680531924343
 30
0.0
 10
40.6821610636141
 20
33.10170948971305
 30
0.0
 10
40.66339745962102
 20
33.1697300194858
 30
0.0
  0
SPLINE
  5
106D5
330
1F
100
AcDbEntity
  8
AM_0
100
AcDbSpline
210
0.0
220
0.0
230
1.0
 70
     8
 71
     3
 72
    14
 73
    10
 74
     0
 42
0.0000000001
 43
0.0000000001
 40
1.533355615793658
 40
1.533355615793658
 40
1.533355615793658
 40
1.533355615793658
 40
1.589552708280149
 40
1.589552708280149
 40
1.64574980076664
 40
1.64574980076664
 40
1.758143985739622
 40
1.758143985739622
 40
1.965559087554602
 40
1.965559087554602
 40
1.965559087554602
 40
1.965559087554602
 10
43.07679491924284
 20
21.14011019543048
 30
0.0
 10
43.09552728340498
 20
21.14011019543048
 30
0.0
 10
43.11370696882216
 20
21.13651664646645
 30
0.0
 10
43.14824902179873
 20
21.12357554178342
 30
0.0
 10
43.16460843824223
 20
21.114220934673
 30
0.0
 10
43.21010906968581
 20
21.08020788737187
 30
0.0
 10
43.2356381908578
 20
21.04946635310515
 30
0.0000000000000009
 10
43.29212242299411
 20
20.96319468075652
 30
0.0
 10
43.3178389363851
 20
20.8982905102869
 30
0.0
 10
43.33660254037818
 20
20.83026998051409
 30
0.0
  0
LINE
  5
106D6
330
1F
100
AcDbEntity
  8
AM_0
100
AcDbLine
 10
40.92320508075648
 20
21.14011019543042
 30
0.0
 11
43.07679491924284
 21
21.14011019543042
 31
0.0
  0
SPLINE
  5
106D7
330
1F
100
AcDbEntity
  8
AM_0
100
AcDbSpline
210
0.0
220
0.0
230
1.0
 70
     8
 71
     3
 72
    14
 73
    10
 74
     0
 42
0.0000000001
 43
0.0000000001
 40
1.101152144031589
 40
1.101152144031589
 40
1.101152144031589
 40
1.101152144031589
 40
1.308567245847693
 40
1.308567245847693
 40
1.420961430820676
 40
1.420961430820676
 40
1.477158523307167
 40
1.477158523307167
 40
1.533355615793658
 40
1.533355615793658
 40
1.533355615793658
 40
1.533355615793658
 10
40.66339745962114
 20
20.83026998051409
 30
0.0
 10
40.68216106361433
 20
20.89829051028724
 30
0.0
 10
40.70787757700498
 20
20.96319468075618
 30
0.0
 10
40.76436180914152
 20
21.04946635310509
 30
0.0
 10
40.78989093031339
 20
21.08020788737181
 30
0.0
 10
40.83539156175709
 20
21.11422093467294
 30
0.0
 10
40.85175097820059
 20
21.12357554178342
 30
0.0
 10
40.88629303117705
 20
21.13651664646645
 30
0.0
 10
40.90447271659434
 20
21.14011019543042
 30
0.0000000000000009
 10
40.92320508075648
 20
21.14011019543042
 30
0.0
  0
ELLIPSE
  5
106D8
330
1F
100
AcDbEntity
  8
AM_0
100
AcDbEllipse
 10
50.94892917243828
 20
27.00000000000003
 30
0.0
 11
9.367417879781829
 21
19.74174915274971
 31
-3.930705418739401E-16
210
7.711351465280210E-18
220
1.625160403966055E-17
230
1.0
 40
0.341998713119639
 41
2.045273126090466
 42
2.98886640869201
  0
ARC
  5
106D9
330
1F
100
AcDbEntity
  8
AM_0
100
AcDbCircle
 10
40.90016638328984
 20
8.210727551392921
 30
0.0
 40
0.3338061358225128
100
AcDbArc
 50
224.821953711582
 51
273.9575976289594
  0
LINE
  5
106DA
330
1F
100
AcDbEntity
  8
AM_0
100
AcDbLine
 10
43.07679491924296
 20
7.877717409307451
 30
0.0
 11
40.92320508075659
 21
7.877717409307451
 31
0.0
  0
ARC
  5
106DB
330
1F
100
AcDbEntity
  8
AM_0
100
AcDbCircle
 10
43.0998336167097
 20
8.210727551392807
 30
0.0
 40
0.3338061358223435
100
AcDbArc
 50
266.0424023710341
 51
315.1780462884284
  0
ELLIPSE
  5
106DC
330
1F
100
AcDbEntity
  8
AM_0
100
AcDbEllipse
 10
33.05107082756047
 20
26.99999999999992
 30
0.0
 11
9.367417879781899
 21
-19.74174915274991
 31
-6.415608317678561E-16
210
1.258629312828539E-17
220
-2.652549986457692E-17
230
0.9999999999999999
 40
0.3419987131196429
 41
0.15272624489836
 42
1.096319527499903
  0
ELLIPSE
  5
106DD
330
1F
100
AcDbEntity
  8
AM_0
100
AcDbEllipse
 10
29.1098340145669
 20
27.49950390678723
 30
0.0
 11
3.962965987262488
 21
-11.04327605904265
 31
1.373584177670674E-17
210
-3.954311433511030E-19
220
1.101915911568448E-18
230
0.9999999999999999
 40
0.0491744925976064
 41
0.2234488785671734
 42
1.455728953607158
  0
LINE
  5
106DE
330
1F
100
AcDbEntity
  8
AM_0
100
AcDbLine
 10
33.09461280693392
 20
16.77395829385372
 30
0.0
 11
33.53601355159753
 21
13.43498484783035
 31
0.0
  0
ELLIPSE
  5
106DF
330
1F
100
AcDbEntity
  8
AM_0
100
AcDbEllipse
 10
30.84341502009738
 20
26.99999999999992
 30
0.0
 11
-7.478210501324575
 21
19.97399288997546
 31
7.034590258450869E-16
210
1.156473824895919E-17
220
-3.088894054509742E-17
230
1.0
 40
0.1363443441336565
 41
2.265173173352433
 42
2.820640980269846
  0
LINE
  5
106E8
330
1F
100
AcDbEntity
  8
AM_0
100
AcDbLine
 10
29.26685608506887
 20
47.24999999999992
 30
0.0
 11
17.22794001144609
 21
47.24999999999986
 31
0.0
  0
LINE
  5
106E9
330
1F
100
AcDbEntity
  8
AM_0
100
AcDbLine
 10
28.84088900845302
 20
6.110582854122953
 30
0.0
 11
27.89527586739985
 21
2.581506567407843
 31
0.0
  0
LINE
  5
106EA
330
1F
100
AcDbEntity
  8
AM_0
100
AcDbLine
 10
29.99999999999989
 20
6.999999999999915
 30
0.0
 11
49.69999999999982
 21
6.999999999999972
 31
0.0
  0
LINE
  5
106EB
330
1F
100
AcDbEntity
  8
AM_0
100
AcDbLine
 10
29.99999999999977
 20
46.99999999999992
 30
0.0
 11
49.6999999999997
 21
46.99999999999997
 31
0.0
  0
ELLIPSE
  5
106F8
330
1F
100
AcDbEntity
  8
AM_0
100
AcDbEllipse
 10
23.50780345609644
 20
27.00786555765589
 30
0.0
 11
0.8748848298310353
 21
-1.218431998320596
 31
1.072357793034813E-30
210
-4.169731401232210E-31
220
5.807089105253650E-31
230
1.0
 40
0.9887737565677318
 41
2.634797771636077
 42
2.886827724715225
  0
ELLIPSE
  5
106F9
330
1F
100
AcDbEntity
  8
AM_0
100
AcDbEllipse
 10
23.50780345609644
 20
27.00786555765589
 30
0.0
 11
0.8748848298310353
 21
-1.218431998320596
 31
1.072357793034813E-30
210
-4.169731401232210E-31
220
5.807089105253650E-31
230
1.0
 40
0.9887737565677318
 41
1.044120188000617
 42
1.296150141079787
  0
ELLIPSE
  5
106FA
330
1F
100
AcDbEntity
  8
AM_0
100
AcDbEllipse
 10
18.25929972525637
 20
30.86279731388973
 30
0.0
 11
0.58325655322069
 21
-0.8122879988803974
 31
-7.395570986446986E-32
210
4.313515242654008E-32
220
-6.007333557158946E-32
230
1.0
 40
0.988773756567732
 41
3.305074764788594
 42
4.984942396677615
  0
ELLIPSE
  5
106FB
330
1F
100
AcDbEntity
  8
AM_0
100
AcDbEllipse
 10
29.27346072144735
 20
23.99763889491467
 30
0.0
 11
0.58325655322069
 21
-0.8122879988803974
 31
-7.395570986446986E-32
210
4.313515242654008E-32
220
-6.007333557158946E-32
230
1.0
 40
0.988773756567732
 41
5.10706660994772
 42
6.145386932848556
  0
ELLIPSE
  5
106FC
330
1F
100
AcDbEntity
  8
AM_0
100
AcDbEllipse
 10
12.35833951295865
 20
7.840084674216229
 30
0.0
 11
1.16651310644138
 21
-1.624575997760795
 31
-9.860761315262648E-32
210
2.875676828436004E-32
220
-4.004889038105966E-32
230
1.0
 40
0.9887737565677323
 41
5.821115647229109
 42
6.040924472538127
  0
ELLIPSE
  5
106FD
330
1F
100
AcDbEntity
  8
AM_0
100
AcDbEllipse
 10
22.79935739437951
 20
12.56309636274219
 30
0.0
 11
1.603955521356902
 21
-2.23379199692109
 31
1.355854680848614E-31
210
-2.875676828436013E-32
220
4.004889038105960E-32
230
1.0
 40
0.988773756567732
 41
5.047226529553159
 42
5.964599247319741
  0
ELLIPSE
  5
106FE
330
1F
100
AcDbEntity
  8
AM_0
100
AcDbEllipse
 10
22.7762966380883
 20
12.54653778099825
 30
0.0
 11
-1.603955521356898
 21
2.233791996921094
 31
-9.490982765940300E-31
210
-2.012973779905203E-31
220
2.803422326674175E-31
230
1.0
 40
0.9887737565677316
 41
1.909655200432968
 42
1.933315002779415
  0
ELLIPSE
  5
106FF
330
1F
100
AcDbEntity
  8
AM_0
100
AcDbEllipse
 10
21.41571198655117
 20
11.56958143630973
 30
0.0
 11
-1.603955521356901
 21
2.233791996921091
 31
-4.745491382970148E-31
210
-1.006486889952603E-31
220
1.401711163337086E-31
230
1.0
 40
0.9887737565677319
 41
1.933315002779413
 42
5.096630595737061
  0
ELLIPSE
  5
10A1B
330
1F
100
AcDbEntity
  8
AM_0
100
AcDbEllipse
 10
28.69931570328367
 20
23.34869522459601
 30
0.0
 11
-1.038196664732827
 21
1.445872638007106
 31
8.776077570583742E-32
210
2.875676828436003E-32
220
-4.004889038105965E-32
230
1.0
 40
0.9887737565677319
 41
1.965473956357941
 42
5.107066609947733
  0
ELLIPSE
  5
10A1C
330
1F
100
AcDbEntity
  8
AM_0
100
AcDbEllipse
 10
17.68515470709269
 20
30.21385364357113
 30
0.0
 11
-1.038196664732827
 21
1.445872638007105
 31
8.776077570583741E-32
210
2.875676828436006E-32
220
-4.004889038105963E-32
230
1.0
 40
0.9887737565677321
 41
5.107066609947734
 42
8.071144890556745
  0
LINE
  5
10A1D
330
1F
100
AcDbEntity
  8
AM_0
100
AcDbLine
 10
29.26685608506887
 20
46.3397386833191
 30
0.0
 11
29.26685608506887
 21
47.24999999999992
 31
0.0
  0
LINE
  5
10A1E
330
1F
100
AcDbEntity
  8
AM_0
100
AcDbLine
 10
28.84088900845302
 20
6.540844681232528
 30
0.0
 11
28.84088900845302
 21
6.110582854122953
 31
0.0
  0
LINE
  5
10A1F
330
1F
100
AcDbEntity
  8
AM_0
100
AcDbLine
 10
29.99999999999977
 20
46.99999999999992
 30
0.0
 11
29.99999999999977
 21
46.04694865271577
 31
0.0
  0
LINE
  5
10A20
330
1F
100
AcDbEntity
  8
AM_0
100
AcDbLine
 10
29.99999999999989
 20
7.500146024825114
 30
0.0
 11
29.99999999999989
 21
6.999999999999915
 31
0.0
  0
ARC
  5
10A22
330
1F
100
AcDbEntity
  8
AM_0
100
AcDbCircle
 10
29.99999999999989
 20
5.799999999999926
 30
0.0
 40
1.2
100
AcDbArc
 50
90.0
 51
164.9999999999993
  0
ARC
  5
10A23
330
1F
100
AcDbEntity
  8
AM_0
100
AcDbCircle
 10
29.99999999999966
 20
48.1999999999999
 30
0.0
 40
1.2
100
AcDbArc
 50
232.3415379937914
 51
270.0
  0
LINE
  5
10A24
330
1F
100
AcDbEntity
  8
AM_0
100
AcDbLine
 10
30.14385550906297
 20
9.099874979074656
 30
0.0
 11
30.70747764507723
 21
8.989026586024437
 31
0.0
  0
LINE
  5
10A25
330
1F
100
AcDbEntity
  8
AM_0
100
AcDbLine
 10
29.35612475120479
 20
11.38761121472621
 30
0.0
 11
29.73201997015201
 21
11.82196137625451
 31
0.0
  0
LINE
  5
10A26
330
1F
100
AcDbEntity
  8
AM_0
100
AcDbLine
 10
33.66713597793068
 20
13.17895559935985
 30
0.0
 11
29.73764036880277
 21
11.82592175483669
 31
0.0
  0
LINE
  5
10A27
330
1F
100
AcDbEntity
  8
AM_0
100
AcDbLine
 10
42.61591090379852
 20
13.08740386789
 30
0.0
 11
41.41770949552085
 21
12.6748300367374
 31
0.0
  0
LINE
  5
10A28
330
1F
100
AcDbEntity
  8
AM_0
100
AcDbLine
 10
35.13171732215039
 20
10.51038935452343
 30
0.0
 11
30.71434483217422
 21
8.989366028038575
 31
0.0
  0
ELLIPSE
  5
10A29
330
1F
100
AcDbEntity
  8
AM_0
100
AcDbEllipse
 10
29.75503230450897
 20
10.24547925676879
 30
0.0
 11
0.3943688008780856
 21
-1.145330161326179
 31
1.791687805950833E-31
210
-4.815524794428608E-32
220
1.398529948969808E-31
230
1.0
 40
0.0871557427476631
 41
3.192125761130134
 42
6.232652199639893
  0
ELLIPSE
  5
10A2A
330
1F
100
AcDbEntity
  8
AM_0
100
AcDbEllipse
 10
30.22599260048855
 20
10.40764389143763
 30
0.0
 11
0.4883522316857825
 21
-1.418277863399203
 31
-2.958228394579248E-31
210
6.420699725904808E-32
220
-1.864706598626410E-31
230
1.0
 40
0.0871557427476631
 41
3.141592653590111
 42
6.283185307179905
  0
LINE
  5
10A2B
330
1F
100
AcDbEntity
  8
AM_0
100
AcDbLine
 10
1.783855499645028
 20
-86.37984727403384
 30
0.0
 11
15.62028780419496
 21
-84.61750576907632
 31
0.0
  0
LINE
  5
10A2C
330
1F
100
AcDbEntity
  8
AM_0
100
AcDbLine
 10
1.783855499645028
 20
-86.37984727403384
 30
0.0
 11
1.206122855674494
 21
-81.67328419277143
 31
0.0
  0
LINE
  5
10A2D
330
1F
100
AcDbEntity
  8
AM_0
100
AcDbLine
 10
15.04255516022454
 20
-79.91094268781392
 30
0.0
 11
1.206122855674494
 21
-81.67328419277143
 31
0.0
  0
LINE
  5
10A2E
330
1F
100
AcDbEntity
  8
AM_0
100
AcDbLine
 10
0.4784632658465853
 20
-81.65521995332847
 30
0.0
 11
7.701573354912739
 21
-79.72870190526771
 31
0.0
  0
LINE
  5
10A2F
330
1F
100
AcDbEntity
  8
AM_0
100
AcDbLine
 10
7.701573354912625
 20
-79.72870190526771
 30
0.0
 11
9.801084158736785
 21
-79.46128795431235
 31
0.0
  0
LINE
  5
10A30
330
1F
100
AcDbEntity
  8
AM_0
100
AcDbLine
 10
15.88088585289802
 20
-78.68690575580241
 30
0.0
 11
21.53800565946244
 21
-77.96636040031021
 31
0.0
  0
LINE
  5
10A31
330
1F
100
AcDbEntity
  8
AM_0
100
AcDbLine
 10
15.62028780419496
 20
-84.61750576907632
 30
0.0
 11
16.11249650335662
 21
-84.48622590061869
 31
0.0
  0
LINE
  5
10A32
330
1F
100
AcDbEntity
  8
AM_0
100
AcDbLine
 10
15.04255516022454
 20
-79.91094268781392
 30
0.0
 11
15.62028780419496
 21
-84.61750576907632
 31
0.0
  0
LINE
  5
10A33
330
1F
100
AcDbEntity
  8
AM_0
100
AcDbLine
 10
22.26566524929046
 20
-77.98442463975316
 30
0.0
 11
20.81959627869253
 21
-78.37011417462743
 31
0.0
  0
LINE
  5
10A34
330
1F
100
AcDbEntity
  8
AM_0
100
AcDbLine
 10
15.77800649649453
 20
-79.71478614924207
 30
0.0
 11
15.04255516022454
 21
-79.91094268781392
 31
0.0
  0
LINE
  5
10A35
330
1F
100
AcDbEntity
  8
AM_0
100
AcDbLine
 10
22.26566524929046
 20
-77.98442463975314
 30
0.0
 11
22.29234425818527
 21
-78.20176814564469
 31
0.0
  0
LINE
  5
10A36
330
1F
100
AcDbEntity
  8
AM_0
100
AcDbLine
 10
0.3622175896640556
 20
-81.70672574230748
 30
0.0
 11
0.9399502336344767
 21
-86.41328882356989
 31
0.0
  0
LINE
  5
10A37
330
1F
100
AcDbEntity
  8
AM_0
100
AcDbLine
 10
22.38191092547299
 20
-77.93291885077414
 30
0.0
 11
22.41282904688728
 21
-78.18479675712001
 31
0.0
  0
ELLIPSE
  5
10A38
330
1F
100
AcDbEntity
  8
AM_0
100
AcDbEllipse
 10
1.733990432659539
 20
-86.3158200473778
 30
0.0
 11
0.7940401990249715
 21
0.09746877619209252
 31
4.467372067945237E-18
210
-5.542614071796612E-18
220
-6.803582629021237E-19
230
0.9999999999999999
 40
0.0871504321431959
 41
3.141592653589835
 42
4.764528557756741
  0
ELLIPSE
  5
10A39
330
1F
100
AcDbEntity
  8
AM_0
100
AcDbEllipse
 10
1.156257788689004
 20
-81.6092569661154
 30
0.0
 11
0.7940401990249724
 21
0.09746877619208533
 31
4.467372067940818E-18
210
-5.542614071791136E-18
220
-6.803582629014010E-19
230
1.0
 40
0.0871504321431959
 41
2.582866992763878
 42
4.764528557756774
  0
ELLIPSE
  5
10A3A
330
1F
100
AcDbEntity
  8
AM_0
100
AcDbEllipse
 10
21.58787072644805
 20
-78.03038762696623
 30
0.0
 11
0.7940401990249724
 21
0.09746877619208533
 31
4.467372067940818E-18
210
-5.542614071791136E-18
220
-6.803582629014010E-19
230
1.0
 40
0.0871504321431959
 41
5.724459646353679
 42
7.906121211346584
  0
ELLIPSE
  5
10A3B
330
1F
100
AcDbEntity
  8
AM_0
100
AcDbEllipse
 10
11.37206425756847
 20
-79.81982229654084
 30
0.0
 11
2.560779641855535
 21
0.3143368032194749
 31
-7.089182234447895E-17
210
2.727275035060709E-17
220
3.347741843964673E-18
230
1.0
 40
0.0871504321431959
 41
2.286333138318242
 42
6.746972112313348
  0
LINE
  5
10A3C
330
1F
100
AcDbEntity
  8
AM_0
100
AcDbLine
 10
3.435421720144404
 20
-92.54064863411614
 30
0.0
 11
15.94087163297149
 21
-90.94783388718925
 31
0.0
  0
LINE
  5
10A3D
330
1F
100
AcDbEntity
  8
AM_0
100
AcDbLine
 10
3.435421720144404
 20
-92.54064863411614
 30
0.0
 11
2.665398066432545
 21
-86.26756550806694
 31
0.0
  0
LINE
  5
10A3E
330
1F
100
AcDbEntity
  8
AM_0
100
AcDbLine
 10
15.17084797925975
 20
-84.67475076114005
 30
0.0
 11
15.94087163297149
 21
-90.94783388718926
 31
0.0
  0
LINE
  5
10A3F
330
1F
100
AcDbEntity
  8
AM_0
100
AcDbLine
 10
16.54306070992232
 20
-90.62814682076773
 30
0.0
 11
15.79938827620219
 21
-84.56973683194485
 31
0.0
  0
LINE
  5
10A40
330
1F
100
AcDbEntity
  8
AM_0
100
AcDbLine
 10
1.412001545931844
 20
-86.41924583498475
 30
0.0
 11
2.169563821128577
 21
-92.59081095842024
 31
0.0
  0
ELLIPSE
  5
10A41
330
1F
100
AcDbEntity
  8
AM_0
100
AcDbEllipse
 10
3.360624119665999
 20
-92.44460779413208
 30
0.0
 11
1.191060298537457
 21
0.1462031642881387
 31
1.620546778371789E-17
210
-1.340395090028760E-17
220
-1.645340742186836E-18
230
1.0
 40
0.0871504321431959
 41
3.141592653589805
 42
4.764528557756739
  0
ELLIPSE
  5
10A42
330
1F
100
AcDbEntity
  8
AM_0
100
AcDbEllipse
 10
15.891006565986
 20
-90.88380666053321
 30
0.0
 11
0.7940401990249715
 21
0.09746877619209252
 31
4.467372067945237E-18
210
-5.542614071796612E-18
220
-6.803582629021237E-19
230
0.9999999999999999
 40
0.0871504321431959
 41
4.764528557756721
 42
5.698794011526781
  0
LINE
  5
10A43
330
1F
100
AcDbEntity
  8
AM_0
100
AcDbLine
 10
27.9873035135688
 20
-76.04603573600976
 30
0.0
 11
28.19151133706839
 21
-76.33702587294643
 31
0.0
  0
LINE
  5
10A44
330
1F
100
AcDbEntity
  8
AM_0
100
AcDbLine
 10
22.51685835625608
 20
-77.26277030278527
 30
0.0
 11
27.95850159665679
 21
-75.8113977244261
 31
0.0
  0
LINE
  5
10A45
330
1F
100
AcDbEntity
  8
AM_0
100
AcDbLine
 10
15.92768216577895
 20
-78.47878225114711
 30
0.0
 11
21.79207815395284
 21
-77.41982971351887
 31
0.0
  0
LINE
  5
10A46
330
1F
100
AcDbEntity
  8
AM_0
100
AcDbLine
 10
15.80211561450585
 20
-79.03723117820169
 30
0.0
 11
15.92768216577895
 21
-78.47878225114711
 31
0.0
  0
LINE
  5
10A47
330
1F
100
AcDbEntity
  8
AM_0
100
AcDbLine
 10
12.75049215547142
 20
-79.58827248106512
 30
0.0
 11
15.80211561450585
 21
-79.03723117820171
 31
0.0
  0
LINE
  5
10A48
330
1F
100
AcDbEntity
  8
AM_0
100
AcDbLine
 10
28.15164435828478
 20
-70.85838411524638
 30
0.0
 11
28.81709883016765
 21
-76.27958279998801
 31
0.0
  0
LINE
  5
10A49
330
1F
100
AcDbEntity
  8
AM_0
100
AcDbLine
 10
25.32545866833141
 20
-71.61217267332306
 30
0.0
 11
28.15164435828478
 21
-70.85838411524637
 31
0.0
  0
LINE
  5
10A4A
330
1F
100
AcDbEntity
  8
AM_0
100
AcDbLine
 10
27.95850159665679
 20
-75.8113977244261
 30
0.0
 11
27.9873035135688
 21
-76.04603573600976
 31
0.0
  0
LINE
  5
10A4B
330
1F
100
AcDbEntity
  8
AM_0
100
AcDbLine
 10
26.76902335076534
 20
-76.12865044246985
 30
0.0
 11
27.9873035135688
 21
-76.04603573600976
 31
0.0
  0
LINE
  5
10A4C
330
1F
100
AcDbEntity
  8
AM_0
100
AcDbLine
 10
23.36746893725513
 20
-77.03589896675969
 30
0.0
 11
23.38995544903958
 21
-77.21908782980117
 31
0.0
  0
LINE
  5
10A4D
330
1F
100
AcDbEntity
  8
AM_0
100
AcDbLine
 10
24.89324099853604
 20
-71.18062816432102
 30
0.0
 11
21.79207815395284
 21
-77.41982971351887
 31
0.0
  0
LINE
  5
10A4E
330
1F
100
AcDbEntity
  8
AM_0
100
AcDbLine
 10
22.51685835625608
 20
-77.26277030278527
 30
0.0
 11
25.32545866833141
 21
-71.61217267332306
 31
0.0
  0
ELLIPSE
  5
10A4F
330
1F
100
AcDbEntity
  8
AM_0
100
AcDbEllipse
 10
21.66961520270286
 20
-77.32022403680163
 30
0.0
 11
1.218194226942822
 21
0.2097535894009318
 31
-5.043967528667439E-17
210
4.021307124567141E-17
220
6.924048602481910E-18
230
1.0
 40
0.096562620219357
 41
4.796448369301854
 42
5.464733266673845
  0
ELLIPSE
  5
10A50
330
1F
100
AcDbEntity
  8
AM_0
100
AcDbEllipse
 10
23.91509975489714
 20
-71.35725422337281
 30
0.0
 11
1.003489604680257
 21
0.4266511613181238
 31
-5.521664931181351E-17
210
4.660074045895880E-17
220
1.981312007854270E-17
230
1.0
 40
0.4407515911382676
 41
5.807309125273654
 42
7.378105452068552
  0
ELLIPSE
  5
10A51
330
1F
100
AcDbEntity
  8
AM_0
100
AcDbEllipse
 10
23.5000742711394
 20
-71.84625246639121
 30
0.0
 11
1.682853423060273
 21
0.9636638801729174
 31
3.711415106134484E-17
210
-1.660824072954676E-17
220
-9.510490625604344E-18
230
1.0
 40
0.7549900129634033
 41
5.781608654248452
 42
7.35240498104335
  0
LINE
  5
10A52
330
1F
100
AcDbEntity
  8
AM_0
100
AcDbLine
 10
17.91118403223334
 20
-71.9056253032588
 30
0.0
 11
24.20766228740501
 21
-70.76865030363716
 31
0.0
  0
LINE
  5
10A53
330
1F
100
AcDbEntity
  8
AM_0
100
AcDbLine
 10
12.28617882916683
 20
-79.55297865071449
 30
0.0
 11
14.02586021686375
 21
-74.86346611569263
 31
0.0
  0
ELLIPSE
  5
10A54
330
1F
100
AcDbEntity
  8
AM_0
100
AcDbEllipse
 10
23.86105165730567
 20
-80.47518847886092
 30
0.0
 11
-9.311408113427715
 21
6.606308191460409
 31
2.409265939106820E-16
210
1.721090196054391E-17
220
-1.221088381255667E-17
230
1.0
 40
0.6074423742192189
 41
5.746420819631841
 42
6.444552520429578
  0
ARC
  5
10A55
330
1F
100
AcDbEntity
  8
AM_0
100
AcDbCircle
 10
11.96228908251271
 20
-80.98031821778785
 30
0.0
 40
1.463626594361047
100
AcDbArc
 50
77.21503455926738
 51
115.108861528223
  0
ELLIPSE
  5
10A56
330
1F
100
AcDbEntity
  8
AM_0
100
AcDbEllipse
 10
11.23143673452341
 20
-76.15061519384881
 30
0.0
 11
1.718454910407188
 21
-3.371036803771491
 31
-1.542318582492454E-16
210
1.851232317020767E-17
220
-3.631501900465621E-17
230
0.9999999999999998
 40
0.4287079708261173
 41
5.900623026684604
 42
6.154664191630344
  0
ELLIPSE
  5
10A57
330
1F
100
AcDbEntity
  8
AM_0
100
AcDbEllipse
 10
11.23143673452341
 20
-76.15061519384864
 30
0.0
 11
-1.563914661687238
 21
-3.651173509865819
 31
4.109530525948553E-17
210
4.073649599414597E-18
220
9.510494319307446E-18
230
0.9999999999999999
 40
0.0313135347092902
 41
6.097755117976797
 42
6.2294029350951
  0
LINE
  5
10A58
330
1F
100
AcDbEntity
  8
AM_0
100
AcDbLine
 10
13.18543819303477
 20
-74.68368137363429
 30
0.0
 11
11.34121454110823
 21
-79.65499968183505
 31
0.0
  0
ELLIPSE
  5
10A59
330
1F
100
AcDbEntity
  8
AM_0
100
AcDbEllipse
 10
11.44819599673906
 20
-77.91646857207327
 30
0.0
 11
-1.607207104869438
 21
-1.697492594893525
 31
4.719917868569469E-17
210
1.388187860096386E-17
220
1.466169858069493E-17
230
1.0
 40
0.5826174125036921
 41
0.1643525641867705
 42
0.9624484200327416
  0
ELLIPSE
  5
10A5A
330
1F
100
AcDbEntity
  8
AM_0
100
AcDbEllipse
 10
23.44602617354781
 20
-80.96418672187932
 30
0.0
 11
-9.483437735369225
 21
7.647195586004074
 31
-1.172485918919356E-16
210
-7.491953543944281E-18
220
6.041314939847357E-18
230
1.0
 40
0.6283443344541779
 41
5.789178735044155
 42
6.487310435841892
  0
LINE
  5
10A5B
330
1F
100
AcDbEntity
  8
AM_0
100
AcDbLine
 10
12.46508259275618
 20
-74.73253053680786
 30
0.0
 11
13.18543819303477
 21
-74.6836813736343
 31
0.0
  0
LINE
  5
10A5C
330
1F
100
AcDbEntity
  8
AM_0
100
AcDbLine
 10
23.46842278121267
 20
-69.68045890071404
 30
0.0
 11
26.69872102166187
 21
-69.46140408141932
 31
0.0
  0
LINE
  5
10A5D
330
1F
100
AcDbEntity
  8
AM_0
100
AcDbLine
 10
26.69872102166187
 20
-69.46140408141932
 30
0.0
 11
23.67126439945173
 21
-70.26887479008784
 31
0.0
  0
LINE
  5
10A5E
330
1F
100
AcDbEntity
  8
AM_0
100
AcDbLine
 10
23.67126439945173
 20
-70.26887479008784
 30
0.0
 11
22.64252008379958
 21
-70.45463840595336
 31
0.0
  0
LINE
  5
10A5F
330
1F
100
AcDbEntity
  8
AM_0
100
AcDbLine
 10
23.43075500507541
 20
-70.24876273316106
 30
0.0
 11
22.91360147056446
 21
-70.38669578493079
 31
0.0
  0
LINE
  5
10A60
330
1F
100
AcDbEntity
  8
AM_0
100
AcDbLine
 10
20.23798725398888
 20
-70.88883250660298
 30
0.0
 11
17.37478614428005
 21
-71.40584978970946
 31
0.0
  0
LINE
  5
10A61
330
1F
100
AcDbEntity
  8
AM_0
100
AcDbLine
 10
17.37478614428005
 20
-71.40584978970948
 30
0.0
 11
14.3562173590243
 21
-71.61054669091293
 31
0.0
  0
ARC
  5
10A62
330
1F
100
AcDbEntity
  8
AM_0
100
AcDbCircle
 10
19.03743157227495
 20
-57.36509539168158
 30
0.0
 40
13.57692157664609
100
AcDbArc
 50
275.0730744076707
 51
285.3984851716621
  0
ELLIPSE
  5
10A63
330
1F
100
AcDbEntity
  8
AM_0
100
AcDbEllipse
 10
15.02764273560763
 20
-72.42078980655482
 30
0.0
 11
-0.1802259564584929
 21
-1.57647212256888
 31
3.000190534818712E-17
210
2.147604494981968E-18
220
1.878552170381972E-17
230
1.0
 40
0.4529894751229017
 41
3.245014181931679
 42
3.317781466471983
  0
LINE
  5
10A64
330
1F
100
AcDbEntity
  8
AM_0
100
AcDbLine
 10
10.02445888707734
 20
-79.74429226424651
 30
0.0
 11
12.46508259275618
 21
-74.73253053680784
 31
0.0
  0
SPLINE
  5
10A65
330
1F
100
AcDbEntity
  8
AM_0
100
AcDbSpline
210
0.0
220
0.0
230
1.0
 70
     8
 71
     3
 72
    14
 73
    10
 74
     0
 42
0.0000000001
 43
0.0000000001
 40
-2.664546665281592
 40
-2.664546665281592
 40
-2.664546665281592
 40
-2.664546665281592
 40
-2.638080451239741
 40
-2.638080451239741
 40
-2.201983172992293
 40
-2.201983172992293
 40
-1.765885894744844
 40
-1.765885894744844
 40
-1.717671851544119
 40
-1.717671851544119
 40
-1.717671851544119
 40
-1.717671851544119
 10
9.673253057056627
 20
-79.73016785747954
 30
0.0
 10
9.673982405197194
 20
-79.72717822262727
 30
0.0
 10
9.67477652715445
 20
-79.72433695418451
 30
0.0
 10
9.689670760965555
 20
-79.67717806922495
 30
0.0
 10
9.724466336123214
 20
-79.65885749377429
 30
0.0
 10
9.836064955885377
 20
-79.66451395707193
 30
0.0
 10
9.913009742427221
 20
-79.68938125038589
 30
0.0
 10
10.00542780452668
 20
-79.7345252453344
 30
0.0
 10
10.01484372126424
 20
-79.73927722649907
 30
0.0
 10
10.02445888707734
 20
-79.74429226424651
 30
0.0
  0
LINE
  5
10A66
330
1F
100
AcDbEntity
  8
AM_0
100
AcDbLine
 10
14.35621735902419
 20
-71.61054669091293
 30
0.0
 11
14.73938038300423
 21
-71.26170715929408
 31
0.0
  0
LINE
  5
10A67
330
1F
100
AcDbEntity
  8
AM_0
100
AcDbLine
 10
15.06116290369585
 20
-70.96874970574024
 30
0.0
 11
15.12963414933688
 21
-70.90641206937154
 31
0.0
  0
SPLINE
  5
10A68
330
1F
100
AcDbEntity
  8
AM_0
100
AcDbSpline
210
0.0
220
0.0
230
1.0
 70
     8
 71
     3
 72
    18
 73
    14
 74
     0
 42
0.0000000001
 43
0.0000000001
 40
9.28033164244842
 40
9.28033164244842
 40
9.28033164244842
 40
9.28033164244842
 40
9.31735987719081
 40
9.31735987719081
 40
10.01296202430315
 40
10.01296202430315
 40
10.70856417141549
 40
10.70856417141549
 40
11.40416631852782
 40
11.40416631852782
 40
12.09976846564016
 40
12.09976846564016
 40
12.13679670038255
 40
12.13679670038255
 40
12.13679670038255
 40
12.13679670038255
 10
14.73938038300423
 20
-71.26170715929408
 30
0.0
 10
14.73662638355415
 20
-71.260939606788
 30
0.0
 10
14.73392730714284
 20
-71.26018965506574
 30
0.0
 10
14.68161491503133
 20
-71.24566433525177
 30
0.0
 10
14.65166851052993
 20
-71.23703115781891
 30
0.0
 10
14.63089096576573
 20
-71.21154528130913
 30
0.0
 10
14.64004703769592
 20
-71.1944824896302
 30
0.0
 10
14.6913545809274
 20
-71.14777104246738
 30
0.0
 10
14.73525502615962
 20
-71.11653008499019
 30
0.0
 10
14.86181089069805
 20
-71.04571319422814
 30
0.0
 10
14.94448091778611
 20
-71.00634569660276
 30
0.0
 10
15.05031597678044
 20
-70.97214287492638
 30
0.0
 10
15.05571478416425
 20
-70.97043493580587
 30
0.0
 10
15.06116290369585
 20
-70.96874970574024
 30
0.0
  0
ELLIPSE
  5
10A69
330
1F
100
AcDbEntity
  8
AM_0
100
AcDbEllipse
 10
10.71242541366587
 20
-81.82768489009773
 30
0.0
 11
3.843685340662765
 21
10.27275226689057
 31
7.487954424394464E-16
210
-2.392397151440645E-17
220
-6.393994586592960E-17
230
1.0
 40
0.1027567096355684
 41
0.1493734808899057
 42
0.847505181687642
  0
LINE
  5
10A6A
330
1F
100
AcDbEntity
  8
AM_0
100
AcDbLine
 10
28.36960500112696
 20
-70.76181076091073
 30
0.0
 11
29.04370915711991
 21
-76.25347505690357
 31
0.0
  0
LINE
  5
10A6B
330
1F
100
AcDbEntity
  8
AM_0
100
AcDbLine
 10
23.46445582887793
 20
-69.67278945403008
 30
0.0
 11
26.77929385163884
 21
-69.4480017749933
 31
0.0
  0
LINE
  5
10A6C
330
1F
100
AcDbEntity
  8
AM_0
100
AcDbLine
 10
9.663637336893657
 20
-79.79387684284063
 30
0.0
 11
9.7128105966367
 21
-80.19447225891572
 31
0.0
  0
LINE
  5
10A6D
330
1F
100
AcDbEntity
  8
AM_0
100
AcDbLine
 10
13.64851687205101
 20
-79.42611331678077
 30
0.0
 11
13.67459041048278
 21
-79.63852429037117
 31
0.0
  0
LINE
  5
10A6E
330
1F
100
AcDbEntity
  8
AM_0
100
AcDbLine
 10
15.07990765991008
 20
-70.85441343638291
 30
0.0
 11
15.13355879515541
 21
-70.8401038274922
 31
0.0
  0
ARC
  5
10A6F
330
1F
100
AcDbEntity
  8
AM_0
100
AcDbCircle
 10
15.35072023222813
 20
-71.85870204325383
 30
0.0
 40
1.040161071765486
100
AcDbArc
 50
105.0912095776081
 51
132.5750039619283
  0
LINE
  5
10A70
330
1F
100
AcDbEntity
  8
AM_0
100
AcDbLine
 10
9.681335558452929
 20
-79.70718880761514
 30
0.0
 11
11.99141837588729
 21
-74.96348963568106
 31
0.0
  0
LINE
  5
10A71
330
1F
100
AcDbEntity
  8
AM_0
100
AcDbLine
 10
13.80437878929615
 20
-71.8598699862671
 30
0.0
 11
14.64699429419204
 21
-71.09273542560563
 31
0.0
  0
ARC
  5
10A72
330
1F
100
AcDbEntity
  8
AM_0
100
AcDbCircle
 10
24.28382789307852
 20
-80.06270069675905
 30
0.0
 40
13.30809096691765
100
AcDbArc
 50
141.9477947410797
 51
157.470055257287
  0
ELLIPSE
  5
10A73
330
1F
100
AcDbEntity
  8
AM_0
100
AcDbEllipse
 10
26.88077962795501
 20
-70.94456471627092
 30
0.0
 11
-0.3865605449764055
 21
1.449334655994794
 31
-1.641625467349173E-17
210
-2.820389490247292E-18
220
1.057450969774579E-17
230
0.9999999999999999
 40
0.8447050934926187
 41
4.548833366109324
 42
6.119629692904213
  0
ELLIPSE
  5
10A74
330
1F
100
AcDbEntity
  8
AM_0
100
AcDbEllipse
 10
26.88077962795501
 20
-70.94456471627092
 30
0.0
 11
-0.1014857763161695
 21
1.496562941277615
 31
6.248253890114268E-19
210
2.818261762927880E-20
220
-4.155957875394980E-19
230
1.0
 40
0.5280891091519308
 41
0.000000000000002
 42
0.102808857262356
  0
ELLIPSE
  5
10A75
330
1F
100
AcDbEntity
  8
AM_0
100
AcDbEllipse
 10
26.88077962795501
 20
-70.94456471627092
 30
0.0
 11
1.488825373171821
 21
0.1827539553601733
 31
2.025683472964735E-17
210
-1.340395090028761E-17
220
-1.645340742186837E-18
230
1.0
 40
0.0871504321431959
 41
5.724459646353674
 42
6.283185307179591
  0
ELLIPSE
  5
10A76
330
1F
100
AcDbEntity
  8
AM_0
100
AcDbEllipse
 10
24.4782155147783
 20
-71.66962640733942
 30
0.0
 11
-0.8954832092419859
 21
0.4450952953758091
 31
5.588208115978586E-17
210
5.004146537608591E-17
220
-2.487285142002971E-17
230
1.0
 40
0.6301323084335567
 41
3.889491277917168
 42
4.557776175289173
  0
ELLIPSE
  5
10A77
330
1F
100
AcDbEntity
  8
AM_0
100
AcDbEllipse
 10
23.79263680364727
 20
-71.25764854665556
 30
0.0
 11
-0.1776993114363349
 21
0.9840848310562712
 31
-4.939922961078003E-18
210
-8.778209087321038E-19
220
4.861303252583455E-18
230
1.0
 40
0.542382702627899
 41
5.132066535134547
 42
6.179264086331143
  0
ELLIPSE
  5
10A78
330
1F
100
AcDbEntity
  8
AM_0
100
AcDbEllipse
 10
17.49615854847548
 20
-72.39462354627722
 30
0.0
 11
-0.1776993114363373
 21
0.9840848310562722
 31
-4.939922961069431E-18
210
-8.778209087305902E-19
220
4.861303252575009E-18
230
1.0
 40
0.5423827026279
 41
5.132066535134547
 42
6.179264086331126
  0
ELLIPSE
  5
10A79
330
1F
100
AcDbEntity
  8
AM_0
100
AcDbEllipse
 10
13.610834733106
 20
-75.35246435871103
 30
0.0
 11
-0.9375646855513981
 21
0.3478109549840512
 31
-6.475687355818943E-17
210
-6.071375779487496E-17
220
2.252315003405511E-17
230
1.0
 40
0.6178203249740372
 41
4.491564362497036
 42
5.395806635604627
  0
ELLIPSE
  5
10A7A
330
1F
100
AcDbEntity
  8
AM_0
100
AcDbEllipse
 10
19.6181608140862
 20
-70.50730453623467
 30
0.0
 11
4.466476119515468
 21
0.5482618660804799
 31
-2.975601839963339E-17
210
6.563187436732116E-18
220
8.056340827115106E-19
230
0.9999999999999999
 40
0.0871504321431959
 41
5.724459646353696
 42
6.774423184573304
  0
ELLIPSE
  5
10A7B
330
1F
100
AcDbEntity
  8
AM_0
100
AcDbEllipse
 10
19.10100727957524
 20
-70.64523758800441
 30
0.0
 11
4.466476119515468
 21
0.5482618660804799
 31
-2.975601839963339E-17
210
6.563187436732116E-18
220
8.056340827115106E-19
230
0.9999999999999999
 40
0.0871504321431959
 41
2.65560498405418
 42
2.69013980178623
  0
ELLIPSE
  5
10A7C
330
1F
100
AcDbEntity
  8
AM_0
100
AcDbEllipse
 10
19.10100727957524
 20
-70.64523758800441
 30
0.0
 11
4.466476119515468
 21
0.5482618660804799
 31
-2.975601839963339E-17
210
6.563187436732116E-18
220
8.056340827115106E-19
230
0.9999999999999999
 40
0.0871504321431959
 41
5.617186837331513
 42
5.724459646353696
  0
ELLIPSE
  5
10A7D
330
1F
100
AcDbEntity
  8
AM_0
100
AcDbEllipse
 10
19.10100727957524
 20
-70.64523758800441
 30
0.0
 11
4.466476119515468
 21
0.5482618660804799
 31
-2.975601839963339E-17
210
6.563187436732116E-18
220
8.056340827115106E-19
230
0.9999999999999999
 40
0.0871504321431959
 41
3.348258809738747
 42
4.959067829378718
  0
ELLIPSE
  5
10A7E
330
1F
100
AcDbEntity
  8
AM_0
100
AcDbEllipse
 10
15.3202052681155
 20
-71.83218588681918
 30
0.0
 11
-0.6732109739236082
 21
0.7394504612134794
 31
5.248918500334039E-18
210
3.533629535655521E-18
220
-3.881315205943968E-18
230
1.0
 40
0.9887429053358658
 41
5.72906429275942
 42
6.283185307179473
  0
ELLIPSE
  5
10A7F
330
1F
100
AcDbEntity
  8
AM_0
100
AcDbEllipse
 10
12.8904791328273
 20
-75.4013135218846
 30
0.0
 11
-0.8990607569400463
 21
0.4378238862035586
 31
-1.252465307038743E-17
210
-1.126042406987405E-17
220
5.483592280628379E-18
230
1.0
 40
0.5626931898652282
 41
5.453714943793272
 42
6.28318530717956
  0
ELLIPSE
  5
10A80
330
1F
100
AcDbEntity
  8
AM_0
100
AcDbEllipse
 10
14.47758976321973
 20
-72.59932044748065
 30
0.0
 11
-0.6732109739236099
 21
0.7394504612134777
 31
5.248918500334037E-18
210
3.533629535655530E-18
220
-3.881315205943959E-18
230
1.0
 40
0.9887429053358656
 41
5.661431951354117
 42
6.283185307179472
  0
ARC
  5
10A81
330
1F
100
AcDbEntity
  8
AM_0
100
AcDbCircle
 10
26.88077962795501
 20
-70.94456471627092
 30
0.0
 40
1.5
100
AcDbArc
 50
6.998073502622191
 51
93.87943463849167
  0
LINE
  5
10A82
330
1F
100
AcDbEntity
  8
AM_0
100
AcDbLine
 10
21.4448947315293
 20
-68.62117683878287
 30
0.0
 11
20.25057980208032
 21
-68.93971957706049
 31
0.0
  0
LINE
  5
10A83
330
1F
100
AcDbEntity
  8
AM_0
100
AcDbLine
 10
20.25057980208032
 20
-68.93971957706049
 30
0.0
 11
17.95893603024956
 21
-69.21389841423201
 31
0.0
  0
LINE
  5
10A84
330
1F
100
AcDbEntity
  8
AM_0
100
AcDbLine
 10
17.95893603024956
 20
-69.21389841423202
 30
0.0
 11
16.86160718786778
 21
-69.16953451312592
 31
0.0
  0
LINE
  5
10A85
330
1F
100
AcDbEntity
  8
AM_0
100
AcDbLine
 10
16.86160718786766
 20
-69.16953451312592
 30
0.0
 11
18.05592211731664
 21
-68.85099177484831
 31
0.0
  0
LINE
  5
10A86
330
1F
100
AcDbEntity
  8
AM_0
100
AcDbLine
 10
18.05592211731664
 20
-68.8509917748483
 30
0.0
 11
18.09842056382422
 21
-69.19721008435761
 31
0.0
  0
LINE
  5
10A87
330
1F
100
AcDbEntity
  8
AM_0
100
AcDbLine
 10
18.05592211731664
 20
-68.8509917748483
 30
0.0
 11
20.3475658891474
 21
-68.57681293767678
 31
0.0
  0
LINE
  5
10A88
330
1F
100
AcDbEntity
  8
AM_0
100
AcDbLine
 10
20.3475658891474
 20
-68.57681293767676
 30
0.0
 11
20.38762601268559
 21
-68.90316717859309
 31
0.0
  0
LINE
  5
10A89
330
1F
100
AcDbEntity
  8
AM_0
100
AcDbLine
 10
20.3475658891474
 20
-68.57681293767678
 30
0.0
 11
21.4448947315293
 21
-68.62117683878287
 31
0.0
  0
LINE
  5
10A8A
330
1F
100
AcDbEntity
  8
AM_0
100
AcDbLine
 10
22.71077854706357
 20
-77.35775713139731
 30
0.0
 11
22.69334092421116
 21
-77.2156996021949
 31
0.0
  0
ARC
  5
10A8B
330
1F
100
AcDbEntity
  8
AM_0
100
AcDbCircle
 10
20.47753537897927
 20
-79.68378562175593
 30
0.0
 40
11.09856154644266
100
AcDbArc
 50
79.80707532463451
 51
114.1890716806106
  0
LINE
  5
10A8C
330
1F
100
AcDbEntity
  8
AM_0
100
AcDbLine
 10
15.13690200353824
 20
-71.0586892452735
 30
0.0
 11
15.16794424938871
 21
-71.31157834510937
 31
0.0
  0
LINE
  5
10A8D
330
1F
100
AcDbEntity
  8
AM_0
100
AcDbLine
 10
23.5735791181786
 20
-70.02308349823251
 30
0.0
 11
23.59561798040227
 21
-70.20262553446253
 31
0.0
  0
LINE
  5
10A8E
330
1F
100
AcDbEntity
  8
AM_0
100
AcDbLine
 10
15.92991029550285
 20
-69.55969679854266
 30
0.0
 11
15.35317279804508
 21
-70.29204219850281
 31
0.0
  0
LINE
  5
10A8F
330
1F
100
AcDbEntity
  8
AM_0
100
AcDbLine
 10
22.44157237790228
 20
-68.76038747525237
 30
0.0
 11
23.17831028985324
 21
-69.33150320337637
 31
0.0
  0
ARC
  5
10A90
330
1F
100
AcDbEntity
  8
AM_0
100
AcDbCircle
 10
22.54684303965178
 20
-70.15116174450112
 30
0.0
 40
1.034693680330465
100
AcDbArc
 50
7.110523327816978
 51
52.38924250710181
  0
ARC
  5
10A91
330
1F
100
AcDbEntity
  8
AM_0
100
AcDbCircle
 10
16.16413290884134
 20
-70.93464216023199
 30
0.0
 40
1.034693680331002
100
AcDbArc
 50
141.6069044981551
 51
186.8856236774153
  0
ELLIPSE
  5
10A92
330
1F
100
AcDbEntity
  8
AM_0
100
AcDbEllipse
 10
19.15325095969843
 20
-68.89535567595439
 30
0.0
 11
2.566522971961676
 21
0.3150417994619829
 31
-9.993813883389031E-17
210
3.836110481472863E-17
220
4.708842126959281E-18
230
0.9999999999999999
 40
0.0871504321431959
 41
2.18818936320087
 42
8.471374670380452
  0
ELLIPSE
  5
10A93
330
1F
100
AcDbEntity
  8
AM_0
100
AcDbEllipse
 10
19.1888001138384
 20
-69.18496080419378
 30
0.0
 11
3.268361983543265
 21
0.4011928402112344
 31
1.707656349755034E-16
210
-5.147250828233429E-17
220
-6.318272545869799E-18
230
1.0
 40
0.0871504321431959
 41
3.053997385982664
 42
6.370780574786712
  0
ELLIPSE
  5
10A94
330
1F
100
AcDbEntity
  8
AM_0
100
AcDbEllipse
 10
19.26941731080285
 20
-69.84171774342467
 30
0.0
 11
3.927627320120542
 21
0.4821179440295683
 31
-1.434659542279711E-16
210
3.598517210544138E-17
220
4.417195364272269E-18
230
1.0
 40
0.0871504321431958
 41
3.053997385982699
 42
6.370780574786743
  0
ELLIPSE
  5
10A95
330
1F
100
AcDbEntity
  8
AM_0
100
AcDbEllipse
 10
19.35524056085842
 20
-70.540886371753
 30
0.0
 11
4.21833855732016
 21
0.5178028735204913
 31
-1.321398871175972E-17
210
3.086011243117472E-18
220
3.788092083386306E-19
230
0.9999999999999999
 40
0.0871504321431959
 41
3.1415926535898
 42
6.283185307179585
  0
LINE
  5
10A97
330
1F
100
AcDbEntity
  8
AM_0
100
AcDbLine
 10
43.6987746955997
 20
-62.75242794742758
 30
0.0
 11
43.69877469559981
 21
-75.60727233807387
 31
0.0
  0
LINE
  5
10A98
330
1F
100
AcDbEntity
  8
AM_0
100
AcDbLine
 10
41.02556961484299
 20
-87.94673237704562
 30
0.0
 11
41.02556961484299
 21
-100.8015767676919
 31
0.0
  0
LINE
  5
10A9B
330
1F
100
AcDbEntity
  8
AM_0
100
AcDbLine
 10
43.69877469559992
 20
-87.94673237704561
 30
0.0
 11
43.69877469559992
 21
-100.8015767676919
 31
0.0
  0
LINE
  5
10AB1
330
1F
100
AcDbEntity
  8
AM_0
100
AcDbLine
 10
23.55170286479824
 20
-76.98676085559977
 30
0.0
 11
23.57494945012422
 21
-77.17614174207442
 31
0.0
  0
LINE
  5
10AB2
330
1F
100
AcDbEntity
  8
AM_0
100
AcDbLine
 10
29.53671151420804
 20
-76.18767404733765
 30
0.0
 11
29.03976861843023
 21
-76.22137302128108
 31
0.0
  0
LINE
  5
10AB3
330
1F
100
AcDbEntity
  8
AM_0
100
AcDbLine
 10
29.88228062572512
 20
-76.13345404288063
 30
0.0
 11
29.98202114993478
 21
-75.84951345277581
 31
0.0
  0
LINE
  5
10AB4
330
1F
100
AcDbEntity
  8
AM_0
100
AcDbLine
 10
19.99549652399583
 20
-78.16282924512326
 30
0.0
 11
19.9833592830704
 21
-78.06395186534512
 31
0.0
  0
LINE
  5
10AB5
330
1F
100
AcDbEntity
  8
AM_0
100
AcDbLine
 10
8.425534158831511
 20
-79.53606797700989
 30
0.0
 11
8.427729740759332
 21
-79.63621162238989
 31
0.0
  0
ELLIPSE
  5
10AB6
330
1F
100
AcDbEntity
  8
AM_0
100
AcDbEllipse
 10
17.32834842985142
 20
-81.77700235755988
 30
0.0
 11
1.610867629932944E-13
 21
-31.5
 31
0.0
210
0.0
220
0.0
230
1.0
 40
0.6122296864254048
 41
5.407100702784092
 42
5.410611453747251
  0
SPLINE
  5
10AB7
330
1F
100
AcDbEntity
  8
AM_0
100
AcDbSpline
210
0.0
220
0.0
230
1.0
 70
     8
 71
     3
 72
    23
 73
    19
 74
     0
 42
0.0000000001
 43
0.0000000001
 40
-2.845918384076035
 40
-2.845918384076035
 40
-2.845918384076035
 40
-2.845918384076035
 40
-2.603032354996012
 40
-2.603032354996012
 40
-2.047460505828885
 40
-2.047460505828885
 40
-1.469702516709894
 40
-1.469702516709894
 40
-0.891944527590903
 40
-0.891944527590903
 40
-0.4459722637954515
 40
-0.4459722637954515
 40
-0.2229861318977253
 40
-0.2229861318977253
 40
0.0
 40
0.0
 40
0.0
 40
0.0524171277718705
 40
0.0524171277718705
 40
0.0524171277718705
 40
0.0524171277718705
 10
2.512692595994167
 20
-101.9421683653292
 30
0.0
 10
2.481401460090183
 20
-101.8808329035339
 30
0.0
 10
2.455253348576434
 20
-101.8166593309853
 30
0.0
 10
2.386157123616499
 20
-101.601203918673
 30
0.0
 10
2.365549677267154
 20
-101.4438694701312
 30
0.0
 10
2.365549677267154
 20
-101.1473849852161
 30
0.0
 10
2.387817642375467
 20
-100.9815941304577
 30
0.0
 10
2.485439073679913
 20
-100.6589006201145
 30
0.0
 10
2.560556789195516
 20
-100.5019720070474
 30
0.0
 10
2.734001329722105
 20
-100.2647357265075
 30
0.0
 10
2.834386241475045
 20
-100.1607867833705
 30
0.0
 10
3.015420570401375
 20
-100.0466864490135
 30
0.0
 10
3.080785055892761
 20
-100.0154827109395
 30
0.0
 10
3.218685639594469
 20
-99.97248675400118
 30
0.0
 10
3.291220966634569
 20
-99.9606959025119
 30
0.0
 10
3.365549677267154
 20
-99.9606959025119
 30
0.0
 10
3.383022053191098
 20
-99.9606959025119
 30
0.0
 10
3.400482410308086
 20
-99.96134438252682
 30
0.0
 10
3.417885633510082
 20
-99.96263433211237
 30
0.0
  0
LINE
  5
10AB8
330
1F
100
AcDbEntity
  8
AM_0
100
AcDbLine
 10
26.35996405668868
 20
-102.0270023575598
 30
0.0
 11
2.556126535826024
 21
-102.0270023575599
 31
0.0
  0
LINE
  5
10ABB
330
1F
100
AcDbEntity
  8
AM_0
100
AcDbLine
 10
41.02556961484277
 20
-62.75242794742759
 30
0.0
 11
41.02556961484288
 21
-75.60727233807388
 31
0.0
  0
ELLIPSE
  5
10ABD
330
1F
100
AcDbEntity
  8
AM_0
100
AcDbEllipse
 10
42.36217215522152
 20
-71.48843167492616
 30
0.0
 11
1.25
 21
6.373536024199233E-15
 31
0.0
210
0.0
220
0.0
230
1.0
 40
0.7180150430616906
 41
3.674298662736799
 42
5.750479298032133
  0
ARC
  5
10ABE
330
1F
100
AcDbEntity
  8
AM_0
100
AcDbCircle
 10
41.79441820213049
 20
-71.48843167492618
 30
0.0
 40
0.6832965178142346
100
AcDbArc
 50
138.157221008116
 51
221.8427789918839
  0
ELLIPSE
  5
10ABF
330
1F
100
AcDbEntity
  8
AM_0
100
AcDbEllipse
 10
42.36217215522152
 20
-71.48843167492616
 30
0.0
 11
1.25
 21
6.373536024199233E-15
 31
0.0
210
0.0
220
0.0
230
1.0
 40
0.7180150430616906
 41
0.532706009147452
 42
2.60888664444279
  0
ARC
  5
10AC0
330
1F
100
AcDbEntity
  8
AM_0
100
AcDbCircle
 10
42.92992610831232
 20
-71.48843167492616
 30
0.0
 40
0.6832965178144003
100
AcDbArc
 50
318.1572210080885
 51
41.84277899191155
  0
SPLINE
  5
10AC1
330
1F
100
AcDbEntity
  8
AM_0
100
AcDbSpline
210
0.0
220
0.0
230
1.0
 70
     8
 71
     3
 72
    18
 73
    14
 74
     0
 42
0.0000000001
 43
0.0000000001
 40
0.2929971660687205
 40
0.2929971660687205
 40
0.2929971660687205
 40
0.2929971660687205
 40
0.516281956052971
 40
0.516281956052971
 40
0.7744229340794565
 40
0.7744229340794565
 40
1.032563912105942
 40
1.032563912105942
 40
1.502769891248452
 40
1.502769891248452
 40
1.737872880819707
 40
1.737872880819707
 40
1.77606400182231
 40
1.77606400182231
 40
1.77606400182231
 40
1.77606400182231
 10
42.31808098295755
 20
-71.49530413605817
 30
0.0
 10
42.39197552522421
 20
-71.48846715017619
 30
0.0
 10
42.46617964612574
 20
-71.48245223038629
 30
0.0
 10
42.62328530657305
 20
-71.47532931474231
 30
0.0
 10
42.70600836155779
 20
-71.47520374495174
 30
0.0
 10
42.86395402345681
 20
-71.48628561149482
 30
0.0
 10
42.93916495954773
 20
-71.4975307210596
 30
0.0
 10
43.13418389759374
 20
-71.54584599924745
 30
0.0
 10
43.25668512182301
 20
-71.6018041038475
 30
0.0
 10
43.40392544503675
 20
-71.72737128788509
 30
0.0
 10
43.44716286550874
 20
-71.77596763514181
 30
0.0
 10
43.48883007656195
 20
-71.83863916747431
 30
0.0
 10
43.49445745789353
 20
-71.84753765311469
 30
0.0
 10
43.49989378278815
 20
-71.85655963534113
 30
0.0
  0
SPLINE
  5
10AC2
330
1F
100
AcDbEntity
  8
AM_0
100
AcDbSpline
210
0.0
220
0.0
230
1.0
 70
     8
 71
     3
 72
    12
 73
     8
 74
     0
 42
0.0000000001
 43
0.0000000001
 40
6.859989230701785
 40
6.859989230701785
 40
6.859989230701785
 40
6.859989230701785
 40
7.141686036735525
 40
7.141686036735525
 40
7.701516918135062
 40
7.701516918135062
 40
7.950372224189619
 40
7.950372224189619
 40
7.950372224189619
 40
7.950372224189619
 10
41.17649234893327
 20
-71.76071237092243
 30
0.0
 10
41.20384208868029
 20
-71.72228214862541
 30
0.0
 10
41.23813029007158
 20
-71.69093167690059
 30
0.0
 10
41.3528771486674
 20
-71.6171032883488
 30
0.0
 10
41.4566695455311
 20
-71.58654595968029
 30
0.0
 10
41.63904129757111
 20
-71.55900072031817
 30
0.0
 10
41.69956742464103
 20
-71.5525381602606
 30
0.0
 10
41.76477897348696
 20
-71.54650107135275
 30
0.0
  0
ELLIPSE
  5
10AC3
330
1F
100
AcDbEntity
  8
AM_0
100
AcDbEllipse
 10
494.1900589184442
 20
-81.77700235755744
 30
0.0
 11
601.0558056636188
 21
3.066003523230570E-12
 31
1.650090353567667E-15
210
-2.745319715772183E-18
220
-1.400395743895789E-32
230
1.0
 40
0.0524077792830255
 41
3.757037311471413
 42
3.820360041369147
  0
LINE
  5
10AC4
330
1F
100
AcDbEntity
  8
AM_0
100
AcDbLine
 10
3.417885633510082
 20
-99.96263433211237
 30
0.0
 11
3.417885633510082
 21
-92.54287072340131
 31
0.0
  0
LINE
  5
10AC5
330
1F
100
AcDbEntity
  8
AM_0
100
AcDbLine
 10
16.45330009905615
 20
-90.86491387996531
 30
0.0
 11
16.55871741610633
 21
-90.85148691345475
 31
0.0
  0
LINE
  5
10AC6
330
1F
100
AcDbEntity
  8
AM_0
100
AcDbLine
 10
16.55871741557951
 20
-90.85148690930637
 30
0.0
 11
15.77097939521707
 21
-79.61454581415261
 31
0.0
  0
LINE
  5
10AC7
330
1F
100
AcDbEntity
  8
AM_0
100
AcDbLine
 10
26.3599640566888
 20
-102.0270023575598
 30
0.0
 11
29.20306116367465
 21
-102.0270023575598
 31
0.0
  0
SPLINE
  5
10AC8
330
1F
100
AcDbEntity
  8
AM_0
100
AcDbSpline
210
0.0
220
0.0
230
1.0
 70
    12
 71
     2
 72
     6
 73
     3
 74
     0
 42
0.0000000001
 43
0.0000000001
 40
26.82280424226186
 40
26.82280424226186
 40
26.82280424226186
 40
54.81092990551337
 40
54.81092990551337
 40
54.81092990551337
 10
28.17995173851693
 20
-78.03401938124576
 30
0.0
 41
1.315669541686535
 10
28.604815878485
 20
-88.35549647193953
 30
0.0
 41
1.360184134212708
 10
26.35996405668868
 20
-101.5537765375698
 30
0.0
 41
1.153901800771741
  0
LINE
  5
10AC9
330
1F
100
AcDbEntity
  8
AM_0
100
AcDbLine
 10
20.28153243046677
 20
-78.41150976430781
 30
0.0
 11
15.77097939521707
 21
-79.61454581415261
 31
0.0
  0
LINE
  5
10ACA
330
1F
100
AcDbEntity
  8
AM_0
100
AcDbLine
 10
8.425534158831624
 20
-79.53606797700984
 30
0.0
 11
9.853222144751385
 21
-79.35422386153736
 31
0.0
  0
LINE
  5
10ACB
330
1F
100
AcDbEntity
  8
AM_0
100
AcDbLine
 10
15.90413164088113
 20
-78.58352165210555
 30
0.0
 11
19.98335928307017
 21
-78.06395186534516
 31
0.0
  0
LINE
  5
10ACC
330
1F
100
AcDbEntity
  8
AM_0
100
AcDbLine
 10
8.425534158831624
 20
-79.53606797700984
 30
0.0
 11
10.14229545580213
 21
-78.76061881157538
 31
0.0
  0
LINE
  5
10ACD
330
1F
100
AcDbEntity
  8
AM_0
100
AcDbLine
 10
29.47200616978853
 20
-75.77700235755988
 30
0.0
 11
28.98522192819746
 21
-75.77700235755988
 31
0.0
  0
ARC
  5
10ACE
330
1F
100
AcDbEntity
  8
AM_0
100
AcDbCircle
 10
29.4720061697883
 20
-71.77700235755989
 30
0.0
 40
4.000000000000013
100
AcDbArc
 50
270.0000000000065
 51
284.3955525221537
  0
LINE
  5
10ACF
330
1F
100
AcDbEntity
  8
AM_0
100
AcDbLine
 10
28.18010000350682
 20
-78.03433886578551
 30
0.0
 11
29.20325549940219
 21
-77.55951733159732
 31
0.0
  0
LINE
  5
10AD0
330
1F
100
AcDbEntity
  8
AM_0
100
AcDbLine
 10
28.17995173851693
 20
-78.03401938124576
 30
0.0
 11
15.77097939521696
 21
-79.61454581415261
 31
0.0
  0
LINE
  5
10AD1
330
1F
100
AcDbEntity
  8
AM_0
100
AcDbLine
 10
29.00227809897376
 20
-75.91595234510349
 30
0.0
 11
29.98202114993478
 21
-75.84951345277581
 31
0.0
  0
LINE
  5
10AD2
330
1F
100
AcDbEntity
  8
AM_0
100
AcDbLine
 10
28.14095456707594
 20
-76.34055511707608
 30
0.0
 11
25.2359222918933
 21
-76.53755281596253
 31
0.0
  0
LINE
  5
10AD3
330
1F
100
AcDbEntity
  8
AM_0
100
AcDbLine
 10
29.20306116367465
 20
-102.0270023575598
 30
0.0
 11
29.6290282402905
 21
-102.0270023575598
 31
0.0
  0
ARC
  5
10AD4
330
1F
100
AcDbEntity
  8
AM_0
100
AcDbCircle
 10
30.88633580067437
 20
-83.08563131154533
 30
0.0
 40
5.777194614634551
100
AcDbArc
 50
95.20559266682997
 51
106.9397183989985
  0
LINE
  5
10AD5
330
1F
100
AcDbEntity
  8
AM_0
100
AcDbLine
 10
33.89818570681916
 20
-67.08039173056791
 30
0.0
 11
34.36217215522117
 21
-61.77700235755978
 31
0.0
  0
ELLIPSE
  5
10AD6
330
1F
100
AcDbEntity
  8
AM_0
100
AcDbEllipse
 10
-19.84908406506384
 20
-81.77700235756007
 30
0.0
 11
163.5637399108649
 21
19.92500967537016
 31
-5.440492133948261E-17
210
3.277583291640864E-19
220
3.992686816366798E-20
230
1.0
 40
0.0105788412414493
 41
5.023121156501945
 42
5.068961994302262
  0
ARC
  5
10AD7
330
1F
100
AcDbEntity
  8
AM_0
100
AcDbCircle
 10
43.46200577193133
 20
-62.98772990895239
 30
0.0
 40
0.333806135822228
100
AcDbArc
 50
44.82195371155432
 51
93.95759762897241
  0
LINE
  5
10AD8
330
1F
100
AcDbEntity
  8
AM_0
100
AcDbLine
 10
41.2853772359781
 20
-62.65471976686722
 30
0.0
 11
43.43896707446436
 21
-62.6547197668672
 31
0.0
  0
ARC
  5
10AD9
330
1F
100
AcDbEntity
  8
AM_0
100
AcDbCircle
 10
41.26233853851113
 20
-62.98772990895209
 30
0.0
 40
0.3338061358219256
100
AcDbArc
 50
86.04240237100792
 51
135.1780462884721
  0
ELLIPSE
  5
10ADA
330
1F
100
AcDbEntity
  8
AM_0
100
AcDbEllipse
 10
51.31110132765991
 20
-81.7770023575597
 30
0.0
 11
-9.367417879781259
 21
19.74174915274996
 31
-3.374363873642813E-16
210
-6.619907377782493E-18
220
1.395139541588087E-17
230
1.0
 40
0.3419987131196307
 41
0.1527262448983733
 42
1.096319527499917
  0
SPLINE
  5
10ADB
330
1F
100
AcDbEntity
  8
AM_0
100
AcDbSpline
210
0.0
220
0.0
230
1.0
 70
     8
 71
     3
 72
    14
 73
    10
 74
     0
 42
0.0000000001
 43
0.0000000001
 40
1.533355615793656
 40
1.533355615793656
 40
1.533355615793656
 40
1.533355615793656
 40
1.589552708280147
 40
1.589552708280147
 40
1.645749800766638
 40
1.645749800766638
 40
1.75814398573962
 40
1.75814398573962
 40
1.965559087554598
 40
1.965559087554598
 40
1.965559087554598
 40
1.965559087554598
 10
41.28537723597822
 20
-75.91711255299022
 30
0.0
 10
41.26664487181608
 20
-75.91711255299022
 30
0.0
 10
41.24846518639879
 20
-75.91351900402623
 30
0.0
 10
41.21392313342233
 20
-75.90057789934322
 30
0.0
 10
41.19756371697883
 20
-75.89122329223275
 30
0.0
 10
41.15206308553513
 20
-75.85721024493162
 30
0.0
 10
41.12653396436326
 20
-75.8264687106649
 30
0.0
 10
41.07004973222695
 20
-75.74019703831627
 30
0.0
 10
41.04433321883596
 20
-75.67529286784667
 30
0.0
 10
41.02556961484288
 20
-75.60727233807388
 30
0.0
  0
LINE
  5
10ADC
330
1F
100
AcDbEntity
  8
AM_0
100
AcDbLine
 10
43.43896707446459
 20
-75.91711255299022
 30
0.0
 11
41.28537723597822
 21
-75.91711255299023
 31
0.0
  0
SPLINE
  5
10ADD
330
1F
100
AcDbEntity
  8
AM_0
100
AcDbSpline
210
0.0
220
0.0
230
1.0
 70
     8
 71
     3
 72
    14
 73
    10
 74
     0
 42
0.0000000001
 43
0.0000000001
 40
1.101152144031589
 40
1.101152144031589
 40
1.101152144031589
 40
1.101152144031589
 40
1.308567245847691
 40
1.308567245847691
 40
1.420961430820673
 40
1.420961430820673
 40
1.477158523307164
 40
1.477158523307164
 40
1.533355615793655
 40
1.533355615793655
 40
1.533355615793655
 40
1.533355615793655
 10
43.69877469559992
 20
-75.60727233807387
 30
0.0
 10
43.68001109160673
 20
-75.67529286784703
 30
0.0
 10
43.65429457821597
 20
-75.74019703831596
 30
0.0
 10
43.59781034607954
 20
-75.82646871066488
 30
0.0
 10
43.57228122490756
 20
-75.85721024493161
 30
0.0
 10
43.52678059346397
 20
-75.89122329223274
 30
0.0
 10
43.51042117702048
 20
-75.90057789934321
 30
0.0
 10
43.4758791240439
 20
-75.91351900402621
 30
0.0
 10
43.45769943862672
 20
-75.91711255299022
 30
0.0
 10
43.43896707446459
 20
-75.91711255299022
 30
0.0
  0
ELLIPSE
  5
10ADE
330
1F
100
AcDbEntity
  8
AM_0
100
AcDbEllipse
 10
33.41324298278209
 20
-81.7770023575598
 30
0.0
 11
-9.367417879782467
 21
-19.74174915274966
 31
-5.859266772591544E-16
210
-1.149484904080754E-17
220
-2.422529124083629E-17
230
1.0
 40
0.3419987131196509
 41
2.045273126090479
 42
2.988866408692023
  0
ARC
  5
10ADF
330
1F
100
AcDbEntity
  8
AM_0
100
AcDbCircle
 10
41.26233853851136
 20
-100.5662748061672
 30
0.0
 40
0.3338061358221283
100
AcDbArc
 50
224.8219537115474
 51
273.9575976289855
  0
LINE
  5
10AE0
330
1F
100
AcDbEntity
  8
AM_0
100
AcDbLine
 10
43.43896707446459
 20
-100.8992849482523
 30
0.0
 11
41.28537723597833
 21
-100.8992849482523
 31
0.0
  0
ARC
  5
10AE1
330
1F
100
AcDbEntity
  8
AM_0
100
AcDbCircle
 10
43.46200577193156
 20
-100.5662748061673
 30
0.0
 40
0.3338061358220155
100
AcDbArc
 50
266.0424023710145
 51
315.1780462884629
  0
ELLIPSE
  5
10AE2
330
1F
100
AcDbEntity
  8
AM_0
100
AcDbEllipse
 10
33.41324298278209
 20
-81.7770023575598
 30
0.0
 11
-9.367417879781973
 21
19.74174915274989
 31
-3.374363873614322E-16
210
-6.619907377726960E-18
220
1.395139541576270E-17
230
1.0
 40
0.3419987131196512
 41
3.294318898488146
 42
4.23791218108969
  0
SPLINE
  5
10AE3
330
1F
100
AcDbEntity
  8
AM_0
100
AcDbSpline
210
0.0
220
0.0
230
1.0
 70
     8
 71
     3
 72
    14
 73
    10
 74
     0
 42
0.0000000001
 43
0.0000000001
 40
1.533355615793661
 40
1.533355615793661
 40
1.533355615793661
 40
1.533355615793661
 40
1.589552708280153
 40
1.589552708280153
 40
1.645749800766646
 40
1.645749800766646
 40
1.758143985739631
 40
1.758143985739631
 40
1.965559087554606
 40
1.965559087554606
 40
1.965559087554606
 40
1.965559087554606
 10
43.43896707446459
 20
-87.63689216212927
 30
0.0
 10
43.45769943862672
 20
-87.63689216212927
 30
0.0
 10
43.47587912404401
 20
-87.64048571109326
 30
0.0
 10
43.51042117702059
 20
-87.65342681577627
 30
0.0
 10
43.52678059346397
 20
-87.66278142288674
 30
0.0
 10
43.57228122490767
 20
-87.69679447018787
 30
0.0
 10
43.59781034607954
 20
-87.72753600445459
 30
0.0
 10
43.65429457821585
 20
-87.81380767680322
 30
0.0
 10
43.68001109160684
 20
-87.87871184727283
 30
0.0
 10
43.69877469559992
 20
-87.94673237704561
 30
0.0
  0
LINE
  5
10AE4
330
1F
100
AcDbEntity
  8
AM_0
100
AcDbLine
 10
41.28537723597833
 20
-87.63689216212929
 30
0.0
 11
43.43896707446459
 21
-87.63689216212927
 31
0.0
  0
SPLINE
  5
10AE5
330
1F
100
AcDbEntity
  8
AM_0
100
AcDbSpline
210
0.0
220
0.0
230
1.0
 70
     8
 71
     3
 72
    14
 73
    10
 74
     0
 42
0.0000000001
 43
0.0000000001
 40
1.101152144031591
 40
1.101152144031591
 40
1.101152144031591
 40
1.101152144031591
 40
1.30856724584769
 40
1.30856724584769
 40
1.420961430820676
 40
1.420961430820676
 40
1.477158523307169
 40
1.477158523307169
 40
1.533355615793661
 40
1.533355615793661
 40
1.533355615793661
 40
1.533355615793661
 10
41.02556961484299
 20
-87.94673237704562
 30
0.0
 10
41.04433321883619
 20
-87.87871184727246
 30
0.0
 10
41.07004973222684
 20
-87.81380767680355
 30
0.0
 10
41.12653396436326
 20
-87.72753600445461
 30
0.0
 10
41.15206308553525
 20
-87.69679447018788
 30
0.0
 10
41.19756371697895
 20
-87.66278142288675
 30
0.0
 10
41.21392313342233
 20
-87.65342681577629
 30
0.0
 10
41.2484651863989
 20
-87.64048571109328
 30
0.0
 10
41.26664487181608
 20
-87.63689216212929
 30
0.0
 10
41.28537723597833
 20
-87.63689216212929
 30
0.0
  0
ELLIPSE
  5
10AE6
330
1F
100
AcDbEntity
  8
AM_0
100
AcDbEllipse
 10
51.31110132765991
 20
-81.7770023575597
 30
0.0
 11
-9.367417879781751
 21
-19.74174915274973
 31
-5.859266772619922E-16
210
-1.149484904086259E-17
220
-2.422529124095424E-17
230
1.0
 40
0.3419987131196307
 41
5.186865779680252
 42
6.130459062281796
  0
ELLIPSE
  5
10AE7
330
1F
100
AcDbEntity
  8
AM_0
100
AcDbEllipse
 10
35.41561913959583
 20
-73.64039532712151
 30
0.0
 11
0.2307729194530688
 21
-1.484719600383412
 31
-2.126554575290825E-17
210
2.173727320583206E-18
220
-1.398507054643875E-17
230
1.0
 40
0.3399818304945317
 41
6.262106044342097
 42
9.403698697932562
  0
LINE
  5
10AE8
330
1F
100
AcDbEntity
  8
AM_0
100
AcDbLine
 10
30.46646497761719
 20
-75.65141220675396
 30
0.0
 11
37.44279574758332
 21
-76.44335708400969
 31
0.0
  0
ARC
  5
10AE9
330
1F
100
AcDbEntity
  8
AM_0
100
AcDbCircle
 10
29.47200616978853
 20
-71.77700235755988
 30
0.0
 40
4.000000000000055
100
AcDbArc
 50
284.3955525221469
 51
287.9957009333501
  0
ARC
  5
10AEA
330
1F
100
AcDbEntity
  8
AM_0
100
AcDbCircle
 10
29.47200616978853
 20
-71.77700235755988
 30
0.0
 40
4.000000000000055
100
AcDbArc
 50
352.2382219346212
 51
354.9999999999999
  0
LINE
  5
10AEB
330
1F
100
AcDbEntity
  8
AM_0
100
AcDbLine
 10
33.45678496215555
 20
-72.1256253285505
 30
0.0
 11
33.89818570681916
 21
-67.0803917305679
 31
0.0
  0
ELLIPSE
  5
10AEC
330
1F
100
AcDbEntity
  8
AM_0
100
AcDbEllipse
 10
31.20558717531901
 20
-81.77700235755981
 30
0.0
 11
-3.560072172920903
 21
19.95966269213582
 31
1.088923603278571E-15
210
9.430801858121907E-18
220
-5.287410335000060E-17
230
0.9999999999999998
 40
0.3566198879565139
 41
4.918815621220181
 42
5.474283428137594
  0
LINE
  5
10AF5
330
1F
100
AcDbEntity
  8
AM_0
100
AcDbLine
 10
2.365549677267154
 20
-101.2985292276271
 30
0.0
 11
2.365549677267154
 21
-92.62372126715033
 31
0.0
  0
LINE
  5
10AF6
330
1F
100
AcDbEntity
  8
AM_0
100
AcDbLine
 10
30.36217215522152
 20
-101.7770023575598
 30
0.0
 11
50.06217215522145
 21
-101.7770023575597
 31
0.0
  0
LINE
  5
10AF7
330
1F
100
AcDbEntity
  8
AM_0
100
AcDbLine
 10
34.36217215522117
 20
-61.77700235755977
 30
0.0
 11
50.06217215522122
 21
-61.77700235755968
 31
0.0
  0
LINE
  5
10B09
330
1F
100
AcDbEntity
  8
AM_0
100
AcDbLine
 10
26.3599640566888
 20
-102.0270023575598
 30
0.0
 11
26.3599640566888
 21
-101.5537765375698
 31
0.0
  0
ELLIPSE
  5
10B0A
330
1F
100
AcDbEntity
  8
AM_0
100
AcDbEllipse
 10
21.7778841417728
 20
-78.02730983181348
 30
0.0
 11
2.729513184148342
 21
0.3350489181602926
 31
-1.239973460300041E-16
210
4.475403514556035E-17
220
5.493577076641369E-18
230
1.0
 40
0.087150432143196
 41
4.121504365980292
 42
8.560667014316143
  0
ELLIPSE
  5
10B0B
330
1F
100
AcDbEntity
  8
AM_0
100
AcDbEllipse
 10
29.0614878585053
 20
-76.09503428492594
 30
0.0
 11
1.766739442830561
 21
0.2168680270273895
 31
-5.635037504879261E-17
210
3.142167346831121E-17
220
3.857023942395251E-18
230
1.0
 40
0.0871504321431958
 41
4.153663319558808
 42
7.2952559731486
  0
ELLIPSE
  5
10B0C
330
1F
100
AcDbEntity
  8
AM_0
100
AcDbEllipse
 10
20.19290938608901
 20
-77.36504839253557
 30
0.0
 11
4.218338557320166
 21
0.5178028735204533
 31
-1.321398871177314E-17
210
3.086011243120610E-18
220
3.788092083389876E-19
230
0.9999999999999998
 40
0.0871504321431959
 41
4.591246257364158
 42
6.487650728077236
  0
LINE
  5
10B0D
330
1F
100
AcDbEntity
  8
AM_0
100
AcDbLine
 10
29.20306116367465
 20
-77.55909857285683
 30
0.0
 11
29.20306116367465
 21
-102.0270023575598
 31
0.0
  0
LINE
  5
10B0E
330
1F
100
AcDbEntity
  8
AM_0
100
AcDbLine
 10
30.36217215522152
 20
-77.33226446350341
 30
0.0
 11
30.36217215522152
 21
-101.7770023575598
 31
0.0
  0
ARC
  5
10B11
330
1F
100
AcDbEntity
  8
AM_0
100
AcDbCircle
 10
30.3621721552214
 20
-102.9770023575597
 30
0.0
 40
1.2
100
AcDbArc
 50
90.0
 51
127.6584620062157
  0
LINE
  5
10B12
330
1F
100
AcDbEntity
  8
AM_0
100
AcDbLine
 10
30.14916461853954
 20
-75.32012632457762
 30
0.0
 11
30.62774145357435
 21
-75.56001519165197
 31
0.0
  0
LINE
  5
10B13
330
1F
100
AcDbEntity
  8
AM_0
100
AcDbLine
 10
29.93036781163778
 20
-72.95551773564731
 30
0.0
 11
30.35680240185855
 21
-72.63188832437358
 31
0.0
  0
LINE
  5
10B14
330
1F
100
AcDbEntity
  8
AM_0
100
AcDbLine
 10
42.3180809829571
 20
-71.49530413605808
 30
0.0
 11
41.7647789734873
 21
-71.54650107135261
 31
0.0
  0
LINE
  5
10B15
330
1F
100
AcDbEntity
  8
AM_0
100
AcDbLine
 10
35.1955370421108
 20
-72.15435184423703
 30
0.0
 11
30.44996040164529
 21
-72.59345919616931
 31
0.0
  0
LINE
  5
10B16
330
1F
100
AcDbEntity
  8
AM_0
100
AcDbLine
 10
35.63570123708053
 20
-75.12643881000598
 30
0.0
 11
30.72636910977508
 21
-75.58069842764554
 31
0.0
  0
ELLIPSE
  5
10B17
330
1F
100
AcDbEntity
  8
AM_0
100
AcDbEllipse
 10
30.1172044597306
 20
-74.13065668328125
 30
0.0
 11
-0.1116069137240431
 21
1.206172386667206
 31
4.585469004540579E-18
210
3.487816246799471E-19
220
-3.769396990101071E-18
230
1.0
 40
0.3243292693377159
 41
4.682387855753897
 42
10.96557316293348
  0
ELLIPSE
  5
10B18
330
1F
100
AcDbEntity
  8
AM_0
100
AcDbEllipse
 10
30.58816475571018
 20
-74.08707881190743
 30
0.0
 11
-0.1382043540648849
 21
1.493619615738291
 31
-9.095612924400840E-19
210
-5.586903595736243E-20
220
6.037949280463841E-19
230
1.0
 40
0.3243292693377159
 41
2.942324482435645
 42
6.482453478333738
  0
LINE
  5
10B19
330
1F
100
AcDbEntity
  8
AM_0
100
AcDbLine
 10
-89.91197768213829
 20
13.43230308154205
 30
0.0
 11
-91.83849573019916
 21
1.634263474479667
 31
0.0
  0
LINE
  5
10B1A
330
1F
100
AcDbEntity
  8
AM_0
100
AcDbLine
 10
-85.20541460087588
 20
13.01746702454042
 30
0.0
 11
-89.91197768213829
 21
13.43230308154205
 31
0.0
  0
LINE
  5
10B1B
330
1F
100
AcDbEntity
  8
AM_0
100
AcDbLine
 10
-89.8797616393955
 20
13.44555876129695
 30
0.0
 11
-89.91197768213829
 21
13.43230308154205
 31
0.0
  0
LINE
  5
10B1C
330
1F
100
AcDbEntity
  8
AM_0
100
AcDbLine
 10
-87.13193264893675
 20
1.219427417478045
 30
0.0
 11
-91.83849573019916
 21
1.634263474479667
 31
0.0
  0
LINE
  5
10B1D
330
1F
100
AcDbEntity
  8
AM_0
100
AcDbLine
 10
-85.38765538342216
 20
0.7262197216707307
 30
0.0
 11
-87.14999688837963
 21
0.001083031389328
 31
0.0
  0
LINE
  5
10B1E
330
1F
100
AcDbEntity
  8
AM_0
100
AcDbLine
 10
-87.13193264893675
 20
1.219427417478016
 30
0.0
 11
-85.20541460087588
 21
13.0174670245404
 31
0.0
  0
LINE
  5
10B1F
330
1F
100
AcDbEntity
  8
AM_0
100
AcDbLine
 10
-85.20541460087588
 20
13.01746702454042
 30
0.0
 11
-85.11292431799757
 21
13.05552326813503
 31
0.0
  0
LINE
  5
10B20
330
1F
100
AcDbEntity
  8
AM_0
100
AcDbLine
 10
-84.57540582350305
 20
5.700454190115039
 30
0.0
 11
-85.38765538342216
 21
0.7262197216707307
 31
0.0
  0
LINE
  5
10B21
330
1F
100
AcDbEntity
  8
AM_0
100
AcDbLine
 10
-87.15620928604233
 20
0.0000455986816235
 30
0.0
 11
-91.86277236730473
 21
0.4148816556832458
 31
0.0
  0
ELLIPSE
  5
10B22
330
1F
100
AcDbEntity
  8
AM_0
100
AcDbEllipse
 10
-91.79253274298605
 20
1.211792187158096
 30
0.0
 11
0.07023962431868216
 21
0.796910531474877
 31
-3.084197272012853E-17
210
3.384888401732608E-18
220
3.840358261270510E-17
230
0.9999999999999999
 40
0.1213724041954759
 41
1.022768010957766
 42
3.141592653585233
  0
ELLIPSE
  5
10B23
330
1F
100
AcDbEntity
  8
AM_0
100
AcDbEllipse
 10
-87.08596966172365
 20
0.7969561301565022
 30
0.0
 11
0.0702396243186922
 21
0.796910531474876
 31
-3.084197272013043E-17
210
3.384888401733292E-18
220
3.840358261270742E-17
230
1.0
 40
0.1213724041954759
 41
1.022768010962378
 42
3.204429575955271
  0
ELLIPSE
  5
10B24
330
1F
100
AcDbEntity
  8
AM_0
100
AcDbEllipse
 10
-85.29653499214908
 20
6.871843373105605
 30
0.0
 11
0.2265227884277824
 21
2.570036464006475
 31
-5.762341674789778E-17
210
1.960972453649118E-18
220
2.224840487692126E-17
230
1.0
 40
0.1213724041954759
 41
0.0466936043563575
 42
4.089591501092565
  0
LINE
  5
10B25
330
1F
100
AcDbEntity
  8
AM_0
100
AcDbLine
 10
-96.24906648630474
 20
13.57101985573027
 30
0.0
 11
-97.99026497055991
 21
2.90788140152381
 31
0.0
  0
LINE
  5
10B26
330
1F
100
AcDbEntity
  8
AM_0
100
AcDbLine
 10
-91.72075870181766
 20
2.355287669119349
 30
0.0
 11
-97.99026497055991
 21
2.90788140152381
 31
0.0
  0
LINE
  5
10B27
330
1F
100
AcDbEntity
  8
AM_0
100
AcDbLine
 10
-96.11213218418141
 20
13.95550813760414
 30
0.0
 11
-96.13907627243566
 21
13.94442166717585
 31
0.0
  0
LINE
  5
10B28
330
1F
100
AcDbEntity
  8
AM_0
100
AcDbLine
 10
-89.91789145838754
 20
13.39608698354815
 30
0.0
 11
-96.13907627243555
 21
13.94442166717587
 31
0.0
  0
LINE
  5
10B29
330
1F
100
AcDbEntity
  8
AM_0
100
AcDbLine
 10
-96.24906648630474
 20
13.57101985573027
 30
0.0
 11
-89.97956021756249
 21
13.01842612332581
 31
0.0
  0
LINE
  5
10B2A
330
1F
100
AcDbEntity
  8
AM_0
100
AcDbLine
 10
-91.90320714118184
 20
0.5390863193646283
 30
0.0
 11
-98.02667992621832
 21
1.078808673329093
 31
0.0
  0
ELLIPSE
  5
10B2B
330
1F
100
AcDbEntity
  8
AM_0
100
AcDbEllipse
 10
-97.92132048974031
 20
2.274174470541453
 30
0.0
 11
0.1053594364780234
 21
1.195365797212316
 31
8.813883916233088E-18
210
-6.448790573590493E-19
220
-7.316538454211638E-18
230
0.9999999999999999
 40
0.1213724041954758
 41
1.022768010957768
 42
3.141592653585222
  0
ELLIPSE
  5
10B2C
330
1F
100
AcDbEntity
  8
AM_0
100
AcDbEllipse
 10
-96.20310349909164
 20
13.1485485684087
 30
0.0
 11
0.07023962431868216
 21
0.796910531474877
 31
-3.084197272012979E-17
210
3.384888401732747E-18
220
3.840358261270667E-17
230
0.9999999999999999
 40
0.1213724041954759
 41
0.0628369223608582
 42
1.022768010957763
  0
LINE
  5
10B2D
330
1F
100
AcDbEntity
  8
AM_0
100
AcDbLine
 10
-82.03500896224693
 20
28.47512894087191
 30
0.0
 11
-83.4863815406062
 21
19.58689081545032
 31
0.0
  0
LINE
  5
10B2E
330
1F
100
AcDbEntity
  8
AM_0
100
AcDbLine
 10
-82.57259250909272
 20
28.80393336036991
 30
0.0
 11
-82.26964697383062
 21
28.49580991462437
 31
0.0
  0
LINE
  5
10B2F
330
1F
100
AcDbEntity
  8
AM_0
100
AcDbLine
 10
-82.56504759645532
 20
29.80714025044128
 30
0.0
 11
-77.08199535306721
 21
29.32386450682353
 31
0.0
  0
LINE
  5
10B30
330
1F
100
AcDbEntity
  8
AM_0
100
AcDbLine
 10
-82.26964697383062
 20
28.4958099146244
 30
0.0
 11
-82.03500896224693
 21
28.47512894087188
 31
0.0
  0
LINE
  5
10B31
330
1F
100
AcDbEntity
  8
AM_0
100
AcDbLine
 10
-82.66225228533949
 20
24.63387680385736
 30
0.0
 11
-82.86479793184151
 21
24.65172915936753
 31
0.0
  0
LINE
  5
10B32
330
1F
100
AcDbEntity
  8
AM_0
100
AcDbLine
 10
-82.26964697383062
 20
28.4958099146244
 30
0.0
 11
-82.17447527725733
 21
27.6210341090071
 31
0.0
  0
LINE
  5
10B33
330
1F
100
AcDbEntity
  8
AM_0
100
AcDbLine
 10
-84.90147218051948
 20
11.24007443187264
 30
0.0
 11
-85.27326824280681
 21
7.590564931267494
 31
0.0
  0
LINE
  5
10B34
330
1F
100
AcDbEntity
  8
AM_0
100
AcDbLine
 10
-84.33321429923649
 20
11.5737719954198
 30
0.0
 11
-84.90147218051948
 21
11.24007443187264
 31
0.0
  0
LINE
  5
10B35
330
1F
100
AcDbEntity
  8
AM_0
100
AcDbLine
 10
-83.6187226965319
 20
18.58714345538434
 30
0.0
 11
-84.33321429923649
 21
11.5737719954198
 31
0.0
  0
SPLINE
  5
10B36
330
1F
100
AcDbEntity
  8
AM_0
100
AcDbSpline
210
0.0
220
0.0
230
1.0
 70
     8
 71
     3
 72
    12
 73
     8
 74
     0
 42
0.0000000001
 43
0.0000000001
 40
1.717671851546749
 40
1.717671851546749
 40
1.717671851546749
 40
1.717671851546749
 40
1.765885894744827
 40
1.765885894744827
 40
2.201983172992251
 40
2.201983172992251
 40
2.204416602207448
 40
2.204416602207448
 40
2.204416602207448
 40
2.204416602207448
 10
-85.13171237744325
 20
5.368782579713098
 30
0.0
 10
-85.12505350179868
 20
5.365882273287696
 30
0.0
 10
-85.1186690135728
 20
5.363190435273509
 30
0.0
 10
-85.05727513957334
 20
5.338258936921392
 30
0.0
 10
-85.01684336535777
 20
5.330950915432794
 30
0.0
 10
-84.99978834937406
 20
5.344808105647701
 30
0.0
 10
-84.99969441321332
 20
5.344885653242926
 30
0.0
 10
-84.99960120187393
 20
5.344963733483638
 30
0.0
  0
ELLIPSE
  5
10B37
330
1F
100
AcDbEntity
  8
AM_0
100
AcDbEllipse
 10
-81.62732788945687
 20
7.045420031363761
 30
0.0
 11
-3.636467262250114
 21
0.6151393726929889
 31
1.862864274010755E-16
210
4.980223660140759E-17
220
-8.424471986787974E-18
230
1.0
 40
0.538116639107218
 41
0.0355776465576121
 42
0.2896188115032708
  0
LINE
  5
10B38
330
1F
100
AcDbEntity
  8
AM_0
100
AcDbLine
 10
-80.16039406924256
 20
9.53491994365541
 30
0.0
 11
-85.13171237744325
 21
5.368782579713127
 31
0.0
  0
ELLIPSE
  5
10B39
330
1F
100
AcDbEntity
  8
AM_0
100
AcDbEllipse
 10
-83.39318126768148
 20
7.201062193174352
 30
0.0
 11
-1.842773508829288
 21
-1.760603754087844
 31
1.613994679093414E-17
210
4.578875254470596E-18
220
4.374702004286126E-18
230
1.0
 40
0.3419674193388751
 41
5.627658640484033
 42
6.425754496330004
  0
ELLIPSE
  5
10B3A
330
1F
100
AcDbEntity
  8
AM_0
100
AcDbEllipse
 10
-86.44089941748757
 20
11.88824543113816
 30
0.0
 11
-9.418303887984022
 21
-4.448046364360343
 31
-9.412925735671742E-17
210
-8.171642626823891E-18
220
-3.859277180838154E-18
230
0.9999999999999999
 40
0.5167493169361626
 41
2.036155361610294
 42
2.734287062408031
  0
LINE
  5
10B3B
330
1F
100
AcDbEntity
  8
AM_0
100
AcDbLine
 10
-80.20924323241604
 20
9.983919673695567
 30
0.0
 11
-80.16039406924256
 21
9.53491994365541
 31
0.0
  0
LINE
  5
10B3C
330
1F
100
AcDbEntity
  8
AM_0
100
AcDbLine
 10
-75.51265411719112
 20
28.40100519488084
 30
0.0
 11
-75.11233344737627
 21
24.72143606822644
 31
0.0
  0
LINE
  5
10B3D
330
1F
100
AcDbEntity
  8
AM_0
100
AcDbLine
 10
-76.38049208668622
 20
22.6463775326028
 30
0.0
 11
-76.24255903491644
 21
23.49108262609542
 31
0.0
  0
LINE
  5
10B3E
330
1F
100
AcDbEntity
  8
AM_0
100
AcDbLine
 10
-76.36554520221125
 20
15.9228006704179
 30
0.0
 11
-76.88256248531775
 21
14.04444488007425
 31
0.0
  0
LINE
  5
10B3F
330
1F
100
AcDbEntity
  8
AM_0
100
AcDbLine
 10
-76.88256248531775
 20
14.04444488007425
 30
0.0
 11
-77.08725938652117
 21
15.92592753831039
 31
0.0
  0
ARC
  5
10B40
330
1F
100
AcDbEntity
  8
AM_0
100
AcDbCircle
 10
-79.11818993747011
 20
17.09909257956912
 30
0.0
 40
2.993445455337913
100
AcDbArc
 50
336.8614533758486
 51
347.6093261747591
  0
LINE
  5
10B41
330
1F
100
AcDbEntity
  8
AM_0
100
AcDbLine
 10
-77.08199535306721
 20
29.32386450682353
 30
0.0
 11
-77.83578391114395
 21
24.70764652096466
 31
0.0
  0
LINE
  5
10B42
330
1F
100
AcDbEntity
  8
AM_0
100
AcDbLine
 10
-76.32012482585969
 20
23.45603651835896
 30
0.0
 11
-75.51265411719112
 21
28.40100519488084
 31
0.0
  0
LINE
  5
10B43
330
1F
100
AcDbEntity
  8
AM_0
100
AcDbLine
 10
-77.83578391114395
 20
24.70764652096463
 30
0.0
 11
-83.4863815406062
 21
19.58689081545035
 31
0.0
  0
LINE
  5
10B44
330
1F
100
AcDbEntity
  8
AM_0
100
AcDbLine
 10
-83.6187226965319
 20
18.58714345538434
 30
0.0
 11
-77.379521147334
 21
24.24131121355637
 31
0.0
  0
ELLIPSE
  5
10B45
330
1F
100
AcDbEntity
  8
AM_0
100
AcDbEllipse
 10
-83.42892780658985
 20
19.0588017062984
 30
0.0
 11
-0.2006914786346236
 21
-1.524387656767986
 31
-2.351187717820504E-18
210
-1.996008434797226E-19
220
-1.516103544360827E-18
230
0.9999999999999999
 40
0.0869214900222122
 41
4.37009660399143
 42
5.038381501363423
  0
ELLIPSE
  5
10B46
330
1F
100
AcDbEntity
  8
AM_0
100
AcDbEllipse
 10
-77.89750250216298
 20
23.00977489784444
 30
0.0
 11
1.094927849075521
 21
1.564893792857412
 31
-1.321871423179680E-17
210
3.967788455748196E-18
220
5.670846285455453E-18
230
1.0
 40
0.7266493585180845
 41
5.439775130992591
 42
7.010571457787488
  0
ELLIPSE
  5
10B47
330
1F
100
AcDbEntity
  8
AM_0
100
AcDbEllipse
 10
-77.4986934723695
 20
23.07152869958813
 30
0.0
 11
0.4036320354126544
 21
1.27796489442516
 31
1.771394093525971E-17
210
-3.980770514470969E-18
220
-1.260376908650395E-17
230
1.0
 40
0.347957275873747
 41
5.249674537502993
 42
6.820470864297888
  0
LINE
  5
10B48
330
1F
100
AcDbEntity
  8
AM_0
100
AcDbLine
 10
-80.47921718769931
 20
10.65540054763414
 30
0.0
 11
-85.20688055308779
 21
7.076091631297118
 31
0.0
  0
LINE
  5
10B49
330
1F
100
AcDbEntity
  8
AM_0
100
AcDbLine
 10
-85.22100495985478
 20
6.189520188971699
 30
0.0
 11
-80.20924323241604
 21
9.98391967369551
 31
0.0
  0
ARC
  5
10B4A
330
1F
100
AcDbEntity
  8
AM_0
100
AcDbCircle
 10
-86.47038708883451
 20
6.652822944276409
 30
0.0
 40
1.332518347823758
100
AcDbArc
 50
339.6539350550543
 51
18.52060475041669
  0
LINE
  5
10B4B
330
1F
100
AcDbEntity
  8
AM_0
100
AcDbLine
 10
-77.08725938652117
 20
15.92592753831042
 30
0.0
 11
-76.7384198549023
 21
19.35009824360893
 31
0.0
  0
LINE
  5
10B4C
330
1F
100
AcDbEntity
  8
AM_0
100
AcDbLine
 10
-76.91008955263385
 20
23.60494075224588
 30
0.0
 11
-77.67722411329532
 21
16.07483177219731
 31
0.0
  0
LINE
  5
10B4D
330
1F
100
AcDbEntity
  8
AM_0
100
AcDbLine
 10
-76.44546240134844
 20
22.22573657995997
 30
0.0
 11
-76.32012482585969
 21
23.45603651835899
 31
0.0
  0
ARC
  5
10B4E
330
1F
100
AcDbEntity
  8
AM_0
100
AcDbCircle
 10
-58.97110335466402
 20
18.99278354590723
 30
0.0
 40
17.77090907671386
100
AcDbArc
 50
169.5181585345318
 51
178.8478921508723
  0
ELLIPSE
  5
10B4F
330
1F
100
AcDbEntity
  8
AM_0
100
AcDbEllipse
 10
-87.30439758570594
 20
19.8251356301104
 30
0.0
 11
6.722168937306693
 21
-10.10679867810106
 31
-6.364946967214328E-17
210
2.904012471022099E-18
220
-4.366190388406786E-18
230
1.0
 40
0.769584773056077
 41
0.0490110734653972
 42
0.7471427742631335
  0
ELLIPSE
  5
10B50
330
1F
100
AcDbEntity
  8
AM_0
100
AcDbEllipse
 10
-86.90558855591235
 20
19.88688943185409
 30
0.0
 11
5.963614031062538
 21
-9.550226693967725
 31
-1.086172022424686E-16
210
5.109594489177075E-18
220
-8.182586168675133E-18
230
1.0
 40
0.7448270719700397
 41
0.066985852007692
 42
0.7651175528054284
  0
LINE
  5
10B51
330
1F
100
AcDbEntity
  8
AM_0
100
AcDbLine
 10
-76.86411545644512
 20
30.02593808961103
 30
0.0
 11
-82.50533187334941
 21
30.52315440960427
 31
0.0
  0
LINE
  5
10B52
330
1F
100
AcDbEntity
  8
AM_0
100
AcDbLine
 10
-75.50461406441741
 20
28.69396681082733
 30
0.0
 11
-75.06874881943202
 21
24.68768779562745
 31
0.0
  0
LINE
  5
10B53
330
1F
100
AcDbEntity
  8
AM_0
100
AcDbLine
 10
-82.88221705631804
 20
24.57975732613227
 30
0.0
 11
-82.67408506595484
 21
24.56141259076438
 31
0.0
  0
LINE
  5
10B54
330
1F
100
AcDbEntity
  8
AM_0
100
AcDbLine
 10
-76.24475739765057
 20
16.2728824741904
 30
0.0
 11
-76.90719248018741
 21
13.86621481787245
 31
0.0
  0
LINE
  5
10B55
330
1F
100
AcDbEntity
  8
AM_0
100
AcDbLine
 10
-80.1868685328194
 20
9.378200825169728
 30
0.0
 11
-84.99960120187393
 21
5.344963733483667
 31
0.0
  0
ARC
  5
10B56
330
1F
100
AcDbEntity
  8
AM_0
100
AcDbCircle
 10
-85.98542781380866
 20
17.0579158113797
 30
0.0
 40
9.622957549764223
100
AcDbArc
 50
307.0545839411121
 51
340.629485930688
  0
LINE
  5
10B57
330
1F
100
AcDbEntity
  8
AM_0
100
AcDbLine
 10
-85.09314343787969
 20
9.358650324188915
 30
0.0
 11
-85.1568502945313
 21
9.364265440944166
 31
0.0
  0
LINE
  5
10B58
330
1F
100
AcDbEntity
  8
AM_0
100
AcDbLine
 10
-85.03385683248325
 20
5.337917578995928
 30
0.0
 11
-85.68203424484727
 21
5.395047879246874
 31
0.0
  0
ELLIPSE
  5
10B59
330
1F
100
AcDbEntity
  8
AM_0
100
AcDbEllipse
 10
-76.99581475204275
 20
28.53173084309563
 30
0.0
 11
0.1316992955975291
 21
1.494207246515394
 31
1.101735489529372E-17
210
-6.448790573591874E-19
220
-7.316538454213208E-18
230
1.0
 40
0.1213724041954759
 41
-0.000000000004591
 42
1.022768010957817
  0
ELLIPSE
  5
10B5A
330
1F
100
AcDbEntity
  8
AM_0
100
AcDbEllipse
 10
-76.99581475204275
 20
28.53173084309563
 30
0.0
 11
1.491200687625297
 21
0.1622359677316971
 31
-9.685417961971541E-18
210
6.419067522146831E-18
220
6.983658470872955E-19
230
1.0
 40
0.8472431535531568
 41
6.05266413544221
 42
6.283185307179571
  0
ELLIPSE
  5
10B5B
330
1F
100
AcDbEntity
  8
AM_0
100
AcDbEllipse
 10
-77.87133624188539
 20
14.13159531221746
 30
0.0
 11
0.9641437616980181
 21
-0.265380494344999
 31
3.825125295742963E-18
210
-3.687970691603863E-18
220
1.015113641915828E-18
230
1.0
 40
0.8267607042470944
 41
-0.0000000000000238
 42
0.2174624567118109
  0
ELLIPSE
  5
10B5C
330
1F
100
AcDbEntity
  8
AM_0
100
AcDbEllipse
 10
-80.82917705431919
 20
10.1446470158503
 30
0.0
 11
0.6423085214998273
 21
-0.7664461906805435
 31
-2.137017562319209E-17
210
1.372624590872404E-17
220
-1.637908970056961E-17
230
1.0
 40
0.2734904676498497
 41
0.0000000000000007
 42
0.458114423609144
  0
ELLIPSE
  5
10B5D
330
1F
100
AcDbEntity
  8
AM_0
100
AcDbEllipse
 10
-75.98401723184293
 20
21.11468163491176
 30
0.0
 11
0.3950978867926437
 21
4.482621739546176
 31
2.533594366715938E-16
210
-4.943297680391178E-18
220
-5.608466759225973E-17
230
1.0
 40
0.1213724041954759
 41
5.710377998822789
 42
7.30595331814199
  0
ELLIPSE
  5
10B5E
330
1F
100
AcDbEntity
  8
AM_0
100
AcDbEllipse
 10
-76.12195028361259
 20
20.26997654141914
 30
0.0
 11
0.3950978867926437
 21
4.482621739546176
 31
2.533594366715938E-16
210
-4.943297680391178E-18
220
-5.608466759225973E-17
230
1.0
 40
0.1213724041954759
 41
1.022768010962401
 42
1.130040819984727
  0
ELLIPSE
  5
10B5F
330
1F
100
AcDbEntity
  8
AM_0
100
AcDbEllipse
 10
-76.12195028361259
 20
20.26997654141914
 30
0.0
 11
0.3950978867926437
 21
4.482621739546176
 31
2.533594366715938E-16
210
-4.943297680391178E-18
220
-5.608466759225973E-17
230
1.0
 40
0.1213724041954759
 41
1.788159827937243
 42
3.398968847577214
  0
ELLIPSE
  5
10B60
330
1F
100
AcDbEntity
  8
AM_0
100
AcDbEllipse
 10
-76.99581475204275
 20
28.53173084309563
 30
0.0
 11
1.480393184741631
 21
-0.2417354309374955
 31
1.289895308176685E-17
210
-8.486898770022072E-18
220
1.385837325272642E-18
230
1.0
 40
0.5171535345108956
 41
0.1422876108841849
 42
1.713083937679088
  0
ELLIPSE
  5
10B61
330
1F
100
AcDbEntity
  8
AM_0
100
AcDbEllipse
 10
-77.7783301771276
 20
24.17955741181271
 30
0.0
 11
0.6715123400430769
 21
-0.7409933718798513
 31
-2.477379993602014E-18
210
1.663591236679590E-18
220
-1.835722154886841E-18
230
1.0
 40
0.3456110581899978
 41
1.346883944507117
 42
2.015168841879103
  0
ELLIPSE
  5
10B62
330
1F
100
AcDbEntity
  8
AM_0
100
AcDbEllipse
 10
-77.30889858242745
 20
23.54318695050216
 30
0.0
 11
0.9948507258594206
 21
-0.1013510397429857
 31
4.201640310755631E-19
210
-4.180004912955441E-19
220
4.258406141211246E-20
230
1.0
 40
0.1106398465944056
 41
0.1224277720553606
 42
1.169625323251951
  0
ELLIPSE
  5
10B63
330
1F
100
AcDbEntity
  8
AM_0
100
AcDbEllipse
 10
-80.87802621749279
 20
10.59364674589045
 30
0.0
 11
0.6036161260222982
 21
-0.797275092051563
 31
7.188923325906407E-18
210
-4.339350048254981E-18
220
5.731549506413687E-18
230
1.0
 40
0.3619340408773775
 41
0.4738711920606092
 42
1.378113465168193
  0
ELLIPSE
  5
10B64
330
1F
100
AcDbEntity
  8
AM_0
100
AcDbEllipse
 10
-78.07603314308881
 20
16.01307797045362
 30
0.0
 11
0.9948507258594204
 21
-0.1013510397429878
 31
4.201640310633358E-19
210
-4.180004912833796E-19
220
4.258406141087421E-20
230
1.0
 40
0.1106398465944073
 41
0.1224277720553613
 42
1.169625323251951
  0
ARC
  5
10B65
330
1F
100
AcDbEntity
  8
AM_0
100
AcDbCircle
 10
-76.99581475204275
 20
28.53173084309566
 30
0.0
 40
1.5
100
AcDbArc
 50
6.209103543845727
 51
84.96297173559847
  0
LINE
  5
10B66
330
1F
100
AcDbEntity
  8
AM_0
100
AcDbLine
 10
-74.09788953439102
 20
20.46337656144581
 30
0.0
 11
-74.41643227266866
 21
18.51261370899059
 31
0.0
  0
LINE
  5
10B67
330
1F
100
AcDbEntity
  8
AM_0
100
AcDbLine
 10
-74.41643227266877
 20
18.51261370899059
 30
0.0
 11
-74.69061110984023
 21
18.59341050106684
 31
0.0
  0
LINE
  5
10B68
330
1F
100
AcDbEntity
  8
AM_0
100
AcDbLine
 10
-74.69061110984023
 20
18.59341050106681
 30
0.0
 11
-74.64624720873417
 21
20.62497014559833
 31
0.0
  0
LINE
  5
10B69
330
1F
100
AcDbEntity
  8
AM_0
100
AcDbLine
 10
-74.64624720873417
 20
20.6249701455983
 30
0.0
 11
-74.32770447045652
 21
22.57573299805353
 31
0.0
  0
LINE
  5
10B6A
330
1F
100
AcDbEntity
  8
AM_0
100
AcDbLine
 10
-74.32770447045652
 20
22.57573299805355
 30
0.0
 11
-74.05352563328506
 21
22.4949362059773
 31
0.0
  0
LINE
  5
10B6B
330
1F
100
AcDbEntity
  8
AM_0
100
AcDbLine
 10
-74.05352563328495
 20
22.4949362059773
 30
0.0
 11
-74.33682057060423
 21
22.51990579689471
 31
0.0
  0
LINE
  5
10B6C
330
1F
100
AcDbEntity
  8
AM_0
100
AcDbLine
 10
-74.05352563328495
 20
22.4949362059773
 30
0.0
 11
-74.09788953439102
 21
20.46337656144581
 31
0.0
  0
LINE
  5
10B6D
330
1F
100
AcDbEntity
  8
AM_0
100
AcDbLine
 10
-74.09788953439102
 20
20.46337656144581
 30
0.0
 11
-74.64871578713337
 21
20.51192633902986
 31
0.0
  0
LINE
  5
10B6E
330
1F
100
AcDbEntity
  8
AM_0
100
AcDbLine
 10
-83.03779997466017
 20
23.8176621947602
 30
0.0
 11
-82.79897043789083
 21
23.79661178034564
 31
0.0
  0
ARC
  5
10B6F
330
1F
100
AcDbEntity
  8
AM_0
100
AcDbCircle
 10
-83.78013149061337
 20
21.37339921131775
 30
0.0
 40
9.765772440147028
100
AcDbArc
 50
335.4112930106794
 51
14.51465046051397
  0
LINE
  5
10B70
330
1F
100
AcDbEntity
  8
AM_0
100
AcDbLine
 10
-75.64445106316816
 20
24.92279748312171
 30
0.0
 11
-75.93529120118683
 21
24.9484321073667
 31
0.0
  0
LINE
  5
10B71
330
1F
100
AcDbEntity
  8
AM_0
100
AcDbLine
 10
-76.3907470715543
 20
16.45562308620117
 30
0.0
 11
-76.74457867027991
 21
16.48680977226564
 31
0.0
  0
LINE
  5
10B72
330
1F
100
AcDbEntity
  8
AM_0
100
AcDbLine
 10
-74.32604747820585
 20
23.82097083214453
 30
0.0
 11
-74.9151048776655
 21
24.53467536711463
 31
0.0
  0
LINE
  5
10B73
330
1F
100
AcDbEntity
  8
AM_0
100
AcDbLine
 10
-74.89993745556853
 20
17.30984593214333
 30
0.0
 11
-75.60475491189743
 21
16.7101834134304
 31
0.0
  0
ARC
  5
10B74
330
1F
100
AcDbEntity
  8
AM_0
100
AcDbCircle
 10
-75.7421327168629
 20
23.85989474678587
 30
0.0
 40
1.06738181190182
100
AcDbArc
 50
39.21136349784867
 51
84.74921890756453
  0
ARC
  5
10B75
330
1F
100
AcDbEntity
  8
AM_0
100
AcDbCircle
 10
-76.30099878590511
 20
17.51922506890071
 30
0.0
 40
1.067381811902054
100
AcDbArc
 50
265.1767245636333
 51
310.7145799733385
  0
ELLIPSE
  5
10B76
330
1F
100
AcDbEntity
  8
AM_0
100
AcDbEllipse
 10
-74.37206837156259
 20
20.54417335352207
 30
0.0
 11
0.227030834934104
 21
2.575800555362228
 31
-2.056056104284713E-16
210
6.981271067171439E-18
220
7.920669409146051E-17
230
1.0
 40
0.1213724041954759
 41
0.6280903813993616
 42
6.911275688578948
  0
ELLIPSE
  5
10B77
330
1F
100
AcDbEntity
  8
AM_0
100
AcDbEllipse
 10
-74.66167349980196
 20
20.56969912411347
 30
0.0
 11
0.2891144782637412
 21
3.280176606368307
 31
2.596253293801765E-17
210
-6.922478344837127E-19
220
-7.853965550667372E-18
230
1.0
 40
0.1213724041954759
 41
6.160602147346666
 42
9.5473611205931
  0
ELLIPSE
  5
10B78
330
1F
100
AcDbEntity
  8
AM_0
100
AcDbEllipse
 10
-75.31843043903291
 20
20.62758562310967
 30
0.0
 11
0.3474321171243656
 21
3.941825085122758
 31
1.210436768660887E-16
210
-2.685694011862714E-18
220
-3.047080423809785E-17
230
1.0
 40
0.121372404195476
 41
6.160602147351258
 42
9.547361120597696
  0
ELLIPSE
  5
10B79
330
1F
100
AcDbEntity
  8
AM_0
100
AcDbEllipse
 10
-76.01759906736129
 20
20.68921028466144
 30
0.0
 11
0.3731480041929993
 21
4.233587198460283
 31
-1.359756129354584E-16
210
2.809081167379158E-18
220
3.187070528588773E-17
230
1.0
 40
0.121372404195476
 41
-0.0000000000046021
 42
3.141592653585196
  0
LINE
  5
10B7A
330
1F
100
AcDbEntity
  8
AM_0
100
AcDbLine
 10
-82.78076769819472
 20
23.90808576529392
 30
0.0
 11
-83.01765413764395
 21
23.9289649152812
 31
0.0
  0
LINE
  5
10B7B
330
1F
100
AcDbEntity
  8
AM_0
100
AcDbLine
 10
-82.57082880894518
 20
25.45865719624783
 30
0.0
 11
-82.52818649426479
 21
25.45489870637357
 31
0.0
  0
LINE
  5
10B7C
330
1F
100
AcDbEntity
  8
AM_0
100
AcDbLine
 10
-82.34930956844733
 20
31.53173253769057
 30
0.0
 11
-82.07312469059662
 21
31.71742870998821
 31
0.0
  0
LINE
  5
10B7D
330
1F
100
AcDbEntity
  8
AM_0
100
AcDbLine
 10
-82.27958333514505
 20
30.5032569532554
 30
0.0
 11
-82.37704214820894
 21
31.39905491401507
 31
0.0
  0
LINE
  5
10B7E
330
1F
100
AcDbEntity
  8
AM_0
100
AcDbLine
 10
-85.01278067261808
 20
13.04732924482767
 30
0.0
 11
-96.23888285179248
 21
13.96587921926988
 31
0.0
  0
LINE
  5
10B7F
330
1F
100
AcDbEntity
  8
AM_0
100
AcDbLine
 10
-96.23888285595103
 20
13.96587921974009
 30
0.0
 11
-96.39437492337072
 21
12.68114773781318
 31
0.0
  0
LINE
  5
10B80
330
1F
100
AcDbEntity
  8
AM_0
100
AcDbLine
 10
-107.5037150531682
 20
12.00000000000017
 30
0.0
 11
-96.50560047048577
 21
12.00000000000017
 31
0.0
  0
ARC
  5
10B81
330
1F
100
AcDbEntity
  8
AM_0
100
AcDbCircle
 10
-87.25371505316809
 20
27.00000000000006
 30
0.0
 40
20.25000000000003
100
AcDbArc
 50
72.76471474291185
 51
180.0
  0
LINE
  5
10B82
330
1F
100
AcDbEntity
  8
AM_0
100
AcDbLine
 10
-107.5037150531681
 20
27.00000000000006
 30
0.0
 11
-107.5037150531682
 21
12.00000000000017
 31
0.0
  0
LINE
  5
10B83
330
1F
100
AcDbEntity
  8
AM_0
100
AcDbLine
 10
-107.5037150531682
 20
12.0000000000002
 30
0.0
 11
-107.5037150531682
 21
2.871438086781893
 31
0.0
  0
LINE
  5
10B84
330
1F
100
AcDbEntity
  8
AM_0
100
AcDbLine
 10
-98.00688973355727
 20
2.800494222420412
 30
0.0
 11
-107.4188810609373
 21
2.800494222420412
 31
0.0
  0
ARC
  5
10B85
330
1F
100
AcDbEntity
  8
AM_0
100
AcDbCircle
 10
-87.25371505316809
 20
27.00000000000006
 30
0.0
 40
31.50000000000009
100
AcDbArc
 50
229.9947991151408
 51
230.1959503282513
  0
LINE
  5
10B86
330
1F
100
AcDbEntity
  8
AM_0
100
AcDbLine
 10
-107.4246655249002
 20
2.792973361086666
 30
0.0
 11
-105.4440874238426
 21
1.269666103755498
 31
0.0
  0
LINE
  5
10B87
330
1F
100
AcDbEntity
  8
AM_0
100
AcDbLine
 10
-81.25371505316821
 20
44.10608371429876
 30
0.0
 11
-81.25371505316821
 21
46.34069543734157
 31
0.0
  0
LINE
  5
10B88
330
1F
100
AcDbEntity
  8
AM_0
100
AcDbLine
 10
-81.25371503650729
 20
46.34069549102938
 30
0.0
 11
-81.25063186841135
 21
46.33973870000853
 31
0.0
  0
LINE
  5
10B8A
330
1F
100
AcDbEntity
  8
AM_0
100
AcDbLine
 10
-85.19149884485023
 20
1.927486750331298
 30
0.0
 11
-85.09125850976079
 21
1.927118475558558
 31
0.0
  0
LINE
  5
10B8B
330
1F
100
AcDbEntity
  8
AM_0
100
AcDbLine
 10
-84.45920382485224
 20
5.797835499926862
 30
0.0
 11
-85.09125850976079
 21
1.927118475558586
 31
0.0
  0
LINE
  5
10B8C
330
1F
100
AcDbEntity
  8
AM_0
100
AcDbLine
 10
-85.01278067261808
 20
13.04732924482815
 30
0.0
 11
-84.14679435677272
 21
13.40364977018263
 31
0.0
  0
LINE
  5
10B8D
330
1F
100
AcDbEntity
  8
AM_0
100
AcDbLine
 10
-85.01278067261808
 20
13.04732924482815
 30
0.0
 11
-81.25371505316809
 21
44.10608371429873
 31
0.0
  0
LINE
  5
10B8E
330
1F
100
AcDbEntity
  8
AM_0
100
AcDbLine
 10
-81.25371505316809
 20
30.41283701289754
 30
0.0
 11
-81.25371505316809
 21
44.10608371429876
 31
0.0
  0
LINE
  5
10B8F
330
1F
100
AcDbEntity
  8
AM_0
100
AcDbLine
 10
-83.51059277645663
 20
2.577428465946809
 30
0.0
 11
-83.03563237702451
 21
6.540823243461858
 31
0.0
  0
LINE
  5
10B90
330
1F
100
AcDbEntity
  8
AM_0
100
AcDbLine
 10
-83.51073207685397
 20
2.577445159255433
 30
0.0
 11
-85.09125850976079
 21
1.927118475558558
 31
0.0
  0
LINE
  5
10B91
330
1F
100
AcDbEntity
  8
AM_0
100
AcDbLine
 10
-82.07312469059662
 20
31.71742870998818
 30
0.0
 11
-81.93775031708447
 21
30.47312782103791
 31
0.0
  0
LINE
  5
10B92
330
1F
100
AcDbEntity
  8
AM_0
100
AcDbLine
 10
-82.33722606753895
 20
26.62434462989418
 30
0.0
 11
-82.564166354897
 21
28.71027857715447
 31
0.0
  0
SPLINE
  5
10B93
330
1F
100
AcDbEntity
  8
AM_0
100
AcDbSpline
210
0.0
220
0.0
230
1.0
 70
     8
 71
     3
 72
    12
 73
     8
 74
     0
 42
0.0000000001
 43
0.0000000001
 40
-0.8111788224572543
 40
-0.8111788224572543
 40
-0.8111788224572543
 40
-0.8111788224572543
 40
-0.7638097292022865
 40
-0.7638097292022865
 40
-0.4966832820230737
 40
-0.4966832820230737
 40
0.0
 40
0.0
 40
0.0
 40
0.0
 10
-81.25063187359046
 20
46.33973868331938
 30
0.0
 10
-81.25015306687465
 20
46.32974168325333
 30
0.0
 10
-81.24961109153787
 20
46.31996519132215
 30
0.0
 10
-81.24556070448568
 20
46.25655096278754
 30
0.0
 10
-81.23996584234635
 20
46.210219766297
 30
0.0
 10
-81.21577645118191
 20
46.10082246010967
 30
0.0
 10
-81.19015891007109
 20
46.05871916155638
 30
0.0
 10
-81.15340792804659
 20
46.046948652716
 30
0.0
  0
LINE
  5
10B94
330
1F
100
AcDbEntity
  8
AM_0
100
AcDbLine
 10
-83.03792893051684
 20
6.541162893343085
 30
0.0
 11
-82.96053977696147
 21
7.05617809358111
 31
0.0
  0
ARC
  5
10B95
330
1F
100
AcDbEntity
  8
AM_0
100
AcDbCircle
 10
-87.25371505316798
 20
27.00000000000017
 30
0.0
 40
20.00000000000003
100
AcDbArc
 50
317.2928981658267
 51
61.14668741155202
  0
ARC
  5
10B96
330
1F
100
AcDbEntity
  8
AM_0
100
AcDbCircle
 10
-87.25430582448507
 20
26.9986286528557
 30
0.0
 40
20.00148619377681
100
AcDbArc
 50
61.14710087761532
 51
72.24049875614618
  0
ARC
  5
10B97
330
1F
100
AcDbEntity
  8
AM_0
100
AcDbCircle
 10
-87.25371505316832
 20
26.99999999999989
 30
0.0
 40
20.0000000000008
100
AcDbArc
 50
284.4212951481615
 51
285.4669371740739
  0
ELLIPSE
  5
10B98
330
1F
100
AcDbEntity
  8
AM_0
100
AcDbEllipse
 10
-79.11710802272978
 20
12.06986973770538
 30
0.0
 11
1.389997523474605
 21
-0.5681142035652493
 31
1.307366930968314E-17
210
-8.059247063239495E-18
220
3.293943082159405E-18
230
1.0
 40
0.9288419190923617
 41
0.1166287242071946
 42
0.5167196863960322
  0
LINE
  5
10B99
330
1F
100
AcDbEntity
  8
AM_0
100
AcDbLine
 10
-81.91122670992638
 20
7.933128796968674
 30
0.0
 11
-81.92006977961796
 21
7.72430991907342
 31
0.0
  0
LINE
  5
10B9A
330
1F
100
AcDbEntity
  8
AM_0
100
AcDbLine
 10
-76.33728203278531
 20
15.93673474792786
 30
0.0
 11
-72.55710442617612
 21
13.43498484783061
 31
0.0
  0
ARC
  5
10B9B
330
1F
100
AcDbEntity
  8
AM_0
100
AcDbCircle
 10
-87.25371505316798
 20
27.00000000000017
 30
0.0
 40
20.00000000000001
100
AcDbArc
 50
285.4669371740673
 51
317.2928981658267
  0
LINE
  5
10B9C
330
1F
100
AcDbEntity
  8
AM_0
100
AcDbLine
 10
-105.4374085981201
 20
1.278349798986994
 30
0.0
 11
-98.08867461056809
 21
1.278349798986994
 31
0.0
  0
ELLIPSE
  5
10B9D
330
1F
100
AcDbEntity
  8
AM_0
100
AcDbEllipse
 10
-82.31864552274681
 20
30.21385364357136
 30
0.0
 11
0.1562831641090898
 21
1.773125932531595
 31
3.417816741718617E-17
210
-1.685857892755988E-18
220
-1.912706570313705E-17
230
1.0
 40
0.1213724041954759
 41
5.735156991347098
 42
8.87674964493689
  0
ELLIPSE
  5
10B9E
330
1F
100
AcDbEntity
  8
AM_0
100
AcDbEllipse
 10
-82.84176108814381
 20
21.29069132638176
 30
0.0
 11
0.3731480041930523
 21
4.233587198460279
 31
-1.359756129354786E-16
210
2.809081167379971E-18
220
3.187070528589241E-17
230
1.0
 40
0.1213724041954759
 41
0.0954828369195482
 42
1.950053185005265
  0
LINE
  5
10B9F
330
1F
100
AcDbEntity
  8
AM_0
100
AcDbLine
 10
-77.67514915714662
 20
11.65585178260889
 30
0.0
 11
-78.11518451046447
 21
10.01836536891892
 31
0.0
  0
ELLIPSE
  5
10BA0
330
1F
100
AcDbEntity
  8
AM_0
100
AcDbEllipse
 10
-79.60736937888942
 20
10.24547925676907
 30
0.0
 11
1.169822450485527
 21
-0.3143618359303619
 31
2.752858014371095E-18
210
-2.194737071446965E-18
220
5.897831545959297E-19
230
1.0
 40
0.9419205919593041
 41
4.378070336628835
 42
7.159808690760759
  0
ELLIPSE
  5
10BA1
330
1F
100
AcDbEntity
  8
AM_0
100
AcDbEllipse
 10
-79.56379150751559
 20
10.40764389143791
 30
0.0
 11
1.44860699705133
 21
-0.3892785225190555
 31
-1.428224102973596E-17
210
9.195268572996780E-18
220
-2.471008749473309E-18
230
1.0
 40
0.9419205919593046
 41
4.396755259016922
 42
7.165157865346566
  0
ENDSEC
  0
SECTION
  2
OBJECTS
  0
DICTIONARY
  5
C
330
0
100
AcDbDictionary
281
     1
  3
ACAD_COLOR
350
99D5
  3
ACAD_GROUP
350
D
  3
ACAD_LAYOUT
350
1A
  3
ACAD_MATERIAL
350
99D4
  3
ACAD_MLINESTYLE
350
17
  3
ACAD_PLOTSETTINGS
350
19
  3
ACAD_PLOTSTYLENAME
350
E
  3
ACAD_TABLESTYLE
350
99D6
  3
AcAmCatalogState
350
9A2C
  3
ACDBHEADERROUNDTRIPXREC
350
1107E
  3
AcDbVariableDictionary
350
30
  3
ACDMSYSVARMGR
350
99EF
  3
ACGREF_MASTER
350
23CD
  3
ACGREFACAD_MASTER
350
23D1
  3
AcmDictionary
350
4D
  3
ACME_BOM_MANAGER_NAME
350
99A7
  3
ACME_COMMAND_HISTORY
350
99A2
  3
ACME_SCOPE_NAME
350
99A1
  3
ACMESTATEMGR
350
99AC
  3
AcmeSysVarManager
350
99A3
  3
AcmSystemVariableManager
350
9A2A
  3
AD_APPL
350
9A17
  3
ADSYSVARMGR
350
9A16
  3
AmdtNamedDwgMgr
350
9A0A
  3
AMG
350
3F
  3
AMGSNAPSETTINGS
350
73
  3
AMI_MASTER
350
23D2
  3
AUTOCAD_ASSEMBLIES_PROJECT
350
9A1F
  3
Designer_Assemblies_SysVars
350
9A1A
  3
DWGPROPS
350
11081
  3
FILENAME
350
1C9F
  3
GREFAM_MODULE
350
9A10
  3
ZWKSIZE
350
1CA1
  0
DICTIONARY
  5
9B25
330
2
100
AcDbDictionary
280
     1
281
     1
  3
ACAD_LAYERFILTERS
360
9F3B
  3
ACAD_LAYERSTATES
360
9B26
  3
ACLYDICTIONARY
360
9F3A
  3
AMLAYER_GROUPCOLORS
360
9F39
  0
DICTIONARY
  5
165
330
1F
100
AcDbDictionary
280
     1
281
     1
  3
ACAD_LAYOUTSELFREF
360
98ED
  3
ACAD_SORTENTS
360
CB31
  0
DICTIONARY
  5
264F
330
1B
100
AcDbDictionary
280
     1
281
     1
  3
ACAD_LAYOUTSELFREF
360
98EC
  0
DICTIONARY
  5
2651
330
23
100
AcDbDictionary
280
     1
281
     1
  3
ACAD_LAYOUTSELFREF
360
98EE
  0
DICTIONARY
  5
99D5
102
{ACAD_REACTORS
330
C
102
}
330
C
100
AcDbDictionary
281
     1
  0
DICTIONARY
  5
D
102
{ACAD_REACTORS
330
C
102
}
330
C
100
AcDbDictionary
281
     1
  0
DICTIONARY
  5
1A
102
{ACAD_REACTORS
330
C
102
}
330
C
100
AcDbDictionary
281
     1
  3
Model
350
22
  3
ﾚｲｱｳﾄ1
350
1E
  3
ﾚｲｱｳﾄ2
350
26
  0
DICTIONARY
  5
99D4
102
{ACAD_REACTORS
330
C
102
}
330
C
100
AcDbDictionary
281
     1
  0
DICTIONARY
  5
17
102
{ACAD_REACTORS
330
C
102
}
330
C
100
AcDbDictionary
281
     1
  3
Standard
350
18
  0
DICTIONARY
  5
19
102
{ACAD_REACTORS
330
C
102
}
330
C
100
AcDbDictionary
281
     1
  0
ACDBDICTIONARYWDFLT
  5
E
102
{ACAD_REACTORS
330
C
102
}
330
C
100
AcDbDictionary
281
     1
  3
Normal
350
F
100
AcDbDictionaryWithDefault
340
F
  0
DICTIONARY
  5
99D6
102
{ACAD_REACTORS
330
C
102
}
330
C
100
AcDbDictionary
281
     1
  3
Standard
350
99D7
  0
ACAD_PROXY_OBJECT
  5
9A2C
102
{ACAD_REACTORS
330
C
102
}
330
C
100
AcDbProxyObject
 90
      499
 91
      584
 95
       25
 70
     0
 93
      424
310
3FFFFFFFE00A0281402902C1D2E482B415AC15141BA41A441C5C1AFAE20A1A0A226991818182E24A1AA26C00A3FFFFFFFCFFFF1F40
  0
DICTIONARY
  5
1107E
102
{ACAD_REACTORS
330
C
102
}
330
C
100
AcDbDictionary
281
     1
  3
COLORDICT
350
1107F
  3
MATERIALDICT
350
11080
  0
DICTIONARY
  5
30
102
{ACAD_REACTORS
330
C
102
}
330
C
100
AcDbDictionary
281
     1
  3
CTABLESTYLE
350
9A53
  3
HIDETEXT
350
1107D
  3
INDEXCTL
350
1107C
  0
ACAD_PROXY_OBJECT
  5
99EF
102
{ACAD_REACTORS
330
C
102
}
330
C
100
AcDbProxyObject
 90
      499
 91
      507
 95
       25
 70
     0
 93
      240
310
4C51A47A0000000000000000000000000000000000000000000000000000
330
99F0
330
99F1
330
99F2
330
99F3
330
99F4
330
99F5
330
99F6
330
99F7
330
99F8
330
99F9
330
99FA
330
99FB
330
99FC
330
99FD
330
99FE
330
99FF
330
9A00
330
9A01
330
9A02
330
9A03
330
9A04
330
9A05
330
9A06
330
9A07
330
9A08
330
9A09
 94
        0
  0
ACAD_PROXY_OBJECT
  5
23CD
102
{ACAD_REACTORS
330
C
102
}
330
C
100
AcDbProxyObject
 90
      499
 91
      534
 95
       25
 70
     0
 93
       34
310
0400004280
  0
ACAD_PROXY_OBJECT
  5
23D1
102
{ACAD_REACTORS
330
C
102
}
330
C
100
AcDbProxyObject
 90
      499
 91
      535
 95
       25
 70
     0
 93
      114
310
04000041C080000000000000000000
  0
DICTIONARY
  5
4D
102
{ACAD_REACTORS
330
C
102
}
330
C
100
AcDbDictionary
281
     1
  3
AcmBOMDATA
350
99B0
  3
AcmStdDictionary
350
17E
  3
AMDTSECTSYM_ARROWCOLOR
350
9A47
  0
ACAD_PROXY_OBJECT
  5
99A7
102
{ACAD_REACTORS
330
C
102
}
330
C
100
AcDbProxyObject
 90
      499
 91
      510
 95
       25
 70
     0
 93
       50
310
00010040400000
330
0
330
0
330
99A8
 94
        0
  0
ACAD_PROXY_OBJECT
  5
99A2
102
{ACAD_REACTORS
330
C
102
}
330
C
100
AcDbProxyObject
 90
      499
 91
      505
 95
       25
 70
     0
 93
     4196
310
47805054552415345805054552415345805054552415345805054552415345805054552415345805054552415345805054552415345805054552415345805054552415345404052D4D5347202D205050413A2020206465736B746F702E6172782046696C6556657273696F6E3A20392E322E302E34014151549054D1601415
310
1549054D16014151549054D16014151549054D16014151549054D16014151549054D16014151549054D1601415454D05591501014B5354D1C80B481414104E88080819195CDADD1BDC0B985C9E08119A5B1955995C9CDA5BDB8E880E4B8C8B8C0B8D005054552415345805055153415645404052D4D5347202D205050413A2
310
020206465736B746F702E6172782046696C6556657273696F6E3A20392E322E302E34014390535115149154D15511109353D1102014213880B4815539113C05084E202D20554E444F014115539113E014115539113E014151549054D16014151549054D1601415454D05591501014B5354D1C80B481414104E88080819195C
310
DADD1BDC0B985C9E08119A5B1955995C9CDA5BDB8E880E4B8C8B8C0B8D0050E414D4454524553455444424D4F4440805084E202D20554E444F014213880B4815539113C0504554E444F80504554E444F805055055524745805055153415645404052D4D5347202D205050413A2020206465736B746F702E6172782046696C6
310
556657273696F6E3A20392E322E302E340
  0
ACAD_PROXY_OBJECT
  5
99A1
102
{ACAD_REACTORS
330
C
102
}
330
C
100
AcDbProxyObject
 90
      499
 91
      504
 95
       25
 70
     0
 93
      578
310
09000046408000000000000000001334DE000000000000000000000000000000000000000000000000000000000000000000000000000000000000000000000000000000AAA406AA80
360
99A4
360
99A5
360
99A6
360
99A8
360
99E8
360
99E9
360
99EA
360
99EB
360
99EC
360
99ED
360
99F0
360
99F1
360
99F2
360
99F3
360
99F4
360
99F5
360
99F6
360
99F7
360
99F8
360
99F9
360
99FA
360
99FB
360
99FC
360
99FD
360
99FE
360
99FF
360
9A00
360
9A01
360
9A02
360
9A03
360
9A04
360
9A05
360
9A06
360
9A07
360
9A08
360
9A09
360
9A12
360
9A13
360
9A14
360
9A15
360
9A1B
360
9A1C
360
9A1D
360
9A1E
360
9A23
360
9A24
360
9A25
360
9A26
360
9A27
360
9A28
360
9A2B
 94
        0
  0
ACAD_PROXY_OBJECT
  5
99AC
102
{ACAD_REACTORS
330
C
102
}
330
C
100
AcDbProxyObject
 90
      499
 91
      515
 95
       25
 70
     0
 93
       50
310
09000042641280
  0
ACAD_PROXY_OBJECT
  5
99A3
102
{ACAD_REACTORS
330
C
102
}
330
C
100
AcDbProxyObject
 90
      499
 91
      507
 95
       25
 70
     0
 93
       48
310
903412000000
330
99A4
330
99A5
330
99A6
 94
        0
  0
ACAD_PROXY_OBJECT
  5
9A2A
102
{ACAD_REACTORS
330
C
102
}
330
C
100
AcDbProxyObject
 90
      499
 91
      507
 95
       25
 70
     0
 93
       32
310
90140A00
330
9A2B
 94
        0
  0
ACAD_PROXY_OBJECT
  5
9A17
102
{ACAD_REACTORS
330
C
102
}
330
C
100
AcDbProxyObject
 90
      499
 91
      574
 95
       25
 70
     0
 93
       42
310
000900004040
330
9A12
 94
        0
  0
ACAD_PROXY_OBJECT
  5
9A16
102
{ACAD_REACTORS
330
C
102
}
330
C
100
AcDbProxyObject
 90
      499
 91
      507
 95
       25
 70
     0
 93
        8
310
AA
  0
ACAD_PROXY_OBJECT
  5
9A0A
102
{ACAD_REACTORS
330
C
102
}
330
C
100
AcDbProxyObject
 90
      499
 91
      565
 95
       25
 70
     0
 93
       42
310
000100005E80
330
99E8
 94
        0
  0
DICTIONARY
  5
3F
102
{ACAD_REACTORS
330
C
102
}
330
C
100
AcDbDictionary
281
     1
  3
AcMgSettings
350
40
  3
AMGLAYCFG
350
99B4
  0
DICTIONARY
  5
73
102
{ACAD_REACTORS
330
C
102
}
330
C
100
AcDbDictionary
281
     1
  0
ACAD_PROXY_OBJECT
  5
23D2
102
{ACAD_REACTORS
330
C
102
}
330
C
100
AcDbProxyObject
 90
      499
 91
      536
 95
       25
 70
     0
 93
       34
310
0500004280
  0
ACAD_PROXY_OBJECT
  5
9A1F
102
{ACAD_REACTORS
330
C
102
}
330
C
100
AcDbProxyObject
 90
      499
 91
      577
 95
       25
 70
     0
 93
       98
310
0900004E400000000000000000
330
9A26
330
0
330
9A27
330
0
330
0
330
0
330
0
330
0
 94
        0
  0
ACAD_PROXY_OBJECT
  5
9A1A
102
{ACAD_REACTORS
330
C
102
}
330
C
100
AcDbProxyObject
 90
      499
 91
      507
 95
       25
 70
     0
 93
       56
310
90441600000000
330
9A1B
330
9A1C
330
9A1D
330
9A1E
 94
        0
  0
XRECORD
  5
11081
102
{ACAD_REACTORS
330
C
102
}
330
C
100
AcDbXrecord
280
     1
  1
DWGPROPS COOKIE
  2

  3

  4

  6

  7

  8

  9

300
AmdtFileType=84
301
=
302
=
303
=
304
=
305
=
306
=
307
=
308
=
309
=
 40
0.0
 41
2451943.235431667
 42
2455478.188659028
  1

 90
        1
  0
DICTIONARY
  5
1C9F
102
{ACAD_REACTORS
330
C
102
}
330
C
100
AcDbDictionary
281
     1
  3
FILENAME
350
1CA0
  0
ACAD_PROXY_OBJECT
  5
9A10
102
{ACAD_REACTORS
330
C
102
}
330
C
100
AcDbProxyObject
 90
      499
 91
      568
 95
       25
 70
     0
 93
        8
310
05
  0
DICTIONARY
  5
1CA1
102
{ACAD_REACTORS
330
C
102
}
330
C
100
AcDbDictionary
281
     1
  3
ZWKSIZE
350
1CA2
  0
DICTIONARY
  5
9F3B
102
{ACAD_REACTORS
330
9B25
102
}
330
9B25
100
AcDbDictionary
281
     1
  0
DICTIONARY
  5
9B26
102
{ACAD_REACTORS
330
9B25
102
}
330
9B25
100
AcDbDictionary
281
     1
  0
DICTIONARY
  5
9F3A
102
{ACAD_REACTORS
330
9B25
102
}
330
9B25
100
AcDbDictionary
281
     1
1001
ACAD
1000
<All
  0
DICTIONARY
  5
9F39
102
{ACAD_REACTORS
330
9B25
102
}
330
9B25
100
AcDbDictionary
280
     1
281
     1
  0
XRECORD
  5
98ED
102
{ACAD_REACTORS
330
165
102
}
330
165
100
AcDbXrecord
280
     1
340
1F
  0
SORTENTSTABLE
  5
CB31
102
{ACAD_REACTORS
330
165
102
}
330
165
100
AcDbSortentsTable
330
1F
331
6E5E
  5
6E5E
331
6E5F
  5
6E5F
331
6E60
  5
6E60
331
6E61
  5
6E61
331
6E62
  5
6E62
331
6E63
  5
6E63
331
7A0E
  5
7A0E
331
868E
  5
868E
331
9D0C
  5
9D0C
331
ACE1
  5
ACE1
331
ACE2
  5
ACE2
331
ACEF
  5
ACEF
331
ACF3
  5
ACF3
331
ADEA
  5
ADEA
331
ADEB
  5
ADEB
331
ADF6
  5
ADF6
331
ADF9
  5
ADF9
331
B533
  5
B533
331
B535
  5
B535
331
C2CE
  5
C2CE
331
C2F2
  5
C2F2
331
C2F3
  5
C2F3
331
C2F4
  5
C2F4
331
C2F5
  5
C2F5
331
C2F6
  5
C2F6
331
C2F7
  5
C2F7
331
C2F8
  5
C2F8
331
C2F9
  5
C2F9
331
C2FA
  5
C2FA
331
C2FB
  5
C2FB
331
C2FC
  5
C2FC
331
C2FD
  5
C2FD
331
C2FE
  5
C2FE
331
C2FF
  5
C2FF
331
C300
  5
C300
331
C301
  5
C301
331
C302
  5
C302
331
C303
  5
C303
331
C304
  5
C304
331
C305
  5
C305
331
C306
  5
C306
331
C309
  5
C309
331
C30A
  5
C30A
331
C30B
  5
C30B
331
C30C
  5
C30C
331
C30D
  5
C30D
331
C30E
  5
C30E
331
C310
  5
C310
331
C311
  5
C311
331
C313
  5
C313
331
C314
  5
C314
331
C315
  5
C315
331
C316
  5
C316
331
C317
  5
C317
331
C318
  5
C318
331
C319
  5
C319
331
C31A
  5
C31A
331
C31B
  5
C31B
331
C31C
  5
C31C
331
C31D
  5
C31D
331
C31E
  5
C31E
331
C31F
  5
C31F
331
C320
  5
C320
331
C321
  5
C321
331
C3E1
  5
C3E1
331
C3E2
  5
C3E2
331
C3E3
  5
C3E3
331
C3E4
  5
C3E4
331
C3E5
  5
C3E5
331
C3E6
  5
C3E6
331
C3E7
  5
C3E7
331
C3EC
  5
C3EC
331
C3ED
  5
C3ED
331
C3EE
  5
C3EE
331
C3EF
  5
C3EF
331
C3F0
  5
C3F0
331
C3F1
  5
C3F1
331
C3F4
  5
C3F4
331
C3F5
  5
C3F5
331
C3F7
  5
C3F7
331
C3F8
  5
C3F8
331
C3F9
  5
C3F9
331
C3FA
  5
C3FA
331
C3FB
  5
C3FB
331
C3FC
  5
C3FC
331
C3FD
  5
C3FD
331
C3FE
  5
C3FE
  0
XRECORD
  5
98EC
102
{ACAD_REACTORS
330
264F
102
}
330
264F
100
AcDbXrecord
280
     1
340
1B
  0
XRECORD
  5
98EE
102
{ACAD_REACTORS
330
2651
102
}
330
2651
100
AcDbXrecord
280
     1
340
23
  0
LAYOUT
  5
22
102
{ACAD_REACTORS
330
1A
102
}
330
1A
100
AcDbPlotSettings
  1

  2
SII LP-2150 (D-SCAN C2)
  4
User120
  6
AM_VIEW1
 40
3.174999952316284
 41
3.174999952316284
 42
3.17498779296875
 43
3.17498779296875
 44
296.9259948730469
 45
419.9889831542969
 46
0.0
 47
0.0
 48
0.0
 49
0.0
140
420.0
141
297.0
142
1.0
143
1.022107788374329
 70
 11952
 72
     1
 73
     1
 74
     4
  7
sei_cad.ctb
 75
     0
147
0.9783703943695685
148
0.0
149
0.0
100
AcDbLayout
  1
Model
 70
     1
 71
     0
 10
0.0
 20
0.0
 11
12.0
 21
9.0
 12
0.0
 22
0.0
 32
0.0
 14
0.0
 24
0.0
 34
0.0
 15
0.0
 25
0.0
 35
0.0
146
0.0
 13
0.0
 23
0.0
 33
0.0
 16
1.0
 26
0.0
 36
0.0
 17
0.0
 27
1.0
 37
0.0
 76
     0
330
1F
1001
ACAD_PSEXT
1000
SII LP-2150 (D-SCAN C2)
1000
SII LP-2150 (D-SCAN C2)
1000
133.153.16.130#3000
1000

1070
     0
  0
LAYOUT
  5
1E
102
{ACAD_REACTORS
330
1A
102
}
330
1A
100
AcDbPlotSettings
  1

  2
Canon LASER SHOT LBP-2030
  4

  6

 40
0.0
 41
0.0
 42
0.0
 43
0.0
 44
0.0
 45
0.0
 46
0.0
 47
0.0
 48
0.0
 49
0.0
140
0.0
141
0.0
142
1.0
143
1.0
 70
   688
 72
     0
 73
     0
 74
     5
  7
sei_cad.ctb
 75
    16
147
1.0
148
0.0
149
0.0
100
AcDbLayout
  1
ﾚｲｱｳﾄ1
 70
     1
 71
     1
 10
0.0
 20
0.0
 11
420.0
 21
297.0
 12
0.0
 22
0.0
 32
0.0
 14
1.000000000000000E+20
 24
1.000000000000000E+20
 34
1.000000000000000E+20
 15
-1.000000000000000E+20
 25
-1.000000000000000E+20
 35
-1.000000000000000E+20
146
0.0
 13
0.0
 23
0.0
 33
0.0
 16
1.0
 26
0.0
 36
0.0
 17
0.0
 27
1.0
 37
0.0
 76
     0
330
1B
  0
LAYOUT
  5
26
102
{ACAD_REACTORS
330
1A
102
}
330
1A
100
AcDbPlotSettings
  1

  2
Canon LASER SHOT LBP-2030
  4

  6

 40
0.0
 41
0.0
 42
0.0
 43
0.0
 44
0.0
 45
0.0
 46
0.0
 47
0.0
 48
0.0
 49
0.0
140
0.0
141
0.0
142
1.0
143
1.0
 70
   688
 72
     0
 73
     0
 74
     5
  7
sei_cad.ctb
 75
    16
147
1.0
148
0.0
149
0.0
100
AcDbLayout
  1
ﾚｲｱｳﾄ2
 70
     1
 71
     2
 10
0.0
 20
0.0
 11
12.0
 21
9.0
 12
0.0
 22
0.0
 32
0.0
 14
0.0
 24
0.0
 34
0.0
 15
0.0
 25
0.0
 35
0.0
146
0.0
 13
0.0
 23
0.0
 33
0.0
 16
1.0
 26
0.0
 36
0.0
 17
0.0
 27
1.0
 37
0.0
 76
     0
330
23
  0
MLINESTYLE
  5
18
102
{ACAD_REACTORS
330
17
102
}
330
17
100
AcDbMlineStyle
  2
STANDARD
 70
     0
  3

 62
   256
 51
90.0
 52
90.0
 71
     2
 49
0.5
 62
   256
  6
BYLAYER
 49
-0.5
 62
   256
  6
BYLAYER
  0
ACDBPLACEHOLDER
  5
F
102
{ACAD_REACTORS
330
E
102
}
330
E
  0
TABLESTYLE
  5
99D7
102
{ACAD_REACTORS
330
99D6
102
}
330
99D6
100
AcDbTableStyle
  3
Standard
 70
     0
 71
     8
 40
1.5
 41
1.5
280
     0
281
     0
  7
STANDARD
140
4.5
170
     2
 62
     0
 63
     7
283
     0
274
    -2
284
     1
 64
     0
275
    -2
285
     1
 65
     0
276
    -2
286
     1
 66
     0
277
    -2
287
     1
 67
     0
278
    -2
288
     1
 68
     0
279
    -2
289
     1
 69
     0
  7
STANDARD
140
6.0
170
     5
 62
     0
 63
     7
283
     0
274
    -2
284
     1
 64
     0
275
    -2
285
     1
 65
     0
276
    -2
286
     1
 66
     0
277
    -2
287
     1
 67
     0
278
    -2
288
     1
 68
     0
279
    -2
289
     1
 69
     0
  7
STANDARD
140
4.5
170
     5
 62
     0
 63
     7
283
     0
274
    -2
284
     1
 64
     0
275
    -2
285
     1
 65
     0
276
    -2
286
     1
 66
     0
277
    -2
287
     1
 67
     0
278
    -2
288
     1
 68
     0
279
    -2
289
     1
 69
     0
  0
XRECORD
  5
1107F
102
{ACAD_REACTORS
330
1107E
102
}
330
1107E
100
AcDbXrecord
280
     1
340
99D5
  0
XRECORD
  5
11080
102
{ACAD_REACTORS
330
1107E
102
}
330
1107E
100
AcDbXrecord
280
     1
340
99D4
  0
DICTIONARYVAR
  5
9A53
102
{ACAD_REACTORS
330
30
102
}
330
30
100
DictionaryVariables
280
     0
  1
STANDARD
  0
DICTIONARYVAR
  5
1107D
102
{ACAD_REACTORS
330
30
102
}
330
30
100
DictionaryVariables
280
     0
  1
0
  0
DICTIONARYVAR
  5
1107C
102
{ACAD_REACTORS
330
30
102
}
330
30
100
DictionaryVariables
280
     0
  1
1
  0
ACAD_PROXY_OBJECT
  5
99B0
102
{ACAD_REACTORS
330
4D
102
}
330
4D
100
AcDbProxyObject
 90
      499
 91
      520
 95
       25
 70
     0
 93
      118
310
405010040CA904C415CD5B075DD1B8
350
99B1
 94
        0
  0
DICTIONARY
  5
17E
102
{ACAD_REACTORS
330
4D
102
}
330
4D
100
AcDbDictionary
281
     1
  3
ANSI
350
AC70
  3
ISO
350
9A35
  3
JIS
350
9CBB
  0
XRECORD
  5
9A47
102
{ACAD_REACTORS
330
4D
102
}
330
4D
100
AcDbXrecord
280
     1
 90
-1023410169
  0
ACAD_PROXY_OBJECT
  5
99A4
330
99A1
100
AcDbProxyObject
 90
      499
 91
      508
 95
       25
 70
     0
 93
      156
310
00010143D050D351505391D5531054925390D490
330
99A1
 94
        0
  0
ACAD_PROXY_OBJECT
  5
99A5
330
99A1
100
AcDbProxyObject
 90
      499
 91
      508
 95
       25
 70
     0
 93
      148
310
000101439050D351531253915054925390D490
330
99A1
 94
        0
  0
ACAD_PROXY_OBJECT
  5
99A6
330
99A1
100
AcDbProxyObject
 90
      499
 91
      509
 95
       25
 70
     0
 93
      156
310
000101439050D35154D6535093D314D256915080
330
99A1
 94
        0
  0
ACAD_PROXY_OBJECT
  5
99A8
330
99A1
100
AcDbProxyObject
 90
      499
 91
      511
 95
       25
 70
     0
 93
       88
310
000101411093D34C402B00
330
99A1
330
0
330
0
 94
        0
  0
ACAD_PROXY_OBJECT
  5
99E8
330
99A1
100
AcDbProxyObject
 90
      499
 91
      561
 95
       25
 70
     0
 93
      358
310
0001014124FEA55D00507392E322E302E32014124FEA55D00507392E322E302E3240501000041505391D311658
330
99A1
330
99E9
330
99EF
 94
        0
  0
ACAD_PROXY_OBJECT
  5
99E9
330
99A1
100
AcDbProxyObject
 90
      499
 91
      562
 95
       25
 70
     0
 93
       56
310
000190240E0000
330
99A1
330
99EA
330
99EC
 94
        0
  0
ACAD_PROXY_OBJECT
  5
99EA
330
99A1
100
AcDbProxyObject
 90
      499
 91
      563
 95
       25
 70
     0
 93
       48
310
0001AA000000
330
99A1
330
1E
330
99EB
330
0
 94
        0
  0
ACAD_PROXY_OBJECT
  5
99EB
330
99A1
100
AcDbProxyObject
 90
      499
 91
      564
 95
       25
 70
     0
 93
       28
310
0001AAA0
330
99A1
 94
        0
  0
ACAD_PROXY_OBJECT
  5
99EC
330
99A1
100
AcDbProxyObject
 90
      499
 91
      563
 95
       25
 70
     0
 93
       48
310
0001AA000000
330
99A1
330
26
330
99ED
330
0
 94
        0
  0
ACAD_PROXY_OBJECT
  5
99ED
330
99A1
100
AcDbProxyObject
 90
      499
 91
      564
 95
       25
 70
     0
 93
       28
310
0001AAA0
330
99A1
 94
        0
  0
ACAD_PROXY_OBJECT
  5
99F0
330
99A1
100
AcDbProxyObject
 90
      499
 91
      509
 95
       25
 70
     0
 93
      108
310
000101421053521310D05310D010
330
99A1
 94
        0
  0
ACAD_PROXY_OBJECT
  5
99F1
330
99A1
100
AcDbProxyObject
 90
      499
 91
      509
 95
       25
 70
     0
 93
      124
310
00010142905354915554D15112535010
330
99A1
 94
        0
  0
ACAD_PROXY_OBJECT
  5
99F2
330
99A1
100
AcDbProxyObject
 90
      499
 91
      509
 95
       25
 70
     0
 93
      132
310
00010143105354D150D51253D391125360
330
99A1
 94
        0
  0
ACAD_PROXY_OBJECT
  5
99F3
330
99A1
100
AcDbProxyObject
 90
      499
 91
      509
 95
       25
 70
     0
 93
      124
310
00010142905355941093D49111549010
330
99A1
 94
        0
  0
ACAD_PROXY_OBJECT
  5
99F4
330
99A1
100
AcDbProxyObject
 90
      499
 91
      509
 95
       25
 70
     0
 93
      116
310
0001014290535115D1D0D3D313D4A0
330
99A1
 94
        0
  0
ACAD_PROXY_OBJECT
  5
99F5
330
99A1
100
AcDbProxyObject
 90
      499
 91
      509
 95
       25
 70
     0
 93
      148
310
00010143505355925155D49151949154D21010
330
99A1
 94
        0
  0
ACAD_PROXY_OBJECT
  5
99F6
330
99A1
100
AcDbProxyObject
 90
      499
 91
      509
 95
       25
 70
     0
 93
      172
310
00010144105350539393D51154149154D15495915010
330
99A1
 94
        0
  0
ACAD_PROXY_OBJECT
  5
99F7
330
99A1
100
AcDbProxyObject
 90
      499
 91
      509
 95
       25
 70
     0
 93
      172
310
00010144105350555513D11253505494905391D15010
330
99A1
 94
        0
  0
ACAD_PROXY_OBJECT
  5
99F8
330
99A1
100
AcDbProxyObject
 90
      499
 91
      509
 95
       25
 70
     0
 93
      124
310
00010142D05351561514915191125360
330
99A1
 94
        0
  0
ACAD_PROXY_OBJECT
  5
99F9
330
99A1
100
AcDbProxyObject
 90
      499
 91
      509
 95
       25
 70
     0
 93
      132
310
00010142D05355105410539393D5115010
330
99A1
 94
        0
  0
ACAD_PROXY_OBJECT
  5
99FA
330
99A1
100
AcDbProxyObject
 90
      499
 91
      509
 95
       25
 70
     0
 93
      108
310
00010142105350555513D0D31010
330
99A1
 94
        0
  0
ACAD_PROXY_OBJECT
  5
99FB
330
99A1
100
AcDbProxyObject
 90
      499
 91
      509
 95
       25
 70
     0
 93
      108
310
00010142105350D3119150551050
330
99A1
 94
        0
  0
ACAD_PROXY_OBJECT
  5
99FC
330
99A1
100
AcDbProxyObject
 90
      499
 91
      509
 95
       25
 70
     0
 93
      108
310
00010142105350D315925155D3F0
330
99A1
 94
        0
  0
ACAD_PROXY_OBJECT
  5
99FD
330
99A1
100
AcDbProxyObject
 90
      499
 91
      509
 95
       25
 70
     0
 93
      148
310
0001014350535212511156915493D112535010
330
99A1
 94
        0
  0
ACAD_PROXY_OBJECT
  5
99FE
330
99A1
100
AcDbProxyObject
 90
      499
 91
      509
 95
       25
 70
     0
 93
      124
310
00010142905352105510D21254D3D010
330
99A1
 94
        0
  0
ACAD_PROXY_OBJECT
  5
99FF
330
99A1
100
AcDbProxyObject
 90
      499
 91
      509
 95
       25
 70
     0
 93
      148
310
00010143905354D25391D31152105513105660
330
99A1
 94
        0
  0
ACAD_PROXY_OBJECT
  5
9A00
330
99A1
100
AcDbProxyObject
 90
      499
 91
      509
 95
       25
 70
     0
 93
      124
310
00010142D0535115D1D193111254D420
330
99A1
 94
        0
  0
ACAD_PROXY_OBJECT
  5
9A01
330
99A1
100
AcDbProxyObject
 90
      499
 91
      509
 95
       25
 70
     0
 93
      100
310
00010142105350555513D213A0
330
99A1
 94
        0
  0
ACAD_PROXY_OBJECT
  5
9A02
330
99A1
100
AcDbProxyObject
 90
      499
 91
      509
 95
       25
 70
     0
 93
      116
310
000101425053521390D3D553951010
330
99A1
 94
        0
  0
ACAD_PROXY_OBJECT
  5
9A03
330
99A1
100
AcDbProxyObject
 90
      499
 91
      509
 95
       25
 70
     0
 93
      108
310
0001014210535213941493D29010
330
99A1
 94
        0
  0
ACAD_PROXY_OBJECT
  5
9A04
330
99A1
100
AcDbProxyObject
 90
      499
 91
      509
 95
       25
 70
     0
 93
      108
310
0001014210535213951654115070
330
99A1
 94
        0
  0
ACAD_PROXY_OBJECT
  5
9A05
330
99A1
100
AcDbProxyObject
 90
      499
 91
      509
 95
       25
 70
     0
 93
      108
310
000101421053521395925155D0F0
330
99A1
 94
        0
  0
ACAD_PROXY_OBJECT
  5
9A06
330
99A1
100
AcDbProxyObject
 90
      499
 91
      509
 95
       25
 70
     0
 93
      140
310
00010143505354D150D51253D390D3D41660
330
99A1
 94
        0
  0
ACAD_PROXY_OBJECT
  5
9A07
330
99A1
100
AcDbProxyObject
 90
      499
 91
      509
 95
       25
 70
     0
 93
      108
310
00010142105350D3141493D29030
330
99A1
 94
        0
  0
ACAD_PROXY_OBJECT
  5
9A08
330
99A1
100
AcDbProxyObject
 90
      499
 91
      508
 95
       25
 70
     0
 93
      212
310
00010143905350555513D2105510D21493D500000000000002E400
330
99A1
 94
        0
  0
ACAD_PROXY_OBJECT
  5
9A09
330
99A1
100
AcDbProxyObject
 90
      499
 91
      509
 95
       25
 70
     0
 93
      156
310
00010143905350555513D2105510D21111551010
330
99A1
 94
        0
  0
ACAD_PROXY_OBJECT
  5
9A12
330
99A1
100
AcDbProxyObject
 90
      499
 91
      570
 95
       25
 70
     0
 93
      698
310
0001000000009AA6A9AA4051E467269204A756E2032332030373A34373A333020323030362028555443290141CE4B8C8B8C0B8C80518467269204F63742030382031333A33313A343020323031300141CE4B8C8B8C0B8C80
330
99A1
330
9A13
330
9A14
330
9A16
330
0
 94
        0
  0
ACAD_PROXY_OBJECT
  5
9A13
330
99A1
100
AcDbProxyObject
 90
      499
 91
      571
 95
       25
 70
     0
 93
       70
310
0001AAA80820000000
330
99A1
330
9A13
330
9A13
 94
        0
  0
ACAD_PROXY_OBJECT
  5
9A14
330
99A1
100
AcDbProxyObject
 90
      499
 91
      572
 95
       25
 70
     0
 93
       48
310
000100000000
330
99A1
330
0
330
9A15
330
0
330
0
 94
        0
  0
ACAD_PROXY_OBJECT
  5
9A15
330
99A1
100
AcDbProxyObject
 90
      499
 91
      573
 95
       25
 70
     0
 93
       40
310
000100AAAA
330
99A1
330
0
 94
        0
  0
ACAD_PROXY_OBJECT
  5
9A1B
330
99A1
100
AcDbProxyObject
 90
      499
 91
      522
 95
       25
 70
     0
 93
      180
310
00010143105050D3D35411119390535140504434F4D500
330
99A1
 94
        0
  0
ACAD_PROXY_OBJECT
  5
9A1C
330
99A1
100
AcDbProxyObject
 90
      499
 91
      522
 95
       25
 70
     0
 93
      212
310
0001014390505193D311115491119390535140506466F6C6465720
330
99A1
 94
        0
  0
ACAD_PROXY_OBJECT
  5
9A1D
330
99A1
100
AcDbProxyObject
 90
      499
 91
      522
 95
       25
 70
     0
 93
      180
310
00010143105050539393D1119390535140504284156290
330
99A1
 94
        0
  0
ACAD_PROXY_OBJECT
  5
9A1E
330
99A1
100
AcDbProxyObject
 90
      499
 91
      522
 95
       25
 70
     0
 93
      436
310
00010143905050D3D35415925155D31254D50052295BD96CA0A90B396CA0A894591A496CA0A8DB691A496CA0A89BA96CA0A95E28F95310
330
99A1
 94
        0
  0
ACAD_PROXY_OBJECT
  5
9A23
330
99A1
100
AcDbProxyObject
 90
      499
 91
      578
 95
       25
 70
     0
 93
       32
310
00010000
330
99A1
340
9A20
330
9A25
330
9A20
 94
        0
  0
ACAD_PROXY_OBJECT
  5
9A24
330
99A1
100
AcDbProxyObject
 90
      499
 91
      579
 95
       25
 70
     0
 93
       18
310
000180
330
99A1
 94
        0
  0
ACAD_PROXY_OBJECT
  5
9A25
330
99A1
100
AcDbProxyObject
 90
      499
 91
      580
 95
       25
 70
     0
 93
      186
310
0001014310CD0B51111293948B50CC4D5050055401550000
330
99A1
330
9A23
330
9A24
 94
        0
  0
ACAD_PROXY_OBJECT
  5
9A26
330
99A1
100
AcDbProxyObject
 90
      499
 91
      581
 95
       25
 70
     0
 93
      178
310
000100AAAAAAB54A018816C84011E71A8B242D3714CA40
330
99A1
330
9A25
 94
        0
  0
ACAD_PROXY_OBJECT
  5
9A27
330
99A1
100
AcDbProxyObject
 90
      499
 91
      582
 95
       25
 70
     0
 93
      108
310
000190140A000000000000AAAAA0
330
99A1
330
9A28
330
9A28
330
9A28
330
9A28
330
9A28
330
0
 94
        0
  0
ACAD_PROXY_OBJECT
  5
9A28
330
99A1
100
AcDbProxyObject
 90
      499
 91
      583
 95
       25
 70
     0
 93
       51
310
00010000AAAA80
330
99A1
330
9A27
330
9A25
 94
        0
  0
ACAD_PROXY_OBJECT
  5
9A2B
330
99A1
100
AcDbProxyObject
 90
      499
 91
      522
 95
       25
 70
     0
 93
      140
310
00010142105350D55494D511005034A49530
330
99A1
 94
        0
  0
DICTIONARY
  5
40
102
{ACAD_REACTORS
330
3F
102
}
330
3F
100
AcDbDictionary
281
     1
  3
DWGSETTINGS
350
999E
  3
Shaft
350
9F38
  3
TRANSSETTINGS
350
999F
  0
ACAD_PROXY_OBJECT
  5
99B4
102
{ACAD_REACTORS
330
3F
102
}
330
3F
100
AcDbProxyObject
 90
      499
 91
      519
 95
       25
 70
     0
 93
    17944
310
41502491013041105357CC201C00030C0132441013141105357CC603800030C0132441013241105357CCA01400030C0132441013341105357CCE01800030C01199013441105357CD200C00030C01199013541105357CD600C00030C01199013641105357CDA00800030C01239013741105357CDE01000030C0119901384110
310
5357CE200400030C01199013941105357CE63F400030C0241102324141505357CC4C201C00030C0132902344141505357CC4C600C00030C0119902495041505357CC4CA01C00030C013240902304E41505357CC13A01C00030C0132902314E41505357CC53A03800030C0132902324E41505357CC93A01400030C013290233
310
4E41505357CCD3A01800030C0119902344E41505357CD13A00C00030C0119902354E41505357CD53A00C00030C0119902364E41505357CD93A00800030C0123902374E41505357CDD3A01000030C0119902384E41505357CE13A00400030C0119902394E41505357CE53A3F400030C024110332414E41905357CC4C13A01C0
310
0030C013290334414E41905357CC4C53A00C00030C011990349504E41905357CC4C93A01C00030C0132409044B4C494E41505357D0D3200400030C011942504494E464F42105357D410549151A01000030C011942D055241484D3541905357D093D4A01C00030C0132425045649455742105357D5925155D4E00400030C011
310
942D06424548494E4441905357D25395A3F400030C0243505545241494C41505357D514A00C00030C01194250348494441905357D21251201C00030C01194250356495341905357D59254E01C00030C01324250650415244494D42505357D41054911253600C00030C01194250652454644494D42505357D49151911253601
310
000030C0119425534110921395901398000000C0003FFFFFFFE415092139594D06424548494E448000000C0003FFFFFFFE411093D48C9055241484D358010000C300466411093D48CD055241484D358020000C30048E411093D48D5055241484D358000000C0003FFFFFFFE4110D0530C901348000000C0003FFFFFFFE4110
310
D0530CD01348020000C30048E4110D0530D501348070000C3004CA4110D0530DD013481E0000C30051A4110D15393901378000000C0003FFFFFFFE4110D15395D01378000000C0003FFFFFFFE4110D312539044B4C494E8000000C0003FFFFFFFE4110D3D38C501308000000C0003FFFFFFFD034110D3D38C901318000000C
310
0003FFFFFFFD034110D3D38CD01328000000C0003FFFFFFFD034110D3D38D101328000000C0003FFFFFFFD034111115510501348000000C0003FFFFFFFE4111125051D01358000000C0003FFFFFFFE4111125312501358000000C0003FFFFFFFE411112535410650415244494D8000000C0003FFFFFFFE4111125354906524
310
54644494D8000000C0003FFFFFFFE4111915353901388000000C0003FFFFFFFE415191535413901388030000C3003FFFFFFFE4151915354D410234418000000C0003FFFFFFFE4151915354D510234418030000C300466415191535593901328000000C0003FFFFFFFE415191535595101328030000C3004664112105510D01
310
388000000C0003FFFFFFFD014112125113901338000000C0003FFFFFFFD034112125115D01338000000C0003FFFFFFFD034112131253901348000000C0003FFFFFFFD01411213D0D3901378000000C0003FFFFFFFE411213D0D5D01378000000C0003FFFFFFFE4112539193D04494E464F8000000C0003FFFFFFFE41131150
310
51101358000000C0003FFFFFFFE419397D0921395902394E8000000C0003FFFFFFFE419397D0D3D38C502304E8000000C0003FFFFFFFD03419397D0D3D38C902314E8000000C0003FFFFFFFD03419397D0D3D38CD02324E8000000C0003FFFFFFFD03419397D0D3D38D102324E8000000C0003FFFFFFFD03419397D0D15393
310
902374E8000000C0003FFFFFFFE419397D0D15395D02374E8000000C0003FFFFFFFE419397D1125312502354E8000000C0003FFFFFFFE419397D2105510D02384E8000000C0003FFFFFFFD01419397D2125113902334E8000000C0003FFFFFFFD03419397D2125115D02334E8000000C0003FFFFFFFD03419397D311505110
310
2354E8000000C0003FFFFFFFE419397D391D25410349504E8000000C0003FFFFFFFE419397D412105390334414E8000000C0003FFFFFFFE419397D510D3D3902304E8000000C0003FFFFFFFD03419397D5121312502344E8000000C0003FFFFFFFD01419397D5131153902304E8000000C0003FFFFFFFD03419397D5941312
310
50332414E8000000C0003FFFFFFFE411391D25410249508000000C0003FFFFFFFE411410530C9055241484D358010000C300466411410530CD055241484D358020000C30048E411410530D5055241484D358000000C0003FFFFFFFE411412105390234418000000C0003FFFFFFFE411413D4D3901358000000C0003FFFFFFF
310
E411490D1D3901378000000C0003FFFFFFFE411490D1D5D01378000000C0003FFFFFFFE4114D09492D01348000000C0003FFFFFFFD014114D150D5101348000000C0003FFFFFFFD014114D6508CD01358020000C30048E411354D653501358020000C30048E411510D3D3901308000000C0003FFFFFFFD0341151213125013
310
48000000C0003FFFFFFFD01411512550C9055241484D358010000C300466411512550CD055241484D358020000C30048E411512550D5055241484D358000000C0003FFFFFFFE4115131153901308000000C0003FFFFFFFD03415514905253105545241494C8000000C0003FFFFFFFE4115149312501348000000C0003FFFFF
310
FFD01411516150C501368030000C300466411516150C901368030000C300466411516150CD01368000000C0003FFFFFFFE411516150D501368070000C3004CA411516150DD013681E0000C30051A4115925155D04564945578000000C0003FFFFFFFE41159151121034849448000000C0003FFFFFFFD024115915115903564
310
9538000000C0003FFFFFFFD02411594131250232418000000C0003FFFFFFFE4116925690501348000000C0003FFFFFFFD01AAA00000030401013F90A405194092340D1941119415324191941D3243932479467F6
340
16
340
16
340
16
340
43
340
16
340
16
340
16
340
44
340
16
340
16
340
44
340
45
340
16
340
16
340
16
340
16
340
43
340
16
340
16
340
16
340
44
340
16
340
16
340
44
340
45
340
16
340
46
340
16
340
16
340
16
340
16
340
16
340
43
340
16
340
16
340
16
340
15
340
15
340
15
340
15
340
15
340
15
340
15
340
15
340
15
340
48
340
15
340
15
340
15
340
15
340
15
340
15
340
15
340
15
340
15
340
15
340
15
340
15
340
15
340
16
340
15
340
15
340
15
340
15
340
47
340
15
340
15
340
48
340
15
340
15
340
15
340
15
340
15
340
15
340
15
340
15
340
48
340
15
340
15
340
15
340
47
340
15
340
15
340
15
340
15
340
15
340
15
340
15
340
15
340
15
340
15
340
15
340
15
340
15
340
15
340
48
340
15
340
15
340
15
340
15
340
15
340
15
340
15
340
15
340
15
340
15
340
15
340
15
340
15
340
15
340
15
340
15
340
15
340
15
340
15
340
15
340
15
340
15
340
4B
 94
        0
  0
XRECORD
  5
1CA0
102
{ACAD_REACTORS
330
1C9F
102
}
330
1C9F
100
AcDbXrecord
280
     1
  1
21000845__00___
  0

  0
XRECORD
  5
1CA2
102
{ACAD_REACTORS
330
1CA1
102
}
330
1CA1
100
AcDbXrecord
280
     1
  1
3
  0

  0
ACAD_PROXY_OBJECT
  5
99B1
102
{ACAD_REACTORS
330
99B0
102
}
330
99B0
100
AcDbProxyObject
 90
      499
 91
      521
 95
       25
 70
     0
 93
      157
310
057356C1D77406406AA8FFFFFFFF05DD01009010
330
1F
330
0
330
9A25
 94
        0
  0
ACAD_PROXY_OBJECT
  5
AC70
102
{ACAD_REACTORS
330
17E
102
}
330
17E
100
AcDbProxyObject
 90
      499
 91
      607
 95
       25
 70
     0
 93
     2395
310
5DCB81E85EB51B8BE3F8030000C30041105394D2501640600800030C0200800030C00B81E85EB51B8BE3F48821E8720B1B6A9BAB9332A32BC3A29BA3220480A1282C6DA8C868CA6E8C88120286A0B1B6ABB2B63234B733A9BA3220480A1082C6DA92C8A6E8C88120285A0B1B6A230BA3AB6A9BA3220480A1282C6DA849E9AA
310
6E8C8812028820B6B23A2232BA30B4B629BCB6A9BA3220480A2282DAC8E8A6CAC6E8D2DEDCA6F2DAA6E8C88120288A0B6B23A21B2B73A32B92634B732A9BA3220480A2282DAC8E8A8D0E4CAC2C898D2DCCAA6E8C88120285A0B6B23A2737BA32A9BA3220480A1682C682DACE98C2F2A6E8C88120285A0B1A0B6B3A234B6A9B
310
A3220480A2282C682DACE90DED8CA86D0C2E4E8A6E8C88120286A0B1A0B6B3AA34BA3632A9BA3220480A02812020
340
A6BC
360
AC71
360
AC72
360
AC73
360
AC74
360
AC75
360
AC76
360
AC77
360
AC78
360
AC79
360
AC7A
360
AC7B
360
AC81
360
AC82
360
AC83
360
AC84
340
0
340
0
 94
        0
  0
ACAD_PROXY_OBJECT
  5
9A35
102
{ACAD_REACTORS
330
17E
102
}
330
17E
100
AcDbProxyObject
 90
      499
 91
      589
 95
       25
 70
     0
 93
     2497
310
5DC0000000000000C408030000C30040D254D3D01640600800030C0200800030C000000000000000C40C88A2085A0B6B23A22B233B2A9BA3220480A1C82C6DAA6EAE4CCA8CAF0E8A6E8C88120284A0B1B6A321A329BA3220480A1A82C6DAAECAD8C8D2DCCEA6E8C8812028420B1B6A4B229BA3220480A1682C6DA88C2E8EAD
310
AA6E8C88120284A0B1B6A127A6A9BA3220480A2082DAC8E888CAE8C2D2D8A6F2DAA6E8C88120288A0B6B23A29B2B1BA34B7B729BCB6A9BA3220480A2282DAC8E886CADCE8CAE498D2DCCAA6E8C88120288A0B6B23A2A343932B0B22634B732A9BA3220480A1682DAC8E89CDEE8CAA6E8C88120285A0B1A0B6B3A630BCA9BA3
310
220480A1682C682DACE88D2DAA6E8C88120288A0B1A0B6B3A437B632A1B430B93A29BA3220480A1A82C682DACEA8D2E8D8CAA6E8C8812032048080
340
9A36
360
9A37
360
9A38
360
9A39
360
9A3A
360
9A3B
360
9A3C
360
9A3D
360
9A3E
360
9A3F
360
9A40
360
9A41
360
9A42
360
9A4D
360
9A4E
360
9A4F
360
9A50
340
0
340
0
 94
        0
  0
ACAD_PROXY_OBJECT
  5
9CBB
102
{ACAD_REACTORS
330
17E
102
}
330
17E
100
AcDbProxyObject
 90
      499
 91
      526
 95
       25
 70
     0
 93
     2379
310
5DC33333333333309408000000C00040D29254D01640600800030C0200800030C003333333333330940C8121E8720B1B6A9BAB9332A32BC3A29BA3220480A1282C6DA8C868CA6E8C88120286A0B1B6ABB2B63234B733A9BA3220480A1082C6DA92C8A6E8C88120285A0B1B6A230BA3AB6A9BA3220480A1282C6DA849E9AA6E
310
8C88120286A0B1A0B6B3AA34BA3632A9BA3220480A2082DAC8E888CAE8C2D2D8A6F2DAA6E8C88120288A0B6B23A29B2B1BA34B7B729BCB6A9BA3220480A2282DAC8E886CADCE8CAE498D2DCCAA6E8C88120288A0B6B23A2A343932B0B22634B732A9BA3220480A1682DAC8E89CDEE8CAA6E8C88120285A0B1A0B6B3A630BCA
310
9BA3220480A1682C682DACE88D2DAA6E8C88120288A0B1A0B6B3A437B632A1B430B93A29BA3220480C812020
340
180
360
9CBC
360
9CBD
360
9CBE
360
9CBF
360
9CC0
360
9CC1
360
9CC2
360
9CC3
360
9CC4
360
9CC5
360
9CC6
360
9CC7
360
9CCD
360
9CCE
360
9CCF
340
0
340
0
 94
        0
  0
ACAD_PROXY_OBJECT
  5
999E
102
{ACAD_REACTORS
330
40
102
}
330
40
100
AcDbProxyObject
 90
      499
 91
      518
 95
       25
 70
     0
 93
     2836
310
4050B44574753455454494E4753A0E8482A68AA6A88882A069492A684A1A0A723A0A92920ACA0A811C1AA0C868A9C829C8E82A12686AF87260F862666A8321A2A72224A0A503675799DACEDA5A020E868A9C889282A682A106260F86460F8666083A1A2A72224A9AA250000000000000042020C868A9C988A9C94000000000
310
000048808321A2A727A323250000000000000122020E868A9C9E8C8C62940000000000000488083A1A2A727A3231925000000000000012202128698929C82A4A482B282A04626C8421A624A722AA2CA820A82AC2624A722A1288AE8EAAA68682988A94283A620A9AA27A12520A821B9A1C192109A82968AAC928AAE9FA0483
310
2829A1A0A622830020000419491559254D2505404C1055343414C4541503313A314214D510539110549110540D29254D0954494D455354414D504A036032102792B734141D5915494D253D3905414C4D4B8C0C1107B44574753455454494E4753454E447D0
  0
ACAD_PROXY_OBJECT
  5
9F38
102
{ACAD_REACTORS
330
40
102
}
330
40
100
AcDbProxyObject
 90
      499
 91
      518
 95
       25
 70
     0
 93
      199
310
405055368616674220F688AE8EA68AA8A8929C8EA68A9C88FA
  0
ACAD_PROXY_OBJECT
  5
999F
102
{ACAD_REACTORS
330
40
102
}
330
40
100
AcDbProxyObject
 90
      499
 91
      518
 95
       25
 70
     0
 93
      852
310
4050D5452414E5353455454494E4753A2488A482AE929C8EA8A4829CA69882A8929E9C0C00800050D4F524947494E414C4C595F4F4E0600400008529A7AAA921A2A620A723A0A81A52827212AAA0A48AA68AA4AC8A0C0080001107B44574753455454494E4753454E447D0
  0
ACAD_PROXY_OBJECT
  5
AC71
330
AC70
100
AcDbProxyObject
 90
      499
 91
      608
 95
       25
 70
     0
 93
       96
310
5DC20E80A0280A0280A02808
  0
ACAD_PROXY_OBJECT
  5
AC72
330
AC70
100
AcDbProxyObject
 90
      499
 91
      609
 95
       25
 70
     0
 93
      332
310
5DD0E4050140501405014050140501405014050142501405014050140501405012000000000000000400
340
A6BD
 94
        0
  0
ACAD_PROXY_OBJECT
  5
AC73
330
AC70
100
AcDbProxyObject
 90
      499
 91
      610
 95
       25
 70
     0
 93
      403
310
5DCC199999999999E99F91F4050140501405014050140501405014050140501405014050140501405014050140501405014040
340
0
 94
        0
  0
ACAD_PROXY_OBJECT
  5
AC74
330
AC70
100
AcDbProxyObject
 90
      499
 91
      611
 95
       25
 70
     0
 93
       10
310
5DC0
  0
ACAD_PROXY_OBJECT
  5
AC75
330
AC70
100
AcDbProxyObject
 90
      499
 91
      612
 95
       25
 70
     0
 93
      257
310
5DE290EA22A7D90F49F9353333333333727F44D4CCCCCCCCCDC9FC010000618000
340
A6BA
340
A6BB
 94
        0
  0
ACAD_PROXY_OBJECT
  5
AC76
330
AC70
100
AcDbProxyObject
 90
      499
 91
      613
 95
       25
 70
     0
 93
    13023
310
5DD0E411255115350141236025B6901405014069011309A4F2590CB64FD3347454E545241434F2C4A504E2C302C8D8096DA2C47454E54524154582C25732C2847454E4D53472067656E647767203232322940690120281A8AA2CA0282484A4BE52028120280A03202261349E4B2196C9FA668E8A9CA8A482869E5894A09C58
310
605921292F94588E8A9CA8A482A8B0584AE658508E8A9C9AA68E40CECADCC8EECE406464665280D202405044E414D454050496BC914F4051C40640A8B95C2E97CBE502404CD1D15395149050D3CB1294138B0C0B25AF2453CB11D15395149055160B095CCB0A11D1539354D1C819D95B991DD9C80C8C8D8A50192C3D494628
310
4953424C414E4B28504152543A4E414D45292C424C4F434B3A4E414D452C504152543A4E414D452940480A0A888AA686A480A09251B1DBE80A3A80C81D10782C06030180C8099A3A2A72A2920A1A7962528271618164946C76F9623A2A72A2920AA2C1612B9961423A2A726A9A39033B2B7323BB39019189B94A0248090142
310
14D51053911054911014122D2E29A50147501904A383BFDFEFF5FBFCFD3347454E545241434F2C4A504E2C302C8B4B8A692C47454E54524154582C25732C2847454E4D53472067656E64776720323138294049012028426A0AA22A924A0A62028246EF4BDFA028EA0320B41396D838E9017D9FA668E8A9CA8A482869E5894A
310
09C5860591BBD2F7E588E8A9CA8A482A8B0584AE658508E8A9C9AA68E40CECADCC8EECE406464625280D202405044E4F544540504928D8B4C4051D40641A8B95C2E97CBE5F23F4CD1D15395149050D3CB1294138B0C0B24A362D30B11D15395149055160B095CCB0A11D1539354D1C819D95B991DD9C80C8C8D4A501A40480
310
A0CAC8A9C889EA480A1106F1072706BF02B680A3A80C83D172B85D2F97CBE47E9BA3A2A72A2920A1A79625282716181641BC41C9C1AFC0AD9623A2A72A2920AA2C1612B9961423A2A726A9A39033B2B7323BB39019191A14A0348090141911154D0D48C90141A43825AF880C90147501908A20F0580C0603019013447454E5
310
45241434F2C4A504E2C302C90E096BE20322C47454E54524154582C25732C2847454E4D53472067656E6477672033362940490120284A9AA20A72220A922192028345A5C53490192028EA0321347077FBFDFEBF7F9FA6A8E8A9CA8A482869E5894A09C586059169714D24064588E8A9CA8A482A8B0584AE658508E8A9C9AA6
310
8E40CECADCC8EECE4064646052809202405094D4154455249414C32405068DDE97BF20324051D40642A8272DB071D202FB3F4D11D15395149050D3CB1294138B0C0B2377A5EFC80C8B11D15395149055160B095CCB0A11D1539354D1C819D95B991DD9C80D0C0A501240480A089A82A6A680A091D7F2F9480A3A80A0485A06
310
81172B85D2F97CBE47E9923A2A72A2920A1A796252827161816475FCBE51623A2A72A2920AA2C1612B9961423A2A726A9A39033B2B7323BB3901A1914A024809014154149250D150141226FE29A501475014090C409022E570BA5F2F97C8FD3247454E545241434F2C4A504E2C302C89BF8A692C47454E54524154582C2573
310
2C2847454E4D53472067656E6477672034332940490120281A224A6A02824850CB202028EA028121A81A045CAE174BE5F2F91FA648E8A9CA8A482869E5894A09C58605921432C80588E8A9CA8A482A8B0584AE658508E8A9C9AA68E40CECADCC8EECE406868528092024050E441022E07A17AD46E338FE07800030C0001018
310
ACD56AB55AADF63F2B355AAD56AB7D8FD073D3C4954454D3E405018ACD56AB55AADF63F2B355AAD56AB7D8FD073D3C4954454D3E40501890C7E3F1783CEE3F2431F8FC5E0F3B8FD073D3C4954454D3E40501890C7E3F1783CEE3F2431F8FC5E0F3B8FD073D3C4954454D3E405029012B355AAD56AB7D8FCACD56AB55AADF63
310
F41CF4F125511534F901418F4F1455164F9014062B355AAD56AB7D8FCACD56AB55AADF63F41CF4F125511534F9014061309A4F2590CBA4FC4C2693C96432E93F41CF4F125511534F901901002B355AAD56AB7D8FCACD56AB55AADF63FA2000000000000008204018000618048220681A048120280C88214844882034852034
310
8452028521485214814000000000000F0BF0000000000003C2FD018020000C3008070000C3000EF7D3E365DBA88FC3BDF4F8D976EA23F2E07A17AD46E2F8FF20341A405024150741A4069703D0BD6A3717C7F0040001860100400018601002000186002026280A02
340
0
340
0
 94
        0
  0
ACAD_PROXY_OBJECT
  5
AC77
330
AC70
100
AcDbProxyObject
 90
      499
 91
      614
 95
       25
 70
     0
 93
      994
310
5DC0B81E85EB51B8CE3F4BCF511155105253080F11115510525317D3105091530F971414D0D05311480F11115510525317D05094D4D0D053114F92341C9A9999999999B93F26A666666666724FC000000000000E03F4000000000000004000000000000005100000000000000244081E0000C3002E07A17AD46E338FC0
340
12AC
340
A6BC
 94
        0
  0
ACAD_PROXY_OBJECT
  5
AC78
330
AC70
100
AcDbProxyObject
 90
      499
 91
      615
 95
       25
 70
     0
 93
      823
310
5DC031703D0BD6A3719C7E999EA9A2A1AA24A7A7101E29A2A1AA24A7A72FA620A122A62FA324A929AA1F169E29A2A1AA24A7A72FA620A122A62FA620A9AA1F1353333333333B27E3FFFE01C00030C008840F000061801353333333333B27F1703D0BD6A3719C7E
340
12AC
340
A6BC
 94
        0
  0
ACAD_PROXY_OBJECT
  5
AC79
330
AC70
100
AcDbProxyObject
 90
      499
 91
      616
 95
       25
 70
     0
 93
      280
310
5DC2B8716D9CEF7C33F0A5723F0BD4A2F0FC295C8FC2F528BC3FA199999999999F99FC
  0
ACAD_PROXY_OBJECT
  5
AC7A
330
AC70
100
AcDbProxyObject
 90
      499
 91
      617
 95
       25
 70
     0
 93
       14
310
5DE4
340
0
 94
        0
  0
ACAD_PROXY_OBJECT
  5
AC7B
330
AC70
100
AcDbProxyObject
 90
      499
 91
      618
 95
       25
 70
     0
 93
     7123
310
5DD084050BA4050AA405024050E836583938376838C815B8367203140405013D3C696628657175616C28486F6C653A7461707065642C223022292C22252563222C486F6C653A6E6F6D696E616C2022202220696628657175616C28486F6C653A756E6974732C223122292C2278222C222D222920222022293E3C6966286571
310
75616C28486F6C653A7461707065642C223022292C486F6C653A6469612C486F6C653A706974636864657363293E207B5C46414D4744543B787D203C696628657175616C28486F6C653A7465726D696E6174696F6E2C223022292C486F6C653A64657074682C228AD192CA22293E5C507B5C46414D4744543B767D2525633C
310
486F6C653A63746469613E207B5C46414D4744543B787D203C486F6C653A637464657074683E406901405034050E836583938376838C815B83672031405FE3D3C696628657175616C28486F6C653A7461707065642C223022292C22252563222C486F6C653A6E6F6D696E616C2022202220696628657175616C28486F6C653
310
A756E6974732C223122292C2278222C222D222920222022293E3C696628657175616C28486F6C653A7461707065642C223022292C486F6C653A6469612C486F6C653A706974636864657363293E207B5C46414D4744543B787D203C696628657175616C28486F6C653A7465726D696E6174696F6E2C223022292C486F6C653
310
A64657074682C228AD192CA22293E5C507B5C46414D4744543B777D2525633C486F6C653A63746469613E2058203C486F6C653A6374616E676C653E252564406901405014050E836583938376838C815B83672031405CF3D3C696628657175616C28486F6C653A7461707065642C223022292C22252563222C486F6C653A6E
310
6F6D696E616C2022202220696628657175616C28486F6C653A756E6974732C223122292C2278222C222D222920222022293E3C696628657175616C28486F6C653A7461707065642C223022292C486F6C653A6469612C486F6C653A706974636864657363293E5C507B5C46414D4744543B787D203C696628657175616C2848
310
6F6C653A7465726D696E6174696F6E2C223022292C486F6C653A64657074682C228AD192CA22293E4069014051E4090E836583938376838C815B83672032405173D3C535444503A444553433E203C535444503A5354443E40690E836583938376838C815B836720314050C3D3C535444503A444553433E40690240515AAABB
310
A060
360
AC7C
330
AC7C
360
AC7D
330
AC7D
360
AC7E
330
AC7E
360
AC7F
360
AC80
330
AC7F
330
AC80
 94
        0
  0
ACAD_PROXY_OBJECT
  5
AC81
330
AC70
100
AcDbProxyObject
 90
      499
 91
      542
 95
       25
 70
     0
 93
       26
310
5DD02A80
340
0
 94
        0
  0
ACAD_PROXY_OBJECT
  5
AC82
330
AC70
100
AcDbProxyObject
 90
      499
 91
      543
 95
       25
 70
     0
 93
      258
310
5DD02000000000000380FC000000000000E03F408F0F9023C3E40DB18CCCFFFF80
340
A6BE
340
0
340
0
340
A6C1
340
A6C2
340
0
340
A6C3
340
A6C4
340
A6C5
340
0
 94
        0
  0
ACAD_PROXY_OBJECT
  5
AC83
330
AC70
100
AcDbProxyObject
 90
      499
 91
      619
 95
       25
 70
     0
 93
    13993
310
5DD1D023FFFFFFFD010300002E07A17AD46E2F8FE00800030C01010300002E07A17AD46E2F8FE00800030C00050C8DC0955782CC838A83588367014ED1D15395149050D3CB1294138B0C0B23702555E0B320E2A0D620D9CB11D15395149055160B095CCB0A11D1539354D1C819D95B991A5B5E880CCC0A78000C0000000000
310
00000000000000000000007B14AE47E17AA43F2E07A17AD46E2F8FE00800030C007B14AE47E17AA43F2E07A17AD46E2F8FE00800030C020143CF4F111959985D5B1D151A5D1B194F8050A8C8A8365815B8375838B014E51D15395149050D3CB1294138B0C0B2322A0D96056E0DD60E2CB11D15395149055160B095CCB0A11D
310
1539354D1C819D95B991A5B5E880CCC4A78000C000000000000000000000000000000007B14AE47E17AA43F2E07A17AD46E2F8FE00800030C007B14AE47E17AA43F2E07A17AD46E2F8FE00800030C020143CF4F111959985D5B1D151A5D1B194F90D4410F4450240D0441507431014391244D05449074510C4350F00014123
310
2D24D7C053247454E545241434F2C4A504E2C302C8CB4935F2C47454E54524154582C25732C2847454E4D53472067656E64696D7A20312900010104002214000282465A49AF80A648E8A9CA8A482869E5894A09C586059196926BE588E8A9CA8A482A8B0584AE658508E8A9C9AA68E40CECADCC8D2DAF44062520002020800
310
43E80005028C8A014C11D15395149050D3CB1294138B0C0B23228B11D15395149055160B095CCB0A11D1539354D1C819D95B991A5B5E880C8A4054E3D3C4946284953424C414E4B28486F6C654974656D292C4F726967696E2C20486F6C654974656D293E3C4946284953424C414E4B28486F6C654974656D292C22222C204
310
86F6C65496E646578293E010104002234000280AC00A5E8E8A9CA8A482869E5894A09C586058B0588E8A9CA8A482A8B0584AE658508E8A9C9AA68E40CECADCC8D2DAF4406652000202000040A800050159014BD1D15395149050D3CB1294138B0C0B164B11D15395149055160B095CCB0A11D1539354D1C819D95B991A5B5E
310
880D0A4000404000081D0000A02A40297A3A2A72A2920A1A796252827161816291623A2A72A2920AA2C1612B9961423A2A726A9A39033B2B73234B6BD101B148000808000104A000140A0F4C053047454E545241434F2C4A504E2C302C83D32C47454E54524154582C25732C2847454E4D53472067656E64696D7A20372900
310
0101030020B400028141E980A608E8A9CA8A482869E5894A09C58605907A6588E8A9CA8A482A8B0584AE658508E8A9C9AA68E40CECADCC8D2DAF4407052000202020041E800050490E096BE014CD1D15395149050D3CB1294138B0C0B243825AF8B11D15395149055160B095CCB0A11D1539354D1C819D95B991A5B5E880C8
310
C0A400040010008650000A091B012DB40299A3A2A72A2920A1A79625282716181646C04B6D1623A2A72A2920AA2C1612B9961423A2A726A9A39033B2B73234B6BD10189A148000808280501A00014320D0E0E4E0D9A0D8A0D3A0D60053B47454E545241434F2C4A504E2C302C8343839383668362834E83582C47454E54524
310
154582C25732C2847454E4D53472067656E64696D7A203135290001010500A1D4000281464500A628E8A9CA8A482869E5894A09C5860591914588E8A9CA8A482A8B0584AE658508E8A9C9AA68E40CECADCC8D2DAF440626C52000202080044A800050E8C8A8343839383668362834E8358014F51D15395149050D3CB129413
310
8B0C0B2322A0D0E0E4E0D9A0D8A0D3A0D60B11D15395149055160B095CCB0A11D1539354D1C819D95B991A5B5E880C4DCA4000404140089D0000A0921292F940299A3A2A72A2920A1A796252827161816484A4BE51623A2A72A2920AA2C1612B9961423A2A726A9A39033B2B73234B6BD10189C948000808300114A0001412
310
2D2E29A4053347454E545241434F2C4A504E2C302C8B4B8A692C47454E54524154582C25732C2847454E4D53472067656E64696D7A20323129000100040021B4878030026A6666666667A4FE064D4CCCCCCCCCF49FC049A9999999999E93F809353333333333D27F0226A6666666667A4FE044D4CCCCCCCCCF49FC0D818000
310
00000000000810026A666666666764FE004D4CCCCCCCCCF49FC009A9999999999E93F801353333333333D27F032E07A17AD46E378FE0633B333333333032050F006004D4CCCCCCCCCF49FC0C9A9999999999E93F819353333333333D27F0326A6666666667A4FE064D4CCCCCCCCCF49FC0C9A9999999999E93F81B03000000
310
00000000102004D4CCCCCCCCCEC9FC009A9999999999E93F819353333333333D27F0026A6666666667A4FE065C0F42F5A8DC6F1FC0C6766666666660640A088800000021E000000890000002260000008220E000200890000002060002008100008000
340
0
340
0
340
0
340
0
340
A6BC
340
A6BC
 94
        0
  0
ACAD_PROXY_OBJECT
  5
AC84
330
AC70
100
AcDbProxyObject
 90
      499
 91
      537
 95
       25
 70
     0
 93
     5214
310
5DD9741105394D2506414E53495F4342905394D257D512551554D15414E53495F54525F5265766973696F6E6C697374614191143202831372E307832322E30696E63682941905394D257D0D1146202832382E307834302E30696E63682941905394D257D191142202831312E307831372E30696E63682941905394D257D091
310
144202832322E307833342E30696E63682941905394D257D111145202833342E307834342E30696E63682941905394D257D1510412028382E357831312E30696E63682941905394D257D050543905B9CDA482557247A25E4C81110D0C414E53495F5449544C45444343505B9CDA482557247A25E4C81050B414E53495F5449
310
544C454143905B9CDA482557247A25E4C81050D0C414E53495F5449544C454143425554C82557247A25E4D0A414E53495F544954555343505B9CDA482557247A25E4C81110B414E53495F5449544C454442110979A97F0838A8358836720415F42525F45505394D257D09497D4995D9A5CDA5BDB9B1A5CDD18510979A97F08
310
38A8358836720415F54525F45505394D257D51497D4995D9A5CDA5BDB9B1A5CDD18510979A97F0838A8358836720445F42525F45505394D257D09497D4995D9A5CDA5BDB9B1A5CDD19110979A97F0838A8358836720445F54525F45505394D257D51497D4995D9A5CDA5BDB9B1A5CDD19110979A97F0838A8358836720415F
310
424C5F45505394D257D09317D4995D9A5CDA5BDB9B1A5CDD18510979A97F0838A8358836720415F544C5F45505394D257D51317D4995D9A5CDA5BDB9B1A5CDD18510979A97F0838A8358836720445F424C5F45505394D257D09317D4995D9A5CDA5BDB9B1A5CDD19110979A97F0838A8358836720445F544C5F45505394D25
310
7D51317D4995D9A5CDA5BDB9B1A5CDD190
  0
ACAD_PROXY_OBJECT
  5
9A37
330
9A35
100
AcDbProxyObject
 90
      499
 91
      590
 95
       25
 70
     0
 93
       13
310
5DD8
  0
ACAD_PROXY_OBJECT
  5
9A38
330
9A35
100
AcDbProxyObject
 90
      499
 91
      591
 95
       25
 70
     0
 93
       96
310
5DEA0E80A0280A0280A0280F
  0
ACAD_PROXY_OBJECT
  5
9A39
330
9A35
100
AcDbProxyObject
 90
      499
 91
      592
 95
       25
 70
     0
 93
      272
310
5DD0E4050140501405014050140501405014050140D01405012C0000000000000040
340
9A43
 94
        0
  0
ACAD_PROXY_OBJECT
  5
9A3A
330
9A35
100
AcDbProxyObject
 90
      499
 91
      593
 95
       25
 70
     0
 93
      497
310
5DE8666666666667A67E199999999999E99FD22405014050140501405014050140501405014050140501405014050140501405014050140501405014050100
340
9A44
 94
        0
  0
ACAD_PROXY_OBJECT
  5
9A3B
330
9A35
100
AcDbProxyObject
 90
      499
 91
      594
 95
       25
 70
     0
 93
       10
310
5DC0
  0
ACAD_PROXY_OBJECT
  5
9A3C
330
9A35
100
AcDbProxyObject
 90
      499
 91
      595
 95
       25
 70
     0
 93
      257
310
5DE290EA22A7D90F49F80000000000001081400000000000004204010000618000
340
9A45
340
9A46
 94
        0
  0
ACAD_PROXY_OBJECT
  5
9A3D
330
9A35
100
AcDbProxyObject
 90
      499
 91
      596
 95
       25
 70
     0
 93
    13013
310
5DD0E411255115350141236025B690140501406901000000000000091013347454E545241434F2C4A504E2C302C8D8096DA2C47454E54524154582C25732C2847454E4D53472067656E647767203232322940690120281A8AA2CA0282484A4BE52028120280A0320200000000000012202668E8A9CA8A482869E5894A09C58
310
605921292F94588E8A9CA8A482A8B0584AE658508E8A9C9AA68E40CECADCC8EECE406464665280D202405044E414D454050496BC914F4051C40640A80000000000004E404CD1D15395149050D3CB1294138B0C0B25AF2453CB11D15395149055160B095CCB0A11D1539354D1C819D95B991DD9C80C8C8D8A50192C3D494628
310
4953424C414E4B28504152543A4E414D45292C424C4F434B3A4E414D452C504152543A4E414D452940480A0A888AA686A480A09251B1DBE80A3A80C81D0000000000100A28099A3A2A72A2920A1A7962528271618164946C76F9623A2A72A2920AA2C1612B9961423A2A726A9A39033B2B7323BB39019189B94A0348090142
310
14D51053911054911014122D2E29A50147501904A000000000000125013347454E545241434F2C4A504E2C302C8B4B8A692C47454E54524154582C25732C2847454E4D53472067656E64776720323138294069012028426A0AA22A924A0A62028246EF4BDFA028EA0320B40000000000001CA02668E8A9CA8A482869E5894A
310
09C5860591BBD2F7E588E8A9CA8A482A8B0584AE658508E8A9C9AA68E40CECADCC8EECE406464625280D202405044E4F544540504928D8B4C4051D40641A80000000000003E404CD1D15395149050D3CB1294138B0C0B24A362D30B11D15395149055160B095CCB0A11D1539354D1C819D95B991DD9C80C8C8D4A501240480
310
A0CAC8A9C889EA480A1106F1072706BF02B680A3A80C83D00000000000007C809BA3A2A72A2920A1A79625282716181641BC41C9C1AFC0AD9623A2A72A2920AA2C1612B9961423A2A726A9A39033B2B7323BB39019191A14A0248090141911154D0D48C90141A43825AF880C90147501908A000000000020145013447454E5
310
45241434F2C4A504E2C302C90E096BE20322C47454E54524154582C25732C2847454E4D53472067656E6477672033362940490120284A9AA20A72220A922192028345A5C53490192028EA03213400000000000024A026A8E8A9CA8A482869E5894A09C586059169714D24064588E8A9CA8A482A8B0584AE658508E8A9C9AA6
310
8E40CECADCC8EECE4064646052809202405094D4154455249414C32405068DDE97BF20324051D40642A8713D0AD7A37045404D11D15395149050D3CB1294138B0C0B2377A5EFC80C8B11D15395149055160B095CCB0A11D1539354D1C819D95B991DD9C80D0C0A501240480A089A82A6A680A091D7F2F9480A3A80A0485A06
310
8100000000000007C809923A2A72A2920A1A796252827161816475FCBE51623A2A72A2920AA2C1612B9961423A2A726A9A39033B2B7323BB3901A1914A024809014154149250D150141226FE29A501475014090C409020000000000000F9013247454E545241434F2C4A504E2C302C89BF8A692C47454E54524154582C2573
310
2C2847454E4D53472067656E6477672034332940490120281A224A6A02824850CB202028EA028121A81A040000000000001F202648E8A9CA8A482869E5894A09C58605921432C80588E8A9CA8A482A8B0584AE658508E8A9C9AA68E40CECADCC8EECE406868528092024050E445020000000000000510201C00030C0001018
310
0000000000003E400000000000000F901073D3C4954454D3E4050180000000000003E400000000000000F901073D3C4954454D3E40501800000000000034400000000000000D101073D3C4954454D3E40501800000000000034400000000000000D101073D3C4954454D3E405029010000000000000F9000000000000003E4
310
041CF4F125511534F901418F4F1455164F9014060000000000000F9000000000000003E4041CF4F125511534F9014060000000000000D100000000000000344041CF4F125511534F901901000000000000000F9000000000000003E40A2200000000000008204038000618048220681A048120280C88214844882034852034
310
8452028521485214814000000000000F0BF0000000000003C2FD018020000C3008070000C3003373333333333B0FCCDCCCCCCCCCCEC3F000000000000031012034164050341105901A000000000000062040100006180401000061804008000618008098A02808
340
0
340
0
 94
        0
  0
ACAD_PROXY_OBJECT
  5
9A3E
330
9A35
100
AcDbProxyObject
 90
      499
 91
      597
 95
       25
 70
     0
 93
      898
310
5DC4000000000000144048CF4F11115510525317D3105091530F880A0F11115510525317D05094D4D0D053114F8A51141C9A9999999999B93F26A666666666724FC000000000000E03F400000000000000400000000000000510000000000000024408070000C300000000000000051000
340
16
340
9A36
 94
        0
  0
ACAD_PROXY_OBJECT
  5
9A3F
330
9A35
100
AcDbProxyObject
 90
      499
 91
      598
 95
       25
 70
     0
 93
      823
310
5DC0B00000000000002880959E9E29A2A1AA24A7A72FA620A122A62FA324A929AA1F169E29A2A1AA24A7A72FA620A122A62FA620A9AA1F000000000000048803FFFE01C00030C0088C0380006180000000000000048800000000000000A2000000000000002880
340
652
340
9A36
 94
        0
  0
ACAD_PROXY_OBJECT
  5
9A40
330
9A35
100
AcDbProxyObject
 90
      499
 91
      599
 95
       25
 70
     0
 93
      152
310
5DE80000000000000840A3D0A5723F0BD1F200
  0
ACAD_PROXY_OBJECT
  5
9A41
330
9A35
100
AcDbProxyObject
 90
      499
 91
      600
 95
       25
 70
     0
 93
       14
310
5DE0
340
0
 94
        0
  0
ACAD_PROXY_OBJECT
  5
9A42
330
9A35
100
AcDbProxyObject
 90
      499
 91
      601
 95
       25
 70
     0
 93
     8619
310
5DD084050BA4050AA405024050E836583938376838C815B836720314043A013D2525633C486F6C653A63746469613E2078203C486F6C653A637464657074683E20555C503C696628657175616C28486F6C653A7461707065642C223022292C22252563222C486F6C653A6E6F6D696E616C202220782022293E3C6966286571
310
75616C28486F6C653A7461707065642C223022292C486F6C653A6469612C486F6C653A706974636864657363293E3C696628657175616C28486F6C653A7461707065642C223122292C22207820222C2222293E3C696628657175616C28486F6C653A7461707065642C223122292C486F6C653A74617064657074682C222229
310
3E203C696628657175616C28486F6C653A7465726D696E6174696F6E2C223022292C22202F20222C2222293E3C696628657175616C28486F6C653A7465726D696E6174696F6E2C223022292C486F6C653A64657074682C2222293E406901405034050E836583938376838C815B836720314043B013D2525633C486F6C653A6
310
3746469613E2078203C486F6C653A6374616E676C653E2525645C503C696628657175616C28486F6C653A7461707065642C223022292C22252563222C486F6C653A6E6F6D696E616C202220782022293E3C696628657175616C28486F6C653A7461707065642C223022292C486F6C653A6469612C486F6C653A70697463686
310
4657363293E3C696628657175616C28486F6C653A7461707065642C223122292C22207820222C2222293E3C696628657175616C28486F6C653A7461707065642C223122292C486F6C653A74617064657074682C2222293E203C696628657175616C28486F6C653A7465726D696E6174696F6E2C223022292C22202F20222C2
310
222293E3C696628657175616C28486F6C653A7465726D696E6174696F6E2C223022292C486F6C653A64657074682C2222293E406901405014050E836583938376838C815B8367203140416013D3C696628657175616C28486F6C653A7461707065642C223022292C22252563222C486F6C653A6E6F6D696E616C2022207820
310
22293E3C696628657175616C28486F6C653A7461707065642C223022292C486F6C653A6469612C486F6C653A706974636864657363293E3C696628657175616C28486F6C653A7461707065642C223122292C22207820222C2222293E3C696628657175616C28486F6C653A7461707065642C223122292C486F6C653A746170
310
64657074682C2222293E203C696628657175616C28486F6C653A7465726D696E6174696F6E2C223022292C22202F20222C2222293E3C696628657175616C28486F6C653A7465726D696E6174696F6E2C223022292C486F6C653A64657074682C2222293E4069014051E4090E836583938376838C815B83672032405173D3C5
310
35444503A444553433E203C535444503A5354443E40690E836583938376838C815B836720314050C3D3C535444503A444553433E40690240515AAABBA120
360
9A4B
330
9A4B
360
9A4C
330
9A4C
360
9A4A
330
9A4A
360
9A49
360
9A48
330
9A49
330
9A48
 94
        0
  0
ACAD_PROXY_OBJECT
  5
9A4D
330
9A35
100
AcDbProxyObject
 90
      499
 91
      542
 95
       25
 70
     0
 93
    23182
310
5DD02491013041105357CC201C00030C0132441013141105357CC603800030C0132441013241105357CCA01400030C0132441013341105357CCE01800030C01199013441105357CD200C00030C01199013541105357CD600C00030C01199013641105357CDA00800030C01239013741105357CDE01000030C0119901384110
310
5357CE200400030C01199013941105357CE63F400030C0241102324141505357CC4C201C00030C0132902344141505357CC4C600C00030C0119902495041505357CC4CA01C00030C013240902304E41505357CC13A01C00030C0132902314E41505357CC53A03800030C0132902324E41505357CC93A01400030C013290233
310
4E41505357CCD3A01800030C0119902344E41505357CD13A00C00030C0119902354E41505357CD53A00C00030C0119902364E41505357CD93A00800030C0123902374E41505357CDD3A01000030C0119902384E41505357CE13A00400030C0119902394E41505357CE53A3F400030C024110332414E41905357CC4C13A01C0
310
0030C013290334414E41905357CC4C53A00C00030C011990349504E41905357CC4C93A01C00030C0132409044B4C494E41505357D0D3200400030C011942504494E464F42105357D410549151A01000030C011942D055241484D3541905357D093D4A01C00030C0132425045649455742105357D5925155D4E00400030C011
310
942D06424548494E4441905357D25395A3F400030C0243505545241494C41505357D514A00C00030C01194250348494441905357D21251201C00030C01194250356495341905357D59254E01C00030C01324250650415244494D42505357D41054911253600C00030C01194250652454644494D42505357D49151911253601
310
000030C0119425774110531514901348070000C3004C9034110915312501348000000C0003FFFFFFFD034110921395901398000000C0003FFFFFFFE415092139594D06424548494E448000000C0003FFFFFFFE411093125110234418000000C0003FFFFFFFD03411093D05410234418000000C0003FFFFFFFD03411093D48C
310
9055241484D358010000C300466411093D48CD055241484D358020000C30048E411093D48D5055241484D358000000C0003FFFFFFFE411093D48DD055241484D3581E0000C30051903411094105410234418000000C0003FFFFFFFD03411094115610234418000000C0003FFFFFFFD034110951112501358000000C0003FFF
310
FFFFD034110D0530C901348000000C0003FFFFFFFE4110D0530CD01348020000C30048E4110D0530D501348070000C3004CA4110D0530DD013481E0000C30051A4110D15393901378000000C0003FFFFFFFE4110D15395D01378000000C0003FFFFFFFE4110D312539044B4C494E8000000C0003FFFFFFFE4110D3D38C5013
310
08000000C0003FFFFFFFD034110D3D38C901318000000C0003FFFFFFFD034110D3D38CD01328000000C0003FFFFFFFD034110D3D38D101328000000C0003FFFFFFFD034111115494101348000000C0003FFFFFFFD034111115510501348000000C0003FFFFFFFE4111125051D01358000000C0003FFFFFFFE4111125312501
310
358000000C0003FFFFFFFE411112535410650415244494D8000000C0003FFFFFFFE411112535490652454644494D8000000C0003FFFFFFFE411156135410234418000000C0003FFFFFFFD034111915353901388000000C0003FFFFFFFE415191535413901388030000C3003FFFFFFFE4151915354D410234418000000C0003
310
FFFFFFFE4151915354D510234418030000C300466415191535593901328000000C0003FFFFFFFE415191535595101328030000C3004664111931055101308000000C0003FFFFFFFD03411194905490234418000000C0003FFFFFFFD034111D49312501358000000C0003FFFFFFFD034111D5931250234418000000C0003FFF
310
FFFFD034112105510D01388000000C0003FFFFFFFD014112125113901338000000C0003FFFFFFFD034112125115D01338000000C0003FFFFFFFD034112131253901348000000C0003FFFFFFFD01411213D0D3901378000000C0003FFFFFFFE411213D0D5D01378000000C0003FFFFFFFE4112539193D04494E464F8000000C
310
0003FFFFFFFE4113105112501348000000C0003FFFFFFFD034113115051101358000000C0003FFFFFFFE419397D0921395902394E8000000C0003FFFFFFFE419397D0D3D38C502304E8000000C0003FFFFFFFD03419397D0D3D38C902314E8000000C0003FFFFFFFD03419397D0D3D38CD02324E8000000C0003FFFFFFFD03
310
419397D0D3D38D102324E8000000C0003FFFFFFFD03419397D0D15393902374E8000000C0003FFFFFFFE419397D0D15395D02374E8000000C0003FFFFFFFE419397D1125312502354E8000000C0003FFFFFFFE419397D2105510D02384E8000000C0003FFFFFFFD01419397D2125113902334E8000000C0003FFFFFFFD0341
310
9397D2125115D02334E8000000C0003FFFFFFFD03419397D3115051102354E8000000C0003FFFFFFFE419397D391D25410349504E8000000C0003FFFFFFFE419397D412105390334414E8000000C0003FFFFFFFE419397D510D3D3902304E8000000C0003FFFFFFFD03419397D5121312502344E8000000C0003FFFFFFFD01
310
419397D5131153902304E8000000C0003FFFFFFFD03419397D516150CD02364E8000000C0003FFFFFFFD03419397D594131250332414E8000000C0003FFFFFFFE411391D25410249508000000C0003FFFFFFFE411410530C9055241484D358010000C300466411410530CD055241484D358020000C30048E411410530D5055
310
241484D358000000C0003FFFFFFFE411410530DD055241484D3581E0000C30051903411412105390234418000000C0003FFFFFFFE411413D4D3901368070000C3004CA419413D4D49151901368050000C3004C903411413D4D6101368000000C0003FFFFFFFD03411414D150D0234418000000C0003FFFFFFFD03411490D1D
310
3901378000000C0003FFFFFFFE411490D1D5D01378000000C0003FFFFFFFE4114919112501348000000C0003FFFFFFFD034114945514901348070000C3004C903411494D093D01348000000C0003FFFFFFFD034114D09492D01348000000C0003FFFFFFFD014114D0D153901378000000C0003FFFFFFFD034114D150D51013
310
48000000C0003FFFFFFFD014114D15313901378000000C0003FFFFFFFD034114D15315D01378000000C0003FFFFFFFD034114D4D654D01308000000C0003FFFFFFFD034114D51312501348070000C3004C9034114D6508C501358000000C0003FFFFFFFD034114D6508C901358000000C0003FFFFFFFD034114D6508CD0135
310
8020000C30048E4114D6508D501358070000C3004C9034114D65353901378000000C0003FFFFFFFD034114D65355D01378000000C0003FFFFFFFD03411510D3D3901308000000C0003FFFFFFFD034115121312501348000000C0003FFFFFFFD01411512550C9055241484D358010000C300466411512550CD055241484D358
310
020000C30048E411512550D5055241484D358000000C0003FFFFFFFE411512550DD055241484D3581E0000C300519034115131153901308000000C0003FFFFFFFD03415514905253105545241494C8000000C0003FFFFFFFE41151492D3901378000000C0003FFFFFFFD0341151492D5D01378000000C0003FFFFFFFD03411
310
5149312501348000000C0003FFFFFFFD01411516150C501368030000C300466411516150C901368030000C300466411516150CD01368000000C0003FFFFFFFE411516150D501368070000C3004CA411516150DD013681E0000C30051A4115925155D04564945578000000C0003FFFFFFFE41159151121034849448000000C0
310
003FFFFFFFD0241159151159035649538000000C0003FFFFFFFD02411594131250232418000000C0003FFFFFFFE4116925690501348000000C0003FFFFFFFD01411354D653501358020000C30048E429014650248D0346504465054C906465074C90E4C91E519FD8
340
99B4
340
16
340
16
340
16
340
43
340
16
340
16
340
16
340
44
340
16
340
16
340
44
340
45
340
16
340
16
340
16
340
16
340
43
340
16
340
16
340
16
340
44
340
16
340
16
340
44
340
45
340
16
340
46
340
16
340
16
340
16
340
16
340
16
340
43
340
16
340
16
340
16
340
47
340
15
340
15
340
15
340
15
340
15
340
15
340
15
340
15
340
15
340
15
340
15
340
15
340
15
340
15
340
15
340
15
340
48
340
15
340
15
340
15
340
15
340
15
340
15
340
15
340
15
340
15
340
15
340
15
340
15
340
15
340
15
340
15
340
16
340
15
340
15
340
15
340
15
340
15
340
15
340
15
340
15
340
47
340
15
340
15
340
48
340
15
340
15
340
15
340
15
340
15
340
15
340
15
340
15
340
15
340
48
340
15
340
15
340
15
340
47
340
15
340
15
340
15
340
15
340
15
340
15
340
15
340
15
340
15
340
15
340
15
340
15
340
15
340
15
340
15
340
15
340
15
340
15
340
15
340
48
340
15
340
15
340
48
340
15
340
15
340
16
340
15
340
48
340
15
340
15
340
47
340
15
340
15
340
16
340
15
340
48
340
15
340
15
340
15
340
15
340
15
340
15
340
15
340
15
340
15
340
48
340
15
340
15
340
15
340
15
340
15
340
15
340
15
340
15
340
15
340
15
340
15
340
4B
340
16
 94
        0
  0
ACAD_PROXY_OBJECT
  5
9A4E
330
9A35
100
AcDbProxyObject
 90
      499
 91
      543
 95
       25
 70
     0
 93
      250
310
5DD020000000000000A1000000000000002440408F0F9023C3E409A0DCFFFF80
340
0
340
0
340
0
340
0
340
0
340
0
340
0
340
0
340
0
340
0
 94
        0
  0
ACAD_PROXY_OBJECT
  5
9A4F
330
9A35
100
AcDbProxyObject
 90
      499
 91
      603
 95
       25
 70
     0
 93
    13889
310
5DD1D003FFFFFFFD030300030000000000000310200800030C01030300030000000000000310200800030C00050C8DC0955782CC838A83588367014ED1D15395149050D3CB1294138B0C0B23702555E0B320E2A0D620D9CB11D15395149055160B095CCB0A11D1539354D1C819D95B991A5B5E880CCC0A78000C0000000000
310
00000000000000000000010000000000000310200800030C010000000000000310200800030C020143CF4F111959985D5B1D151A5D1B194F8050A8C8A8365815B8375838B014E51D15395149050D3CB1294138B0C0B2322A0D96056E0DD60E2CB11D15395149055160B095CCB0A11D1539354D1C819D95B991A5B5E880CCC4
310
A78000C000000000000000000000000000000010000000000000310200800030C010000000000000310200800030C020143CF4F111959985D5B1D151A5D1B194F90D44111409034110541D0C4350F4050E44D03449074510F000141232D24D7C053247454E545241434F2C4A504E2C302C8CB4935F2C47454E54524154582C
310
25732C2847454E4D53472067656E64696D7A20312900010104002214000281464500A608E8A9CA8A482869E5894A09C5860591914588E8A9CA8A482A8B0584AE658508E8A9C9AA68E40CECADCC8D2DAF4406452029E9E9E27B934B3B4B71F1E24A31427A91424A9A12620A7259427B934B3B4B7149624A9A12620A7259424B
310
A32B6949496111116111711149F1E24BA32B69F00808200111A000140560052F47454E545241434F2C4A504E2C302C582C47454E54524154582C25732C2847454E4D53472067656E64696D7A20332900010100002054000280AC80A5E8E8A9CA8A482869E5894A09C586058B2588E8A9CA8A482A8B0584AE658508E8A9C9AA
310
68E40CECADCC8D2DAF4406852000202000040E800050152014BD1D15395149050D3CB1294138B0C0B148B11D15395149055160B095CCB0A11D1539354D1C819D95B991A5B5E880D8A400040400008250000A0507A6029823A2A72A2920A1A79625282716181641E99623A2A72A2920AA2C1612B9961423A2A726A9A39033B2
310
B73234B6BD101B948000808180105A000140A0F4C053047454E545241434F2C4A504E2C302C83D32C47454E54524154582C25732C2847454E4D53472067656E64696D7A203829000101010020F400028248704B5F00A668E8A9CA8A482869E5894A09C58605921C12D7C588E8A9CA8A482A8B0584AE658508E8A9C9AA68E40
310
CECADCC8D2DAF440646052000200080043280005048B4B8A69014CD1D15395149050D3CB1294138B0C0B22D2E29A4B11D15395149055160B095CCB0A11D1539354D1C819D95B991A5B5E880C8C4A4000400100086D0000A09196926BE029923A2A72A2920A1A796252827161816465A49AF9623A2A72A2920AA2C1612B9961
310
423A2A726A9A39033B2B73234B6BD10189480A02620202080043E80005048D8096DA014CD1D15395149050D3CB1294138B0C0B236025B68B11D15395149055160B095CCB0A11D1539354D1C819D95B991A5B5E880C4D0A4000404140280D0000A190687072706CD06C5069D06B0029DA3A2A72A2920A1A7962528271618164
310
1A1C1C9C1B341B141A741AC1623A2A72A2920AA2C1612B9961423A2A726A9A39033B2B73234B6BD10189A94800080828050EA000143A322A0D0E0E4E0D9A0D8A0D3A0D60053D47454E545241434F2C4A504E2C302C8C8A8343839383668362834E83582C47454E54524154582C25732C2847454E4D53472067656E64696D7A
310
2031372900010105002274000281464500A628E8A9CA8A482869E5894A09C5860591914588E8A9CA8A482A8B0584AE658508E8A9C9AA68E40CECADCC8D2DAF440626C52000202080044A8000504909497CA014CD1D15395149050D3CB1294138B0C0B242525F28B11D15395149055160B095CCB0A11D1539354D1C819D95B9
310
91A5B5E880C4E4A400040418008A521E000000000000001CA040C00000000000034408080000000000006881010000000000000D102040000000000001A204080000000000003440818000000000000728103000000000000125020600000000004028A040000000000000034408000000000000004881000000000000000D
310
102000000000000001A204000000000000003440818000000000000508143C0000000000000039408180000000000006881030000000000000D102060000000000001A2040C00000000000034408180000000000006881030000000000000E5020600000000000024A040C0000000000805140800000000000000688100000
310
00000000009102000000000000001A2040000000000000034408180000000000006881030000000000000A10284220000000878000002020000008380000020400000081800000208000000828000002028900000000
340
0
340
0
340
0
340
0
340
9A36
340
9A36
 94
        0
  0
ACAD_PROXY_OBJECT
  5
9A50
330
9A35
100
AcDbProxyObject
 90
      499
 91
      537
 95
       25
 70
     0
 93
     7018
310
5DD9740D254D3D0649534F5F4133429254D3D7D5125513115051349534F5F42525F5265766973696F6E6C69737446111413478342028323937783834316D6D2920421254D3D7D04D1E0D11141327835202835393478323130326D6D29421254D3D7D04C9E0D51141337837202834323078323038306D6D29421254D3D7D04C
310
DE0DD1141347839202832393778313839326D6D29421254D3D7D04D1E0E50E41312028353934783834316D6D29419254D3D7D04C51141327834202835393478313638326D6D29421254D3D7D04C9E0D11141347838202832393778313638326D6D29421254D3D7D04D1E0E10E41332028323937783432306D6D29419254D3D
310
7D04CD104130202838343078313138396D6D2920419254D3D7D04C11141347835202832393778313035316D6D29421254D3D7D04D1E0D51141347836202832393778313236316D6D29421254D3D7D04D1E0D91141347837202832393778313437316D6D29421254D3D7D04D1E0DD1141327833202835393478313236316D6D
310
29421254D3D7D04C9E0CD1141337834202834323078313138396D6D29421254D3D7D04CDE0D110413478332028323937783633306D6D29421254D3D7D04D1E0CD1141337835202834323078313438366D6D29421254D3D7D04CDE0D51141337836202834323078313738336D6D29421254D3D7D04CDE0D9104133783320283
310
43230783839316D6D29421254D3D7D04CDE0CD0E41322028343230783539346D6D29419254D3D7D04C9124130783220283131383978313638326D6D29421254D3D7D04C1E0C90E41342028323937783231306D6D29419254D3D7D04D1124130783320283131383978323532336D6D29421254D3D7D04C1E0CD114131783420
310
2838343178323337386D6D29421254D3D7D04C5E0D11141317833202838343178313738336D6D29421254D3D7D04C5E0CD02431254D3C82557247A25E4C81050A49534F5F5449544C4541431254D3C82557247A25E4C81090A49534F5F5449544C45424110E979A97F0838A835883675F42525F44D254D3D7D09497D4995D9
310
A5CDA5BDB9B1A5CDD10E979A97F0838A835883675F54525F44D254D3D7D51497D4995D9A5CDA5BDB9B1A5CDD10E979A97F0838A835883675F424C5F44D254D3D7D09317D4995D9A5CDA5BDB9B1A5CDD10E979A97F0838A835883675F544C5F44D254D3D7D51317D4995D9A5CDA5BDB9B1A5CDD00
  0
ACAD_PROXY_OBJECT
  5
9CBC
330
9CBB
100
AcDbProxyObject
 90
      499
 91
      527
 95
       25
 70
     0
 93
       86
310
5DEA0C80A0280A0280A034
  0
ACAD_PROXY_OBJECT
  5
9CBD
330
9CBB
100
AcDbProxyObject
 90
      499
 91
      528
 95
       25
 70
     0
 93
      282
310
5DD0E4050140501405014050140501405014050141101405014041000000000000001000
340
187
 94
        0
  0
ACAD_PROXY_OBJECT
  5
9CBE
330
9CBB
100
AcDbProxyObject
 90
      499
 91
      529
 95
       25
 70
     0
 93
      323
310
5DCC199999999999E99F91740501405014050140501405014050140501405014050140501405014040
340
0
 94
        0
  0
ACAD_PROXY_OBJECT
  5
9CBF
330
9CBB
100
AcDbProxyObject
 90
      499
 91
      530
 95
       25
 70
     0
 93
       10
310
5DC0
  0
ACAD_PROXY_OBJECT
  5
9CC0
330
9CBB
100
AcDbProxyObject
 90
      499
 91
      531
 95
       25
 70
     0
 93
      257
310
5DE0C16A22A7D90F49F80000000000001081400000000000004204010000618000
340
188
340
189
 94
        0
  0
ACAD_PROXY_OBJECT
  5
9CC1
330
9CBB
100
AcDbProxyObject
 90
      499
 91
      532
 95
       25
 70
     0
 93
     5277
310
5DD06411255115350141236025B6901405014069010000000000000910240690120281A8AA2CA0282484A4BE52028120280A032020000000000001220480D202405044E414D454050496BC914F4051C40640A80000000000004E4090193C3D3C4946284953424C414E4B28504152543A4E414D45292C424C4F434B3A4E414D
310
452C504152543A4E414D45293E3C41435F44455343524950544E3E40480A109A82A88AA492829880A091BBD2F7E80A3A80C81D0E27A15AF46E08A81203480901411393D5115014124A363B7D0147501904A0000000000000F902406428F4F1050D7D393D5114F901202832B22A72227A92028366EF6EE06F582028EA0320B4
310
0000000000001F20480C879E9E20A1AFAB27222FA620A122A61F20240506445020000000000000490201C00030C00010180000000000003E400000000000000F901073D3C4954454D3E4050180000000000003E400000000000000F901073D3C4954454D3E40501800000000000034400000000000000D101073D3C4954454
310
D3E40501800000000000034400000000000000D101073D3C4954454D3E405029010000000000000F9000000000000003E4041CF4F125511534F901418F4F1455164F9014060000000000000F9000000000000003E4041CF4F125511534F901800000000000034400000000000000D101073D3C4954454D3E40640400000000
310
0000003E400000000000000F90288800000000000020810000001800120881A068120480A032208521122080D21480D211480A1485214852050000000000003C2FC000000000000F0BF40600800030C0200400030C00CDCCCCCCCCCCEC3F3373333333333B0FC3333333333330940C80D069014090341504901A1999999999
310
9984A040100006180400800061804010000618008098A02808
340
0
340
0
 94
        0
  0
ACAD_PROXY_OBJECT
  5
9CC2
330
9CBB
100
AcDbProxyObject
 90
      499
 91
      537
 95
       25
 70
     0
 93
     3042
310
5DD9740D29254D064A49535F413342929254D7D512551311505134A49535F42525F5265766973696F6E6C6973744190F4134522028323937783231306D6D2941D29254D7D04D1490E41312028353934783834316D6D2941929254D7D04C50E41332028323937783432306D6D2941929254D7D04CD0F41344C2028323130783
310
239376D6D2941D29254D7D04D1310E41322028343230783539346D6D2941929254D7D04C90F4130202838343178313138396D6D2941929254D7D04C10243129254C82557247A25E4C81050A4A49535F5449544C454143129254C82557247A25E4C81090A4A49535F5449544C45424110E979A97F0838A835883675F42525F4
310
4D29254D7D09497D4995D9A5CDA5BDB9B1A5CDD10E979A97F0838A835883675F54525F44D29254D7D51497D4995D9A5CDA5BDB9B1A5CDD10E979A97F0838A835883675F424C5F44D29254D7D09317D4995D9A5CDA5BDB9B1A5CDD10E979A97F0838A835883675F544C5F44D29254D7D51317D4995D9A5CDA5BDB9B1A5CDD00
  0
ACAD_PROXY_OBJECT
  5
9CC3
330
9CBB
100
AcDbProxyObject
 90
      499
 91
      538
 95
       25
 70
     0
 93
      898
310
5DC4000000000000124048CF4F11115510525317D3105091530F880A0F11115510525317D05094D4D0D053114F8A50241C9A9999999999B93F26A666666666724FC000000000000E03F400000000000000400000000000000510000000000000024408070000C300000000000000049000
340
16
340
180
 94
        0
  0
ACAD_PROXY_OBJECT
  5
9CC4
330
9CBB
100
AcDbProxyObject
 90
      499
 91
      539
 95
       25
 70
     0
 93
      823
310
5DC0B00000000000002480959E9E29A2A1AA24A7A72FA620A122A62FA324A929AA1F169E29A2A1AA24A7A72FA620A122A62FA620A9AA1F000000000000048803FFFE01C00030C008140380006180000000000000048800000000000000A2000000000000002480
340
652
340
180
 94
        0
  0
ACAD_PROXY_OBJECT
  5
9CC5
330
9CBB
100
AcDbProxyObject
 90
      499
 91
      540
 95
       25
 70
     0
 93
      152
310
5DE8273108AC1C5A0640A3D0A5723F0BD1F200
  0
ACAD_PROXY_OBJECT
  5
9CC6
330
9CBB
100
AcDbProxyObject
 90
      499
 91
      604
 95
       25
 70
     0
 93
       14
310
5DE0
340
0
 94
        0
  0
ACAD_PROXY_OBJECT
  5
9CC7
330
9CBB
100
AcDbProxyObject
 90
      499
 91
      541
 95
       25
 70
     0
 93
     6059
310
5DD084050BA4050AA405024050E836583938376838C815B83672031405983D3C486F6C653A6469613E3C696628657175616C28486F6C653A7465726D696E6174696F6E2C223022292C2220905B82B320222C22208368838A838B22293E3C696628657175616C28486F6C653A7465726D696E6174696F6E2C223022292C486F
310
6C653A64657074682C2222293E2C203C486F6C653A63746469613E2082B482AE82E882CC905B82B3203C486F6C653A637464657074683E406901405034050E836583938376838C815B83672031405EF3D3C486F6C653A6374616E676C653E252564202525633C486F6C653A63746469613E208E4D8C8A2C203C69662865717
310
5616C28486F6C653A7461707065642C223022292C22252563222C486F6C653A6E6F6D696E616C202220782022293E3C696628657175616C28486F6C653A7461707065642C223022292C486F6C653A6469612C486F6C653A706974636864657363293E203C696628657175616C28486F6C653A7465726D696E6174696F6E2C2
310
23022292C22905B82B320222C222022293E3C696628657175616C28486F6C653A7465726D696E6174696F6E2C223022292C486F6C653A64657074682C2222293E406901405014050E836583938376838C815B83672031405C73D3C696628657175616C28486F6C653A7461707065642C223022292C22252563222C486F6C65
310
3A6E6F6D696E616C202220782022293E3C696628657175616C28486F6C653A7461707065642C223022292C486F6C653A6469612C486F6C653A706974636864657363293E203C696628657175616C28486F6C653A7465726D696E6174696F6E2C223022292C22905B82B320222C222022293E3C696628657175616C28486F6C
310
653A7465726D696E6174696F6E2C223022292C486F6C653A64657074682C2222293E4069014051E4090E836583938376838C815B83672032405173D3C535444503A444553433E203C535444503A5354443E40690E836583938376838C815B836720314050C3D3C535444503A444553433E40690240515AAABBA120
360
9CC8
330
9CC8
360
9CC9
330
9CC9
360
9CCA
330
9CCA
360
9CCB
360
9CCC
330
9CCB
330
9CCC
 94
        0
  0
ACAD_PROXY_OBJECT
  5
9CCD
330
9CBB
100
AcDbProxyObject
 90
      499
 91
      542
 95
       25
 70
     0
 93
       26
310
5DD02A80
340
0
 94
        0
  0
ACAD_PROXY_OBJECT
  5
9CCE
330
9CBB
100
AcDbProxyObject
 90
      499
 91
      543
 95
       25
 70
     0
 93
      250
310
5DD020000000000000A1000000000000002440408F0F9023C3E409A0DCFFFF80
340
58
340
1899
340
189A
340
5F
340
60
340
61
340
62
340
63
340
68
340
0
 94
        0
  0
ACAD_PROXY_OBJECT
  5
9CCF
330
9CBB
100
AcDbProxyObject
 90
      499
 91
      605
 95
       25
 70
     0
 93
    13889
310
5DD1D003FFFFFFFD030300030CCCCCCCCCCCC250200800030C01030300030CCCCCCCCCCCC250200800030C00050C8DC0955782CC838A83588367014ED1D15395149050D3CB1294138B0C0B23702555E0B320E2A0D620D9CB11D15395149055160B095CCB0A11D1539354D1C819D95B991A5B5E880CCC0A78000C0000000000
310
00000000000000000000010CCCCCCCCCCCC250200800030C010CCCCCCCCCCCC250200800030C020143CF4F111959985D5B1D151A5D1B194F8050A8C8A8365815B8375838B014E51D15395149050D3CB1294138B0C0B2322A0D96056E0DD60E2CB11D15395149055160B095CCB0A11D1539354D1C819D95B991A5B5E880CCC4
310
A78000C000000000000000000000000000000010CCCCCCCCCCCC250200800030C010CCCCCCCCCCCC250200800030C020143CF4F111959985D5B1D151A5D1B194F90D44111409034110541D0C4350F4050E44D03449074510F000141232D24D7C053247454E545241434F2C4A504E2C302C8CB4935F2C47454E54524154582C
310
25732C2847454E4D53472067656E64696D7A20312900010104002214000281464500A608E8A9CA8A482869E5894A09C5860591914588E8A9CA8A482A8B0584AE658508E8A9C9AA68E40CECADCC8D2DAF4406452029E9E9E27B934B3B4B71F1E24A31427A91424A9A12620A7259427B934B3B4B7149624A9A12620A7259424B
310
A32B6949496111116111711149F1E24BA32B69F00808200111A000140560052F47454E545241434F2C4A504E2C302C582C47454E54524154582C25732C2847454E4D53472067656E64696D7A20332900010100002054000280AC80A5E8E8A9CA8A482869E5894A09C586058B2588E8A9CA8A482A8B0584AE658508E8A9C9AA
310
68E40CECADCC8D2DAF4406852000202000040E800050152014BD1D15395149050D3CB1294138B0C0B148B11D15395149055160B095CCB0A11D1539354D1C819D95B991A5B5E880D8A400040400008250000A0507A6029823A2A72A2920A1A79625282716181641E99623A2A72A2920AA2C1612B9961423A2A726A9A39033B2
310
B73234B6BD101B948000808180105A000140A0F4C053047454E545241434F2C4A504E2C302C83D32C47454E54524154582C25732C2847454E4D53472067656E64696D7A203829000101010020F400028248704B5F00A668E8A9CA8A482869E5894A09C58605921C12D7C588E8A9CA8A482A8B0584AE658508E8A9C9AA68E40
310
CECADCC8D2DAF440646052000200080043280005048B4B8A69014CD1D15395149050D3CB1294138B0C0B22D2E29A4B11D15395149055160B095CCB0A11D1539354D1C819D95B991A5B5E880C8C4A4000400100086D0000A09196926BE029923A2A72A2920A1A796252827161816465A49AF9623A2A72A2920AA2C1612B9961
310
423A2A726A9A39033B2B73234B6BD10189480A02620202080043E80005048D8096DA014CD1D15395149050D3CB1294138B0C0B236025B68B11D15395149055160B095CCB0A11D1539354D1C819D95B991A5B5E880C4D0A4000404140280D0000A190687072706CD06C5069D06B0029DA3A2A72A2920A1A7962528271618164
310
1A1C1C9C1B341B141A741AC1623A2A72A2920AA2C1612B9961423A2A726A9A39033B2B73234B6BD10189A94800080820050EA000143A322A0D0E0E4E0D9A0D8A0D3A0D60053D47454E545241434F2C4A504E2C302C8C8A8343839383668362834E83582C47454E54524154582C25732C2847454E4D53472067656E64696D7A
310
2031372900010105002274000281464500A628E8A9CA8A482869E5894A09C5860591914588E8A9CA8A482A8B0584AE658508E8A9C9AA68E40CECADCC8D2DAF440626C52000202080044A8000504909497CA014CD1D15395149050D3CB1294138B0C0B242525F28B11D15395149055160B095CCB0A11D1539354D1C819D95B9
310
91A5B5E880C4E4A400040418008A521E000000000000001CA040C00000000000034408080000000000006881010000000000000D102040000000000001A204080000000000003440818000000000000728103000000000000125020600000000004028A040000000000000034408000000000000004881000000000000000D
310
102000000000000001A204000000000000003440818000000000000508143C0000000000000039408180000000000006881030000000000000D102060000000000001A2040C00000000000034408180000000000006881030000000000000E5020600000000000024A040C0000000000805140800000000000000688100000
310
00000000009102000000000000001A2040000000000000034408180000000000006881030000000000000A10284220000000878000002020000008380000020400000081800000208000000828000002028900000000
340
0
340
0
340
0
340
0
340
180
340
180
 94
        0
  0
ACAD_PROXY_OBJECT
  5
AC7C
330
AC7B
100
AcDbProxyObject
 90
      499
 91
      602
 95
       25
 70
     0
 93
     2256
310
5DE0143A0D960E4E0DDA0E32056E0D9C80C40405013D3C696628657175616C28486F6C653A7461707065642C223022292C22252563222C486F6C653A6E6F6D696E616C2022202220696628657175616C28486F6C653A756E6974732C223122292C2278222C222D222920222022293E3C696628657175616C28486F6C653A74
310
61707065642C223022292C486F6C653A6469612C486F6C653A706974636864657363293E207B5C46414D4744543B787D203C696628657175616C28486F6C653A7465726D696E6174696F6E2C223022292C486F6C653A64657074682C228AD192CA22293E5C507B5C46414D4744543B767D2525633C486F6C653A6374646961
310
3E207B5C46414D4744543B787D203C486F6C653A637464657074683E
  0
ACAD_PROXY_OBJECT
  5
AC7D
330
AC7B
100
AcDbProxyObject
 90
      499
 91
      602
 95
       25
 70
     0
 93
     2192
310
5DE0143A0D960E4E0DDA0E32056E0D9C80C405FE3D3C696628657175616C28486F6C653A7461707065642C223022292C22252563222C486F6C653A6E6F6D696E616C2022202220696628657175616C28486F6C653A756E6974732C223122292C2278222C222D222920222022293E3C696628657175616C28486F6C653A7461
310
707065642C223022292C486F6C653A6469612C486F6C653A706974636864657363293E207B5C46414D4744543B787D203C696628657175616C28486F6C653A7465726D696E6174696F6E2C223022292C486F6C653A64657074682C228AD192CA22293E5C507B5C46414D4744543B777D2525633C486F6C653A63746469613E
310
2058203C486F6C653A6374616E676C653E252564
  0
ACAD_PROXY_OBJECT
  5
AC7E
330
AC7B
100
AcDbProxyObject
 90
      499
 91
      602
 95
       25
 70
     0
 93
     1816
310
5DE0143A0D960E4E0DDA0E32056E0D9C80C405CF3D3C696628657175616C28486F6C653A7461707065642C223022292C22252563222C486F6C653A6E6F6D696E616C2022202220696628657175616C28486F6C653A756E6974732C223122292C2278222C222D222920222022293E3C696628657175616C28486F6C653A7461
310
707065642C223022292C486F6C653A6469612C486F6C653A706974636864657363293E5C507B5C46414D4744543B787D203C696628657175616C28486F6C653A7465726D696E6174696F6E2C223022292C486F6C653A64657074682C228AD192CA22293E
  0
ACAD_PROXY_OBJECT
  5
AC7F
330
AC7B
100
AcDbProxyObject
 90
      499
 91
      602
 95
       25
 70
     0
 93
      344
310
5DE0143A0D960E4E0DDA0E32056E0D9C80C805173D3C535444503A444553433E203C535444503A5354443E
  0
ACAD_PROXY_OBJECT
  5
AC80
330
AC7B
100
AcDbProxyObject
 90
      499
 91
      602
 95
       25
 70
     0
 93
      256
310
5DE0143A0D960E4E0DDA0E32056E0D9C80C4050C3D3C535444503A444553433E
  0
ACAD_PROXY_OBJECT
  5
9A4B
330
9A42
100
AcDbProxyObject
 90
      499
 91
      602
 95
       25
 70
     0
 93
     2680
310
5DE0143A0D960E4E0DDA0E32056E0D9C80C4043A013D2525633C486F6C653A63746469613E2078203C486F6C653A637464657074683E20555C503C696628657175616C28486F6C653A7461707065642C223022292C22252563222C486F6C653A6E6F6D696E616C202220782022293E3C696628657175616C28486F6C653A74
310
61707065642C223022292C486F6C653A6469612C486F6C653A706974636864657363293E3C696628657175616C28486F6C653A7461707065642C223122292C22207820222C2222293E3C696628657175616C28486F6C653A7461707065642C223122292C486F6C653A74617064657074682C2222293E203C69662865717561
310
6C28486F6C653A7465726D696E6174696F6E2C223022292C22202F20222C2222293E3C696628657175616C28486F6C653A7465726D696E6174696F6E2C223022292C486F6C653A64657074682C2222293E
  0
ACAD_PROXY_OBJECT
  5
9A4C
330
9A42
100
AcDbProxyObject
 90
      499
 91
      602
 95
       25
 70
     0
 93
     2688
310
5DE0143A0D960E4E0DDA0E32056E0D9C80C4043B013D2525633C486F6C653A63746469613E2078203C486F6C653A6374616E676C653E2525645C503C696628657175616C28486F6C653A7461707065642C223022292C22252563222C486F6C653A6E6F6D696E616C202220782022293E3C696628657175616C28486F6C653A
310
7461707065642C223022292C486F6C653A6469612C486F6C653A706974636864657363293E3C696628657175616C28486F6C653A7461707065642C223122292C22207820222C2222293E3C696628657175616C28486F6C653A7461707065642C223122292C486F6C653A74617064657074682C2222293E203C696628657175
310
616C28486F6C653A7465726D696E6174696F6E2C223022292C22202F20222C2222293E3C696628657175616C28486F6C653A7465726D696E6174696F6E2C223022292C486F6C653A64657074682C2222293E
  0
ACAD_PROXY_OBJECT
  5
9A4A
330
9A42
100
AcDbProxyObject
 90
      499
 91
      602
 95
       25
 70
     0
 93
     2392
310
5DE0143A0D960E4E0DDA0E32056E0D9C80C40416013D3C696628657175616C28486F6C653A7461707065642C223022292C22252563222C486F6C653A6E6F6D696E616C202220782022293E3C696628657175616C28486F6C653A7461707065642C223022292C486F6C653A6469612C486F6C653A706974636864657363293E
310
3C696628657175616C28486F6C653A7461707065642C223122292C22207820222C2222293E3C696628657175616C28486F6C653A7461707065642C223122292C486F6C653A74617064657074682C2222293E203C696628657175616C28486F6C653A7465726D696E6174696F6E2C223022292C22202F20222C2222293E3C69
310
6628657175616C28486F6C653A7465726D696E6174696F6E2C223022292C486F6C653A64657074682C2222293E
  0
ACAD_PROXY_OBJECT
  5
9A49
330
9A42
100
AcDbProxyObject
 90
      499
 91
      602
 95
       25
 70
     0
 93
      344
310
5DE0143A0D960E4E0DDA0E32056E0D9C80C805173D3C535444503A444553433E203C535444503A5354443E
  0
ACAD_PROXY_OBJECT
  5
9A48
330
9A42
100
AcDbProxyObject
 90
      499
 91
      602
 95
       25
 70
     0
 93
      256
310
5DE0143A0D960E4E0DDA0E32056E0D9C80C4050C3D3C535444503A444553433E
  0
ACAD_PROXY_OBJECT
  5
9CC8
330
9CC7
100
AcDbProxyObject
 90
      499
 91
      602
 95
       25
 70
     0
 93
     1376
310
5DE0143A0D960E4E0DDA0E32056E0D9C80C405983D3C486F6C653A6469613E3C696628657175616C28486F6C653A7465726D696E6174696F6E2C223022292C2220905B82B320222C22208368838A838B22293E3C696628657175616C28486F6C653A7465726D696E6174696F6E2C223022292C486F6C653A64657074682C22
310
22293E2C203C486F6C653A63746469613E2082B482AE82E882CC905B82B3203C486F6C653A637464657074683E
  0
ACAD_PROXY_OBJECT
  5
9CC9
330
9CC7
100
AcDbProxyObject
 90
      499
 91
      602
 95
       25
 70
     0
 93
     2072
310
5DE0143A0D960E4E0DDA0E32056E0D9C80C405EF3D3C486F6C653A6374616E676C653E252564202525633C486F6C653A63746469613E208E4D8C8A2C203C696628657175616C28486F6C653A7461707065642C223022292C22252563222C486F6C653A6E6F6D696E616C202220782022293E3C696628657175616C28486F6C
310
653A7461707065642C223022292C486F6C653A6469612C486F6C653A706974636864657363293E203C696628657175616C28486F6C653A7465726D696E6174696F6E2C223022292C22905B82B320222C222022293E3C696628657175616C28486F6C653A7465726D696E6174696F6E2C223022292C486F6C653A6465707468
310
2C2222293E
  0
ACAD_PROXY_OBJECT
  5
9CCA
330
9CC7
100
AcDbProxyObject
 90
      499
 91
      602
 95
       25
 70
     0
 93
     1752
310
5DE0143A0D960E4E0DDA0E32056E0D9C80C405C73D3C696628657175616C28486F6C653A7461707065642C223022292C22252563222C486F6C653A6E6F6D696E616C202220782022293E3C696628657175616C28486F6C653A7461707065642C223022292C486F6C653A6469612C486F6C653A706974636864657363293E20
310
3C696628657175616C28486F6C653A7465726D696E6174696F6E2C223022292C22905B82B320222C222022293E3C696628657175616C28486F6C653A7465726D696E6174696F6E2C223022292C486F6C653A64657074682C2222293E
  0
ACAD_PROXY_OBJECT
  5
9CCB
330
9CC7
100
AcDbProxyObject
 90
      499
 91
      602
 95
       25
 70
     0
 93
      344
310
5DE0143A0D960E4E0DDA0E32056E0D9C80C805173D3C535444503A444553433E203C535444503A5354443E
  0
ACAD_PROXY_OBJECT
  5
9CCC
330
9CC7
100
AcDbProxyObject
 90
      499
 91
      602
 95
       25
 70
     0
 93
      256
310
5DE0143A0D960E4E0DDA0E32056E0D9C80C4050C3D3C535444503A444553433E
  0
ENDSEC
  0
EOF
