  0
SECTION
  2
HEADER
  9
$ACADVER
  1
AC1015
  9
$ACADMAINTVER
 70
     6
  9
$DWGCODEPAGE
  3
ANSI_932
  9
$INSBASE
 10
0.0
 20
0.0
 30
0.0
  9
$EXTMIN
 10
-99.2286305990865
 20
-186.4612325597075
 30
-0.0000000000000003
  9
$EXTMAX
 10
137.0960497927947
 20
31.50000000000163
 30
0.0000000000000003
  9
$LIMMIN
 10
0.0
 20
0.0
  9
$LIMMAX
 10
420.0
 20
297.0
  9
$ORTHOMODE
 70
     0
  9
$REGENMODE
 70
     1
  9
$FILLMODE
 70
     1
  9
$QTEXTMODE
 70
     0
  9
$MIRRTEXT
 70
     1
  9
$LTSCALE
 40
1.0
  9
$ATTMODE
 70
     1
  9
$TEXTSIZE
 40
3.15
  9
$TRACEWID
 40
1.0
  9
$TEXTSTYLE
  7
STANDARD
  9
$CLAYER
  8
AM_0
  9
$CELTYPE
  6
ByLayer
  9
$CECOLOR
 62
   256
  9
$CELTSCALE
 40
1.0
  9
$DISPSILH
 70
     0
  9
$DIMSCALE
 40
1.0
  9
$DIMASZ
 40
2.5
  9
$DIMEXO
 40
0.0
  9
$DIMDLI
 40
10.0
  9
$DIMRND
 40
0.0
  9
$DIMDLE
 40
0.0
  9
$DIMEXE
 40
1.0
  9
$DIMTP
 40
0.1
  9
$DIMTM
 40
0.1000000001
  9
$DIMTXT
 40
3.8
  9
$DIMCEN
 40
0.0
  9
$DIMTSZ
 40
0.0
  9
$DIMTOL
 70
     0
  9
$DIMLIM
 70
     0
  9
$DIMTIH
 70
     0
  9
$DIMTOH
 70
     0
  9
$DIMSE1
 70
     0
  9
$DIMSE2
 70
     0
  9
$DIMTAD
 70
     3
  9
$DIMZIN
 70
     1
  9
$DIMBLK
  1
Open30
  9
$DIMASO
 70
     1
  9
$DIMSHO
 70
     1
  9
$DIMPOST
  1

  9
$DIMAPOST
  1
"
  9
$DIMALT
 70
     0
  9
$DIMALTD
 70
     2
  9
$DIMALTF
 40
0.0393701
  9
$DIMLFAC
 40
1.0
  9
$DIMTOFL
 70
     1
  9
$DIMTVP
 40
0.0
  9
$DIMTIX
 70
     0
  9
$DIMSOXD
 70
     0
  9
$DIMSAH
 70
     0
  9
$DIMBLK1
  1

  9
$DIMBLK2
  1

  9
$DIMSTYLE
  2
AM_JIS
  9
$DIMCLRD
 70
   256
  9
$DIMCLRE
 70
   256
  9
$DIMCLRT
 70
     2
  9
$DIMTFAC
 40
0.71
  9
$DIMGAP
 40
1.5
  9
$DIMJUST
 70
     0
  9
$DIMSD1
 70
     0
  9
$DIMSD2
 70
     0
  9
$DIMTOLJ
 70
     0
  9
$DIMTZIN
 70
     8
  9
$DIMALTZ
 70
     0
  9
$DIMALTTZ
 70
     0
  9
$DIMUPT
 70
     0
  9
$DIMDEC
 70
     0
  9
$DIMTDEC
 70
     3
  9
$DIMALTU
 70
     2
  9
$DIMALTTD
 70
     2
  9
$DIMTXSTY
  7
STANDARD
  9
$DIMAUNIT
 70
     1
  9
$DIMADEC
 70
     2
  9
$DIMALTRND
 40
0.0
  9
$DIMAZIN
 70
     2
  9
$DIMDSEP
 70
    46
  9
$DIMATFIT
 70
     3
  9
$DIMFRAC
 70
     0
  9
$DIMLDRBLK
  1
Open30
  9
$DIMLUNIT
 70
     2
  9
$DIMLWD
 70
    -1
  9
$DIMLWE
 70
    -1
  9
$DIMTMOVE
 70
     0
  9
$LUNITS
 70
     2
  9
$LUPREC
 70
     2
  9
$SKETCHINC
 40
1.0
  9
$FILLETRAD
 40
1.5
  9
$AUNITS
 70
     1
  9
$AUPREC
 70
     5
  9
$MENU
  1
.
  9
$ELEVATION
 40
0.0
  9
$PELEVATION
 40
0.0
  9
$THICKNESS
 40
0.0
  9
$LIMCHECK
 70
     0
  9
$CHAMFERA
 40
2.5
  9
$CHAMFERB
 40
2.5
  9
$CHAMFERC
 40
20.0
  9
$CHAMFERD
 40
0.0
  9
$SKPOLY
 70
     0
  9
$TDCREATE
 40
2451943.610431667
  9
$TDUCREATE
 40
2451943.235431667
  9
$TDUPDATE
 40
2455460.438328716
  9
$TDUUPDATE
 40
2455460.063328716
  9
$TDINDWG
 40
0.4827119676
  9
$TDUSRTIMER
 40
0.482711794
  9
$USRTIMER
 70
     1
  9
$ANGBASE
 50
0.0
  9
$ANGDIR
 70
     0
  9
$PDMODE
 70
     0
  9
$PDSIZE
 40
0.0
  9
$PLINEWID
 40
0.0
  9
$SPLFRAME
 70
     0
  9
$SPLINETYPE
 70
     6
  9
$SPLINESEGS
 70
     8
  9
$HANDSEED
  5
C6E9
  9
$SURFTAB1
 70
     6
  9
$SURFTAB2
 70
     6
  9
$SURFTYPE
 70
     6
  9
$SURFU
 70
     6
  9
$SURFV
 70
     6
  9
$UCSBASE
  2

  9
$UCSNAME
  2

  9
$UCSORG
 10
0.0
 20
0.0
 30
0.0
  9
$UCSXDIR
 10
1.0
 20
0.0
 30
0.0
  9
$UCSYDIR
 10
0.0
 20
1.0
 30
0.0
  9
$UCSORTHOREF
  2

  9
$UCSORTHOVIEW
 70
     0
  9
$UCSORGTOP
 10
0.0
 20
0.0
 30
0.0
  9
$UCSORGBOTTOM
 10
0.0
 20
0.0
 30
0.0
  9
$UCSORGLEFT
 10
0.0
 20
0.0
 30
0.0
  9
$UCSORGRIGHT
 10
0.0
 20
0.0
 30
0.0
  9
$UCSORGFRONT
 10
0.0
 20
0.0
 30
0.0
  9
$UCSORGBACK
 10
0.0
 20
0.0
 30
0.0
  9
$PUCSBASE
  2

  9
$PUCSNAME
  2

  9
$PUCSORG
 10
0.0
 20
0.0
 30
0.0
  9
$PUCSXDIR
 10
1.0
 20
0.0
 30
0.0
  9
$PUCSYDIR
 10
0.0
 20
1.0
 30
0.0
  9
$PUCSORTHOREF
  2

  9
$PUCSORTHOVIEW
 70
     0
  9
$PUCSORGTOP
 10
0.0
 20
0.0
 30
0.0
  9
$PUCSORGBOTTOM
 10
0.0
 20
0.0
 30
0.0
  9
$PUCSORGLEFT
 10
0.0
 20
0.0
 30
0.0
  9
$PUCSORGRIGHT
 10
0.0
 20
0.0
 30
0.0
  9
$PUCSORGFRONT
 10
0.0
 20
0.0
 30
0.0
  9
$PUCSORGBACK
 10
0.0
 20
0.0
 30
0.0
  9
$USERI1
 70
     0
  9
$USERI2
 70
     0
  9
$USERI3
 70
     0
  9
$USERI4
 70
     0
  9
$USERI5
 70
     0
  9
$USERR1
 40
0.0
  9
$USERR2
 40
0.0
  9
$USERR3
 40
0.0
  9
$USERR4
 40
0.0
  9
$USERR5
 40
0.0
  9
$WORLDVIEW
 70
     1
  9
$SHADEDGE
 70
     3
  9
$SHADEDIF
 70
    70
  9
$TILEMODE
 70
     1
  9
$MAXACTVP
 70
    48
  9
$PINSBASE
 10
0.0
 20
0.0
 30
0.0
  9
$PLIMCHECK
 70
     0
  9
$PEXTMIN
 10
1.000000000000000E+20
 20
1.000000000000000E+20
 30
1.000000000000000E+20
  9
$PEXTMAX
 10
-1.000000000000000E+20
 20
-1.000000000000000E+20
 30
-1.000000000000000E+20
  9
$PLIMMIN
 10
0.0
 20
0.0
  9
$PLIMMAX
 10
420.0
 20
297.0
  9
$UNITMODE
 70
     0
  9
$VISRETAIN
 70
     1
  9
$PLINEGEN
 70
     0
  9
$PSLTSCALE
 70
     1
  9
$TREEDEPTH
 70
  3020
  9
$CMLSTYLE
  2
Standard
  9
$CMLJUST
 70
     0
  9
$CMLSCALE
 40
20.0
  9
$PROXYGRAPHICS
 70
     1
  9
$MEASUREMENT
 70
     1
  9
$CELWEIGHT
370
    -1
  9
$ENDCAPS
280
     0
  9
$JOINSTYLE
280
     0
  9
$LWDISPLAY
290
     0
  9
$INSUNITS
 70
     4
  9
$HYPERLINKBASE
  1

  9
$STYLESHEET
  1
sei_cad.ctb
  9
$XEDIT
290
     1
  9
$CEPSNTYPE
380
     0
  9
$PSTYLEMODE
290
     1
  9
$FINGERPRINTGUID
  2
{C77AB3BE-9CA2-11D3-BAF3-006094EB760E}
  9
$VERSIONGUID
  2
{B154DD0A-2381-43D2-BBDA-E4EEB2C720C1}
  9
$EXTNAMES
290
     1
  9
$PSVPSCALE
 40
0.0
  9
$OLESTARTUP
290
     0
  0
ENDSEC
  0
SECTION
  2
CLASSES
  0
CLASS
  1
ACDBDICTIONARYWDFLT
  2
AcDbDictionaryWithDefault
  3
ObjectDBX Classes
 90
        0
280
     0
281
     0
  0
CLASS
  1
ACDBPLACEHOLDER
  2
AcDbPlaceHolder
  3
ObjectDBX Classes
 90
        0
280
     0
281
     0
  0
CLASS
  1
LAYOUT
  2
AcDbLayout
  3
ObjectDBX Classes
 90
        0
280
     0
281
     0
  0
CLASS
  1
ACME_DOCUMENT
  2
AcMeDbDoc
  3
AcMeServices
 90
        0
280
     1
281
     0
  0
CLASS
  1
ACMESCOPE
  2
AcMeScope
  3
AcMeServices
 90
        0
280
     1
281
     0
  0
CLASS
  1
ACMECOMMANDHISTORY
  2
AcMeCommandHistory
  3
AcMeServices
 90
        0
280
     1
281
     0
  0
CLASS
  1
DICTIONARYVAR
  2
AcDbDictionaryVar
  3
ObjectDBX Classes
 90
        0
280
     0
281
     0
  0
CLASS
  1
ACIMSYSVARMAN
  2
AcImSysVarManager
  3
AcMeServices
 90
        0
280
     1
281
     0
  0
CLASS
  1
ACIMREALSYSVAR
  2
AcImRealSysVar
  3
AcMeServices
 90
        0
280
     1
281
     0
  0
CLASS
  1
ACIMINTSYSVAR
  2
AcImIntSysVar
  3
AcMeServices
 90
        0
280
     1
281
     0
  0
CLASS
  1
ACMEDRAWINGMAN
  2
AcMeDrawingMan
  3
AcMeServices
 90
        0
280
     1
281
     0
  0
CLASS
  1
ACMEVIEW
  2
AcMeView
  3
AcMeServices
 90
        0
280
     1
281
     0
  0
CLASS
  1
ACDBENTITYCACHE
  2
AcMeEntityCache
  3
AcMeServices
 90
        0
280
     1
281
     0
  0
CLASS
  1
GSMANAGER
  2
AcMeGSManager
  3
AcMeServices
 90
        0
280
     1
281
     0
  0
CLASS
  1
AMDTINTERNALREACTOR
  2
AmdtInternalReactor
  3
AcMeServices
 90
        0
280
     1
281
     0
  0
CLASS
  1
ACMESTATEMGR
  2
AcMeStateMgr
  3
AcMeServices
 90
        0
280
     1
281
     0
  0
CLASS
  1
ACME_DATABASE
  2
AcMeDbDatabase
  3
AcMeServices
 90
        0
280
     1
281
     0
  0
CLASS
  1
ACRFINSADJUSTERMGR
  2
AcRfInsAdjusterMgr
  3
AcMeServices
 90
        0
280
     1
281
     0
  0
CLASS
  1
AMGSETTINGSOBJ
  2
AmgSettingsObj
  3
"AcadM|Product Description: AutoCAD Mechanical 2000|Company: Autodesk"
 90
        0
280
     1
281
     0
  0
CLASS
  1
AMGOBJPROPCFG
  2
AmgObjPropCfg
  3
"AmgLay|Product Description: AutoCAD Mechanical 2000|Company: Autodesk"
 90
        1
280
     1
281
     0
  0
CLASS
  1
ACMDATADICTIONARY
  2
AcmDataDictionary
  3
"AcmSymBB|Product Description: AutoCAD Mechanical 2004 DX|Company: Autodesk"
 90
        0
280
     1
281
     0
  0
CLASS
  1
ACMDATAENTRYBLOCK
  2
AcmDataEntryBlock
  3
"AcmSymBB|Product Description: AutoCAD Mechanical 2004 DX|Company: Autodesk"
 90
        0
280
     1
281
     0
  0
CLASS
  1
ACIMSTRSYSVAR
  2
AcImStrSysVar
  3
AcMeServices
 90
        0
280
     1
281
     0
  0
CLASS
  1
ACAMGFILTERDAT
  2
AcAmgFilterDat
  3
"AcadM|Product Description: AutoCAD Mechanical 2000|Company: Autodesk"
 90
        0
280
     1
281
     0
  0
CLASS
  1
LAYER_INDEX
  2
AcDbLayerIndex
  3
ObjectDBX Classes
 90
        0
280
     0
281
     0
  0
CLASS
  1
IDBUFFER
  2
AcDbIdBuffer
  3
ObjectDBX Classes
 90
        0
280
     0
281
     0
  0
CLASS
  1
ACMSTANDARDJIS
  2
AcmStandardJIS
  3
"Amdt_StdImp|Product Description: AutoCAD Mechanical 2004 DX|Company: Autodesk"
 90
        0
280
     1
281
     0
  0
CLASS
  1
ACMSURFSTANDARDJIS
  2
AcmSurfTextStdJIS
  3
"Amdt_StdImp|Product Description: AutoCAD Mechanical 2004 DX|Company: Autodesk"
 90
        0
280
     1
281
     0
  0
CLASS
  1
ACMFCFSTANDARDJIS
  2
AcmFCFStdJIS
  3
"Amdt_StdImp|Product Description: AutoCAD Mechanical 2004 DX|Company: Autodesk"
 90
        0
280
     1
281
     0
  0
CLASS
  1
ACMWELDSTANDARDJIS
  2
AcmWeldingStdJIS
  3
"Amdt_StdImp|Product Description: AutoCAD Mechanical 2004 DX|Company: Autodesk"
 90
        0
280
     1
281
     0
  0
CLASS
  1
ACMIDSTANDARDJIS
  2
AcmIdStdJIS
  3
"Amdt_StdImp|Product Description: AutoCAD Mechanical 2004 DX|Company: Autodesk"
 90
        0
280
     1
281
     0
  0
CLASS
  1
ACMDATUMSTANDARDJIS
  2
AcmDatumStdJIS
  3
"Amdt_StdImp|Product Description: AutoCAD Mechanical 2004 DX|Company: Autodesk"
 90
        0
280
     1
281
     0
  0
CLASS
  1
ACMBOMSTANDARDJIS
  2
AcmBOMStdJIS
  3
"Amdt_StdImp|Product Description: AutoCAD Mechanical 2004 DX|Company: Autodesk"
 90
        0
280
     1
281
     0
  0
CLASS
  1
AMDTNOTE
  2
AmdtNote
  3
"AcmSymBB|Product Description: AutoCAD Mechanical 2004 DX|Company: Autodesk"
 90
     1023
280
     1
281
     1
  0
CLASS
  1
ACGREFMASTER
  2
AcGrefMaster
  3
AcAttribServices
 90
        0
280
     1
281
     0
  0
CLASS
  1
ACGREFACADMASTER
  2
AcGrefacadMaster
  3
AcGrefServices
 90
        0
280
     1
281
     0
  0
CLASS
  1
AMIMASTER
  2
AmiMaster
  3
AmiServices
 90
        0
280
     1
281
     0
  0
CLASS
  1
ACAMGTITLESTD
  2
AcAmgTitleStd
  3
"TITLEAPP"
 90
        0
280
     1
281
     0
  0
CLASS
  1
ACMDETAILSTANDARDJIS
  2
AmdtDetailSymStdJIS
  3
"Amdt_StdImp|Product Description: AutoCAD Mechanical 2004 DX|Company: Autodesk"
 90
        0
280
     1
281
     0
  0
CLASS
  1
ACMSECTIONSTANDARDJIS
  2
AmdtSectionSymStdJIS
  3
"Amdt_StdImp|Product Description: AutoCAD Mechanical 2004 DX|Company: Autodesk"
 90
        0
280
     1
281
     0
  0
CLASS
  1
ACMCENTERLINESTANDARDJIS
  2
AmdtCenterLineStdJIS
  3
"Amdt_StdImp|Product Description: AutoCAD Mechanical 2004 DX|Company: Autodesk"
 90
        0
280
     1
281
     0
  0
CLASS
  1
ACMNOTESTANDARDJIS
  2
AmdtNoteStdJIS
  3
"Amdt_StdImp|Product Description: AutoCAD Mechanical 2004 DX|Company: Autodesk"
 90
        0
280
     1
281
     0
  0
CLASS
  1
ACAMGLAYSTD
  2
AcAmgLayStd
  3
"AcAmgLayStd|Product Description: AutoCAD Mechanical 2000|Company: Autodesk"
 90
        0
280
     1
281
     0
  0
CLASS
  1
ACAMGDIMSTD
  2
AcAmgDimStd
  3
"AcAmgDimStd|Product Description: AutoCAD Mechanical 2000|Company: Autodesk"
 90
        0
280
     1
281
     0
  0
CLASS
  1
AMDTFORMULAUPDATEDISPATCHER
  2
AmdtFormulaUpdateDispatcher
  3
AcMeServices
 90
        0
280
     1
281
     0
  0
CLASS
  1
DUMMY
  2
AcDbLongTransaction
  3
DUMMY
 90
        0
280
     0
281
     0
  0
CLASS
  1
LWPOLYLINE
  2
AcDbPolyline
  3
AutoCAD 2000
 90
        0
280
     0
281
     1
  0
CLASS
  1
HATCH
  2
AcDbHatch
  3
AutoCAD 2000
 90
        0
280
     0
281
     1
  0
CLASS
  1
XRECORD
  2
AcDbXrecord
  3
AutoCAD 2000
 90
        0
280
     0
281
     0
  0
CLASS
  1
DUMMY
  2
AcDbLongTransaction
  3
DUMMY
 90
        0
280
     0
281
     0
  0
CLASS
  1
LWPOLYLINE
  2
AcDbPolyline
  3
AutoCAD 2000
 90
        0
280
     0
281
     1
  0
CLASS
  1
HATCH
  2
AcDbHatch
  3
AutoCAD 2000
 90
        0
280
     0
281
     1
  0
CLASS
  1
XRECORD
  2
AcDbXrecord
  3
AutoCAD 2000
 90
        0
280
     0
281
     0
  0
CLASS
  1
ACDBCIRCARCRES
  2
AcDbCircArcRes
  3
AcGrefServices
 90
        0
280
     1
281
     0
  0
CLASS
  1
ACDBLINERES
  2
AcDbLineRes
  3
AcGrefServices
 90
        0
280
     1
281
     0
  0
CLASS
  1
ACDBELLIPSERES
  2
AcDbEllipseRes
  3
AcGrefServices
 90
        0
280
     1
281
     0
  0
CLASS
  1
DUMMY
  2
AcDbLongTransaction
  3
DUMMY
 90
        0
280
     0
281
     0
  0
CLASS
  1
LWPOLYLINE
  2
AcDbPolyline
  3
AutoCAD 2000
 90
        0
280
     0
281
     1
  0
CLASS
  1
HATCH
  2
AcDbHatch
  3
AutoCAD 2000
 90
        0
280
     0
281
     1
  0
CLASS
  1
XRECORD
  2
AcDbXrecord
  3
AutoCAD 2000
 90
        0
280
     0
281
     0
  0
CLASS
  1
TABLESTYLE
  2
AcDbTableStyle
  3
ObjectDBX Classes
 90
     2047
280
     0
281
     0
  0
CLASS
  1
AM_DRAWING_MGR
  2
AcDmDwgMgr
  3
AcMechDwgViewMgmt
 90
        0
280
     1
281
     0
  0
CLASS
  1
AM_DWG_DOCUMENT
  2
AcDmDwgDocument
  3
AcMechDwgViewMgmt
 90
        0
280
     1
281
     0
  0
CLASS
  1
AM_DWG_SHEET
  2
AcDmSheet
  3
AcMechDwgViewMgmt
 90
        0
280
     1
281
     0
  0
CLASS
  1
AM_VIEWDIMPARMAP
  2
AcDmViewDimParMap
  3
AcMechDwgViewMgmt
 90
        0
280
     1
281
     0
  0
CLASS
  1
AM_DWGMGR_NAME
  2
AcDmDwgMgrName
  3
AcMechDwgViewMgmt
 90
        0
280
     1
281
     0
  0
CLASS
  1
AMDTMENUSTATEMGR
  2
AmdtMenuStateMgr
  3
McadcomServices
 90
        0
280
     1
281
     0
  0
CLASS
  1
AMDTMCOMMENUSTATE
  2
AmdtMcomMenuState
  3
McadcomServices
 90
        0
280
     1
281
     0
  0
CLASS
  1
MAPIAMMOUDLE
  2
MApiAmModule
  3
MApiAmServices
 90
        0
280
     1
281
     0
  0
CLASS
  1
AMDTADMENUSTATE
  2
AmdtAdMenuState
  3
DesignerServices
 90
        0
280
     1
281
     0
  0
CLASS
  1
ADAPPL
  2
AcAdAppl
  3
DesignerServices
 90
        0
280
     1
281
     0
  0
CLASS
  1
DEPMGR
  2
AcAdDepMgr
  3
DesignerServices
 90
        0
280
     1
281
     0
  0
CLASS
  1
PARAMMGR
  2
AcAdParamMgr
  3
DesignerServices
 90
        0
280
     1
281
     0
  0
CLASS
  1
PARAMSCOPE
  2
AcAdParamScope
  3
DesignerServices
 90
        0
280
     1
281
     0
  0
CLASS
  1
NAMEDAPPL
  2
AcAdNamedAppl
  3
DesignerServices
 90
        0
280
     1
281
     0
  0
CLASS
  1
AMDTDMMENUSTATE
  2
AmdtDmMenuState
  3
AcMechDwgViewMgmt
 90
        0
280
     1
281
     0
  0
CLASS
  1
AMDTAMMENUSTATE
  2
AmdtAmMenuState
  3
DesignerAssemblies
 90
        0
280
     1
281
     0
  0
CLASS
  1
ACAMPROJECT
  2
AcAmProject
  3
DesignerAssemblies
 90
        0
280
     1
281
     0
  0
CLASS
  1
ACAMGRCOMPDEF
  2
AcAmGrCompDef
  3
DesignerAssemblies
 90
        0
280
     1
281
     0
  0
CLASS
  1
ACCMCONTEXT
  2
AcCmContext
  3
DesignerAssemblies
 90
        0
280
     1
281
     0
  0
CLASS
  1
ACAMCOMPDEF
  2
AcAmCompDef
  3
DesignerAssemblies
 90
        0
280
     1
281
     0
  0
CLASS
  1
ACAMCOMPDEFMGR
  2
AcAmCompDefMgr
  3
DesignerAssemblies
 90
        0
280
     1
281
     0
  0
CLASS
  1
AMCONTEXTMGR
  2
AcAmContextMgr
  3
DesignerAssemblies
 90
        0
280
     1
281
     0
  0
CLASS
  1
ACAMCONTEXTMODELER
  2
AcAmContextModeler
  3
DesignerAssemblies
 90
        0
280
     1
281
     0
  0
CLASS
  1
CATALOGSTATE
  2
AcAmCatalogState
  3
DesignerAssemblies
 90
        0
280
     1
281
     0
  0
CLASS
  1
ACAMGRCOMPDEFSET
  2
AcAmGrCompDefSet
  3
DesignerAssemblies
 90
        0
280
     1
281
     0
  0
CLASS
  1
AMDTBROWSERDBTAB
  2
AmdtBrowserDbTab
  3
McadcomServices
 90
        0
280
     1
281
     0
  0
CLASS
  1
CBROWSERAPPOBJECT
  2
CBrowserAppObject
  3
McadcomServices
 90
        0
280
     1
281
     0
  0
CLASS
  1
DM_PLACEHOLDER
  2
AcDmSelsetPlaceholder
  3
AcMechDwgViewMgmt
 90
        0
280
     1
281
     0
  0
CLASS
  1
ACMSTANDARDISO
  2
AcmStandardISO
  3
"Amdt_StdImp|Product Description: AutoCAD Mechanical 2004 DX|Company: Autodesk"
 90
        0
280
     1
281
     0
  0
CLASS
  1
AMDTEDGESTANDARDISO13715
  2
AmdtEdgeStdISO13715
  3
"Amdt_StdImp|Product Description: AutoCAD Mechanical 2004 DX|Company: Autodesk"
 90
        0
280
     1
281
     0
  0
CLASS
  1
ACMSURFSTANDARDISO
  2
AcmSurfTextStdISO
  3
"Amdt_StdImp|Product Description: AutoCAD Mechanical 2004 DX|Company: Autodesk"
 90
        0
280
     1
281
     0
  0
CLASS
  1
ACMFCFSTANDARDISO
  2
AcmFCFStdISO
  3
"Amdt_StdImp|Product Description: AutoCAD Mechanical 2004 DX|Company: Autodesk"
 90
        0
280
     1
281
     0
  0
CLASS
  1
ACMWELDSTANDARDISO
  2
AcmWeldingStdISO
  3
"Amdt_StdImp|Product Description: AutoCAD Mechanical 2004 DX|Company: Autodesk"
 90
        0
280
     1
281
     0
  0
CLASS
  1
ACMIDSTANDARDISO
  2
AcmIdStdISO
  3
"Amdt_StdImp|Product Description: AutoCAD Mechanical 2004 DX|Company: Autodesk"
 90
        0
280
     1
281
     0
  0
CLASS
  1
ACMDATUMSTANDARDISO
  2
AcmDatumStdISO
  3
"Amdt_StdImp|Product Description: AutoCAD Mechanical 2004 DX|Company: Autodesk"
 90
        0
280
     1
281
     0
  0
CLASS
  1
ACMBOMSTANDARDISO
  2
AcmBOMStdISO
  3
"Amdt_StdImp|Product Description: AutoCAD Mechanical 2004 DX|Company: Autodesk"
 90
        0
280
     1
281
     0
  0
CLASS
  1
ACMDETAILSTANDARDISO
  2
AmdtDetailSymStdISO
  3
"Amdt_StdImp|Product Description: AutoCAD Mechanical 2004 DX|Company: Autodesk"
 90
        0
280
     1
281
     0
  0
CLASS
  1
ACMSECTIONSTANDARDISO
  2
AmdtSectionSymStdISO
  3
"Amdt_StdImp|Product Description: AutoCAD Mechanical 2004 DX|Company: Autodesk"
 90
        0
280
     1
281
     0
  0
CLASS
  1
ACMCENTERLINESTANDARDISO
  2
AmdtCenterLineStdISO
  3
"Amdt_StdImp|Product Description: AutoCAD Mechanical 2004 DX|Company: Autodesk"
 90
        0
280
     1
281
     0
  0
CLASS
  1
ACMTHREADLINESTANDARDISO
  2
AmdtThreadLineStdISO
  3
"Amdt_StdImp|Product Description: AutoCAD Mechanical 2004 DX|Company: Autodesk"
 90
        0
280
     1
281
     0
  0
CLASS
  1
ACMNOTESTANDARDISO
  2
AmdtNoteStdISO
  3
"Amdt_StdImp|Product Description: AutoCAD Mechanical 2004 DX|Company: Autodesk"
 90
        0
280
     1
281
     0
  0
CLASS
  1
AMDTNOTETEMPLATEDB
  2
AmdtNoteTemplateDB
  3
AMDT_STDIMP_MODULE_NAME
 90
        0
280
     1
281
     0
  0
CLASS
  1
ACAMGHOLECHARTSTDISO
  2
AcAmgHoleChartStdISO
  3
ACMSYMBB_MODULE_NAME
 90
        0
280
     1
281
     0
  0
CLASS
  1
SORTENTSTABLE
  2
AcDbSortentsTable
  3
ObjectDBX Classes
 90
        0
280
     0
281
     0
  0
CLASS
  1
ACMTHREADLINESTANDARDJIS
  2
AmdtThreadLineStdJIS
  3
"Amdt_StdImp|Product Description: AutoCAD Mechanical 2004 DX|Company: Autodesk"
 90
        0
280
     1
281
     0
  0
CLASS
  1
ACAMGHOLECHARTSTDJIS
  2
AcAmgHoleChartStdJIS
  3
ACMSYMBB_MODULE_NAME
 90
        0
280
     1
281
     0
  0
ENDSEC
  0
SECTION
  2
TABLES
  0
TABLE
  2
VPORT
  5
8
330
0
100
AcDbSymbolTable
 70
     3
  0
VPORT
  5
C6E2
330
8
100
AcDbSymbolTableRecord
100
AcDbViewportTableRecord
  2
*Active
 70
     0
 10
0.0
 20
0.0
 11
1.0
 21
1.0
 12
300.4988568746788
 22
-98.97171940281913
 13
0.0
 23
0.0
 14
2.5
 24
2.5
 15
10.0
 25
10.0
 16
0.0
 26
0.0
 36
1.0
 17
0.0
 27
0.0
 37
0.0
 40
655.4150262308754
 41
2.011013215859031
 42
50.0
 43
0.0
 44
0.0
 50
0.0
 51
0.0
 71
    16
 72
  2000
 73
     1
 74
     3
 75
     0
 76
     0
 77
     0
 78
     0
281
     0
 65
     1
110
0.0
120
0.0
130
0.0
111
1.0
121
0.0
131
0.0
112
0.0
122
1.0
132
0.0
 79
     0
146
0.0
  0
ENDTAB
  0
TABLE
  2
LTYPE
  5
5
330
0
100
AcDbSymbolTable
 70
    16
  0
LTYPE
  5
14
330
5
100
AcDbSymbolTableRecord
100
AcDbLinetypeTableRecord
  2
ByBlock
 70
     0
  3

 72
    65
 73
     0
 40
0.0
  0
LTYPE
  5
15
330
5
100
AcDbSymbolTableRecord
100
AcDbLinetypeTableRecord
  2
ByLayer
 70
     0
  3

 72
    65
 73
     0
 40
0.0
  0
LTYPE
  5
16
330
5
100
AcDbSymbolTableRecord
100
AcDbLinetypeTableRecord
  2
Continuous
 70
     0
  3
Solid line
 72
    65
 73
     0
 40
0.0
  0
LTYPE
  5
43
330
5
100
AcDbSymbolTableRecord
100
AcDbLinetypeTableRecord
  2
AM_ISO02W050
 70
     0
  3
__ __ __ __ __ __ __ __ __ __ __ __ __ __ __
 72
    65
 73
     2
 40
7.5
 49
6.0
 74
     0
 49
-1.5
 74
     0
  0
LTYPE
  5
44
330
5
100
AcDbSymbolTableRecord
100
AcDbLinetypeTableRecord
  2
AM_ISO08W050
 70
     0
  3
____ . ____ . ____ . ____ . ____ . ____ . ____
 72
    65
 73
     4
 40
18.0
 49
12.0
 74
     0
 49
-1.5
 74
     0
 49
3.0
 74
     0
 49
-1.5
 74
     0
  0
LTYPE
  5
45
330
5
100
AcDbSymbolTableRecord
100
AcDbLinetypeTableRecord
  2
AM_ISO09W050
 70
     0
  3
_____ . . _____ . . _____ . . ____ .. ____
 72
    65
 73
     6
 40
22.5
 49
12.0
 74
     0
 49
-1.5
 74
     0
 49
3.0
 74
     0
 49
-1.5
 74
     0
 49
3.0
 74
     0
 49
-1.5
 74
     0
  0
LTYPE
  5
46
330
5
100
AcDbSymbolTableRecord
100
AcDbLinetypeTableRecord
  2
Amconstr
 70
     0
  3
_______________________
 72
    65
 73
     2
 40
9999.0
 49
9999.0
 74
     0
 49
0.0
 74
     0
  0
LTYPE
  5
47
330
5
100
AcDbSymbolTableRecord
100
AcDbLinetypeTableRecord
  2
AM_ISO02W050x2
 70
     0
  3
 _ _ _ _ _ _ _ _ _ _ _ _
 72
    65
 73
     2
 40
3.75
 49
3.0
 74
     0
 49
-0.75
 74
     0
  0
LTYPE
  5
48
330
5
100
AcDbSymbolTableRecord
100
AcDbLinetypeTableRecord
  2
AM_ISO08W050x2
 70
     0
  3
__ . __ . __ . __ . __ . __
 72
    65
 73
     4
 40
9.0
 49
6.0
 74
     0
 49
-0.75
 74
     0
 49
1.5
 74
     0
 49
-0.75
 74
     0
  0
LTYPE
  5
4B
330
5
100
AcDbSymbolTableRecord
100
AcDbLinetypeTableRecord
  2
Amzigzag
 70
     0
  3
/\/-/\/-/\/-/\/-/\/-/\/
 72
    65
 73
     2
 40
11.0001
 49
0.0001
 74
     4
 75
   135
340
4A
 46
0.04
 50
0.0
 44
0.0
 45
0.0
 49
-11.0
 74
     0
  0
LTYPE
  5
188
330
5
100
AcDbSymbolTableRecord
100
AcDbLinetypeTableRecord
  2
ACJISTGB
 70
     0
  3
__ . . __ . .
 72
    65
 73
     6
 40
9.0
 49
4.0
 74
     0
 49
-1.0
 74
     0
 49
1.0
 74
     0
 49
-1.0
 74
     0
 49
1.0
 74
     0
 49
-1.0
 74
     0
  0
LTYPE
  5
189
330
5
100
AcDbSymbolTableRecord
100
AcDbLinetypeTableRecord
  2
ACJISTGL
 70
     0
  3
_ _ _ _ _
 72
    65
 73
     2
 40
3.0
 49
2.0
 74
     0
 49
-1.0
 74
     0
  0
LTYPE
  5
652
330
5
100
AcDbSymbolTableRecord
100
AcDbLinetypeTableRecord
  2
CENTER
 70
     0
  3
____ _ ____ _ ____ _ ____ _ ____ _ ____ _ ____
 72
    65
 73
     4
 40
17.5
 49
13.0
 74
     0
 49
-1.5
 74
     0
 49
1.5
 74
     0
 49
-1.5
 74
     0
  0
LTYPE
  5
12AB
330
5
100
AcDbSymbolTableRecord
100
AcDbLinetypeTableRecord
  2
HIDDEN
 70
     0
  3
Hidden __ __ __ __ __ __ __ __ __ __ __ __ __ _
 72
    65
 73
     2
 40
0.375
 49
0.25
 74
     0
 49
-0.125
 74
     0
  0
LTYPE
  5
12AC
330
5
100
AcDbSymbolTableRecord
100
AcDbLinetypeTableRecord
  2
PHANTOM2
 70
     0
  3
Phantom (.5x) ___ _ _ ___ _ _ ___ _ _ ___ _ _
 72
    65
 73
     6
 40
1.25
 49
0.625
 74
     0
 49
-0.125
 74
     0
 49
0.125
 74
     0
 49
-0.125
 74
     0
 49
0.125
 74
     0
 49
-0.125
 74
     0
  0
LTYPE
  5
A7EB
330
5
100
AcDbSymbolTableRecord
100
AcDbLinetypeTableRecord
  2
ACISOWELD
 70
     0
  3
_ _ _ _ _
 72
    65
 73
     2
 40
2.0
 49
2.0
 74
     0
 49
-1.0
 74
     0
  0
LTYPE
  5
A7EC
330
5
100
AcDbSymbolTableRecord
100
AcDbLinetypeTableRecord
  2
ACISOTGB
 70
     0
  3
__ . . __ . .
 72
    65
 73
     6
 40
9.0
 49
4.0
 74
     0
 49
-1.0
 74
     0
 49
1.0
 74
     0
 49
-1.0
 74
     0
 49
1.0
 74
     0
 49
-1.0
 74
     0
  0
LTYPE
  5
A7ED
330
5
100
AcDbSymbolTableRecord
100
AcDbLinetypeTableRecord
  2
ACISOTGL
 70
     0
  3
_ _ _ _ _
 72
    65
 73
     2
 40
3.0
 49
2.0
 74
     0
 49
-1.0
 74
     0
  0
ENDTAB
  0
TABLE
  2
LAYER
  5
2
102
{ACAD_XDICTIONARY
360
AADB
102
}
330
0
100
AcDbSymbolTable
 70
     7
  0
LAYER
  5
10
330
2
100
AcDbSymbolTableRecord
100
AcDbLayerTableRecord
  2
0
 70
     0
 62
     7
  6
Continuous
370
    -3
390
F
  0
LAYER
  5
7D
330
2
100
AcDbSymbolTableRecord
100
AcDbLayerTableRecord
  2
AM_5
 70
     0
 62
     3
  6
Continuous
370
    13
390
F
  0
LAYER
  5
7F
330
2
100
AcDbSymbolTableRecord
100
AcDbLayerTableRecord
  2
Defpoints
 70
     0
 62
     7
  6
Continuous
290
     0
370
    -3
390
F
  0
LAYER
  5
12B1
330
2
100
AcDbSymbolTableRecord
100
AcDbLayerTableRecord
  2
AM_0
 70
     0
 62
     7
  6
Continuous
370
    30
390
F
  0
LAYER
  5
1896
330
2
100
AcDbSymbolTableRecord
100
AcDbLayerTableRecord
  2
AM_7
 70
     0
 62
     4
  6
AM_ISO08W050
370
    13
390
F
  0
LAYER
  5
1898
330
2
100
AcDbSymbolTableRecord
100
AcDbLayerTableRecord
  2
AM_3
 70
     0
 62
     6
  6
AM_ISO02W050
370
    13
390
F
  0
ENDTAB
  0
TABLE
  2
STYLE
  5
3
330
0
100
AcDbSymbolTable
 70
     6
  0
STYLE
  5
11
330
3
100
AcDbSymbolTableRecord
100
AcDbTextStyleTableRecord
  2
STANDARD
 70
     0
 40
0.0
 41
1.0
 50
0.0
 71
     0
 42
3.15
  3
ISOCP.SHX
  4
EXTFONT.SHX
  0
STYLE
  5
4A
330
3
100
AcDbSymbolTableRecord
100
AcDbTextStyleTableRecord
  2

 70
     1
 40
0.0
 41
1.0
 50
0.0
 71
     0
 42
2.5
  3
ltypeshp.shx
  4

  0
STYLE
  5
180
330
3
100
AcDbSymbolTableRecord
100
AcDbTextStyleTableRecord
  2
ACJISTS
 70
     0
 40
1.0
 41
1.0
 50
0.0
 71
     0
 42
2.5
  3
isocp.shx
  4
bigfont.shx
  0
STYLE
  5
187
330
3
100
AcDbSymbolTableRecord
100
AcDbTextStyleTableRecord
  2
ACJISGDT
 70
     0
 40
0.0
 41
1.0
 50
0.0
 71
     0
 42
2.5
  3
amgdt.shx
  4

  0
STYLE
  5
A7DD
330
3
100
AcDbSymbolTableRecord
100
AcDbTextStyleTableRecord
  2
ACISOTS
 70
     0
 40
1.0
 41
1.0
 50
0.0
 71
     0
 42
3.15
  3
isocp.shx
  4
extfont.shx
  0
STYLE
  5
A7EA
330
3
100
AcDbSymbolTableRecord
100
AcDbTextStyleTableRecord
  2
ACISOGDT
 70
     0
 40
0.0
 41
1.0
 50
0.0
 71
     0
 42
3.15
  3
amgdt.shx
  4

  0
ENDTAB
  0
TABLE
  2
VIEW
  5
6
330
0
100
AcDbSymbolTable
 70
     6
  0
VIEW
  5
A30
330
6
100
AcDbSymbolTableRecord
100
AcDbViewTableRecord
  2
AM_VIEW1
 70
     0
 40
148.5
 10
108.6929657794677
 20
222.75
 41
217.3859315589354
 11
0.0
 21
0.0
 31
1.0
 12
0.0
 22
0.0
 32
0.0
 42
50.0
 43
0.0
 44
0.0
 50
0.0
 71
    16
281
     0
 72
     0
  0
VIEW
  5
A31
330
6
100
AcDbSymbolTableRecord
100
AcDbViewTableRecord
  2
AM_VIEW2
 70
     0
 40
148.5
 10
311.3070342205323
 20
222.75
 41
217.3859315589354
 11
0.0
 21
0.0
 31
1.0
 12
0.0
 22
0.0
 32
0.0
 42
50.0
 43
0.0
 44
0.0
 50
0.0
 71
    16
281
     0
 72
     0
  0
VIEW
  5
A32
330
6
100
AcDbSymbolTableRecord
100
AcDbViewTableRecord
  2
AM_VIEW3
 70
     0
 40
148.5
 10
108.6929657794677
 20
74.25
 41
217.3859315589354
 11
0.0
 21
0.0
 31
1.0
 12
0.0
 22
0.0
 32
0.0
 42
50.0
 43
0.0
 44
0.0
 50
0.0
 71
    16
281
     0
 72
     0
  0
VIEW
  5
A33
330
6
100
AcDbSymbolTableRecord
100
AcDbViewTableRecord
  2
AM_VIEW4
 70
     0
 40
148.5
 10
311.3070342205323
 20
74.25
 41
217.3859315589354
 11
0.0
 21
0.0
 31
1.0
 12
0.0
 22
0.0
 32
0.0
 42
50.0
 43
0.0
 44
0.0
 50
0.0
 71
    16
281
     0
 72
     0
  0
VIEW
  5
A34
330
6
100
AcDbSymbolTableRecord
100
AcDbViewTableRecord
  2
AM_VIEW5
 70
     0
 40
148.5
 10
210.0
 20
148.5
 41
217.3859315589353
 11
0.0
 21
0.0
 31
1.0
 12
0.0
 22
0.0
 32
0.0
 42
50.0
 43
0.0
 44
0.0
 50
0.0
 71
    16
281
     0
 72
     0
  0
VIEW
  5
A35
330
6
100
AcDbSymbolTableRecord
100
AcDbViewTableRecord
  2
AM_VIEW6
 70
     0
 40
296.99703
 10
210.0
 20
148.5
 41
434.7675153992395
 11
0.0
 21
0.0
 31
1.0
 12
0.0
 22
0.0
 32
0.0
 42
50.0
 43
0.0
 44
0.0
 50
0.0
 71
    16
281
     0
 72
     0
  0
ENDTAB
  0
TABLE
  2
UCS
  5
7
330
0
100
AcDbSymbolTable
 70
     0
  0
ENDTAB
  0
TABLE
  2
APPID
  5
9
330
0
100
AcDbSymbolTable
 70
    47
  0
APPID
  5
12
330
9
100
AcDbSymbolTableRecord
100
AcDbRegAppTableRecord
  2
ACAD
 70
     0
  0
APPID
  5
2C
330
9
100
AcDbSymbolTableRecord
100
AcDbRegAppTableRecord
  2
MCAD_NO_VIS
 70
     0
  0
APPID
  5
2D
330
9
100
AcDbSymbolTableRecord
100
AcDbRegAppTableRecord
  2
ACAD_TEMP_GRAPHIC
 70
     0
  0
APPID
  5
B9
330
9
100
AcDbSymbolTableRecord
100
AcDbRegAppTableRecord
  2
GENIUS_GENDTOL_13
 70
     0
  0
APPID
  5
359
330
9
100
AcDbSymbolTableRecord
100
AcDbRegAppTableRecord
  2
GENIUS_GENREC_14
 70
     0
  0
APPID
  5
35A
330
9
100
AcDbSymbolTableRecord
100
AcDbRegAppTableRecord
  2
GENIUS_GENODEF_13
 70
     0
  0
APPID
  5
35B
330
9
100
AcDbSymbolTableRecord
100
AcDbRegAppTableRecord
  2
GENIUS_GENOBJ-N-REC_13
 70
     0
  0
APPID
  5
667
330
9
100
AcDbSymbolTableRecord
100
AcDbRegAppTableRecord
  2
GENIUS_GENCFG_13
 70
     0
1001
GENIUS_GENCFG0_13
1000
GEN
  0
APPID
  5
668
330
9
100
AcDbSymbolTableRecord
100
AcDbRegAppTableRecord
  2
GENIUS_GENCFG0_13
 70
     0
1001
GENIUS_GENCFG_13
1071
1094015123
1000
668
1000
GEN
1070
     0
  0
APPID
  5
669
330
9
100
AcDbSymbolTableRecord
100
AcDbRegAppTableRecord
  2
GENIUS_GENCFG1_13
 70
     0
  0
APPID
  5
66A
330
9
100
AcDbSymbolTableRecord
100
AcDbRegAppTableRecord
  2
GENIUS_GENCFG2_13
 70
     0
  0
APPID
  5
66B
330
9
100
AcDbSymbolTableRecord
100
AcDbRegAppTableRecord
  2
GENIUS_GENCFG3_13
 70
     0
  0
APPID
  5
66C
330
9
100
AcDbSymbolTableRecord
100
AcDbRegAppTableRecord
  2
GENIUS_GENCFG4_13
 70
     0
  0
APPID
  5
A76
330
9
100
AcDbSymbolTableRecord
100
AcDbRegAppTableRecord
  2
GENIUS_GENBLLY_14
 70
     0
  0
APPID
  5
A77
330
9
100
AcDbSymbolTableRecord
100
AcDbRegAppTableRecord
  2
GENIUS_GENOBJ-N-CEN_13
 70
     0
  0
APPID
  5
A83
330
9
100
AcDbSymbolTableRecord
100
AcDbRegAppTableRecord
  2
GENIUS_GENTRA_14
 70
     0
  0
APPID
  5
A8D
330
9
100
AcDbSymbolTableRecord
100
AcDbRegAppTableRecord
  2
GENIUS_GENOBJ-N-TIT_13
 70
     0
  0
APPID
  5
A8E
330
9
100
AcDbSymbolTableRecord
100
AcDbRegAppTableRecord
  2
GENIUS_GENTITLE_13
 70
     0
  0
APPID
  5
A8F
330
9
100
AcDbSymbolTableRecord
100
AcDbRegAppTableRecord
  2
GENIUS_GENOENT_13
 70
     0
  0
APPID
  5
A90
330
9
100
AcDbSymbolTableRecord
100
AcDbRegAppTableRecord
  2
GENIUS_GENOREF_13
 70
     0
  0
APPID
  5
A91
330
9
100
AcDbSymbolTableRecord
100
AcDbRegAppTableRecord
  2
GENIUS_GENOLIS_13
 70
     0
  0
APPID
  5
A92
330
9
100
AcDbSymbolTableRecord
100
AcDbRegAppTableRecord
  2
GENIUS_GENZVEED_13
 70
     0
  0
APPID
  5
A93
330
9
100
AcDbSymbolTableRecord
100
AcDbRegAppTableRecord
  2
GENIUS_GENSCREG_15
 70
     0
  0
APPID
  5
A94
330
9
100
AcDbSymbolTableRecord
100
AcDbRegAppTableRecord
  2
GENIUS_GENOBJ-N-SDF_13
 70
     0
  0
APPID
  5
12B5
330
9
100
AcDbSymbolTableRecord
100
AcDbRegAppTableRecord
  2
GENIUS_GENOBJ-N-RSBK_13
 70
     0
  0
APPID
  5
12B6
330
9
100
AcDbSymbolTableRecord
100
AcDbRegAppTableRecord
  2
GENIUS_GENOBJ-N-LIB_13
 70
     0
  0
APPID
  5
12B7
330
9
100
AcDbSymbolTableRecord
100
AcDbRegAppTableRecord
  2
GENIUS_GENSCALE_13
 70
     0
  0
APPID
  5
12B8
330
9
100
AcDbSymbolTableRecord
100
AcDbRegAppTableRecord
  2
GENIUS_GENOBJ-N-HTC_13
 70
     0
  0
APPID
  5
12B9
330
9
100
AcDbSymbolTableRecord
100
AcDbRegAppTableRecord
  2
GENIUS_GENHATCH_13
 70
     0
  0
APPID
  5
189B
330
9
100
AcDbSymbolTableRecord
100
AcDbRegAppTableRecord
  2
BASE_TYPE
 70
     0
  0
APPID
  5
189C
330
9
100
AcDbSymbolTableRecord
100
AcDbRegAppTableRecord
  2
GENIUS_GENOBJ-N-FIL_13
 70
     0
  0
APPID
  5
23D0
330
9
100
AcDbSymbolTableRecord
100
AcDbRegAppTableRecord
  2
ACATTRIBSERVICES
 70
     0
  0
APPID
  5
264C
330
9
100
AcDbSymbolTableRecord
100
AcDbRegAppTableRecord
  2
GENIUS_GENSCREG_13
 70
     0
  0
APPID
  5
26E5
330
9
100
AcDbSymbolTableRecord
100
AcDbRegAppTableRecord
  2
CONTENTBLOCKICON
 70
     0
  0
APPID
  5
2747
330
9
100
AcDbSymbolTableRecord
100
AcDbRegAppTableRecord
  2
GENIUS_GENFIL_13
 70
     0
  0
APPID
  5
2748
330
9
100
AcDbSymbolTableRecord
100
AcDbRegAppTableRecord
  2
GENIUS_GENOBJ-N-CHA_13
 70
     0
  0
APPID
  5
2749
330
9
100
AcDbSymbolTableRecord
100
AcDbRegAppTableRecord
  2
GENIUS_GENDIMSH_14
 70
     0
  0
APPID
  5
274A
330
9
100
AcDbSymbolTableRecord
100
AcDbRegAppTableRecord
  2
GENIUS_GENOBJ-N-DIM_13
 70
     0
  0
APPID
  5
274B
330
9
100
AcDbSymbolTableRecord
100
AcDbRegAppTableRecord
  2
GENIUS_GENDIM_13
 70
     0
  0
APPID
  5
2A08
330
9
100
AcDbSymbolTableRecord
100
AcDbRegAppTableRecord
  2
GENIUS_GENOBJ-N-CRS_13
 70
     0
  0
APPID
  5
A7B0
330
9
100
AcDbSymbolTableRecord
100
AcDbRegAppTableRecord
  2
AD_DRAW
 70
     0
  0
APPID
  5
A7CE
330
9
100
AcDbSymbolTableRecord
100
AcDbRegAppTableRecord
  2
DESIGNERASSEMBLIES
 70
     0
  0
APPID
  5
A7D3
330
9
100
AcDbSymbolTableRecord
100
AcDbRegAppTableRecord
  2
ACADM_DIM_EDIT
 70
     0
  0
APPID
  5
A7D4
330
9
100
AcDbSymbolTableRecord
100
AcDbRegAppTableRecord
  2
AMDT_DM_ADJ
 70
     0
  0
APPID
  5
A96A
330
9
100
AcDbSymbolTableRecord
100
AcDbRegAppTableRecord
  2
ACAD_DSTYLE_DIMTEXT_FILL
 70
     0
  0
APPID
  5
A96B
330
9
100
AcDbSymbolTableRecord
100
AcDbRegAppTableRecord
  2
ACAD_PSEXT
 70
     0
  0
APPID
  5
ADD2
330
9
100
AcDbSymbolTableRecord
100
AcDbRegAppTableRecord
  2
GENIUS_GENCEN_19
 70
     0
  0
ENDTAB
  0
TABLE
  2
DIMSTYLE
  5
A
330
0
100
AcDbSymbolTable
 70
    17
100
AcDbDimStyleTable
  0
DIMSTYLE
105
58
330
A
100
AcDbSymbolTableRecord
100
AcDbDimStyleTableRecord
  2
AM_JIS
 70
     0
  4
"
 41
2.5
 42
0.0
 43
10.0
 44
1.0
 47
0.1
 48
0.1000000001
 73
     0
 74
     0
 77
     3
 78
     1
 79
     2
140
3.8
141
0.0
143
0.0393701
146
0.71
147
1.5
172
     1
176
   256
177
   256
178
     2
179
     2
271
     3
272
     3
275
     1
283
     0
284
     8
340
11
341
59
342
59
371
    -1
372
    -1
  0
DIMSTYLE
105
5F
330
A
100
AcDbSymbolTableRecord
100
AcDbDimStyleTableRecord
  2
AM_JIS$3
 70
     0
  4
"
 41
2.5
 42
0.0
 43
10.0
 44
1.0
 47
0.1
 48
0.1000000001
 73
     0
 77
     3
 78
     1
 79
     2
140
3.8
141
0.0
143
0.0393701
146
0.71
147
1.5
172
     1
176
   256
177
   256
178
     2
179
     2
271
     3
272
     3
275
     1
283
     0
284
     8
288
     1
289
     0
340
11
341
59
342
59
371
    -1
372
    -1
  0
DIMSTYLE
105
60
330
A
100
AcDbSymbolTableRecord
100
AcDbDimStyleTableRecord
  2
AM_JIS$4
 70
     0
  4
"
 41
2.5
 42
0.0
 43
10.0
 44
1.0
 47
0.1
 48
0.1000000001
 73
     0
 77
     3
 78
     1
 79
     2
140
3.8
141
0.0
143
0.0393701
146
0.71
147
1.5
172
     1
176
   256
177
   256
178
     2
179
     2
271
     3
272
     3
275
     1
283
     0
284
     8
288
     1
289
     0
340
11
341
59
342
59
371
    -1
372
    -1
  0
DIMSTYLE
105
61
330
A
100
AcDbSymbolTableRecord
100
AcDbDimStyleTableRecord
  2
AM_JIS$6
 70
     0
  4
"
 41
2.5
 42
0.0
 43
10.0
 44
1.0
 47
0.1
 48
0.1000000001
 73
     0
 74
     0
 78
     1
 79
     2
140
3.8
141
0.0
143
0.0393701
146
0.71
147
1.5
172
     1
176
   256
177
   256
178
     2
179
     2
271
     3
272
     3
275
     1
283
     0
284
     8
340
11
341
59
342
59
371
    -1
372
    -1
  0
DIMSTYLE
105
62
330
A
100
AcDbSymbolTableRecord
100
AcDbDimStyleTableRecord
  2
AM_JIS$7
 70
     0
  4
"
 41
2.5
 42
0.0
 43
10.0
 44
1.0
 47
0.1
 48
0.1000000001
 73
     0
 74
     0
 77
     3
 78
     1
 79
     2
140
5.0
141
0.0
143
0.0393701
146
0.71
147
1.5
172
     1
176
   256
177
   256
178
     2
179
     2
271
     3
272
     3
275
     1
283
     0
284
     8
340
11
341
59
342
59
371
    -1
372
    -1
  0
DIMSTYLE
105
63
330
A
100
AcDbSymbolTableRecord
100
AcDbDimStyleTableRecord
  2
AM_JIS$SF
 70
     0
  4
"
 41
2.5
 42
1.0
 43
10.0
 44
1.0
 47
0.1
 48
0.1
 73
     0
 74
     0
 75
     1
 76
     1
 77
     3
 78
     8
 79
     2
140
3.5
141
0.0
143
0.0393701
146
0.71
147
1.5
176
   256
177
   256
178
     2
271
     2
272
     3
274
     4
340
11
341
59
342
59
343
59
344
59
371
    -1
372
    -1
  0
DIMSTYLE
105
68
330
A
100
AcDbSymbolTableRecord
100
AcDbDimStyleTableRecord
  2
AM_JIS$SH
 70
     0
  4
"
 41
2.5
 42
1.0
 43
10.0
 44
1.0
 47
0.1
 48
0.1
 73
     0
 74
     0
 75
     1
 76
     1
 77
     3
 78
     8
 79
     2
140
3.5
141
0.0
143
0.0393701
144
2.0
146
0.71
147
1.5
173
     1
176
   256
177
   256
178
     2
271
     2
272
     3
274
     4
340
11
341
59
342
59
343
64
344
59
371
    -1
372
    -1
  0
DIMSTYLE
105
65F
330
A
100
AcDbSymbolTableRecord
100
AcDbDimStyleTableRecord
  2
STANDARD
 70
     0
340
11
  0
DIMSTYLE
105
1899
102
{ACAD_REACTORS
330
79A6
330
81E7
330
7A0E
330
B9A6
102
}
330
A
100
AcDbSymbolTableRecord
100
AcDbDimStyleTableRecord
  2
AM_JIS$0
 70
     0
  4
"
 41
2.5
 42
0.0
 43
10.0
 44
1.0
 47
0.1
 48
0.1000000001
 73
     0
 74
     0
 77
     3
 78
     1
 79
     2
140
3.8
141
0.0
143
0.0393701
146
0.71
147
1.5
172
     1
176
     3
177
     3
178
     2
271
     3
272
     3
275
     1
283
     0
284
     8
289
     0
340
11
341
59
342
59
371
    13
372
    13
  0
DIMSTYLE
105
189A
330
A
100
AcDbSymbolTableRecord
100
AcDbDimStyleTableRecord
  2
AM_JIS$2
 70
     0
  4
"
 41
2.5
 42
0.0
 43
10.0
 44
1.0
 47
0.1
 48
0.1000000001
 73
     0
 74
     0
 77
     3
 78
     1
 79
     2
140
3.8
141
0.0
143
0.0393701
146
0.71
147
1.5
172
     1
176
     3
177
     3
178
     2
179
     3
271
     3
272
     3
275
     1
283
     0
284
     8
289
     0
340
11
341
59
342
59
371
    13
372
    13
  0
DIMSTYLE
105
A7F6
330
A
100
AcDbSymbolTableRecord
100
AcDbDimStyleTableRecord
  2
AM_ISO
 70
     0
  4
"
 41
2.5
 42
1.0
 43
10.0
 44
1.0
 47
0.1
 48
0.1
 73
     0
 74
     0
 77
     1
 78
     8
 79
     2
140
3.5
141
0.0
143
0.0393701
146
0.71
147
1.5
172
     1
176
   256
177
   256
178
     2
271
     2
272
     3
274
     4
283
     0
284
     8
340
11
371
    -1
372
    -1
  0
DIMSTYLE
105
A7F7
330
A
100
AcDbSymbolTableRecord
100
AcDbDimStyleTableRecord
  2
AM_ISO$3
 70
     0
  4
"
 41
2.5
 42
1.0
 43
10.0
 44
1.0
 47
0.1
 48
0.1
 73
     0
 77
     1
 78
     8
 79
     2
140
3.5
141
0.0
143
0.0393701
146
0.71
147
1.5
176
   256
177
   256
178
     2
271
     2
272
     3
274
     4
283
     0
284
     8
288
     1
289
     0
340
11
371
    -1
372
    -1
  0
DIMSTYLE
105
A7F8
330
A
100
AcDbSymbolTableRecord
100
AcDbDimStyleTableRecord
  2
AM_ISO$4
 70
     0
  4
"
 41
2.5
 42
1.0
 43
10.0
 44
1.0
 47
0.1
 48
0.1
 73
     0
 77
     1
 78
     8
 79
     2
140
3.5
141
0.0
143
0.0393701
146
0.71
147
1.5
176
   256
177
   256
178
     2
271
     2
272
     3
274
     4
283
     0
284
     8
288
     1
289
     0
340
11
371
    -1
372
    -1
  0
DIMSTYLE
105
A7F9
330
A
100
AcDbSymbolTableRecord
100
AcDbDimStyleTableRecord
  2
AM_ISO$6
 70
     0
  4
"
 41
2.5
 42
1.0
 43
10.0
 44
1.0
 47
0.1
 48
0.1
 73
     0
 74
     0
 78
     8
 79
     2
140
3.5
141
0.0
143
0.0393701
146
0.71
147
1.5
172
     1
176
   256
177
   256
178
     2
271
     2
272
     3
274
     4
283
     0
284
     8
340
11
371
    -1
372
    -1
  0
DIMSTYLE
105
A7FA
330
A
100
AcDbSymbolTableRecord
100
AcDbDimStyleTableRecord
  2
AM_ISO$7
 70
     0
  4
"
 41
2.5
 42
1.0
 43
10.0
 44
1.0
 47
0.1
 48
0.1
 73
     0
 74
     0
 77
     1
 78
     8
 79
     2
140
5.0
141
0.0
143
0.0393701
146
0.71
147
1.5
172
     1
176
   256
177
   256
178
     2
271
     2
272
     3
274
     4
283
     0
284
     8
340
11
371
    -1
372
    -1
  0
DIMSTYLE
105
A7FB
330
A
100
AcDbSymbolTableRecord
100
AcDbDimStyleTableRecord
  2
AM_ISO$SF
 70
     0
  4
"
 41
2.5
 42
1.0
 43
10.0
 44
1.0
 47
0.1
 48
0.1
 73
     0
 74
     0
 75
     1
 76
     1
 77
     1
 78
     8
 79
     2
140
3.5
141
0.0
143
0.0393701
146
0.71
147
1.5
172
     1
176
   256
177
   256
178
     2
271
     2
272
     3
274
     4
283
     0
284
     8
340
11
371
    -1
372
    -1
  0
DIMSTYLE
105
A7FC
330
A
100
AcDbSymbolTableRecord
100
AcDbDimStyleTableRecord
  2
AM_ISO$SH
 70
     0
  4
"
 41
2.5
 42
1.0
 43
10.0
 44
1.0
 47
0.1
 48
0.1
 73
     0
 74
     0
 75
     1
 76
     1
 77
     1
 78
     8
 79
     2
140
3.5
141
0.0
143
0.0393701
144
2.0
146
0.71
147
1.5
172
     1
173
     1
176
   256
177
   256
178
     2
271
     2
272
     3
274
     4
283
     0
284
     8
340
11
343
64
371
    -1
372
    -1
  0
ENDTAB
  0
TABLE
  2
BLOCK_RECORD
  5
1
330
0
100
AcDbSymbolTable
 70
     8
  0
BLOCK_RECORD
  5
1F
102
{ACAD_XDICTIONARY
360
165
102
}
330
1
100
AcDbSymbolTableRecord
100
AcDbBlockTableRecord
  2
*Model_Space
340
22
  0
BLOCK_RECORD
  5
1B
102
{ACAD_XDICTIONARY
360
264F
102
}
330
1
100
AcDbSymbolTableRecord
100
AcDbBlockTableRecord
  2
*Paper_Space
340
1E
  0
BLOCK_RECORD
  5
23
102
{ACAD_XDICTIONARY
360
2651
102
}
330
1
100
AcDbSymbolTableRecord
100
AcDbBlockTableRecord
  2
*Paper_Space0
340
26
  0
BLOCK_RECORD
  5
59
330
1
100
AcDbSymbolTableRecord
100
AcDbBlockTableRecord
  2
_Open30
340
0
102
{BLKREFS
331
C671
331
C672
331
C67A
331
C67B
331
C683
331
C684
331
C68C
331
C68D
102
}
  0
BLOCK_RECORD
  5
64
330
1
100
AcDbSymbolTableRecord
100
AcDbBlockTableRecord
  2
GENAXEH
340
0
  0
BLOCK_RECORD
  5
79A7
330
1
100
AcDbSymbolTableRecord
100
AcDbBlockTableRecord
  2
*D3
340
0
  0
BLOCK_RECORD
  5
7A0F
330
1
100
AcDbSymbolTableRecord
100
AcDbBlockTableRecord
  2
*D4
340
0
  0
BLOCK_RECORD
  5
81E8
330
1
100
AcDbSymbolTableRecord
100
AcDbBlockTableRecord
  2
*D5
340
0
  0
BLOCK_RECORD
  5
A7C5
330
1
100
AcDbSymbolTableRecord
100
AcDbBlockTableRecord
  2
*U6
340
0
  0
BLOCK_RECORD
  5
BA5F
330
1
100
AcDbSymbolTableRecord
100
AcDbBlockTableRecord
  2
*D7
340
0
  0
ENDTAB
  0
ENDSEC
  0
SECTION
  2
BLOCKS
  0
BLOCK
  5
20
330
1F
100
AcDbEntity
  8
0
100
AcDbBlockBegin
  2
*Model_Space
 70
     0
 71
     0
 10
0.0
 20
0.0
 30
0.0
  3
*Model_Space
  1

  0
ENDBLK
  5
21
330
1F
100
AcDbEntity
  8
0
100
AcDbBlockEnd
  0
BLOCK
  5
1C
330
1B
100
AcDbEntity
 67
     1
  8
0
100
AcDbBlockBegin
  2
*Paper_Space
 70
     0
 71
     0
 10
0.0
 20
0.0
 30
0.0
  3
*Paper_Space
  1

  0
ENDBLK
  5
1D
330
1B
100
AcDbEntity
 67
     1
  8
0
100
AcDbBlockEnd
  0
BLOCK
  5
24
330
23
100
AcDbEntity
  8
0
100
AcDbBlockBegin
  2
*Paper_Space0
 70
     0
 71
     0
 10
0.0
 20
0.0
 30
0.0
  3
*Paper_Space0
  1

  0
ENDBLK
  5
25
330
23
100
AcDbEntity
  8
0
100
AcDbBlockEnd
  0
BLOCK
  5
2F22
330
59
100
AcDbEntity
  8
0
100
AcDbBlockBegin
  2
_Open30
 70
     0
 71
     0
 10
0.0
 20
0.0
 30
0.0
  3
_Open30
  1

  0
LINE
  5
2F1F
330
59
100
AcDbEntity
  8
0
 62
     0
370
    -2
100
AcDbLine
 10
-1.0
 20
0.26794919
 30
0.0
 11
0.0
 21
0.0
 31
0.0
  0
LINE
  5
2F20
330
59
100
AcDbEntity
  8
0
 62
     0
370
    -2
100
AcDbLine
 10
0.0
 20
0.0
 30
0.0
 11
-1.0
 21
-0.26794919
 31
0.0
  0
LINE
  5
2F21
330
59
100
AcDbEntity
  8
0
 62
     0
370
    -2
100
AcDbLine
 10
0.0
 20
0.0
 30
0.0
 11
-1.0
 21
0.0
 31
0.0
  0
ENDBLK
  5
2F23
330
59
100
AcDbEntity
  8
0
100
AcDbBlockEnd
  0
BLOCK
  5
2F2E
330
64
100
AcDbEntity
  8
0
100
AcDbBlockBegin
  2
GENAXEH
 70
     0
 71
     0
 10
0.0
 20
0.0
 30
0.0
  3
GENAXEH
  1

  0
LINE
  5
2F2D
330
64
100
AcDbEntity
  8
0
100
AcDbLine
 10
-1.0
 20
0.0
 30
0.0
 11
1.0
 21
0.0
 31
0.0
  0
ENDBLK
  5
2F2F
330
64
100
AcDbEntity
  8
0
100
AcDbBlockEnd
  0
BLOCK
  5
79B1
330
79A7
100
AcDbEntity
  8
0
100
AcDbBlockBegin
  2
*D3
 70
     1
 71
     0
 10
0.0
 20
0.0
 30
0.0
  3
*D3
  1

  0
LINE
  5
C66E
330
79A7
100
AcDbEntity
  8
AM_5
 62
     3
370
    13
100
AcDbLine
 10
53.0
 20
-31.49999999999822
 30
0.0
 11
53.0
 21
-54.49999999999831
 31
0.0
  0
LINE
  5
C66F
330
79A7
100
AcDbEntity
  8
AM_5
 62
     3
370
    13
100
AcDbLine
 10
74.99999999999994
 20
-31.19999999999821
 30
0.0
 11
74.99999999999994
 21
-54.49999999999831
 31
0.0
  0
LINE
  5
C670
330
79A7
100
AcDbEntity
  8
AM_5
 62
     3
370
    13
100
AcDbLine
 10
55.5
 20
-53.49999999999831
 30
0.0
 11
72.49999999999994
 21
-53.49999999999831
 31
0.0
  0
INSERT
  5
C671
330
79A7
100
AcDbEntity
  8
AM_5
 62
     3
370
    13
100
AcDbBlockReference
  2
_Open30
 10
53.0
 20
-53.49999999999831
 30
0.0
 41
2.5
 42
2.5
 43
2.5
 50
180.0
  0
INSERT
  5
C672
330
79A7
100
AcDbEntity
  8
AM_5
 62
     3
370
    13
100
AcDbBlockReference
  2
_Open30
 10
74.99999999999994
 20
-53.49999999999831
 30
0.0
 41
2.5
 42
2.5
 43
2.5
  0
MTEXT
  5
C673
330
79A7
100
AcDbEntity
  8
AM_5
 62
     2
100
AcDbMText
 10
63.99999999999997
 20
-50.09962598425028
 30
0.0
 40
3.8
 41
0.0
 71
     5
 72
     1
  1
22
 73
     1
 44
1.0
  0
POINT
  5
C674
330
79A7
100
AcDbEntity
  8
Defpoints
 62
     0
100
AcDbPoint
 10
53.0
 20
-31.49999999999822
 30
0.0
  0
POINT
  5
C675
330
79A7
100
AcDbEntity
  8
Defpoints
 62
     0
100
AcDbPoint
 10
74.99999999999994
 20
-31.19999999999821
 30
0.0
  0
POINT
  5
C676
330
79A7
100
AcDbEntity
  8
Defpoints
 62
     0
100
AcDbPoint
 10
74.99999999999994
 20
-53.49999999999831
 30
0.0
  0
ENDBLK
  5
79B2
330
79A7
100
AcDbEntity
  8
0
100
AcDbBlockEnd
  0
BLOCK
  5
7A19
330
7A0F
100
AcDbEntity
  8
0
100
AcDbBlockBegin
  2
*D4
 70
     1
 71
     0
 10
0.0
 20
0.0
 30
0.0
  3
*D4
  1

  0
LINE
  5
C677
330
7A0F
100
AcDbEntity
  8
AM_5
 62
     3
370
    13
100
AcDbLine
 10
0.0
 20
-24.99999999999827
 30
0.0
 11
-0.0000000000000024
 21
-64.49999999999831
 31
0.0
  0
LINE
  5
C678
330
7A0F
100
AcDbEntity
  8
AM_5
 62
     3
370
    13
100
AcDbLine
 10
74.99999999999994
 20
-31.19999999999821
 30
0.0
 11
74.99999999999994
 21
-64.49999999999831
 31
0.0
  0
LINE
  5
C679
330
7A0F
100
AcDbEntity
  8
AM_5
 62
     3
370
    13
100
AcDbLine
 10
2.499999999999998
 20
-63.49999999999831
 30
0.0
 11
72.49999999999994
 21
-63.49999999999831
 31
0.0
  0
INSERT
  5
C67A
330
7A0F
100
AcDbEntity
  8
AM_5
 62
     3
370
    13
100
AcDbBlockReference
  2
_Open30
 10
-0.0000000000000024
 20
-63.49999999999831
 30
0.0
 41
2.5
 42
2.5
 43
2.5
 50
180.0
  0
INSERT
  5
C67B
330
7A0F
100
AcDbEntity
  8
AM_5
 62
     3
370
    13
100
AcDbBlockReference
  2
_Open30
 10
74.99999999999994
 20
-63.49999999999831
 30
0.0
 41
2.5
 42
2.5
 43
2.5
  0
MTEXT
  5
C67C
330
7A0F
100
AcDbEntity
  8
AM_5
 62
     2
100
AcDbMText
 10
37.49999999999997
 20
-60.09999999999831
 30
0.0
 40
3.8
 41
0.0
 71
     5
 72
     1
  1
75
 73
     1
 44
1.0
  0
POINT
  5
C67D
330
7A0F
100
AcDbEntity
  8
Defpoints
 62
     0
100
AcDbPoint
 10
0.0
 20
-24.99999999999827
 30
0.0
  0
POINT
  5
C67E
330
7A0F
100
AcDbEntity
  8
Defpoints
 62
     0
100
AcDbPoint
 10
74.99999999999994
 20
-31.19999999999821
 30
0.0
  0
POINT
  5
C67F
330
7A0F
100
AcDbEntity
  8
Defpoints
 62
     0
100
AcDbPoint
 10
74.99999999999994
 20
-63.49999999999831
 30
0.0
  0
ENDBLK
  5
7A1A
330
7A0F
100
AcDbEntity
  8
0
100
AcDbBlockEnd
  0
BLOCK
  5
81F2
330
81E8
100
AcDbEntity
  8
0
100
AcDbBlockBegin
  2
*D5
 70
     1
 71
     0
 10
0.0
 20
0.0
 30
0.0
  3
*D5
  1

  0
LINE
  5
C680
330
81E8
100
AcDbEntity
  8
AM_5
 62
     3
370
    13
100
AcDbLine
 10
74.69999999999999
 20
31.50000000000158
 30
0.0
 11
137.0960497927947
 21
31.50000000000156
 31
0.0
  0
LINE
  5
C681
330
81E8
100
AcDbEntity
  8
AM_5
 62
     3
370
    13
100
AcDbLine
 10
74.69999999999993
 20
-31.49999999999822
 30
0.0
 11
137.0960497927947
 21
-31.49999999999824
 31
0.0
  0
LINE
  5
C682
330
81E8
100
AcDbEntity
  8
AM_5
 62
     3
370
    13
100
AcDbLine
 10
136.0960497927947
 20
29.00000000000156
 30
0.0
 11
136.0960497927947
 21
-28.99999999999824
 31
0.0
  0
INSERT
  5
C683
330
81E8
100
AcDbEntity
  8
AM_5
 62
     3
370
    13
100
AcDbBlockReference
  2
_Open30
 10
136.0960497927947
 20
31.50000000000156
 30
0.0
 41
2.5
 42
2.5
 43
2.5
 50
90.0
  0
INSERT
  5
C684
330
81E8
100
AcDbEntity
  8
AM_5
 62
     3
370
    13
100
AcDbBlockReference
  2
_Open30
 10
136.0960497927947
 20
-31.49999999999824
 30
0.0
 41
2.5
 42
2.5
 43
2.5
 50
270.0
  0
MTEXT
  5
C685
330
81E8
100
AcDbEntity
  8
AM_5
 62
     2
100
AcDbMText
 10
132.6960497927947
 20
0.0000000000016832
 30
0.0
 40
3.8
 41
0.0
 71
     5
 72
     1
  1
%%c63
 11
6.123031769111886E-17
 21
1.0
 31
0.0
 73
     1
 44
1.0
  0
POINT
  5
C686
330
81E8
100
AcDbEntity
  8
Defpoints
 62
     0
100
AcDbPoint
 10
74.69999999999999
 20
31.50000000000158
 30
0.0
  0
POINT
  5
C687
330
81E8
100
AcDbEntity
  8
Defpoints
 62
     0
100
AcDbPoint
 10
74.69999999999993
 20
-31.49999999999822
 30
0.0
  0
POINT
  5
C688
330
81E8
100
AcDbEntity
  8
Defpoints
 62
     0
100
AcDbPoint
 10
136.0960497927947
 20
-31.49999999999824
 30
0.0
  0
ENDBLK
  5
81F3
330
81E8
100
AcDbEntity
  8
0
100
AcDbBlockEnd
  0
BLOCK
  5
A7C6
330
A7C5
100
AcDbEntity
  8
0
100
AcDbBlockBegin
  2
*U6
 70
     1
 71
     0
 10
0.0
 20
0.0
 30
0.0
  3
*U6
  1

  0
ENDBLK
  5
A7C7
330
A7C5
100
AcDbEntity
  8
0
100
AcDbBlockEnd
  0
BLOCK
  5
BB45
330
BA5F
100
AcDbEntity
  8
0
100
AcDbBlockBegin
  2
*D7
 70
     1
 71
     0
 10
0.0
 20
0.0
 30
0.0
  3
*D7
  1

  0
LINE
  5
C689
330
BA5F
100
AcDbEntity
  8
AM_5
 62
     3
370
    13
100
AcDbLine
 10
1.0
 20
26.00000000000169
 30
0.0
 11
-24.77534664961387
 21
26.0000000000017
 31
0.0
  0
LINE
  5
C68A
330
BA5F
100
AcDbEntity
  8
AM_5
 62
     3
370
    13
100
AcDbLine
 10
1.0
 20
-25.99999999999827
 30
0.0
 11
-24.77534664961388
 21
-25.99999999999826
 31
0.0
  0
LINE
  5
C68B
330
BA5F
100
AcDbEntity
  8
AM_5
 62
     3
370
    13
100
AcDbLine
 10
-23.77534664961387
 20
23.5000000000017
 30
0.0
 11
-23.77534664961388
 21
-23.49999999999826
 31
0.0
  0
INSERT
  5
C68C
330
BA5F
100
AcDbEntity
  8
AM_5
 62
     3
370
    13
100
AcDbBlockReference
  2
_Open30
 10
-23.77534664961387
 20
26.0000000000017
 30
0.0
 41
2.5
 42
2.5
 43
2.5
 50
90.0
  0
INSERT
  5
C68D
330
BA5F
100
AcDbEntity
  8
AM_5
 62
     3
370
    13
100
AcDbBlockReference
  2
_Open30
 10
-23.77534664961388
 20
-25.99999999999826
 30
0.0
 41
2.5
 42
2.5
 43
2.5
 50
270.0
  0
MTEXT
  5
C68E
330
BA5F
100
AcDbEntity
  8
AM_5
 62
     2
100
AcDbMText
 10
-27.1757206653619
 20
0.0000000000017143
 30
0.0
 40
3.8
 41
0.0
 71
     5
 72
     1
  1
%%c52
 11
6.123031769111886E-17
 21
1.0
 31
0.0
 73
     1
 44
1.0
  0
POINT
  5
C68F
330
BA5F
100
AcDbEntity
  8
Defpoints
 62
     0
100
AcDbPoint
 10
1.0
 20
26.00000000000169
 30
0.0
  0
POINT
  5
C690
330
BA5F
100
AcDbEntity
  8
Defpoints
 62
     0
100
AcDbPoint
 10
1.0
 20
-25.99999999999827
 30
0.0
  0
POINT
  5
C691
330
BA5F
100
AcDbEntity
  8
Defpoints
 62
     0
100
AcDbPoint
 10
-23.77534664961388
 20
-25.99999999999826
 30
0.0
  0
ENDBLK
  5
BB46
330
BA5F
100
AcDbEntity
  8
0
100
AcDbBlockEnd
  0
ENDSEC
  0
SECTION
  2
ENTITIES
  0
DIMENSION
  5
79A6
330
1F
100
AcDbEntity
  8
AM_5
100
AcDbDimension
  2
*D3
 10
74.99999999999994
 20
-53.49999999999831
 30
0.0
 11
63.99999999999997
 21
-50.09962598425028
 31
0.0
 70
    32
 71
     5
 42
21.99999999999994
  3
AM_JIS$0
100
AcDbAlignedDimension
 13
53.0
 23
-31.49999999999822
 33
0.0
 14
74.99999999999994
 24
-31.19999999999821
 34
0.0
100
AcDbRotatedDimension
1001
ACAD
1000
DSTYLE
1002
{
1070
   179
1070
     0
1070
   271
1070
     0
1070
   272
1070
     2
1002
}
  0
DIMENSION
  5
7A0E
330
1F
100
AcDbEntity
  8
AM_5
100
AcDbDimension
  2
*D4
 10
74.99999999999994
 20
-63.49999999999831
 30
0.0
 11
37.49999999999997
 21
-60.09999999999831
 31
0.0
 70
    32
  1
<>
 71
     5
 42
74.99999999999994
  3
AM_JIS$0
100
AcDbAlignedDimension
 13
0.0
 23
-24.99999999999827
 33
0.0
 14
74.99999999999994
 24
-31.19999999999821
 34
0.0
100
AcDbRotatedDimension
1001
ACAD
1000
DSTYLE
1002
{
1070
   179
1070
     0
1070
   271
1070
     0
1070
   272
1070
     2
1002
}
  0
DIMENSION
  5
81E7
330
1F
100
AcDbEntity
  8
AM_5
100
AcDbDimension
  2
*D5
 10
136.0960497927947
 20
-31.49999999999824
 30
0.0
 11
132.6960497927947
 21
0.0000000000016832
 31
0.0
 70
    32
  1
%%c<>
 71
     5
 42
62.9999999999998
  3
AM_JIS$0
100
AcDbAlignedDimension
 13
74.69999999999999
 23
31.50000000000158
 33
0.0
 14
74.69999999999993
 24
-31.49999999999822
 34
0.0
 50
90.0
100
AcDbRotatedDimension
1001
ACAD
1000
DSTYLE
1002
{
1070
   179
1070
     0
1070
   271
1070
     0
1070
   272
1070
     2
1002
}
  0
LINE
  5
9CBA
330
1F
100
AcDbEntity
  8
AM_7
100
AcDbLine
 10
-3.90364556992796
 20
-125.3130643392816
 30
0.0
 11
116.8538897610379
 21
-125.3130643392816
 31
0.0
1001
GENIUS_GENOBJ-N-CEN_13
1002
{
1000
OWNER
1000
GEN
1002
}
1001
GENIUS_GENODEF_13
1002
{
1000
HIER
1070
     0
1002
}
1002
{
1000
MANEDIT
1070
     0
1002
}
1002
{
1000
NOSEL
1070
     0
1002
}
1002
{
1000
BEHIND
1070
     0
1002
}
1002
{
1000
OTHER
1070
     0
1002
}
1002
{
1000
REACTOR
1002
}
  0
LINE
  5
A469
330
1F
100
AcDbEntity
  8
AM_7
100
AcDbLine
 10
-3.90364556992796
 20
0.000000000001755
 30
0.0
 11
117.9346509760032
 21
0.0000000000017266
 31
0.0
1001
GENIUS_GENOBJ-N-CEN_13
1002
{
1000
OWNER
1000
GEN
1002
}
1001
GENIUS_GENODEF_13
1002
{
1000
HIER
1070
     0
1002
}
1002
{
1000
MANEDIT
1070
     0
1002
}
1002
{
1000
NOSEL
1070
     0
1002
}
1002
{
1000
BEHIND
1070
     0
1002
}
1002
{
1000
OTHER
1070
     0
1002
}
1002
{
1000
REACTOR
1002
}
  0
LINE
  5
A512
330
1F
100
AcDbEntity
  8
AM_7
100
AcDbLine
 10
-64.93463059908652
 20
-125.3130643392816
 30
0.0
 11
-30.64063059908654
 21
-125.3130643392816
 31
0.0
1001
GENIUS_GENOREF_13
1005
A516
  0
LINE
  5
A513
330
1F
100
AcDbEntity
  8
AM_7
100
AcDbLine
 10
-64.93463059908652
 20
-125.3130643392816
 30
0.0
 11
-64.93463059908652
 21
-91.01906433928156
 31
0.0
1001
GENIUS_GENOREF_13
1005
A516
  0
LINE
  5
A514
330
1F
100
AcDbEntity
  8
AM_7
100
AcDbLine
 10
-64.93463059908652
 20
-125.3130643392816
 30
0.0
 11
-99.2286305990865
 21
-125.3130643392815
 31
0.0
1001
GENIUS_GENOREF_13
1005
A516
  0
LINE
  5
A515
330
1F
100
AcDbEntity
  8
AM_7
100
AcDbLine
 10
-64.93463059908652
 20
-125.3130643392816
 30
0.0
 11
-64.93463059908652
 21
-159.6070643392816
 31
0.0
1001
GENIUS_GENOREF_13
1005
A516
  0
POINT
  5
A516
330
1F
100
AcDbEntity
  8
0
 60
     1
100
AcDbPoint
 10
0.0
 20
0.0
 30
0.0
1001
GENIUS_GENODEF_13
1002
{
1000
HIER
1070
    10
1002
}
1002
{
1000
MANEDIT
1070
     0
1002
}
1002
{
1000
NOSEL
1070
     0
1002
}
1002
{
1000
BEHIND
1070
     0
1002
}
1002
{
1000
OTHER
1070
     0
1002
}
1002
{
1000
REACTOR
1002
}
1001
GENIUS_GENOENT_13
1002
{
1000
MYREF
1005
A516
1002
}
1002
{
1000
GRP
1005
0
1002
}
1001
GENIUS_GENOLIS_13
1002
{
1000
ENT
1005
A515
1005
A514
1005
A513
1005
A512
1002
}
1001
GENIUS_GENOBJ-N-CRS_13
1002
{
1000
OWNER
1000
GEN
1002
}
  0
TEXT
  5
AAFA
330
1F
100
AcDbEntity
  8
AM_0
100
AcDbText
 10
-33.77793745786016
 20
-186.4782374308726
 30
0.0
 40
5.0
  1
C6-C20-75
100
AcDbText
  0
LINE
  5
AC66
330
1F
100
AcDbEntity
  8
AM_0
100
AcDbLine
 10
74.69999999999993
 20
-31.49999999999822
 30
0.0
 11
74.69999999999993
 21
31.50000000000158
 31
0.0
  0
LINE
  5
AC67
330
1F
100
AcDbEntity
  8
AM_0
100
AcDbLine
 10
53.0
 20
-31.49999999999822
 30
0.0
 11
53.0
 21
31.50000000000158
 31
0.0
  0
LINE
  5
AC70
330
1F
100
AcDbEntity
  8
AM_0
100
AcDbLine
 10
74.99999999999994
 20
-31.19999999999816
 30
0.0
 11
74.99999999999994
 21
31.20000000000162
 31
0.0
  0
SPLINE
  5
ACE0
330
1F
100
AcDbEntity
  8
AM_0
100
AcDbSpline
210
0.0
220
0.0
230
1.0
 70
     8
 71
     3
 72
    14
 73
    10
 74
     0
 42
0.0000000001
 43
0.0000000001
 40
2.582172705186494
 40
2.582172705186494
 40
2.582172705186494
 40
2.582172705186494
 40
2.675834359684354
 40
2.675834359684354
 40
2.769496014182214
 40
2.769496014182214
 40
2.956819323177933
 40
2.956819323177933
 40
3.30651863770592
 40
3.30651863770592
 40
3.30651863770592
 40
3.30651863770592
 10
61.53867513459477
 20
-115.9638430247556
 30
0.0
 10
61.50745458309552
 20
-115.9638430247556
 30
0.0
 10
61.47719203113024
 20
-115.9578190505155
 30
0.0
 10
61.41972622057779
 20
-115.9361737600999
 30
0.0
 10
61.3925281324822
 20
-115.9205401983549
 30
0.0
 10
61.31690157474907
 20
-115.8637411132368
 30
0.0
 10
61.27450195817698
 20
-115.8124610230927
 30
0.0
 10
61.17998528224382
 20
-115.6675969015941
 30
0.0
 10
61.13700293947295
 20
-115.5582186649777
 30
0.0
 10
61.10566243270262
 20
-115.4436517203144
 30
0.0
  0
ARC
  5
ACE1
330
1F
100
AcDbEntity
  8
AM_0
100
AcDbCircle
 10
61.50091622838409
 20
-95.78027015048528
 30
0.0
 40
0.5490983609134384
100
AcDbArc
 50
86.0569275439549
 51
136.0398939119356
  0
LINE
  5
ACE2
330
1F
100
AcDbEntity
  8
AM_0
100
AcDbLine
 10
61.10566243270262
 20
-95.39910949281293
 30
0.0
 11
61.10566243270262
 21
-115.4436517203144
 31
0.0
  0
ELLIPSE
  5
ACE3
330
1F
100
AcDbEntity
  8
AM_0
100
AcDbEllipse
 10
77.3471541893598
 20
-125.3130643392816
 30
0.0
 11
14.75368316065343
 21
-31.09325491558128
 31
-2.584885466634972E-16
210
3.219739583813336E-18
220
-6.785572290740564E-18
230
1.0
 40
0.3419987131196119
 41
3.299398840235308
 42
4.232832239342633
  0
LINE
  5
ACE4
330
1F
100
AcDbEntity
  8
AM_0
100
AcDbLine
 10
64.46132486540546
 20
-115.9638430247554
 30
0.0
 11
61.53867513459488
 21
-115.9638430247554
 31
0.0
  0
LINE
  5
ACE5
330
1F
100
AcDbEntity
  8
AM_0
100
AcDbLine
 10
61.53867513459488
 20
-95.23247157896506
 30
0.0
 11
61.53867513459488
 21
-115.9638430247556
 31
0.0
  0
LINE
  5
ACE6
330
1F
100
AcDbEntity
  8
AM_0
100
AcDbLine
 10
61.53867513459488
 20
-95.23247157896512
 30
0.0
 11
64.46132486540546
 21
-95.23247157896512
 31
0.0
  0
SPLINE
  5
ACE7
330
1F
100
AcDbEntity
  8
AM_0
100
AcDbSpline
210
0.0
220
0.0
230
1.0
 70
     8
 71
     3
 72
    14
 73
    10
 74
     0
 42
0.0000000001
 43
0.0000000001
 40
1.857826772665431
 40
1.857826772665431
 40
1.857826772665431
 40
1.857826772665431
 40
2.207526087195096
 40
2.207526087195096
 40
2.394849396190812
 40
2.394849396190812
 40
2.48851105068867
 40
2.48851105068867
 40
2.582172705186528
 40
2.582172705186528
 40
2.582172705186528
 40
2.582172705186528
 10
64.8943375672975
 20
-115.4436517203144
 30
0.0
 10
64.86299706052705
 20
-115.5582186649782
 30
0.0
 10
64.82001471775664
 20
-115.6675969015934
 30
0.0
 10
64.72549804182324
 20
-115.8124610230925
 30
0.0
 10
64.68309842525116
 20
-115.8637411132365
 30
0.0
 10
64.60747186751803
 20
-115.9205401983547
 30
0.0
 10
64.58027377942244
 20
-115.9361737600997
 30
0.0
 10
64.52280796886998
 20
-115.9578190505152
 30
0.0
 10
64.4925454169047
 20
-115.9638430247554
 30
0.0
 10
64.46132486540535
 20
-115.9638430247554
 30
0.0
  0
LINE
  5
ACE8
330
1F
100
AcDbEntity
  8
AM_0
100
AcDbLine
 10
64.46132486540546
 20
-95.23247157896512
 30
0.0
 11
64.46132486540546
 21
-115.9638430247554
 31
0.0
  0
ARC
  5
ACE9
330
1F
100
AcDbEntity
  8
AM_0
100
AcDbCircle
 10
64.49908377161603
 20
-95.7802701504859
 30
0.0
 40
0.5490983609139751
100
AcDbArc
 50
43.96010608810013
 51
93.94307245601888
  0
ARC
  5
ACEA
330
1F
100
AcDbEntity
  8
AM_0
100
AcDbCircle
 10
64.49908377161626
 20
-154.845858528078
 30
0.0
 40
0.5490983609132026
100
AcDbArc
 50
266.0569275439451
 51
316.0398939119402
  0
SPLINE
  5
ACEB
330
1F
100
AcDbEntity
  8
AM_0
100
AcDbSpline
210
0.0
220
0.0
230
1.0
 70
     8
 71
     3
 72
    14
 73
    10
 74
     0
 42
0.0000000001
 43
0.0000000001
 40
2.563234579399785
 40
2.563234579399785
 40
2.563234579399785
 40
2.563234579399785
 40
2.656896233897643
 40
2.656896233897643
 40
2.750557888395502
 40
2.750557888395502
 40
2.937881197391219
 40
2.937881197391219
 40
3.287580511918983
 40
3.287580511918983
 40
3.287580511918983
 40
3.287580511918983
 10
64.46132486540535
 20
-134.6622856538078
 30
0.0
 10
64.4925454169047
 20
-134.6622856538078
 30
0.0
 10
64.52280796886998
 20
-134.668309628048
 30
0.0
 10
64.58027377942244
 20
-134.6899549184635
 30
0.0
 10
64.60747186751803
 20
-134.7055884802085
 30
0.0
 10
64.68309842525116
 20
-134.7623875653266
 30
0.0
 10
64.72549804182324
 20
-134.8136676554707
 30
0.0
 10
64.82001471775629
 20
-134.9585317769693
 30
0.0
 10
64.86299706052728
 20
-135.0679100135856
 30
0.0
 10
64.8943375672975
 20
-135.1824769582488
 30
0.0
  0
LINE
  5
ACEC
330
1F
100
AcDbEntity
  8
AM_0
100
AcDbLine
 10
64.46132486540546
 20
-134.6622856538078
 30
0.0
 11
64.46132486540546
 21
-155.393657099598
 31
0.0
  0
LINE
  5
ACED
330
1F
100
AcDbEntity
  8
AM_0
100
AcDbLine
 10
64.46132486540546
 20
-155.393657099598
 30
0.0
 11
61.53867513459488
 21
-155.393657099598
 31
0.0
  0
LINE
  5
ACEE
330
1F
100
AcDbEntity
  8
AM_0
100
AcDbLine
 10
61.53867513459488
 20
-134.6622856538078
 30
0.0
 11
64.46132486540546
 21
-134.6622856538078
 31
0.0
  0
LINE
  5
ACEF
330
1F
100
AcDbEntity
  8
AM_0
100
AcDbLine
 10
61.53867513459488
 20
-134.6622856538075
 30
0.0
 11
61.53867513459488
 21
-155.3936570995981
 31
0.0
  0
ARC
  5
ACF0
330
1F
100
AcDbEntity
  8
AM_0
100
AcDbCircle
 10
61.5009162283842
 20
-154.8458585280774
 30
0.0
 40
0.5490983609138569
100
AcDbArc
 50
223.9601060880862
 51
273.9430724560255
  0
SPLINE
  5
ACF1
330
1F
100
AcDbEntity
  8
AM_0
100
AcDbSpline
210
0.0
220
0.0
230
1.0
 70
     8
 71
     3
 72
    14
 73
    10
 74
     0
 42
0.0000000001
 43
0.0000000001
 40
1.857826772665184
 40
1.857826772665184
 40
1.857826772665184
 40
1.857826772665184
 40
2.20752608719506
 40
2.20752608719506
 40
2.394849396190778
 40
2.394849396190778
 40
2.488511050688637
 40
2.488511050688637
 40
2.582172705186496
 40
2.582172705186496
 40
2.582172705186496
 40
2.582172705186496
 10
61.10566243270262
 20
-135.1824769582488
 30
0.0
 10
61.13700293947306
 20
-135.0679100135848
 30
0.0
 10
61.17998528224348
 20
-134.9585317769696
 30
0.0
 10
61.27450195817698
 20
-134.8136676554705
 30
0.0
 10
61.31690157474907
 20
-134.7623875653264
 30
0.0
 10
61.3925281324822
 20
-134.7055884802082
 30
0.0
 10
61.41972622057779
 20
-134.6899549184632
 30
0.0
 10
61.47719203113024
 20
-134.6683096280477
 30
0.0
 10
61.50745458309552
 20
-134.6622856538075
 30
0.0
 10
61.53867513459477
 20
-134.6622856538075
 30
0.0
  0
LINE
  5
ACF2
330
1F
100
AcDbEntity
  8
AM_0
100
AcDbLine
 10
61.10566243270262
 20
-135.1824769582488
 30
0.0
 11
61.10566243270262
 21
-155.2270191857502
 31
0.0
  0
ELLIPSE
  5
ACF3
330
1F
100
AcDbEntity
  8
AM_0
100
AcDbEllipse
 10
77.3471541893598
 20
-125.3130643392816
 30
0.0
 11
-14.75368316065454
 21
-31.09325491558075
 31
2.584885466635379E-16
210
3.219739583814080E-18
220
6.785572290741518E-18
230
0.9999999999999998
 40
0.3419987131196121
 41
5.191945721427334
 42
6.12537912053466
  0
LINE
  5
ACF4
330
1F
100
AcDbEntity
  8
AM_0
100
AcDbLine
 10
64.89433756729761
 20
-95.39910949281295
 30
0.0
 11
64.89433756729761
 21
-115.4436517203144
 31
0.0
  0
ELLIPSE
  5
ACF5
330
1F
100
AcDbEntity
  8
AM_0
100
AcDbEllipse
 10
48.65284581063008
 20
-125.3130643392816
 30
0.0
 11
14.75368316066581
 21
31.09325491557981
 31
-2.584885467126133E-16
210
3.219739584427084E-18
220
6.785572292028018E-18
230
1.0
 40
0.3419987131197481
 41
5.191945721427526
 42
6.125379120534849
  0
LINE
  5
ACF6
330
1F
100
AcDbEntity
  8
AM_0
100
AcDbLine
 10
64.89433756729761
 20
-135.1824769582488
 30
0.0
 11
64.89433756729761
 21
-155.2270191857502
 31
0.0
  0
ELLIPSE
  5
ACF7
330
1F
100
AcDbEntity
  8
AM_0
100
AcDbEllipse
 10
48.65284581063008
 20
-125.3130643392816
 30
0.0
 11
-14.7536831606647
 21
31.09325491558032
 31
2.584885467125726E-16
210
3.219739584426338E-18
220
-6.785572292027065E-18
230
1.0
 40
0.3419987131197481
 41
3.299398840235119
 42
4.232832239342441
  0
LINE
  5
AD05
330
1F
100
AcDbEntity
  8
AM_0
100
AcDbLine
 10
74.99999999999994
 20
-94.11306433928171
 30
0.0
 11
74.69999999999993
 21
-93.8130643392817
 31
0.0
  0
LINE
  5
AD06
330
1F
100
AcDbEntity
  8
AM_0
100
AcDbLine
 10
74.99999999999994
 20
-156.5130643392815
 30
0.0
 11
74.69999999999993
 21
-156.8130643392815
 31
0.0
  0
LINE
  5
AD07
330
1F
100
AcDbEntity
  8
AM_0
100
AcDbLine
 10
53.0
 20
-156.8130643392815
 30
0.0
 11
74.69999999999993
 21
-156.8130643392815
 31
0.0
  0
LINE
  5
AD08
330
1F
100
AcDbEntity
  8
AM_0
100
AcDbLine
 10
53.0
 20
-93.81306433928168
 30
0.0
 11
74.69999999999993
 21
-93.8130643392817
 31
0.0
  0
LINE
  5
AD0E
330
1F
100
AcDbEntity
  8
AM_0
100
AcDbLine
 10
74.69999999999993
 20
-156.8130643392815
 30
0.0
 11
74.69999999999993
 21
-93.8130643392817
 31
0.0
  0
LINE
  5
AD0F
330
1F
100
AcDbEntity
  8
AM_0
100
AcDbLine
 10
53.0
 20
-156.8130643392815
 30
0.0
 11
53.0
 21
-93.81306433928168
 31
0.0
  0
LINE
  5
AD10
330
1F
100
AcDbEntity
  8
AM_0
100
AcDbLine
 10
74.99999999999994
 20
-156.5130643392815
 30
0.0
 11
74.99999999999994
 21
-94.11306433928171
 31
0.0
  0
ARC
  5
AD62
330
1F
100
AcDbEntity
  8
AM_0
100
AcDbCircle
 10
61.50045252240693
 20
29.53399914014072
 30
0.0
 40
0.5479284202349815
100
AcDbArc
 50
85.99988912538892
 51
136.0969323304963
  0
SPLINE
  5
AD63
330
1F
100
AcDbEntity
  8
AM_0
100
AcDbSpline
210
0.0
220
0.0
230
1.0
 70
     8
 71
     3
 72
    16
 73
    12
 74
     0
 42
0.0000000001
 43
0.0000000001
 40
2.582172705186496
 40
2.582172705186496
 40
2.582172705186496
 40
2.582172705186496
 40
2.669304144884479
 40
2.669304144884479
 40
2.756435584582462
 40
2.756435584582462
 40
2.907176786441196
 40
2.907176786441196
 40
3.057917988299931
 40
3.057917988299931
 40
3.291061354033606
 40
3.291061354033606
 40
3.291061354033606
 40
3.291061354033606
 10
61.53867513459488
 20
9.34922131452764
 30
0.0
 10
61.50963132136224
 20
9.34922131452764
 30
0.0
 10
61.47870514516933
 20
9.354828117981512
 30
0.0
 10
61.4206427582784
 20
9.376398742818296
 30
0.0
 10
61.393447192179
 20
9.392215844563609
 30
0.0
 10
61.33064349088261
 20
9.438407964109771
 30
0.0
 10
61.29436051484481
 20
9.477159545397385
 30
0.0
 10
61.23207013397916
 20
9.562306938686263
 30
0.0
 10
61.20598522288333
 20
9.608649836633205
 30
0.0
 10
61.15285331554662
 20
9.719459621468431
 30
0.0
 10
61.12657964027187
 20
9.792948617296801
 30
0.0
 10
61.10566243270262
 20
9.869412618968894
 30
0.0
  0
LINE
  5
AD64
330
1F
100
AcDbEntity
  8
AM_0
100
AcDbLine
 10
61.53867513459488
 20
30.08059276031814
 30
0.0
 11
64.46132486540546
 21
30.08059276031814
 31
0.0
  0
LINE
  5
AD65
330
1F
100
AcDbEntity
  8
AM_0
100
AcDbLine
 10
64.46132486540546
 20
9.349221314527874
 30
0.0
 11
61.53867513459488
 21
9.349221314527874
 31
0.0
  0
ARC
  5
AD66
330
1F
100
AcDbEntity
  8
AM_0
100
AcDbCircle
 10
64.49908377161603
 20
29.53279418879752
 30
0.0
 40
0.549098360913817
100
AcDbArc
 50
43.96010608809205
 51
93.94307245602543
  0
SPLINE
  5
AD67
330
1F
100
AcDbEntity
  8
AM_0
100
AcDbSpline
210
0.0
220
0.0
230
1.0
 70
     8
 71
     3
 72
    14
 73
    10
 74
     0
 42
0.0000000001
 43
0.0000000001
 40
1.857826772665455
 40
1.857826772665455
 40
1.857826772665455
 40
1.857826772665455
 40
2.207526087195107
 40
2.207526087195107
 40
2.394849396190826
 40
2.394849396190826
 40
2.488511050688685
 40
2.488511050688685
 40
2.582172705186545
 40
2.582172705186545
 40
2.582172705186545
 40
2.582172705186545
 10
64.89433756729761
 20
9.869412618968951
 30
0.0
 10
64.86299706052705
 20
9.754845674305088
 30
0.0
 10
64.82001471775675
 20
9.645467437689987
 30
0.0
 10
64.72549804182324
 20
9.500603316190833
 30
0.0
 10
64.68309842525116
 20
9.449323226046815
 30
0.0
 10
64.60747186751803
 20
9.392524140928671
 30
0.0
 10
64.58027377942244
 20
9.376890579183666
 30
0.0
 10
64.5228079688701
 20
9.355245288768103
 30
0.0
 10
64.4925454169047
 20
9.349221314527924
 30
0.0
 10
64.46132486540546
 20
9.349221314527924
 30
0.0
  0
ELLIPSE
  5
AD68
330
1F
100
AcDbEntity
  8
AM_0
100
AcDbEllipse
 10
48.65284581063008
 20
0.0000000000016911
 30
0.0
 11
-14.7536831606658
 21
-31.09325491557981
 31
0.0
210
0.0
220
0.0
230
1.0
 40
0.341998713119748
 41
2.050353067837734
 42
2.983786466945056
  0
ARC
  5
AD69
330
1F
100
AcDbEntity
  8
AM_0
100
AcDbCircle
 10
61.50091622838431
 20
-29.53279418879382
 30
0.0
 40
0.5490983609142087
100
AcDbArc
 50
223.9601060881001
 51
273.943072456006
  0
SPLINE
  5
AD6A
330
1F
100
AcDbEntity
  8
AM_0
100
AcDbSpline
210
0.0
220
0.0
230
1.0
 70
     8
 71
     3
 72
    14
 73
    10
 74
     0
 42
0.0000000001
 43
0.0000000001
 40
1.857826772665185
 40
1.857826772665185
 40
1.857826772665185
 40
1.857826772665185
 40
2.207526087195061
 40
2.207526087195061
 40
2.394849396190778
 40
2.394849396190778
 40
2.488511050688637
 40
2.488511050688637
 40
2.582172705186495
 40
2.582172705186495
 40
2.582172705186495
 40
2.582172705186495
 10
61.10566243270262
 20
-9.869412618965512
 30
0.0
 10
61.13700293947318
 20
-9.754845674301535
 30
0.0
 10
61.17998528224359
 20
-9.645467437686321
 30
0.0
 10
61.27450195817698
 20
-9.500603316187167
 30
0.0
 10
61.31690157474918
 20
-9.449323226043092
 30
0.0
 10
61.3925281324822
 20
-9.392524140924948
 30
0.0
 10
61.41972622057779
 20
-9.376890579179943
 30
0.0
 10
61.47719203113024
 20
-9.355245288764436
 30
0.0
 10
61.50745458309564
 20
-9.349221314524257
 30
0.0
 10
61.53867513459488
 20
-9.349221314524257
 30
0.0
  0
ELLIPSE
  5
AD6B
330
1F
100
AcDbEntity
  8
AM_0
100
AcDbEllipse
 10
77.3471541893598
 20
0.0000000000017479
 30
0.0
 11
-14.75368316065455
 21
-31.09325491558076
 31
0.0
210
0.0
220
0.0
230
0.9999999999999999
 40
0.3419987131196121
 41
5.191945721427338
 42
6.125379120534663
  0
LINE
  5
AD6C
330
1F
100
AcDbEntity
  8
AM_0
100
AcDbLine
 10
64.46132486540546
 20
-30.08059276031479
 30
0.0
 11
61.53867513459488
 21
-30.08059276031479
 31
0.0
  0
LINE
  5
AD6D
330
1F
100
AcDbEntity
  8
AM_0
100
AcDbLine
 10
61.53867513459488
 20
-9.349221314524478
 30
0.0
 11
64.46132486540546
 21
-9.349221314524478
 31
0.0
  0
ARC
  5
AD6E
330
1F
100
AcDbEntity
  8
AM_0
100
AcDbCircle
 10
64.49908377161603
 20
-29.5327941887945
 30
0.0
 40
0.5490983609134491
100
AcDbArc
 50
266.0569275439549
 51
316.0398939119252
  0
SPLINE
  5
AD6F
330
1F
100
AcDbEntity
  8
AM_0
100
AcDbSpline
210
0.0
220
0.0
230
1.0
 70
     8
 71
     3
 72
    14
 73
    10
 74
     0
 42
0.0000000001
 43
0.0000000001
 40
2.563234579399782
 40
2.563234579399782
 40
2.563234579399782
 40
2.563234579399782
 40
2.656896233897641
 40
2.656896233897641
 40
2.750557888395499
 40
2.750557888395499
 40
2.937881197391216
 40
2.937881197391216
 40
3.287580511918981
 40
3.287580511918981
 40
3.287580511918981
 40
3.287580511918981
 10
64.46132486540546
 20
-9.349221314524542
 30
0.0
 10
64.4925454169047
 20
-9.349221314524542
 30
0.0
 10
64.5228079688701
 20
-9.355245288764607
 30
0.0
 10
64.58027377942244
 20
-9.37689057918017
 30
0.0
 10
64.60747186751803
 20
-9.392524140925175
 30
0.0
 10
64.68309842525116
 20
-9.449323226043319
 30
0.0
 10
64.72549804182336
 20
-9.500603316187338
 30
0.0
 10
64.82001471775641
 20
-9.64546743768598
 30
0.0
 10
64.86299706052728
 20
-9.754845674302274
 30
0.0
 10
64.89433756729761
 20
-9.869412618965512
 30
0.0
  0
ELLIPSE
  5
AD70
330
1F
100
AcDbEntity
  8
AM_0
100
AcDbEllipse
 10
77.3471541893598
 20
0.0000000000017479
 30
0.0
 11
-14.75368316065344
 21
31.09325491558129
 31
0.0
210
0.0
220
0.0
230
1.0
 40
0.3419987131196118
 41
0.1578061866455143
 42
1.091239585752841
  0
ELLIPSE
  5
AD71
330
1F
100
AcDbEntity
  8
AM_0
100
AcDbEllipse
 10
48.65284581063008
 20
0.0000000000016911
 30
0.0
 11
-14.75368316066471
 21
31.09325491558033
 31
0.0
210
0.0
220
0.0
230
1.0
 40
0.3419987131197479
 41
3.29939884023512
 42
4.232832239342442
  0
LINE
  5
AD77
330
1F
100
AcDbEntity
  8
AM_0
100
AcDbLine
 10
75.0
 20
31.20000000000157
 30
0.0
 11
74.69999999999993
 21
31.50000000000163
 31
0.0
  0
LINE
  5
AD78
330
1F
100
AcDbEntity
  8
AM_0
100
AcDbLine
 10
74.99999999999994
 20
-31.19999999999821
 30
0.0
 11
74.69999999999993
 21
-31.49999999999822
 31
0.0
  0
LINE
  5
AD79
330
1F
100
AcDbEntity
  8
AM_0
100
AcDbLine
 10
53.0
 20
-31.49999999999822
 30
0.0
 11
74.69999999999993
 21
-31.49999999999822
 31
0.0
  0
LINE
  5
AD7A
330
1F
100
AcDbEntity
  8
AM_0
100
AcDbLine
 10
53.0
 20
31.50000000000158
 30
0.0
 11
74.69999999999993
 21
31.50000000000158
 31
0.0
  0
LINE
  5
B218
330
1F
100
AcDbEntity
  8
AM_0
100
AcDbLine
 10
61.10566243270262
 20
29.91395484647033
 30
0.0
 11
61.10566243270262
 21
9.869412618968902
 31
0.0
  0
LINE
  5
B219
330
1F
100
AcDbEntity
  8
AM_0
100
AcDbLine
 10
61.53867513459488
 20
30.0805927603182
 30
0.0
 11
61.53867513459488
 21
9.349221314527647
 31
0.0
  0
LINE
  5
B21A
330
1F
100
AcDbEntity
  8
AM_0
100
AcDbLine
 10
64.46132486540546
 20
30.08059276031814
 30
0.0
 11
64.46132486540546
 21
9.349221314527931
 31
0.0
  0
LINE
  5
B21B
330
1F
100
AcDbEntity
  8
AM_0
100
AcDbLine
 10
64.46132486540546
 20
-9.349221314524534
 30
0.0
 11
64.46132486540546
 21
-30.08059276031479
 31
0.0
  0
LINE
  5
B21C
330
1F
100
AcDbEntity
  8
AM_0
100
AcDbLine
 10
61.53867513459488
 20
-9.34922131452425
 30
0.0
 11
61.53867513459488
 21
-30.08059276031484
 31
0.0
  0
LINE
  5
B21D
330
1F
100
AcDbEntity
  8
AM_0
100
AcDbLine
 10
61.10566243270262
 20
-9.869412618965505
 30
0.0
 11
61.10566243270262
 21
-29.91395484646698
 31
0.0
  0
LINE
  5
B21E
330
1F
100
AcDbEntity
  8
AM_0
100
AcDbLine
 10
64.89433756729761
 20
29.91395484647028
 30
0.0
 11
64.89433756729761
 21
9.869412618968902
 31
0.0
  0
LINE
  5
B21F
330
1F
100
AcDbEntity
  8
AM_0
100
AcDbLine
 10
64.89433756729761
 20
-9.869412618965562
 30
0.0
 11
64.89433756729761
 21
-29.91395484646698
 31
0.0
  0
CIRCLE
  5
B469
330
1F
100
AcDbEntity
  8
AM_0
100
AcDbCircle
 10
-64.93463059908652
 20
-125.3130643392815
 30
0.0
 40
31.49999999999989
  0
LINE
  5
B7F6
330
1F
100
AcDbEntity
  8
AM_0
100
AcDbLine
 10
51.0
 20
-151.3130643392816
 30
0.0
 11
1.0
 21
-151.3130643392815
 31
0.0
  0
LINE
  5
B7F7
330
1F
100
AcDbEntity
  8
AM_0
100
AcDbLine
 10
51.0
 20
-99.31306433928158
 30
0.0
 11
41.0
 21
-99.31306433928155
 31
0.0
  0
LINE
  5
B7F8
330
1F
100
AcDbEntity
  8
AM_0
100
AcDbLine
 10
0.0
 20
-150.3130643392815
 30
0.0
 11
1.0
 21
-151.3130643392815
 31
0.0
  0
LINE
  5
B7F9
330
1F
100
AcDbEntity
  8
AM_0
100
AcDbLine
 10
41.0
 20
-100.3130643392816
 30
0.0
 11
41.0
 21
-99.31306433928155
 31
0.0
  0
LINE
  5
B7FA
330
1F
100
AcDbEntity
  8
AM_0
100
AcDbLine
 10
1.0
 20
-100.3130643392816
 30
0.0
 11
1.0
 21
-151.3130643392815
 31
0.0
  0
LINE
  5
B7FC
330
1F
100
AcDbEntity
  8
AM_0
100
AcDbLine
 10
0.0
 20
-150.3130643392815
 30
0.0
 11
0.0
 21
-100.3130643392816
 31
0.0
  0
ARC
  5
B7FD
330
1F
100
AcDbEntity
  8
AM_0
100
AcDbCircle
 10
51.0
 20
-153.3130643392816
 30
0.0
 40
2.0
100
AcDbArc
 50
0.0
 51
90.0
  0
ARC
  5
B7FE
330
1F
100
AcDbEntity
  8
AM_0
100
AcDbCircle
 10
51.0
 20
-97.31306433928157
 30
0.0
 40
2.0
100
AcDbArc
 50
270.0
 51
0.0
  0
LINE
  5
B814
330
1F
100
AcDbEntity
  8
AM_0
100
AcDbLine
 10
1.0
 20
7.14142842854465
 30
0.0
 11
41.0
 21
7.14142842854465
 31
0.0
  0
SPLINE
  5
B815
330
1F
100
AcDbEntity
  8
AM_0
100
AcDbSpline
210
0.0
220
0.0
230
1.0
 70
    12
 71
     2
 72
     6
 73
     3
 74
     0
 42
0.0000000001
 43
0.0000000001
 40
7.227592886006831
 40
7.227592886006831
 40
7.227592886006831
 40
14.45518577201366
 40
14.45518577201366
 40
14.45518577201366
 10
0.0
 20
0.0000000000017479
 30
0.0
 41
1.0
 10
0.0
 20
3.500700210071656
 30
0.0
 41
1.009950493836232
 10
1.0
 20
7.141428428544643
 30
0.0
 41
1.0
  0
SPLINE
  5
B816
330
1F
100
AcDbEntity
  8
AM_0
100
AcDbSpline
210
0.0
220
0.0
230
1.0
 70
    12
 71
     2
 72
     6
 73
     3
 74
     0
 42
0.0000000001
 43
0.0000000001
 40
0.0
 40
0.0
 40
0.0
 40
7.227592886006831
 40
7.227592886006831
 40
7.227592886006831
 10
1.0
 20
-7.141428428541147
 30
0.0
 41
1.0
 10
-0.0000000000002274
 20
-3.500700210068443
 30
0.0
 41
1.009950493836119
 10
0.0
 20
0.0000000000017479
 30
0.0
 41
1.0
  0
LINE
  5
B817
330
1F
100
AcDbEntity
  8
AM_0
100
AcDbLine
 10
41.0
 20
-7.14142842854114
 30
0.0
 11
1.0
 21
-7.14142842854114
 31
0.0
  0
LINE
  5
B81A
330
1F
100
AcDbEntity
  8
AM_0
100
AcDbLine
 10
51.0
 20
-25.99999999999827
 30
0.0
 11
1.0
 21
-25.99999999999827
 31
0.0
  0
LINE
  5
B81B
330
1F
100
AcDbEntity
  8
AM_0
100
AcDbLine
 10
51.0
 20
26.00000000000176
 30
0.0
 11
1.0
 21
26.00000000000176
 31
0.0
  0
LINE
  5
B81C
330
1F
100
AcDbEntity
  8
AM_0
100
AcDbLine
 10
0.0
 20
25.00000000000176
 30
0.0
 11
1.0
 21
26.00000000000176
 31
0.0
  0
LINE
  5
B81D
330
1F
100
AcDbEntity
  8
AM_0
100
AcDbLine
 10
0.0
 20
-24.99999999999827
 30
0.0
 11
1.0
 21
-25.99999999999827
 31
0.0
  0
LINE
  5
B81E
330
1F
100
AcDbEntity
  8
AM_0
100
AcDbLine
 10
41.0
 20
-7.14142842854114
 30
0.0
 11
41.0
 21
7.14142842854465
 31
0.0
  0
CIRCLE
  5
B81F
330
1F
100
AcDbEntity
  8
AM_5
100
AcDbCircle
 10
32.0
 20
0.000000000001755
 30
0.0
 40
5.0
  0
CIRCLE
  5
B820
330
1F
100
AcDbEntity
  8
AM_5
100
AcDbCircle
 10
12.0
 20
0.3667520185367081
 30
0.0
 40
5.0
  0
LINE
  5
B821
330
1F
100
AcDbEntity
  8
AM_0
100
AcDbLine
 10
1.0
 20
26.00000000000176
 30
0.0
 11
1.0
 21
7.14142842854465
 31
0.0
  0
LINE
  5
B822
330
1F
100
AcDbEntity
  8
AM_0
100
AcDbLine
 10
1.0
 20
-7.14142842854114
 30
0.0
 11
1.0
 21
-25.99999999999827
 31
0.0
  0
LINE
  5
B824
330
1F
100
AcDbEntity
  8
AM_0
100
AcDbLine
 10
0.0
 20
-24.99999999999827
 30
0.0
 11
0.0
 21
0.000000000001755
 31
0.0
  0
LINE
  5
B825
330
1F
100
AcDbEntity
  8
AM_0
100
AcDbLine
 10
0.0
 20
0.000000000001755
 30
0.0
 11
0.0
 21
25.00000000000176
 31
0.0
  0
ARC
  5
B826
330
1F
100
AcDbEntity
  8
AM_0
100
AcDbCircle
 10
51.0
 20
-27.99999999999827
 30
0.0
 40
2.0
100
AcDbArc
 50
0.0
 51
90.0
  0
ARC
  5
B827
330
1F
100
AcDbEntity
  8
AM_0
100
AcDbCircle
 10
51.0
 20
28.00000000000174
 30
0.0
 40
2.0
100
AcDbArc
 50
270.0
 51
0.0
  0
LINE
  5
B828
330
1F
100
AcDbEntity
  8
AM_0
100
AcDbLine
 10
-72.07605902762941
 20
-100.3130643392816
 30
0.0
 11
-64.93463059908652
 21
-100.3130643392816
 31
0.0
  0
LINE
  5
B829
330
1F
100
AcDbEntity
  8
AM_0
100
AcDbLine
 10
-64.93463059908652
 20
-100.3130643392816
 30
0.0
 11
-57.79320217054362
 21
-100.3130643392816
 31
0.0
  0
ARC
  5
B83A
330
1F
100
AcDbEntity
  8
AM_0
100
AcDbCircle
 10
-64.93463059908652
 20
-125.3130643392815
 30
0.0
 40
26.0
100
AcDbArc
 50
74.05763139437738
 51
105.9423686056226
  0
ARC
  5
B83B
330
1F
100
AcDbEntity
  8
AM_0
100
AcDbCircle
 10
-64.93463059908652
 20
-125.3130643392815
 30
0.0
 40
26.0
100
AcDbArc
 50
105.9423686056226
 51
74.05763139437738
  0
CIRCLE
  5
B83C
330
1F
100
AcDbEntity
  8
AM_0
100
AcDbCircle
 10
-64.93463059908652
 20
-125.3130643392815
 30
0.0
 40
25.0
  0
CIRCLE
  5
B83D
330
1F
100
AcDbEntity
  8
AM_0
100
AcDbCircle
 10
-64.93463059908652
 20
-125.3130643392815
 30
0.0
 40
10.5
  0
CIRCLE
  5
B83E
330
1F
100
AcDbEntity
  8
AM_0
100
AcDbCircle
 10
-64.93463059908652
 20
-125.3130643392815
 30
0.0
 40
10.0
  0
CIRCLE
  5
B83F
330
1F
100
AcDbEntity
  8
AM_0
100
AcDbCircle
 10
-64.93463059908652
 20
-125.3130643392815
 30
0.0
 40
4.19999999999999
  0
LINE
  5
B844
330
1F
100
AcDbEntity
  8
AM_0
100
AcDbLine
 10
0.0
 20
-100.3130643392816
 30
0.0
 11
1.0
 21
-100.3130643392816
 31
0.0
  0
LINE
  5
B845
330
1F
100
AcDbEntity
  8
AM_0
100
AcDbLine
 10
41.0
 20
-100.3130643392816
 30
0.0
 11
1.0
 21
-100.3130643392816
 31
0.0
  0
DIMENSION
  5
B9A6
330
1F
100
AcDbEntity
  8
AM_5
100
AcDbDimension
  2
*D7
 10
-23.77534664961388
 20
-25.99999999999826
 30
0.0
 11
-27.1757206653619
 21
0.0000000000017143
 31
0.0
 70
    32
  1
%%c<>
 71
     5
 42
51.99999999999996
  3
AM_JIS$0
100
AcDbAlignedDimension
 13
1.0
 23
26.00000000000169
 33
0.0
 14
1.0
 24
-25.99999999999827
 34
0.0
 50
90.0
100
AcDbRotatedDimension
1001
ACAD
1000
DSTYLE
1002
{
1070
   179
1070
     1
1070
   271
1070
     0
1070
   272
1070
     2
1002
}
  0
CIRCLE
  5
B9B5
330
1F
100
AcDbEntity
  8
AM_0
100
AcDbCircle
 10
12.0
 20
0.3667520185367081
 30
0.0
 40
4.5
  0
LINE
  5
B9B6
330
1F
100
AcDbEntity
  8
AM_7
  6
AM_ISO08W050x2
100
AcDbLine
 10
12.0
 20
8.160752018536691
 30
0.0
 11
12.0
 21
-7.427247981463275
 31
0.0
1001
GENIUS_GENOBJ-N-CEN_13
1002
{
1000
OWNER
1000
GEN
1002
}
1001
GENIUS_GENODEF_13
1002
{
1000
HIER
1070
     0
1002
}
1002
{
1000
MANEDIT
1070
     0
1002
}
1002
{
1000
NOSEL
1070
     0
1002
}
1002
{
1000
BEHIND
1070
     0
1002
}
1002
{
1000
OTHER
1070
     0
1002
}
1002
{
1000
REACTOR
1002
}
  0
CIRCLE
  5
B9B7
330
1F
100
AcDbEntity
  8
AM_0
100
AcDbCircle
 10
32.0
 20
0.000000000001755
 30
0.0
 40
4.5
  0
LINE
  5
B9B8
330
1F
100
AcDbEntity
  8
AM_7
  6
AM_ISO08W050x2
100
AcDbLine
 10
32.0
 20
7.794000000001738
 30
0.0
 11
32.0
 21
-7.793999999998228
 31
0.0
1001
GENIUS_GENOBJ-N-CEN_13
1002
{
1000
OWNER
1000
GEN
1002
}
1001
GENIUS_GENODEF_13
1002
{
1000
HIER
1070
     0
1002
}
1002
{
1000
MANEDIT
1070
     0
1002
}
1002
{
1000
NOSEL
1070
     0
1002
}
1002
{
1000
BEHIND
1070
     0
1002
}
1002
{
1000
OTHER
1070
     0
1002
}
1002
{
1000
REACTOR
1002
}
  0
LINE
  5
BE15
330
1F
100
AcDbEntity
  8
AM_0
100
AcDbLine
 10
111.5004731679802
 20
-102.7547128308192
 30
0.0
 11
76.98959836828027
 21
-101.8876795333739
 31
0.0
  0
LINE
  5
BE16
330
1F
100
AcDbEntity
  8
AM_0
100
AcDbLine
 10
76.30710678118652
 20
-102.5701711204679
 30
0.0
 11
76.98959836828027
 21
-101.8876795333739
 31
0.0
  0
LINE
  5
BE1B
330
1F
100
AcDbEntity
  8
AM_0
100
AcDbLine
 10
112.9999999999998
 20
-103.6714354908977
 30
0.0
 11
111.5004731679802
 21
-102.7547128308191
 31
0.0
  0
LINE
  5
BE20
330
1F
100
AcDbEntity
  8
AM_0
100
AcDbLine
 10
86.06004622225152
 20
-145.7105679234647
 30
0.0
 11
74.99999999999983
 21
-145.9884347814228
 31
0.0
  0
LINE
  5
BE21
330
1F
100
AcDbEntity
  8
AM_0
100
AcDbLine
 10
107.9999999999998
 20
-145.1593599178687
 30
0.0
 11
94.96004622225161
 21
-145.4869689451123
 31
0.0
  0
LINE
  5
BE23
330
1F
100
AcDbEntity
  8
AM_3
  6
ACJISTGL
100
AcDbLine
 10
111.4999999999997
 20
-110.0001132963691
 30
0.0
 11
111.4999999999998
 21
-140.6260153821939
 31
0.0
  0
LINE
  5
BE29
330
1F
100
AcDbEntity
  8
AM_0
100
AcDbLine
 10
76.99999999999983
 20
-131.9637520983312
 30
0.0
 11
76.99999999999983
 21
-103.0901359291283
 31
0.0
  0
LINE
  5
BE2A
330
1F
100
AcDbEntity
  8
AM_0
100
AcDbLine
 10
76.99999999999983
 20
-134.8299773797588
 30
0.0
 11
76.99999999999983
 21
-131.9637520983311
 31
0.0
  0
LINE
  5
BE2B
330
1F
100
AcDbEntity
  8
AM_0
100
AcDbLine
 10
76.99999999999983
 20
-103.0901359291277
 30
0.0
 11
76.99999999999983
 21
-102.1364313713589
 31
0.0
  0
LINE
  5
BE2F
330
1F
100
AcDbEntity
  8
AM_0
100
AcDbLine
 10
112.9999999999998
 20
-103.6714354908976
 30
0.0
 11
112.9999999999998
 21
-104.6893599368809
 31
0.0
  0
LINE
  5
BE30
330
1F
100
AcDbEntity
  8
AM_0
100
AcDbLine
 10
111.5004731679802
 20
-103.8673530410521
 30
0.0
 11
111.5004731679802
 21
-102.7547128308191
 31
0.0
  0
LINE
  5
BE31
330
1F
100
AcDbEntity
  8
AM_0
100
AcDbLine
 10
112.9999999999998
 20
-104.6893599368815
 30
0.0
 11
112.9999999999998
 21
-131.8478810961735
 31
0.0
  0
LINE
  5
BE32
330
1F
100
AcDbEntity
  8
AM_0
100
AcDbLine
 10
111.5004731679802
 20
-131.9074392083194
 30
0.0
 11
111.50047316798
 21
-103.8673530410526
 31
0.0
  0
LINE
  5
BE33
330
1F
100
AcDbEntity
  8
AM_0
100
AcDbLine
 10
112.9999999999998
 20
-131.8478810961735
 30
0.0
 11
112.9999999999998
 21
-139.4019519847887
 31
0.0
  0
LINE
  5
BE34
330
1F
100
AcDbEntity
  8
AM_0
100
AcDbLine
 10
111.5004731679802
 20
-140.1644007684716
 30
0.0
 11
111.5004731679802
 21
-131.9074392083194
 31
0.0
  0
LINE
  5
BE35
330
1F
100
AcDbEntity
  8
AM_0
100
AcDbLine
 10
112.9999999999998
 20
-139.4019519847889
 30
0.0
 11
112.9999999999998
 21
-144.0357433517795
 31
0.0
  0
LINE
  5
BE36
330
1F
100
AcDbEntity
  8
AM_0
100
AcDbLine
 10
111.50047316798
 20
-144.847778269699
 30
0.0
 11
111.5004731679802
 21
-140.1644007684719
 31
0.0
  0
LINE
  5
BE37
330
1F
100
AcDbEntity
  8
AM_0
100
AcDbLine
 10
107.9999999999998
 20
-144.9270428125853
 30
0.0
 11
107.9999999999998
 21
-145.1593599178687
 31
0.0
  0
ARC
  5
BE3D
330
1F
100
AcDbEntity
  8
AM_0
100
AcDbCircle
 10
75.59999999999974
 20
-101.8630643392815
 30
0.0
 40
1.0
100
AcDbArc
 50
233.1301023541707
 51
315.0000000000184
  0
ARC
  5
BE3E
330
1F
100
AcDbEntity
  8
AM_0
100
AcDbCircle
 10
63.55740071069874
 20
-136.8406567261058
 30
0.0
 40
13.45985320576692
100
AcDbArc
 50
342.4557432490489
 51
8.500764333600381
  0
LINE
  5
BE3F
330
1F
100
AcDbEntity
  8
AM_0
100
AcDbLine
 10
76.86940287482395
 20
-102.1289239192939
 30
0.0
 11
76.9896339808659
 21
-101.8876972832403
 31
0.0
  0
LINE
  5
BE40
330
1F
100
AcDbEntity
  8
AM_0
100
AcDbLine
 10
76.29993893775855
 20
-103.0099220137513
 30
0.0
 11
76.86231532126345
 21
-102.1244254177452
 31
0.0
  0
LINE
  5
BE41
330
1F
100
AcDbEntity
  8
AM_0
100
AcDbLine
 10
76.86938282723003
 20
-102.128908229181
 30
0.0
 11
77.00000032081306
 21
-102.1364257972392
 31
0.0
  0
LINE
  5
BE42
330
1F
100
AcDbEntity
  8
AM_0
100
AcDbLine
 10
76.8693844578184
 20
-134.8509982859578
 30
0.0
 11
77.00000196140303
 21
-134.8299895743944
 31
0.0
  0
LINE
  5
BE43
330
1F
100
AcDbEntity
  8
AM_0
100
AcDbLine
 10
76.3038053580737
 20
-132.5890280501948
 30
0.0
 11
76.86642392850746
 21
-134.8517218166111
 31
0.0
  0
SPLINE
  5
BE44
330
1F
100
AcDbEntity
  8
AM_0
100
AcDbSpline
210
0.0
220
0.0
230
1.0
 70
     8
 71
     3
 72
    22
 73
    18
 74
     0
 42
0.0000000001
 43
0.0000000001
 40
-2.001088860157947
 40
-2.001088860157947
 40
-2.001088860157947
 40
-2.001088860157947
 40
-1.390091464536804
 40
-1.390091464536804
 40
-1.135920523871576
 40
-1.135920523871576
 40
-1.015296545225475
 40
-1.015296545225475
 40
-0.9350769137296103
 40
-0.9350769137296103
 40
-0.858379408596526
 40
-0.858379408596526
 40
-0.7615084108000589
 40
-0.7615084108000589
 40
-0.5987514027027772
 40
-0.5987514027027772
 40
0.0
 40
0.0
 40
0.0
 40
0.0
 10
76.30710678118641
 20
-132.5882071516801
 30
0.0
 10
76.22208729285381
 20
-132.2305396517923
 30
0.0
 10
76.12258370486626
 20
-131.932363514012
 30
0.0
 10
75.96631185895018
 20
-131.6238528969136
 30
0.0
 10
75.90807631878482
 20
-131.5265814892226
 30
0.0
 10
75.8065192473253
 20
-131.4161638290599
 30
0.0
 10
75.76879871056809
 20
-131.3827947130957
 30
0.0
 10
75.69878489513502
 20
-131.3431506691129
 30
0.0
 10
75.66884572371993
 20
-131.3315074424359
 30
0.0
 10
75.60681133324084
 20
-131.3212782395573
 30
0.0
 10
75.57666048423226
 20
-131.3224371861663
 30
0.0
 10
75.50898501411513
 20
-131.3384481316315
 30
0.0
 10
75.47405645400085
 20
-131.3562421247499
 30
0.0
 10
75.38913226676669
 20
-131.4162613100753
 30
0.0
 10
75.34262023604134
 20
-131.4686055264689
 30
0.0
 10
75.16243145025447
 20
-131.7141926990219
 30
0.0
 10
75.05927167982162
 20
-132.0041843314484
 30
0.0
 10
74.9999999999996
 20
-132.1942526820376
 30
0.0
  0
SPLINE
  5
BE45
330
1F
100
AcDbEntity
  8
AM_0
100
AcDbSpline
210
0.0
220
0.0
230
1.0
 70
     8
 71
     3
 72
    22
 73
    18
 74
     0
 42
0.0000000001
 43
0.0000000001
 40
-3.608297247991451
 40
-3.608297247991451
 40
-3.608297247991451
 40
-3.608297247991451
 40
-2.530308969091733
 40
-2.530308969091733
 40
-2.252602965573062
 40
-2.252602965573062
 40
-2.090576289934671
 40
-2.090576289934671
 40
-1.955422443234214
 40
-1.955422443234214
 40
-1.803181533646466
 40
-1.803181533646466
 40
-1.567937045222921
 40
-1.567937045222921
 40
-1.094836533147729
 40
-1.094836533147729
 40
-0.0014877806800928
 40
-0.0014877806800928
 40
-0.0014877806800928
 40
-0.0014877806800928
 10
74.9999999999996
 20
-103.1841366348236
 30
0.0
 10
75.0593286477818
 20
-103.2671700701617
 30
0.0
 10
75.16265011997513
 20
-103.3967624616182
 30
0.0
 10
75.34112788398835
 20
-103.5075344009326
 30
0.0
 10
75.38473390885366
 20
-103.5301814462815
 30
0.0
 10
75.46327350718667
 20
-103.5570512400342
 30
0.0
 10
75.49512558363921
 20
-103.5653160064671
 30
0.0
 10
75.55826692962495
 20
-103.5744467999267
 30
0.0
 10
75.58766691252453
 20
-103.5761513796768
 30
0.0
 10
75.65146106690719
 20
-103.5738406667617
 30
0.0
 10
75.68356751357175
 20
-103.5691642854763
 30
0.0
 10
75.76048928177448
 20
-103.551159268686
 30
0.0
 10
75.80207940499309
 20
-103.5346500308233
 30
0.0
 10
75.90913294232013
 20
-103.4816869293643
 30
0.0
 10
75.96932416694148
 20
-103.4354932618801
 30
0.0
 10
76.12507397948099
 20
-103.2954239196193
 30
0.0
 10
76.22315591453781
 20
-103.1645307296348
 30
0.0
 10
76.30710678118652
 20
-103.0144742908383
 30
0.0
  0
SPLINE
  5
BE4B
330
1F
100
AcDbEntity
  8
AM_0
100
AcDbSpline
210
0.0
220
0.0
230
1.0
 70
     8
 71
     3
 72
    22
 73
    18
 74
     0
 42
0.0000000001
 43
0.0000000001
 40
0.0
 40
0.0
 40
0.0
 40
0.0
 40
1.24928658656778
 40
1.24928658656778
 40
1.776460179713746
 40
1.776460179713746
 40
2.005422428856085
 40
2.005422428856085
 40
2.152398627518596
 40
2.152398627518596
 40
2.281576123806236
 40
2.281576123806236
 40
2.43421133612644
 40
2.43421133612644
 40
2.692936324137533
 40
2.692936324137533
 40
3.777444205468512
 40
3.777444205468512
 40
3.777444205468512
 40
3.777444205468512
 10
76.30710678118675
 20
-141.1085164224235
 30
0.0
 10
76.21773576057223
 20
-141.331921785002
 30
0.0
 10
76.11191523981717
 20
-141.5131773141549
 30
0.0
 10
75.94579568881892
 20
-141.6977703522109
 30
0.0
 10
75.8807765465786
 20
-141.7585593209039
 30
0.0
 10
75.76906541899649
 20
-141.8228654780343
 30
0.0
 10
75.72943133549421
 20
-141.8412955412074
 30
0.0
 10
75.65644399023114
 20
-141.862028438226
 30
0.0
 10
75.62606054159465
 20
-141.8677097546527
 30
0.0
 10
75.56588603417532
 20
-141.8716869444372
 30
0.0
 10
75.5382679669479
 20
-141.8706752507596
 30
0.0
 10
75.47930959230774
 20
-141.8628627912281
 30
0.0
 10
75.44974304642329
 20
-141.8552459013671
 30
0.0
 10
75.37721271038328
 20
-141.8298687600541
 30
0.0
 10
75.33705331402035
 20
-141.8079629378622
 30
0.0
 10
75.16179170544712
 20
-141.6917366515106
 30
0.0
 10
75.05883316229944
 20
-141.5394130351796
 30
0.0
 10
74.99999999999983
 20
-141.4378200431128
 30
0.0
  0
LINE
  5
BE4C
330
1F
100
AcDbEntity
  8
AM_0
100
AcDbLine
 10
76.30712848073728
 20
-141.1085250875837
 30
0.0
 11
76.39118208991255
 21
-140.8980355353462
 31
0.0
  0
ARC
  5
BE4D
330
1F
100
AcDbEntity
  8
AM_0
100
AcDbCircle
 10
91.22788734834813
 20
-174.1712872773418
 30
0.0
 40
28.92609769818128
100
AcDbArc
 50
82.58680724521055
 51
100.2915260887815
  0
LINE
  5
BE4E
330
1F
100
AcDbEntity
  8
AM_0
100
AcDbLine
 10
107.9999995605591
 20
-144.9270234060457
 30
0.0
 11
111.5004727285347
 21
-144.8477588629585
 31
0.0
  0
LINE
  5
BE4F
330
1F
100
AcDbEntity
  8
AM_0
100
AcDbLine
 10
111.499792160563
 20
-144.8465210967846
 30
0.0
 11
112.9992121936153
 21
-144.034289022761
 31
0.0
  0
ARC
  5
BE54
330
1F
100
AcDbEntity
  8
AM_0
100
AcDbCircle
 10
54.43436266939375
 20
-0.0168686904164232
 30
0.0
 40
22.55828980360275
100
AcDbArc
 50
354.0074571860091
 51
13.26078240284769
  0
LINE
  5
BE55
330
1F
100
AcDbEntity
  8
AM_0
100
AcDbLine
 10
76.30538987946272
 20
-4.473026065991469
 30
0.0
 11
76.86791409996204
 21
-2.37153904241513
 31
0.0
  0
LINE
  5
BE56
330
1F
100
AcDbEntity
  8
AM_0
100
AcDbLine
 10
76.8693841697866
 20
-2.371921210208889
 30
0.0
 11
77.00000167166365
 21
-2.391839709290942
 31
0.0
  0
SPLINE
  5
BE57
330
1F
100
AcDbEntity
  8
AM_0
100
AcDbSpline
210
0.0
220
0.0
230
1.0
 70
     8
 71
     3
 72
    22
 73
    18
 74
     0
 42
0.0000000001
 43
0.0000000001
 40
-3.608297247991451
 40
-3.608297247991451
 40
-3.608297247991451
 40
-3.608297247991451
 40
-2.530308969091733
 40
-2.530308969091733
 40
-2.252602965573062
 40
-2.252602965573062
 40
-2.090576289934671
 40
-2.090576289934671
 40
-1.955422443234214
 40
-1.955422443234214
 40
-1.803181533646466
 40
-1.803181533646466
 40
-1.567937045222921
 40
-1.567937045222921
 40
-1.094836533147729
 40
-1.094836533147729
 40
-0.0014877806800928
 40
-0.0014877806800928
 40
-0.0014877806800928
 40
-0.0014877806800928
 10
74.99999999999977
 20
-4.83043048297516
 30
0.0
 10
75.05932864778174
 20
-5.00217407526516
 30
0.0
 10
75.1626501199753
 20
-5.262713711456414
 30
0.0
 10
75.34112788398841
 20
-5.479176316985118
 30
0.0
 10
75.38473390885372
 20
-5.523118988767422
 30
0.0
 10
75.46327350718684
 20
-5.575039638616048
 30
0.0
 10
75.49512558363927
 20
-5.590957057783058
 30
0.0
 10
75.55826692962501
 20
-5.608527859431845
 30
0.0
 10
75.58766691252458
 20
-5.611802395444002
 30
0.0
 10
75.65146106690713
 20
-5.607359554426651
 30
0.0
 10
75.6835675135718
 20
-5.598370842510136
 30
0.0
 10
75.76048928177465
 20
-5.563672324505276
 30
0.0
 10
75.80207940499315
 20
-5.531780625103025
 30
0.0
 10
75.90913294232018
 20
-5.42888540121875
 30
0.0
 10
75.96932416694153
 20
-5.338291920018619
 30
0.0
 10
76.12507397948093
 20
-5.059929282941212
 30
0.0
 10
76.22315591453776
 20
-4.794658334491672
 30
0.0
 10
76.30710678118658
 20
-4.473485644753126
 30
0.0
  0
LINE
  5
BE58
330
1F
100
AcDbEntity
  8
AM_0
100
AcDbLine
 10
76.30704552471298
 20
5.497822246607704
 30
0.0
 11
76.39110012881724
 21
5.157617298125892
 31
0.0
  0
SPLINE
  5
BE59
330
1F
100
AcDbEntity
  8
AM_0
100
AcDbSpline
210
0.0
220
0.0
230
1.0
 70
     8
 71
     3
 72
    22
 73
    18
 74
     0
 42
0.0000000001
 43
0.0000000001
 40
0.0
 40
0.0
 40
0.0
 40
0.0
 40
0.6104979114020642
 40
0.6104979114020642
 40
0.7635149291197938
 40
0.7635149291197938
 40
0.8554662116289986
 40
0.8554662116289986
 40
0.9294361364572942
 40
0.9294361364572942
 40
1.007795334351185
 40
1.007795334351185
 40
1.127823541472723
 40
1.127823541472723
 40
1.385991912774112
 40
1.385991912774112
 40
2.103995362990674
 40
2.103995362990674
 40
2.103995362990674
 40
2.103995362990674
 10
74.99999999999977
 20
6.011229326405541
 30
0.0
 10
75.05892824311229
 20
6.182397148277843
 30
0.0
 10
75.16220117849775
 20
6.442996489630943
 30
0.0
 10
75.33977100997777
 20
6.648058949830599
 30
0.0
 10
75.3826261596937
 20
6.688698823393608
 30
0.0
 10
75.46103718688244
 20
6.734841107380518
 30
0.0
 10
75.49337262417942
 20
6.748309992423557
 30
0.0
 10
75.5563682670238
 20
6.759791263652218
 30
0.0
 10
75.58460846159039
 20
6.760036710348558
 30
0.0
 10
75.64296516410832
 20
6.750309944927707
 30
0.0
 10
75.67126891113617
 20
6.740034106868777
 30
0.0
 10
75.73805039868512
 20
6.705549579673729
 30
0.0
 10
75.77430432314532
 20
6.676636163577413
 30
0.0
 10
75.87302671615805
 20
6.580493520977925
 30
0.0
 10
75.93022251802813
 20
6.495149839025075
 30
0.0
 10
76.10010926117525
 20
6.196515295459832
 30
0.0
 10
76.21284446043433
 20
5.881139906260373
 30
0.0
 10
76.3071067811868
 20
5.497837381274096
 30
0.0
  0
LINE
  5
BE5A
330
1F
100
AcDbEntity
  8
AM_0
100
AcDbLine
 10
111.5004731679802
 20
-21.01771271288724
 30
0.0
 11
76.99999999999989
 21
-21.88448468513855
 31
0.0
  0
LINE
  5
BE5B
330
1F
100
AcDbEntity
  8
AM_0
100
AcDbLine
 10
74.99999999999989
 20
-21.65936120442456
 30
0.0
 11
76.99999999999989
 21
-21.65936120442456
 31
0.0
  0
LINE
  5
BE5C
330
1F
100
AcDbEntity
  8
AM_0
100
AcDbLine
 10
112.9999999999999
 20
-20.10099005280873
 30
0.0
 11
111.5004731679801
 21
-21.01771271288724
 31
0.0
  0
LINE
  5
BE5D
330
1F
100
AcDbEntity
  8
AM_0
100
AcDbLine
 10
112.9999999999999
 20
20.10099005281196
 30
0.0
 11
111.5004731679801
 21
21.01771271289046
 31
0.0
  0
LINE
  5
BE5E
330
1F
100
AcDbEntity
  8
AM_0
100
AcDbLine
 10
76.99999999999989
 20
-21.88448468513855
 30
0.0
 11
77.0
 21
-5.150860963813052
 31
0.0
  0
LINE
  5
BE5F
330
1F
100
AcDbEntity
  8
AM_0
100
AcDbLine
 10
77.0
 20
-5.150860963813337
 30
0.0
 11
77.0
 21
-2.391850671389371
 31
0.0
  0
LINE
  5
BE60
330
1F
100
AcDbEntity
  8
AM_0
100
AcDbLine
 10
113.0
 20
4.361344861021699
 30
0.0
 11
113.0
 21
-4.361344861016711
 31
0.0
  0
LINE
  5
BE61
330
1F
100
AcDbEntity
  8
AM_0
100
AcDbLine
 10
111.5004731679801
 20
-4.767158979439422
 30
0.0
 11
111.5004731679801
 21
4.767158979444524
 31
0.0
  0
LINE
  5
BE62
330
1F
100
AcDbEntity
  8
AM_0
100
AcDbLine
 10
112.9999999999999
 20
-4.361344861016427
 30
0.0
 11
112.9999999999999
 21
-20.10099005280879
 31
0.0
  0
LINE
  5
BE63
330
1F
100
AcDbEntity
  8
AM_0
100
AcDbLine
 10
111.5004731679801
 20
-21.01771271288724
 30
0.0
 11
111.5004731679801
 21
-4.767158979439138
 31
0.0
  0
LINE
  5
BE64
330
1F
100
AcDbEntity
  8
AM_0
100
AcDbLine
 10
111.5004731679801
 20
4.767158979444524
 30
0.0
 11
111.5004731679801
 21
21.01771271289046
 31
0.0
  0
LINE
  5
BE65
330
1F
100
AcDbEntity
  8
AM_0
100
AcDbLine
 10
112.9999999999999
 20
20.10099005281196
 30
0.0
 11
112.9999999999999
 21
4.361344861021756
 31
0.0
  0
LINE
  5
BE66
330
1F
100
AcDbEntity
  8
AM_0
100
AcDbLine
 10
76.8693841697866
 20
2.371921210212285
 30
0.0
 11
77.00000167166365
 21
2.391839709294338
 31
0.0
  0
LINE
  5
BE67
330
1F
100
AcDbEntity
  8
AM_0
100
AcDbLine
 10
111.5004731679802
 20
21.01771271289058
 30
0.0
 11
76.99999999999989
 21
21.88448468514195
 31
0.0
  0
LINE
  5
BE68
330
1F
100
AcDbEntity
  8
AM_0
100
AcDbLine
 10
74.99999999999989
 20
21.65936120442796
 30
0.0
 11
76.99999999999989
 21
21.65936120442796
 31
0.0
  0
LINE
  5
BE69
330
1F
100
AcDbEntity
  8
AM_0
100
AcDbLine
 10
76.99999999999989
 20
21.88448468514195
 30
0.0
 11
77.0
 21
5.150860963816449
 31
0.0
  0
LINE
  5
BE6A
330
1F
100
AcDbEntity
  8
AM_0
100
AcDbLine
 10
77.0
 20
5.150860963816733
 30
0.0
 11
77.0
 21
2.391850671392767
 31
0.0
  0
ENDSEC
  0
SECTION
  2
OBJECTS
  0
DICTIONARY
  5
C
330
0
100
AcDbDictionary
281
     1
  3
ACAD_COLOR
350
A771
  3
ACAD_GROUP
350
D
  3
ACAD_LAYOUT
350
1A
  3
ACAD_MATERIAL
350
A770
  3
ACAD_MLINESTYLE
350
17
  3
ACAD_PLOTSETTINGS
350
19
  3
ACAD_PLOTSTYLENAME
350
E
  3
ACAD_TABLESTYLE
350
A772
  3
AcAmCatalogState
350
A7D0
  3
ACDBHEADERROUNDTRIPXREC
350
C6E5
  3
AcDbVariableDictionary
350
30
  3
ACDMSYSVARMGR
350
A794
  3
ACGREF_MASTER
350
23CD
  3
ACGREFACAD_MASTER
350
23D1
  3
AcmDictionary
350
4D
  3
ACME_BOM_MANAGER_NAME
350
A787
  3
ACME_COMMAND_HISTORY
350
A784
  3
ACME_SCOPE_NAME
350
A783
  3
ACMESTATEMGR
350
A78C
  3
AcmeSysVarManager
350
A785
  3
AcmSystemVariableManager
350
A7D9
  3
AD_APPL
350
A7BC
  3
ADSYSVARMGR
350
A7BB
  3
AmdtNamedDwgMgr
350
A7AF
  3
AMG
350
3F
  3
AMGSNAPSETTINGS
350
73
  3
AMI_MASTER
350
23D2
  3
AUTOCAD_ASSEMBLIES_PROJECT
350
A7C4
  3
Designer_Assemblies_SysVars
350
A7BF
  3
DWGPROPS
350
C6E8
  3
FILENAME
350
1C9F
  3
GREFAM_MODULE
350
A7B5
  3
ZWKSIZE
350
1CA1
  0
DICTIONARY
  5
AADB
330
2
100
AcDbDictionary
280
     1
281
     1
  3
ACAD_LAYERFILTERS
360
B465
  3
ACAD_LAYERSTATES
360
AADC
  3
ACLYDICTIONARY
360
B464
  3
AMLAYER_GROUPCOLORS
360
B463
  0
DICTIONARY
  5
165
330
1F
100
AcDbDictionary
280
     1
281
     1
  3
ACAD_LAYOUTSELFREF
360
A6D7
  0
DICTIONARY
  5
264F
330
1B
100
AcDbDictionary
280
     1
281
     1
  3
ACAD_LAYOUTSELFREF
360
A6D6
  0
DICTIONARY
  5
2651
330
23
100
AcDbDictionary
280
     1
281
     1
  3
ACAD_LAYOUTSELFREF
360
A6D8
  0
DICTIONARY
  5
A771
102
{ACAD_REACTORS
330
C
102
}
330
C
100
AcDbDictionary
281
     1
  0
DICTIONARY
  5
D
102
{ACAD_REACTORS
330
C
102
}
330
C
100
AcDbDictionary
281
     1
  0
DICTIONARY
  5
1A
102
{ACAD_REACTORS
330
C
102
}
330
C
100
AcDbDictionary
281
     1
  3
Model
350
22
  3
ﾚｲｱｳﾄ1
350
1E
  3
ﾚｲｱｳﾄ2
350
26
  0
DICTIONARY
  5
A770
102
{ACAD_REACTORS
330
C
102
}
330
C
100
AcDbDictionary
281
     1
  0
DICTIONARY
  5
17
102
{ACAD_REACTORS
330
C
102
}
330
C
100
AcDbDictionary
281
     1
  3
Standard
350
18
  0
DICTIONARY
  5
19
102
{ACAD_REACTORS
330
C
102
}
330
C
100
AcDbDictionary
281
     1
  0
ACDBDICTIONARYWDFLT
  5
E
102
{ACAD_REACTORS
330
C
102
}
330
C
100
AcDbDictionary
281
     1
  3
Normal
350
F
100
AcDbDictionaryWithDefault
340
F
  0
DICTIONARY
  5
A772
102
{ACAD_REACTORS
330
C
102
}
330
C
100
AcDbDictionary
281
     1
  3
Standard
350
A773
  0
ACAD_PROXY_OBJECT
  5
A7D0
102
{ACAD_REACTORS
330
C
102
}
330
C
100
AcDbProxyObject
 90
      499
 91
      584
 95
       25
 70
     0
 93
      456
310
3FFFFFFFE00A0281402902C1D2E482B415AC15141BA41A441C5C1AFAE20A1A0A226991818182E24A1AA26C0087F06764011A53D8185F985F40
  0
DICTIONARY
  5
C6E5
102
{ACAD_REACTORS
330
C
102
}
330
C
100
AcDbDictionary
281
     1
  3
COLORDICT
350
C6E6
  3
MATERIALDICT
350
C6E7
  0
DICTIONARY
  5
30
102
{ACAD_REACTORS
330
C
102
}
330
C
100
AcDbDictionary
281
     1
  3
CTABLESTYLE
350
A801
  3
HIDETEXT
350
C6E4
  3
INDEXCTL
350
C6E3
  0
ACAD_PROXY_OBJECT
  5
A794
102
{ACAD_REACTORS
330
C
102
}
330
C
100
AcDbProxyObject
 90
      499
 91
      507
 95
       25
 70
     0
 93
      240
310
4C51A47A0000000000000000000000000000000000000000000000000000
330
A795
330
A796
330
A797
330
A798
330
A799
330
A79A
330
A79B
330
A79C
330
A79D
330
A79E
330
A79F
330
A7A0
330
A7A1
330
A7A2
330
A7A3
330
A7A4
330
A7A5
330
A7A6
330
A7A7
330
A7A8
330
A7A9
330
A7AA
330
A7AB
330
A7AC
330
A7AD
330
A7AE
 94
        0
  0
ACAD_PROXY_OBJECT
  5
23CD
102
{ACAD_REACTORS
330
C
102
}
330
C
100
AcDbProxyObject
 90
      499
 91
      534
 95
       25
 70
     0
 93
       34
310
0400004280
  0
ACAD_PROXY_OBJECT
  5
23D1
102
{ACAD_REACTORS
330
C
102
}
330
C
100
AcDbProxyObject
 90
      499
 91
      535
 95
       25
 70
     0
 93
      114
310
04000041C080000000000000000000
  0
DICTIONARY
  5
4D
102
{ACAD_REACTORS
330
C
102
}
330
C
100
AcDbDictionary
281
     1
  3
AcmBOMDATA
350
A7CF
  3
AcmStdDictionary
350
17E
  3
AMDTSECTSYM_ARROWCOLOR
350
A7EE
  0
ACAD_PROXY_OBJECT
  5
A787
102
{ACAD_REACTORS
330
C
102
}
330
C
100
AcDbProxyObject
 90
      499
 91
      510
 95
       25
 70
     0
 93
       50
310
00010040400000
330
0
330
0
330
A788
 94
        0
  0
ACAD_PROXY_OBJECT
  5
A784
102
{ACAD_REACTORS
330
C
102
}
330
C
100
AcDbProxyObject
 90
      499
 91
      505
 95
       25
 70
     0
 93
     5220
310
47805055153415645404052D4D5347202D205050413A2020206465736B746F702E6172782046696C6556657273696F6E3A20392E322E302E34014390535115149154D15511109353D1102014213880B4815539113C05084E202D20554E444F014115539113E014115539113E01419493D510551160142111493D411D153D36
310
01411353D591601411693D3D36014190535393D5116014151549054D1601415454D05591501014B5354D1C80B481414104E88080819195CDADD1BDC0B985C9E08119A5B1955995C9CDA5BDB8E880E4B8C8B8C0B8D005055153415645404052D4D5347202D205050413A2020206465736B746F702E6172782046696C6556657
310
273696F6E3A20392E322E302E34014390535115149154D15511109353D1102014213880B4815539113C05084E202D20554E444F014115539113E014115539113E014151549054D16014151549054D16014151549054D16014151549054D16014151549054D16014151549054D1501014B5354D1C80B481414104E880808191
310
95CDADD1BDC0B985C9E08119A5B1955995C9CDA5BDB8E880E4B8C8B8C0B8D005054552415345805054552415345805054552415345404052D4D5347202D205050413A2020206465736B746F702E6172782046696C6556657273696F6E3A20392E322E302E3401415454D05591501014B5354D1C80B481414104E8808081919
310
5CDADD1BDC0B985C9E08119A5B1955995C9CDA5BDB8E880E4B8C8B8C0B8D0050E414D4454524553455444424D4F4440805084E202D20554E444F014213880B4815539113C0504554E444F80504554E444F805055055524745805055153415645404052D4D5347202D205050413A2020206465736B746F702E6172782046696
310
C6556657273696F6E3A20392E322E302E340
  0
ACAD_PROXY_OBJECT
  5
A783
102
{ACAD_REACTORS
330
C
102
}
330
C
100
AcDbProxyObject
 90
      499
 91
      504
 95
       25
 70
     0
 93
      562
310
09000046408000000000000000001314D600000000000000000000000000000000000000000000000000000000000000000000000000000000000000000000000000AAA406AA80
360
A786
360
A788
360
A78D
360
A78E
360
A78F
360
A790
360
A791
360
A792
360
A795
360
A796
360
A797
360
A798
360
A799
360
A79A
360
A79B
360
A79C
360
A79D
360
A79E
360
A79F
360
A7A0
360
A7A1
360
A7A2
360
A7A3
360
A7A4
360
A7A5
360
A7A6
360
A7A7
360
A7A8
360
A7A9
360
A7AA
360
A7AB
360
A7AC
360
A7AD
360
A7AE
360
A7B7
360
A7B8
360
A7B9
360
A7BA
360
A7C0
360
A7C1
360
A7C2
360
A7C3
360
A7C8
360
A7C9
360
A7CA
360
A7CB
360
A7CC
360
A7CD
360
A7DA
 94
        0
  0
ACAD_PROXY_OBJECT
  5
A78C
102
{ACAD_REACTORS
330
C
102
}
330
C
100
AcDbProxyObject
 90
      499
 91
      515
 95
       25
 70
     0
 93
       50
310
09000042641280
  0
ACAD_PROXY_OBJECT
  5
A785
102
{ACAD_REACTORS
330
C
102
}
330
C
100
AcDbProxyObject
 90
      499
 91
      507
 95
       25
 70
     0
 93
       32
310
90140A00
330
A786
 94
        0
  0
ACAD_PROXY_OBJECT
  5
A7D9
102
{ACAD_REACTORS
330
C
102
}
330
C
100
AcDbProxyObject
 90
      499
 91
      507
 95
       25
 70
     0
 93
       32
310
90140A00
330
A7DA
 94
        0
  0
ACAD_PROXY_OBJECT
  5
A7BC
102
{ACAD_REACTORS
330
C
102
}
330
C
100
AcDbProxyObject
 90
      499
 91
      574
 95
       25
 70
     0
 93
       42
310
000900004040
330
A7B7
 94
        0
  0
ACAD_PROXY_OBJECT
  5
A7BB
102
{ACAD_REACTORS
330
C
102
}
330
C
100
AcDbProxyObject
 90
      499
 91
      507
 95
       25
 70
     0
 93
        8
310
AA
  0
ACAD_PROXY_OBJECT
  5
A7AF
102
{ACAD_REACTORS
330
C
102
}
330
C
100
AcDbProxyObject
 90
      499
 91
      565
 95
       25
 70
     0
 93
       42
310
000100005E80
330
A78D
 94
        0
  0
DICTIONARY
  5
3F
102
{ACAD_REACTORS
330
C
102
}
330
C
100
AcDbDictionary
281
     1
  3
AcMgSettings
350
40
  3
AMGLAYCFG
350
A7DC
  0
DICTIONARY
  5
73
102
{ACAD_REACTORS
330
C
102
}
330
C
100
AcDbDictionary
281
     1
  0
ACAD_PROXY_OBJECT
  5
23D2
102
{ACAD_REACTORS
330
C
102
}
330
C
100
AcDbProxyObject
 90
      499
 91
      536
 95
       25
 70
     0
 93
       34
310
0500004280
  0
ACAD_PROXY_OBJECT
  5
A7C4
102
{ACAD_REACTORS
330
C
102
}
330
C
100
AcDbProxyObject
 90
      499
 91
      577
 95
       25
 70
     0
 93
       98
310
0900004E400000000000000000
330
A7CB
330
0
330
A7CC
330
0
330
0
330
0
330
0
330
0
 94
        0
  0
ACAD_PROXY_OBJECT
  5
A7BF
102
{ACAD_REACTORS
330
C
102
}
330
C
100
AcDbProxyObject
 90
      499
 91
      507
 95
       25
 70
     0
 93
       56
310
90441600000000
330
A7C0
330
A7C1
330
A7C2
330
A7C3
 94
        0
  0
XRECORD
  5
C6E8
102
{ACAD_REACTORS
330
C
102
}
330
C
100
AcDbXrecord
280
     1
  1
DWGPROPS COOKIE
  2

  3

  4

  6

  7

  8

  9

300
AmdtFileType=84
301
=
302
=
303
=
304
=
305
=
306
=
307
=
308
=
309
=
 40
0.0
 41
2451943.235431667
 42
2455460.063328716
  1

 90
        1
  0
DICTIONARY
  5
1C9F
102
{ACAD_REACTORS
330
C
102
}
330
C
100
AcDbDictionary
281
     1
  3
FILENAME
350
1CA0
  0
ACAD_PROXY_OBJECT
  5
A7B5
102
{ACAD_REACTORS
330
C
102
}
330
C
100
AcDbProxyObject
 90
      499
 91
      568
 95
       25
 70
     0
 93
        8
310
05
  0
DICTIONARY
  5
1CA1
102
{ACAD_REACTORS
330
C
102
}
330
C
100
AcDbDictionary
281
     1
  3
ZWKSIZE
350
1CA2
  0
DICTIONARY
  5
B465
102
{ACAD_REACTORS
330
AADB
102
}
330
AADB
100
AcDbDictionary
281
     1
  0
DICTIONARY
  5
AADC
102
{ACAD_REACTORS
330
AADB
102
}
330
AADB
100
AcDbDictionary
281
     1
  0
DICTIONARY
  5
B464
102
{ACAD_REACTORS
330
AADB
102
}
330
AADB
100
AcDbDictionary
281
     1
1001
ACAD
1000
<All
  0
DICTIONARY
  5
B463
102
{ACAD_REACTORS
330
AADB
102
}
330
AADB
100
AcDbDictionary
280
     1
281
     1
  0
XRECORD
  5
A6D7
102
{ACAD_REACTORS
330
165
102
}
330
165
100
AcDbXrecord
280
     1
340
1F
  0
XRECORD
  5
A6D6
102
{ACAD_REACTORS
330
264F
102
}
330
264F
100
AcDbXrecord
280
     1
340
1B
  0
XRECORD
  5
A6D8
102
{ACAD_REACTORS
330
2651
102
}
330
2651
100
AcDbXrecord
280
     1
340
23
  0
LAYOUT
  5
22
102
{ACAD_REACTORS
330
1A
102
}
330
1A
100
AcDbPlotSettings
  1

  2
SII LP-2150 (D-SCAN C2)
  4
User120
  6
AM_VIEW1
 40
3.174999952316284
 41
3.174999952316284
 42
3.17498779296875
 43
3.17498779296875
 44
296.9259948730469
 45
419.9889831542969
 46
0.0
 47
0.0
 48
0.0
 49
0.0
140
420.0
141
297.0
142
1.0
143
1.022107788374329
 70
 11952
 72
     1
 73
     1
 74
     4
  7
sei_cad.ctb
 75
     0
147
0.9783703943695685
148
0.0
149
0.0
100
AcDbLayout
  1
Model
 70
     1
 71
     0
 10
0.0
 20
0.0
 11
12.0
 21
9.0
 12
0.0
 22
0.0
 32
0.0
 14
0.0
 24
0.0
 34
0.0
 15
0.0
 25
0.0
 35
0.0
146
0.0
 13
0.0
 23
0.0
 33
0.0
 16
1.0
 26
0.0
 36
0.0
 17
0.0
 27
1.0
 37
0.0
 76
     0
330
1F
1001
ACAD_PSEXT
1000
SII LP-2150 (D-SCAN C2)
1000
SII LP-2150 (D-SCAN C2)
1000
133.153.16.130#3000
1000

1070
     0
  0
LAYOUT
  5
1E
102
{ACAD_REACTORS
330
1A
102
}
330
1A
100
AcDbPlotSettings
  1

  2
Canon LASER SHOT LBP-2030
  4

  6

 40
0.0
 41
0.0
 42
0.0
 43
0.0
 44
0.0
 45
0.0
 46
0.0
 47
0.0
 48
0.0
 49
0.0
140
0.0
141
0.0
142
1.0
143
1.0
 70
   688
 72
     0
 73
     0
 74
     5
  7
sei_cad.ctb
 75
    16
147
1.0
148
0.0
149
0.0
100
AcDbLayout
  1
ﾚｲｱｳﾄ1
 70
     1
 71
     1
 10
0.0
 20
0.0
 11
420.0
 21
297.0
 12
0.0
 22
0.0
 32
0.0
 14
1.000000000000000E+20
 24
1.000000000000000E+20
 34
1.000000000000000E+20
 15
-1.000000000000000E+20
 25
-1.000000000000000E+20
 35
-1.000000000000000E+20
146
0.0
 13
0.0
 23
0.0
 33
0.0
 16
1.0
 26
0.0
 36
0.0
 17
0.0
 27
1.0
 37
0.0
 76
     0
330
1B
  0
LAYOUT
  5
26
102
{ACAD_REACTORS
330
1A
102
}
330
1A
100
AcDbPlotSettings
  1

  2
Canon LASER SHOT LBP-2030
  4

  6

 40
0.0
 41
0.0
 42
0.0
 43
0.0
 44
0.0
 45
0.0
 46
0.0
 47
0.0
 48
0.0
 49
0.0
140
0.0
141
0.0
142
1.0
143
1.0
 70
   688
 72
     0
 73
     0
 74
     5
  7
sei_cad.ctb
 75
    16
147
1.0
148
0.0
149
0.0
100
AcDbLayout
  1
ﾚｲｱｳﾄ2
 70
     1
 71
     2
 10
0.0
 20
0.0
 11
12.0
 21
9.0
 12
0.0
 22
0.0
 32
0.0
 14
0.0
 24
0.0
 34
0.0
 15
0.0
 25
0.0
 35
0.0
146
0.0
 13
0.0
 23
0.0
 33
0.0
 16
1.0
 26
0.0
 36
0.0
 17
0.0
 27
1.0
 37
0.0
 76
     0
330
23
  0
MLINESTYLE
  5
18
102
{ACAD_REACTORS
330
17
102
}
330
17
100
AcDbMlineStyle
  2
STANDARD
 70
     0
  3

 62
   256
 51
90.0
 52
90.0
 71
     2
 49
0.5
 62
   256
  6
BYLAYER
 49
-0.5
 62
   256
  6
BYLAYER
  0
ACDBPLACEHOLDER
  5
F
102
{ACAD_REACTORS
330
E
102
}
330
E
  0
TABLESTYLE
  5
A773
102
{ACAD_REACTORS
330
A772
102
}
330
A772
100
AcDbTableStyle
  3
Standard
 70
     0
 71
     8
 40
1.5
 41
1.5
280
     0
281
     0
  7
STANDARD
140
4.5
170
     2
 62
     0
 63
     7
283
     0
274
    -2
284
     1
 64
     0
275
    -2
285
     1
 65
     0
276
    -2
286
     1
 66
     0
277
    -2
287
     1
 67
     0
278
    -2
288
     1
 68
     0
279
    -2
289
     1
 69
     0
  7
STANDARD
140
6.0
170
     5
 62
     0
 63
     7
283
     0
274
    -2
284
     1
 64
     0
275
    -2
285
     1
 65
     0
276
    -2
286
     1
 66
     0
277
    -2
287
     1
 67
     0
278
    -2
288
     1
 68
     0
279
    -2
289
     1
 69
     0
  7
STANDARD
140
4.5
170
     5
 62
     0
 63
     7
283
     0
274
    -2
284
     1
 64
     0
275
    -2
285
     1
 65
     0
276
    -2
286
     1
 66
     0
277
    -2
287
     1
 67
     0
278
    -2
288
     1
 68
     0
279
    -2
289
     1
 69
     0
  0
XRECORD
  5
C6E6
102
{ACAD_REACTORS
330
C6E5
102
}
330
C6E5
100
AcDbXrecord
280
     1
340
A771
  0
XRECORD
  5
C6E7
102
{ACAD_REACTORS
330
C6E5
102
}
330
C6E5
100
AcDbXrecord
280
     1
340
A770
  0
DICTIONARYVAR
  5
A801
102
{ACAD_REACTORS
330
30
102
}
330
30
100
DictionaryVariables
280
     0
  1
STANDARD
  0
DICTIONARYVAR
  5
C6E4
102
{ACAD_REACTORS
330
30
102
}
330
30
100
DictionaryVariables
280
     0
  1
0
  0
DICTIONARYVAR
  5
C6E3
102
{ACAD_REACTORS
330
30
102
}
330
30
100
DictionaryVariables
280
     0
  1
1
  0
ACAD_PROXY_OBJECT
  5
A7CF
102
{ACAD_REACTORS
330
4D
102
}
330
4D
100
AcDbProxyObject
 90
      499
 91
      520
 95
       25
 70
     0
 93
       76
310
90100057356C1D7742A0
  0
DICTIONARY
  5
17E
102
{ACAD_REACTORS
330
4D
102
}
330
4D
100
AcDbDictionary
281
     1
  3
ISO
350
A7DB
  3
JIS
350
AAE3
  0
XRECORD
  5
A7EE
102
{ACAD_REACTORS
330
4D
102
}
330
4D
100
AcDbXrecord
280
     1
 90
-1023410169
  0
ACAD_PROXY_OBJECT
  5
A786
330
A783
100
AcDbProxyObject
 90
      499
 91
      509
 95
       25
 70
     0
 93
      156
310
000101439050D35154D6535093D314D256915080
330
A783
 94
        0
  0
ACAD_PROXY_OBJECT
  5
A788
330
A783
100
AcDbProxyObject
 90
      499
 91
      511
 95
       25
 70
     0
 93
      120
310
000101422565255A6557080C402B00
330
A783
330
0
330
0
 94
        0
  0
ACAD_PROXY_OBJECT
  5
A78D
330
A783
100
AcDbProxyObject
 90
      499
 91
      561
 95
       25
 70
     0
 93
      358
310
0001014124FEA55D00507392E322E302E32014124FEA55D00507392E322E302E3240501000041505391D311658
330
A783
330
A78E
330
A794
 94
        0
  0
ACAD_PROXY_OBJECT
  5
A78E
330
A783
100
AcDbProxyObject
 90
      499
 91
      562
 95
       25
 70
     0
 93
       56
310
000190240E0000
330
A783
330
A78F
330
A791
 94
        0
  0
ACAD_PROXY_OBJECT
  5
A78F
330
A783
100
AcDbProxyObject
 90
      499
 91
      563
 95
       25
 70
     0
 93
       48
310
0001AA000000
330
A783
330
1E
330
A790
330
0
 94
        0
  0
ACAD_PROXY_OBJECT
  5
A790
330
A783
100
AcDbProxyObject
 90
      499
 91
      564
 95
       25
 70
     0
 93
       28
310
0001AAA0
330
A783
 94
        0
  0
ACAD_PROXY_OBJECT
  5
A791
330
A783
100
AcDbProxyObject
 90
      499
 91
      563
 95
       25
 70
     0
 93
       48
310
0001AA000000
330
A783
330
26
330
A792
330
0
 94
        0
  0
ACAD_PROXY_OBJECT
  5
A792
330
A783
100
AcDbProxyObject
 90
      499
 91
      564
 95
       25
 70
     0
 93
       28
310
0001AAA0
330
A783
 94
        0
  0
ACAD_PROXY_OBJECT
  5
A795
330
A783
100
AcDbProxyObject
 90
      499
 91
      509
 95
       25
 70
     0
 93
      108
310
000101421053521310D05310D010
330
A783
 94
        0
  0
ACAD_PROXY_OBJECT
  5
A796
330
A783
100
AcDbProxyObject
 90
      499
 91
      509
 95
       25
 70
     0
 93
      124
310
00010142905354915554D15112535010
330
A783
 94
        0
  0
ACAD_PROXY_OBJECT
  5
A797
330
A783
100
AcDbProxyObject
 90
      499
 91
      509
 95
       25
 70
     0
 93
      132
310
00010143105354D150D51253D391125360
330
A783
 94
        0
  0
ACAD_PROXY_OBJECT
  5
A798
330
A783
100
AcDbProxyObject
 90
      499
 91
      509
 95
       25
 70
     0
 93
      124
310
00010142905355941093D49111549010
330
A783
 94
        0
  0
ACAD_PROXY_OBJECT
  5
A799
330
A783
100
AcDbProxyObject
 90
      499
 91
      509
 95
       25
 70
     0
 93
      116
310
0001014290535115D1D0D3D313D4A0
330
A783
 94
        0
  0
ACAD_PROXY_OBJECT
  5
A79A
330
A783
100
AcDbProxyObject
 90
      499
 91
      509
 95
       25
 70
     0
 93
      148
310
00010143505355925155D49151949154D21010
330
A783
 94
        0
  0
ACAD_PROXY_OBJECT
  5
A79B
330
A783
100
AcDbProxyObject
 90
      499
 91
      509
 95
       25
 70
     0
 93
      172
310
00010144105350539393D51154149154D15495915010
330
A783
 94
        0
  0
ACAD_PROXY_OBJECT
  5
A79C
330
A783
100
AcDbProxyObject
 90
      499
 91
      509
 95
       25
 70
     0
 93
      172
310
00010144105350555513D11253505494905391D15010
330
A783
 94
        0
  0
ACAD_PROXY_OBJECT
  5
A79D
330
A783
100
AcDbProxyObject
 90
      499
 91
      509
 95
       25
 70
     0
 93
      124
310
00010142D05351561514915191125360
330
A783
 94
        0
  0
ACAD_PROXY_OBJECT
  5
A79E
330
A783
100
AcDbProxyObject
 90
      499
 91
      509
 95
       25
 70
     0
 93
      132
310
00010142D05355105410539393D5115010
330
A783
 94
        0
  0
ACAD_PROXY_OBJECT
  5
A79F
330
A783
100
AcDbProxyObject
 90
      499
 91
      509
 95
       25
 70
     0
 93
      108
310
00010142105350555513D0D31010
330
A783
 94
        0
  0
ACAD_PROXY_OBJECT
  5
A7A0
330
A783
100
AcDbProxyObject
 90
      499
 91
      509
 95
       25
 70
     0
 93
      108
310
00010142105350D3119150551050
330
A783
 94
        0
  0
ACAD_PROXY_OBJECT
  5
A7A1
330
A783
100
AcDbProxyObject
 90
      499
 91
      509
 95
       25
 70
     0
 93
      108
310
00010142105350D315925155D3F0
330
A783
 94
        0
  0
ACAD_PROXY_OBJECT
  5
A7A2
330
A783
100
AcDbProxyObject
 90
      499
 91
      509
 95
       25
 70
     0
 93
      148
310
0001014350535212511156915493D112535010
330
A783
 94
        0
  0
ACAD_PROXY_OBJECT
  5
A7A3
330
A783
100
AcDbProxyObject
 90
      499
 91
      509
 95
       25
 70
     0
 93
      124
310
00010142905352105510D21254D3D010
330
A783
 94
        0
  0
ACAD_PROXY_OBJECT
  5
A7A4
330
A783
100
AcDbProxyObject
 90
      499
 91
      509
 95
       25
 70
     0
 93
      148
310
00010143905354D25391D31152105513105660
330
A783
 94
        0
  0
ACAD_PROXY_OBJECT
  5
A7A5
330
A783
100
AcDbProxyObject
 90
      499
 91
      509
 95
       25
 70
     0
 93
      124
310
00010142D0535115D1D193111254D420
330
A783
 94
        0
  0
ACAD_PROXY_OBJECT
  5
A7A6
330
A783
100
AcDbProxyObject
 90
      499
 91
      509
 95
       25
 70
     0
 93
      100
310
00010142105350555513D213A0
330
A783
 94
        0
  0
ACAD_PROXY_OBJECT
  5
A7A7
330
A783
100
AcDbProxyObject
 90
      499
 91
      509
 95
       25
 70
     0
 93
      116
310
000101425053521390D3D553951010
330
A783
 94
        0
  0
ACAD_PROXY_OBJECT
  5
A7A8
330
A783
100
AcDbProxyObject
 90
      499
 91
      509
 95
       25
 70
     0
 93
      108
310
0001014210535213941493D29010
330
A783
 94
        0
  0
ACAD_PROXY_OBJECT
  5
A7A9
330
A783
100
AcDbProxyObject
 90
      499
 91
      509
 95
       25
 70
     0
 93
      108
310
0001014210535213951654115070
330
A783
 94
        0
  0
ACAD_PROXY_OBJECT
  5
A7AA
330
A783
100
AcDbProxyObject
 90
      499
 91
      509
 95
       25
 70
     0
 93
      108
310
000101421053521395925155D0F0
330
A783
 94
        0
  0
ACAD_PROXY_OBJECT
  5
A7AB
330
A783
100
AcDbProxyObject
 90
      499
 91
      509
 95
       25
 70
     0
 93
      140
310
00010143505354D150D51253D390D3D41660
330
A783
 94
        0
  0
ACAD_PROXY_OBJECT
  5
A7AC
330
A783
100
AcDbProxyObject
 90
      499
 91
      509
 95
       25
 70
     0
 93
      108
310
00010142105350D3141493D29030
330
A783
 94
        0
  0
ACAD_PROXY_OBJECT
  5
A7AD
330
A783
100
AcDbProxyObject
 90
      499
 91
      508
 95
       25
 70
     0
 93
      212
310
00010143905350555513D2105510D21493D500000000000002E400
330
A783
 94
        0
  0
ACAD_PROXY_OBJECT
  5
A7AE
330
A783
100
AcDbProxyObject
 90
      499
 91
      509
 95
       25
 70
     0
 93
      156
310
00010143905350555513D2105510D21111551010
330
A783
 94
        0
  0
ACAD_PROXY_OBJECT
  5
A7B7
330
A783
100
AcDbProxyObject
 90
      499
 91
      570
 95
       25
 70
     0
 93
      698
310
0001000000009AA6A9AA4051E467269204A756E2032332030373A34393A353520323030362028555443290141CE4B8C8B8C0B8C805184D6F6E205365702032302031303A33313A313120323031300141CE4B8C8B8C0B8C80
330
A783
330
A7B8
330
A7B9
330
A7BB
330
0
 94
        0
  0
ACAD_PROXY_OBJECT
  5
A7B8
330
A783
100
AcDbProxyObject
 90
      499
 91
      571
 95
       25
 70
     0
 93
       70
310
0001AAA80820000000
330
A783
330
A7B8
330
A7B8
 94
        0
  0
ACAD_PROXY_OBJECT
  5
A7B9
330
A783
100
AcDbProxyObject
 90
      499
 91
      572
 95
       25
 70
     0
 93
       48
310
000100000000
330
A783
330
0
330
A7BA
330
0
330
0
 94
        0
  0
ACAD_PROXY_OBJECT
  5
A7BA
330
A783
100
AcDbProxyObject
 90
      499
 91
      573
 95
       25
 70
     0
 93
       40
310
000100AAAA
330
A783
330
0
 94
        0
  0
ACAD_PROXY_OBJECT
  5
A7C0
330
A783
100
AcDbProxyObject
 90
      499
 91
      522
 95
       25
 70
     0
 93
      180
310
00010143105050D3D35411119390535140504434F4D500
330
A783
 94
        0
  0
ACAD_PROXY_OBJECT
  5
A7C1
330
A783
100
AcDbProxyObject
 90
      499
 91
      522
 95
       25
 70
     0
 93
      212
310
0001014390505193D311115491119390535140506466F6C6465720
330
A783
 94
        0
  0
ACAD_PROXY_OBJECT
  5
A7C2
330
A783
100
AcDbProxyObject
 90
      499
 91
      522
 95
       25
 70
     0
 93
      180
310
00010143105050539393D1119390535140504284156290
330
A783
 94
        0
  0
ACAD_PROXY_OBJECT
  5
A7C3
330
A783
100
AcDbProxyObject
 90
      499
 91
      522
 95
       25
 70
     0
 93
      436
310
00010143905050D3D35415925155D31254D50052295BD96CA0A90B396CA0A894591A496CA0A8DB691A496CA0A89BA96CA0A95E28F95310
330
A783
 94
        0
  0
ACAD_PROXY_OBJECT
  5
A7C8
330
A783
100
AcDbProxyObject
 90
      499
 91
      578
 95
       25
 70
     0
 93
       32
310
00010000
330
A783
340
A7C5
330
A7CA
330
A7C5
 94
        0
  0
ACAD_PROXY_OBJECT
  5
A7C9
330
A783
100
AcDbProxyObject
 90
      499
 91
      579
 95
       25
 70
     0
 93
       18
310
000180
330
A783
 94
        0
  0
ACAD_PROXY_OBJECT
  5
A7CA
330
A783
100
AcDbProxyObject
 90
      499
 91
      580
 95
       25
 70
     0
 93
      162
310
0001014250CD8B50CC8C0B4DCD5050055401550000
330
A783
330
A7C8
330
A7C9
 94
        0
  0
ACAD_PROXY_OBJECT
  5
A7CB
330
A783
100
AcDbProxyObject
 90
      499
 91
      581
 95
       25
 70
     0
 93
      178
310
000100AAAAAAB640BC660BD75993A9E14FF36553C88200
330
A783
330
A7CA
 94
        0
  0
ACAD_PROXY_OBJECT
  5
A7CC
330
A783
100
AcDbProxyObject
 90
      499
 91
      582
 95
       25
 70
     0
 93
      108
310
000190140A000000000000AAAAA0
330
A783
330
A7CD
330
A7CD
330
A7CD
330
A7CD
330
A7CD
330
0
 94
        0
  0
ACAD_PROXY_OBJECT
  5
A7CD
330
A783
100
AcDbProxyObject
 90
      499
 91
      583
 95
       25
 70
     0
 93
       51
310
00010000AAAA80
330
A783
330
A7CC
330
A7CA
 94
        0
  0
ACAD_PROXY_OBJECT
  5
A7DA
330
A783
100
AcDbProxyObject
 90
      499
 91
      522
 95
       25
 70
     0
 93
      140
310
00010142105350D55494D511005034A49530
330
A783
 94
        0
  0
DICTIONARY
  5
40
102
{ACAD_REACTORS
330
3F
102
}
330
3F
100
AcDbDictionary
281
     1
  3
DWGSETTINGS
350
A780
  3
Shaft
350
B462
  3
TRANSSETTINGS
350
A781
  0
ACAD_PROXY_OBJECT
  5
A7DC
102
{ACAD_REACTORS
330
3F
102
}
330
3F
100
AcDbProxyObject
 90
      499
 91
      519
 95
       25
 70
     0
 93
    17944
310
41502491013041105357CC201C00030C0132441013141105357CC603800030C0132441013241105357CCA01400030C0132441013341105357CCE01800030C01199013441105357CD200C00030C01199013541105357CD600C00030C01199013641105357CDA00800030C01239013741105357CDE01000030C0119901384110
310
5357CE200400030C01199013941105357CE63F400030C0241102324141505357CC4C201C00030C0132902344141505357CC4C600C00030C0119902495041505357CC4CA01C00030C013240902304E41505357CC13A01C00030C0132902314E41505357CC53A03800030C0132902324E41505357CC93A01400030C013290233
310
4E41505357CCD3A01800030C0119902344E41505357CD13A00C00030C0119902354E41505357CD53A00C00030C0119902364E41505357CD93A00800030C0123902374E41505357CDD3A01000030C0119902384E41505357CE13A00400030C0119902394E41505357CE53A3F400030C024110332414E41905357CC4C13A01C0
310
0030C013290334414E41905357CC4C53A00C00030C011990349504E41905357CC4C93A01C00030C0132409044B4C494E41505357D0D3200400030C011942504494E464F42105357D410549151A01000030C011942D055241484D3541905357D093D4A01C00030C0132425045649455742105357D5925155D4E00400030C011
310
942D06424548494E4441905357D25395A3F400030C0243505545241494C41505357D514A00C00030C01194250348494441905357D21251201C00030C01194250356495341905357D59254E01C00030C01324250650415244494D42505357D41054911253600C00030C01194250652454644494D42505357D49151911253601
310
000030C0119425534110921395901398000000C0003FFFFFFFE415092139594D06424548494E448000000C0003FFFFFFFE411093D48C9055241484D358010000C300466411093D48CD055241484D358020000C30048E411093D48D5055241484D358000000C0003FFFFFFFE4110D0530C901348000000C0003FFFFFFFE4110
310
D0530CD01348020000C30048E4110D0530D501348070000C3004CA4110D0530DD013481E0000C30051A4110D15393901378000000C0003FFFFFFFE4110D15395D01378000000C0003FFFFFFFE4110D312539044B4C494E8000000C0003FFFFFFFE4110D3D38C501308000000C0003FFFFFFFD034110D3D38C901318000000C
310
0003FFFFFFFD034110D3D38CD01328000000C0003FFFFFFFD034110D3D38D101328000000C0003FFFFFFFD034111115510501348000000C0003FFFFFFFE4111125051D01358000000C0003FFFFFFFE4111125312501358000000C0003FFFFFFFE411112535410650415244494D8000000C0003FFFFFFFE4111125354906524
310
54644494D8000000C0003FFFFFFFE4111915353901388000000C0003FFFFFFFE415191535413901388030000C3003FFFFFFFE4151915354D410234418000000C0003FFFFFFFE4151915354D510234418030000C300466415191535593901328000000C0003FFFFFFFE415191535595101328030000C3004664112105510D01
310
388000000C0003FFFFFFFD014112125113901338000000C0003FFFFFFFD034112125115D01338000000C0003FFFFFFFD034112131253901348000000C0003FFFFFFFD01411213D0D3901378000000C0003FFFFFFFE411213D0D5D01378000000C0003FFFFFFFE4112539193D04494E464F8000000C0003FFFFFFFE41131150
310
51101358000000C0003FFFFFFFE419397D0921395902394E8000000C0003FFFFFFFE419397D0D3D38C502304E8000000C0003FFFFFFFD03419397D0D3D38C902314E8000000C0003FFFFFFFD03419397D0D3D38CD02324E8000000C0003FFFFFFFD03419397D0D3D38D102324E8000000C0003FFFFFFFD03419397D0D15393
310
902374E8000000C0003FFFFFFFE419397D0D15395D02374E8000000C0003FFFFFFFE419397D1125312502354E8000000C0003FFFFFFFE419397D2105510D02384E8000000C0003FFFFFFFD01419397D2125113902334E8000000C0003FFFFFFFD03419397D2125115D02334E8000000C0003FFFFFFFD03419397D311505110
310
2354E8000000C0003FFFFFFFE419397D391D25410349504E8000000C0003FFFFFFFE419397D412105390334414E8000000C0003FFFFFFFE419397D510D3D3902304E8000000C0003FFFFFFFD03419397D5121312502344E8000000C0003FFFFFFFD01419397D5131153902304E8000000C0003FFFFFFFD03419397D5941312
310
50332414E8000000C0003FFFFFFFE411391D25410249508000000C0003FFFFFFFE411410530C9055241484D358010000C300466411410530CD055241484D358020000C30048E411410530D5055241484D358000000C0003FFFFFFFE411412105390234418000000C0003FFFFFFFE411413D4D3901358000000C0003FFFFFFF
310
E411490D1D3901378000000C0003FFFFFFFE411490D1D5D01378000000C0003FFFFFFFE4114D09492D01348000000C0003FFFFFFFD014114D150D5101348000000C0003FFFFFFFD014114D6508CD01358020000C30048E411354D653501358020000C30048E411510D3D3901308000000C0003FFFFFFFD0341151213125013
310
48000000C0003FFFFFFFD01411512550C9055241484D358010000C300466411512550CD055241484D358020000C30048E411512550D5055241484D358000000C0003FFFFFFFE4115131153901308000000C0003FFFFFFFD03415514905253105545241494C8000000C0003FFFFFFFE4115149312501348000000C0003FFFFF
310
FFD01411516150C501368030000C300466411516150C901368030000C300466411516150CD01368000000C0003FFFFFFFE411516150D501368070000C3004CA411516150DD013681E0000C30051A4115925155D04564945578000000C0003FFFFFFFE41159151121034849448000000C0003FFFFFFFD024115915115903564
310
9538000000C0003FFFFFFFD02411594131250232418000000C0003FFFFFFFE4116925690501348000000C0003FFFFFFFD01AAA00000030401013F90A405194092340D1941119415324191941D3243932479467F6
340
16
340
16
340
16
340
43
340
16
340
16
340
16
340
44
340
16
340
16
340
44
340
45
340
16
340
16
340
16
340
16
340
43
340
16
340
16
340
16
340
44
340
16
340
16
340
44
340
45
340
16
340
46
340
16
340
16
340
16
340
16
340
16
340
43
340
16
340
16
340
16
340
15
340
15
340
15
340
15
340
15
340
15
340
15
340
15
340
15
340
48
340
15
340
15
340
15
340
15
340
15
340
15
340
15
340
15
340
15
340
15
340
15
340
15
340
15
340
16
340
15
340
15
340
15
340
15
340
47
340
15
340
15
340
48
340
15
340
15
340
15
340
15
340
15
340
15
340
15
340
15
340
48
340
15
340
15
340
15
340
47
340
15
340
15
340
15
340
15
340
15
340
15
340
15
340
15
340
15
340
15
340
15
340
15
340
15
340
15
340
48
340
15
340
15
340
15
340
15
340
15
340
15
340
15
340
15
340
15
340
15
340
15
340
15
340
15
340
15
340
15
340
15
340
15
340
15
340
15
340
15
340
15
340
15
340
4B
 94
        0
  0
XRECORD
  5
1CA0
102
{ACAD_REACTORS
330
1C9F
102
}
330
1C9F
100
AcDbXrecord
280
     1
  1
21000845__00___
  0

  0
XRECORD
  5
1CA2
102
{ACAD_REACTORS
330
1CA1
102
}
330
1CA1
100
AcDbXrecord
280
     1
  1
3
  0

  0
ACAD_PROXY_OBJECT
  5
A7DB
102
{ACAD_REACTORS
330
17E
102
}
330
17E
100
AcDbProxyObject
 90
      499
 91
      589
 95
       25
 70
     0
 93
     2497
310
5DC0000000000000C408030000C30040D254D3D01640600800030C0200800030C000000000000000C40C88A2085A0B6B23A22B233B2A9BA3220480A1C82C6DAA6EAE4CCA8CAF0E8A6E8C88120284A0B1B6A321A329BA3220480A1A82C6DAAECAD8C8D2DCCEA6E8C8812028420B1B6A4B229BA3220480A1682C6DA88C2E8EAD
310
AA6E8C88120284A0B1B6A127A6A9BA3220480A2082DAC8E888CAE8C2D2D8A6F2DAA6E8C88120288A0B6B23A29B2B1BA34B7B729BCB6A9BA3220480A2282DAC8E886CADCE8CAE498D2DCCAA6E8C88120288A0B6B23A2A343932B0B22634B732A9BA3220480A1682DAC8E89CDEE8CAA6E8C88120285A0B1A0B6B3A630BCA9BA3
310
220480A1682C682DACE88D2DAA6E8C88120288A0B1A0B6B3A437B632A1B430B93A29BA3220480A1A82C682DACEA8D2E8D8CAA6E8C8812032048080
340
A7DD
360
A7DE
360
A7DF
360
A7E0
360
A7E1
360
A7E2
360
A7E3
360
A7E4
360
A7E5
360
A7E6
360
A7E7
360
A7E8
360
A7E9
360
A7F4
360
A7F5
360
A7FD
360
A7FE
340
0
340
0
 94
        0
  0
ACAD_PROXY_OBJECT
  5
AAE3
102
{ACAD_REACTORS
330
17E
102
}
330
17E
100
AcDbProxyObject
 90
      499
 91
      526
 95
       25
 70
     0
 93
     2379
310
5DC33333333333309408000000C00040D29254D01640600800030C0200800030C003333333333330940C8121E8720B1B6A9BAB9332A32BC3A29BA3220480A1282C6DA8C868CA6E8C88120286A0B1B6ABB2B63234B733A9BA3220480A1082C6DA92C8A6E8C88120285A0B1B6A230BA3AB6A9BA3220480A1282C6DA849E9AA6E
310
8C88120286A0B1A0B6B3AA34BA3632A9BA3220480A2082DAC8E888CAE8C2D2D8A6F2DAA6E8C88120288A0B6B23A29B2B1BA34B7B729BCB6A9BA3220480A2282DAC8E886CADCE8CAE498D2DCCAA6E8C88120288A0B6B23A2A343932B0B22634B732A9BA3220480A1682DAC8E89CDEE8CAA6E8C88120285A0B1A0B6B3A630BCA
310
9BA3220480A1682C682DACE88D2DAA6E8C88120288A0B1A0B6B3A437B632A1B430B93A29BA3220480C812020
340
180
360
AAE4
360
AAE5
360
AAE6
360
AAE7
360
AAE8
360
AAE9
360
AAEA
360
AAEB
360
AAEC
360
AAED
360
AAEE
360
AAEF
360
AAF5
360
AAF6
360
AAF7
340
0
340
0
 94
        0
  0
ACAD_PROXY_OBJECT
  5
A780
102
{ACAD_REACTORS
330
40
102
}
330
40
100
AcDbProxyObject
 90
      499
 91
      518
 95
       25
 70
     0
 93
     2600
310
4050B44574753455454494E4753A1286829C8E82A4A482B282A04686A8321A2A720A723A0A849A1ABE1C983E18999AA0C868A9C889282940000000000000488083A1A2A72224A0A9A0A8418983E19183E199820E868A9C8892A6A894000000000000010808321A2A72622A7250000000000000122020C868A9C9E8C8C94000
310
0000000000488083A1A2A727A32318A50000000000000122020E868A9C9E8C8C64940000000000000488084A1A624A720A92920ACA0A8099A108698929C8AA8B2A082A0AB098929C8A84A22BA3AAA9A1A0A622A50A0E9882A6A89E849482A08826A626C8426A0A5A2AB24A2ABA7E8120CA0A68682988A0C008000106524556
310
49534941501304154D0D0531150540CC4E8C50954494D455354414D504A099FEA581732B734141D5915494D253D3905414C4D4B8C0C1107B44574753455454494E4753454E447D
  0
ACAD_PROXY_OBJECT
  5
B462
102
{ACAD_REACTORS
330
40
102
}
330
40
100
AcDbProxyObject
 90
      499
 91
      518
 95
       25
 70
     0
 93
      199
310
405055368616674220F688AE8EA68AA8A8929C8EA68A9C88FA
  0
ACAD_PROXY_OBJECT
  5
A781
102
{ACAD_REACTORS
330
40
102
}
330
40
100
AcDbProxyObject
 90
      499
 91
      518
 95
       25
 70
     0
 93
      852
310
4050D5452414E5353455454494E4753A2488A482AE929C8EA8A4829CA69882A8929E9C0C00800050D4F524947494E414C4C595F4F4E0600400008529A7AAA921A2A620A723A0A81A52827212AAA0A48AA68AA4AC8A0C0080001107B44574753455454494E4753454E447D0
  0
ACAD_PROXY_OBJECT
  5
A7DE
330
A7DB
100
AcDbProxyObject
 90
      499
 91
      590
 95
       25
 70
     0
 93
       13
310
5DD8
  0
ACAD_PROXY_OBJECT
  5
A7DF
330
A7DB
100
AcDbProxyObject
 90
      499
 91
      591
 95
       25
 70
     0
 93
       96
310
5DEA0E80A0280A0280A0280F
  0
ACAD_PROXY_OBJECT
  5
A7E0
330
A7DB
100
AcDbProxyObject
 90
      499
 91
      592
 95
       25
 70
     0
 93
      272
310
5DD0E4050140501405014050140501405014050140D01405012C0000000000000040
340
A7EA
 94
        0
  0
ACAD_PROXY_OBJECT
  5
A7E1
330
A7DB
100
AcDbProxyObject
 90
      499
 91
      593
 95
       25
 70
     0
 93
      497
310
5DE8666666666667A67E199999999999E99FD22405014050140501405014050140501405014050140501405014050140501405014050140501405014050100
340
A7EB
 94
        0
  0
ACAD_PROXY_OBJECT
  5
A7E2
330
A7DB
100
AcDbProxyObject
 90
      499
 91
      594
 95
       25
 70
     0
 93
       10
310
5DC0
  0
ACAD_PROXY_OBJECT
  5
A7E3
330
A7DB
100
AcDbProxyObject
 90
      499
 91
      595
 95
       25
 70
     0
 93
      257
310
5DE290EA22A7D90F49F80000000000001081400000000000004204010000618000
340
A7EC
340
A7ED
 94
        0
  0
ACAD_PROXY_OBJECT
  5
A7E4
330
A7DB
100
AcDbProxyObject
 90
      499
 91
      596
 95
       25
 70
     0
 93
    13013
310
5DD0E411255115350141236025B690140501406901000000000000091013347454E545241434F2C4A504E2C302C8D8096DA2C47454E54524154582C25732C2847454E4D53472067656E647767203232322940690120281A8AA2CA0282484A4BE52028120280A0320200000000000012202668E8A9CA8A482869E5894A09C58
310
605921292F94588E8A9CA8A482A8B0584AE658508E8A9C9AA68E40CECADCC8EECE406464665280D202405044E414D454050496BC914F4051C40640A80000000000004E404CD1D15395149050D3CB1294138B0C0B25AF2453CB11D15395149055160B095CCB0A11D1539354D1C819D95B991DD9C80C8C8D8A50192C3D494628
310
4953424C414E4B28504152543A4E414D45292C424C4F434B3A4E414D452C504152543A4E414D452940480A0A888AA686A480A09251B1DBE80A3A80C81D0000000000100A28099A3A2A72A2920A1A7962528271618164946C76F9623A2A72A2920AA2C1612B9961423A2A726A9A39033B2B7323BB39019189B94A0348090142
310
14D51053911054911014122D2E29A50147501904A000000000000125013347454E545241434F2C4A504E2C302C8B4B8A692C47454E54524154582C25732C2847454E4D53472067656E64776720323138294069012028426A0AA22A924A0A62028246EF4BDFA028EA0320B40000000000001CA02668E8A9CA8A482869E5894A
310
09C5860591BBD2F7E588E8A9CA8A482A8B0584AE658508E8A9C9AA68E40CECADCC8EECE406464625280D202405044E4F544540504928D8B4C4051D40641A80000000000003E404CD1D15395149050D3CB1294138B0C0B24A362D30B11D15395149055160B095CCB0A11D1539354D1C819D95B991DD9C80C8C8D4A501240480
310
A0CAC8A9C889EA480A1106F1072706BF02B680A3A80C83D00000000000007C809BA3A2A72A2920A1A79625282716181641BC41C9C1AFC0AD9623A2A72A2920AA2C1612B9961423A2A726A9A39033B2B7323BB39019191A14A0248090141911154D0D48C90141A43825AF880C90147501908A000000000020145013447454E5
310
45241434F2C4A504E2C302C90E096BE20322C47454E54524154582C25732C2847454E4D53472067656E6477672033362940490120284A9AA20A72220A922192028345A5C53490192028EA03213400000000000024A026A8E8A9CA8A482869E5894A09C586059169714D24064588E8A9CA8A482A8B0584AE658508E8A9C9AA6
310
8E40CECADCC8EECE4064646052809202405094D4154455249414C32405068DDE97BF20324051D40642A8713D0AD7A37045404D11D15395149050D3CB1294138B0C0B2377A5EFC80C8B11D15395149055160B095CCB0A11D1539354D1C819D95B991DD9C80D0C0A501240480A089A82A6A680A091D7F2F9480A3A80A0485A06
310
8100000000000007C809923A2A72A2920A1A796252827161816475FCBE51623A2A72A2920AA2C1612B9961423A2A726A9A39033B2B7323BB3901A1914A024809014154149250D150141226FE29A501475014090C409020000000000000F9013247454E545241434F2C4A504E2C302C89BF8A692C47454E54524154582C2573
310
2C2847454E4D53472067656E6477672034332940490120281A224A6A02824850CB202028EA028121A81A040000000000001F202648E8A9CA8A482869E5894A09C58605921432C80588E8A9CA8A482A8B0584AE658508E8A9C9AA68E40CECADCC8EECE406868528092024050E445020000000000000510201C00030C0001018
310
0000000000003E400000000000000F901073D3C4954454D3E4050180000000000003E400000000000000F901073D3C4954454D3E40501800000000000034400000000000000D101073D3C4954454D3E40501800000000000034400000000000000D101073D3C4954454D3E405029010000000000000F9000000000000003E4
310
041CF4F125511534F901418F4F1455164F9014060000000000000F9000000000000003E4041CF4F125511534F9014060000000000000D100000000000000344041CF4F125511534F901901000000000000000F9000000000000003E40A2200000000000008204018000618048220681A048120280C88214844882034852034
310
8452028521485214814000000000000F0BF0000000000003C2FD018020000C3008070000C3003373333333333B0FCCDCCCCCCCCCCEC3F000000000000031012034164050341105901A000000000000062040100006180401000061804008000618008098A02808
340
0
340
0
 94
        0
  0
ACAD_PROXY_OBJECT
  5
A7E5
330
A7DB
100
AcDbProxyObject
 90
      499
 91
      597
 95
       25
 70
     0
 93
      898
310
5DC4000000000000144048CF4F11115510525317D3105091530F880A0F11115510525317D05094D4D0D053114F8A51141C9A9999999999B93F26A666666666724FC000000000000E03F400000000000000400000000000000510000000000000024408070000C300000000000000051000
340
16
340
A7DD
 94
        0
  0
ACAD_PROXY_OBJECT
  5
A7E6
330
A7DB
100
AcDbProxyObject
 90
      499
 91
      598
 95
       25
 70
     0
 93
      823
310
5DC0B00000000000002880959E9E29A2A1AA24A7A72FA620A122A62FA324A929AA1F169E29A2A1AA24A7A72FA620A122A62FA620A9AA1F000000000000048803FFFE01C00030C0088C0380006180000000000000048800000000000000A2000000000000002880
340
652
340
A7DD
 94
        0
  0
ACAD_PROXY_OBJECT
  5
A7E7
330
A7DB
100
AcDbProxyObject
 90
      499
 91
      599
 95
       25
 70
     0
 93
      152
310
5DE80000000000000840A3D0A5723F0BD1F200
  0
ACAD_PROXY_OBJECT
  5
A7E8
330
A7DB
100
AcDbProxyObject
 90
      499
 91
      600
 95
       25
 70
     0
 93
       14
310
5DE0
340
0
 94
        0
  0
ACAD_PROXY_OBJECT
  5
A7E9
330
A7DB
100
AcDbProxyObject
 90
      499
 91
      601
 95
       25
 70
     0
 93
     8619
310
5DD084050BA4050AA405024050E836583938376838C815B836720314043A013D2525633C486F6C653A63746469613E2078203C486F6C653A637464657074683E20555C503C696628657175616C28486F6C653A7461707065642C223022292C22252563222C486F6C653A6E6F6D696E616C202220782022293E3C6966286571
310
75616C28486F6C653A7461707065642C223022292C486F6C653A6469612C486F6C653A706974636864657363293E3C696628657175616C28486F6C653A7461707065642C223122292C22207820222C2222293E3C696628657175616C28486F6C653A7461707065642C223122292C486F6C653A74617064657074682C222229
310
3E203C696628657175616C28486F6C653A7465726D696E6174696F6E2C223022292C22202F20222C2222293E3C696628657175616C28486F6C653A7465726D696E6174696F6E2C223022292C486F6C653A64657074682C2222293E406901405034050E836583938376838C815B836720314043B013D2525633C486F6C653A6
310
3746469613E2078203C486F6C653A6374616E676C653E2525645C503C696628657175616C28486F6C653A7461707065642C223022292C22252563222C486F6C653A6E6F6D696E616C202220782022293E3C696628657175616C28486F6C653A7461707065642C223022292C486F6C653A6469612C486F6C653A70697463686
310
4657363293E3C696628657175616C28486F6C653A7461707065642C223122292C22207820222C2222293E3C696628657175616C28486F6C653A7461707065642C223122292C486F6C653A74617064657074682C2222293E203C696628657175616C28486F6C653A7465726D696E6174696F6E2C223022292C22202F20222C2
310
222293E3C696628657175616C28486F6C653A7465726D696E6174696F6E2C223022292C486F6C653A64657074682C2222293E406901405014050E836583938376838C815B8367203140416013D3C696628657175616C28486F6C653A7461707065642C223022292C22252563222C486F6C653A6E6F6D696E616C2022207820
310
22293E3C696628657175616C28486F6C653A7461707065642C223022292C486F6C653A6469612C486F6C653A706974636864657363293E3C696628657175616C28486F6C653A7461707065642C223122292C22207820222C2222293E3C696628657175616C28486F6C653A7461707065642C223122292C486F6C653A746170
310
64657074682C2222293E203C696628657175616C28486F6C653A7465726D696E6174696F6E2C223022292C22202F20222C2222293E3C696628657175616C28486F6C653A7465726D696E6174696F6E2C223022292C486F6C653A64657074682C2222293E4069014051E4090E836583938376838C815B83672032405173D3C5
310
35444503A444553433E203C535444503A5354443E40690E836583938376838C815B836720314050C3D3C535444503A444553433E40690240515AAABBA120
360
A7F2
330
A7F2
360
A7F3
330
A7F3
360
A7F1
330
A7F1
360
A7F0
360
A7EF
330
A7F0
330
A7EF
 94
        0
  0
ACAD_PROXY_OBJECT
  5
A7F4
330
A7DB
100
AcDbProxyObject
 90
      499
 91
      542
 95
       25
 70
     0
 93
    17870
310
5DD02491013041105357CC201C00030C0132441013141105357CC603800030C0132441013241105357CCA01400030C0132441013341105357CCE01800030C01199013441105357CD200C00030C01199013541105357CD600C00030C01199013641105357CDA00800030C01239013741105357CDE01000030C0119901384110
310
5357CE200400030C01199013941105357CE63F400030C0241102324141505357CC4C201C00030C0132902344141505357CC4C600C00030C0119902495041505357CC4CA01C00030C013240902304E41505357CC13A01C00030C0132902314E41505357CC53A03800030C0132902324E41505357CC93A01400030C013290233
310
4E41505357CCD3A01800030C0119902344E41505357CD13A00C00030C0119902354E41505357CD53A00C00030C0119902364E41505357CD93A00800030C0123902374E41505357CDD3A01000030C0119902384E41505357CE13A00400030C0119902394E41505357CE53A3F400030C024110332414E41905357CC4C13A01C0
310
0030C013290334414E41905357CC4C53A00C00030C011990349504E41905357CC4C93A01C00030C0132409044B4C494E41505357D0D3200400030C011942504494E464F42105357D410549151A01000030C011942D055241484D3541905357D093D4A01C00030C0132425045649455742105357D5925155D4E00400030C011
310
942D06424548494E4441905357D25395A3F400030C0243505545241494C41505357D514A00C00030C01194250348494441905357D21251201C00030C01194250356495341905357D59254E01C00030C01324250650415244494D42505357D41054911253600C00030C01194250652454644494D42505357D49151911253601
310
000030C0119425534110921395901398000000C0003FFFFFFFE415092139594D06424548494E448000000C0003FFFFFFFE411093D48C9055241484D358010000C300466411093D48CD055241484D358020000C30048E411093D48D5055241484D358000000C0003FFFFFFFE4110D0530C901348000000C0003FFFFFFFE4110
310
D0530CD01348020000C30048E4110D0530D501348070000C3004CA4110D0530DD013481E0000C30051A4110D15393901378000000C0003FFFFFFFE4110D15395D01378000000C0003FFFFFFFE4110D312539044B4C494E8000000C0003FFFFFFFE4110D3D38C501308000000C0003FFFFFFFD034110D3D38C901318000000C
310
0003FFFFFFFD034110D3D38CD01328000000C0003FFFFFFFD034110D3D38D101328000000C0003FFFFFFFD034111115510501348000000C0003FFFFFFFE4111125051D01358000000C0003FFFFFFFE4111125312501358000000C0003FFFFFFFE411112535410650415244494D8000000C0003FFFFFFFE4111125354906524
310
54644494D8000000C0003FFFFFFFE4111915353901388000000C0003FFFFFFFE415191535413901388030000C3003FFFFFFFE4151915354D410234418000000C0003FFFFFFFE4151915354D510234418030000C300466415191535593901328000000C0003FFFFFFFE415191535595101328030000C3004664112105510D01
310
388000000C0003FFFFFFFD014112125113901338000000C0003FFFFFFFD034112125115D01338000000C0003FFFFFFFD034112131253901348000000C0003FFFFFFFD01411213D0D3901378000000C0003FFFFFFFE411213D0D5D01378000000C0003FFFFFFFE4112539193D04494E464F8000000C0003FFFFFFFE41131150
310
51101358000000C0003FFFFFFFE419397D0921395902394E8000000C0003FFFFFFFE419397D0D3D38C502304E8000000C0003FFFFFFFD03419397D0D3D38C902314E8000000C0003FFFFFFFD03419397D0D3D38CD02324E8000000C0003FFFFFFFD03419397D0D3D38D102324E8000000C0003FFFFFFFD03419397D0D15393
310
902374E8000000C0003FFFFFFFE419397D0D15395D02374E8000000C0003FFFFFFFE419397D1125312502354E8000000C0003FFFFFFFE419397D2105510D02384E8000000C0003FFFFFFFD01419397D2125113902334E8000000C0003FFFFFFFD03419397D2125115D02334E8000000C0003FFFFFFFD03419397D311505110
310
2354E8000000C0003FFFFFFFE419397D391D25410349504E8000000C0003FFFFFFFE419397D412105390334414E8000000C0003FFFFFFFE419397D510D3D3902304E8000000C0003FFFFFFFD03419397D5121312502344E8000000C0003FFFFFFFD01419397D5131153902304E8000000C0003FFFFFFFD03419397D5941312
310
50332414E8000000C0003FFFFFFFE411391D25410249508000000C0003FFFFFFFE411410530C9055241484D358010000C300466411410530CD055241484D358020000C30048E411410530D5055241484D358000000C0003FFFFFFFE411412105390234418000000C0003FFFFFFFE411413D4D3901358000000C0003FFFFFFF
310
E411490D1D3901378000000C0003FFFFFFFE411490D1D5D01378000000C0003FFFFFFFE4114D09492D01348000000C0003FFFFFFFD014114D150D5101348000000C0003FFFFFFFD014114D6508CD01358020000C30048E411354D653501358020000C30048E411510D3D3901308000000C0003FFFFFFFD0341151213125013
310
48000000C0003FFFFFFFD01411512550C9055241484D358010000C300466411512550CD055241484D358020000C30048E411512550D5055241484D358000000C0003FFFFFFFE4115131153901308000000C0003FFFFFFFD03415514905253105545241494C8000000C0003FFFFFFFE4115149312501348000000C0003FFFFF
310
FFD01411516150C501368030000C300466411516150C901368030000C300466411516150CD01368000000C0003FFFFFFFE411516150D501368070000C3004CA411516150DD013681E0000C30051A4115925155D04564945578000000C0003FFFFFFFE41159151121034849448000000C0003FFFFFFFD024115915115903564
310
9538000000C0003FFFFFFFD02411594131250232418000000C0003FFFFFFFE4116925690501348000000C0003FFFFFFFD01429014650248D0346504465054C906465074C90E4C91E519FD8
340
A7DC
340
16
340
16
340
16
340
43
340
16
340
16
340
16
340
44
340
16
340
16
340
44
340
45
340
16
340
16
340
16
340
16
340
43
340
16
340
16
340
16
340
44
340
16
340
16
340
44
340
45
340
16
340
46
340
16
340
16
340
16
340
16
340
16
340
43
340
16
340
16
340
16
340
15
340
15
340
15
340
15
340
15
340
15
340
15
340
15
340
15
340
48
340
15
340
15
340
15
340
15
340
15
340
15
340
15
340
15
340
15
340
15
340
15
340
15
340
15
340
16
340
15
340
15
340
15
340
15
340
47
340
15
340
15
340
48
340
15
340
15
340
15
340
15
340
15
340
15
340
15
340
15
340
48
340
15
340
15
340
15
340
47
340
15
340
15
340
15
340
15
340
15
340
15
340
15
340
15
340
15
340
15
340
15
340
15
340
15
340
15
340
48
340
15
340
15
340
15
340
15
340
15
340
15
340
15
340
15
340
15
340
15
340
15
340
15
340
15
340
15
340
15
340
15
340
15
340
15
340
15
340
15
340
15
340
15
340
4B
 94
        0
  0
ACAD_PROXY_OBJECT
  5
A7F5
330
A7DB
100
AcDbProxyObject
 90
      499
 91
      543
 95
       25
 70
     0
 93
      250
310
5DD020000000000000A1000000000000002440408F0F9023C3E409A0DCFFFF80
340
A7F6
340
0
340
0
340
A7F7
340
A7F8
340
A7F9
340
A7FA
340
A7FB
340
A7FC
340
0
 94
        0
  0
ACAD_PROXY_OBJECT
  5
A7FD
330
A7DB
100
AcDbProxyObject
 90
      499
 91
      603
 95
       25
 70
     0
 93
    13889
310
5DD1D003FFFFFFFD030300030000000000000310200800030C01030300030000000000000310200800030C00050C8DC0955782CC838A83588367014ED1D15395149050D3CB1294138B0C0B23702555E0B320E2A0D620D9CB11D15395149055160B095CCB0A11D1539354D1C819D95B991A5B5E880CCC0A78000C0000000000
310
00000000000000000000010000000000000310200800030C010000000000000310200800030C020143CF4F111959985D5B1D151A5D1B194F8050A8C8A8365815B8375838B014E51D15395149050D3CB1294138B0C0B2322A0D96056E0DD60E2CB11D15395149055160B095CCB0A11D1539354D1C819D95B991A5B5E880CCC4
310
A78000C000000000000000000000000000000010000000000000310200800030C010000000000000310200800030C020143CF4F111959985D5B1D151A5D1B194F90D44111409034110541D0C4350F4050E44D03449074510F000141232D24D7C053247454E545241434F2C4A504E2C302C8CB4935F2C47454E54524154582C
310
25732C2847454E4D53472067656E64696D7A20312900010104002214000281464500A608E8A9CA8A482869E5894A09C5860591914588E8A9CA8A482A8B0584AE658508E8A9C9AA68E40CECADCC8D2DAF4406452029E9E9E27B934B3B4B71F1E24A31427A91424A9A12620A7259427B934B3B4B7149624A9A12620A7259424B
310
A32B6949496111116111711149F1E24BA32B69F00808200111A000140560052F47454E545241434F2C4A504E2C302C582C47454E54524154582C25732C2847454E4D53472067656E64696D7A20332900010100002054000280AC80A5E8E8A9CA8A482869E5894A09C586058B2588E8A9CA8A482A8B0584AE658508E8A9C9AA
310
68E40CECADCC8D2DAF4406852000202000040E800050152014BD1D15395149050D3CB1294138B0C0B148B11D15395149055160B095CCB0A11D1539354D1C819D95B991A5B5E880D8A400040400008250000A0507A6029823A2A72A2920A1A79625282716181641E99623A2A72A2920AA2C1612B9961423A2A726A9A39033B2
310
B73234B6BD101B948000808180105A000140A0F4C053047454E545241434F2C4A504E2C302C83D32C47454E54524154582C25732C2847454E4D53472067656E64696D7A203829000101010020F400028248704B5F00A668E8A9CA8A482869E5894A09C58605921C12D7C588E8A9CA8A482A8B0584AE658508E8A9C9AA68E40
310
CECADCC8D2DAF440646052000200080043280005048B4B8A69014CD1D15395149050D3CB1294138B0C0B22D2E29A4B11D15395149055160B095CCB0A11D1539354D1C819D95B991A5B5E880C8C4A4000400100086D0000A09196926BE029923A2A72A2920A1A796252827161816465A49AF9623A2A72A2920AA2C1612B9961
310
423A2A726A9A39033B2B73234B6BD10189480A02620202080043E80005048D8096DA014CD1D15395149050D3CB1294138B0C0B236025B68B11D15395149055160B095CCB0A11D1539354D1C819D95B991A5B5E880C4D0A4000404140280D0000A190687072706CD06C5069D06B0029DA3A2A72A2920A1A7962528271618164
310
1A1C1C9C1B341B141A741AC1623A2A72A2920AA2C1612B9961423A2A726A9A39033B2B73234B6BD10189A94800080828050EA000143A322A0D0E0E4E0D9A0D8A0D3A0D60053D47454E545241434F2C4A504E2C302C8C8A8343839383668362834E83582C47454E54524154582C25732C2847454E4D53472067656E64696D7A
310
2031372900010105002274000281464500A628E8A9CA8A482869E5894A09C5860591914588E8A9CA8A482A8B0584AE658508E8A9C9AA68E40CECADCC8D2DAF440626C52000202080044A8000504909497CA014CD1D15395149050D3CB1294138B0C0B242525F28B11D15395149055160B095CCB0A11D1539354D1C819D95B9
310
91A5B5E880C4E4A400040418008A521E000000000000001CA040C00000000000034408080000000000006881010000000000000D102040000000000001A204080000000000003440818000000000000728103000000000000125020600000000004028A040000000000000034408000000000000004881000000000000000D
310
102000000000000001A204000000000000003440818000000000000508143C0000000000000039408180000000000006881030000000000000D102060000000000001A2040C00000000000034408180000000000006881030000000000000E5020600000000000024A040C0000000000805140800000000000000688100000
310
00000000009102000000000000001A2040000000000000034408180000000000006881030000000000000A10284220000000878000002020000008380000020400000081800000208000000828000002028900000000
340
0
340
0
340
0
340
0
340
A7DD
340
A7DD
 94
        0
  0
ACAD_PROXY_OBJECT
  5
A7FE
330
A7DB
100
AcDbProxyObject
 90
      499
 91
      537
 95
       25
 70
     0
 93
     7018
310
5DD9740D254D3D0649534F5F4133429254D3D7D5125513115051349534F5F42525F5265766973696F6E6C69737446111413478342028323937783834316D6D2920421254D3D7D04D1E0D11141327835202835393478323130326D6D29421254D3D7D04C9E0D51141347839202832393778313839326D6D29421254D3D7D04D
310
1E0E51141337837202834323078323038306D6D29421254D3D7D04CDE0DD1141347838202832393778313638326D6D29421254D3D7D04D1E0E11141327834202835393478313638326D6D29421254D3D7D04C9E0D10E41312028353934783834316D6D29419254D3D7D04C51141347837202832393778313437316D6D29421
310
254D3D7D04D1E0DD1141347836202832393778313236316D6D29421254D3D7D04D1E0D91141347835202832393778313035316D6D29421254D3D7D04D1E0D5104130202838343078313138396D6D2920419254D3D7D04C10E41332028323937783432306D6D29419254D3D7D04CD1141327833202835393478313236316D6D
310
29421254D3D7D04C9E0CD10413478332028323937783633306D6D29421254D3D7D04D1E0CD1141337834202834323078313138396D6D29421254D3D7D04CDE0D11141337836202834323078313738336D6D29421254D3D7D04CDE0D91141337835202834323078313438366D6D29421254D3D7D04CDE0D50E4132202834323
310
0783539346D6D29419254D3D7D04C910413378332028343230783839316D6D29421254D3D7D04CDE0CD0E41342028323937783231306D6D29419254D3D7D04D1124130783220283131383978313638326D6D29421254D3D7D04C1E0C9124130783320283131383978323532336D6D29421254D3D7D04C1E0CD114131783420
310
2838343178323337386D6D29421254D3D7D04C5E0D11141317833202838343178313738336D6D29421254D3D7D04C5E0CD02431254D3C82557247A25E4C81050A49534F5F5449544C4541431254D3C82557247A25E4C81090A49534F5F5449544C45424110E979A97F0838A835883675F42525F44D254D3D7D09497D4995D9
310
A5CDA5BDB9B1A5CDD10E979A97F0838A835883675F54525F44D254D3D7D51497D4995D9A5CDA5BDB9B1A5CDD10E979A97F0838A835883675F424C5F44D254D3D7D09317D4995D9A5CDA5BDB9B1A5CDD10E979A97F0838A835883675F544C5F44D254D3D7D51317D4995D9A5CDA5BDB9B1A5CDD00
  0
ACAD_PROXY_OBJECT
  5
AAE4
330
AAE3
100
AcDbProxyObject
 90
      499
 91
      527
 95
       25
 70
     0
 93
       86
310
5DEA0C80A0280A0280A034
  0
ACAD_PROXY_OBJECT
  5
AAE5
330
AAE3
100
AcDbProxyObject
 90
      499
 91
      528
 95
       25
 70
     0
 93
      282
310
5DD0E4050140501405014050140501405014050141101405014041000000000000001000
340
187
 94
        0
  0
ACAD_PROXY_OBJECT
  5
AAE6
330
AAE3
100
AcDbProxyObject
 90
      499
 91
      529
 95
       25
 70
     0
 93
      323
310
5DCC199999999999E99F91740501405014050140501405014050140501405014050140501405014040
340
0
 94
        0
  0
ACAD_PROXY_OBJECT
  5
AAE7
330
AAE3
100
AcDbProxyObject
 90
      499
 91
      530
 95
       25
 70
     0
 93
       10
310
5DC0
  0
ACAD_PROXY_OBJECT
  5
AAE8
330
AAE3
100
AcDbProxyObject
 90
      499
 91
      531
 95
       25
 70
     0
 93
      257
310
5DE0C16A22A7D90F49F80000000000001081400000000000004204010000618000
340
188
340
189
 94
        0
  0
ACAD_PROXY_OBJECT
  5
AAE9
330
AAE3
100
AcDbProxyObject
 90
      499
 91
      532
 95
       25
 70
     0
 93
     5277
310
5DD06411255115350141236025B6901405014069010000000000000910240690120281A8AA2CA0282484A4BE52028120280A032020000000000001220480D202405044E414D454050496BC914F4051C40640A80000000000004E4090193C3D3C4946284953424C414E4B28504152543A4E414D45292C424C4F434B3A4E414D
310
452C504152543A4E414D45293E3C41435F44455343524950544E3E40480A109A82A88AA492829880A091BBD2F7E80A3A80C81D0E27A15AF46E08A81203480901411393D5115014124A363B7D0147501904A0000000000000F902406428F4F1050D7D393D5114F901202832B22A72227A92028366EF6EE06F582028EA0320B4
310
0000000000001F20480C879E9E20A1AFAB27222FA620A122A61F20240506445020000000000000490201C00030C00010180000000000003E400000000000000F901073D3C4954454D3E4050180000000000003E400000000000000F901073D3C4954454D3E40501800000000000034400000000000000D101073D3C4954454
310
D3E40501800000000000034400000000000000D101073D3C4954454D3E405029010000000000000F9000000000000003E4041CF4F125511534F901418F4F1455164F9014060000000000000F9000000000000003E4041CF4F125511534F901800000000000034400000000000000D101073D3C4954454D3E40640400000000
310
0000003E400000000000000F90288800000000000020810000001800120881A068120480A032208521122080D21480D211480A1485214852050000000000003C2FC000000000000F0BF40600800030C0200400030C00CDCCCCCCCCCCEC3F3373333333333B0FC3333333333330940C80D069014090341504901A1999999999
310
9984A040100006180400800061804010000618008098A02808
340
0
340
0
 94
        0
  0
ACAD_PROXY_OBJECT
  5
AAEA
330
AAE3
100
AcDbProxyObject
 90
      499
 91
      537
 95
       25
 70
     0
 93
     3042
310
5DD9740D29254D064A49535F413342929254D7D512551311505134A49535F42525F5265766973696F6E6C6973744190F4134522028323937783231306D6D2941D29254D7D04D1490E41312028353934783834316D6D2941929254D7D04C50F41344C2028323130783239376D6D2941D29254D7D04D1310E413320283239377
310
83432306D6D2941929254D7D04CD0E41322028343230783539346D6D2941929254D7D04C90F4130202838343178313138396D6D2941929254D7D04C10243129254C82557247A25E4C81050A4A49535F5449544C454143129254C82557247A25E4C81090A4A49535F5449544C45424110E979A97F0838A835883675F42525F4
310
4D29254D7D09497D4995D9A5CDA5BDB9B1A5CDD10E979A97F0838A835883675F54525F44D29254D7D51497D4995D9A5CDA5BDB9B1A5CDD10E979A97F0838A835883675F424C5F44D29254D7D09317D4995D9A5CDA5BDB9B1A5CDD10E979A97F0838A835883675F544C5F44D29254D7D51317D4995D9A5CDA5BDB9B1A5CDD00
  0
ACAD_PROXY_OBJECT
  5
AAEB
330
AAE3
100
AcDbProxyObject
 90
      499
 91
      538
 95
       25
 70
     0
 93
      898
310
5DC4000000000000124048CF4F11115510525317D3105091530F880A0F11115510525317D05094D4D0D053114F8A50241C9A9999999999B93F26A666666666724FC000000000000E03F400000000000000400000000000000510000000000000024408070000C300000000000000049000
340
16
340
180
 94
        0
  0
ACAD_PROXY_OBJECT
  5
AAEC
330
AAE3
100
AcDbProxyObject
 90
      499
 91
      539
 95
       25
 70
     0
 93
      823
310
5DC0B00000000000002480959E9E29A2A1AA24A7A72FA620A122A62FA324A929AA1F169E29A2A1AA24A7A72FA620A122A62FA620A9AA1F000000000000048803FFFE01C00030C008140380006180000000000000048800000000000000A2000000000000002480
340
652
340
180
 94
        0
  0
ACAD_PROXY_OBJECT
  5
AAED
330
AAE3
100
AcDbProxyObject
 90
      499
 91
      540
 95
       25
 70
     0
 93
      152
310
5DE8273108AC1C5A0640A3D0A5723F0BD1F200
  0
ACAD_PROXY_OBJECT
  5
AAEE
330
AAE3
100
AcDbProxyObject
 90
      499
 91
      605
 95
       25
 70
     0
 93
       14
310
5DE0
340
0
 94
        0
  0
ACAD_PROXY_OBJECT
  5
AAEF
330
AAE3
100
AcDbProxyObject
 90
      499
 91
      541
 95
       25
 70
     0
 93
     6059
310
5DD084050BA4050AA405024050E836583938376838C815B83672031405983D3C486F6C653A6469613E3C696628657175616C28486F6C653A7465726D696E6174696F6E2C223022292C2220905B82B320222C22208368838A838B22293E3C696628657175616C28486F6C653A7465726D696E6174696F6E2C223022292C486F
310
6C653A64657074682C2222293E2C203C486F6C653A63746469613E2082B482AE82E882CC905B82B3203C486F6C653A637464657074683E406901405034050E836583938376838C815B83672031405EF3D3C486F6C653A6374616E676C653E252564202525633C486F6C653A63746469613E208E4D8C8A2C203C69662865717
310
5616C28486F6C653A7461707065642C223022292C22252563222C486F6C653A6E6F6D696E616C202220782022293E3C696628657175616C28486F6C653A7461707065642C223022292C486F6C653A6469612C486F6C653A706974636864657363293E203C696628657175616C28486F6C653A7465726D696E6174696F6E2C2
310
23022292C22905B82B320222C222022293E3C696628657175616C28486F6C653A7465726D696E6174696F6E2C223022292C486F6C653A64657074682C2222293E406901405014050E836583938376838C815B83672031405C73D3C696628657175616C28486F6C653A7461707065642C223022292C22252563222C486F6C65
310
3A6E6F6D696E616C202220782022293E3C696628657175616C28486F6C653A7461707065642C223022292C486F6C653A6469612C486F6C653A706974636864657363293E203C696628657175616C28486F6C653A7465726D696E6174696F6E2C223022292C22905B82B320222C222022293E3C696628657175616C28486F6C
310
653A7465726D696E6174696F6E2C223022292C486F6C653A64657074682C2222293E4069014051E4090E836583938376838C815B83672032405173D3C535444503A444553433E203C535444503A5354443E40690E836583938376838C815B836720314050C3D3C535444503A444553433E40690240515AAABBA120
360
AAF0
330
AAF0
360
AAF1
330
AAF1
360
AAF2
330
AAF2
360
AAF3
360
AAF4
330
AAF3
330
AAF4
 94
        0
  0
ACAD_PROXY_OBJECT
  5
AAF5
330
AAE3
100
AcDbProxyObject
 90
      499
 91
      542
 95
       25
 70
     0
 93
       26
310
5DD02A80
340
0
 94
        0
  0
ACAD_PROXY_OBJECT
  5
AAF6
330
AAE3
100
AcDbProxyObject
 90
      499
 91
      543
 95
       25
 70
     0
 93
      250
310
5DD020000000000000A1000000000000002440408F0F9023C3E409A0DCFFFF80
340
58
340
1899
340
189A
340
5F
340
60
340
61
340
62
340
63
340
68
340
0
 94
        0
  0
ACAD_PROXY_OBJECT
  5
AAF7
330
AAE3
100
AcDbProxyObject
 90
      499
 91
      606
 95
       25
 70
     0
 93
    13889
310
5DD1D003FFFFFFFD030300030CCCCCCCCCCCC250200800030C01030300030CCCCCCCCCCCC250200800030C00050C8DC0955782CC838A83588367014ED1D15395149050D3CB1294138B0C0B23702555E0B320E2A0D620D9CB11D15395149055160B095CCB0A11D1539354D1C819D95B991A5B5E880CCC0A78000C0000000000
310
00000000000000000000010CCCCCCCCCCCC250200800030C010CCCCCCCCCCCC250200800030C020143CF4F111959985D5B1D151A5D1B194F8050A8C8A8365815B8375838B014E51D15395149050D3CB1294138B0C0B2322A0D96056E0DD60E2CB11D15395149055160B095CCB0A11D1539354D1C819D95B991A5B5E880CCC4
310
A78000C000000000000000000000000000000010CCCCCCCCCCCC250200800030C010CCCCCCCCCCCC250200800030C020143CF4F111959985D5B1D151A5D1B194F90D44111409034110541D0C4350F4050E44D03449074510F000141232D24D7C053247454E545241434F2C4A504E2C302C8CB4935F2C47454E54524154582C
310
25732C2847454E4D53472067656E64696D7A20312900010104002214000281464500A608E8A9CA8A482869E5894A09C5860591914588E8A9CA8A482A8B0584AE658508E8A9C9AA68E40CECADCC8D2DAF4406452029E9E9E27B934B3B4B71F1E24A31427A91424A9A12620A7259427B934B3B4B7149624A9A12620A7259424B
310
A32B6949496111116111711149F1E24BA32B69F00808200111A000140560052F47454E545241434F2C4A504E2C302C582C47454E54524154582C25732C2847454E4D53472067656E64696D7A20332900010100002054000280AC80A5E8E8A9CA8A482869E5894A09C586058B2588E8A9CA8A482A8B0584AE658508E8A9C9AA
310
68E40CECADCC8D2DAF4406852000202000040E800050152014BD1D15395149050D3CB1294138B0C0B148B11D15395149055160B095CCB0A11D1539354D1C819D95B991A5B5E880D8A400040400008250000A0507A6029823A2A72A2920A1A79625282716181641E99623A2A72A2920AA2C1612B9961423A2A726A9A39033B2
310
B73234B6BD101B948000808180105A000140A0F4C053047454E545241434F2C4A504E2C302C83D32C47454E54524154582C25732C2847454E4D53472067656E64696D7A203829000101010020F400028248704B5F00A668E8A9CA8A482869E5894A09C58605921C12D7C588E8A9CA8A482A8B0584AE658508E8A9C9AA68E40
310
CECADCC8D2DAF440646052000200080043280005048B4B8A69014CD1D15395149050D3CB1294138B0C0B22D2E29A4B11D15395149055160B095CCB0A11D1539354D1C819D95B991A5B5E880C8C4A4000400100086D0000A09196926BE029923A2A72A2920A1A796252827161816465A49AF9623A2A72A2920AA2C1612B9961
310
423A2A726A9A39033B2B73234B6BD10189480A02620202080043E80005048D8096DA014CD1D15395149050D3CB1294138B0C0B236025B68B11D15395149055160B095CCB0A11D1539354D1C819D95B991A5B5E880C4D0A4000404140280D0000A190687072706CD06C5069D06B0029DA3A2A72A2920A1A7962528271618164
310
1A1C1C9C1B341B141A741AC1623A2A72A2920AA2C1612B9961423A2A726A9A39033B2B73234B6BD10189A94800080820050EA000143A322A0D0E0E4E0D9A0D8A0D3A0D60053D47454E545241434F2C4A504E2C302C8C8A8343839383668362834E83582C47454E54524154582C25732C2847454E4D53472067656E64696D7A
310
2031372900010105002274000281464500A628E8A9CA8A482869E5894A09C5860591914588E8A9CA8A482A8B0584AE658508E8A9C9AA68E40CECADCC8D2DAF440626C52000202080044A8000504909497CA014CD1D15395149050D3CB1294138B0C0B242525F28B11D15395149055160B095CCB0A11D1539354D1C819D95B9
310
91A5B5E880C4E4A400040418008A521E000000000000001CA040C00000000000034408080000000000006881010000000000000D102040000000000001A204080000000000003440818000000000000728103000000000000125020600000000004028A040000000000000034408000000000000004881000000000000000D
310
102000000000000001A204000000000000003440818000000000000508143C0000000000000039408180000000000006881030000000000000D102060000000000001A2040C00000000000034408180000000000006881030000000000000E5020600000000000024A040C0000000000805140800000000000000688100000
310
00000000009102000000000000001A2040000000000000034408180000000000006881030000000000000A10284220000000878000002020000008380000020400000081800000208000000828000002028900000000
340
0
340
0
340
0
340
0
340
180
340
180
 94
        0
  0
ACAD_PROXY_OBJECT
  5
A7F2
330
A7E9
100
AcDbProxyObject
 90
      499
 91
      602
 95
       25
 70
     0
 93
     2680
310
5DE0143A0D960E4E0DDA0E32056E0D9C80C4043A013D2525633C486F6C653A63746469613E2078203C486F6C653A637464657074683E20555C503C696628657175616C28486F6C653A7461707065642C223022292C22252563222C486F6C653A6E6F6D696E616C202220782022293E3C696628657175616C28486F6C653A74
310
61707065642C223022292C486F6C653A6469612C486F6C653A706974636864657363293E3C696628657175616C28486F6C653A7461707065642C223122292C22207820222C2222293E3C696628657175616C28486F6C653A7461707065642C223122292C486F6C653A74617064657074682C2222293E203C69662865717561
310
6C28486F6C653A7465726D696E6174696F6E2C223022292C22202F20222C2222293E3C696628657175616C28486F6C653A7465726D696E6174696F6E2C223022292C486F6C653A64657074682C2222293E
  0
ACAD_PROXY_OBJECT
  5
A7F3
330
A7E9
100
AcDbProxyObject
 90
      499
 91
      602
 95
       25
 70
     0
 93
     2688
310
5DE0143A0D960E4E0DDA0E32056E0D9C80C4043B013D2525633C486F6C653A63746469613E2078203C486F6C653A6374616E676C653E2525645C503C696628657175616C28486F6C653A7461707065642C223022292C22252563222C486F6C653A6E6F6D696E616C202220782022293E3C696628657175616C28486F6C653A
310
7461707065642C223022292C486F6C653A6469612C486F6C653A706974636864657363293E3C696628657175616C28486F6C653A7461707065642C223122292C22207820222C2222293E3C696628657175616C28486F6C653A7461707065642C223122292C486F6C653A74617064657074682C2222293E203C696628657175
310
616C28486F6C653A7465726D696E6174696F6E2C223022292C22202F20222C2222293E3C696628657175616C28486F6C653A7465726D696E6174696F6E2C223022292C486F6C653A64657074682C2222293E
  0
ACAD_PROXY_OBJECT
  5
A7F1
330
A7E9
100
AcDbProxyObject
 90
      499
 91
      602
 95
       25
 70
     0
 93
     2392
310
5DE0143A0D960E4E0DDA0E32056E0D9C80C40416013D3C696628657175616C28486F6C653A7461707065642C223022292C22252563222C486F6C653A6E6F6D696E616C202220782022293E3C696628657175616C28486F6C653A7461707065642C223022292C486F6C653A6469612C486F6C653A706974636864657363293E
310
3C696628657175616C28486F6C653A7461707065642C223122292C22207820222C2222293E3C696628657175616C28486F6C653A7461707065642C223122292C486F6C653A74617064657074682C2222293E203C696628657175616C28486F6C653A7465726D696E6174696F6E2C223022292C22202F20222C2222293E3C69
310
6628657175616C28486F6C653A7465726D696E6174696F6E2C223022292C486F6C653A64657074682C2222293E
  0
ACAD_PROXY_OBJECT
  5
A7F0
330
A7E9
100
AcDbProxyObject
 90
      499
 91
      602
 95
       25
 70
     0
 93
      344
310
5DE0143A0D960E4E0DDA0E32056E0D9C80C805173D3C535444503A444553433E203C535444503A5354443E
  0
ACAD_PROXY_OBJECT
  5
A7EF
330
A7E9
100
AcDbProxyObject
 90
      499
 91
      602
 95
       25
 70
     0
 93
      256
310
5DE0143A0D960E4E0DDA0E32056E0D9C80C4050C3D3C535444503A444553433E
  0
ACAD_PROXY_OBJECT
  5
AAF0
330
AAEF
100
AcDbProxyObject
 90
      499
 91
      602
 95
       25
 70
     0
 93
     1376
310
5DE0143A0D960E4E0DDA0E32056E0D9C80C405983D3C486F6C653A6469613E3C696628657175616C28486F6C653A7465726D696E6174696F6E2C223022292C2220905B82B320222C22208368838A838B22293E3C696628657175616C28486F6C653A7465726D696E6174696F6E2C223022292C486F6C653A64657074682C22
310
22293E2C203C486F6C653A63746469613E2082B482AE82E882CC905B82B3203C486F6C653A637464657074683E
  0
ACAD_PROXY_OBJECT
  5
AAF1
330
AAEF
100
AcDbProxyObject
 90
      499
 91
      602
 95
       25
 70
     0
 93
     2072
310
5DE0143A0D960E4E0DDA0E32056E0D9C80C405EF3D3C486F6C653A6374616E676C653E252564202525633C486F6C653A63746469613E208E4D8C8A2C203C696628657175616C28486F6C653A7461707065642C223022292C22252563222C486F6C653A6E6F6D696E616C202220782022293E3C696628657175616C28486F6C
310
653A7461707065642C223022292C486F6C653A6469612C486F6C653A706974636864657363293E203C696628657175616C28486F6C653A7465726D696E6174696F6E2C223022292C22905B82B320222C222022293E3C696628657175616C28486F6C653A7465726D696E6174696F6E2C223022292C486F6C653A6465707468
310
2C2222293E
  0
ACAD_PROXY_OBJECT
  5
AAF2
330
AAEF
100
AcDbProxyObject
 90
      499
 91
      602
 95
       25
 70
     0
 93
     1752
310
5DE0143A0D960E4E0DDA0E32056E0D9C80C405C73D3C696628657175616C28486F6C653A7461707065642C223022292C22252563222C486F6C653A6E6F6D696E616C202220782022293E3C696628657175616C28486F6C653A7461707065642C223022292C486F6C653A6469612C486F6C653A706974636864657363293E20
310
3C696628657175616C28486F6C653A7465726D696E6174696F6E2C223022292C22905B82B320222C222022293E3C696628657175616C28486F6C653A7465726D696E6174696F6E2C223022292C486F6C653A64657074682C2222293E
  0
ACAD_PROXY_OBJECT
  5
AAF3
330
AAEF
100
AcDbProxyObject
 90
      499
 91
      602
 95
       25
 70
     0
 93
      344
310
5DE0143A0D960E4E0DDA0E32056E0D9C80C805173D3C535444503A444553433E203C535444503A5354443E
  0
ACAD_PROXY_OBJECT
  5
AAF4
330
AAEF
100
AcDbProxyObject
 90
      499
 91
      602
 95
       25
 70
     0
 93
      256
310
5DE0143A0D960E4E0DDA0E32056E0D9C80C4050C3D3C535444503A444553433E
  0
ENDSEC
  0
EOF
