  0
SECTION
  2
HEADER
  9
$ACADVER
  1
AC1015
  9
$ACADMAINTVER
 70
     6
  9
$DWGCODEPAGE
  3
ANSI_932
  9
$INSBASE
 10
0.0
 20
0.0
 30
0.0
  9
$EXTMIN
 10
-135.7487451042056
 20
-176.2380987826608
 30
-0.0000000000000003
  9
$EXTMAX
 10
158.8439792830395
 20
39.88480920405592
 30
0.0000000000000003
  9
$LIMMIN
 10
0.0
 20
0.0
  9
$LIMMAX
 10
420.0
 20
297.0
  9
$ORTHOMODE
 70
     0
  9
$REGENMODE
 70
     1
  9
$FILLMODE
 70
     1
  9
$QTEXTMODE
 70
     0
  9
$MIRRTEXT
 70
     1
  9
$LTSCALE
 40
1.0
  9
$ATTMODE
 70
     1
  9
$TEXTSIZE
 40
4.0
  9
$TRACEWID
 40
1.0
  9
$TEXTSTYLE
  7
STANDARD
  9
$CLAYER
  8
AM_0
  9
$CELTYPE
  6
ByLayer
  9
$CECOLOR
 62
   256
  9
$CELTSCALE
 40
1.0
  9
$DISPSILH
 70
     0
  9
$DIMSCALE
 40
1.0
  9
$DIMASZ
 40
2.5
  9
$DIMEXO
 40
0.0
  9
$DIMDLI
 40
10.0
  9
$DIMRND
 40
0.0
  9
$DIMDLE
 40
0.0
  9
$DIMEXE
 40
1.0
  9
$DIMTP
 40
0.1
  9
$DIMTM
 40
0.1000000001
  9
$DIMTXT
 40
3.8
  9
$DIMCEN
 40
0.0
  9
$DIMTSZ
 40
0.0
  9
$DIMTOL
 70
     0
  9
$DIMLIM
 70
     0
  9
$DIMTIH
 70
     0
  9
$DIMTOH
 70
     0
  9
$DIMSE1
 70
     0
  9
$DIMSE2
 70
     0
  9
$DIMTAD
 70
     3
  9
$DIMZIN
 70
     1
  9
$DIMBLK
  1
Open30
  9
$DIMASO
 70
     1
  9
$DIMSHO
 70
     1
  9
$DIMPOST
  1

  9
$DIMAPOST
  1
"
  9
$DIMALT
 70
     0
  9
$DIMALTD
 70
     2
  9
$DIMALTF
 40
0.0393701
  9
$DIMLFAC
 40
1.0
  9
$DIMTOFL
 70
     1
  9
$DIMTVP
 40
0.0
  9
$DIMTIX
 70
     0
  9
$DIMSOXD
 70
     0
  9
$DIMSAH
 70
     0
  9
$DIMBLK1
  1

  9
$DIMBLK2
  1

  9
$DIMSTYLE
  2
AM_JIS
  9
$DIMCLRD
 70
   256
  9
$DIMCLRE
 70
   256
  9
$DIMCLRT
 70
     2
  9
$DIMTFAC
 40
0.71
  9
$DIMGAP
 40
1.5
  9
$DIMJUST
 70
     0
  9
$DIMSD1
 70
     0
  9
$DIMSD2
 70
     0
  9
$DIMTOLJ
 70
     0
  9
$DIMTZIN
 70
     8
  9
$DIMALTZ
 70
     0
  9
$DIMALTTZ
 70
     0
  9
$DIMUPT
 70
     0
  9
$DIMDEC
 70
     0
  9
$DIMTDEC
 70
     3
  9
$DIMALTU
 70
     2
  9
$DIMALTTD
 70
     2
  9
$DIMTXSTY
  7
STANDARD
  9
$DIMAUNIT
 70
     1
  9
$DIMADEC
 70
     0
  9
$DIMALTRND
 40
0.0
  9
$DIMAZIN
 70
     2
  9
$DIMDSEP
 70
    46
  9
$DIMATFIT
 70
     3
  9
$DIMFRAC
 70
     0
  9
$DIMLDRBLK
  1
Open30
  9
$DIMLUNIT
 70
     2
  9
$DIMLWD
 70
    -1
  9
$DIMLWE
 70
    -1
  9
$DIMTMOVE
 70
     0
  9
$LUNITS
 70
     2
  9
$LUPREC
 70
     2
  9
$SKETCHINC
 40
1.0
  9
$FILLETRAD
 40
1.5
  9
$AUNITS
 70
     1
  9
$AUPREC
 70
     5
  9
$MENU
  1
.
  9
$ELEVATION
 40
0.0
  9
$PELEVATION
 40
0.0
  9
$THICKNESS
 40
0.0
  9
$LIMCHECK
 70
     0
  9
$CHAMFERA
 40
0.5
  9
$CHAMFERB
 40
0.5
  9
$CHAMFERC
 40
20.0
  9
$CHAMFERD
 40
0.0
  9
$SKPOLY
 70
     0
  9
$TDCREATE
 40
2451943.610431667
  9
$TDUCREATE
 40
2451943.235431667
  9
$TDUPDATE
 40
2455478.564941759
  9
$TDUUPDATE
 40
2455478.189941759
  9
$TDINDWG
 40
0.5186464699
  9
$TDUSRTIMER
 40
0.5186462963
  9
$USRTIMER
 70
     1
  9
$ANGBASE
 50
0.0
  9
$ANGDIR
 70
     0
  9
$PDMODE
 70
     0
  9
$PDSIZE
 40
0.0
  9
$PLINEWID
 40
0.0
  9
$SPLFRAME
 70
     0
  9
$SPLINETYPE
 70
     6
  9
$SPLINESEGS
 70
     8
  9
$HANDSEED
  5
F4D1
  9
$SURFTAB1
 70
     6
  9
$SURFTAB2
 70
     6
  9
$SURFTYPE
 70
     6
  9
$SURFU
 70
     6
  9
$SURFV
 70
     6
  9
$UCSBASE
  2

  9
$UCSNAME
  2

  9
$UCSORG
 10
0.0
 20
0.0
 30
0.0
  9
$UCSXDIR
 10
1.0
 20
0.0
 30
0.0
  9
$UCSYDIR
 10
0.0
 20
1.0
 30
0.0
  9
$UCSORTHOREF
  2

  9
$UCSORTHOVIEW
 70
     0
  9
$UCSORGTOP
 10
0.0
 20
0.0
 30
0.0
  9
$UCSORGBOTTOM
 10
0.0
 20
0.0
 30
0.0
  9
$UCSORGLEFT
 10
0.0
 20
0.0
 30
0.0
  9
$UCSORGRIGHT
 10
0.0
 20
0.0
 30
0.0
  9
$UCSORGFRONT
 10
0.0
 20
0.0
 30
0.0
  9
$UCSORGBACK
 10
0.0
 20
0.0
 30
0.0
  9
$PUCSBASE
  2

  9
$PUCSNAME
  2

  9
$PUCSORG
 10
0.0
 20
0.0
 30
0.0
  9
$PUCSXDIR
 10
1.0
 20
0.0
 30
0.0
  9
$PUCSYDIR
 10
0.0
 20
1.0
 30
0.0
  9
$PUCSORTHOREF
  2

  9
$PUCSORTHOVIEW
 70
     0
  9
$PUCSORGTOP
 10
0.0
 20
0.0
 30
0.0
  9
$PUCSORGBOTTOM
 10
0.0
 20
0.0
 30
0.0
  9
$PUCSORGLEFT
 10
0.0
 20
0.0
 30
0.0
  9
$PUCSORGRIGHT
 10
0.0
 20
0.0
 30
0.0
  9
$PUCSORGFRONT
 10
0.0
 20
0.0
 30
0.0
  9
$PUCSORGBACK
 10
0.0
 20
0.0
 30
0.0
  9
$USERI1
 70
     0
  9
$USERI2
 70
     0
  9
$USERI3
 70
     0
  9
$USERI4
 70
     0
  9
$USERI5
 70
     0
  9
$USERR1
 40
0.0
  9
$USERR2
 40
0.0
  9
$USERR3
 40
0.0
  9
$USERR4
 40
0.0
  9
$USERR5
 40
0.0
  9
$WORLDVIEW
 70
     1
  9
$SHADEDGE
 70
     3
  9
$SHADEDIF
 70
    70
  9
$TILEMODE
 70
     1
  9
$MAXACTVP
 70
    48
  9
$PINSBASE
 10
0.0
 20
0.0
 30
0.0
  9
$PLIMCHECK
 70
     0
  9
$PEXTMIN
 10
1.000000000000000E+20
 20
1.000000000000000E+20
 30
1.000000000000000E+20
  9
$PEXTMAX
 10
-1.000000000000000E+20
 20
-1.000000000000000E+20
 30
-1.000000000000000E+20
  9
$PLIMMIN
 10
0.0
 20
0.0
  9
$PLIMMAX
 10
420.0
 20
297.0
  9
$UNITMODE
 70
     0
  9
$VISRETAIN
 70
     1
  9
$PLINEGEN
 70
     0
  9
$PSLTSCALE
 70
     1
  9
$TREEDEPTH
 70
  3020
  9
$CMLSTYLE
  2
Standard
  9
$CMLJUST
 70
     0
  9
$CMLSCALE
 40
20.0
  9
$PROXYGRAPHICS
 70
     1
  9
$MEASUREMENT
 70
     1
  9
$CELWEIGHT
370
    -1
  9
$ENDCAPS
280
     0
  9
$JOINSTYLE
280
     0
  9
$LWDISPLAY
290
     0
  9
$INSUNITS
 70
     4
  9
$HYPERLINKBASE
  1

  9
$STYLESHEET
  1
sei_cad.ctb
  9
$XEDIT
290
     1
  9
$CEPSNTYPE
380
     0
  9
$PSTYLEMODE
290
     1
  9
$FINGERPRINTGUID
  2
{C77AB3BE-9CA2-11D3-BAF3-006094EB760E}
  9
$VERSIONGUID
  2
{CEA47AD4-D0A4-4C6F-86BF-E7CC0F786CCC}
  9
$EXTNAMES
290
     1
  9
$PSVPSCALE
 40
0.0
  9
$OLESTARTUP
290
     0
  0
ENDSEC
  0
SECTION
  2
CLASSES
  0
CLASS
  1
ACDBDICTIONARYWDFLT
  2
AcDbDictionaryWithDefault
  3
ObjectDBX Classes
 90
        0
280
     0
281
     0
  0
CLASS
  1
ACDBPLACEHOLDER
  2
AcDbPlaceHolder
  3
ObjectDBX Classes
 90
        0
280
     0
281
     0
  0
CLASS
  1
LAYOUT
  2
AcDbLayout
  3
ObjectDBX Classes
 90
        0
280
     0
281
     0
  0
CLASS
  1
ACME_DOCUMENT
  2
AcMeDbDoc
  3
AcMeServices
 90
        0
280
     1
281
     0
  0
CLASS
  1
ACMESCOPE
  2
AcMeScope
  3
AcMeServices
 90
        0
280
     1
281
     0
  0
CLASS
  1
ACMECOMMANDHISTORY
  2
AcMeCommandHistory
  3
AcMeServices
 90
        0
280
     1
281
     0
  0
CLASS
  1
DICTIONARYVAR
  2
AcDbDictionaryVar
  3
ObjectDBX Classes
 90
        0
280
     0
281
     0
  0
CLASS
  1
ACIMSYSVARMAN
  2
AcImSysVarManager
  3
AcMeServices
 90
        0
280
     1
281
     0
  0
CLASS
  1
ACIMREALSYSVAR
  2
AcImRealSysVar
  3
AcMeServices
 90
        0
280
     1
281
     0
  0
CLASS
  1
ACIMINTSYSVAR
  2
AcImIntSysVar
  3
AcMeServices
 90
        0
280
     1
281
     0
  0
CLASS
  1
ACMEDRAWINGMAN
  2
AcMeDrawingMan
  3
AcMeServices
 90
        0
280
     1
281
     0
  0
CLASS
  1
ACMEVIEW
  2
AcMeView
  3
AcMeServices
 90
        0
280
     1
281
     0
  0
CLASS
  1
ACDBENTITYCACHE
  2
AcMeEntityCache
  3
AcMeServices
 90
        0
280
     1
281
     0
  0
CLASS
  1
GSMANAGER
  2
AcMeGSManager
  3
AcMeServices
 90
        0
280
     1
281
     0
  0
CLASS
  1
AMDTINTERNALREACTOR
  2
AmdtInternalReactor
  3
AcMeServices
 90
        0
280
     1
281
     0
  0
CLASS
  1
ACMESTATEMGR
  2
AcMeStateMgr
  3
AcMeServices
 90
        0
280
     1
281
     0
  0
CLASS
  1
ACME_DATABASE
  2
AcMeDbDatabase
  3
AcMeServices
 90
        0
280
     1
281
     0
  0
CLASS
  1
ACRFINSADJUSTERMGR
  2
AcRfInsAdjusterMgr
  3
AcMeServices
 90
        0
280
     1
281
     0
  0
CLASS
  1
AMGSETTINGSOBJ
  2
AmgSettingsObj
  3
"AcadM|Product Description: AutoCAD Mechanical 2000|Company: Autodesk"
 90
        0
280
     1
281
     0
  0
CLASS
  1
AMGOBJPROPCFG
  2
AmgObjPropCfg
  3
"AmgLay|Product Description: AutoCAD Mechanical 2000|Company: Autodesk"
 90
        1
280
     1
281
     0
  0
CLASS
  1
ACMDATADICTIONARY
  2
AcmDataDictionary
  3
"AcmSymBB|Product Description: AutoCAD Mechanical 2004 DX|Company: Autodesk"
 90
        0
280
     1
281
     0
  0
CLASS
  1
ACMDATAENTRYBLOCK
  2
AcmDataEntryBlock
  3
"AcmSymBB|Product Description: AutoCAD Mechanical 2004 DX|Company: Autodesk"
 90
        0
280
     1
281
     0
  0
CLASS
  1
ACIMSTRSYSVAR
  2
AcImStrSysVar
  3
AcMeServices
 90
        0
280
     1
281
     0
  0
CLASS
  1
ACAMGFILTERDAT
  2
AcAmgFilterDat
  3
"AcadM|Product Description: AutoCAD Mechanical 2000|Company: Autodesk"
 90
        0
280
     1
281
     0
  0
CLASS
  1
LAYER_INDEX
  2
AcDbLayerIndex
  3
ObjectDBX Classes
 90
        0
280
     0
281
     0
  0
CLASS
  1
IDBUFFER
  2
AcDbIdBuffer
  3
ObjectDBX Classes
 90
        0
280
     0
281
     0
  0
CLASS
  1
ACMSTANDARDJIS
  2
AcmStandardJIS
  3
"Amdt_StdImp|Product Description: AutoCAD Mechanical 2004 DX|Company: Autodesk"
 90
        0
280
     1
281
     0
  0
CLASS
  1
ACMSURFSTANDARDJIS
  2
AcmSurfTextStdJIS
  3
"Amdt_StdImp|Product Description: AutoCAD Mechanical 2004 DX|Company: Autodesk"
 90
        0
280
     1
281
     0
  0
CLASS
  1
ACMFCFSTANDARDJIS
  2
AcmFCFStdJIS
  3
"Amdt_StdImp|Product Description: AutoCAD Mechanical 2004 DX|Company: Autodesk"
 90
        0
280
     1
281
     0
  0
CLASS
  1
ACMWELDSTANDARDJIS
  2
AcmWeldingStdJIS
  3
"Amdt_StdImp|Product Description: AutoCAD Mechanical 2004 DX|Company: Autodesk"
 90
        0
280
     1
281
     0
  0
CLASS
  1
ACMIDSTANDARDJIS
  2
AcmIdStdJIS
  3
"Amdt_StdImp|Product Description: AutoCAD Mechanical 2004 DX|Company: Autodesk"
 90
        0
280
     1
281
     0
  0
CLASS
  1
ACMDATUMSTANDARDJIS
  2
AcmDatumStdJIS
  3
"Amdt_StdImp|Product Description: AutoCAD Mechanical 2004 DX|Company: Autodesk"
 90
        0
280
     1
281
     0
  0
CLASS
  1
ACMBOMSTANDARDJIS
  2
AcmBOMStdJIS
  3
"Amdt_StdImp|Product Description: AutoCAD Mechanical 2004 DX|Company: Autodesk"
 90
        0
280
     1
281
     0
  0
CLASS
  1
AMDTNOTE
  2
AmdtNote
  3
"AcmSymBB|Product Description: AutoCAD Mechanical 2004 DX|Company: Autodesk"
 90
     1023
280
     1
281
     1
  0
CLASS
  1
ACGREFMASTER
  2
AcGrefMaster
  3
AcAttribServices
 90
        0
280
     1
281
     0
  0
CLASS
  1
ACGREFACADMASTER
  2
AcGrefacadMaster
  3
AcGrefServices
 90
        0
280
     1
281
     0
  0
CLASS
  1
AMIMASTER
  2
AmiMaster
  3
AmiServices
 90
        0
280
     1
281
     0
  0
CLASS
  1
ACAMGTITLESTD
  2
AcAmgTitleStd
  3
"TITLEAPP"
 90
        0
280
     1
281
     0
  0
CLASS
  1
ACMDETAILSTANDARDJIS
  2
AmdtDetailSymStdJIS
  3
"Amdt_StdImp|Product Description: AutoCAD Mechanical 2004 DX|Company: Autodesk"
 90
        0
280
     1
281
     0
  0
CLASS
  1
ACMSECTIONSTANDARDJIS
  2
AmdtSectionSymStdJIS
  3
"Amdt_StdImp|Product Description: AutoCAD Mechanical 2004 DX|Company: Autodesk"
 90
        0
280
     1
281
     0
  0
CLASS
  1
ACMCENTERLINESTANDARDJIS
  2
AmdtCenterLineStdJIS
  3
"Amdt_StdImp|Product Description: AutoCAD Mechanical 2004 DX|Company: Autodesk"
 90
        0
280
     1
281
     0
  0
CLASS
  1
ACMNOTESTANDARDJIS
  2
AmdtNoteStdJIS
  3
"Amdt_StdImp|Product Description: AutoCAD Mechanical 2004 DX|Company: Autodesk"
 90
        0
280
     1
281
     0
  0
CLASS
  1
ACAMGLAYSTD
  2
AcAmgLayStd
  3
"AcAmgLayStd|Product Description: AutoCAD Mechanical 2000|Company: Autodesk"
 90
        0
280
     1
281
     0
  0
CLASS
  1
ACAMGDIMSTD
  2
AcAmgDimStd
  3
"AcAmgDimStd|Product Description: AutoCAD Mechanical 2000|Company: Autodesk"
 90
        0
280
     1
281
     0
  0
CLASS
  1
AMDTFORMULAUPDATEDISPATCHER
  2
AmdtFormulaUpdateDispatcher
  3
AcMeServices
 90
        0
280
     1
281
     0
  0
CLASS
  1
DUMMY
  2
AcDbLongTransaction
  3
DUMMY
 90
        0
280
     0
281
     0
  0
CLASS
  1
LWPOLYLINE
  2
AcDbPolyline
  3
AutoCAD 2000
 90
        0
280
     0
281
     1
  0
CLASS
  1
HATCH
  2
AcDbHatch
  3
AutoCAD 2000
 90
        0
280
     0
281
     1
  0
CLASS
  1
XRECORD
  2
AcDbXrecord
  3
AutoCAD 2000
 90
        0
280
     0
281
     0
  0
CLASS
  1
DUMMY
  2
AcDbLongTransaction
  3
DUMMY
 90
        0
280
     0
281
     0
  0
CLASS
  1
LWPOLYLINE
  2
AcDbPolyline
  3
AutoCAD 2000
 90
        0
280
     0
281
     1
  0
CLASS
  1
HATCH
  2
AcDbHatch
  3
AutoCAD 2000
 90
        0
280
     0
281
     1
  0
CLASS
  1
XRECORD
  2
AcDbXrecord
  3
AutoCAD 2000
 90
        0
280
     0
281
     0
  0
CLASS
  1
ACDBCIRCARCRES
  2
AcDbCircArcRes
  3
AcGrefServices
 90
        0
280
     1
281
     0
  0
CLASS
  1
ACDBLINERES
  2
AcDbLineRes
  3
AcGrefServices
 90
        0
280
     1
281
     0
  0
CLASS
  1
ACDBELLIPSERES
  2
AcDbEllipseRes
  3
AcGrefServices
 90
        0
280
     1
281
     0
  0
CLASS
  1
DUMMY
  2
AcDbLongTransaction
  3
DUMMY
 90
        0
280
     0
281
     0
  0
CLASS
  1
LWPOLYLINE
  2
AcDbPolyline
  3
AutoCAD 2000
 90
        0
280
     0
281
     1
  0
CLASS
  1
HATCH
  2
AcDbHatch
  3
AutoCAD 2000
 90
        0
280
     0
281
     1
  0
CLASS
  1
XRECORD
  2
AcDbXrecord
  3
AutoCAD 2000
 90
        0
280
     0
281
     0
  0
CLASS
  1
TABLESTYLE
  2
AcDbTableStyle
  3
ObjectDBX Classes
 90
     2047
280
     0
281
     0
  0
CLASS
  1
AM_DRAWING_MGR
  2
AcDmDwgMgr
  3
AcMechDwgViewMgmt
 90
        0
280
     1
281
     0
  0
CLASS
  1
AM_DWG_DOCUMENT
  2
AcDmDwgDocument
  3
AcMechDwgViewMgmt
 90
        0
280
     1
281
     0
  0
CLASS
  1
AM_DWG_SHEET
  2
AcDmSheet
  3
AcMechDwgViewMgmt
 90
        0
280
     1
281
     0
  0
CLASS
  1
AM_VIEWDIMPARMAP
  2
AcDmViewDimParMap
  3
AcMechDwgViewMgmt
 90
        0
280
     1
281
     0
  0
CLASS
  1
AM_DWGMGR_NAME
  2
AcDmDwgMgrName
  3
AcMechDwgViewMgmt
 90
        0
280
     1
281
     0
  0
CLASS
  1
AMDTMENUSTATEMGR
  2
AmdtMenuStateMgr
  3
McadcomServices
 90
        0
280
     1
281
     0
  0
CLASS
  1
AMDTMCOMMENUSTATE
  2
AmdtMcomMenuState
  3
McadcomServices
 90
        0
280
     1
281
     0
  0
CLASS
  1
MAPIAMMOUDLE
  2
MApiAmModule
  3
MApiAmServices
 90
        0
280
     1
281
     0
  0
CLASS
  1
AMDTADMENUSTATE
  2
AmdtAdMenuState
  3
DesignerServices
 90
        0
280
     1
281
     0
  0
CLASS
  1
ADAPPL
  2
AcAdAppl
  3
DesignerServices
 90
        0
280
     1
281
     0
  0
CLASS
  1
DEPMGR
  2
AcAdDepMgr
  3
DesignerServices
 90
        0
280
     1
281
     0
  0
CLASS
  1
PARAMMGR
  2
AcAdParamMgr
  3
DesignerServices
 90
        0
280
     1
281
     0
  0
CLASS
  1
PARAMSCOPE
  2
AcAdParamScope
  3
DesignerServices
 90
        0
280
     1
281
     0
  0
CLASS
  1
NAMEDAPPL
  2
AcAdNamedAppl
  3
DesignerServices
 90
        0
280
     1
281
     0
  0
CLASS
  1
AMDTDMMENUSTATE
  2
AmdtDmMenuState
  3
AcMechDwgViewMgmt
 90
        0
280
     1
281
     0
  0
CLASS
  1
AMDTAMMENUSTATE
  2
AmdtAmMenuState
  3
DesignerAssemblies
 90
        0
280
     1
281
     0
  0
CLASS
  1
ACAMPROJECT
  2
AcAmProject
  3
DesignerAssemblies
 90
        0
280
     1
281
     0
  0
CLASS
  1
ACAMGRCOMPDEF
  2
AcAmGrCompDef
  3
DesignerAssemblies
 90
        0
280
     1
281
     0
  0
CLASS
  1
ACCMCONTEXT
  2
AcCmContext
  3
DesignerAssemblies
 90
        0
280
     1
281
     0
  0
CLASS
  1
ACAMCOMPDEF
  2
AcAmCompDef
  3
DesignerAssemblies
 90
        0
280
     1
281
     0
  0
CLASS
  1
ACAMCOMPDEFMGR
  2
AcAmCompDefMgr
  3
DesignerAssemblies
 90
        0
280
     1
281
     0
  0
CLASS
  1
AMCONTEXTMGR
  2
AcAmContextMgr
  3
DesignerAssemblies
 90
        0
280
     1
281
     0
  0
CLASS
  1
ACAMCONTEXTMODELER
  2
AcAmContextModeler
  3
DesignerAssemblies
 90
        0
280
     1
281
     0
  0
CLASS
  1
CATALOGSTATE
  2
AcAmCatalogState
  3
DesignerAssemblies
 90
        0
280
     1
281
     0
  0
CLASS
  1
ACAMGRCOMPDEFSET
  2
AcAmGrCompDefSet
  3
DesignerAssemblies
 90
        0
280
     1
281
     0
  0
CLASS
  1
AMDTBROWSERDBTAB
  2
AmdtBrowserDbTab
  3
McadcomServices
 90
        0
280
     1
281
     0
  0
CLASS
  1
CBROWSERAPPOBJECT
  2
CBrowserAppObject
  3
McadcomServices
 90
        0
280
     1
281
     0
  0
CLASS
  1
DM_PLACEHOLDER
  2
AcDmSelsetPlaceholder
  3
AcMechDwgViewMgmt
 90
        0
280
     1
281
     0
  0
CLASS
  1
ACMSTANDARDISO
  2
AcmStandardISO
  3
"Amdt_StdImp|Product Description: AutoCAD Mechanical 2004 DX|Company: Autodesk"
 90
        0
280
     1
281
     0
  0
CLASS
  1
AMDTEDGESTANDARDISO13715
  2
AmdtEdgeStdISO13715
  3
"Amdt_StdImp|Product Description: AutoCAD Mechanical 2004 DX|Company: Autodesk"
 90
        0
280
     1
281
     0
  0
CLASS
  1
ACMSURFSTANDARDISO
  2
AcmSurfTextStdISO
  3
"Amdt_StdImp|Product Description: AutoCAD Mechanical 2004 DX|Company: Autodesk"
 90
        0
280
     1
281
     0
  0
CLASS
  1
ACMFCFSTANDARDISO
  2
AcmFCFStdISO
  3
"Amdt_StdImp|Product Description: AutoCAD Mechanical 2004 DX|Company: Autodesk"
 90
        0
280
     1
281
     0
  0
CLASS
  1
ACMWELDSTANDARDISO
  2
AcmWeldingStdISO
  3
"Amdt_StdImp|Product Description: AutoCAD Mechanical 2004 DX|Company: Autodesk"
 90
        0
280
     1
281
     0
  0
CLASS
  1
ACMIDSTANDARDISO
  2
AcmIdStdISO
  3
"Amdt_StdImp|Product Description: AutoCAD Mechanical 2004 DX|Company: Autodesk"
 90
        0
280
     1
281
     0
  0
CLASS
  1
ACMDATUMSTANDARDISO
  2
AcmDatumStdISO
  3
"Amdt_StdImp|Product Description: AutoCAD Mechanical 2004 DX|Company: Autodesk"
 90
        0
280
     1
281
     0
  0
CLASS
  1
ACMBOMSTANDARDISO
  2
AcmBOMStdISO
  3
"Amdt_StdImp|Product Description: AutoCAD Mechanical 2004 DX|Company: Autodesk"
 90
        0
280
     1
281
     0
  0
CLASS
  1
ACMDETAILSTANDARDISO
  2
AmdtDetailSymStdISO
  3
"Amdt_StdImp|Product Description: AutoCAD Mechanical 2004 DX|Company: Autodesk"
 90
        0
280
     1
281
     0
  0
CLASS
  1
ACMSECTIONSTANDARDISO
  2
AmdtSectionSymStdISO
  3
"Amdt_StdImp|Product Description: AutoCAD Mechanical 2004 DX|Company: Autodesk"
 90
        0
280
     1
281
     0
  0
CLASS
  1
ACMCENTERLINESTANDARDISO
  2
AmdtCenterLineStdISO
  3
"Amdt_StdImp|Product Description: AutoCAD Mechanical 2004 DX|Company: Autodesk"
 90
        0
280
     1
281
     0
  0
CLASS
  1
ACMTHREADLINESTANDARDISO
  2
AmdtThreadLineStdISO
  3
"Amdt_StdImp|Product Description: AutoCAD Mechanical 2004 DX|Company: Autodesk"
 90
        0
280
     1
281
     0
  0
CLASS
  1
ACMNOTESTANDARDISO
  2
AmdtNoteStdISO
  3
"Amdt_StdImp|Product Description: AutoCAD Mechanical 2004 DX|Company: Autodesk"
 90
        0
280
     1
281
     0
  0
CLASS
  1
AMDTNOTETEMPLATEDB
  2
AmdtNoteTemplateDB
  3
AMDT_STDIMP_MODULE_NAME
 90
        0
280
     1
281
     0
  0
CLASS
  1
ACAMGHOLECHARTSTDISO
  2
AcAmgHoleChartStdISO
  3
ACMSYMBB_MODULE_NAME
 90
        0
280
     1
281
     0
  0
CLASS
  1
ACMTHREADLINESTANDARDJIS
  2
AmdtThreadLineStdJIS
  3
"Amdt_StdImp|Product Description: AutoCAD Mechanical 2004 DX|Company: Autodesk"
 90
        0
280
     1
281
     0
  0
CLASS
  1
ACAMGHOLECHARTSTDJIS
  2
AcAmgHoleChartStdJIS
  3
ACMSYMBB_MODULE_NAME
 90
        0
280
     1
281
     0
  0
CLASS
  1
SORTENTSTABLE
  2
AcDbSortentsTable
  3
ObjectDBX Classes
 90
        0
280
     0
281
     0
  0
ENDSEC
  0
SECTION
  2
TABLES
  0
TABLE
  2
VPORT
  5
8
330
0
100
AcDbSymbolTable
 70
     3
  0
VPORT
  5
F4CA
330
8
100
AcDbSymbolTableRecord
100
AcDbViewportTableRecord
  2
*Active
 70
     0
 10
0.0
 20
0.0
 11
1.0
 21
1.0
 12
162.4556011960541
 22
-20.35759167980666
 13
0.0
 23
0.0
 14
2.5
 24
2.5
 15
10.0
 25
10.0
 16
0.0
 26
0.0
 36
1.0
 17
0.0
 27
0.0
 37
0.0
 40
544.0924262003017
 41
1.943262411347518
 42
50.0
 43
0.0
 44
0.0
 50
0.0
 51
0.0
 71
    16
 72
  2000
 73
     1
 74
     3
 75
     0
 76
     0
 77
     0
 78
     0
281
     0
 65
     1
110
0.0
120
0.0
130
0.0
111
1.0
121
0.0
131
0.0
112
0.0
122
1.0
132
0.0
 79
     0
146
0.0
  0
ENDTAB
  0
TABLE
  2
LTYPE
  5
5
330
0
100
AcDbSymbolTable
 70
    16
  0
LTYPE
  5
14
330
5
100
AcDbSymbolTableRecord
100
AcDbLinetypeTableRecord
  2
ByBlock
 70
     0
  3

 72
    65
 73
     0
 40
0.0
  0
LTYPE
  5
15
330
5
100
AcDbSymbolTableRecord
100
AcDbLinetypeTableRecord
  2
ByLayer
 70
     0
  3

 72
    65
 73
     0
 40
0.0
  0
LTYPE
  5
16
330
5
100
AcDbSymbolTableRecord
100
AcDbLinetypeTableRecord
  2
Continuous
 70
     0
  3
Solid line
 72
    65
 73
     0
 40
0.0
  0
LTYPE
  5
43
330
5
100
AcDbSymbolTableRecord
100
AcDbLinetypeTableRecord
  2
AM_ISO02W050
 70
     0
  3
__ __ __ __ __ __ __ __ __ __ __ __ __ __ __
 72
    65
 73
     2
 40
7.5
 49
6.0
 74
     0
 49
-1.5
 74
     0
  0
LTYPE
  5
44
330
5
100
AcDbSymbolTableRecord
100
AcDbLinetypeTableRecord
  2
AM_ISO08W050
 70
     0
  3
____ . ____ . ____ . ____ . ____ . ____ . ____
 72
    65
 73
     4
 40
18.0
 49
12.0
 74
     0
 49
-1.5
 74
     0
 49
3.0
 74
     0
 49
-1.5
 74
     0
  0
LTYPE
  5
45
330
5
100
AcDbSymbolTableRecord
100
AcDbLinetypeTableRecord
  2
AM_ISO09W050
 70
     0
  3
_____ . . _____ . . _____ . . ____ .. ____
 72
    65
 73
     6
 40
22.5
 49
12.0
 74
     0
 49
-1.5
 74
     0
 49
3.0
 74
     0
 49
-1.5
 74
     0
 49
3.0
 74
     0
 49
-1.5
 74
     0
  0
LTYPE
  5
46
330
5
100
AcDbSymbolTableRecord
100
AcDbLinetypeTableRecord
  2
Amconstr
 70
     0
  3
_______________________
 72
    65
 73
     2
 40
9999.0
 49
9999.0
 74
     0
 49
0.0
 74
     0
  0
LTYPE
  5
47
330
5
100
AcDbSymbolTableRecord
100
AcDbLinetypeTableRecord
  2
AM_ISO02W050x2
 70
     0
  3
 _ _ _ _ _ _ _ _ _ _ _ _
 72
    65
 73
     2
 40
3.75
 49
3.0
 74
     0
 49
-0.75
 74
     0
  0
LTYPE
  5
48
330
5
100
AcDbSymbolTableRecord
100
AcDbLinetypeTableRecord
  2
AM_ISO08W050x2
 70
     0
  3
__ . __ . __ . __ . __ . __
 72
    65
 73
     4
 40
9.0
 49
6.0
 74
     0
 49
-0.75
 74
     0
 49
1.5
 74
     0
 49
-0.75
 74
     0
  0
LTYPE
  5
4B
330
5
100
AcDbSymbolTableRecord
100
AcDbLinetypeTableRecord
  2
Amzigzag
 70
     0
  3
/\/-/\/-/\/-/\/-/\/-/\/
 72
    65
 73
     2
 40
11.0001
 49
0.0001
 74
     4
 75
   135
340
4A
 46
0.04
 50
0.0
 44
0.0
 45
0.0
 49
-11.0
 74
     0
  0
LTYPE
  5
188
330
5
100
AcDbSymbolTableRecord
100
AcDbLinetypeTableRecord
  2
ACJISTGB
 70
     0
  3
__ . . __ . .
 72
    65
 73
     6
 40
9.0
 49
4.0
 74
     0
 49
-1.0
 74
     0
 49
1.0
 74
     0
 49
-1.0
 74
     0
 49
1.0
 74
     0
 49
-1.0
 74
     0
  0
LTYPE
  5
189
330
5
100
AcDbSymbolTableRecord
100
AcDbLinetypeTableRecord
  2
ACJISTGL
 70
     0
  3
_ _ _ _ _
 72
    65
 73
     2
 40
3.0
 49
2.0
 74
     0
 49
-1.0
 74
     0
  0
LTYPE
  5
652
330
5
100
AcDbSymbolTableRecord
100
AcDbLinetypeTableRecord
  2
CENTER
 70
     0
  3
____ _ ____ _ ____ _ ____ _ ____ _ ____ _ ____
 72
    65
 73
     4
 40
17.5
 49
13.0
 74
     0
 49
-1.5
 74
     0
 49
1.5
 74
     0
 49
-1.5
 74
     0
  0
LTYPE
  5
12AB
330
5
100
AcDbSymbolTableRecord
100
AcDbLinetypeTableRecord
  2
HIDDEN
 70
     0
  3
Hidden __ __ __ __ __ __ __ __ __ __ __ __ __ _
 72
    65
 73
     2
 40
0.375
 49
0.25
 74
     0
 49
-0.125
 74
     0
  0
LTYPE
  5
12AC
330
5
100
AcDbSymbolTableRecord
100
AcDbLinetypeTableRecord
  2
PHANTOM2
 70
     0
  3
Phantom (.5x) ___ _ _ ___ _ _ ___ _ _ ___ _ _
 72
    65
 73
     6
 40
1.25
 49
0.625
 74
     0
 49
-0.125
 74
     0
 49
0.125
 74
     0
 49
-0.125
 74
     0
 49
0.125
 74
     0
 49
-0.125
 74
     0
  0
LTYPE
  5
9A44
330
5
100
AcDbSymbolTableRecord
100
AcDbLinetypeTableRecord
  2
ACISOWELD
 70
     0
  3
_ _ _ _ _
 72
    65
 73
     2
 40
2.0
 49
2.0
 74
     0
 49
-1.0
 74
     0
  0
LTYPE
  5
9A45
330
5
100
AcDbSymbolTableRecord
100
AcDbLinetypeTableRecord
  2
ACISOTGB
 70
     0
  3
__ . . __ . .
 72
    65
 73
     6
 40
9.0
 49
4.0
 74
     0
 49
-1.0
 74
     0
 49
1.0
 74
     0
 49
-1.0
 74
     0
 49
1.0
 74
     0
 49
-1.0
 74
     0
  0
LTYPE
  5
9A46
330
5
100
AcDbSymbolTableRecord
100
AcDbLinetypeTableRecord
  2
ACISOTGL
 70
     0
  3
_ _ _ _ _
 72
    65
 73
     2
 40
3.0
 49
2.0
 74
     0
 49
-1.0
 74
     0
  0
ENDTAB
  0
TABLE
  2
LAYER
  5
2
102
{ACAD_XDICTIONARY
360
9B25
102
}
330
0
100
AcDbSymbolTable
 70
     7
  0
LAYER
  5
10
330
2
100
AcDbSymbolTableRecord
100
AcDbLayerTableRecord
  2
0
 70
     0
 62
     7
  6
Continuous
370
    -3
390
F
  0
LAYER
  5
7D
330
2
100
AcDbSymbolTableRecord
100
AcDbLayerTableRecord
  2
AM_5
 70
     0
 62
     3
  6
Continuous
370
    13
390
F
  0
LAYER
  5
7F
330
2
100
AcDbSymbolTableRecord
100
AcDbLayerTableRecord
  2
Defpoints
 70
     0
 62
     7
  6
Continuous
290
     0
370
    -3
390
F
  0
LAYER
  5
12B1
330
2
100
AcDbSymbolTableRecord
100
AcDbLayerTableRecord
  2
AM_0
 70
     0
 62
     7
  6
Continuous
370
    30
390
F
  0
LAYER
  5
1896
330
2
100
AcDbSymbolTableRecord
100
AcDbLayerTableRecord
  2
AM_7
 70
     0
 62
     4
  6
AM_ISO08W050
370
    13
390
F
  0
LAYER
  5
1898
330
2
100
AcDbSymbolTableRecord
100
AcDbLayerTableRecord
  2
AM_3
 70
     0
 62
     6
  6
AM_ISO02W050
370
    13
390
F
  0
ENDTAB
  0
TABLE
  2
STYLE
  5
3
330
0
100
AcDbSymbolTable
 70
     6
  0
STYLE
  5
11
330
3
100
AcDbSymbolTableRecord
100
AcDbTextStyleTableRecord
  2
STANDARD
 70
     0
 40
0.0
 41
1.0
 50
0.0
 71
     0
 42
4.0
  3
ISOCP.SHX
  4
EXTFONT.SHX
  0
STYLE
  5
4A
330
3
100
AcDbSymbolTableRecord
100
AcDbTextStyleTableRecord
  2

 70
     1
 40
0.0
 41
1.0
 50
0.0
 71
     0
 42
2.5
  3
ltypeshp.shx
  4

  0
STYLE
  5
180
330
3
100
AcDbSymbolTableRecord
100
AcDbTextStyleTableRecord
  2
ACJISTS
 70
     0
 40
1.0
 41
1.0
 50
0.0
 71
     0
 42
2.5
  3
isocp.shx
  4
bigfont.shx
  0
STYLE
  5
187
330
3
100
AcDbSymbolTableRecord
100
AcDbTextStyleTableRecord
  2
ACJISGDT
 70
     0
 40
0.0
 41
1.0
 50
0.0
 71
     0
 42
2.5
  3
amgdt.shx
  4

  0
STYLE
  5
9A36
330
3
100
AcDbSymbolTableRecord
100
AcDbTextStyleTableRecord
  2
ACISOTS
 70
     0
 40
1.0
 41
1.0
 50
0.0
 71
     0
 42
3.15
  3
isocp.shx
  4
extfont.shx
  0
STYLE
  5
9A43
330
3
100
AcDbSymbolTableRecord
100
AcDbTextStyleTableRecord
  2
ACISOGDT
 70
     0
 40
0.0
 41
1.0
 50
0.0
 71
     0
 42
3.15
  3
amgdt.shx
  4

  0
ENDTAB
  0
TABLE
  2
VIEW
  5
6
330
0
100
AcDbSymbolTable
 70
     6
  0
VIEW
  5
A30
330
6
100
AcDbSymbolTableRecord
100
AcDbViewTableRecord
  2
AM_VIEW1
 70
     0
 40
148.5
 10
108.6929657794677
 20
222.75
 41
217.3859315589354
 11
0.0
 21
0.0
 31
1.0
 12
0.0
 22
0.0
 32
0.0
 42
50.0
 43
0.0
 44
0.0
 50
0.0
 71
    16
281
     0
 72
     0
  0
VIEW
  5
A31
330
6
100
AcDbSymbolTableRecord
100
AcDbViewTableRecord
  2
AM_VIEW2
 70
     0
 40
148.5
 10
311.3070342205323
 20
222.75
 41
217.3859315589354
 11
0.0
 21
0.0
 31
1.0
 12
0.0
 22
0.0
 32
0.0
 42
50.0
 43
0.0
 44
0.0
 50
0.0
 71
    16
281
     0
 72
     0
  0
VIEW
  5
A32
330
6
100
AcDbSymbolTableRecord
100
AcDbViewTableRecord
  2
AM_VIEW3
 70
     0
 40
148.5
 10
108.6929657794677
 20
74.25
 41
217.3859315589354
 11
0.0
 21
0.0
 31
1.0
 12
0.0
 22
0.0
 32
0.0
 42
50.0
 43
0.0
 44
0.0
 50
0.0
 71
    16
281
     0
 72
     0
  0
VIEW
  5
A33
330
6
100
AcDbSymbolTableRecord
100
AcDbViewTableRecord
  2
AM_VIEW4
 70
     0
 40
148.5
 10
311.3070342205323
 20
74.25
 41
217.3859315589354
 11
0.0
 21
0.0
 31
1.0
 12
0.0
 22
0.0
 32
0.0
 42
50.0
 43
0.0
 44
0.0
 50
0.0
 71
    16
281
     0
 72
     0
  0
VIEW
  5
A34
330
6
100
AcDbSymbolTableRecord
100
AcDbViewTableRecord
  2
AM_VIEW5
 70
     0
 40
148.5
 10
210.0
 20
148.5
 41
217.3859315589353
 11
0.0
 21
0.0
 31
1.0
 12
0.0
 22
0.0
 32
0.0
 42
50.0
 43
0.0
 44
0.0
 50
0.0
 71
    16
281
     0
 72
     0
  0
VIEW
  5
A35
330
6
100
AcDbSymbolTableRecord
100
AcDbViewTableRecord
  2
AM_VIEW6
 70
     0
 40
296.99703
 10
210.0
 20
148.5
 41
434.7675153992395
 11
0.0
 21
0.0
 31
1.0
 12
0.0
 22
0.0
 32
0.0
 42
50.0
 43
0.0
 44
0.0
 50
0.0
 71
    16
281
     0
 72
     0
  0
ENDTAB
  0
TABLE
  2
UCS
  5
7
330
0
100
AcDbSymbolTable
 70
     0
  0
ENDTAB
  0
TABLE
  2
APPID
  5
9
330
0
100
AcDbSymbolTable
 70
    47
  0
APPID
  5
12
330
9
100
AcDbSymbolTableRecord
100
AcDbRegAppTableRecord
  2
ACAD
 70
     0
  0
APPID
  5
2C
330
9
100
AcDbSymbolTableRecord
100
AcDbRegAppTableRecord
  2
MCAD_NO_VIS
 70
     0
  0
APPID
  5
2D
330
9
100
AcDbSymbolTableRecord
100
AcDbRegAppTableRecord
  2
ACAD_TEMP_GRAPHIC
 70
     0
  0
APPID
  5
B9
330
9
100
AcDbSymbolTableRecord
100
AcDbRegAppTableRecord
  2
GENIUS_GENDTOL_13
 70
     0
  0
APPID
  5
359
330
9
100
AcDbSymbolTableRecord
100
AcDbRegAppTableRecord
  2
GENIUS_GENREC_14
 70
     0
  0
APPID
  5
35A
330
9
100
AcDbSymbolTableRecord
100
AcDbRegAppTableRecord
  2
GENIUS_GENODEF_13
 70
     0
  0
APPID
  5
35B
330
9
100
AcDbSymbolTableRecord
100
AcDbRegAppTableRecord
  2
GENIUS_GENOBJ-N-REC_13
 70
     0
  0
APPID
  5
667
330
9
100
AcDbSymbolTableRecord
100
AcDbRegAppTableRecord
  2
GENIUS_GENCFG_13
 70
     0
1001
GENIUS_GENCFG0_13
1000
GEN
  0
APPID
  5
668
330
9
100
AcDbSymbolTableRecord
100
AcDbRegAppTableRecord
  2
GENIUS_GENCFG0_13
 70
     0
1001
GENIUS_GENCFG_13
1071
1094015123
1000
668
1000
GEN
1070
     0
  0
APPID
  5
669
330
9
100
AcDbSymbolTableRecord
100
AcDbRegAppTableRecord
  2
GENIUS_GENCFG1_13
 70
     0
  0
APPID
  5
66A
330
9
100
AcDbSymbolTableRecord
100
AcDbRegAppTableRecord
  2
GENIUS_GENCFG2_13
 70
     0
  0
APPID
  5
66B
330
9
100
AcDbSymbolTableRecord
100
AcDbRegAppTableRecord
  2
GENIUS_GENCFG3_13
 70
     0
  0
APPID
  5
66C
330
9
100
AcDbSymbolTableRecord
100
AcDbRegAppTableRecord
  2
GENIUS_GENCFG4_13
 70
     0
  0
APPID
  5
A76
330
9
100
AcDbSymbolTableRecord
100
AcDbRegAppTableRecord
  2
GENIUS_GENBLLY_14
 70
     0
  0
APPID
  5
A77
330
9
100
AcDbSymbolTableRecord
100
AcDbRegAppTableRecord
  2
GENIUS_GENOBJ-N-CEN_13
 70
     0
  0
APPID
  5
A83
330
9
100
AcDbSymbolTableRecord
100
AcDbRegAppTableRecord
  2
GENIUS_GENTRA_14
 70
     0
  0
APPID
  5
A8D
330
9
100
AcDbSymbolTableRecord
100
AcDbRegAppTableRecord
  2
GENIUS_GENOBJ-N-TIT_13
 70
     0
  0
APPID
  5
A8E
330
9
100
AcDbSymbolTableRecord
100
AcDbRegAppTableRecord
  2
GENIUS_GENTITLE_13
 70
     0
  0
APPID
  5
A8F
330
9
100
AcDbSymbolTableRecord
100
AcDbRegAppTableRecord
  2
GENIUS_GENOENT_13
 70
     0
  0
APPID
  5
A90
330
9
100
AcDbSymbolTableRecord
100
AcDbRegAppTableRecord
  2
GENIUS_GENOREF_13
 70
     0
  0
APPID
  5
A91
330
9
100
AcDbSymbolTableRecord
100
AcDbRegAppTableRecord
  2
GENIUS_GENOLIS_13
 70
     0
  0
APPID
  5
A92
330
9
100
AcDbSymbolTableRecord
100
AcDbRegAppTableRecord
  2
GENIUS_GENZVEED_13
 70
     0
  0
APPID
  5
A93
330
9
100
AcDbSymbolTableRecord
100
AcDbRegAppTableRecord
  2
GENIUS_GENSCREG_15
 70
     0
  0
APPID
  5
A94
330
9
100
AcDbSymbolTableRecord
100
AcDbRegAppTableRecord
  2
GENIUS_GENOBJ-N-SDF_13
 70
     0
  0
APPID
  5
12B5
330
9
100
AcDbSymbolTableRecord
100
AcDbRegAppTableRecord
  2
GENIUS_GENOBJ-N-RSBK_13
 70
     0
  0
APPID
  5
12B6
330
9
100
AcDbSymbolTableRecord
100
AcDbRegAppTableRecord
  2
GENIUS_GENOBJ-N-LIB_13
 70
     0
  0
APPID
  5
12B7
330
9
100
AcDbSymbolTableRecord
100
AcDbRegAppTableRecord
  2
GENIUS_GENSCALE_13
 70
     0
  0
APPID
  5
12B8
330
9
100
AcDbSymbolTableRecord
100
AcDbRegAppTableRecord
  2
GENIUS_GENOBJ-N-HTC_13
 70
     0
  0
APPID
  5
12B9
330
9
100
AcDbSymbolTableRecord
100
AcDbRegAppTableRecord
  2
GENIUS_GENHATCH_13
 70
     0
  0
APPID
  5
189B
330
9
100
AcDbSymbolTableRecord
100
AcDbRegAppTableRecord
  2
BASE_TYPE
 70
     0
  0
APPID
  5
189C
330
9
100
AcDbSymbolTableRecord
100
AcDbRegAppTableRecord
  2
GENIUS_GENOBJ-N-FIL_13
 70
     0
  0
APPID
  5
23D0
330
9
100
AcDbSymbolTableRecord
100
AcDbRegAppTableRecord
  2
ACATTRIBSERVICES
 70
     0
  0
APPID
  5
264C
330
9
100
AcDbSymbolTableRecord
100
AcDbRegAppTableRecord
  2
GENIUS_GENSCREG_13
 70
     0
  0
APPID
  5
26E5
330
9
100
AcDbSymbolTableRecord
100
AcDbRegAppTableRecord
  2
CONTENTBLOCKICON
 70
     0
  0
APPID
  5
2747
330
9
100
AcDbSymbolTableRecord
100
AcDbRegAppTableRecord
  2
GENIUS_GENFIL_13
 70
     0
  0
APPID
  5
2748
330
9
100
AcDbSymbolTableRecord
100
AcDbRegAppTableRecord
  2
GENIUS_GENOBJ-N-CHA_13
 70
     0
  0
APPID
  5
2749
330
9
100
AcDbSymbolTableRecord
100
AcDbRegAppTableRecord
  2
GENIUS_GENDIMSH_14
 70
     0
  0
APPID
  5
274A
330
9
100
AcDbSymbolTableRecord
100
AcDbRegAppTableRecord
  2
GENIUS_GENOBJ-N-DIM_13
 70
     0
  0
APPID
  5
274B
330
9
100
AcDbSymbolTableRecord
100
AcDbRegAppTableRecord
  2
GENIUS_GENDIM_13
 70
     0
  0
APPID
  5
2A08
330
9
100
AcDbSymbolTableRecord
100
AcDbRegAppTableRecord
  2
GENIUS_GENOBJ-N-CRS_13
 70
     0
  0
APPID
  5
9A0B
330
9
100
AcDbSymbolTableRecord
100
AcDbRegAppTableRecord
  2
AD_DRAW
 70
     0
  0
APPID
  5
9A29
330
9
100
AcDbSymbolTableRecord
100
AcDbRegAppTableRecord
  2
DESIGNERASSEMBLIES
 70
     0
  0
APPID
  5
9A2F
330
9
100
AcDbSymbolTableRecord
100
AcDbRegAppTableRecord
  2
ACADM_DIM_EDIT
 70
     0
  0
APPID
  5
9A30
330
9
100
AcDbSymbolTableRecord
100
AcDbRegAppTableRecord
  2
AMDT_DM_ADJ
 70
     0
  0
APPID
  5
9B24
330
9
100
AcDbSymbolTableRecord
100
AcDbRegAppTableRecord
  2
GENIUS_GENCEN_19
 70
     0
  0
APPID
  5
A33D
330
9
100
AcDbSymbolTableRecord
100
AcDbRegAppTableRecord
  2
ACAD_DSTYLE_DIMTEXT_FILL
 70
     0
  0
APPID
  5
A33E
330
9
100
AcDbSymbolTableRecord
100
AcDbRegAppTableRecord
  2
ACAD_PSEXT
 70
     0
  0
ENDTAB
  0
TABLE
  2
DIMSTYLE
  5
A
330
0
100
AcDbSymbolTable
 70
    10
100
AcDbDimStyleTable
  0
DIMSTYLE
105
58
330
A
100
AcDbSymbolTableRecord
100
AcDbDimStyleTableRecord
  2
AM_JIS
 70
     0
  4
"
 41
2.5
 42
0.0
 43
10.0
 44
1.0
 47
0.1
 48
0.1000000001
 73
     0
 74
     0
 77
     3
 78
     1
 79
     2
140
3.8
141
0.0
143
0.0393701
146
0.71
147
1.5
172
     1
176
   256
177
   256
178
     2
179
     2
271
     3
272
     3
275
     1
283
     0
284
     8
340
11
341
59
342
59
371
    -1
372
    -1
  0
DIMSTYLE
105
5F
330
A
100
AcDbSymbolTableRecord
100
AcDbDimStyleTableRecord
  2
AM_JIS$3
 70
     0
  4
"
 41
2.5
 42
0.0
 43
10.0
 44
1.0
 47
0.1
 48
0.1000000001
 73
     0
 77
     3
 78
     1
 79
     2
140
3.8
141
0.0
143
0.0393701
146
0.71
147
1.5
172
     1
176
   256
177
   256
178
     2
179
     2
271
     3
272
     3
275
     1
283
     0
284
     8
288
     1
289
     0
340
11
341
59
342
59
371
    -1
372
    -1
  0
DIMSTYLE
105
60
330
A
100
AcDbSymbolTableRecord
100
AcDbDimStyleTableRecord
  2
AM_JIS$4
 70
     0
  4
"
 41
2.5
 42
0.0
 43
10.0
 44
1.0
 47
0.1
 48
0.1000000001
 73
     0
 77
     3
 78
     1
 79
     2
140
3.8
141
0.0
143
0.0393701
146
0.71
147
1.5
172
     1
176
   256
177
   256
178
     2
179
     2
271
     3
272
     3
275
     1
283
     0
284
     8
288
     1
289
     0
340
11
341
59
342
59
371
    -1
372
    -1
  0
DIMSTYLE
105
61
330
A
100
AcDbSymbolTableRecord
100
AcDbDimStyleTableRecord
  2
AM_JIS$6
 70
     0
  4
"
 41
2.5
 42
0.0
 43
10.0
 44
1.0
 47
0.1
 48
0.1000000001
 73
     0
 74
     0
 78
     1
 79
     2
140
3.8
141
0.0
143
0.0393701
146
0.71
147
1.5
172
     1
176
   256
177
   256
178
     2
179
     2
271
     3
272
     3
275
     1
283
     0
284
     8
340
11
341
59
342
59
371
    -1
372
    -1
  0
DIMSTYLE
105
62
330
A
100
AcDbSymbolTableRecord
100
AcDbDimStyleTableRecord
  2
AM_JIS$7
 70
     0
  4
"
 41
2.5
 42
0.0
 43
10.0
 44
1.0
 47
0.1
 48
0.1000000001
 73
     0
 74
     0
 77
     3
 78
     1
 79
     2
140
5.0
141
0.0
143
0.0393701
146
0.71
147
1.5
172
     1
176
   256
177
   256
178
     2
179
     2
271
     3
272
     3
275
     1
283
     0
284
     8
340
11
341
59
342
59
371
    -1
372
    -1
  0
DIMSTYLE
105
63
330
A
100
AcDbSymbolTableRecord
100
AcDbDimStyleTableRecord
  2
AM_JIS$SF
 70
     0
  4
"
 41
2.5
 42
1.0
 43
10.0
 44
1.0
 47
0.1
 48
0.1
 73
     0
 74
     0
 75
     1
 76
     1
 77
     3
 78
     8
 79
     2
140
3.5
141
0.0
143
0.0393701
146
0.71
147
1.5
176
   256
177
   256
178
     2
271
     2
272
     3
274
     4
340
11
341
59
342
59
343
59
344
59
371
    -1
372
    -1
  0
DIMSTYLE
105
68
330
A
100
AcDbSymbolTableRecord
100
AcDbDimStyleTableRecord
  2
AM_JIS$SH
 70
     0
  4
"
 41
2.5
 42
1.0
 43
10.0
 44
1.0
 47
0.1
 48
0.1
 73
     0
 74
     0
 75
     1
 76
     1
 77
     3
 78
     8
 79
     2
140
3.5
141
0.0
143
0.0393701
144
2.0
146
0.71
147
1.5
173
     1
176
   256
177
   256
178
     2
271
     2
272
     3
274
     4
340
11
341
59
342
59
343
64
344
59
371
    -1
372
    -1
  0
DIMSTYLE
105
65F
330
A
100
AcDbSymbolTableRecord
100
AcDbDimStyleTableRecord
  2
STANDARD
 70
     0
340
11
  0
DIMSTYLE
105
1899
102
{ACAD_REACTORS
330
7A0E
330
9D0C
102
}
330
A
100
AcDbSymbolTableRecord
100
AcDbDimStyleTableRecord
  2
AM_JIS$0
 70
     0
  4
"
 41
2.5
 42
0.0
 43
10.0
 44
1.0
 47
0.1
 48
0.1000000001
 73
     0
 74
     0
 77
     3
 78
     1
 79
     2
140
3.8
141
0.0
143
0.0393701
146
0.71
147
1.5
172
     1
176
     3
177
     3
178
     2
271
     3
272
     3
275
     1
283
     0
284
     8
289
     0
340
11
341
59
342
59
371
    13
372
    13
  0
DIMSTYLE
105
189A
102
{ACAD_REACTORS
330
AE2A
330
F2ED
102
}
330
A
100
AcDbSymbolTableRecord
100
AcDbDimStyleTableRecord
  2
AM_JIS$2
 70
     0
  4
"
 41
2.5
 42
0.0
 43
10.0
 44
1.0
 47
0.1
 48
0.1000000001
 73
     0
 74
     0
 77
     3
 78
     1
 79
     2
140
3.8
141
0.0
143
0.0393701
146
0.71
147
1.5
172
     1
176
     3
177
     3
178
     2
179
     3
271
     3
272
     3
275
     1
283
     0
284
     8
289
     0
340
11
341
59
342
59
371
    13
372
    13
  0
ENDTAB
  0
TABLE
  2
BLOCK_RECORD
  5
1
330
0
100
AcDbSymbolTable
 70
     8
  0
BLOCK_RECORD
  5
1F
102
{ACAD_XDICTIONARY
360
165
102
}
330
1
100
AcDbSymbolTableRecord
100
AcDbBlockTableRecord
  2
*Model_Space
340
22
  0
BLOCK_RECORD
  5
1B
102
{ACAD_XDICTIONARY
360
264F
102
}
330
1
100
AcDbSymbolTableRecord
100
AcDbBlockTableRecord
  2
*Paper_Space
340
1E
  0
BLOCK_RECORD
  5
23
102
{ACAD_XDICTIONARY
360
2651
102
}
330
1
100
AcDbSymbolTableRecord
100
AcDbBlockTableRecord
  2
*Paper_Space0
340
26
  0
BLOCK_RECORD
  5
59
330
1
100
AcDbSymbolTableRecord
100
AcDbBlockTableRecord
  2
_Open30
340
0
102
{BLKREFS
331
F43A
331
F43B
331
F443
331
F444
331
F44C
331
F44D
331
F457
331
F458
102
}
  0
BLOCK_RECORD
  5
64
330
1
100
AcDbSymbolTableRecord
100
AcDbBlockTableRecord
  2
GENAXEH
340
0
  0
BLOCK_RECORD
  5
7A0F
330
1
100
AcDbSymbolTableRecord
100
AcDbBlockTableRecord
  2
*D3
340
0
  0
BLOCK_RECORD
  5
9A20
330
1
100
AcDbSymbolTableRecord
100
AcDbBlockTableRecord
  2
*U4
340
0
  0
BLOCK_RECORD
  5
9E80
330
1
100
AcDbSymbolTableRecord
100
AcDbBlockTableRecord
  2
*D5
340
0
  0
BLOCK_RECORD
  5
AEE1
330
1
100
AcDbSymbolTableRecord
100
AcDbBlockTableRecord
  2
*D6
340
0
  0
BLOCK_RECORD
  5
F2EE
330
1
100
AcDbSymbolTableRecord
100
AcDbBlockTableRecord
  2
*D7
340
0
  0
ENDTAB
  0
ENDSEC
  0
SECTION
  2
BLOCKS
  0
BLOCK
  5
20
330
1F
100
AcDbEntity
  8
0
100
AcDbBlockBegin
  2
*Model_Space
 70
     0
 71
     0
 10
0.0
 20
0.0
 30
0.0
  3
*Model_Space
  1

  0
ENDBLK
  5
21
330
1F
100
AcDbEntity
  8
0
100
AcDbBlockEnd
  0
BLOCK
  5
1C
330
1B
100
AcDbEntity
 67
     1
  8
0
100
AcDbBlockBegin
  2
*Paper_Space
 70
     0
 71
     0
 10
0.0
 20
0.0
 30
0.0
  3
*Paper_Space
  1

  0
ENDBLK
  5
1D
330
1B
100
AcDbEntity
 67
     1
  8
0
100
AcDbBlockEnd
  0
BLOCK
  5
24
330
23
100
AcDbEntity
  8
0
100
AcDbBlockBegin
  2
*Paper_Space0
 70
     0
 71
     0
 10
0.0
 20
0.0
 30
0.0
  3
*Paper_Space0
  1

  0
ENDBLK
  5
25
330
23
100
AcDbEntity
  8
0
100
AcDbBlockEnd
  0
BLOCK
  5
2F22
330
59
100
AcDbEntity
  8
0
100
AcDbBlockBegin
  2
_Open30
 70
     0
 71
     0
 10
0.0
 20
0.0
 30
0.0
  3
_Open30
  1

  0
LINE
  5
2F1F
330
59
100
AcDbEntity
  8
0
 62
     0
370
    -2
100
AcDbLine
 10
-1.0
 20
0.26794919
 30
0.0
 11
0.0
 21
0.0
 31
0.0
  0
LINE
  5
2F20
330
59
100
AcDbEntity
  8
0
 62
     0
370
    -2
100
AcDbLine
 10
0.0
 20
0.0
 30
0.0
 11
-1.0
 21
-0.26794919
 31
0.0
  0
LINE
  5
2F21
330
59
100
AcDbEntity
  8
0
 62
     0
370
    -2
100
AcDbLine
 10
0.0
 20
0.0
 30
0.0
 11
-1.0
 21
0.0
 31
0.0
  0
ENDBLK
  5
2F23
330
59
100
AcDbEntity
  8
0
100
AcDbBlockEnd
  0
BLOCK
  5
2F2E
330
64
100
AcDbEntity
  8
0
100
AcDbBlockBegin
  2
GENAXEH
 70
     0
 71
     0
 10
0.0
 20
0.0
 30
0.0
  3
GENAXEH
  1

  0
LINE
  5
2F2D
330
64
100
AcDbEntity
  8
0
100
AcDbLine
 10
-1.0
 20
0.0
 30
0.0
 11
1.0
 21
0.0
 31
0.0
  0
ENDBLK
  5
2F2F
330
64
100
AcDbEntity
  8
0
100
AcDbBlockEnd
  0
BLOCK
  5
7A19
330
7A0F
100
AcDbEntity
  8
0
100
AcDbBlockBegin
  2
*D3
 70
     1
 71
     0
 10
0.0
 20
0.0
 30
0.0
  3
*D3
  1

  0
LINE
  5
F437
330
7A0F
100
AcDbEntity
  8
AM_5
 62
     3
370
    13
100
AcDbLine
 10
-0.0000000000005116
 20
-4.356611601320878
 30
0.0
 11
-0.0000000000005161
 21
-78.60533305587705
 31
0.0
  0
LINE
  5
F438
330
7A0F
100
AcDbEntity
  8
AM_5
 62
     3
370
    13
100
AcDbLine
 10
99.99999999999994
 20
-31.49999999999955
 30
0.0
 11
99.99999999999994
 21
-78.60533305587705
 31
0.0
  0
LINE
  5
F439
330
7A0F
100
AcDbEntity
  8
AM_5
 62
     3
370
    13
100
AcDbLine
 10
2.499999999999484
 20
-77.60533305587705
 30
0.0
 11
97.49999999999994
 21
-77.60533305587705
 31
0.0
  0
INSERT
  5
F43A
330
7A0F
100
AcDbEntity
  8
AM_5
 62
     3
370
    13
100
AcDbBlockReference
  2
_Open30
 10
-0.0000000000005161
 20
-77.60533305587705
 30
0.0
 41
2.5
 42
2.5
 43
2.5
 50
180.0
  0
INSERT
  5
F43B
330
7A0F
100
AcDbEntity
  8
AM_5
 62
     3
370
    13
100
AcDbBlockReference
  2
_Open30
 10
99.99999999999994
 20
-77.60533305587705
 30
0.0
 41
2.5
 42
2.5
 43
2.5
  0
MTEXT
  5
F43C
330
7A0F
100
AcDbEntity
  8
AM_5
 62
     2
100
AcDbMText
 10
49.99999999999972
 20
-74.20533305587705
 30
0.0
 40
3.8
 41
0.0
 71
     5
 72
     1
  1
100
 73
     1
 44
1.0
  0
POINT
  5
F43D
330
7A0F
100
AcDbEntity
  8
Defpoints
 62
     0
100
AcDbPoint
 10
-0.0000000000005116
 20
-4.356611601320878
 30
0.0
  0
POINT
  5
F43E
330
7A0F
100
AcDbEntity
  8
Defpoints
 62
     0
100
AcDbPoint
 10
99.99999999999994
 20
-31.49999999999955
 30
0.0
  0
POINT
  5
F43F
330
7A0F
100
AcDbEntity
  8
Defpoints
 62
     0
100
AcDbPoint
 10
99.99999999999994
 20
-77.60533305587705
 30
0.0
  0
ENDBLK
  5
7A1A
330
7A0F
100
AcDbEntity
  8
0
100
AcDbBlockEnd
  0
BLOCK
  5
9A21
330
9A20
100
AcDbEntity
  8
0
100
AcDbBlockBegin
  2
*U4
 70
     1
 71
     0
 10
0.0
 20
0.0
 30
0.0
  3
*U4
  1

  0
ENDBLK
  5
9A22
330
9A20
100
AcDbEntity
  8
0
100
AcDbBlockEnd
  0
BLOCK
  5
9F2A
330
9E80
100
AcDbEntity
  8
0
100
AcDbBlockBegin
  2
*D5
 70
     1
 71
     0
 10
0.0
 20
0.0
 30
0.0
  3
*D5
  1

  0
LINE
  5
F440
330
9E80
100
AcDbEntity
  8
AM_5
 62
     3
370
    13
100
AcDbLine
 10
99.7000000000001
 20
31.50000000000028
 30
0.0
 11
158.8439792830395
 21
31.50000000000027
 31
0.0
  0
LINE
  5
F441
330
9E80
100
AcDbEntity
  8
AM_5
 62
     3
370
    13
100
AcDbLine
 10
99.69999999999993
 20
-31.49999999999949
 30
0.0
 11
158.8439792830395
 21
-31.49999999999951
 31
0.0
  0
LINE
  5
F442
330
9E80
100
AcDbEntity
  8
AM_5
 62
     3
370
    13
100
AcDbLine
 10
157.8439792830395
 20
29.00000000000027
 30
0.0
 11
157.8439792830395
 21
-28.99999999999951
 31
0.0
  0
INSERT
  5
F443
330
9E80
100
AcDbEntity
  8
AM_5
 62
     3
370
    13
100
AcDbBlockReference
  2
_Open30
 10
157.8439792830395
 20
31.50000000000027
 30
0.0
 41
2.5
 42
2.5
 43
2.5
 50
90.0
  0
INSERT
  5
F444
330
9E80
100
AcDbEntity
  8
AM_5
 62
     3
370
    13
100
AcDbBlockReference
  2
_Open30
 10
157.8439792830395
 20
-31.49999999999951
 30
0.0
 41
2.5
 42
2.5
 43
2.5
 50
270.0
  0
MTEXT
  5
F445
330
9E80
100
AcDbEntity
  8
AM_5
 62
     2
100
AcDbMText
 10
154.4439792830395
 20
0.0000000000004064
 30
0.0
 40
3.8
 41
0.0
 71
     5
 72
     1
  1
%%c63
 11
6.123031769111886E-17
 21
1.0
 31
0.0
 73
     1
 44
1.0
  0
POINT
  5
F446
330
9E80
100
AcDbEntity
  8
Defpoints
 62
     0
100
AcDbPoint
 10
99.7000000000001
 20
31.50000000000028
 30
0.0
  0
POINT
  5
F447
330
9E80
100
AcDbEntity
  8
Defpoints
 62
     0
100
AcDbPoint
 10
99.69999999999993
 20
-31.49999999999949
 30
0.0
  0
POINT
  5
F448
330
9E80
100
AcDbEntity
  8
Defpoints
 62
     0
100
AcDbPoint
 10
157.8439792830395
 20
-31.49999999999951
 30
0.0
  0
ENDBLK
  5
9F2B
330
9E80
100
AcDbEntity
  8
0
100
AcDbBlockEnd
  0
BLOCK
  5
AFBC
330
AEE1
100
AcDbEntity
  8
0
100
AcDbBlockBegin
  2
*D6
 70
     1
 71
     0
 10
0.0
 20
0.0
 30
0.0
  3
*D6
  1

  0
LINE
  5
F449
330
AEE1
100
AcDbEntity
  8
AM_5
 62
     3
370
    13
100
AcDbLine
 10
-0.0000000000005684
 20
-28.85687330402902
 30
0.0
 11
-0.0000000000005773
 21
-38.0941244752805
 31
0.0
  0
LINE
  5
F44A
330
AEE1
100
AcDbEntity
  8
AM_5
 62
     3
370
    13
100
AcDbLine
 10
8.810216692039772
 20
-7.857846010288766
 30
0.0
 11
28.74742615575663
 21
-24.79568401051023
 31
0.0
  0
ARC
  5
F44B
330
AEE1
100
AcDbEntity
  8
AM_5
 62
     3
370
    13
100
AcDbCircle
 10
-0.0000000000005693
 20
-0.373046126523783
 30
0.0
 40
36.72107834875672
100
AcDbArc
 50
273.9014956189074
 51
315.7486362694378
  0
INSERT
  5
F44C
330
AEE1
100
AcDbEntity
  8
AM_5
 62
     3
370
    13
100
AcDbBlockReference
  2
_Open30
 10
-0.0000000000005755
 20
-37.0941244752805
 30
0.0
 41
2.5
 42
2.5
 43
2.5
 50
181.9507478094537
  0
INSERT
  5
F44D
330
AEE1
100
AcDbEntity
  8
AM_5
 62
     3
370
    13
100
AcDbBlockReference
  2
_Open30
 10
27.98532105658719
 20
-24.14823067796807
 30
0.0
 41
2.5
 42
2.5
 43
2.5
 50
47.69938407889151
  0
MTEXT
  5
F44E
330
AEE1
100
AcDbEntity
  8
AM_5
 62
     2
100
AcDbMText
 10
13.9898274127998
 20
-30.61505319093741
 30
0.0
 40
3.8
 41
0.0
 71
     5
 72
     1
  1
50°
 11
0.9075938884055357
 21
0.419849179740678
 31
0.0
 73
     1
 44
1.0
  0
POINT
  5
F44F
330
AEE1
100
AcDbEntity
  8
Defpoints
 62
     0
100
AcDbPoint
 10
10.46009831548545
 20
-35.57281797700452
 30
0.0
  0
POINT
  5
F450
330
AEE1
100
AcDbEntity
  8
Defpoints
 62
     0
100
AcDbPoint
 10
-0.0000000000005675
 20
-16.94894992963805
 30
0.0
  0
POINT
  5
F451
330
AEE1
100
AcDbEntity
  8
Defpoints
 62
     0
100
AcDbPoint
 10
8.810216692039772
 20
-7.857846010288766
 30
0.0
  0
POINT
  5
F452
330
AEE1
100
AcDbEntity
  8
Defpoints
 62
     0
100
AcDbPoint
 10
0.2822516104224064
 20
-0.61283555449495
 30
0.0
  0
POINT
  5
F453
330
AEE1
100
AcDbEntity
  8
Defpoints
 62
     0
100
AcDbPoint
 10
-0.0000000000005684
 20
-28.85687330402902
 30
0.0
  0
ENDBLK
  5
AFBD
330
AEE1
100
AcDbEntity
  8
0
100
AcDbBlockEnd
  0
BLOCK
  5
F332
330
F2EE
100
AcDbEntity
  8
0
100
AcDbBlockBegin
  2
*D7
 70
     1
 71
     0
 10
0.0
 20
0.0
 30
0.0
  3
*D7
  1

  0
LINE
  5
F454
330
F2EE
100
AcDbEntity
  8
AM_5
 62
     3
370
    13
100
AcDbLine
 10
-0.4391055555046745
 20
0.0000000000002885
 30
0.0
 11
-17.17020038934898
 21
14.21405409707645
 31
0.0
  0
LINE
  5
F455
330
F2EE
100
AcDbEntity
  8
AM_5
 62
     3
370
    13
100
AcDbLine
 10
-0.4391055555046745
 20
0.0000000000002885
 30
0.0
 11
-17.17020038934875
 21
-14.21405409707614
 31
0.0
  0
ARC
  5
F456
330
F2EE
100
AcDbEntity
  8
AM_5
 62
     3
370
    13
100
AcDbCircle
 10
-0.4391055555046745
 20
0.0000000000002885
 30
0.0
 40
20.95378938164661
100
AcDbArc
 50
146.4901616750705
 51
213.5098383249304
  0
INSERT
  5
F457
330
F2EE
100
AcDbEntity
  8
AM_5
 62
     3
370
    13
100
AcDbBlockReference
  2
_Open30
 10
-16.40809529017956
 20
13.56660076453428
 30
0.0
 41
2.5
 42
2.5
 43
2.5
 50
53.07014678170717
  0
INSERT
  5
F458
330
F2EE
100
AcDbEntity
  8
AM_5
 62
     3
370
    13
100
AcDbBlockReference
  2
_Open30
 10
-16.40809529017935
 20
-13.56660076453395
 30
0.0
 41
2.5
 42
2.5
 43
2.5
 50
306.9298532182938
  0
MTEXT
  5
F459
330
F2EE
100
AcDbEntity
  8
AM_5
 62
     2
100
AcDbMText
 10
-24.79289493715128
 20
0.0000000000001193
 30
0.0
 40
3.8
 41
0.0
 71
     5
 72
     1
  1
80%%D
 11
6.123031769111886E-17
 21
1.0
 31
0.0
 73
     1
 44
1.0
  0
POINT
  5
F45A
330
F2EE
100
AcDbEntity
  8
Defpoints
 62
     0
100
AcDbPoint
 10
-20.81820474521674
 20
4.873767091920366
 30
0.0
  0
POINT
  5
F45B
330
F2EE
100
AcDbEntity
  8
Defpoints
 62
     0
100
AcDbPoint
 10
0.2822516104230317
 20
0.6128355544954616
 30
0.0
  0
POINT
  5
F45C
330
F2EE
100
AcDbEntity
  8
Defpoints
 62
     0
100
AcDbPoint
 10
8.810216692040285
 20
-7.857846010288938
 30
0.0
  0
POINT
  5
F45D
330
F2EE
100
AcDbEntity
  8
Defpoints
 62
     0
100
AcDbPoint
 10
0.2822516104230317
 20
-0.6128355544948647
 30
0.0
  0
POINT
  5
F45E
330
F2EE
100
AcDbEntity
  8
Defpoints
 62
     0
100
AcDbPoint
 10
8.810216692040171
 20
7.857846010289677
 30
0.0
  0
ENDBLK
  5
F333
330
F2EE
100
AcDbEntity
  8
0
100
AcDbBlockEnd
  0
ENDSEC
  0
SECTION
  2
ENTITIES
  0
LINE
  5
6E5E
330
1F
100
AcDbEntity
  8
AM_7
100
AcDbLine
 10
149.2703277076821
 20
0.0000000000003948
 30
0.0
 11
-3.965047614017692
 21
0.0000000000004547
 31
0.0
1001
GENIUS_GENODEF_13
1002
{
1000
HIER
1070
     0
1002
}
1002
{
1000
MANEDIT
1070
     0
1002
}
1002
{
1000
NOSEL
1070
     0
1002
}
1002
{
1000
BEHIND
1070
     0
1002
}
1002
{
1000
OTHER
1070
     0
1002
}
1002
{
1000
REACTOR
1002
}
1001
GENIUS_GENOBJ-N-CEN_13
1002
{
1000
OWNER
1000
GEN
1002
}
  0
LINE
  5
6E5F
330
1F
100
AcDbEntity
  8
AM_7
100
AcDbLine
 10
149.2703277076821
 20
-127.0306236234378
 30
0.0
 11
-4.488259799376863
 21
-127.0306236234378
 31
0.0
1001
GENIUS_GENOBJ-N-CEN_13
1002
{
1000
OWNER
1000
GEN
1002
}
1001
GENIUS_GENODEF_13
1002
{
1000
HIER
1070
     0
1002
}
1002
{
1000
MANEDIT
1070
     0
1002
}
1002
{
1000
NOSEL
1070
     0
1002
}
1002
{
1000
BEHIND
1070
     0
1002
}
1002
{
1000
OTHER
1070
     0
1002
}
1002
{
1000
REACTOR
1002
}
  0
DIMENSION
  5
7A0E
330
1F
100
AcDbEntity
  8
AM_5
100
AcDbDimension
  2
*D3
 10
99.99999999999994
 20
-77.60533305587705
 30
0.0
 11
49.99999999999972
 21
-74.20533305587705
 31
0.0
 70
    32
 71
     5
 42
100.0000000000005
  3
AM_JIS$0
100
AcDbAlignedDimension
 13
-0.0000000000005116
 23
-4.356611601320878
 33
0.0
 14
99.99999999999994
 24
-31.49999999999955
 34
0.0
100
AcDbRotatedDimension
1001
ACAD
1000
DSTYLE
1002
{
1070
   179
1070
     0
1070
   271
1070
     0
1070
   272
1070
     2
1002
}
  0
DIMENSION
  5
9D0C
330
1F
100
AcDbEntity
  8
AM_5
100
AcDbDimension
  2
*D5
 10
157.8439792830395
 20
-31.49999999999951
 30
0.0
 11
154.4439792830395
 21
0.0000000000004064
 31
0.0
 70
    32
  1
%%c<>
 71
     5
 42
62.99999999999977
  3
AM_JIS$0
100
AcDbAlignedDimension
 13
99.7000000000001
 23
31.50000000000028
 33
0.0
 14
99.69999999999993
 24
-31.49999999999949
 34
0.0
 50
90.0
100
AcDbRotatedDimension
1001
ACAD
1000
DSTYLE
1002
{
1070
   179
1070
     0
1070
   271
1070
     0
1070
   272
1070
     2
1002
}
  0
LINE
  5
9D4C
330
1F
100
AcDbEntity
  8
AM_0
100
AcDbLine
 10
99.69999999999993
 20
-31.4999999999996
 30
0.0
 11
99.70000000000005
 21
31.50000000000048
 31
0.0
  0
LINE
  5
9D56
330
1F
100
AcDbEntity
  8
AM_0
100
AcDbLine
 10
99.99999999999994
 20
-31.19999999999942
 30
0.0
 11
100.0000000000001
 21
31.20000000000033
 31
0.0
  0
SPLINE
  5
9D7F
330
1F
100
AcDbEntity
  8
AM_0
100
AcDbSpline
210
0.0
220
0.0
230
1.0
 70
     8
 71
     3
 72
    14
 73
    10
 74
     0
 42
0.0000000001
 43
0.0000000001
 40
2.582172705186494
 40
2.582172705186494
 40
2.582172705186494
 40
2.582172705186494
 40
2.675834359684354
 40
2.675834359684354
 40
2.769496014182214
 40
2.769496014182214
 40
2.956819323177933
 40
2.956819323177933
 40
3.30651863770592
 40
3.30651863770592
 40
3.30651863770592
 40
3.30651863770592
 10
86.53867513459477
 20
-117.6814023089119
 30
0.0
 10
86.50745458309552
 20
-117.6814023089119
 30
0.0
 10
86.47719203113019
 20
-117.6753783346717
 30
0.0
 10
86.41972622057779
 20
-117.6537330442562
 30
0.0
 10
86.3925281324822
 20
-117.6380994825111
 30
0.0
 10
86.31690157474907
 20
-117.5813003973931
 30
0.0
 10
86.27450195817693
 20
-117.530020307249
 30
0.0
 10
86.17998528224382
 20
-117.3851561857503
 30
0.0
 10
86.13700293947289
 20
-117.275777949134
 30
0.0
 10
86.10566243270256
 20
-117.1612110044706
 30
0.0
  0
ARC
  5
9D80
330
1F
100
AcDbEntity
  8
AM_0
100
AcDbCircle
 10
86.50091622838409
 20
-97.49782943464155
 30
0.0
 40
0.5490983609134384
100
AcDbArc
 50
86.0569275439549
 51
136.0398939119356
  0
LINE
  5
9D81
330
1F
100
AcDbEntity
  8
AM_0
100
AcDbLine
 10
86.10566243270262
 20
-97.11666877696921
 30
0.0
 11
86.10566243270262
 21
-117.1612110044706
 31
0.0
  0
ELLIPSE
  5
9D82
330
1F
100
AcDbEntity
  8
AM_0
100
AcDbEllipse
 10
102.3471541893598
 20
-127.0306236234378
 30
0.0
 11
14.75368316065343
 21
-31.09325491558128
 31
-2.584885466634972E-16
210
3.219739583813333E-18
220
-6.785572290740565E-18
230
1.0
 40
0.3419987131196118
 41
3.299398840235308
 42
4.232832239342633
  0
LINE
  5
9D83
330
1F
100
AcDbEntity
  8
AM_0
100
AcDbLine
 10
89.46132486540546
 20
-117.6814023089117
 30
0.0
 11
86.53867513459488
 21
-117.6814023089117
 31
0.0
  0
LINE
  5
9D84
330
1F
100
AcDbEntity
  8
AM_0
100
AcDbLine
 10
86.53867513459483
 20
-96.95003086312134
 30
0.0
 11
86.53867513459483
 21
-117.6814023089119
 31
0.0
  0
LINE
  5
9D85
330
1F
100
AcDbEntity
  8
AM_0
100
AcDbLine
 10
86.53867513459488
 20
-96.9500308631214
 30
0.0
 11
89.46132486540546
 21
-96.9500308631214
 31
0.0
  0
SPLINE
  5
9D86
330
1F
100
AcDbEntity
  8
AM_0
100
AcDbSpline
210
0.0
220
0.0
230
1.0
 70
     8
 71
     3
 72
    14
 73
    10
 74
     0
 42
0.0000000001
 43
0.0000000001
 40
1.857826772665431
 40
1.857826772665431
 40
1.857826772665431
 40
1.857826772665431
 40
2.207526087195096
 40
2.207526087195096
 40
2.394849396190812
 40
2.394849396190812
 40
2.48851105068867
 40
2.48851105068867
 40
2.582172705186528
 40
2.582172705186528
 40
2.582172705186528
 40
2.582172705186528
 10
89.8943375672975
 20
-117.1612110044706
 30
0.0
 10
89.86299706052705
 20
-117.2757779491345
 30
0.0
 10
89.82001471775664
 20
-117.3851561857497
 30
0.0
 10
89.72549804182324
 20
-117.5300203072488
 30
0.0
 10
89.6830984252511
 20
-117.5813003973928
 30
0.0
 10
89.60747186751797
 20
-117.6380994825109
 30
0.0
 10
89.58027377942238
 20
-117.6537330442559
 30
0.0
 10
89.52280796886998
 20
-117.6753783346715
 30
0.0
 10
89.49254541690465
 20
-117.6814023089117
 30
0.0
 10
89.46132486540535
 20
-117.6814023089117
 30
0.0
  0
LINE
  5
9D87
330
1F
100
AcDbEntity
  8
AM_0
100
AcDbLine
 10
89.4613248654054
 20
-96.9500308631214
 30
0.0
 11
89.4613248654054
 21
-117.6814023089116
 31
0.0
  0
ARC
  5
9D88
330
1F
100
AcDbEntity
  8
AM_0
100
AcDbCircle
 10
89.49908377161597
 20
-97.49782943464217
 30
0.0
 40
0.5490983609139751
100
AcDbArc
 50
43.96010608810124
 51
93.94307245601888
  0
ARC
  5
9D89
330
1F
100
AcDbEntity
  8
AM_0
100
AcDbCircle
 10
89.49908377161626
 20
-156.5634178122343
 30
0.0
 40
0.5490983609132026
100
AcDbArc
 50
266.0569275439451
 51
316.0398939119402
  0
SPLINE
  5
9D8A
330
1F
100
AcDbEntity
  8
AM_0
100
AcDbSpline
210
0.0
220
0.0
230
1.0
 70
     8
 71
     3
 72
    14
 73
    10
 74
     0
 42
0.0000000001
 43
0.0000000001
 40
2.563234579399785
 40
2.563234579399785
 40
2.563234579399785
 40
2.563234579399785
 40
2.656896233897643
 40
2.656896233897643
 40
2.750557888395502
 40
2.750557888395502
 40
2.937881197391219
 40
2.937881197391219
 40
3.287580511918983
 40
3.287580511918983
 40
3.287580511918983
 40
3.287580511918983
 10
89.46132486540535
 20
-136.3798449379641
 30
0.0
 10
89.49254541690465
 20
-136.3798449379641
 30
0.0
 10
89.52280796886998
 20
-136.3858689122042
 30
0.0
 10
89.58027377942238
 20
-136.4075142026198
 30
0.0
 10
89.60747186751797
 20
-136.4231477643648
 30
0.0
 10
89.6830984252511
 20
-136.4799468494829
 30
0.0
 10
89.72549804182324
 20
-136.5312269396269
 30
0.0
 10
89.82001471775629
 20
-136.6760910611256
 30
0.0
 10
89.86299706052722
 20
-136.7854692977419
 30
0.0
 10
89.8943375672975
 20
-136.9000362424051
 30
0.0
  0
LINE
  5
9D8B
330
1F
100
AcDbEntity
  8
AM_0
100
AcDbLine
 10
89.4613248654054
 20
-136.3798449379641
 30
0.0
 11
89.4613248654054
 21
-157.1112163837543
 31
0.0
  0
LINE
  5
9D8C
330
1F
100
AcDbEntity
  8
AM_0
100
AcDbLine
 10
89.46132486540546
 20
-157.1112163837543
 30
0.0
 11
86.53867513459488
 21
-157.1112163837543
 31
0.0
  0
LINE
  5
9D8D
330
1F
100
AcDbEntity
  8
AM_0
100
AcDbLine
 10
86.53867513459488
 20
-136.379844937964
 30
0.0
 11
89.46132486540546
 21
-136.379844937964
 31
0.0
  0
LINE
  5
9D8E
330
1F
100
AcDbEntity
  8
AM_0
100
AcDbLine
 10
86.53867513459483
 20
-136.3798449379638
 30
0.0
 11
86.53867513459483
 21
-157.1112163837543
 31
0.0
  0
ARC
  5
9D8F
330
1F
100
AcDbEntity
  8
AM_0
100
AcDbCircle
 10
86.5009162283842
 20
-156.5634178122337
 30
0.0
 40
0.5490983609138569
100
AcDbArc
 50
223.9601060880873
 51
273.9430724560255
  0
SPLINE
  5
9D90
330
1F
100
AcDbEntity
  8
AM_0
100
AcDbSpline
210
0.0
220
0.0
230
1.0
 70
     8
 71
     3
 72
    14
 73
    10
 74
     0
 42
0.0000000001
 43
0.0000000001
 40
1.857826772665184
 40
1.857826772665184
 40
1.857826772665184
 40
1.857826772665184
 40
2.20752608719506
 40
2.20752608719506
 40
2.394849396190778
 40
2.394849396190778
 40
2.488511050688637
 40
2.488511050688637
 40
2.582172705186496
 40
2.582172705186496
 40
2.582172705186496
 40
2.582172705186496
 10
86.10566243270256
 20
-136.900036242405
 30
0.0
 10
86.13700293947306
 20
-136.7854692977411
 30
0.0
 10
86.17998528224348
 20
-136.6760910611259
 30
0.0
 10
86.27450195817693
 20
-136.5312269396267
 30
0.0
 10
86.31690157474907
 20
-136.4799468494826
 30
0.0
 10
86.39252813248214
 20
-136.4231477643645
 30
0.0
 10
86.41972622057779
 20
-136.4075142026195
 30
0.0
 10
86.47719203113019
 20
-136.385868912204
 30
0.0
 10
86.50745458309552
 20
-136.3798449379638
 30
0.0
 10
86.53867513459477
 20
-136.3798449379638
 30
0.0
  0
LINE
  5
9D91
330
1F
100
AcDbEntity
  8
AM_0
100
AcDbLine
 10
86.10566243270262
 20
-136.900036242405
 30
0.0
 11
86.10566243270262
 21
-156.9445784699065
 31
0.0
  0
ELLIPSE
  5
9D92
330
1F
100
AcDbEntity
  8
AM_0
100
AcDbEllipse
 10
102.3471541893598
 20
-127.0306236234378
 30
0.0
 11
-14.75368316065454
 21
-31.09325491558074
 31
2.584885466635379E-16
210
3.219739583814081E-18
220
6.785572290741518E-18
230
0.9999999999999999
 40
0.3419987131196122
 41
5.191945721427334
 42
6.12537912053466
  0
LINE
  5
9D93
330
1F
100
AcDbEntity
  8
AM_0
100
AcDbLine
 10
89.89433756729756
 20
-97.11666877696924
 30
0.0
 11
89.89433756729756
 21
-117.1612110044706
 31
0.0
  0
ELLIPSE
  5
9D94
330
1F
100
AcDbEntity
  8
AM_0
100
AcDbEllipse
 10
73.65284581063008
 20
-127.0306236234378
 30
0.0
 11
14.75368316066581
 21
31.09325491557981
 31
-2.584885467126133E-16
210
3.219739584427083E-18
220
6.785572292028018E-18
230
1.0
 40
0.3419987131197482
 41
5.191945721427526
 42
6.125379120534849
  0
LINE
  5
9D95
330
1F
100
AcDbEntity
  8
AM_0
100
AcDbLine
 10
89.89433756729756
 20
-136.9000362424051
 30
0.0
 11
89.89433756729756
 21
-156.9445784699065
 31
0.0
  0
ELLIPSE
  5
9D96
330
1F
100
AcDbEntity
  8
AM_0
100
AcDbEllipse
 10
73.65284581063008
 20
-127.0306236234378
 30
0.0
 11
-14.7536831606647
 21
31.09325491558032
 31
2.584885467125726E-16
210
3.219739584426338E-18
220
-6.785572292027064E-18
230
1.0
 40
0.3419987131197482
 41
3.299398840235119
 42
4.232832239342441
  0
LINE
  5
9DA4
330
1F
100
AcDbEntity
  8
AM_0
100
AcDbLine
 10
99.99999999999994
 20
-95.83062362343797
 30
0.0
 11
99.69999999999993
 21
-95.53062362343796
 31
0.0
  0
LINE
  5
9DA5
330
1F
100
AcDbEntity
  8
AM_0
100
AcDbLine
 10
99.99999999999994
 20
-158.2306236234377
 30
0.0
 11
99.69999999999993
 21
-158.5306236234377
 31
0.0
  0
LINE
  5
9DAD
330
1F
100
AcDbEntity
  8
AM_0
100
AcDbLine
 10
99.69999999999993
 20
-158.5306236234379
 30
0.0
 11
99.69999999999993
 21
-95.53062362343782
 31
0.0
  0
LINE
  5
9DAF
330
1F
100
AcDbEntity
  8
AM_0
100
AcDbLine
 10
99.99999999999994
 20
-158.2306236234377
 30
0.0
 11
99.99999999999994
 21
-95.83062362343797
 31
0.0
  0
ARC
  5
9DFB
330
1F
100
AcDbEntity
  8
AM_0
100
AcDbCircle
 10
86.50045252240699
 20
29.53399914013943
 30
0.0
 40
0.5479284202349815
100
AcDbArc
 50
85.99988912538892
 51
136.0969323304963
  0
SPLINE
  5
9DFC
330
1F
100
AcDbEntity
  8
AM_0
100
AcDbSpline
210
0.0
220
0.0
230
1.0
 70
     8
 71
     3
 72
    16
 73
    12
 74
     0
 42
0.0000000001
 43
0.0000000001
 40
2.582172705186496
 40
2.582172705186496
 40
2.582172705186496
 40
2.582172705186496
 40
2.669304144884479
 40
2.669304144884479
 40
2.756435584582462
 40
2.756435584582462
 40
2.907176786441196
 40
2.907176786441196
 40
3.057917988299931
 40
3.057917988299931
 40
3.291061354033606
 40
3.291061354033606
 40
3.291061354033606
 40
3.291061354033606
 10
86.53867513459483
 20
9.349221314526346
 30
0.0
 10
86.50963132136218
 20
9.349221314526346
 30
0.0
 10
86.47870514516927
 20
9.354828117980219
 30
0.0
 10
86.4206427582784
 20
9.376398742817003
 30
0.0
 10
86.39344719217894
 20
9.392215844562315
 30
0.0
 10
86.33064349088261
 20
9.438407964108478
 30
0.0
 10
86.29436051484476
 20
9.477159545396091
 30
0.0
 10
86.23207013397916
 20
9.562306938684969
 30
0.0
 10
86.20598522288327
 20
9.608649836631912
 30
0.0
 10
86.15285331554657
 20
9.719459621467138
 30
0.0
 10
86.12657964027181
 20
9.792948617295508
 30
0.0
 10
86.10566243270262
 20
9.869412618967601
 30
0.0
  0
LINE
  5
9DFD
330
1F
100
AcDbEntity
  8
AM_0
100
AcDbLine
 10
86.53867513459494
 20
30.08059276031685
 30
0.0
 11
89.46132486540552
 21
30.08059276031685
 31
0.0
  0
LINE
  5
9DFE
330
1F
100
AcDbEntity
  8
AM_0
100
AcDbLine
 10
89.4613248654054
 20
9.349221314526574
 30
0.0
 11
86.53867513459483
 21
9.349221314526574
 31
0.0
  0
ARC
  5
9DFF
330
1F
100
AcDbEntity
  8
AM_0
100
AcDbCircle
 10
89.49908377161609
 20
29.53279418879623
 30
0.0
 40
0.549098360913817
100
AcDbArc
 50
43.96010608809197
 51
93.94307245602543
  0
SPLINE
  5
9E00
330
1F
100
AcDbEntity
  8
AM_0
100
AcDbSpline
210
0.0
220
0.0
230
1.0
 70
     8
 71
     3
 72
    14
 73
    10
 74
     0
 42
0.0000000001
 43
0.0000000001
 40
1.857826772665455
 40
1.857826772665455
 40
1.857826772665455
 40
1.857826772665455
 40
2.207526087195107
 40
2.207526087195107
 40
2.394849396190826
 40
2.394849396190826
 40
2.488511050688685
 40
2.488511050688685
 40
2.582172705186545
 40
2.582172705186545
 40
2.582172705186545
 40
2.582172705186545
 10
89.89433756729756
 20
9.869412618967658
 30
0.0
 10
89.86299706052705
 20
9.754845674303795
 30
0.0
 10
89.82001471775669
 20
9.645467437688694
 30
0.0
 10
89.72549804182324
 20
9.50060331618954
 30
0.0
 10
89.6830984252511
 20
9.449323226045522
 30
0.0
 10
89.60747186751803
 20
9.392524140927378
 30
0.0
 10
89.58027377942244
 20
9.376890579182373
 30
0.0
 10
89.52280796887004
 20
9.35524528876681
 30
0.0
 10
89.4925454169047
 20
9.349221314526631
 30
0.0
 10
89.4613248654054
 20
9.349221314526631
 30
0.0
  0
ELLIPSE
  5
9E01
330
1F
100
AcDbEntity
  8
AM_0
100
AcDbEllipse
 10
73.65284581063008
 20
0.0000000000003979
 30
0.0
 11
-14.75368316066581
 21
-31.09325491557981
 31
0.0
210
0.0
220
0.0
230
1.0
 40
0.341998713119748
 41
2.050353067837734
 42
2.983786466945056
  0
ARC
  5
9E02
330
1F
100
AcDbEntity
  8
AM_0
100
AcDbCircle
 10
86.50091622838426
 20
-29.53279418879509
 30
0.0
 40
0.5490983609142087
100
AcDbArc
 50
223.9601060881012
 51
273.943072456006
  0
SPLINE
  5
9E03
330
1F
100
AcDbEntity
  8
AM_0
100
AcDbSpline
210
0.0
220
0.0
230
1.0
 70
     8
 71
     3
 72
    14
 73
    10
 74
     0
 42
0.0000000001
 43
0.0000000001
 40
1.857826772665185
 40
1.857826772665185
 40
1.857826772665185
 40
1.857826772665185
 40
2.207526087195061
 40
2.207526087195061
 40
2.394849396190778
 40
2.394849396190778
 40
2.488511050688637
 40
2.488511050688637
 40
2.582172705186495
 40
2.582172705186495
 40
2.582172705186495
 40
2.582172705186495
 10
86.10566243270262
 20
-9.869412618966805
 30
0.0
 10
86.13700293947312
 20
-9.754845674302828
 30
0.0
 10
86.17998528224354
 20
-9.645467437687614
 30
0.0
 10
86.27450195817698
 20
-9.50060331618846
 30
0.0
 10
86.31690157474912
 20
-9.449323226044385
 30
0.0
 10
86.3925281324822
 20
-9.392524140926241
 30
0.0
 10
86.41972622057779
 20
-9.376890579181236
 30
0.0
 10
86.47719203113019
 20
-9.35524528876573
 30
0.0
 10
86.50745458309558
 20
-9.349221314525551
 30
0.0
 10
86.53867513459483
 20
-9.349221314525551
 30
0.0
  0
ELLIPSE
  5
9E04
330
1F
100
AcDbEntity
  8
AM_0
100
AcDbEllipse
 10
102.3471541893598
 20
0.0000000000004547
 30
0.0
 11
-14.75368316065455
 21
-31.09325491558076
 31
0.0
210
0.0
220
0.0
230
1.0
 40
0.3419987131196121
 41
5.191945721427338
 42
6.125379120534663
  0
LINE
  5
9E05
330
1F
100
AcDbEntity
  8
AM_0
100
AcDbLine
 10
89.4613248654054
 20
-30.08059276031605
 30
0.0
 11
86.53867513459483
 21
-30.08059276031605
 31
0.0
  0
LINE
  5
9E06
330
1F
100
AcDbEntity
  8
AM_0
100
AcDbLine
 10
86.53867513459488
 20
-9.349221314525778
 30
0.0
 11
89.46132486540546
 21
-9.349221314525778
 31
0.0
  0
ARC
  5
9E07
330
1F
100
AcDbEntity
  8
AM_0
100
AcDbCircle
 10
89.49908377161603
 20
-29.53279418879578
 30
0.0
 40
0.5490983609134491
100
AcDbArc
 50
266.0569275439549
 51
316.0398939119264
  0
SPLINE
  5
9E08
330
1F
100
AcDbEntity
  8
AM_0
100
AcDbSpline
210
0.0
220
0.0
230
1.0
 70
     8
 71
     3
 72
    14
 73
    10
 74
     0
 42
0.0000000001
 43
0.0000000001
 40
2.563234579399782
 40
2.563234579399782
 40
2.563234579399782
 40
2.563234579399782
 40
2.656896233897641
 40
2.656896233897641
 40
2.750557888395499
 40
2.750557888395499
 40
2.937881197391216
 40
2.937881197391216
 40
3.287580511918981
 40
3.287580511918981
 40
3.287580511918981
 40
3.287580511918981
 10
89.4613248654054
 20
-9.349221314525835
 30
0.0
 10
89.4925454169047
 20
-9.349221314525835
 30
0.0
 10
89.52280796887004
 20
-9.3552452887659
 30
0.0
 10
89.58027377942244
 20
-9.376890579181463
 30
0.0
 10
89.60747186751803
 20
-9.392524140926469
 30
0.0
 10
89.68309842525116
 20
-9.449323226044612
 30
0.0
 10
89.7254980418233
 20
-9.500603316188631
 30
0.0
 10
89.82001471775635
 20
-9.645467437687273
 30
0.0
 10
89.86299706052728
 20
-9.754845674303567
 30
0.0
 10
89.89433756729756
 20
-9.869412618966805
 30
0.0
  0
ELLIPSE
  5
9E09
330
1F
100
AcDbEntity
  8
AM_0
100
AcDbEllipse
 10
102.3471541893598
 20
0.0000000000004547
 30
0.0
 11
-14.75368316065344
 21
31.09325491558129
 31
0.0
210
0.0
220
0.0
230
1.0
 40
0.3419987131196118
 41
0.1578061866455143
 42
1.091239585752841
  0
ELLIPSE
  5
9E0A
330
1F
100
AcDbEntity
  8
AM_0
100
AcDbEllipse
 10
73.65284581063008
 20
0.0000000000003979
 30
0.0
 11
-14.75368316066471
 21
31.09325491558033
 31
0.0
210
0.0
220
0.0
230
1.0
 40
0.3419987131197479
 41
3.29939884023512
 42
4.232832239342442
  0
LINE
  5
9E10
330
1F
100
AcDbEntity
  8
AM_0
100
AcDbLine
 10
100.0000000000001
 20
31.20000000000027
 30
0.0
 11
99.70000000000005
 21
31.50000000000034
 31
0.0
  0
LINE
  5
9E11
330
1F
100
AcDbEntity
  8
AM_0
100
AcDbLine
 10
99.99999999999994
 20
-31.19999999999948
 30
0.0
 11
99.69999999999993
 21
-31.49999999999949
 31
0.0
  0
LINE
  5
9E26
330
1F
100
AcDbEntity
  8
AM_0
100
AcDbLine
 10
86.10566243270273
 20
29.91395484646904
 30
0.0
 11
86.10566243270262
 21
9.869412618967601
 31
0.0
  0
LINE
  5
9E27
330
1F
100
AcDbEntity
  8
AM_0
100
AcDbLine
 10
86.53867513459494
 20
30.0805927603169
 30
0.0
 11
86.53867513459483
 21
9.349221314526346
 31
0.0
  0
LINE
  5
9E28
330
1F
100
AcDbEntity
  8
AM_0
100
AcDbLine
 10
89.46132486540552
 20
30.08059276031685
 30
0.0
 11
89.4613248654054
 21
9.349221314526631
 31
0.0
  0
LINE
  5
9E29
330
1F
100
AcDbEntity
  8
AM_0
100
AcDbLine
 10
89.4613248654054
 20
-9.349221314525806
 30
0.0
 11
89.4613248654054
 21
-30.08059276031605
 31
0.0
  0
LINE
  5
9E2A
330
1F
100
AcDbEntity
  8
AM_0
100
AcDbLine
 10
86.53867513459483
 20
-9.349221314525551
 30
0.0
 11
86.53867513459483
 21
-30.08059276031611
 31
0.0
  0
LINE
  5
9E2B
330
1F
100
AcDbEntity
  8
AM_0
100
AcDbLine
 10
86.10566243270262
 20
-9.869412618966805
 30
0.0
 11
86.10566243270262
 21
-29.91395484646824
 31
0.0
  0
LINE
  5
9E2C
330
1F
100
AcDbEntity
  8
AM_0
100
AcDbLine
 10
89.89433756729767
 20
29.91395484646898
 30
0.0
 11
89.89433756729756
 21
9.86941261896763
 31
0.0
  0
LINE
  5
9E2D
330
1F
100
AcDbEntity
  8
AM_0
100
AcDbLine
 10
89.89433756729756
 20
-9.869412618966834
 30
0.0
 11
89.89433756729756
 21
-29.91395484646824
 31
0.0
  0
TEXT
  5
A4B2
330
1F
100
AcDbEntity
  8
AM_0
100
AcDbText
 10
-65.20967284137583
 20
-176.2033269585295
 30
0.0
 40
5.0
  1
C6-DCMNN-H12
100
AcDbText
  0
DIMENSION
  5
AE2A
330
1F
100
AcDbEntity
  8
AM_5
100
AcDbDimension
  2
*D6
 10
-0.0000000000005684
 20
-28.85687330402902
 30
0.0
 11
13.9898274127998
 21
-30.61505319093741
 31
0.0
 70
    34
 71
     5
 42
0.8665582755010525
  3
AM_JIS$2
100
AcDb2LineAngularDimension
 13
8.810216692039774
 23
-7.857846010288768
 33
0.0
 14
0.2822516104224064
 24
-0.61283555449495
 34
0.0
 15
-0.0000000000005684
 25
-16.94894992963805
 35
0.0
 16
10.46009831548545
 26
-35.57281797700452
 36
0.0
1001
ACAD
1000
DSTYLE
1002
{
1070
    79
1070
     1
1070
   179
1070
     0
1070
   271
1070
     0
1070
   272
1070
     2
1002
}
  0
LINE
  5
B201
330
1F
100
AcDbEntity
  8
AM_7
100
AcDbLine
 10
-62.66840656714277
 20
0.0000000000004547
 30
0.0
 11
-132.6555626602672
 21
0.0000000000005116
 31
0.0
1001
GENIUS_GENOBJ-N-CEN_13
1002
{
1000
OWNER
1000
GEN
1002
}
1001
GENIUS_GENODEF_13
1002
{
1000
HIER
1070
     0
1002
}
1002
{
1000
MANEDIT
1070
     0
1002
}
1002
{
1000
NOSEL
1070
     0
1002
}
1002
{
1000
BEHIND
1070
     0
1002
}
1002
{
1000
OTHER
1070
     0
1002
}
1002
{
1000
REACTOR
1002
}
1001
GENIUS_GENCEN_19
1002
{
1040
2.794
1002
}
  0
LINE
  5
B20E
330
1F
100
AcDbEntity
  8
AM_7
100
AcDbLine
 10
-96.96240656714275
 20
-37.2607178510049
 30
0.0
 11
-96.96240656714275
 21
36.49701209001431
 31
0.0
1001
GENIUS_GENOBJ-N-CEN_13
1002
{
1000
OWNER
1000
GEN
1002
}
1001
GENIUS_GENODEF_13
1002
{
1000
HIER
1070
     0
1002
}
1002
{
1000
MANEDIT
1070
     0
1002
}
1002
{
1000
NOSEL
1070
     0
1002
}
1002
{
1000
BEHIND
1070
     0
1002
}
1002
{
1000
OTHER
1070
     0
1002
}
1002
{
1000
REACTOR
1002
}
1001
GENIUS_GENCEN_19
1002
{
1040
2.794
1002
}
  0
LINE
  5
B51C
330
1F
100
AcDbEntity
  8
AM_0
100
AcDbLine
 10
136.50047316798
 20
-104.4722721149754
 30
0.0
 11
101.9895983682803
 21
-103.6052388175301
 31
0.0
  0
LINE
  5
B51D
330
1F
100
AcDbEntity
  8
AM_0
100
AcDbLine
 10
101.3071067811865
 20
-104.2877304046241
 30
0.0
 11
101.9895983682803
 21
-103.6052388175301
 31
0.0
  0
LINE
  5
B522
330
1F
100
AcDbEntity
  8
AM_0
100
AcDbLine
 10
137.9999999999999
 20
-105.3889947750539
 30
0.0
 11
136.50047316798
 21
-104.4722721149754
 31
0.0
  0
LINE
  5
B527
330
1F
100
AcDbEntity
  8
AM_0
100
AcDbLine
 10
111.0600462222516
 20
-147.428127207621
 30
0.0
 11
99.99999999999983
 21
-147.705994065579
 31
0.0
  0
LINE
  5
B528
330
1F
100
AcDbEntity
  8
AM_0
100
AcDbLine
 10
132.9999999999997
 20
-146.8769192020249
 30
0.0
 11
119.9600462222515
 21
-147.2045282292685
 31
0.0
  0
LINE
  5
B52A
330
1F
100
AcDbEntity
  8
AM_3
  6
ACJISTGL
100
AcDbLine
 10
136.4999999999997
 20
-111.7176725805254
 30
0.0
 11
136.4999999999997
 21
-142.3435746663502
 31
0.0
  0
LINE
  5
B530
330
1F
100
AcDbEntity
  8
AM_0
100
AcDbLine
 10
101.9999999999998
 20
-133.6813113824874
 30
0.0
 11
101.9999999999998
 21
-104.8076952132846
 31
0.0
  0
LINE
  5
B531
330
1F
100
AcDbEntity
  8
AM_0
100
AcDbLine
 10
101.9999999999999
 20
-136.547536663915
 30
0.0
 11
101.9999999999999
 21
-133.6813113824873
 31
0.0
  0
LINE
  5
B532
330
1F
100
AcDbEntity
  8
AM_0
100
AcDbLine
 10
101.9999999999999
 20
-104.807695213284
 30
0.0
 11
101.9999999999999
 21
-103.8539906555152
 31
0.0
  0
LINE
  5
B536
330
1F
100
AcDbEntity
  8
AM_0
100
AcDbLine
 10
137.9999999999999
 20
-105.3889947750539
 30
0.0
 11
137.9999999999999
 21
-106.4069192210372
 31
0.0
  0
LINE
  5
B537
330
1F
100
AcDbEntity
  8
AM_0
100
AcDbLine
 10
136.50047316798
 20
-105.5849123252083
 30
0.0
 11
136.50047316798
 21
-104.4722721149754
 31
0.0
  0
LINE
  5
B538
330
1F
100
AcDbEntity
  8
AM_0
100
AcDbLine
 10
137.9999999999998
 20
-106.4069192210377
 30
0.0
 11
137.9999999999999
 21
-133.5654403803298
 31
0.0
  0
LINE
  5
B539
330
1F
100
AcDbEntity
  8
AM_0
100
AcDbLine
 10
136.50047316798
 20
-133.6249984924757
 30
0.0
 11
136.50047316798
 21
-105.5849123252089
 31
0.0
  0
LINE
  5
B53A
330
1F
100
AcDbEntity
  8
AM_0
100
AcDbLine
 10
137.9999999999998
 20
-133.5654403803298
 30
0.0
 11
137.9999999999998
 21
-141.1195112689449
 31
0.0
  0
LINE
  5
B53B
330
1F
100
AcDbEntity
  8
AM_0
100
AcDbLine
 10
136.50047316798
 20
-141.8819600526279
 30
0.0
 11
136.50047316798
 21
-133.6249984924756
 31
0.0
  0
LINE
  5
B53C
330
1F
100
AcDbEntity
  8
AM_0
100
AcDbLine
 10
137.9999999999998
 20
-141.1195112689452
 30
0.0
 11
137.9999999999997
 21
-145.7533026359357
 31
0.0
  0
LINE
  5
B53D
330
1F
100
AcDbEntity
  8
AM_0
100
AcDbLine
 10
136.50047316798
 20
-146.5653375538552
 30
0.0
 11
136.50047316798
 21
-141.8819600526281
 31
0.0
  0
LINE
  5
B53E
330
1F
100
AcDbEntity
  8
AM_0
100
AcDbLine
 10
132.9999999999997
 20
-146.6446020967416
 30
0.0
 11
132.9999999999997
 21
-146.8769192020249
 31
0.0
  0
ARC
  5
B544
330
1F
100
AcDbEntity
  8
AM_0
100
AcDbCircle
 10
100.5999999999996
 20
-103.5806236234378
 30
0.0
 40
1.0
100
AcDbArc
 50
233.1301023541707
 51
315.0000000000184
  0
ARC
  5
B545
330
1F
100
AcDbEntity
  8
AM_0
100
AcDbCircle
 10
88.5574007106988
 20
-138.5582160102621
 30
0.0
 40
13.45985320576692
100
AcDbArc
 50
342.4557432490449
 51
8.500764333599902
  0
LINE
  5
B546
330
1F
100
AcDbEntity
  8
AM_0
100
AcDbLine
 10
101.869402874824
 20
-103.8464832034501
 30
0.0
 11
101.989633980866
 21
-103.6052565673966
 31
0.0
  0
LINE
  5
B547
330
1F
100
AcDbEntity
  8
AM_0
100
AcDbLine
 10
101.2999389377586
 20
-104.7274812979075
 30
0.0
 11
101.8623153212636
 21
-103.8419847019015
 31
0.0
  0
LINE
  5
B548
330
1F
100
AcDbEntity
  8
AM_0
100
AcDbLine
 10
101.86938282723
 20
-103.8464675133373
 30
0.0
 11
102.0000003208131
 21
-103.8539850813955
 31
0.0
  0
LINE
  5
B549
330
1F
100
AcDbEntity
  8
AM_0
100
AcDbLine
 10
101.8693844578184
 20
-136.5685575701141
 30
0.0
 11
102.000001961403
 21
-136.5475488585506
 31
0.0
  0
LINE
  5
B54A
330
1F
100
AcDbEntity
  8
AM_0
100
AcDbLine
 10
101.3038053580737
 20
-134.3065873343511
 30
0.0
 11
101.8664239285076
 21
-136.5692811007674
 31
0.0
  0
SPLINE
  5
B54B
330
1F
100
AcDbEntity
  8
AM_0
100
AcDbSpline
210
0.0
220
0.0
230
1.0
 70
     8
 71
     3
 72
    22
 73
    18
 74
     0
 42
0.0000000001
 43
0.0000000001
 40
-2.001088860157947
 40
-2.001088860157947
 40
-2.001088860157947
 40
-2.001088860157947
 40
-1.390091464536804
 40
-1.390091464536804
 40
-1.135920523871576
 40
-1.135920523871576
 40
-1.015296545225475
 40
-1.015296545225475
 40
-0.9350769137296103
 40
-0.9350769137296103
 40
-0.858379408596526
 40
-0.858379408596526
 40
-0.7615084108000589
 40
-0.7615084108000589
 40
-0.5987514027027772
 40
-0.5987514027027772
 40
0.0
 40
0.0
 40
0.0
 40
0.0
 10
101.3071067811865
 20
-134.3057664358364
 30
0.0
 10
101.2220872928538
 20
-133.9480989359485
 30
0.0
 10
101.1225837048664
 20
-133.6499227981683
 30
0.0
 10
100.9663118589502
 20
-133.3414121810698
 30
0.0
 10
100.9080763187848
 20
-133.2441407733789
 30
0.0
 10
100.8065192473252
 20
-133.1337231132161
 30
0.0
 10
100.7687987105682
 20
-133.100353997252
 30
0.0
 10
100.698784895135
 20
-133.0607099532691
 30
0.0
 10
100.6688457237199
 20
-133.0490667265921
 30
0.0
 10
100.6068113332408
 20
-133.0388375237135
 30
0.0
 10
100.5766604842324
 20
-133.0399964703225
 30
0.0
 10
100.5089850141151
 20
-133.0560074157878
 30
0.0
 10
100.4740564540008
 20
-133.0738014089061
 30
0.0
 10
100.3891322667666
 20
-133.1338205942315
 30
0.0
 10
100.3426202360415
 20
-133.1861648106252
 30
0.0
 10
100.1624314502545
 20
-133.4317519831782
 30
0.0
 10
100.0592716798216
 20
-133.7217436156047
 30
0.0
 10
99.99999999999972
 20
-133.9118119661938
 30
0.0
  0
SPLINE
  5
B54C
330
1F
100
AcDbEntity
  8
AM_0
100
AcDbSpline
210
0.0
220
0.0
230
1.0
 70
     8
 71
     3
 72
    22
 73
    18
 74
     0
 42
0.0000000001
 43
0.0000000001
 40
-3.608297247991451
 40
-3.608297247991451
 40
-3.608297247991451
 40
-3.608297247991451
 40
-2.530308969091733
 40
-2.530308969091733
 40
-2.252602965573062
 40
-2.252602965573062
 40
-2.090576289934671
 40
-2.090576289934671
 40
-1.955422443234214
 40
-1.955422443234214
 40
-1.803181533646466
 40
-1.803181533646466
 40
-1.567937045222921
 40
-1.567937045222921
 40
-1.094836533147729
 40
-1.094836533147729
 40
-0.0014877806800928
 40
-0.0014877806800928
 40
-0.0014877806800928
 40
-0.0014877806800928
 10
99.99999999999972
 20
-104.9016959189798
 30
0.0
 10
100.0593286477817
 20
-104.984729354318
 30
0.0
 10
100.1626501199752
 20
-105.1143217457745
 30
0.0
 10
100.3411278839884
 20
-105.2250936850889
 30
0.0
 10
100.3847339088537
 20
-105.2477407304377
 30
0.0
 10
100.4632735071868
 20
-105.2746105241905
 30
0.0
 10
100.4951255836392
 20
-105.2828752906233
 30
0.0
 10
100.558266929625
 20
-105.2920060840829
 30
0.0
 10
100.5876669125245
 20
-105.293710663833
 30
0.0
 10
100.6514610669071
 20
-105.291399950918
 30
0.0
 10
100.6835675135718
 20
-105.2867235696326
 30
0.0
 10
100.7604892817746
 20
-105.2687185528423
 30
0.0
 10
100.8020794049931
 20
-105.2522093149796
 30
0.0
 10
100.9091329423201
 20
-105.1992462135205
 30
0.0
 10
100.9693241669415
 20
-105.1530525460363
 30
0.0
 10
101.1250739794809
 20
-105.0129832037756
 30
0.0
 10
101.2231559145377
 20
-104.882090013791
 30
0.0
 10
101.3071067811865
 20
-104.7320335749945
 30
0.0
  0
SPLINE
  5
B552
330
1F
100
AcDbEntity
  8
AM_0
100
AcDbSpline
210
0.0
220
0.0
230
1.0
 70
     8
 71
     3
 72
    22
 73
    18
 74
     0
 42
0.0000000001
 43
0.0000000001
 40
0.0
 40
0.0
 40
0.0
 40
0.0
 40
1.24928658656778
 40
1.24928658656778
 40
1.776460179713746
 40
1.776460179713746
 40
2.005422428856085
 40
2.005422428856085
 40
2.152398627518596
 40
2.152398627518596
 40
2.281576123806236
 40
2.281576123806236
 40
2.43421133612644
 40
2.43421133612644
 40
2.692936324137533
 40
2.692936324137533
 40
3.777444205468512
 40
3.777444205468512
 40
3.777444205468512
 40
3.777444205468512
 10
101.3071067811868
 20
-142.8260757065798
 30
0.0
 10
101.2177357605721
 20
-143.0494810691582
 30
0.0
 10
101.1119152398172
 20
-143.2307365983111
 30
0.0
 10
100.9457956888189
 20
-143.4153296363672
 30
0.0
 10
100.8807765465785
 20
-143.4761186050601
 30
0.0
 10
100.7690654189965
 20
-143.5404247621906
 30
0.0
 10
100.7294313354941
 20
-143.5588548253636
 30
0.0
 10
100.6564439902311
 20
-143.5795877223822
 30
0.0
 10
100.6260605415945
 20
-143.5852690388089
 30
0.0
 10
100.5658860341753
 20
-143.5892462285935
 30
0.0
 10
100.5382679669479
 20
-143.5882345349159
 30
0.0
 10
100.4793095923077
 20
-143.5804220753843
 30
0.0
 10
100.4497430464234
 20
-143.5728051855234
 30
0.0
 10
100.3772127103834
 20
-143.5474280442103
 30
0.0
 10
100.3370533140205
 20
-143.5255222220184
 30
0.0
 10
100.1617917054471
 20
-143.4092959356668
 30
0.0
 10
100.0588331622993
 20
-143.2569723193359
 30
0.0
 10
99.99999999999972
 20
-143.155379327269
 30
0.0
  0
LINE
  5
B553
330
1F
100
AcDbEntity
  8
AM_0
100
AcDbLine
 10
101.3071284807374
 20
-142.8260843717399
 30
0.0
 11
101.3911820899126
 21
-142.6155948195024
 31
0.0
  0
ARC
  5
B554
330
1F
100
AcDbEntity
  8
AM_0
100
AcDbCircle
 10
116.2278873483483
 20
-175.888846561498
 30
0.0
 40
28.92609769818128
100
AcDbArc
 50
82.58680724521055
 51
100.2915260887815
  0
LINE
  5
B555
330
1F
100
AcDbEntity
  8
AM_0
100
AcDbLine
 10
132.9999995605589
 20
-146.6445826902019
 30
0.0
 11
136.5004727285347
 21
-146.5653181471147
 31
0.0
  0
LINE
  5
B556
330
1F
100
AcDbEntity
  8
AM_0
100
AcDbLine
 10
136.4997921605631
 20
-146.5640803809409
 30
0.0
 11
137.9992121936153
 21
-145.7518483069172
 31
0.0
  0
ARC
  5
B55B
330
1F
100
AcDbEntity
  8
AM_0
100
AcDbCircle
 10
79.43436266939381
 20
-0.0168686904177093
 30
0.0
 40
22.55828980360275
100
AcDbArc
 50
354.0074571860088
 51
13.26078240284609
  0
LINE
  5
B55C
330
1F
100
AcDbEntity
  8
AM_0
100
AcDbLine
 10
101.3053898794628
 20
-4.473026065992769
 30
0.0
 11
101.8679140999622
 21
-2.37153904241643
 31
0.0
  0
LINE
  5
B55D
330
1F
100
AcDbEntity
  8
AM_0
100
AcDbLine
 10
101.8693841697867
 20
-2.371921210210189
 30
0.0
 11
102.0000016716638
 21
-2.391839709292242
 31
0.0
  0
SPLINE
  5
B55E
330
1F
100
AcDbEntity
  8
AM_0
100
AcDbSpline
210
0.0
220
0.0
230
1.0
 70
     8
 71
     3
 72
    22
 73
    18
 74
     0
 42
0.0000000001
 43
0.0000000001
 40
-3.608297247991451
 40
-3.608297247991451
 40
-3.608297247991451
 40
-3.608297247991451
 40
-2.530308969091733
 40
-2.530308969091733
 40
-2.252602965573062
 40
-2.252602965573062
 40
-2.090576289934671
 40
-2.090576289934671
 40
-1.955422443234214
 40
-1.955422443234214
 40
-1.803181533646466
 40
-1.803181533646466
 40
-1.567937045222921
 40
-1.567937045222921
 40
-1.094836533147729
 40
-1.094836533147729
 40
-0.0014877806800928
 40
-0.0014877806800928
 40
-0.0014877806800928
 40
-0.0014877806800928
 10
99.99999999999977
 20
-4.830430482976453
 30
0.0
 10
100.059328647782
 20
-5.002174075266453
 30
0.0
 10
100.1626501199753
 20
-5.262713711457707
 30
0.0
 10
100.3411278839885
 20
-5.479176316986411
 30
0.0
 10
100.3847339088538
 20
-5.523118988768715
 30
0.0
 10
100.4632735071868
 20
-5.575039638617341
 30
0.0
 10
100.4951255836394
 20
-5.590957057784351
 30
0.0
 10
100.5582669296251
 20
-5.608527859433139
 30
0.0
 10
100.5876669125247
 20
-5.611802395445295
 30
0.0
 10
100.6514610669074
 20
-5.607359554427944
 30
0.0
 10
100.6835675135719
 20
-5.598370842511429
 30
0.0
 10
100.7604892817747
 20
-5.56367232450657
 30
0.0
 10
100.8020794049933
 20
-5.531780625104318
 30
0.0
 10
100.9091329423203
 20
-5.428885401220043
 30
0.0
 10
100.9693241669417
 20
-5.338291920019913
 30
0.0
 10
101.1250739794812
 20
-5.059929282942505
 30
0.0
 10
101.223155914538
 20
-4.794658334492965
 30
0.0
 10
101.3071067811867
 20
-4.473485644754419
 30
0.0
  0
LINE
  5
B55F
330
1F
100
AcDbEntity
  8
AM_0
100
AcDbLine
 10
101.3070455247132
 20
5.497822246606404
 30
0.0
 11
101.3911001288175
 21
5.157617298124592
 31
0.0
  0
SPLINE
  5
B560
330
1F
100
AcDbEntity
  8
AM_0
100
AcDbSpline
210
0.0
220
0.0
230
1.0
 70
     8
 71
     3
 72
    22
 73
    18
 74
     0
 42
0.0000000001
 43
0.0000000001
 40
0.0
 40
0.0
 40
0.0
 40
0.0
 40
0.6104979114020642
 40
0.6104979114020642
 40
0.7635149291197938
 40
0.7635149291197938
 40
0.8554662116289986
 40
0.8554662116289986
 40
0.9294361364572942
 40
0.9294361364572942
 40
1.007795334351185
 40
1.007795334351185
 40
1.127823541472723
 40
1.127823541472723
 40
1.385991912774112
 40
1.385991912774112
 40
2.103995362990674
 40
2.103995362990674
 40
2.103995362990674
 40
2.103995362990674
 10
99.99999999999989
 20
6.011229326404248
 30
0.0
 10
100.0589282431124
 20
6.18239714827655
 30
0.0
 10
100.1622011784979
 20
6.44299648962965
 30
0.0
 10
100.3397710099778
 20
6.648058949829306
 30
0.0
 10
100.3826261596938
 20
6.688698823392315
 30
0.0
 10
100.4610371868826
 20
6.734841107379225
 30
0.0
 10
100.4933726241795
 20
6.748309992422264
 30
0.0
 10
100.5563682670239
 20
6.759791263650925
 30
0.0
 10
100.5846084615905
 20
6.760036710347265
 30
0.0
 10
100.6429651641083
 20
6.750309944926414
 30
0.0
 10
100.6712689111363
 20
6.740034106867483
 30
0.0
 10
100.7380503986852
 20
6.705549579672436
 30
0.0
 10
100.7743043231454
 20
6.67663616357612
 30
0.0
 10
100.8730267161582
 20
6.580493520976631
 30
0.0
 10
100.9302225180282
 20
6.495149839023782
 30
0.0
 10
101.1001092611753
 20
6.196515295458539
 30
0.0
 10
101.2128444604344
 20
5.88113990625908
 30
0.0
 10
101.3071067811868
 20
5.497837381272802
 30
0.0
  0
LINE
  5
B561
330
1F
100
AcDbEntity
  8
AM_0
100
AcDbLine
 10
136.5004731679803
 20
-21.01771271288857
 30
0.0
 11
102.0
 21
-21.88448468513985
 31
0.0
  0
LINE
  5
B562
330
1F
100
AcDbEntity
  8
AM_0
100
AcDbLine
 10
100.0
 20
-21.65936120442586
 30
0.0
 11
102.0
 21
-21.65936120442586
 31
0.0
  0
LINE
  5
B563
330
1F
100
AcDbEntity
  8
AM_0
100
AcDbLine
 10
138.0
 20
-20.10099005281006
 30
0.0
 11
136.5004731679802
 21
-21.01771271288857
 31
0.0
  0
LINE
  5
B564
330
1F
100
AcDbEntity
  8
AM_0
100
AcDbLine
 10
138.0000000000001
 20
20.10099005281063
 30
0.0
 11
136.5004731679804
 21
21.01771271288914
 31
0.0
  0
LINE
  5
B565
330
1F
100
AcDbEntity
  8
AM_0
100
AcDbLine
 10
102.0
 20
-21.88448468513985
 30
0.0
 11
102.0
 21
-5.150860963814353
 31
0.0
  0
LINE
  5
B566
330
1F
100
AcDbEntity
  8
AM_0
100
AcDbLine
 10
102.0
 20
-5.150860963814637
 30
0.0
 11
102.0
 21
-2.391850671390671
 31
0.0
  0
LINE
  5
B567
330
1F
100
AcDbEntity
  8
AM_0
100
AcDbLine
 10
138.0
 20
4.36134486102037
 30
0.0
 11
138.0
 21
-4.36134486101804
 31
0.0
  0
LINE
  5
B568
330
1F
100
AcDbEntity
  8
AM_0
100
AcDbLine
 10
136.5004731679803
 20
-4.767158979440751
 30
0.0
 11
136.5004731679803
 21
4.767158979443195
 31
0.0
  0
LINE
  5
B569
330
1F
100
AcDbEntity
  8
AM_0
100
AcDbLine
 10
138.0
 20
-4.361344861017756
 30
0.0
 11
138.0
 21
-20.10099005281012
 31
0.0
  0
LINE
  5
B56A
330
1F
100
AcDbEntity
  8
AM_0
100
AcDbLine
 10
136.5004731679803
 20
-21.01771271288857
 30
0.0
 11
136.5004731679803
 21
-4.767158979440467
 31
0.0
  0
LINE
  5
B56B
330
1F
100
AcDbEntity
  8
AM_0
100
AcDbLine
 10
136.5004731679803
 20
4.767158979443195
 30
0.0
 11
136.5004731679804
 21
21.01771271288914
 31
0.0
  0
LINE
  5
B56C
330
1F
100
AcDbEntity
  8
AM_0
100
AcDbLine
 10
138.0000000000001
 20
20.10099005281063
 30
0.0
 11
138.0
 21
4.361344861020427
 31
0.0
  0
LINE
  5
B56D
330
1F
100
AcDbEntity
  8
AM_0
100
AcDbLine
 10
101.8693841697867
 20
2.371921210210985
 30
0.0
 11
102.0000016716638
 21
2.391839709293038
 31
0.0
  0
LINE
  5
B56E
330
1F
100
AcDbEntity
  8
AM_0
100
AcDbLine
 10
136.5004731679804
 20
21.01771271288925
 30
0.0
 11
102.0000000000001
 21
21.88448468514065
 31
0.0
  0
LINE
  5
B56F
330
1F
100
AcDbEntity
  8
AM_0
100
AcDbLine
 10
100.0000000000001
 20
21.65936120442666
 30
0.0
 11
102.0000000000001
 21
21.65936120442666
 31
0.0
  0
LINE
  5
B570
330
1F
100
AcDbEntity
  8
AM_0
100
AcDbLine
 10
102.0000000000001
 20
21.88448468514065
 30
0.0
 11
102.0
 21
5.150860963815148
 31
0.0
  0
LINE
  5
B571
330
1F
100
AcDbEntity
  8
AM_0
100
AcDbLine
 10
102.0
 20
5.150860963815433
 30
0.0
 11
102.0
 21
2.391850671391467
 31
0.0
  0
LINE
  5
B911
330
1F
100
AcDbEntity
  8
AM_5
100
AcDbLine
 10
-0.0000000000005116
 20
-4.356611601320878
 30
0.0
 11
-0.0000000000005116
 21
0.0000000000002842
 31
0.0
  0
LINE
  5
ED95
330
1F
100
AcDbEntity
  8
AM_0
100
AcDbLine
 10
32.52069226413363
 20
-6.490358615045381
 30
0.0
 11
32.52069226413363
 21
-6.499999999999631
 31
0.0
  0
LINE
  5
ED96
330
1F
100
AcDbEntity
  8
AM_0
100
AcDbLine
 10
32.52069226413363
 20
6.50000000000037
 30
0.0
 11
32.52069226413363
 21
6.490358615046375
 31
0.0
  0
LINE
  5
ED97
330
1F
100
AcDbEntity
  8
AM_0
100
AcDbLine
 10
32.3141987702806
 20
6.50000000000037
 30
0.0
 11
32.52069226413369
 21
6.50000000000037
 31
0.0
  0
LINE
  5
ED98
330
1F
100
AcDbEntity
  8
AM_0
100
AcDbLine
 10
32.3141987702806
 20
-6.499999999999631
 30
0.0
 11
32.52069226413369
 21
-6.499999999999631
 31
0.0
  0
SPLINE
  5
ED99
330
1F
100
AcDbEntity
  8
AM_0
100
AcDbSpline
210
0.0
220
0.0
230
1.0
 70
     8
 71
     3
 72
    26
 73
    22
 74
     0
 42
0.0000000001
 43
0.0000000001
 40
0.0
 40
0.0
 40
0.0
 40
0.0
 40
0.2713201130182791
 40
0.2713201130182791
 40
0.5426402260365582
 40
0.5426402260365582
 40
0.8170010649551114
 40
0.8170010649551114
 40
1.091361903873665
 40
1.091361903873665
 40
1.603653698997454
 40
1.603653698997454
 40
2.115945494121243
 40
2.115945494121243
 40
2.454564954443121
 40
2.454564954443121
 40
2.793184414765
 40
2.793184414765
 40
2.985940191262638
 40
2.985940191262638
 40
3.178695967760276
 40
3.178695967760276
 40
3.178695967760276
 40
3.178695967760276
 10
34.13314098643059
 20
6.500000000000341
 30
0.0
 10
34.13314098643059
 20
6.590440037673091
 30
0.0
 10
34.12089759733885
 20
6.688196797580076
 30
0.0
 10
34.06982340550377
 20
6.874495541941968
 30
0.0
 10
34.03102135730222
 20
6.963043243263343
 30
0.0
 10
33.94119860105548
 20
7.113786468571959
 30
0.0
 10
33.88257854524102
 20
7.188222698749058
 30
0.0
 10
33.74918452429944
 20
7.314120484952184
 30
0.0
 10
33.67446958411739
 20
7.365620069001324
 30
0.0
 10
33.46715758652408
 20
7.47213315197115
 30
0.0
 10
33.31278659109131
 20
7.506414859805204
 30
0.0
 10
33.01383466996145
 20
7.491497132794564
 30
0.0
 10
32.86948204312375
 20
7.442393355665615
 30
0.0
 10
32.67232576928893
 20
7.315546994999181
 30
0.0
 10
32.59542077932548
 20
7.246897308281973
 30
0.0
 10
32.46709006349067
 20
7.082498418248662
 30
0.0
 10
32.41558573546519
 20
6.986795120075442
 30
0.0
 10
32.36013978926292
 20
6.832195889670743
 30
0.0
 10
32.34266825401085
 20
6.767696949088077
 30
0.0
 10
32.31969083210811
 20
6.633758843384044
 30
0.0
 10
32.31419877028054
 20
6.564251925499548
 30
0.0
 10
32.31419877028054
 20
6.500000000000341
 30
0.0
  0
LINE
  5
ED9A
330
1F
100
AcDbEntity
  8
AM_0
100
AcDbLine
 10
34.13314098643059
 20
6.500000000000341
 30
0.0
 11
34.36589207158596
 21
6.500000000000341
 31
0.0
  0
LINE
  5
ED9B
330
1F
100
AcDbEntity
  8
AM_0
100
AcDbLine
 10
34.13314098643059
 20
-6.499999999999659
 30
0.0
 11
34.13314098643059
 21
6.500000000000341
 31
0.0
  0
LINE
  5
ED9C
330
1F
100
AcDbEntity
  8
AM_0
100
AcDbLine
 10
34.13314098643059
 20
-6.499999999999659
 30
0.0
 11
34.36589207158596
 21
-6.499999999999659
 31
0.0
  0
SPLINE
  5
ED9D
330
1F
100
AcDbEntity
  8
AM_0
100
AcDbSpline
210
0.0
220
0.0
230
1.0
 70
     8
 71
     3
 72
    26
 73
    22
 74
     0
 42
0.0000000001
 43
0.0000000001
 40
-3.178695967760164
 40
-3.178695967760164
 40
-3.178695967760164
 40
-3.178695967760164
 40
-2.985940191262535
 40
-2.985940191262535
 40
-2.793184414764905
 40
-2.793184414764905
 40
-2.454564954443052
 40
-2.454564954443052
 40
-2.115945494121199
 40
-2.115945494121199
 40
-1.60365369899743
 40
-1.60365369899743
 40
-1.091361903873661
 40
-1.091361903873661
 40
-0.8170010649551092
 40
-0.8170010649551092
 40
-0.542640226036557
 40
-0.542640226036557
 40
-0.2713201130182785
 40
-0.2713201130182785
 40
0.0
 40
0.0
 40
0.0
 40
0.0
 10
32.31419877028054
 20
-6.499999999999659
 30
0.0
 10
32.31419877028054
 20
-6.564251925498866
 30
0.0
 10
32.31969083210811
 20
-6.633758843383362
 30
0.0
 10
32.34266825401085
 20
-6.767696949087394
 30
0.0
 10
32.36013978926292
 20
-6.832195889670032
 30
0.0
 10
32.41558573546524
 20
-6.98679512007476
 30
0.0
 10
32.46709006349067
 20
-7.082498418247951
 30
0.0
 10
32.59542077932548
 20
-7.246897308281234
 30
0.0
 10
32.67232576928893
 20
-7.315546994998442
 30
0.0
 10
32.86948204312375
 20
-7.442393355664876
 30
0.0
 10
33.01383466996145
 20
-7.491497132793853
 30
0.0
 10
33.31278659109131
 20
-7.506414859804465
 30
0.0
 10
33.46715758652408
 20
-7.472133151970439
 30
0.0
 10
33.67446958411739
 20
-7.365620069000613
 30
0.0
 10
33.74918452429938
 20
-7.314120484951502
 30
0.0
 10
33.88257854524102
 20
-7.188222698748348
 30
0.0
 10
33.94119860105548
 20
-7.113786468571277
 30
0.0
 10
34.03102135730217
 20
-6.963043243262661
 30
0.0
 10
34.06982340550377
 20
-6.874495541941286
 30
0.0
 10
34.12089759733885
 20
-6.688196797579423
 30
0.0
 10
34.13314098643059
 20
-6.590440037672408
 30
0.0
 10
34.13314098643059
 20
-6.499999999999659
 30
0.0
  0
ELLIPSE
  5
ED9E
330
1F
100
AcDbEntity
  8
AM_0
100
AcDbEllipse
 10
35.31538300015586
 20
-30.40952702595513
 30
0.0
 11
4.989779664431383
 21
-4.131631491040666
 31
0.0
210
0.0
220
0.0
230
1.0
 40
0.0773372906699562
 41
1.289134905132406
 42
1.477666109467618
  0
LINE
  5
ED9F
330
1F
100
AcDbEntity
  8
AM_0
100
AcDbLine
 10
9.499324875392517
 20
8.135388426788325
 30
0.0
 11
14.33796318872498
 21
4.02467915014401
 31
0.0
  0
LINE
  5
EDA1
330
1F
100
AcDbEntity
  8
AM_0
100
AcDbLine
 10
9.544003565488652
 20
-8.097431238431142
 30
0.0
 11
36.09755532535701
 21
-30.40952702595502
 31
0.0
  0
LINE
  5
EDA2
330
1F
100
AcDbEntity
  8
AM_0
100
AcDbLine
 10
14.33796318872516
 20
-4.024679150143015
 30
0.0
 11
9.544003565488652
 21
-8.097431238431113
 31
0.0
  0
LINE
  5
EDA3
330
1F
100
AcDbEntity
  8
AM_0
100
AcDbLine
 10
34.36589207158596
 20
6.500000000000341
 30
0.0
 11
34.36589207158596
 21
-6.499999999999659
 31
0.0
  0
ELLIPSE
  5
EDA4
330
1F
100
AcDbEntity
  8
AM_0
100
AcDbEllipse
 10
35.31538300015592
 20
30.98154254952604
 30
0.0
 11
4.989233764287183
 21
4.224078377654619
 31
0.0
210
0.0
220
0.0
230
1.0
 40
0.0776365203625811
 41
4.803832946965292
 42
4.860410913590635
  0
LINE
  5
EDA5
330
1F
100
AcDbEntity
  8
AM_0
100
AcDbLine
 10
36.09755532535712
 20
30.98154254952615
 30
0.0
 11
9.499324875392517
 21
8.135388426788325
 31
0.0
  0
ELLIPSE
  5
EDA7
330
1F
100
AcDbEntity
  8
AM_0
100
AcDbEllipse
 10
-0.0950487073369004
 20
0.0000000000004547
 30
0.0
 11
-39.00713782007457
 21
31.65393715405101
 31
0.0
210
0.0
220
0.0
230
1.0
 40
0.0632691140415381
 41
2.875222816186619
 42
3.063783548851559
  0
ARC
  5
EDA8
330
1F
100
AcDbEntity
  8
AM_0
100
AcDbCircle
 10
37.10627875743859
 20
-24.9287591535023
 30
0.0
 40
6.259225502825506
100
AcDbArc
 50
269.1116924266144
 51
297.364044355548
  0
ELLIPSE
  5
EDA9
330
1F
100
AcDbEntity
  8
AM_0
100
AcDbEllipse
 10
36.58075537937151
 20
0.0000000000004547
 30
0.0
 11
4.780069697624513E-15
 21
31.75
 31
0.0
210
0.0
220
0.0
230
1.0
 40
0.3838640350354154
 41
3.424530342508074
 42
6.000247618261305
  0
ARC
  5
EDAA
330
1F
100
AcDbEntity
  8
AM_0
100
AcDbCircle
 10
36.7379900937334
 20
23.76775065608864
 30
0.0
 40
7.462462550474966
100
AcDbArc
 50
64.22217688998254
 51
92.78377124798548
  0
ELLIPSE
  5
EDAB
330
1F
100
AcDbEntity
  8
AM_0
100
AcDbEllipse
 10
0.0285413928276057
 20
0.0000000000004547
 30
0.0
 11
38.16857714929027
 21
31.6531121973189
 31
0.0
210
0.0
220
0.0
230
1.0
 40
0.0649357514730267
 41
0.0781426596482391
 42
0.2608719698062799
  0
LINE
  5
EDAC
330
1F
100
AcDbEntity
  8
AM_0
100
AcDbLine
 10
45.49999999999994
 20
-8.318560569343504
 30
0.0
 11
45.49999999999994
 21
-12.68143943065564
 31
0.0
  0
ELLIPSE
  5
EDAD
330
1F
100
AcDbEntity
  8
AM_0
100
AcDbEllipse
 10
43.56191150410876
 20
-10.49999999999955
 30
0.0
 11
3.097553911120509E-15
 21
5.499999999999989
 31
0.0
210
0.0
220
0.0
230
1.0
 40
0.3838640350354156
 41
5.120226728000747
 42
10.58773653994822
  0
SPLINE
  5
EDAE
330
1F
100
AcDbEntity
  8
AM_0
100
AcDbSpline
210
0.0
220
0.0
230
1.0
 70
    11
 71
     3
 72
    70
 73
    66
 74
     0
 42
0.0000000001
 43
0.0000000001
 40
0.0
 40
0.0
 40
0.0
 40
0.0
 40
0.6597791926620007
 40
0.6597791926620007
 40
1.319558385324001
 40
1.319558385324001
 40
1.979337577986002
 40
1.979337577986002
 40
2.639116770648003
 40
2.639116770648003
 40
3.298892640286395
 40
3.298892640286395
 40
3.958668509924787
 40
3.958668509924787
 40
4.618444379563178
 40
4.618444379563178
 40
5.278220249201571
 40
5.278220249201571
 40
5.937996118839964
 40
5.937996118839964
 40
6.597771988478357
 40
6.597771988478357
 40
7.25754785811675
 40
7.25754785811675
 40
7.917323727755142
 40
7.917323727755142
 40
8.577102920417142
 40
8.577102920417142
 40
9.236882113079142
 40
9.236882113079142
 40
9.896661305741141
 40
9.896661305741141
 40
10.55644049840314
 40
10.55644049840314
 40
11.21621969106514
 40
11.21621969106514
 40
11.87599888372714
 40
11.87599888372714
 40
12.53577807638915
 40
12.53577807638915
 40
13.19555726905115
 40
13.19555726905115
 40
13.85533313868954
 40
13.85533313868954
 40
14.51510900832793
 40
14.51510900832793
 40
15.17488487796633
 40
15.17488487796633
 40
15.83466074760472
 40
15.83466074760472
 40
16.49443661724311
 40
16.49443661724311
 40
17.15421248688151
 40
17.15421248688151
 40
17.8139883565199
 40
17.8139883565199
 40
18.47376422615829
 40
18.47376422615829
 40
19.13354341882029
 40
19.13354341882029
 40
19.79332261148229
 40
19.79332261148229
 40
20.45310180414429
 40
20.45310180414429
 40
21.11288099680629
 40
21.11288099680629
 40
21.11288099680629
 40
21.11288099680629
 10
72.99999999999994
 20
-12.74715956369215
 30
0.0
 10
73.21992639755393
 20
-12.74715956369215
 30
0.0
 10
73.44730723496156
 20
-12.76658088414246
 30
0.0
 10
73.89950855096203
 20
-12.84818746944819
 30
0.0
 10
74.12433301047179
 20
-12.9103524867015
 30
0.0
 10
74.55544341100614
 20
-13.07421152305074
 30
0.0
 10
74.76207610183644
 20
-13.17602744946873
 30
0.0
 10
75.14415889919957
 20
-13.41034706683772
 30
0.0
 10
75.31959941005476
 20
-13.5428529456033
 30
0.0
 10
75.63014727620106
 20
-13.8239356389341
 30
0.0
 10
75.77589254009138
 20
-13.98215051591978
 30
0.0
 10
76.03283469691007
 20
-14.32481845191637
 30
0.0
 10
76.14404803687
 20
-14.50925129806052
 30
0.0
 10
76.32269776093733
 20
-14.89170967498393
 30
0.0
 10
76.39027632883222
 20
-15.0900345642184
 30
0.0
 10
76.47893724100442
 20
-15.48644910680906
 30
0.0
 10
76.49999999999994
 20
-15.68453911202929
 30
0.0
 10
76.49999999999994
 20
-16.06546088796983
 30
0.0
 10
76.47893724100442
 20
-16.26120532851559
 30
0.0
 10
76.39027632883222
 20
-16.64802667782647
 30
0.0
 10
76.32269776093733
 20
-16.83911011221755
 30
0.0
 10
76.14404803687
 20
-17.20335884418958
 30
0.0
 10
76.03283469691007
 20
-17.37682535586217
 30
0.0
 10
75.77589254009138
 20
-17.69594464794511
 30
0.0
 10
75.63014727620106
 20
-17.84160102490597
 30
0.0
 10
75.31959941005476
 20
-18.09840301392268
 30
0.0
 10
75.14415889919957
 20
-18.21833548308413
 30
0.0
 10
74.76207610183644
 20
-18.42905212088104
 30
0.0
 10
74.55544341100614
 20
-18.51986266317846
 30
0.0
 10
74.12433301047179
 20
-18.66543324197562
 30
0.0
 10
73.89950855096203
 20
-18.72031768038053
 30
0.0
 10
73.44730723496156
 20
-18.79227659714934
 30
0.0
 10
73.21992639755393
 20
-18.8093373901832
 30
0.0
 10
72.78007360244595
 20
-18.8093373901832
 30
0.0
 10
72.55269276503833
 20
-18.79227659714934
 30
0.0
 10
72.10049144903786
 20
-18.72031768038053
 30
0.0
 10
71.8756669895281
 20
-18.66543324197562
 30
0.0
 10
71.44455658899375
 20
-18.51986266317846
 30
0.0
 10
71.23792389816344
 20
-18.42905212088104
 30
0.0
 10
70.85584110080032
 20
-18.21833548308413
 30
0.0
 10
70.68040058994512
 20
-18.09840301392271
 30
0.0
 10
70.36985272379883
 20
-17.84160102490597
 30
0.0
 10
70.22410745990851
 20
-17.69594464794511
 30
0.0
 10
69.96716530308981
 20
-17.37682535586217
 30
0.0
 10
69.85595196312988
 20
-17.20335884418958
 30
0.0
 10
69.67730223906256
 20
-16.83911011221755
 30
0.0
 10
69.60972367116767
 20
-16.64802667782647
 30
0.0
 10
69.52106275899547
 20
-16.26120532851559
 30
0.0
 10
69.49999999999994
 20
-16.06546088796983
 30
0.0
 10
69.49999999999994
 20
-15.68453911202929
 30
0.0
 10
69.52106275899547
 20
-15.48644910680906
 30
0.0
 10
69.60972367116767
 20
-15.0900345642184
 30
0.0
 10
69.67730223906256
 20
-14.89170967498393
 30
0.0
 10
69.85595196312988
 20
-14.50925129806052
 30
0.0
 10
69.96716530308981
 20
-14.32481845191637
 30
0.0
 10
70.22410745990851
 20
-13.98215051591978
 30
0.0
 10
70.36985272379883
 20
-13.8239356389341
 30
0.0
 10
70.68040058994512
 20
-13.5428529456033
 30
0.0
 10
70.85584110080032
 20
-13.41034706683769
 30
0.0
 10
71.23792389816344
 20
-13.17602744946873
 30
0.0
 10
71.44455658899381
 20
-13.07421152305074
 30
0.0
 10
71.8756669895281
 20
-12.9103524867015
 30
0.0
 10
72.10049144903786
 20
-12.84818746944819
 30
0.0
 10
72.55269276503833
 20
-12.76658088414246
 30
0.0
 10
72.78007360244595
 20
-12.74715956369215
 30
0.0
 10
72.99999999999994
 20
-12.74715956369215
 30
0.0
  0
LINE
  5
EDAF
330
1F
100
AcDbEntity
  8
AM_0
100
AcDbLine
 10
79.2000000000001
 20
-31.4999999999996
 30
0.0
 11
99.69999999999993
 21
-31.4999999999996
 31
0.0
  0
LINE
  5
EDB0
330
1F
100
AcDbEntity
  8
AM_0
100
AcDbLine
 10
79.20000000000027
 20
31.50000000000048
 30
0.0
 11
99.70000000000005
 21
31.50000000000048
 31
0.0
  0
LINE
  5
EDB1
330
1F
100
AcDbEntity
  8
AM_0
100
AcDbLine
 10
38.63839666867227
 20
-31.74999999999955
 30
0.0
 11
78.46685608506931
 21
-31.74999999999955
 31
0.0
  0
LINE
  5
EDB2
330
1F
100
AcDbEntity
  8
AM_0
100
AcDbLine
 10
37.92019144263651
 20
31.75000000000046
 30
0.0
 11
78.46685608506942
 21
31.75000000000046
 31
0.0
  0
ELLIPSE
  5
EDB3
330
1F
100
AcDbEntity
  8
AM_0
100
AcDbEllipse
 10
33.01453643443119
 20
0.0000000000003695
 30
0.0
 11
-5.746476772937613E-17
 21
-1.5
 31
0.0
210
0.0
220
0.0
230
1.0
 40
0.9876883405951378
 41
2.285889631658126
 42
2.493943968848414
  0
ELLIPSE
  5
EDB4
330
1F
100
AcDbEntity
  8
AM_0
100
AcDbEllipse
 10
33.01453643443119
 20
0.0000000000003695
 30
0.0
 11
-5.746476772937613E-17
 21
-1.5
 31
0.0
210
0.0
220
0.0
230
1.0
 40
0.9876883405951378
 41
0.6476486847413785
 42
0.8557030219316595
  0
ELLIPSE
  5
EDB5
330
1F
100
AcDbEntity
  8
AM_0
100
AcDbEllipse
 10
33.50838060472876
 20
6.50000000000037
 30
0.0
 11
-3.830984515291741E-17
 21
-1.0
 31
0.0
210
0.0
220
0.0
230
1.0
 40
0.9876883405951378
 41
3.301207279716143
 42
4.71238898038469
  0
ELLIPSE
  5
EDB6
330
1F
100
AcDbEntity
  8
AM_0
100
AcDbEllipse
 10
33.50838060472876
 20
-6.499999999999631
 30
0.0
 11
-3.830984515291741E-17
 21
-1.0
 31
0.0
210
0.0
220
0.0
230
1.0
 40
0.9876883405951378
 41
4.71238898038469
 42
6.123570681053179
  0
ELLIPSE
  5
EDB7
330
1F
100
AcDbEntity
  8
AM_0
100
AcDbEllipse
 10
32.60780682532658
 20
-6.499999999999659
 30
0.0
 11
6.819152437219325E-17
 21
1.780000000000009
 31
0.0
210
0.0
220
0.0
230
1.0
 40
0.9876883405951379
 41
1.570796326794897
 42
4.71238898038469
  0
ELLIPSE
  5
EDB8
330
1F
100
AcDbEntity
  8
AM_0
100
AcDbEllipse
 10
32.60780682532658
 20
6.500000000000341
 30
0.0
 11
6.819152437219325E-17
 21
1.780000000000009
 31
0.0
210
0.0
220
0.0
230
1.0
 40
0.9876883405951379
 41
4.71238898038469
 42
7.853981633974483
  0
ELLIPSE
  5
EDBC
330
1F
100
AcDbEntity
  8
AM_0
100
AcDbEllipse
 10
72.99999999999994
 20
-15.3749999999996
 30
0.0
 11
-3.0
 21
4.653878048321691E-16
 31
0.0
210
0.0
220
0.0
230
1.0
 40
0.8660254037844387
 41
0.0000000000000002
 42
6.283185307179586
  0
ELLIPSE
  5
EDBD
330
1F
100
AcDbEntity
  8
AM_0
100
AcDbEllipse
 10
72.99999999999994
 20
-15.3749999999996
 30
0.0
 11
-3.5
 21
5.429524389708640E-16
 31
0.0
210
0.0
220
0.0
230
1.0
 40
0.8660254037844386
 41
0.0824640831713056
 42
3.059128570418557
  0
ARC
  5
EDBE
330
1F
100
AcDbEntity
  8
AM_0
100
AcDbCircle
 10
79.20000000000016
 20
32.70000000000047
 30
0.0
 40
1.2
100
AcDbArc
 50
232.3415379937924
 51
270.0000000000032
  0
ARC
  5
EDBF
330
1F
100
AcDbEntity
  8
AM_0
100
AcDbCircle
 10
79.2000000000001
 20
-32.69999999999959
 30
0.0
 40
1.2
100
AcDbArc
 50
90.0
 51
127.6584620062086
  0
LINE
  5
EDC0
330
1F
100
AcDbEntity
  8
AM_0
100
AcDbLine
 10
8.810216692040285
 20
-7.857846010288938
 30
0.0
 11
0.2822516104230317
 21
-0.6128355544948647
 31
0.0
  0
LINE
  5
EDC1
330
1F
100
AcDbEntity
  8
AM_0
100
AcDbLine
 10
0.2822516104230317
 20
0.6128355544954616
 30
0.0
 11
8.810216692040171
 21
7.857846010289677
 31
0.0
  0
LINE
  5
EDC2
330
1F
100
AcDbEntity
  8
AM_0
100
AcDbLine
 10
9.826014816146426
 20
7.857846010289734
 30
0.0
 11
14.33796318872504
 21
4.024679150143982
 31
0.0
  0
LINE
  5
EDC3
330
1F
100
AcDbEntity
  8
AM_0
100
AcDbLine
 10
14.33796318872527
 20
-4.024679150143015
 30
0.0
 11
9.82601481614654
 21
-7.857846010288938
 31
0.0
  0
LINE
  5
EDC4
330
1F
100
AcDbEntity
  8
AM_0
100
AcDbLine
 10
9.318115754093412
 20
-8.045010455793772
 30
0.0
 11
9.605707079460217
 21
-8.045010455793772
 31
0.0
  0
LINE
  5
EDC5
330
1F
100
AcDbEntity
  8
AM_0
100
AcDbLine
 10
9.318115754093356
 20
8.045010455794483
 30
0.0
 11
9.605707079460501
 21
8.045010455794483
 31
0.0
  0
ELLIPSE
  5
EDC6
330
1F
100
AcDbEntity
  8
AM_0
100
AcDbEllipse
 10
9.318115754093412
 20
-7.245010455793761
 30
0.0
 11
2.667918277469655E-16
 21
0.8
 31
0.0
210
0.0
220
0.0
230
1.0
 40
0.9876883405951378
 41
2.443460952792099
 42
3.839724354387514
  0
ELLIPSE
  5
EDC7
330
1F
100
AcDbEntity
  8
AM_0
100
AcDbEllipse
 10
0.7901506724761021
 20
0.0000000000003411
 30
0.0
 11
2.667918277469655E-16
 21
0.8
 31
0.0
210
0.0
220
0.0
230
1.0
 40
0.9876883405951378
 41
0.6981317007977602
 42
2.443460952792099
  0
ELLIPSE
  5
EDC8
330
1F
100
AcDbEntity
  8
AM_0
100
AcDbEllipse
 10
9.318115754093356
 20
7.2450104557945
 30
0.0
 11
2.667918277469655E-16
 21
0.8
 31
0.0
210
0.0
220
0.0
230
1.0
 40
0.9876883405951378
 41
5.585053606381942
 42
6.981317007977358
  0
ELLIPSE
  5
EDC9
330
1F
100
AcDbEntity
  8
AM_0
100
AcDbEllipse
 10
10.0627438076848
 20
0.0000000000003979
 30
0.0
 11
-8.604036444839636E-16
 21
-2.58
 31
0.0
210
0.0
220
0.0
230
1.0
 40
0.9876883405951377
 41
3.926990816987249
 42
6.136553846442834
  0
ELLIPSE
  5
EDCA
330
1F
100
AcDbEntity
  8
AM_0
100
AcDbEllipse
 10
10.0627438076848
 20
0.0000000000003979
 30
0.0
 11
-8.604036444839636E-16
 21
-2.58
 31
0.0
210
0.0
220
0.0
230
1.0
 40
0.9876883405951377
 41
3.288224114326545
 42
3.926990816987249
  0
ELLIPSE
  5
EDCB
330
1F
100
AcDbEntity
  8
AM_0
100
AcDbEllipse
 10
9.318115754093299
 20
0.0000000000003979
 30
0.0
 11
8.604036444839636E-16
 21
2.58
 31
0.0
210
0.0
220
0.0
230
1.0
 40
0.9876883405951377
 41
5.896738444227195
 42
7.068583470577043
  0
ELLIPSE
  5
EDCC
330
1F
100
AcDbEntity
  8
AM_0
100
AcDbEllipse
 10
9.318115754093299
 20
0.0000000000003979
 30
0.0
 11
8.604036444839636E-16
 21
2.58
 31
0.0
210
0.0
220
0.0
230
1.0
 40
0.9876883405951377
 41
0.7853981633974564
 42
3.528039516542329
  0
LINE
  5
EDCD
330
1F
100
AcDbEntity
  8
AM_0
100
AcDbLine
 10
12.77582278090387
 20
-3.287161043124002
 30
0.0
 11
19.12531653033415
 21
-6.284885567220897
 31
0.0
  0
LINE
  5
EDCE
330
1F
100
AcDbEntity
  8
AM_0
100
AcDbLine
 10
12.36019584312641
 20
-3.372524983311905
 30
0.0
 11
12.77582278090387
 21
-3.287161043123973
 31
0.0
  0
LINE
  5
EDCF
330
1F
100
AcDbEntity
  8
AM_0
100
AcDbLine
 10
9.056144732350845
 20
-1.812615574072765
 30
0.0
 11
12.36019584312641
 21
-3.372524983311905
 31
0.0
  0
ELLIPSE
  5
EDD0
330
1F
100
AcDbEntity
  8
AM_0
100
AcDbEllipse
 10
32.32450077556763
 20
-4.999999999999517
 30
0.0
 11
1.733165649110599
 21
1.572434345049618E-15
 31
0.0
210
0.0
220
0.0
230
1.0
 40
0.8654683415689368
 41
4.712388980384687
 42
5.131191403453299
  0
LINE
  5
EDD1
330
1F
100
AcDbEntity
  8
AM_0
100
AcDbLine
 10
31.28485999031591
 20
-6.499999999999517
 30
0.0
 11
32.32450077556763
 21
-6.499999999999517
 31
0.0
  0
LINE
  5
EDD2
330
1F
100
AcDbEntity
  8
AM_0
100
AcDbLine
 10
25.88725469895161
 20
-6.499999999999517
 30
0.0
 11
31.28485999031591
 21
-6.499999999999517
 31
0.0
  0
LINE
  5
EDD3
330
1F
100
AcDbEntity
  8
AM_0
100
AcDbLine
 10
32.32450077556763
 20
6.500000000000483
 30
0.0
 11
31.28485999031591
 21
6.500000000000483
 31
0.0
  0
ELLIPSE
  5
EDD4
330
1F
100
AcDbEntity
  8
AM_0
100
AcDbEllipse
 10
32.32450077556769
 20
5.000000000000483
 30
0.0
 11
1.733165649110599
 21
-3.756636173151134E-15
 31
0.0
210
0.0
220
0.0
230
1.0
 40
0.8654683415689368
 41
1.151993903726288
 42
1.570796326794899
  0
LINE
  5
EDD5
330
1F
100
AcDbEntity
  8
AM_0
100
AcDbLine
 10
33.90836409600234
 20
-4.999999999999517
 30
0.0
 11
32.76639250120866
 21
-4.999999999999517
 31
0.0
  0
LINE
  5
EDD6
330
1F
100
AcDbEntity
  8
AM_0
100
AcDbLine
 10
32.7663925012086
 20
-4.999999999999517
 30
0.0
 11
32.7663925012086
 21
5.000000000000483
 31
0.0
  0
LINE
  5
EDD7
330
1F
100
AcDbEntity
  8
AM_0
100
AcDbLine
 10
32.76639250120866
 20
5.000000000000483
 30
0.0
 11
33.90836409600234
 21
5.000000000000483
 31
0.0
  0
LINE
  5
EDD8
330
1F
100
AcDbEntity
  8
AM_0
100
AcDbLine
 10
33.90836409600229
 20
0.0000000000004832
 30
0.0
 11
33.90836409600229
 21
5.000000000000483
 31
0.0
  0
LINE
  5
EDD9
330
1F
100
AcDbEntity
  8
AM_0
100
AcDbLine
 10
33.90836409600229
 20
-4.999999999999517
 30
0.0
 11
33.90836409600229
 21
0.0000000000004832
 31
0.0
  0
LINE
  5
EDDA
330
1F
100
AcDbEntity
  8
AM_0
100
AcDbLine
 10
12.36019584312641
 20
3.372524983313014
 30
0.0
 11
9.056144732350788
 21
1.812615574073817
 31
0.0
  0
LINE
  5
EDDB
330
1F
100
AcDbEntity
  8
AM_0
100
AcDbLine
 10
12.77582278090387
 20
3.287161043125082
 30
0.0
 11
12.36019584312641
 21
3.372524983313014
 31
0.0
  0
LINE
  5
EDDC
330
1F
100
AcDbEntity
  8
AM_0
100
AcDbLine
 10
19.12531653033386
 20
6.284885567221863
 30
0.0
 11
12.77582278090387
 21
3.287161043125082
 31
0.0
  0
LINE
  5
EDDD
330
1F
100
AcDbEntity
  8
AM_0
100
AcDbLine
 10
25.44754536023595
 20
-6.284885567220897
 30
0.0
 11
19.12531653033415
 21
-6.284885567220897
 31
0.0
  0
LINE
  5
EDDE
330
1F
100
AcDbEntity
  8
AM_0
100
AcDbLine
 10
20.16146255111602
 20
-6.499999999999517
 30
0.0
 11
25.88725469895161
 21
-6.499999999999517
 31
0.0
  0
ELLIPSE
  5
EDDF
330
1F
100
AcDbEntity
  8
AM_0
100
AcDbEllipse
 10
20.16146255111602
 20
-5.499999999999517
 30
0.0
 11
-1.672172202858955
 21
1.327692361382819E-15
 31
0.0
210
0.0
220
0.0
230
1.0
 40
0.5980245325752185
 41
0.9025114294229065
 42
1.570796326794898
  0
ELLIPSE
  5
EDE0
330
1F
100
AcDbEntity
  8
AM_0
100
AcDbEllipse
 10
24.38849311937946
 20
-5.784885567220897
 30
0.0
 11
1.21279716587641
 21
-0.4509226727143593
 31
0.0
210
0.0
220
0.0
230
1.0
 40
0.1781250008549332
 41
5.836410687364565
 42
7.407207014159464
  0
ELLIPSE
  5
EDE1
330
1F
100
AcDbEntity
  8
AM_0
100
AcDbEllipse
 10
24.82820245809518
 20
-4.999999999999517
 30
0.0
 11
-1.110843120709041
 21
1.484768361962554
 31
0.0
210
0.0
220
0.0
230
1.0
 40
0.1919445970000275
 41
2.998962660679083
 42
4.569758987473979
  0
LINE
  5
EDE2
330
1F
100
AcDbEntity
  8
AM_0
100
AcDbLine
 10
18.16761231380343
 20
-2.566291986733688
 30
0.0
 11
24.98492980144573
 21
-5.784885567220897
 31
0.0
  0
LINE
  5
EDE3
330
1F
100
AcDbEntity
  8
AM_0
100
AcDbLine
 10
8.615612785728331
 20
-1.542016457230318
 30
0.0
 11
12.78313627716051
 21
-1.210002959587825
 31
0.0
  0
ELLIPSE
  5
EDE4
330
1F
100
AcDbEntity
  8
AM_0
100
AcDbEllipse
 10
19.57552249916552
 20
-8.299611833511676
 30
0.0
 11
8.655260910482413
 21
-6.221159005073877
 31
0.0
210
0.0
220
0.0
230
1.0
 40
0.3965619428574126
 41
2.005549902795212
 42
2.703681603592949
  0
ARC
  5
EDE5
330
1F
100
AcDbEntity
  8
AM_0
100
AcDbCircle
 10
9.646496504771619
 20
-0.1885358563234121
 30
0.0
 40
1.701361507505086
100
AcDbArc
 50
200.2383849621641
 51
232.7051485800699
  0
ELLIPSE
  5
EDE6
330
1F
100
AcDbEntity
  8
AM_0
100
AcDbEllipse
 10
9.349070108629462
 20
0.0000000000004832
 30
0.0
 11
1.244526245592543
 21
-1.772265250489479
 31
0.0
210
0.0
220
0.0
230
1.0
 40
0.7447520434598949
 41
5.110947827681479
 42
5.364988992627219
  0
ELLIPSE
  5
EDE7
330
1F
100
AcDbEntity
  8
AM_0
100
AcDbEllipse
 10
9.349070108629462
 20
0.0000000000004832
 30
0.0
 11
-1.244526245592405
 21
-1.772265250489576
 31
0.0
210
0.0
220
0.0
230
0.9999999999999999
 40
0.7447520434598947
 41
4.059788968142058
 42
4.313830133087717
  0
LINE
  5
EDE8
330
1F
100
AcDbEntity
  8
AM_0
100
AcDbLine
 10
12.46813603565346
 20
-0.4251173923664453
 30
0.0
 11
8.050174535798476
 21
-0.777082498989671
 31
0.0
  0
ELLIPSE
  5
EDE9
330
1F
100
AcDbEntity
  8
AM_0
100
AcDbEllipse
 10
9.628446787801181
 20
0.0000000000004832
 30
0.0
 11
1.367133033503812E-15
 21
2.0
 31
0.0
210
0.0
220
0.0
230
1.0
 40
0.8564242386764636
 41
1.171748398871885
 42
1.969844254717856
  0
ELLIPSE
  5
EDEA
330
1F
100
AcDbEntity
  8
AM_0
100
AcDbEllipse
 10
20.01523183788123
 20
-7.514726266290268
 30
0.0
 11
-9.729713277375835
 21
6.061775004192343
 31
0.0
210
0.0
220
0.0
230
1.0
 40
0.3809543443012065
 41
5.102497863322781
 42
5.800629564120518
  0
LINE
  5
EDEB
330
1F
100
AcDbEntity
  8
AM_0
100
AcDbLine
 10
12.46813603565346
 20
0.4251173923675538
 30
0.0
 11
12.46813603565346
 21
-0.4251173923664169
 31
0.0
  0
LINE
  5
EDEC
330
1F
100
AcDbEntity
  8
AM_0
100
AcDbLine
 10
31.0502082927556
 20
5.000000000000483
 30
0.0
 11
31.0502082927556
 21
-4.999999999999517
 31
0.0
  0
LINE
  5
EDED
330
1F
100
AcDbEntity
  8
AM_0
100
AcDbLine
 10
31.0502082927556
 20
-4.999999999999517
 30
0.0
 11
25.26820467512113
 21
-4.999999999999517
 31
0.0
  0
LINE
  5
EE2D
330
1F
100
AcDbEntity
  8
AM_0
100
AcDbLine
 10
25.26820467512113
 20
-4.999999999999517
 30
0.0
 11
24.15436351992503
 21
-4.474133044515156
 31
0.0
  0
LINE
  5
EE2E
330
1F
100
AcDbEntity
  8
AM_0
100
AcDbLine
 10
25.61792241948234
 20
-4.499999999999545
 30
0.0
 11
24.63023407888721
 21
-4.499999999999545
 31
0.0
  0
LINE
  5
EE2F
330
1F
100
AcDbEntity
  8
AM_0
100
AcDbLine
 10
24.63023407888721
 20
4.500000000000455
 30
0.0
 11
25.61792241948234
 21
4.500000000000455
 31
0.0
  0
LINE
  5
EE30
330
1F
100
AcDbEntity
  8
AM_0
100
AcDbLine
 10
21.55092981524825
 20
-3.244999294431466
 30
0.0
 11
18.45088718747888
 21
-1.78140641951228
 31
0.0
  0
LINE
  5
EE31
330
1F
100
AcDbEntity
  8
AM_0
100
AcDbLine
 10
18.45088718747888
 20
-1.781406419512308
 30
0.0
 11
18.45088718747888
 21
1.781406419513388
 31
0.0
  0
ARC
  5
EE32
330
1F
100
AcDbEntity
  8
AM_0
100
AcDbCircle
 10
24.65295944739643
 20
-0.0463156020733067
 30
0.0
 40
4.455801297464164
100
AcDbArc
 50
225.878858488957
 51
263.5752527375391
  0
LINE
  5
EE33
330
1F
100
AcDbEntity
  8
AM_0
100
AcDbLine
 10
31.28485999031597
 20
6.500000000000483
 30
0.0
 11
25.88725469895132
 21
6.500000000000483
 31
0.0
  0
LINE
  5
EE34
330
1F
100
AcDbEntity
  8
AM_0
100
AcDbLine
 10
25.26820467512084
 20
5.000000000000483
 30
0.0
 11
31.0502082927556
 21
5.000000000000483
 31
0.0
  0
LINE
  5
EE35
330
1F
100
AcDbEntity
  8
AM_0
100
AcDbLine
 10
25.88725469895127
 20
6.500000000000483
 30
0.0
 11
20.16146255111579
 21
6.500000000000483
 31
0.0
  0
LINE
  5
EE36
330
1F
100
AcDbEntity
  8
AM_0
100
AcDbLine
 10
19.12531653033386
 20
6.284885567221863
 30
0.0
 11
25.44754536023561
 21
6.284885567221863
 31
0.0
  0
ELLIPSE
  5
EE37
330
1F
100
AcDbEntity
  8
AM_0
100
AcDbEllipse
 10
20.16146255111579
 20
5.500000000000483
 30
0.0
 11
-1.67217220285895
 21
8.836031515327537E-16
 31
0.0
210
0.0
220
0.0
230
1.0
 40
0.5980245325752203
 41
4.712388980384691
 42
5.380673877756684
  0
ELLIPSE
  5
EE38
330
1F
100
AcDbEntity
  8
AM_0
100
AcDbEllipse
 10
24.82820245809484
 20
5.000000000000483
 30
0.0
 11
1.110843120709007
 21
1.484768361962574
 31
0.0
210
0.0
220
0.0
230
1.0
 40
0.1919445970000269
 41
4.855018973293068
 42
6.425815300087964
  0
ELLIPSE
  5
EE39
330
1F
100
AcDbEntity
  8
AM_0
100
AcDbEllipse
 10
24.38849311937918
 20
5.784885567221863
 30
0.0
 11
1.212797165876403
 21
0.4509226727143579
 31
0.0
210
0.0
220
0.0
230
1.0
 40
0.1781250008549339
 41
5.159163600199706
 42
6.729959926994601
  0
LINE
  5
EE3A
330
1F
100
AcDbEntity
  8
AM_0
100
AcDbLine
 10
12.78313627716051
 20
1.210002959588906
 30
0.0
 11
8.615612785728445
 21
1.542016457231398
 31
0.0
  0
LINE
  5
EE3B
330
1F
100
AcDbEntity
  8
AM_0
100
AcDbLine
 10
8.050174535798533
 20
0.777082498990751
 30
0.0
 11
12.46813603565346
 21
0.4251173923675253
 31
0.0
  0
ARC
  5
EE3C
330
1F
100
AcDbEntity
  8
AM_0
100
AcDbCircle
 10
9.646496504771221
 20
0.1885358563247195
 30
0.0
 40
1.701361507504607
100
AcDbArc
 50
127.294851419922
 51
159.7616150378374
  0
LINE
  5
EE3D
330
1F
100
AcDbEntity
  8
AM_0
100
AcDbLine
 10
18.45088718747894
 20
1.781406419513417
 30
0.0
 11
21.55092981524871
 21
3.244999294432802
 31
0.0
  0
LINE
  5
EE3E
330
1F
100
AcDbEntity
  8
AM_0
100
AcDbLine
 10
24.98492980144539
 20
5.784885567221863
 30
0.0
 11
18.16761231380343
 21
2.566291986734797
 31
0.0
  0
LINE
  5
EE3F
330
1F
100
AcDbEntity
  8
AM_0
100
AcDbLine
 10
24.1543635199244
 20
4.474133044515952
 30
0.0
 11
25.26820467512084
 21
5.000000000000483
 31
0.0
  0
ARC
  5
EE40
330
1F
100
AcDbEntity
  8
AM_0
100
AcDbCircle
 10
24.65295944739654
 20
0.0463156020739603
 30
0.0
 40
4.455801297464422
100
AcDbArc
 50
96.42474726247058
 51
134.1211415110338
  0
ELLIPSE
  5
EE41
330
1F
100
AcDbEntity
  8
AM_0
100
AcDbEllipse
 10
20.01523183788123
 20
7.514726266291376
 30
0.0
 11
9.729713277375602
 21
6.061775004192731
 31
0.0
210
0.0
220
0.0
230
1.0
 40
0.3809543443012059
 41
3.624148396648336
 42
4.322280097446073
  0
ELLIPSE
  5
EE42
330
1F
100
AcDbEntity
  8
AM_0
100
AcDbEllipse
 10
19.57552249916552
 20
8.299611833512756
 30
0.0
 11
-8.655260910482674
 21
-6.221159005073538
 31
0.0
210
0.0
220
0.0
230
1.0
 40
0.3965619428574118
 41
0.437911049997351
 42
1.136042750795087
  0
ELLIPSE
  5
EE43
330
1F
100
AcDbEntity
  8
AM_0
100
AcDbEllipse
 10
32.4268315851096
 20
-4.999999999999517
 30
0.0
 11
-3.774691442818011E-16
 21
-1.5
 31
0.0
210
0.0
220
0.0
230
1.0
 40
0.9876883405951378
 41
0.4188024230685804
 42
1.570796326794897
  0
ELLIPSE
  5
EE44
330
1F
100
AcDbEntity
  8
AM_0
100
AcDbEllipse
 10
32.4268315851096
 20
5.000000000000483
 30
0.0
 11
-3.774691442818011E-16
 21
-1.5
 31
0.0
210
0.0
220
0.0
230
1.0
 40
0.9876883405951378
 41
1.570796326794897
 42
2.722790230521213
  0
ELLIPSE
  5
EE45
330
1F
100
AcDbEntity
  8
AM_0
100
AcDbEllipse
 10
31.28485999031591
 20
5.000000000000483
 30
0.0
 11
-3.774691442818011E-16
 21
-1.5
 31
0.0
210
0.0
220
0.0
230
1.0
 40
0.9876883405951378
 41
1.570796326794897
 42
3.141592653589775
  0
LINE
  5
EE46
330
1F
100
AcDbEntity
  8
AM_0
100
AcDbLine
 10
32.7663925012086
 20
5.000000000000483
 30
0.0
 11
31.0502082927556
 21
5.000000000000483
 31
0.0
  0
ELLIPSE
  5
EE47
330
1F
100
AcDbEntity
  8
AM_0
100
AcDbEllipse
 10
31.28485999031591
 20
-4.999999999999517
 30
0.0
 11
1.041602269524440E-15
 21
1.5
 31
0.0
210
0.0
220
0.0
230
1.0
 40
0.1564344650402308
 41
1.570796326794899
 42
3.141592653589795
  0
LINE
  5
EE48
330
1F
100
AcDbEntity
  8
AM_0
100
AcDbLine
 10
31.0502082927556
 20
-4.999999999999517
 30
0.0
 11
32.7663925012086
 21
-4.999999999999517
 31
0.0
  0
ELLIPSE
  5
EE49
330
1F
100
AcDbEntity
  8
AM_0
100
AcDbEllipse
 10
31.28485999031591
 20
-4.999999999999517
 30
0.0
 11
-3.774691442818011E-16
 21
-1.5
 31
0.0
210
0.0
220
0.0
230
1.0
 40
0.9876883405951378
 41
0.0000000000000187
 42
1.570796326794897
  0
ELLIPSE
  5
EE4A
330
1F
100
AcDbEntity
  8
AM_0
100
AcDbEllipse
 10
32.80472837872384
 20
0.0000000000004832
 30
0.0
 11
-3.648868394724078E-16
 21
-1.45
 31
0.0
210
0.0
220
0.0
230
1.0
 40
0.9876883405951377
 41
0.8798065979545032
 42
1.187846669376159
  0
ELLIPSE
  5
EE4B
330
1F
100
AcDbEntity
  8
AM_0
100
AcDbEllipse
 10
32.80472837872384
 20
0.0000000000004832
 30
0.0
 11
-3.648868394724078E-16
 21
-1.45
 31
0.0
210
0.0
220
0.0
230
1.0
 40
0.9876883405951377
 41
1.953745984213634
 42
2.261786055635298
  0
ELLIPSE
  5
EE4C
330
1F
100
AcDbEntity
  8
AM_0
100
AcDbEllipse
 10
25.88725469895161
 20
-5.499999999999517
 30
0.0
 11
2.141928212811067E-15
 21
1.000000000000002
 31
0.0
210
0.0
220
0.0
230
1.0
 40
0.7096198014474958
 41
2.473307756217801
 42
3.141592653589777
  0
ELLIPSE
  5
EE4D
330
1F
100
AcDbEntity
  8
AM_0
100
AcDbEllipse
 10
25.42463914016139
 20
-4.999999999999517
 30
0.0
 11
-0.4269308993585689
 21
-0.9042842513130929
 31
0.0
210
0.0
220
0.0
230
1.0
 40
0.1417777738268738
 41
4.779225437110734
 42
5.826422988307341
  0
ELLIPSE
  5
EE4E
330
1F
100
AcDbEntity
  8
AM_0
100
AcDbEllipse
 10
18.60732165251915
 20
-1.781406419512308
 30
0.0
 11
-0.4269308993585688
 21
-0.904284251313095
 31
0.0
210
0.0
220
0.0
230
1.0
 40
0.1417777738268757
 41
4.779225437110771
 42
5.826422988307377
  0
ELLIPSE
  5
EE4F
330
1F
100
AcDbEntity
  8
AM_0
100
AcDbEllipse
 10
13.22284561587622
 20
-0.4251173923664453
 30
0.0
 11
-0.07941523887666906
 21
0.9968416222420546
 31
0.0
210
0.0
220
0.0
230
1.0
 40
0.7536808478867629
 41
1.510824943147868
 42
2.415067216255465
  0
ELLIPSE
  5
EE50
330
1F
100
AcDbEntity
  8
AM_0
100
AcDbEllipse
 10
25.61792241948234
 20
0.0000000000004547
 30
0.0
 11
1.132407432845403E-15
 21
4.5
 31
0.0
210
0.0
220
0.0
230
1.0
 40
0.9876883405951378
 41
3.141592653589793
 42
6.283185307179586
  0
ELLIPSE
  5
EE51
330
1F
100
AcDbEntity
  8
AM_0
100
AcDbEllipse
 10
24.63023407888716
 20
0.0000000000004547
 30
0.0
 11
1.132407432845403E-15
 21
4.5
 31
0.0
210
0.0
220
0.0
230
1.0
 40
0.9876883405951378
 41
0.0
 42
0.1072728090223282
  0
ELLIPSE
  5
EE52
330
1F
100
AcDbEntity
  8
AM_0
100
AcDbEllipse
 10
25.14646781351991
 20
0.0000000000004547
 30
0.0
 11
-1.132407432845403E-15
 21
-4.5
 31
0.0
210
0.0
220
0.0
230
1.0
 40
0.9876883405951378
 41
3.141592653589793
 42
6.283185307179586
  0
ELLIPSE
  5
EE53
330
1F
100
AcDbEntity
  8
AM_0
100
AcDbEllipse
 10
24.63023407888716
 20
0.0000000000004547
 30
0.0
 11
1.132407432845403E-15
 21
4.5
 31
0.0
210
0.0
220
0.0
230
1.0
 40
0.9876883405951378
 41
3.034319844567607
 42
3.141592653589793
  0
ELLIPSE
  5
EE54
330
1F
100
AcDbEntity
  8
AM_0
100
AcDbEllipse
 10
24.63023407888716
 20
0.0000000000004547
 30
0.0
 11
1.132407432845403E-15
 21
4.5
 31
0.0
210
0.0
220
0.0
230
1.0
 40
0.9876883405951378
 41
0.7653918169748406
 42
2.376200836614811
  0
ELLIPSE
  5
EE55
330
1F
100
AcDbEntity
  8
AM_0
100
AcDbEllipse
 10
31.28485999031591
 20
5.000000000000483
 30
0.0
 11
1.041602269524440E-15
 21
1.5
 31
0.0
210
0.0
220
0.0
230
1.0
 40
0.1564344650402308
 41
0.0000000000000029
 42
1.570796326794899
  0
ELLIPSE
  5
EE56
330
1F
100
AcDbEntity
  8
AM_0
100
AcDbEllipse
 10
25.88725469895127
 20
5.500000000000483
 30
0.0
 11
-6.369985150666090E-16
 21
1.0
 31
0.0
210
0.0
220
0.0
230
1.0
 40
0.7096198014474973
 41
-0.0000000000000015
 42
0.6682848973719937
  0
ELLIPSE
  5
EE57
330
1F
100
AcDbEntity
  8
AM_0
100
AcDbEllipse
 10
25.42463914016111
 20
5.000000000000483
 30
0.0
 11
0.4269308993585712
 21
-0.9042842513130933
 31
0.0
210
0.0
220
0.0
230
1.0
 40
0.1417777738268737
 41
3.598354972462019
 42
4.645552523658616
  0
ELLIPSE
  5
EE58
330
1F
100
AcDbEntity
  8
AM_0
100
AcDbEllipse
 10
13.22284561587622
 20
0.4251173923675538
 30
0.0
 11
0.0794152388766661
 21
0.9968416222420479
 31
0.0
210
0.0
220
0.0
230
1.0
 40
0.7536808478867624
 41
0.7265254373343286
 42
1.630767710441919
  0
ELLIPSE
  5
EE59
330
1F
100
AcDbEntity
  8
AM_0
100
AcDbEllipse
 10
18.60732165251915
 20
1.781406419513417
 30
0.0
 11
0.4269308993585694
 21
-0.9042842513130941
 31
0.0
210
0.0
220
0.0
230
1.0
 40
0.1417777738268757
 41
3.598354972461994
 42
4.645552523658587
  0
LINE
  5
EE5A
330
1F
100
AcDbEntity
  8
AM_0
100
AcDbLine
 10
25.99862391725247
 20
-1.999999999999574
 30
0.0
 11
23.71765539998029
 21
-1.999999999999574
 31
0.0
  0
LINE
  5
EE5B
330
1F
100
AcDbEntity
  8
AM_0
100
AcDbLine
 10
23.71765539998029
 20
-1.999999999999574
 30
0.0
 11
22.57717114134414
 21
0.0000000000004263
 31
0.0
  0
LINE
  5
EE5C
330
1F
100
AcDbEntity
  8
AM_0
100
AcDbLine
 10
23.04647453646481
 20
0.0000000000004263
 30
0.0
 11
24.18695879510091
 21
-1.999999999999574
 31
0.0
  0
LINE
  5
EE5D
330
1F
100
AcDbEntity
  8
AM_0
100
AcDbLine
 10
22.57717114134414
 20
0.0000000000004263
 30
0.0
 11
23.04647453646481
 21
0.0000000000004263
 31
0.0
  0
LINE
  5
EE5E
330
1F
100
AcDbEntity
  8
AM_0
100
AcDbLine
 10
22.57717114134414
 20
0.0000000000004547
 30
0.0
 11
23.71765539998029
 21
2.000000000000455
 31
0.0
  0
LINE
  5
EE5F
330
1F
100
AcDbEntity
  8
AM_0
100
AcDbLine
 10
24.18695879510091
 20
2.000000000000426
 30
0.0
 11
23.04647453646481
 21
0.0000000000004263
 31
0.0
  0
LINE
  5
EE60
330
1F
100
AcDbEntity
  8
AM_0
100
AcDbLine
 10
23.71765539998023
 20
2.000000000000426
 30
0.0
 11
25.99862391725247
 21
2.000000000000426
 31
0.0
  0
LINE
  5
EE61
330
1F
100
AcDbEntity
  8
AM_0
100
AcDbLine
 10
25.99862391725247
 20
2.000000000000426
 30
0.0
 11
27.13910817588857
 21
0.0000000000004263
 31
0.0
  0
LINE
  5
EE62
330
1F
100
AcDbEntity
  8
AM_0
100
AcDbLine
 10
27.13910817588857
 20
0.0000000000004263
 30
0.0
 11
25.99862391725247
 21
-1.999999999999574
 31
0.0
  0
LINE
  5
EE63
330
1F
100
AcDbEntity
  8
AM_0
100
AcDbLine
 10
25.11848001695893
 20
-4.249999999999574
 30
0.0
 11
25.64031198381753
 21
-4.249999999999574
 31
0.0
  0
LINE
  5
EE64
330
1F
100
AcDbEntity
  8
AM_0
100
AcDbLine
 10
25.11848001695893
 20
4.250000000000426
 30
0.0
 11
25.64031198381753
 21
4.250000000000426
 31
0.0
  0
ARC
  5
EE65
330
1F
100
AcDbEntity
  8
AM_0
100
AcDbCircle
 10
25.15868305940154
 20
0.0000000000004405
 30
0.0
 40
4.250190146878331
100
AcDbArc
 50
90.54197551819969
 51
269.4580244818004
  0
ELLIPSE
  5
EE66
330
1F
100
AcDbEntity
  8
AM_0
100
AcDbEllipse
 10
24.85813965861638
 20
0.0000000000004263
 30
0.0
 11
6.507030626043430E-16
 21
2.585786437626905
 31
0.0
210
0.0
220
0.0
230
1.0
 40
0.9876883405951378
 41
0.0000000000000002
 42
6.283185307179586
  0
ELLIPSE
  5
EE67
330
1F
100
AcDbEntity
  8
AM_0
100
AcDbEllipse
 10
25.64031198381753
 20
0.0000000000004263
 30
0.0
 11
-1.069495908798436E-15
 21
-4.25
 31
0.0
210
0.0
220
0.0
230
1.0
 40
0.9876883405951378
 41
1.57079632679489
 42
3.141592653589793
  0
ELLIPSE
  5
EE68
330
1F
100
AcDbEntity
  8
AM_0
100
AcDbEllipse
 10
25.64031198381753
 20
0.0000000000004263
 30
0.0
 11
-1.069495908798436E-15
 21
-4.25
 31
0.0
210
0.0
220
0.0
230
1.0
 40
0.9876883405951378
 41
0.0
 42
1.57079632679489
  0
ELLIPSE
  5
EE69
330
1F
100
AcDbEntity
  8
AM_0
100
AcDbEllipse
 10
24.90395825261538
 20
0.0000000000004263
 30
0.0
 11
-8.286437236779060E-16
 21
-3.292893218813452
 31
0.0
210
0.0
220
0.0
230
1.0
 40
0.9876883405951378
 41
0.0
 42
6.283185307179586
  0
ELLIPSE
  5
EE6A
330
1F
100
AcDbEntity
  8
AM_0
100
AcDbEllipse
 10
25.00786414591761
 20
0.0000000000004547
 30
0.0
 11
9.957904736841316E-16
 21
3.957106781186548
 31
0.0
210
0.0
220
0.0
230
1.0
 40
0.9876883405951378
 41
0.0000000000000002
 42
6.283185307179586
  0
ELLIPSE
  5
EE6B
330
1F
100
AcDbEntity
  8
AM_0
100
AcDbEllipse
 10
25.11848001695893
 20
0.0000000000004263
 30
0.0
 11
-1.069495908798436E-15
 21
-4.25
 31
0.0
210
0.0
220
0.0
230
1.0
 40
0.9876883405951378
 41
0.0
 42
3.141592653589793
  0
LINE
  5
EE6C
330
1F
100
AcDbEntity
  8
AM_0
100
AcDbLine
 10
43.80000000000001
 20
-8.28548920279917
 30
0.0
 11
43.80000000000001
 21
-12.71451079719992
 31
0.0
  0
ARC
  5
EE6D
330
1F
100
AcDbEntity
  8
AM_0
100
AcDbCircle
 10
47.14990703032748
 20
-10.71451079719974
 30
0.0
 40
3.901522409500942
100
AcDbArc
 50
210.8385318138108
 51
239.4457706852599
  0
ARC
  5
EE6E
330
1F
100
AcDbEntity
  8
AM_0
100
AcDbCircle
 10
47.14990703032748
 20
-10.28548920279933
 30
0.0
 40
3.901522409500942
100
AcDbArc
 50
120.5542293147401
 51
149.1614681861892
  0
LINE
  5
EE6F
330
1F
100
AcDbEntity
  8
AM_0
100
AcDbLine
 10
72.13397459621552
 20
-13.91228675972815
 30
0.0
 11
73.86602540378436
 21
-13.91228675972815
 31
0.0
  0
LINE
  5
EE70
330
1F
100
AcDbEntity
  8
AM_0
100
AcDbLine
 10
73.86602540378436
 20
-13.91228675972815
 30
0.0
 11
74.73205080756884
 21
-15.21132486540478
 31
0.0
  0
LINE
  5
EE71
330
1F
100
AcDbEntity
  8
AM_0
100
AcDbLine
 10
74.73205080756884
 20
-15.21132486540478
 30
0.0
 11
73.86602540378436
 21
-16.51036297108144
 31
0.0
  0
LINE
  5
EE72
330
1F
100
AcDbEntity
  8
AM_0
100
AcDbLine
 10
73.86602540378431
 20
-15.26036297108146
 30
0.0
 11
74.31538414090215
 21
-14.58632486540472
 31
0.0
  0
LINE
  5
EE73
330
1F
100
AcDbEntity
  8
AM_0
100
AcDbLine
 10
73.86602540378436
 20
-16.51036297108146
 30
0.0
 11
73.86602540378436
 21
-15.26036297108146
 31
0.0
  0
LINE
  5
EE74
330
1F
100
AcDbEntity
  8
AM_0
100
AcDbLine
 10
73.86602540378436
 20
-16.51036297108146
 30
0.0
 11
72.13397459621552
 21
-16.51036297108146
 31
0.0
  0
LINE
  5
EE75
330
1F
100
AcDbEntity
  8
AM_0
100
AcDbLine
 10
72.13397459621552
 20
-15.26036297108146
 30
0.0
 11
73.86602540378436
 21
-15.26036297108146
 31
0.0
  0
LINE
  5
EE76
330
1F
100
AcDbEntity
  8
AM_0
100
AcDbLine
 10
72.13397459621552
 20
-16.51036297108146
 30
0.0
 11
72.13397459621552
 21
-15.26036297108146
 31
0.0
  0
LINE
  5
EE77
330
1F
100
AcDbEntity
  8
AM_0
100
AcDbLine
 10
72.13397459621552
 20
-16.51036297108146
 30
0.0
 11
71.26794919243105
 21
-15.21132486540478
 31
0.0
  0
LINE
  5
EE78
330
1F
100
AcDbEntity
  8
AM_0
100
AcDbLine
 10
71.68461585909773
 20
-14.58632486540481
 30
0.0
 11
72.13397459621552
 21
-15.26036297108146
 31
0.0
  0
LINE
  5
EE79
330
1F
100
AcDbEntity
  8
AM_0
100
AcDbLine
 10
71.26794919243105
 20
-15.21132486540478
 30
0.0
 11
72.13397459621552
 21
-13.91228675972815
 31
0.0
  0
ELLIPSE
  5
EE7A
330
1F
100
AcDbEntity
  8
AM_0
100
AcDbEllipse
 10
72.99999999999994
 20
-14.96132486540478
 30
0.0
 11
-3.0
 21
1.200151617125595E-15
 31
0.0
210
0.0
220
0.0
230
1.0
 40
0.8660254037844387
 41
0.0796961547003937
 42
3.0618964988894
  0
ELLIPSE
  5
EE7B
330
1F
100
AcDbEntity
  8
AM_0
100
AcDbEllipse
 10
72.99999999999994
 20
-15.21132486540478
 30
0.0
 11
-2.5
 21
1.000126347604663E-15
 31
0.0
210
0.0
220
0.0
230
1.0
 40
0.8660254037844386
 41
0.0000000000000002
 42
6.283185307179586
  0
LINE
  5
EE7C
330
1F
100
AcDbEntity
  8
AM_0
100
AcDbLine
 10
5.922983317404089
 20
-158.7702307550698
 30
0.0
 11
2.363254706618079
 21
-136.2949888468876
 31
0.0
  0
ARC
  5
EE7D
330
1F
100
AcDbEntity
  8
AM_0
100
AcDbCircle
 10
35.31538300015586
 20
-116.3748908231714
 30
0.0
 40
5.000000000000001
100
AcDbArc
 50
278.9999999999988
 51
289.8020423149253
  0
LINE
  5
EE7E
330
1F
100
AcDbEntity
  8
AM_0
100
AcDbLine
 10
9.544003565488708
 20
-125.5190019602624
 30
0.0
 11
11.03325967267176
 21
-134.9217949627284
 31
0.0
  0
LINE
  5
EE7F
330
1F
100
AcDbEntity
  8
AM_0
100
AcDbLine
 10
9.544003565488652
 20
-125.5190019602624
 30
0.0
 11
36.09755532535701
 21
-121.3133325261471
 31
0.0
  0
LINE
  5
EE80
330
1F
100
AcDbEntity
  8
AM_0
100
AcDbLine
 10
11.03325967267176
 20
-134.9217949627284
 30
0.0
 11
10.71621810898671
 21
-134.9720094133523
 31
0.0
  0
ELLIPSE
  5
EE81
330
1F
100
AcDbEntity
  8
AM_0
100
AcDbEllipse
 10
-0.0950487073369004
 20
-127.0306236234378
 30
0.0
 11
-38.12944876272782
 21
10.81699465284855
 31
0.0
210
0.0
220
0.0
230
1.0
 40
0.782873801593835
 41
1.944037147721119
 42
3.677807011308064
  0
ARC
  5
EE82
330
1F
100
AcDbEntity
  8
AM_0
100
AcDbCircle
 10
35.31538292954861
 20
-116.3748907510722
 30
0.0
 40
5.000000091755577
100
AcDbArc
 50
289.8020427962916
 51
338.9999995186359
  0
LINE
  5
EE83
330
1F
100
AcDbEntity
  8
AM_0
100
AcDbLine
 10
48.76843849174594
 20
-95.28062362343782
 30
0.0
 11
39.98328513264187
 21
-118.1667305708979
 31
0.0
  0
LINE
  5
EE84
330
1F
100
AcDbEntity
  8
AM_0
100
AcDbLine
 10
5.558724209264256
 20
-158.7802989569857
 30
0.0
 11
5.922976695061095
 21
-158.7699966136872
 31
0.0
  0
SPLINE
  5
EE85
330
1F
100
AcDbEntity
  8
AM_0
100
AcDbSpline
210
0.0
220
0.0
230
1.0
 70
    11
 71
     3
 72
    70
 73
    66
 74
     0
 42
0.0000000001
 43
0.0000000001
 40
0.0
 40
0.0
 40
0.0
 40
0.0
 40
0.6597791926620007
 40
0.6597791926620007
 40
1.319558385324001
 40
1.319558385324001
 40
1.979337577986002
 40
1.979337577986002
 40
2.639116770648003
 40
2.639116770648003
 40
3.298892640286395
 40
3.298892640286395
 40
3.958668509924787
 40
3.958668509924787
 40
4.618444379563178
 40
4.618444379563178
 40
5.278220249201571
 40
5.278220249201571
 40
5.937996118839964
 40
5.937996118839964
 40
6.597771988478357
 40
6.597771988478357
 40
7.25754785811675
 40
7.25754785811675
 40
7.917323727755142
 40
7.917323727755142
 40
8.577102920417142
 40
8.577102920417142
 40
9.236882113079142
 40
9.236882113079142
 40
9.896661305741141
 40
9.896661305741141
 40
10.55644049840314
 40
10.55644049840314
 40
11.21621969106514
 40
11.21621969106514
 40
11.87599888372714
 40
11.87599888372714
 40
12.53577807638915
 40
12.53577807638915
 40
13.19555726905115
 40
13.19555726905115
 40
13.85533313868954
 40
13.85533313868954
 40
14.51510900832793
 40
14.51510900832793
 40
15.17488487796633
 40
15.17488487796633
 40
15.83466074760472
 40
15.83466074760472
 40
16.49443661724311
 40
16.49443661724311
 40
17.15421248688151
 40
17.15421248688151
 40
17.8139883565199
 40
17.8139883565199
 40
18.47376422615829
 40
18.47376422615829
 40
19.13354341882029
 40
19.13354341882029
 40
19.79332261148229
 40
19.79332261148229
 40
20.45310180414429
 40
20.45310180414429
 40
21.11288099680629
 40
21.11288099680629
 40
21.11288099680629
 40
21.11288099680629
 10
72.99999999999994
 20
-97.9518956069348
 30
0.0
 10
73.21992639755393
 20
-97.9518956069348
 30
0.0
 10
73.44730723496156
 20
-97.96038280924618
 30
0.0
 10
73.89950855096203
 20
-97.9963582251864
 30
0.0
 10
74.12433301047179
 20
-98.02384232631583
 30
0.0
 10
74.55544341100614
 20
-98.09732869327969
 30
0.0
 10
74.76207610183644
 20
-98.14340422283583
 30
0.0
 10
75.14415889919957
 20
-98.25143434378096
 30
0.0
 10
75.31959941005476
 20
-98.3134181257163
 30
0.0
 10
75.63014727620106
 20
-98.44766435203171
 30
0.0
 10
75.77589254009138
 20
-98.52450844710928
 30
0.0
 10
76.03283469691007
 20
-98.69515624039438
 30
0.0
 10
76.14404803687
 20
-98.78897576144478
 30
0.0
 10
76.32269776093733
 20
-98.98876152148627
 30
0.0
 10
76.39027632883222
 20
-99.09490273786646
 30
0.0
 10
76.47893724100442
 20
-99.31269551529694
 30
0.0
 10
76.49999999999994
 20
-99.42435440834221
 30
0.0
 10
76.49999999999994
 20
-99.64427969822167
 30
0.0
 10
76.47893724100442
 20
-99.76000122845555
 30
0.0
 10
76.39027632883222
 20
-99.9944099040534
 30
0.0
 10
76.32269776093733
 20
-100.1130936881431
 30
0.0
 10
76.14404803687
 20
-100.3444194784282
 30
0.0
 10
76.03283469691007
 20
-100.4572332479561
 30
0.0
 10
75.77589254009138
 20
-100.6686684889489
 30
0.0
 10
75.63014727620106
 20
-100.7672645441364
 30
0.0
 10
75.31959941005476
 20
-100.9435661839674
 30
0.0
 10
75.14415889919957
 20
-101.0273277501614
 30
0.0
 10
74.76207610183644
 20
-101.1762394309355
 30
0.0
 10
74.55544341100614
 20
-101.2413768449452
 30
0.0
 10
74.12433301047179
 20
-101.3465397495814
 30
0.0
 10
73.89950855096203
 20
-101.3866341831847
 30
0.0
 10
73.44730723496156
 20
-101.4393198512055
 30
0.0
 10
73.21992639755393
 20
-101.4518956069348
 30
0.0
 10
72.78007360244595
 20
-101.4518956069348
 30
0.0
 10
72.55269276503833
 20
-101.4393198512055
 30
0.0
 10
72.10049144903786
 20
-101.3866341831847
 30
0.0
 10
71.8756669895281
 20
-101.3465397495814
 30
0.0
 10
71.44455658899375
 20
-101.2413768449452
 30
0.0
 10
71.23792389816344
 20
-101.1762394309355
 30
0.0
 10
70.85584110080032
 20
-101.0273277501614
 30
0.0
 10
70.68040058994512
 20
-100.9435661839674
 30
0.0
 10
70.36985272379883
 20
-100.7672645441364
 30
0.0
 10
70.22410745990851
 20
-100.6686684889489
 30
0.0
 10
69.96716530308981
 20
-100.4572332479561
 30
0.0
 10
69.85595196312988
 20
-100.3444194784282
 30
0.0
 10
69.67730223906256
 20
-100.1130936881431
 30
0.0
 10
69.60972367116767
 20
-99.9944099040534
 30
0.0
 10
69.52106275899547
 20
-99.76000122845555
 30
0.0
 10
69.49999999999994
 20
-99.64427969822167
 30
0.0
 10
69.49999999999994
 20
-99.42435440834221
 30
0.0
 10
69.52106275899547
 20
-99.31269551529694
 30
0.0
 10
69.60972367116767
 20
-99.09490273786646
 30
0.0
 10
69.67730223906256
 20
-98.98876152148627
 30
0.0
 10
69.85595196312988
 20
-98.78897576144478
 30
0.0
 10
69.96716530308981
 20
-98.69515624039441
 30
0.0
 10
70.22410745990851
 20
-98.52450844710928
 30
0.0
 10
70.36985272379883
 20
-98.44766435203171
 30
0.0
 10
70.68040058994512
 20
-98.3134181257163
 30
0.0
 10
70.85584110080032
 20
-98.25143434378096
 30
0.0
 10
71.23792389816344
 20
-98.1434042228358
 30
0.0
 10
71.44455658899381
 20
-98.09732869327969
 30
0.0
 10
71.8756669895281
 20
-98.0238423263158
 30
0.0
 10
72.10049144903786
 20
-97.9963582251864
 30
0.0
 10
72.55269276503833
 20
-97.96038280924618
 30
0.0
 10
72.78007360244595
 20
-97.9518956069348
 30
0.0
 10
72.99999999999994
 20
-97.9518956069348
 30
0.0
  0
LINE
  5
EE86
330
1F
100
AcDbEntity
  8
AM_0
100
AcDbLine
 10
2.0063379470933
 20
-136.3515189080873
 30
0.0
 11
5.558754576557476
 21
-158.7805947831233
 31
0.0
  0
LINE
  5
EE87
330
1F
100
AcDbEntity
  8
AM_0
100
AcDbLine
 10
79.2000000000001
 20
-158.5306236234379
 30
0.0
 11
99.69999999999993
 21
-158.5306236234379
 31
0.0
  0
LINE
  5
EE88
330
1F
100
AcDbEntity
  8
AM_0
100
AcDbLine
 10
79.2000000000001
 20
-95.53062362343782
 30
0.0
 11
99.69999999999993
 21
-95.53062362343782
 31
0.0
  0
LINE
  5
EE89
330
1F
100
AcDbEntity
  8
AM_0
100
AcDbLine
 10
5.559686662895047
 20
-158.7806236234378
 30
0.0
 11
78.46685608506931
 21
-158.7806236234378
 31
0.0
  0
LINE
  5
EE8A
330
1F
100
AcDbEntity
  8
AM_0
100
AcDbLine
 10
48.76843849174594
 20
-95.28062362343782
 30
0.0
 11
78.46685608506931
 21
-95.28062362343788
 31
0.0
  0
ELLIPSE
  5
EE8F
330
1F
100
AcDbEntity
  8
AM_0
100
AcDbEllipse
 10
72.99999999999994
 20
-100.4003424570663
 30
0.0
 11
-3.0
 21
7.343300259130637E-16
 31
0.0
210
0.0
220
0.0
230
1.0
 40
0.5000000000000001
 41
3.085553389985114
 42
3.141592653589793
  0
ELLIPSE
  5
EE90
330
1F
100
AcDbEntity
  8
AM_0
100
AcDbEllipse
 10
72.99999999999994
 20
-100.4003424570663
 30
0.0
 11
-3.0
 21
7.343300259130637E-16
 31
0.0
210
0.0
220
0.0
230
1.0
 40
0.5000000000000001
 41
3.141592653589793
 42
6.33922457078427
  0
ELLIPSE
  5
EE91
330
1F
100
AcDbEntity
  8
AM_0
100
AcDbEllipse
 10
72.99999999999994
 20
-100.4003424570663
 30
0.0
 11
-3.5
 21
8.567183635652410E-16
 31
0.0
210
0.0
220
0.0
230
1.0
 40
0.5000000000000001
 41
3.388679077802071
 42
6.036098882967309
  0
ARC
  5
EE92
330
1F
100
AcDbEntity
  8
AM_0
100
AcDbCircle
 10
79.2000000000001
 20
-94.33062362343782
 30
0.0
 40
1.2
100
AcDbArc
 50
232.3415379937914
 51
270.0
  0
ARC
  5
EE93
330
1F
100
AcDbEntity
  8
AM_0
100
AcDbCircle
 10
79.2000000000001
 20
-159.7306236234379
 30
0.0
 40
1.2
100
AcDbArc
 50
90.0
 51
127.6584620062086
  0
LINE
  5
EE94
330
1F
100
AcDbEntity
  8
AM_0
100
AcDbLine
 10
8.810216692040285
 20
-125.6352223835312
 30
0.0
 11
0.2822516104230317
 21
-126.9859193600903
 31
0.0
  0
LINE
  5
EE95
330
1F
100
AcDbEntity
  8
AM_0
100
AcDbLine
 10
8.810216692040285
 20
-125.6352223835312
 30
0.0
 11
9.554844745631783
 21
-130.336618884764
 31
0.0
  0
LINE
  5
EE96
330
1F
100
AcDbEntity
  8
AM_0
100
AcDbLine
 10
1.026879664014473
 20
-131.6873158613231
 30
0.0
 11
9.554844745631783
 21
-130.336618884764
 31
0.0
  0
LINE
  5
EE97
330
1F
100
AcDbEntity
  8
AM_0
100
AcDbLine
 10
0.2822516104229749
 20
-126.9859193600903
 30
0.0
 11
1.026879664014473
 21
-131.6873158613231
 31
0.0
  0
LINE
  5
EE98
330
1F
100
AcDbEntity
  8
AM_0
100
AcDbLine
 10
0.0
 20
-127.0306236234378
 30
0.0
 11
0.7446280535915548
 21
-131.7320201246707
 31
0.0
  0
LINE
  5
EE99
330
1F
100
AcDbEntity
  8
AM_0
100
AcDbLine
 10
8.810216692040285
 20
-125.6352223835312
 30
0.0
 11
9.544003565488765
 21
-125.5190019602625
 31
0.0
  0
LINE
  5
EE9A
330
1F
100
AcDbEntity
  8
AM_0
100
AcDbLine
 10
10.28863161908021
 20
-130.2203984614954
 30
0.0
 11
9.55484474563184
 21
-130.336618884764
 31
0.0
  0
LINE
  5
EE9B
330
1F
100
AcDbEntity
  8
AM_0
100
AcDbLine
 10
0.0
 20
-127.0306236234378
 30
0.0
 11
0.2822516104229749
 21
-126.9859193600903
 31
0.0
  0
LINE
  5
EE9C
330
1F
100
AcDbEntity
  8
AM_0
100
AcDbLine
 10
1.02687966401453
 20
-131.6873158613231
 30
0.0
 11
0.7446280535915548
 21
-131.7320201246707
 31
0.0
  0
LINE
  5
EE9D
330
1F
100
AcDbEntity
  8
AM_0
100
AcDbLine
 10
9.341284564341777
 20
-130.3704434945534
 30
0.0
 11
10.08591261793333
 21
-135.0718399957862
 31
0.0
  0
LINE
  5
EE9E
330
1F
100
AcDbEntity
  8
AM_0
100
AcDbLine
 10
2.237100390404066
 20
-136.3149697276557
 30
0.0
 11
10.08591261793333
 21
-135.0718399957862
 31
0.0
  0
LINE
  5
EE9F
330
1F
100
AcDbEntity
  8
AM_0
100
AcDbLine
 10
1.492472336812512
 20
-131.6135732264229
 30
0.0
 11
2.237100390404009
 21
-136.3149697276557
 31
0.0
  0
LINE
  5
EEA0
330
1F
100
AcDbEntity
  8
AM_0
100
AcDbLine
 10
1.064172225383004
 20
-131.6814092998626
 30
0.0
 11
1.808800278974445
 21
-136.3828058010954
 31
0.0
  0
LINE
  5
EEA1
330
1F
100
AcDbEntity
  8
AM_0
100
AcDbLine
 10
10.71621810898665
 20
-134.9720094133523
 30
0.0
 11
10.08591261793333
 21
-135.0718399957862
 31
0.0
  0
LINE
  5
EEA2
330
1F
100
AcDbEntity
  8
AM_0
100
AcDbLine
 10
2.237100390404066
 20
-136.3149697276557
 30
0.0
 11
1.808800278974559
 21
-136.3828058010954
 31
0.0
  0
LINE
  5
EEA3
330
1F
100
AcDbEntity
  8
AM_0
100
AcDbLine
 10
30.59133512645707
 20
-121.9194595891596
 30
0.0
 11
30.87438398677767
 21
-122.1406015953271
 31
0.0
  0
LINE
  5
EEA4
330
1F
100
AcDbEntity
  8
AM_0
100
AcDbLine
 10
20.16146255111602
 20
-123.3311290982612
 30
0.0
 11
30.55421291161633
 21
-121.6850791489808
 31
0.0
  0
LINE
  5
EEA5
330
1F
100
AcDbEntity
  8
AM_0
100
AcDbLine
 10
12.77582278090387
 20
-124.5008995197049
 30
0.0
 11
19.12531653033415
 21
-123.4952385058573
 31
0.0
  0
LINE
  5
EEA6
330
1F
100
AcDbEntity
  8
AM_0
100
AcDbLine
 10
12.36019584312641
 20
-125.0729609225226
 30
0.0
 11
12.77582278090387
 21
-124.5008995197049
 31
0.0
  0
LINE
  5
EEA7
330
1F
100
AcDbEntity
  8
AM_0
100
AcDbLine
 10
31.28485999031591
 20
-116.7095234165637
 30
0.0
 11
32.11396265502913
 21
-121.9442716217179
 31
0.0
  0
LINE
  5
EEA8
330
1F
100
AcDbEntity
  8
AM_0
100
AcDbLine
 10
25.88725469895161
 20
-117.5644201097292
 30
0.0
 11
31.28485999031591
 21
-116.7095234165637
 31
0.0
  0
LINE
  5
EEA9
330
1F
100
AcDbEntity
  8
AM_0
100
AcDbLine
 10
33.59549516592188
 20
-121.7096199241576
 30
0.0
 11
32.76639250120866
 21
-116.4748717190034
 31
0.0
  0
LINE
  5
EEAA
330
1F
100
AcDbEntity
  8
AM_0
100
AcDbLine
 10
30.55421291161633
 20
-121.6850791489808
 30
0.0
 11
30.59133512645707
 21
-121.9194595891596
 31
0.0
  0
LINE
  5
EEAB
330
1F
100
AcDbEntity
  8
AM_0
100
AcDbLine
 10
30.59133512645707
 20
-121.9194595891596
 30
0.0
 11
30.63243014413644
 21
-122.1789233192783
 31
0.0
  0
LINE
  5
EEAC
330
1F
100
AcDbEntity
  8
AM_0
100
AcDbLine
 10
25.44754536023595
 20
-117.1278306643532
 30
0.0
 11
19.12531653033415
 21
-123.4952385058573
 31
0.0
  0
LINE
  5
EEAD
330
1F
100
AcDbEntity
  8
AM_0
100
AcDbLine
 10
20.16146255111602
 20
-123.3311290982612
 30
0.0
 11
25.88725469895161
 21
-117.5644201097292
 31
0.0
  0
LINE
  5
EEAE
330
1F
100
AcDbEntity
  8
AM_0
100
AcDbLine
 10
20.16146255111602
 20
-123.3311290982612
 30
0.0
 11
19.12531653033415
 21
-123.4952385058573
 31
0.0
  0
ELLIPSE
  5
EEAF
330
1F
100
AcDbEntity
  8
AM_0
100
AcDbEllipse
 10
24.38849311937946
 20
-117.2955680607957
 30
0.0
 11
1.205395585688677
 21
0.4939030369578883
 31
0.0
210
0.0
220
0.0
230
1.0
 40
0.3159413125143905
 41
5.641540763443614
 42
7.212337090238512
  0
ELLIPSE
  5
EEB0
330
1F
100
AcDbEntity
  8
AM_0
100
AcDbEllipse
 10
24.82820245809518
 20
-117.7321575061717
 30
0.0
 11
0.7980528971728067
 21
1.539068431385951
 31
0.0
210
0.0
220
0.0
230
1.0
 40
0.5351242527584477
 41
5.088269789880663
 42
6.65906611667556
  0
LINE
  5
EEB1
330
1F
100
AcDbEntity
  8
AM_0
100
AcDbLine
 10
18.16761231380343
 20
-117.7746262226185
 30
0.0
 11
24.98492980144573
 21
-116.6948692078236
 31
0.0
  0
LINE
  5
EEB2
330
1F
100
AcDbEntity
  8
AM_0
100
AcDbLine
 10
8.615612785728331
 20
-125.5534773879553
 30
0.0
 11
12.78313627716051
 21
-120.7592900270602
 31
0.0
  0
ARC
  5
EEB3
330
1F
100
AcDbEntity
  8
AM_0
100
AcDbCircle
 10
19.57552249916552
 20
-126.6638212879747
 30
0.0
 40
9.000000000000002
100
AcDbArc
 50
98.99999999999869
 51
138.9999999999995
  0
SPLINE
  5
EEB4
330
1F
100
AcDbEntity
  8
AM_0
100
AcDbSpline
210
0.0
220
0.0
230
1.0
 70
     8
 71
     3
 72
    14
 73
    10
 74
     0
 42
0.0000000001
 43
0.0000000001
 40
1.717671851546749
 40
1.717671851546749
 40
1.717671851546749
 40
1.717671851546749
 40
1.765885894744827
 40
1.765885894744827
 40
2.201983172992251
 40
2.201983172992251
 40
2.638080451239675
 40
2.638080451239675
 40
2.664546665281525
 40
2.664546665281525
 40
2.664546665281525
 40
2.664546665281525
 10
8.050174535798476
 20
-125.6221037771977
 30
0.0
 10
8.055340767035091
 20
-125.6161607079987
 30
0.0
 10
8.060705864099191
 20
-125.6104831768979
 30
0.0
 10
8.116421764523977
 20
-125.556087530229
 30
0.0
 10
8.19031068666942
 20
-125.5220131409931
 30
0.0
 10
8.374742413679599
 20
-125.4987806450922
 30
0.0
 10
8.485131567766416
 20
-125.5087317570652
 30
0.0
 10
8.601944920726396
 20
-125.5484969880633
 30
0.0
 10
8.608735633357583
 20
-125.5509132190993
 30
0.0
 10
8.615612785728331
 20
-125.5534773879553
 30
0.0
  0
ELLIPSE
  5
EEB5
330
1F
100
AcDbEntity
  8
AM_0
100
AcDbEllipse
 10
9.349070108629462
 20
-122.0425943092149
 30
0.0
 11
-0.569429655284344
 21
-3.554275704801866
 31
0.0
210
0.0
220
0.0
230
1.0
 40
0.484604732367245
 41
6.186250579042227
 42
6.440291743987967
  0
LINE
  5
EEB6
330
1F
100
AcDbEntity
  8
AM_0
100
AcDbLine
 10
12.46813603565346
 20
-120.5398204434457
 30
0.0
 11
8.050174535798476
 21
-125.6221037771977
 31
0.0
  0
LINE
  5
EEB7
330
1F
100
AcDbEntity
  8
AM_0
100
AcDbLine
 10
7.915598310448218
 20
-125.7769160152036
 30
0.0
 11
8.050174535798476
 21
-125.6221037771977
 31
0.0
  0
ARC
  5
EEB8
330
1F
100
AcDbEntity
  8
AM_0
100
AcDbCircle
 10
20.01523183788123
 20
-127.1004107333508
 30
0.0
 40
10.0
100
AcDbArc
 50
98.99999999999869
 51
138.9999999999995
  0
LINE
  5
EEB9
330
1F
100
AcDbEntity
  8
AM_0
100
AcDbLine
 10
31.0502082927556
 20
-115.227990905671
 30
0.0
 11
25.26820467512113
 21
-116.1437703126045
 31
0.0
  0
LINE
  5
EEBA
330
1F
100
AcDbEntity
  8
AM_0
100
AcDbLine
 10
25.26820467512113
 20
-116.1437703126045
 30
0.0
 11
24.15436351992503
 21
-116.3201854205807
 31
0.0
  0
LINE
  5
EEBB
330
1F
100
AcDbEntity
  8
AM_0
100
AcDbLine
 10
21.55092981524825
 20
-116.732528810818
 30
0.0
 11
18.45088718747888
 21
-117.2235273273994
 31
0.0
  0
LINE
  5
EEBC
330
1F
100
AcDbEntity
  8
AM_0
100
AcDbLine
 10
21.55255807305679
 20
-116.7427547442718
 30
0.0
 11
24.15565062122568
 21
-116.3282687917643
 31
0.0
  0
LINE
  5
EEBD
330
1F
100
AcDbEntity
  8
AM_0
100
AcDbLine
 10
31.28485999031591
 20
-116.7095234165637
 30
0.0
 11
31.0502082927556
 21
-115.227990905671
 31
0.0
  0
ARC
  5
EEBE
330
1F
100
AcDbEntity
  8
AM_0
100
AcDbCircle
 10
31.28485999031591
 20
-116.7095234165637
 30
0.0
 40
1.5
100
AcDbArc
 50
9.000000000000288
 51
98.99999999999869
  0
LINE
  5
EEBF
330
1F
100
AcDbEntity
  8
AM_0
100
AcDbLine
 10
32.7663925012086
 20
-116.4748717190034
 30
0.0
 11
31.28485999031597
 21
-116.7095234165637
 31
0.0
  0
LINE
  5
EEC0
330
1F
100
AcDbEntity
  8
AM_0
100
AcDbLine
 10
25.88725469895161
 20
-117.5644201097292
 30
0.0
 11
25.44754536023589
 21
-117.1278306643532
 31
0.0
  0
ELLIPSE
  5
EEC1
330
1F
100
AcDbEntity
  8
AM_0
100
AcDbEllipse
 10
25.42463914016139
 20
-117.1314586531996
 30
0.0
 11
-0.1564344650402304
 21
0.9876883405951368
 31
0.0
210
0.0
220
0.0
230
0.9999999999999999
 40
0.4226182617406994
 41
-0.0000000000000104
 42
1.047197551196596
  0
ELLIPSE
  5
EEC2
330
1F
100
AcDbEntity
  8
AM_0
100
AcDbEllipse
 10
18.60732165251915
 20
-118.2112156679945
 30
0.0
 11
-0.1564344650402327
 21
0.9876883405951378
 31
0.0
210
0.0
220
0.0
230
1.0
 40
0.4226182617406985
 41
-0.0000000000000115
 42
1.047197551196595
  0
ELLIPSE
  5
EEC3
330
1F
100
AcDbEntity
  8
AM_0
100
AcDbEllipse
 10
13.22284561587622
 20
-121.1958794724363
 30
0.0
 11
-0.754709580222779
 21
0.6560590289905064
 31
0.0
210
0.0
220
0.0
230
1.0
 40
0.0521949176317423
 41
5.378943034071988
 42
6.283185307179585
  0
LINE
  5
EEC4
330
1F
100
AcDbEntity
  8
AM_0
100
AcDbLine
 10
28.65705346294618
 20
-122.4917922493587
 30
0.0
 11
28.57883623042602
 21
-121.9979480790612
 31
0.0
  0
LINE
  5
EEC5
330
1F
100
AcDbEntity
  8
AM_0
100
AcDbLine
 10
23.71861175997043
 20
-123.2739645745599
 30
0.0
 11
23.64039452745038
 21
-122.7801204042624
 31
0.0
  0
LINE
  5
EEC6
330
1F
100
AcDbEntity
  8
AM_0
100
AcDbLine
 10
20.92080456942955
 20
-116.7960983251379
 30
0.0
 11
20.9264028016554
 21
-116.8314441723334
 31
0.0
  0
LINE
  5
EEC7
330
1F
100
AcDbEntity
  8
AM_0
100
AcDbLine
 10
29.31615546448825
 20
-115.4664053722959
 30
0.0
 11
29.3217536967141
 21
-115.5017512194914
 31
0.0
  0
LINE
  5
EEC8
330
1F
100
AcDbEntity
  8
AM_0
100
AcDbLine
 10
21.65160601356848
 20
-115.2919367232818
 30
0.0
 11
21.09947591564975
 21
-116.0518786078052
 31
0.0
  0
LINE
  5
EEC9
330
1F
100
AcDbEntity
  8
AM_0
100
AcDbLine
 10
28.15631049166223
 20
-114.2616927450424
 30
0.0
 11
28.91625237618558
 21
-114.8138228429612
 31
0.0
  0
LINE
  5
EECA
330
1F
100
AcDbEntity
  8
AM_0
100
AcDbLine
 10
22.30418854290321
 20
-114.8920336349791
 30
0.0
 11
27.41209077432944
 21
-114.0830213988222
 31
0.0
  0
LINE
  5
EECB
330
1F
100
AcDbEntity
  8
AM_0
100
AcDbLine
 10
28.15631049166217
 20
-114.2616927450424
 30
0.0
 11
21.65160601356848
 21
-115.2919367232818
 31
0.0
  0
LINE
  5
EECC
330
1F
100
AcDbEntity
  8
AM_0
100
AcDbLine
 10
21.09947591564975
 20
-116.0518786078052
 30
0.0
 11
28.91625237618558
 21
-114.8138228429612
 31
0.0
  0
LINE
  5
EECD
330
1F
100
AcDbEntity
  8
AM_0
100
AcDbLine
 10
29.31615546448825
 20
-115.4664053722959
 30
0.0
 11
20.92080456942955
 21
-116.7960983251379
 31
0.0
  0
ARC
  5
EECE
330
1F
100
AcDbEntity
  8
AM_0
100
AcDbCircle
 10
27.56852523936971
 20
-115.0707097394174
 30
0.0
 40
1.0
100
AcDbArc
 50
53.99999999999725
 51
98.99999999999869
  0
ARC
  5
EECF
330
1F
100
AcDbEntity
  8
AM_0
100
AcDbCircle
 10
22.46062300794347
 20
-115.8797219755743
 30
0.0
 40
0.9999999999999999
100
AcDbArc
 50
98.99999999999869
 51
143.9999999999998
  0
ARC
  5
EED0
330
1F
100
AcDbEntity
  8
AM_0
100
AcDbCircle
 10
21.90849291002468
 20
-116.6396638600976
 30
0.0
 40
1.0
100
AcDbArc
 50
143.9999999999998
 51
189.0000000000003
  0
ARC
  5
EED1
330
1F
100
AcDbEntity
  8
AM_0
100
AcDbCircle
 10
28.32846712389306
 20
-115.6228398373362
 30
0.0
 40
1.0
100
AcDbArc
 50
9.000000000000288
 51
54.00000000000085
  0
LINE
  5
EED2
330
1F
100
AcDbEntity
  8
AM_0
100
AcDbLine
 10
43.80000000000001
 20
-106.6295793467643
 30
0.0
 11
43.80000000000001
 21
-108.223848406889
 31
0.0
  0
ARC
  5
EED3
330
1F
100
AcDbEntity
  8
AM_0
100
AcDbCircle
 10
47.14990703032748
 20
-108.6295793467644
 30
0.0
 40
3.901522409500941
100
AcDbArc
 50
126.0193267896543
 51
149.1614681861892
  0
LINE
  5
EED4
330
1F
100
AcDbEntity
  8
AM_0
100
AcDbLine
 10
72.13397459621552
 20
-99.93383610612018
 30
0.0
 11
73.86602540378436
 21
-99.93383610612018
 31
0.0
  0
LINE
  5
EED5
330
1F
100
AcDbEntity
  8
AM_0
100
AcDbLine
 10
73.86602540378436
 20
-99.93383610612018
 30
0.0
 11
73.86602540378436
 21
-101.3871886716225
 31
0.0
  0
LINE
  5
EED6
330
1F
100
AcDbEntity
  8
AM_0
100
AcDbLine
 10
73.86602540378436
 20
-99.93383610612018
 30
0.0
 11
74.73205080756884
 21
-100.6838361061202
 31
0.0
  0
LINE
  5
EED7
330
1F
100
AcDbEntity
  8
AM_0
100
AcDbLine
 10
74.73205080756884
 20
-100.6838361061202
 30
0.0
 11
73.93186698892254
 21
-101.3768156207651
 31
0.0
  0
LINE
  5
EED8
330
1F
100
AcDbEntity
  8
AM_0
100
AcDbLine
 10
73.45969566578958
 20
-101.4338361061202
 30
0.0
 11
72.54030433421031
 21
-101.4338361061202
 31
0.0
  0
LINE
  5
EED9
330
1F
100
AcDbEntity
  8
AM_0
100
AcDbLine
 10
72.06813301107735
 20
-101.3768156207651
 30
0.0
 11
71.26794919243105
 21
-100.6838361061202
 31
0.0
  0
LINE
  5
EEDA
330
1F
100
AcDbEntity
  8
AM_0
100
AcDbLine
 10
71.26794919243105
 20
-100.6838361061202
 30
0.0
 11
72.13397459621552
 21
-99.93383610612018
 31
0.0
  0
LINE
  5
EEDB
330
1F
100
AcDbEntity
  8
AM_0
100
AcDbLine
 10
72.13397459621552
 20
-99.93383610612018
 30
0.0
 11
72.13397459621552
 21
-101.3871886716225
 31
0.0
  0
LINE
  5
EEDC
330
1F
100
AcDbEntity
  8
AM_0
100
AcDbLine
 10
70.95875854768065
 20
-99.96214826963315
 30
0.0
 11
70.55051025721679
 21
-100.250823404228
 31
0.0
  0
LINE
  5
EEDD
330
1F
100
AcDbEntity
  8
AM_0
100
AcDbLine
 10
75.04124145231924
 20
-99.96214826963315
 30
0.0
 11
75.4494897427831
 21
-100.250823404228
 31
0.0
  0
ELLIPSE
  5
EEDE
330
1F
100
AcDbEntity
  8
AM_0
100
AcDbEllipse
 10
72.99999999999994
 20
-101.1168488080124
 30
0.0
 11
-3.0
 21
7.343300259130637E-16
 31
0.0
210
0.0
220
0.0
230
1.0
 40
0.5000000000000001
 41
5.667705598509191
 42
5.946228784361887
  0
ELLIPSE
  5
EEDF
330
1F
100
AcDbEntity
  8
AM_0
100
AcDbEllipse
 10
72.99999999999994
 20
-101.1168488080124
 30
0.0
 11
-3.0
 21
7.343300259130637E-16
 31
0.0
210
0.0
220
0.0
230
1.0
 40
0.5000000000000001
 41
3.478549176407511
 42
3.757072362260191
  0
ELLIPSE
  5
EEE0
330
1F
100
AcDbEntity
  8
AM_0
100
AcDbEllipse
 10
72.99999999999994
 20
-100.6838361061202
 30
0.0
 11
-2.5
 21
6.119416882608865E-16
 31
0.0
210
0.0
220
0.0
230
1.0
 40
0.5000000000000001
 41
3.004690770204869
 42
3.141592653589794
  0
ELLIPSE
  5
EEE1
330
1F
100
AcDbEntity
  8
AM_0
100
AcDbEllipse
 10
72.99999999999994
 20
-100.6838361061202
 30
0.0
 11
-2.5
 21
6.119416882608865E-16
 31
0.0
210
0.0
220
0.0
230
1.0
 40
0.5000000000000001
 41
3.141592653589794
 42
6.420087190564483
  0
ARC
  5
EEE2
330
1F
100
AcDbEntity
  8
AM_0
100
AcDbCircle
 10
-93.29122080070289
 20
6.559720511596609
 30
0.0
 40
1.452710495620603
100
AcDbArc
 50
357.643922996422
 51
30.9966645464168
  0
ARC
  5
EEE3
330
1F
100
AcDbEntity
  8
AM_0
100
AcDbCircle
 10
-93.29122080070334
 20
-6.559720511595728
 30
0.0
 40
1.452710495620998
100
AcDbArc
 50
329.0033354535935
 51
2.356077003571446
  0
LINE
  5
EEE4
330
1F
100
AcDbEntity
  8
AM_0
100
AcDbLine
 10
-128.7020136987747
 20
-0.81230482557649
 30
0.0
 11
-106.270910631376
 21
-0.8123048255770868
 31
0.0
  0
ELLIPSE
  5
EEE5
330
1F
100
AcDbEntity
  8
AM_0
100
AcDbEllipse
 10
-86.30667376687626
 20
-30.40952702595513
 30
0.0
 11
4.81018169618834
 21
-1.74307393927338
 31
0.0
210
0.0
220
0.0
230
1.0
 40
0.7828738015938358
 41
3.575100682777589
 42
3.763631887112802
  0
LINE
  5
EEE6
330
1F
100
AcDbEntity
  8
AM_0
100
AcDbLine
 10
-95.4507849039673
 20
-8.097431238431142
 30
0.0
 11
-104.8535779064333
 21
-8.097431238430886
 31
0.0
  0
LINE
  5
EEE7
330
1F
100
AcDbEntity
  8
AM_0
100
AcDbLine
 10
-95.45786131329265
 20
8.135388426788325
 30
0.0
 11
-94.55747138280634
 21
3.30578225021759
 31
0.0
  0
LINE
  5
EEEA
330
1F
100
AcDbEntity
  8
AM_0
100
AcDbLine
 10
-95.4507849039673
 20
-8.097431238431142
 30
0.0
 11
-91.24511546985201
 21
-30.40952702595502
 31
0.0
  0
LINE
  5
EEEB
330
1F
100
AcDbEntity
  8
AM_0
100
AcDbLine
 10
-94.55747138280634
 20
-3.305782250216481
 30
0.0
 11
-95.4507849039673
 21
-8.097431238431113
 31
0.0
  0
LINE
  5
EEEC
330
1F
100
AcDbEntity
  8
AM_0
100
AcDbLine
 10
-104.8051929533696
 20
-7.8378989399707
 30
0.0
 11
-104.8535779064333
 21
-8.097431238430886
 31
0.0
  0
LINE
  5
EEED
330
1F
100
AcDbEntity
  8
AM_0
100
AcDbLine
 10
-104.8535779064333
 20
-8.097431238430886
 30
0.0
 11
-104.9037923570572
 21
-7.831031406064255
 31
0.0
  0
LINE
  5
EEEE
330
1F
100
AcDbEntity
  8
AM_0
100
AcDbLine
 10
-104.8606543157583
 20
8.13538842678858
 30
0.0
 11
-104.805192953369
 21
7.837898939971183
 31
0.0
  0
ELLIPSE
  5
EEEF
330
1F
100
AcDbEntity
  8
AM_0
100
AcDbEllipse
 10
-86.30667376687626
 20
30.98154254952604
 30
0.0
 11
-4.76621551131403
 21
-1.898647013894627
 31
0.0
210
0.0
220
0.0
230
1.0
 40
0.7958418399860451
 41
5.762523218626527
 42
5.819101185251871
  0
LINE
  5
EEF0
330
1F
100
AcDbEntity
  8
AM_0
100
AcDbLine
 10
-91.24511546985201
 20
30.98154254952615
 30
0.0
 11
-95.45786131329265
 21
8.135388426788325
 31
0.0
  0
LINE
  5
EEF1
330
1F
100
AcDbEntity
  8
AM_0
100
AcDbLine
 10
-104.8606543157583
 20
8.135388426788552
 30
0.0
 11
-95.45786131329265
 21
8.135388426788325
 31
0.0
  0
LINE
  5
EEF2
330
1F
100
AcDbEntity
  8
AM_0
100
AcDbLine
 10
-104.9170452490624
 20
7.829574593894677
 30
0.0
 11
-104.8606543157583
 21
8.135388426788552
 31
0.0
  0
LINE
  5
EEF3
330
1F
100
AcDbEntity
  8
AM_0
100
AcDbLine
 10
-106.2718128719968
 20
0.7197616433381882
 30
0.0
 11
-128.7042471435298
 21
0.7197616433388134
 31
0.0
  0
ARC
  5
EEF6
330
1F
100
AcDbEntity
  8
AM_0
100
AcDbCircle
 10
-96.96240656714275
 20
0.0000000000004832
 30
0.0
 40
31.75000000000001
100
AcDbArc
 50
181.4660383330913
 51
280.803734163597
  0
LINE
  5
EEF7
330
1F
100
AcDbEntity
  8
AM_0
100
AcDbLine
 10
-91.007089800487
 20
-31.20350029628122
 30
0.0
 11
-88.09538774747222
 21
-30.5005496835031
 31
0.0
  0
ARC
  5
EEF8
330
1F
100
AcDbEntity
  8
AM_0
100
AcDbCircle
 10
-96.96240656714275
 20
0.0000000000004832
 30
0.0
 40
31.75
100
AcDbArc
 50
286.2111354402016
 51
73.78886455979834
  0
LINE
  5
EEF9
330
1F
100
AcDbEntity
  8
AM_0
100
AcDbLine
 10
-91.18808928685161
 20
31.2418958994146
 30
0.0
 11
-88.0948283378587
 21
30.5030303925389
 31
0.0
  0
ARC
  5
EEFA
330
1F
100
AcDbEntity
  8
AM_0
100
AcDbCircle
 10
-96.96240656714275
 20
0.0000000000004832
 30
0.0
 40
31.75
100
AcDbArc
 50
79.530381734608
 51
178.7010129929348
  0
LINE
  5
EEFB
330
1F
100
AcDbEntity
  8
AM_0
100
AcDbLine
 10
-128.7081961758682
 20
0.7197560718145724
 30
0.0
 11
-128.7060346473493
 21
-0.8123104985643295
 31
0.0
  0
LINE
  5
EEFC
330
1F
100
AcDbEntity
  8
AM_0
100
AcDbLine
 10
-73.72697994061451
 20
-8.318560569343504
 30
0.0
 11
-73.72697994061451
 21
-12.68143943065564
 31
0.0
  0
ARC
  5
EEFD
330
1F
100
AcDbEntity
  8
AM_0
100
AcDbCircle
 10
-78.77587308766948
 20
-10.49999999999953
 30
0.0
 40
5.499999999999989
100
AcDbArc
 50
23.36738166452159
 51
336.6326183354784
  0
ELLIPSE
  5
EEFE
330
1F
100
AcDbEntity
  8
AM_0
100
AcDbEllipse
 10
-91.7978373329027
 20
-6.499999999999659
 30
0.0
 11
4.357024820417535E-16
 21
1.780000000000009
 31
0.0
210
0.0
220
0.0
230
1.0
 40
0.1564344650402309
 41
1.570796326794889
 42
4.712388980384682
  0
ELLIPSE
  5
EEFF
330
1F
100
AcDbEntity
  8
AM_0
100
AcDbEllipse
 10
-91.7978373329027
 20
6.500000000000341
 30
0.0
 11
4.357024820417535E-16
 21
1.780000000000009
 31
0.0
210
0.0
220
0.0
230
1.0
 40
0.1564344650402309
 41
4.712388980384681
 42
7.853981633974474
  0
CIRCLE
  5
EF00
330
1F
100
AcDbEntity
  8
AM_0
100
AcDbCircle
 10
-78.77587308766948
 20
-10.49999999999953
 30
0.0
 40
4.999999999999992
  0
LINE
  5
EF01
330
1F
100
AcDbEntity
  8
AM_0
100
AcDbLine
 10
-95.56700532723602
 20
-7.857846010288938
 30
0.0
 11
-96.91770230379512
 21
-0.6128355544948647
 31
0.0
  0
LINE
  5
EF02
330
1F
100
AcDbEntity
  8
AM_0
100
AcDbLine
 10
-95.56700532723602
 20
-7.857846010288967
 30
0.0
 11
-100.2684018284689
 21
-7.857846010288967
 31
0.0
  0
LINE
  5
EF03
330
1F
100
AcDbEntity
  8
AM_0
100
AcDbLine
 10
-101.6190988050281
 20
-0.6128355544948647
 30
0.0
 11
-100.2684018284688
 21
-7.857846010288938
 31
0.0
  0
LINE
  5
EF04
330
1F
100
AcDbEntity
  8
AM_0
100
AcDbLine
 10
-96.91770230379512
 20
-0.6128355544948931
 30
0.0
 11
-101.6190988050281
 21
-0.6128355544948931
 31
0.0
  0
LINE
  5
EF05
330
1F
100
AcDbEntity
  8
AM_0
100
AcDbLine
 10
-96.91770230379512
 20
0.6128355544954616
 30
0.0
 11
-95.56700532723602
 21
7.857846010289677
 31
0.0
  0
LINE
  5
EF06
330
1F
100
AcDbEntity
  8
AM_0
100
AcDbLine
 10
-96.91770230379512
 20
0.6128355544954616
 30
0.0
 11
-101.6190988050281
 21
0.6128355544954616
 31
0.0
  0
LINE
  5
EF07
330
1F
100
AcDbEntity
  8
AM_0
100
AcDbLine
 10
-100.2684018284689
 20
7.857846010289677
 30
0.0
 11
-101.6190988050281
 21
0.6128355544954616
 31
0.0
  0
LINE
  5
EF08
330
1F
100
AcDbEntity
  8
AM_0
100
AcDbLine
 10
-95.56700532723602
 20
7.857846010289677
 30
0.0
 11
-100.2684018284689
 21
7.857846010289677
 31
0.0
  0
LINE
  5
EF09
330
1F
100
AcDbEntity
  8
AM_0
100
AcDbLine
 10
-95.4061187098668
 20
7.857846010289734
 30
0.0
 11
-94.55747138280646
 21
3.30578225021759
 31
0.0
  0
LINE
  5
EF0A
330
1F
100
AcDbEntity
  8
AM_0
100
AcDbLine
 10
-94.55747138280634
 20
-3.305782250216453
 30
0.0
 11
-95.40611870986669
 21
-7.857846010288938
 31
0.0
  0
LINE
  5
EF0B
330
1F
100
AcDbEntity
  8
AM_0
100
AcDbLine
 10
-95.48656201855141
 20
-8.045010455793772
 30
0.0
 11
-100.1879585197842
 21
-8.045010455793772
 31
0.0
  0
LINE
  5
EF0C
330
1F
100
AcDbEntity
  8
AM_0
100
AcDbLine
 10
-95.48656201855141
 20
8.045010455794483
 30
0.0
 11
-100.1879585197842
 21
8.045010455794483
 31
0.0
  0
ELLIPSE
  5
EF0D
330
1F
100
AcDbEntity
  8
AM_0
100
AcDbEllipse
 10
-95.48656201855141
 20
-7.245010455793761
 30
0.0
 11
1.958213402434837E-16
 21
0.8
 31
0.0
210
0.0
220
0.0
230
1.0
 40
0.1564344650402309
 41
2.443460952792103
 42
3.839724354387518
  0
ELLIPSE
  5
EF0E
330
1F
100
AcDbEntity
  8
AM_0
100
AcDbEllipse
 10
-100.1879585197842
 20
-7.245010455793761
 30
0.0
 11
-1.958213402434837E-16
 21
-0.8
 31
0.0
210
0.0
220
0.0
230
1.0
 40
0.1564344650402309
 41
5.585053606381895
 42
6.28318530717959
  0
ELLIPSE
  5
EF0F
330
1F
100
AcDbEntity
  8
AM_0
100
AcDbEllipse
 10
-96.83725899511052
 20
0.0000000000003411
 30
0.0
 11
1.958213402434837E-16
 21
0.8
 31
0.0
210
0.0
220
0.0
230
1.0
 40
0.1564344650402309
 41
0.6981317007977637
 42
2.443460952792103
  0
ELLIPSE
  5
EF10
330
1F
100
AcDbEntity
  8
AM_0
100
AcDbEllipse
 10
-101.5386554963434
 20
0.0000000000003411
 30
0.0
 11
-1.958213402434837E-16
 21
-0.8
 31
0.0
210
0.0
220
0.0
230
1.0
 40
0.1564344650402309
 41
3.839724354387556
 42
5.585053606381895
  0
ELLIPSE
  5
EF11
330
1F
100
AcDbEntity
  8
AM_0
100
AcDbEllipse
 10
-95.48656201855141
 20
7.2450104557945
 30
0.0
 11
1.958213402434837E-16
 21
0.8
 31
0.0
210
0.0
220
0.0
230
1.0
 40
0.1564344650402309
 41
5.585053606381946
 42
6.981317007977362
  0
ELLIPSE
  5
EF12
330
1F
100
AcDbEntity
  8
AM_0
100
AcDbEllipse
 10
-100.1879585197842
 20
7.2450104557945
 30
0.0
 11
-1.958213402434837E-16
 21
-0.8
 31
0.0
210
0.0
220
0.0
230
1.0
 40
0.1564344650402309
 41
3.141592653589797
 42
3.839724354387517
  0
ELLIPSE
  5
EF13
330
1F
100
AcDbEntity
  8
AM_0
100
AcDbEllipse
 10
-95.48656201855141
 20
0.0000000000003979
 30
0.0
 11
6.315238222852348E-16
 21
2.58
 31
0.0
210
0.0
220
0.0
230
1.0
 40
0.1564344650402309
 41
5.896738444227198
 42
7.068583470577046
  0
ELLIPSE
  5
EF14
330
1F
100
AcDbEntity
  8
AM_0
100
AcDbEllipse
 10
-95.48656201855141
 20
0.0000000000003979
 30
0.0
 11
6.315238222852348E-16
 21
2.58
 31
0.0
210
0.0
220
0.0
230
1.0
 40
0.1564344650402309
 41
0.7853981633974602
 42
3.528039516542341
  0
LINE
  5
EF15
330
1F
100
AcDbEntity
  8
AM_0
100
AcDbLine
 10
-100.3236851585036
 20
-7.561311472133127
 30
0.0
 11
-105.0036229394911
 21
-7.561311472133014
 31
0.0
  0
LINE
  5
EF16
330
1F
100
AcDbEntity
  8
AM_0
100
AcDbLine
 10
-106.2467526713606
 20
-0.9662069142711971
 30
0.0
 11
-105.0036229394911
 21
-7.561311472132957
 31
0.0
  0
LINE
  5
EF17
330
1F
100
AcDbEntity
  8
AM_0
100
AcDbLine
 10
-101.5532193104207
 20
-0.9662069142713676
 30
0.0
 11
-106.2467526713605
 21
-0.9662069142712539
 31
0.0
  0
LINE
  5
EF18
330
1F
100
AcDbEntity
  8
AM_0
100
AcDbLine
 10
-101.5707315637855
 20
0.8722728484268032
 30
0.0
 11
-106.2483084970897
 21
0.8722728484269169
 31
0.0
  0
LINE
  5
EF19
330
1F
100
AcDbEntity
  8
AM_0
100
AcDbLine
 10
-105.0164134974894
 20
7.552966170507148
 30
0.0
 11
-106.2483084970897
 21
0.8722728484269169
 31
0.0
  0
LINE
  5
EF1A
330
1F
100
AcDbEntity
  8
AM_0
100
AcDbLine
 10
-100.3252409842328
 20
7.552966170507034
 30
0.0
 11
-105.0164134974894
 21
7.552966170507148
 31
0.0
  0
LINE
  5
EF1B
330
1F
100
AcDbEntity
  8
AM_0
100
AcDbLine
 10
-100.272120587432
 20
-7.837898939970842
 30
0.0
 11
-104.8837376548826
 21
-7.837898939970728
 31
0.0
  0
LINE
  5
EF1C
330
1F
100
AcDbEntity
  8
AM_0
100
AcDbLine
 10
-100.2721205874321
 20
7.837898939971012
 30
0.0
 11
-104.8949723871518
 21
7.837898939971126
 31
0.0
  0
ELLIPSE
  5
EF1D
330
1F
100
AcDbEntity
  8
AM_0
100
AcDbEllipse
 10
-104.8837376548825
 20
-6.637898939970683
 30
0.0
 11
-2.937320103652257E-16
 21
-1.2
 31
0.0
210
0.0
220
0.0
230
1.0
 40
0.1564344650402255
 41
5.590463209672092
 42
6.283185307176254
  0
ELLIPSE
  5
EF1E
330
1F
100
AcDbEntity
  8
AM_0
100
AcDbEllipse
 10
-106.1268673867521
 20
-0.0427943821089229
 30
0.0
 11
-2.937320103652256E-16
 21
-1.2
 31
0.0
210
0.0
220
0.0
230
1.0
 40
0.156434465040228
 41
3.845133957676745
 42
5.590463209670801
  0
ELLIPSE
  5
EF1F
330
1F
100
AcDbEntity
  8
AM_0
100
AcDbEllipse
 10
-104.8949723871518
 20
6.637898939971166
 30
0.0
 11
-2.937320103652256E-16
 21
-1.2
 31
0.0
210
0.0
220
0.0
230
1.0
 40
0.1564344650402251
 41
3.141592653584455
 42
3.845133957675737
  0
LINE
  5
EF20
330
1F
100
AcDbEntity
  8
AM_0
100
AcDbLine
 10
-94.43268246340978
 20
-3.287161043124002
 30
0.0
 11
-93.42702144956212
 21
-6.284885567220897
 31
0.0
  0
LINE
  5
EF21
330
1F
100
AcDbEntity
  8
AM_0
100
AcDbLine
 10
-95.00474386622744
 20
-3.372524983311905
 30
0.0
 11
-94.43268246340978
 21
-3.287161043123973
 31
0.0
  0
LINE
  5
EF22
330
1F
100
AcDbEntity
  8
AM_0
100
AcDbLine
 10
-95.52805415221127
 20
-1.812615574072765
 30
0.0
 11
-95.00474386622744
 21
-3.372524983311905
 31
0.0
  0
LINE
  5
EF23
330
1F
100
AcDbEntity
  8
AM_0
100
AcDbLine
 10
-87.49620305343416
 20
-6.499999999999517
 30
0.0
 11
-86.64130636026863
 21
-6.499999999999517
 31
0.0
  0
LINE
  5
EF24
330
1F
100
AcDbEntity
  8
AM_0
100
AcDbLine
 10
-95.00474386622744
 20
3.372524983313014
 30
0.0
 11
-95.52805415221138
 21
1.812615574073817
 31
0.0
  0
LINE
  5
EF25
330
1F
100
AcDbEntity
  8
AM_0
100
AcDbLine
 10
-94.43268246340978
 20
3.287161043125082
 30
0.0
 11
-95.00474386622744
 21
3.372524983313014
 31
0.0
  0
LINE
  5
EF26
330
1F
100
AcDbEntity
  8
AM_0
100
AcDbLine
 10
-93.42702144956212
 20
6.284885567221863
 30
0.0
 11
-94.43268246340978
 21
3.287161043125082
 31
0.0
  0
LINE
  5
EF27
330
1F
100
AcDbEntity
  8
AM_0
100
AcDbLine
 10
-87.0596136080581
 20
-6.284885567220897
 30
0.0
 11
-93.42702144956212
 21
-6.284885567220897
 31
0.0
  0
LINE
  5
EF28
330
1F
100
AcDbEntity
  8
AM_0
100
AcDbLine
 10
-93.2629120419661
 20
-6.499999999999517
 30
0.0
 11
-87.49620305343416
 21
-6.499999999999517
 31
0.0
  0
ELLIPSE
  5
EF29
330
1F
100
AcDbEntity
  8
AM_0
100
AcDbEllipse
 10
-93.2629120419661
 20
-5.499999999999517
 30
0.0
 11
-3.285738191534161E-16
 21
-0.9999999999999999
 31
0.0
210
0.0
220
0.0
230
1.0
 40
0.2648460584760625
 41
5.614900409807595
 42
6.283185307179586
  0
ELLIPSE
  5
EF2A
330
1F
100
AcDbEntity
  8
AM_0
100
AcDbEllipse
 10
-87.22735100450058
 20
-5.784885567220897
 30
0.0
 11
-0.5923352606462962
 21
0.2784625059196992
 31
0.0
210
0.0
220
0.0
230
1.0
 40
0.7010917929256414
 41
2.161475216630494
 42
3.732271543425393
  0
ELLIPSE
  5
EF2B
330
1F
100
AcDbEntity
  8
AM_0
100
AcDbEllipse
 10
-87.66394044987663
 20
-4.999999999999517
 30
0.0
 11
1.427748863791327
 21
-0.809505112541243
 31
0.0
210
0.0
220
0.0
230
0.9999999999999999
 40
0.8844797096074627
 41
5.282434148219294
 42
6.853230475014192
  0
LINE
  5
EF2C
330
1F
100
AcDbEntity
  8
AM_0
100
AcDbLine
 10
-87.70640916632334
 20
-2.566291986733688
 30
0.0
 11
-86.6266521515285
 21
-5.784885567220897
 31
0.0
  0
LINE
  5
EF2D
330
1F
100
AcDbEntity
  8
AM_0
100
AcDbLine
 10
-95.48526033166019
 20
-1.542016457230318
 30
0.0
 11
-90.69107297076511
 21
-1.210002959587825
 31
0.0
  0
ELLIPSE
  5
EF2E
330
1F
100
AcDbEntity
  8
AM_0
100
AcDbEllipse
 10
-96.5956042316796
 20
-8.299611833511676
 30
0.0
 11
8.650329030518678
 21
6.203474596791089
 31
0.0
210
0.0
220
0.0
230
1.0
 40
0.4004711026506895
 41
6.160598876706524
 42
6.85873057750426
  0
ARC
  5
EF2F
330
1F
100
AcDbEntity
  8
AM_0
100
AcDbCircle
 10
-96.4777579512218
 20
-1.245513418661432
 30
0.0
 40
1.035840517027692
100
AcDbArc
 50
343.3667826520148
 51
26.88639986035039
  0
ELLIPSE
  5
EF30
330
1F
100
AcDbEntity
  8
AM_0
100
AcDbEllipse
 10
-91.97437725291985
 20
0.0000000000004832
 30
0.0
 11
-3.541728652452223
 21
-1.840793579357774
 31
0.0
210
0.0
220
0.0
230
1.0
 40
0.2207880113561845
 41
5.994514035276466
 42
6.248555200222206
  0
ELLIPSE
  5
EF31
330
1F
100
AcDbEntity
  8
AM_0
100
AcDbEllipse
 10
-91.97437725291962
 20
0.0000000000004832
 30
0.0
 11
-3.541728652452229
 21
1.840793579357769
 31
0.0
210
0.0
220
0.0
230
1.0
 40
0.2207880113561848
 41
0.0346301069573873
 42
0.288671271903046
  0
LINE
  5
EF32
330
1F
100
AcDbEntity
  8
AM_0
100
AcDbLine
 10
-90.47160338715065
 20
-0.4251173923664453
 30
0.0
 11
-95.55388672090254
 21
-0.777082498989671
 31
0.0
  0
ELLIPSE
  5
EF33
330
1F
100
AcDbEntity
  8
AM_0
100
AcDbEllipse
 10
-93.73829218420502
 20
0.0000000000004832
 30
0.0
 11
6.263722987602562E-16
 21
2.0
 31
0.0
210
0.0
220
0.0
230
1.0
 40
0.9852033873517184
 41
1.171748398871885
 42
1.969844254717856
  0
ELLIPSE
  5
EF34
330
1F
100
AcDbEntity
  8
AM_0
100
AcDbEllipse
 10
-97.03219367705566
 20
-7.514726266290268
 30
0.0
 11
-9.726363537225016
 21
-6.040644846824399
 31
0.0
210
0.0
220
0.0
230
1.0
 40
0.3846158677094969
 41
3.064196872434156
 42
3.762328573231893
  0
LINE
  5
EF35
330
1F
100
AcDbEntity
  8
AM_0
100
AcDbLine
 10
-90.47160338715065
 20
0.4251173923675538
 30
0.0
 11
-90.47160338715065
 21
-0.4251173923664169
 31
0.0
  0
LINE
  5
EF36
330
1F
100
AcDbEntity
  8
AM_0
100
AcDbLine
 10
-85.15977384937588
 20
5.000000000000483
 30
0.0
 11
-85.15977384937588
 21
3.797628848273064
 31
0.0
  0
LINE
  5
EF37
330
1F
100
AcDbEntity
  8
AM_0
100
AcDbLine
 10
-85.15977384937588
 20
-3.797628848272211
 30
0.0
 11
-85.15977384937588
 21
-4.999999999999517
 31
0.0
  0
LINE
  5
EF38
330
1F
100
AcDbEntity
  8
AM_0
100
AcDbLine
 10
-85.15977384937588
 20
-4.999999999999517
 30
0.0
 11
-86.07555325630943
 21
-4.999999999999517
 31
0.0
  0
LINE
  5
EF39
330
1F
100
AcDbEntity
  8
AM_0
100
AcDbLine
 10
-86.07555325630943
 20
-4.999999999999517
 30
0.0
 11
-86.25196836428557
 21
-4.474133044515156
 31
0.0
  0
LINE
  5
EF3A
330
1F
100
AcDbEntity
  8
AM_0
100
AcDbLine
 10
-86.02016340709719
 20
-4.499999999999545
 30
0.0
 11
-86.17659787213739
 21
-4.499999999999545
 31
0.0
  0
LINE
  5
EF3B
330
1F
100
AcDbEntity
  8
AM_0
100
AcDbLine
 10
-86.17659787213739
 20
4.500000000000455
 30
0.0
 11
-86.02016340709719
 21
4.500000000000455
 31
0.0
  0
LINE
  5
EF3C
330
1F
100
AcDbEntity
  8
AM_0
100
AcDbLine
 10
-86.66431175452277
 20
-3.244999294431466
 30
0.0
 11
-87.15531027110427
 21
-1.78140641951228
 31
0.0
  0
LINE
  5
EF3D
330
1F
100
AcDbEntity
  8
AM_0
100
AcDbLine
 10
-87.15531027110427
 20
-1.781406419512308
 30
0.0
 11
-87.15531027110427
 21
1.781406419513388
 31
0.0
  0
SPLINE
  5
EF3E
330
1F
100
AcDbEntity
  8
AM_0
100
AcDbSpline
210
0.0
220
0.0
230
1.0
 70
     8
 71
     3
 72
    18
 73
    14
 74
     0
 42
0.0000000001
 43
0.0000000001
 40
1.725867467603311
 40
1.725867467603311
 40
1.725867467603311
 40
1.725867467603311
 40
1.762895702346222
 40
1.762895702346222
 40
2.458497849458611
 40
2.458497849458611
 40
3.154099996571
 40
3.154099996571
 40
3.849702143683388
 40
3.849702143683388
 40
4.545304290795777
 40
4.545304290795777
 40
4.582332525538685
 40
4.582332525538685
 40
4.582332525538685
 40
4.582332525538685
 10
-86.25196836428557
 20
-4.474133044515156
 30
0.0
 10
-86.25396939587444
 20
-4.472755576514658
 30
0.0
 10
-86.25599634612189
 20
-4.47132239861395
 30
0.0
 10
-86.29657422951271
 20
-4.441862343448605
 30
0.0
 10
-86.34313722956762
 20
-4.393910219508967
 30
0.0
 10
-86.43017803757078
 20
-4.261174434875443
 30
0.0
 10
-86.4704485063142
 20
-4.17637643175641
 30
0.0
 10
-86.53619578890545
 20
-3.98039365157257
 30
0.0
 10
-86.56391379919393
 20
-3.862528204340379
 30
0.0
 10
-86.61242103430874
 20
-3.591215619341085
 30
0.0
 10
-86.63341993051932
 20
-3.437775872122785
 30
0.0
 10
-86.66142786673601
 20
-3.262791894347117
 30
0.0
 10
-86.66286044629629
 20
-3.253912733195648
 30
0.0
 10
-86.66431175452277
 20
-3.244999294431494
 30
0.0
  0
LINE
  5
EF3F
330
1F
100
AcDbEntity
  8
AM_0
100
AcDbLine
 10
-86.64130636026863
 20
6.500000000000483
 30
0.0
 11
-87.49620305343416
 21
6.500000000000483
 31
0.0
  0
LINE
  5
EF40
330
1F
100
AcDbEntity
  8
AM_0
100
AcDbLine
 10
-86.07555325630943
 20
5.000000000000483
 30
0.0
 11
-85.15977384937588
 21
5.000000000000483
 31
0.0
  0
LINE
  5
EF41
330
1F
100
AcDbEntity
  8
AM_0
100
AcDbLine
 10
-87.49620305343416
 20
6.500000000000483
 30
0.0
 11
-93.2629120419661
 21
6.500000000000483
 31
0.0
  0
LINE
  5
EF42
330
1F
100
AcDbEntity
  8
AM_0
100
AcDbLine
 10
-93.42702144956212
 20
6.284885567221863
 30
0.0
 11
-87.0596136080581
 21
6.284885567221863
 31
0.0
  0
ELLIPSE
  5
EF43
330
1F
100
AcDbEntity
  8
AM_0
100
AcDbEllipse
 10
-93.2629120419661
 20
5.500000000000483
 30
0.0
 11
-2.875400330913152E-16
 21
-1.0
 31
0.0
210
0.0
220
0.0
230
1.0
 40
0.2648460584760617
 41
3.141592653589793
 42
3.809877550961786
  0
ELLIPSE
  5
EF44
330
1F
100
AcDbEntity
  8
AM_0
100
AcDbEllipse
 10
-87.66394044987663
 20
5.000000000000483
 30
0.0
 11
-1.427748863791255
 21
-0.8095051125413656
 31
0.0
210
0.0
220
0.0
230
1.0
 40
0.8844797096074634
 41
2.571547485755071
 42
4.142343812549967
  0
ELLIPSE
  5
EF45
330
1F
100
AcDbEntity
  8
AM_0
100
AcDbEllipse
 10
-87.22735100450058
 20
5.784885567221863
 30
0.0
 11
0.5923352606463161
 21
0.2784625059196539
 31
0.0
210
0.0
220
0.0
230
1.0
 40
0.7010917929256423
 41
5.69250641734418
 42
7.263302744139075
  0
LINE
  5
EF46
330
1F
100
AcDbEntity
  8
AM_0
100
AcDbLine
 10
-90.69107297076511
 20
1.210002959588906
 30
0.0
 11
-95.48526033166007
 21
1.542016457231398
 31
0.0
  0
LINE
  5
EF47
330
1F
100
AcDbEntity
  8
AM_0
100
AcDbLine
 10
-95.55388672090254
 20
0.777082498990751
 30
0.0
 11
-90.47160338715065
 21
0.4251173923675253
 31
0.0
  0
ARC
  5
EF48
330
1F
100
AcDbEntity
  8
AM_0
100
AcDbCircle
 10
-96.47775795122271
 20
1.245513418662739
 30
0.0
 40
1.035840517028626
100
AcDbArc
 50
333.1136001396642
 51
16.63321734795892
  0
LINE
  5
EF49
330
1F
100
AcDbEntity
  8
AM_0
100
AcDbLine
 10
-87.15531027110427
 20
1.781406419513417
 30
0.0
 11
-86.66431175452277
 21
3.244999294432802
 31
0.0
  0
LINE
  5
EF4A
330
1F
100
AcDbEntity
  8
AM_0
100
AcDbLine
 10
-86.6266521515285
 20
5.784885567221863
 30
0.0
 11
-87.70640916632334
 21
2.566291986734797
 31
0.0
  0
LINE
  5
EF4B
330
1F
100
AcDbEntity
  8
AM_0
100
AcDbLine
 10
-86.25196836428569
 20
4.474133044515952
 30
0.0
 11
-86.07555325630943
 21
5.000000000000483
 31
0.0
  0
SPLINE
  5
EF4C
330
1F
100
AcDbEntity
  8
AM_0
100
AcDbSpline
210
0.0
220
0.0
230
1.0
 70
     8
 71
     3
 72
    18
 73
    14
 74
     0
 42
0.0000000001
 43
0.0000000001
 40
9.28033164244842
 40
9.28033164244842
 40
9.28033164244842
 40
9.28033164244842
 40
9.31735987719081
 40
9.31735987719081
 40
10.01296202430315
 40
10.01296202430315
 40
10.70856417141549
 40
10.70856417141549
 40
11.40416631852782
 40
11.40416631852782
 40
12.09976846564016
 40
12.09976846564016
 40
12.13679670038255
 40
12.13679670038255
 40
12.13679670038255
 40
12.13679670038255
 10
-86.66431175452277
 20
3.244999294432802
 30
0.0
 10
-86.66286044629618
 20
3.253912733196842
 30
0.0
 10
-86.66142786673589
 20
3.262791894348197
 30
0.0
 10
-86.63341993051932
 20
3.437775872123723
 30
0.0
 10
-86.61242103430874
 20
3.591215619341995
 30
0.0
 10
-86.56391379919381
 20
3.86252820434126
 30
0.0
 10
-86.53619578890533
 20
3.980393651573451
 30
0.0
 10
-86.4704485063142
 20
4.176376431757262
 30
0.0
 10
-86.43017803757067
 20
4.261174434876324
 30
0.0
 10
-86.3431372295675
 20
4.39391021950982
 30
0.0
 10
-86.29657422951271
 20
4.441862343449458
 30
0.0
 10
-86.25599634612189
 20
4.471322398614802
 30
0.0
 10
-86.25396939587455
 20
4.472755576515482
 30
0.0
 10
-86.25196836428569
 20
4.474133044515952
 30
0.0
  0
ELLIPSE
  5
EF4D
330
1F
100
AcDbEntity
  8
AM_0
100
AcDbEllipse
 10
-97.03219367705566
 20
7.514726266291376
 30
0.0
 11
9.726363537225241
 21
-6.04064484682402
 31
0.0
210
0.0
220
0.0
230
1.0
 40
0.3846158677094977
 41
5.66244938753698
 42
6.360581088334716
  0
ELLIPSE
  5
EF4E
330
1F
100
AcDbEntity
  8
AM_0
100
AcDbEllipse
 10
-96.5956042316796
 20
8.299611833512756
 30
0.0
 11
-8.65032903051841
 21
6.203474596791457
 31
0.0
210
0.0
220
0.0
230
1.0
 40
0.4004711026506905
 41
2.566047383265619
 42
3.264179084063355
  0
LINE
  5
EF4F
330
1F
100
AcDbEntity
  8
AM_0
100
AcDbLine
 10
-85.14130636026863
 20
5.000000000000483
 30
0.0
 11
-85.14130636026863
 21
3.778692131279286
 31
0.0
  0
LINE
  5
EF50
330
1F
100
AcDbEntity
  8
AM_0
100
AcDbLine
 10
-85.14130636026863
 20
-3.778692131278433
 30
0.0
 11
-85.14130636026863
 21
-4.999999999999517
 31
0.0
  0
LINE
  5
EF51
330
1F
100
AcDbEntity
  8
AM_0
100
AcDbLine
 10
-95.46519140073366
 20
2.000000000000455
 30
0.0
 11
-95.74152620242188
 21
2.000000000000455
 31
0.0
  0
LINE
  5
EF52
330
1F
100
AcDbEntity
  8
AM_0
100
AcDbLine
 10
-95.46519140073366
 20
-1.999999999999545
 30
0.0
 11
-95.74152620242199
 21
-1.999999999999545
 31
0.0
  0
LINE
  5
EF53
330
1F
100
AcDbEntity
  8
AM_0
100
AcDbLine
 10
-85.14130636026863
 20
5.000000000000483
 30
0.0
 11
-85.15977384937588
 21
5.000000000000483
 31
0.0
  0
ELLIPSE
  5
EF54
330
1F
100
AcDbEntity
  8
AM_0
100
AcDbEllipse
 10
-86.64130636026863
 20
-4.999999999999517
 30
0.0
 11
3.671650129565319E-16
 21
1.5
 31
0.0
210
0.0
220
0.0
230
1.0
 40
0.9876883405951378
 41
3.141592653589793
 42
4.71238898038469
  0
LINE
  5
EF55
330
1F
100
AcDbEntity
  8
AM_0
100
AcDbLine
 10
-85.15977384937588
 20
-4.999999999999517
 30
0.0
 11
-85.14130636026863
 21
-4.999999999999517
 31
0.0
  0
ELLIPSE
  5
EF56
330
1F
100
AcDbEntity
  8
AM_0
100
AcDbEllipse
 10
-87.49620305343416
 20
-5.499999999999517
 30
0.0
 11
2.447766753043551E-16
 21
1.000000000000002
 31
0.0
210
0.0
220
0.0
230
1.0
 40
0.7045847978729151
 41
3.141592653589809
 42
3.809877550961785
  0
ELLIPSE
  5
EF57
330
1F
100
AcDbEntity
  8
AM_0
100
AcDbEllipse
 10
-87.06324159690456
 20
-4.999999999999517
 30
0.0
 11
0.9480724607091978
 21
0.3180544123963767
 31
0.0
210
0.0
220
0.0
230
1.0
 40
0.8951496342466803
 41
4.877419171429447
 42
5.924616722626054
  0
ELLIPSE
  5
EF58
330
1F
100
AcDbEntity
  8
AM_0
100
AcDbEllipse
 10
-88.1429986116994
 20
-1.781406419512308
 30
0.0
 11
0.9480724607091976
 21
0.3180544123963814
 31
0.0
210
0.0
220
0.0
230
1.0
 40
0.8951496342466806
 41
4.877419171429443
 42
5.92461672262605
  0
ELLIPSE
  5
EF59
330
1F
100
AcDbEntity
  8
AM_0
100
AcDbEllipse
 10
-91.12766241614116
 20
-0.4251173923664453
 30
0.0
 11
-0.06908786673843442
 21
0.9976105786676192
 31
0.0
210
0.0
220
0.0
230
1.0
 40
0.6551647656140445
 41
3.7628054544612
 42
4.667047727568798
  0
ELLIPSE
  5
EF5A
330
1F
100
AcDbEntity
  8
AM_0
100
AcDbEllipse
 10
-86.02016340709719
 20
0.0000000000004547
 30
0.0
 11
1.101495038869596E-15
 21
4.5
 31
0.0
210
0.0
220
0.0
230
1.0
 40
0.1564344650402308
 41
5.922188066425285
 42
6.283185307179586
  0
ELLIPSE
  5
EF5B
330
1F
100
AcDbEntity
  8
AM_0
100
AcDbEllipse
 10
-86.02016340709719
 20
0.0000000000004547
 30
0.0
 11
1.101495038869596E-15
 21
4.5
 31
0.0
210
0.0
220
0.0
230
1.0
 40
0.1564344650402308
 41
3.141592653589794
 42
3.502589894344067
  0
ELLIPSE
  5
EF5C
330
1F
100
AcDbEntity
  8
AM_0
100
AcDbEllipse
 10
-86.17659787213739
 20
0.0000000000004547
 30
0.0
 11
1.101495038869596E-15
 21
4.5
 31
0.0
210
0.0
220
0.0
230
1.0
 40
0.1564344650402308
 41
0.0000000000000003
 42
0.1072728090223284
  0
ELLIPSE
  5
EF5D
330
1F
100
AcDbEntity
  8
AM_0
100
AcDbEllipse
 10
-86.17659787213739
 20
0.0000000000004547
 30
0.0
 11
1.101495038869596E-15
 21
4.5
 31
0.0
210
0.0
220
0.0
230
1.0
 40
0.1564344650402308
 41
3.034319844567607
 42
3.141592653589792
  0
ELLIPSE
  5
EF5E
330
1F
100
AcDbEntity
  8
AM_0
100
AcDbEllipse
 10
-86.17659787213739
 20
0.0000000000004547
 30
0.0
 11
1.101495038869596E-15
 21
4.5
 31
0.0
210
0.0
220
0.0
230
1.0
 40
0.1564344650402308
 41
0.7653918169748407
 42
2.376200836614812
  0
ELLIPSE
  5
EF5F
330
1F
100
AcDbEntity
  8
AM_0
100
AcDbEllipse
 10
-86.64130636026863
 20
5.000000000000483
 30
0.0
 11
3.671650129565319E-16
 21
1.5
 31
0.0
210
0.0
220
0.0
230
1.0
 40
0.9876883405951378
 41
4.71238898038469
 42
6.283185307179586
  0
ELLIPSE
  5
EF60
330
1F
100
AcDbEntity
  8
AM_0
100
AcDbEllipse
 10
-87.49620305343416
 20
5.500000000000483
 30
0.0
 11
2.447766753043546E-16
 21
1.0
 31
0.0
210
0.0
220
0.0
230
1.0
 40
0.7045847978729137
 41
5.614900409807593
 42
6.283185307179588
  0
ELLIPSE
  5
EF61
330
1F
100
AcDbEntity
  8
AM_0
100
AcDbEllipse
 10
-87.06324159690456
 20
5.000000000000483
 30
0.0
 11
0.9480724607091996
 21
-0.3180544123963757
 31
0.0
210
0.0
220
0.0
230
1.0
 40
0.8951496342466796
 41
0.3585685845535415
 42
1.405766135750138
  0
ELLIPSE
  5
EF62
330
1F
100
AcDbEntity
  8
AM_0
100
AcDbEllipse
 10
-91.12766241614116
 20
0.4251173923675538
 30
0.0
 11
0.06908786673843191
 21
0.9976105786676123
 31
0.0
210
0.0
220
0.0
230
1.0
 40
0.6551647656140449
 41
4.757730233200579
 42
5.66197250630817
  0
ELLIPSE
  5
EF63
330
1F
100
AcDbEntity
  8
AM_0
100
AcDbEllipse
 10
-88.1429986116994
 20
1.781406419513417
 30
0.0
 11
0.9480724607091976
 21
-0.3180544123963812
 31
0.0
210
0.0
220
0.0
230
1.0
 40
0.8951496342466802
 41
0.3585685845535476
 42
1.40576613575014
  0
ARC
  5
EF64
330
1F
100
AcDbEntity
  8
AM_0
100
AcDbCircle
 10
-86.64130636026863
 20
5.000000000000497
 30
0.0
 40
1.5
100
AcDbArc
 50
0.0
 51
90.0
  0
ARC
  5
EF65
330
1F
100
AcDbEntity
  8
AM_0
100
AcDbCircle
 10
-86.64130636026863
 20
-4.999999999999503
 30
0.0
 40
1.5
100
AcDbArc
 50
270.0
 51
0.0
  0
LINE
  5
EF66
330
1F
100
AcDbEntity
  8
AM_0
100
AcDbLine
 10
-84.23867549960249
 20
-1.999999999999574
 30
0.0
 11
-84.59994542160854
 21
-1.999999999999574
 31
0.0
  0
LINE
  5
EF67
330
1F
100
AcDbEntity
  8
AM_0
100
AcDbLine
 10
-84.59994542160854
 20
-1.999999999999574
 30
0.0
 11
-84.78058038261162
 21
0.0000000000004263
 31
0.0
  0
LINE
  5
EF68
330
1F
100
AcDbEntity
  8
AM_0
100
AcDbLine
 10
-84.78058038261162
 20
0.0000000000004547
 30
0.0
 11
-84.59994542160865
 21
2.000000000000455
 31
0.0
  0
LINE
  5
EF69
330
1F
100
AcDbEntity
  8
AM_0
100
AcDbLine
 10
-84.59994542160854
 20
2.000000000000426
 30
0.0
 11
-84.23867549960249
 21
2.000000000000426
 31
0.0
  0
LINE
  5
EF6A
330
1F
100
AcDbEntity
  8
AM_0
100
AcDbLine
 10
-84.23867549960249
 20
2.000000000000426
 30
0.0
 11
-84.05804053859953
 21
0.0000000000004263
 31
0.0
  0
LINE
  5
EF6B
330
1F
100
AcDbEntity
  8
AM_0
100
AcDbLine
 10
-84.05804053859953
 20
0.0000000000004263
 30
0.0
 11
-84.78058038261162
 21
0.0000000000004263
 31
0.0
  0
LINE
  5
EF6C
330
1F
100
AcDbEntity
  8
AM_0
100
AcDbLine
 10
-84.05804053859953
 20
0.0000000000004263
 30
0.0
 11
-84.23867549960249
 21
-1.999999999999574
 31
0.0
  0
ARC
  5
EF6D
330
1F
100
AcDbEntity
  8
AM_0
100
AcDbCircle
 10
-92.77819367090314
 20
0.0000000000004405
 30
0.0
 40
8.775700986486353
100
AcDbArc
 50
338.2540244229086
 51
21.74597557709136
  0
LINE
  5
EF6E
330
1F
100
AcDbEntity
  8
AM_0
100
AcDbLine
 10
-86.06303479242177
 20
4.250000000000426
 30
0.0
 11
-86.43179087526556
 21
4.250000000000426
 31
0.0
  0
LINE
  5
EF6F
330
1F
100
AcDbEntity
  8
AM_0
100
AcDbLine
 10
-86.06303479242177
 20
-4.249999999999574
 30
0.0
 11
-86.43179087526556
 21
-4.249999999999574
 31
0.0
  0
LINE
  5
EF70
330
1F
100
AcDbEntity
  8
AM_0
100
AcDbLine
 10
-84.62701036992138
 20
3.25132874345519
 30
0.0
 11
-85.26658928438536
 21
3.907158284114985
 31
0.0
  0
LINE
  5
EF71
330
1F
100
AcDbEntity
  8
AM_0
100
AcDbLine
 10
-84.62701036992138
 20
-3.251328743454337
 30
0.0
 11
-85.26658928438536
 21
-3.907158284114104
 31
0.0
  0
ARC
  5
EF72
330
1F
100
AcDbEntity
  8
AM_0
100
AcDbCircle
 10
-86.06974673831968
 20
3.137887248822622
 30
0.0
 40
1.112133005332557
100
AcDbArc
 50
43.76544573932711
 51
89.65420637188588
  0
ARC
  5
EF73
330
1F
100
AcDbEntity
  8
AM_0
100
AcDbCircle
 10
-86.06974673831968
 20
-3.137887248821741
 30
0.0
 40
1.112133005332554
100
AcDbArc
 50
270.3457936281142
 51
316.2345542606728
  0
ELLIPSE
  5
EF74
330
1F
100
AcDbEntity
  8
AM_0
100
AcDbEllipse
 10
-84.41931046060557
 20
0.0000000000004263
 30
0.0
 11
6.329402072494046E-16
 21
2.585786437626905
 31
0.0
210
0.0
220
0.0
230
1.0
 40
0.1564344650402308
 41
0.0000000000000002
 42
6.283185307179585
  0
ELLIPSE
  5
EF75
330
1F
100
AcDbEntity
  8
AM_0
100
AcDbEllipse
 10
-84.70859767786698
 20
0.0000000000004263
 30
0.0
 11
-8.060234542334113E-16
 21
-3.292893218813452
 31
0.0
210
0.0
220
0.0
230
1.0
 40
0.1564344650402308
 41
4.712388980384694
 42
6.442239531885198
  0
ELLIPSE
  5
EF76
330
1F
100
AcDbEntity
  8
AM_0
100
AcDbEllipse
 10
-84.70859767786698
 20
0.0000000000004263
 30
0.0
 11
-8.060234542334113E-16
 21
-3.292893218813452
 31
0.0
210
0.0
220
0.0
230
1.0
 40
0.1564344650402308
 41
2.982538428884189
 42
4.712388980384694
  0
ELLIPSE
  5
EF77
330
1F
100
AcDbEntity
  8
AM_0
100
AcDbEllipse
 10
-85.36463366908805
 20
0.0000000000004547
 30
0.0
 11
9.686074417231594E-16
 21
3.957106781186548
 31
0.0
210
0.0
220
0.0
230
1.0
 40
0.1564344650402308
 41
6.124131082473981
 42
7.853981633974469
  0
ELLIPSE
  5
EF78
330
1F
100
AcDbEntity
  8
AM_0
100
AcDbEllipse
 10
-85.36463366908805
 20
0.0000000000004547
 30
0.0
 11
9.686074417231594E-16
 21
3.957106781186548
 31
0.0
210
0.0
220
0.0
230
1.0
 40
0.1564344650402308
 41
1.570796326794883
 42
3.300646878295399
  0
ELLIPSE
  5
EF79
330
1F
100
AcDbEntity
  8
AM_0
100
AcDbEllipse
 10
-86.06303479242177
 20
0.0000000000004263
 30
0.0
 11
-1.040300870043507E-15
 21
-4.25
 31
0.0
210
0.0
220
0.0
230
1.0
 40
0.1564344650402308
 41
4.71238898038467
 42
6.283185307179586
  0
ELLIPSE
  5
EF7A
330
1F
100
AcDbEntity
  8
AM_0
100
AcDbEllipse
 10
-86.06303479242177
 20
0.0000000000004263
 30
0.0
 11
-1.040300870043507E-15
 21
-4.25
 31
0.0
210
0.0
220
0.0
230
1.0
 40
0.1564344650402308
 41
3.141592653589794
 42
4.71238898038467
  0
CIRCLE
  5
EF7B
330
1F
100
AcDbEntity
  8
AM_0
100
AcDbCircle
 10
-78.77587308766948
 20
-10.49999999999953
 30
0.0
 40
2.214510797200376
  0
CIRCLE
  5
EF7C
330
1F
100
AcDbEntity
  8
AM_0
100
AcDbCircle
 10
-78.77587308766948
 20
-10.49999999999953
 30
0.0
 40
3.75
  0
CIRCLE
  5
EF7D
330
1F
100
AcDbEntity
  8
AM_0
100
AcDbCircle
 10
-78.77587308766948
 20
-10.49999999999953
 30
0.0
 40
5.0
  0
CIRCLE
  5
EF7E
330
1F
100
AcDbEntity
  8
AM_0
100
AcDbCircle
 10
-78.77587308766948
 20
-10.49999999999953
 30
0.0
 40
2.0
  0
LINE
  5
EFDE
330
1F
100
AcDbEntity
  8
AM_0
100
AcDbLine
 10
77.99999999999994
 20
-31.74999999999955
 30
0.0
 11
78.00000000000006
 21
31.75000000000043
 31
0.0
  0
LINE
  5
EFE9
330
1F
100
AcDbEntity
  8
AM_0
100
AcDbLine
 10
77.99999999999989
 20
-95.28062362343788
 30
0.0
 11
77.99999999999994
 21
-158.7806236234378
 31
0.0
  0
DIMENSION
  5
F2ED
330
1F
100
AcDbEntity
  8
AM_5
100
AcDbDimension
  2
*D7
 10
8.810216692040171
 20
7.857846010289677
 30
0.0
 11
-24.79289493715128
 21
0.0000000000001233
 31
0.0
 70
    34
  1
80%%D
 71
     5
 42
1.408476102587751
  3
AM_JIS$2
100
AcDb2LineAngularDimension
 13
8.810216692040285
 23
-7.857846010288938
 33
0.0
 14
0.2822516104230317
 24
-0.6128355544948647
 34
0.0
 15
0.2822516104230317
 25
0.6128355544954616
 35
0.0
 16
-20.81820474521674
 26
4.873767091920366
 36
0.0
1001
ACAD
1000
DSTYLE
1002
{
1070
   179
1070
     0
1070
   271
1070
     0
1002
}
  0
ENDSEC
  0
SECTION
  2
OBJECTS
  0
DICTIONARY
  5
C
330
0
100
AcDbDictionary
281
     1
  3
ACAD_COLOR
350
99D5
  3
ACAD_GROUP
350
D
  3
ACAD_LAYOUT
350
1A
  3
ACAD_MATERIAL
350
99D4
  3
ACAD_MLINESTYLE
350
17
  3
ACAD_PLOTSETTINGS
350
19
  3
ACAD_PLOTSTYLENAME
350
E
  3
ACAD_TABLESTYLE
350
99D6
  3
AcAmCatalogState
350
9A2C
  3
ACDBHEADERROUNDTRIPXREC
350
F4CD
  3
AcDbVariableDictionary
350
30
  3
ACDMSYSVARMGR
350
99EF
  3
ACGREF_MASTER
350
23CD
  3
ACGREFACAD_MASTER
350
23D1
  3
AcmDictionary
350
4D
  3
ACME_BOM_MANAGER_NAME
350
99A7
  3
ACME_COMMAND_HISTORY
350
99A2
  3
ACME_SCOPE_NAME
350
99A1
  3
ACMESTATEMGR
350
99AC
  3
AcmeSysVarManager
350
99A3
  3
AcmSystemVariableManager
350
9A2A
  3
AD_APPL
350
9A17
  3
ADSYSVARMGR
350
9A16
  3
AmdtNamedDwgMgr
350
9A0A
  3
AMG
350
3F
  3
AMGSNAPSETTINGS
350
73
  3
AMI_MASTER
350
23D2
  3
AUTOCAD_ASSEMBLIES_PROJECT
350
9A1F
  3
Designer_Assemblies_SysVars
350
9A1A
  3
DWGPROPS
350
F4D0
  3
FILENAME
350
1C9F
  3
GREFAM_MODULE
350
9A10
  3
ZWKSIZE
350
1CA1
  0
DICTIONARY
  5
9B25
330
2
100
AcDbDictionary
280
     1
281
     1
  3
ACAD_LAYERFILTERS
360
9F3B
  3
ACAD_LAYERSTATES
360
9B26
  3
ACLYDICTIONARY
360
9F3A
  3
AMLAYER_GROUPCOLORS
360
9F39
  0
DICTIONARY
  5
165
330
1F
100
AcDbDictionary
280
     1
281
     1
  3
ACAD_LAYOUTSELFREF
360
98ED
  3
ACAD_SORTENTS
360
D714
  0
DICTIONARY
  5
264F
330
1B
100
AcDbDictionary
280
     1
281
     1
  3
ACAD_LAYOUTSELFREF
360
98EC
  0
DICTIONARY
  5
2651
330
23
100
AcDbDictionary
280
     1
281
     1
  3
ACAD_LAYOUTSELFREF
360
98EE
  0
DICTIONARY
  5
99D5
102
{ACAD_REACTORS
330
C
102
}
330
C
100
AcDbDictionary
281
     1
  0
DICTIONARY
  5
D
102
{ACAD_REACTORS
330
C
102
}
330
C
100
AcDbDictionary
281
     1
  0
DICTIONARY
  5
1A
102
{ACAD_REACTORS
330
C
102
}
330
C
100
AcDbDictionary
281
     1
  3
Model
350
22
  3
ﾚｲｱｳﾄ1
350
1E
  3
ﾚｲｱｳﾄ2
350
26
  0
DICTIONARY
  5
99D4
102
{ACAD_REACTORS
330
C
102
}
330
C
100
AcDbDictionary
281
     1
  0
DICTIONARY
  5
17
102
{ACAD_REACTORS
330
C
102
}
330
C
100
AcDbDictionary
281
     1
  3
Standard
350
18
  0
DICTIONARY
  5
19
102
{ACAD_REACTORS
330
C
102
}
330
C
100
AcDbDictionary
281
     1
  0
ACDBDICTIONARYWDFLT
  5
E
102
{ACAD_REACTORS
330
C
102
}
330
C
100
AcDbDictionary
281
     1
  3
Normal
350
F
100
AcDbDictionaryWithDefault
340
F
  0
DICTIONARY
  5
99D6
102
{ACAD_REACTORS
330
C
102
}
330
C
100
AcDbDictionary
281
     1
  3
Standard
350
99D7
  0
ACAD_PROXY_OBJECT
  5
9A2C
102
{ACAD_REACTORS
330
C
102
}
330
C
100
AcDbProxyObject
 90
      499
 91
      584
 95
       25
 70
     0
 93
      424
310
3FFFFFFFE00A0281402902C1D2E482B415AC15141BA41A441C5C1AFAE20A1A0A226991818182E24A1AA26C00A3FFFFFFFCFFFF1F40
  0
DICTIONARY
  5
F4CD
102
{ACAD_REACTORS
330
C
102
}
330
C
100
AcDbDictionary
281
     1
  3
COLORDICT
350
F4CE
  3
MATERIALDICT
350
F4CF
  0
DICTIONARY
  5
30
102
{ACAD_REACTORS
330
C
102
}
330
C
100
AcDbDictionary
281
     1
  3
CTABLESTYLE
350
9A53
  3
HIDETEXT
350
F4CC
  3
INDEXCTL
350
F4CB
  0
ACAD_PROXY_OBJECT
  5
99EF
102
{ACAD_REACTORS
330
C
102
}
330
C
100
AcDbProxyObject
 90
      499
 91
      507
 95
       25
 70
     0
 93
      240
310
4C51A47A0000000000000000000000000000000000000000000000000000
330
99F0
330
99F1
330
99F2
330
99F3
330
99F4
330
99F5
330
99F6
330
99F7
330
99F8
330
99F9
330
99FA
330
99FB
330
99FC
330
99FD
330
99FE
330
99FF
330
9A00
330
9A01
330
9A02
330
9A03
330
9A04
330
9A05
330
9A06
330
9A07
330
9A08
330
9A09
 94
        0
  0
ACAD_PROXY_OBJECT
  5
23CD
102
{ACAD_REACTORS
330
C
102
}
330
C
100
AcDbProxyObject
 90
      499
 91
      534
 95
       25
 70
     0
 93
       34
310
0400004280
  0
ACAD_PROXY_OBJECT
  5
23D1
102
{ACAD_REACTORS
330
C
102
}
330
C
100
AcDbProxyObject
 90
      499
 91
      535
 95
       25
 70
     0
 93
      114
310
04000041C080000000000000000000
  0
DICTIONARY
  5
4D
102
{ACAD_REACTORS
330
C
102
}
330
C
100
AcDbDictionary
281
     1
  3
AcmBOMDATA
350
99B0
  3
AcmStdDictionary
350
17E
  3
AMDTSECTSYM_ARROWCOLOR
350
9A47
  0
ACAD_PROXY_OBJECT
  5
99A7
102
{ACAD_REACTORS
330
C
102
}
330
C
100
AcDbProxyObject
 90
      499
 91
      510
 95
       25
 70
     0
 93
       50
310
00010040400000
330
0
330
0
330
99A8
 94
        0
  0
ACAD_PROXY_OBJECT
  5
99A2
102
{ACAD_REACTORS
330
C
102
}
330
C
100
AcDbProxyObject
 90
      499
 91
      505
 95
       25
 70
     0
 93
     4792
310
47805054552415345404052D4D5347202D205050413A2020206465736B746F702E6172782046696C6556657273696F6E3A20392E322E302E34014151549054D16014151549054D16014151549054D16014151549054D16014151549054D1601415454D05591501014B5354D1C80B481414104E88080819195CDADD1BDC0B98
310
5C9E08119A5B1955995C9CDA5BDB8E880E4B8C8B8C0B8D005054552415345805054552415345805054552415345805045A4F4F4D805055153415645404052D4D5347202D205050413A2020206465736B746F702E6172782046696C6556657273696F6E3A20392E322E302E3401415454D05591501014B5354D1C80B4814141
310
04E88080819195CDADD1BDC0B985C9E08119A5B1955995C9CDA5BDB8E880E4B8C8B8C0B8D0050E414D4454524553455444424D4F4440805084E202D20554E444F014213880B4815539113C0504554E444F80504554E444F8050545524153458050545524153458050545524153458050545524153458050545524153458050
310
5455241534580504554E444F80505584C494E4580506455854454E4440405184D5347202D20436F6D6D616E642043414E43454C4C45442E014151549054D1501014B5354D1C80B481414104E88080819195CDADD1BDC0B985C9E08119A5B1955995C9CDA5BDB8E880E4B8C8B8C0B8D0050E414D4454524553455444424D4F4
310
440805084E202D20554E444F014213880B4815539113C0504554E444F80504554E444F805055055524745404052D4D5347202D205050413A2020206465736B746F702E6172782046696C6556657273696F6E3A20392E322E302E34
  0
ACAD_PROXY_OBJECT
  5
99A1
102
{ACAD_REACTORS
330
C
102
}
330
C
100
AcDbProxyObject
 90
      499
 91
      504
 95
       25
 70
     0
 93
      578
310
09000046408000000000000000001334DE000000000000000000000000000000000000000000000000000000000000000000000000000000000000000000000000000000AAA406AA80
360
99A4
360
99A5
360
99A6
360
99A8
360
99E8
360
99E9
360
99EA
360
99EB
360
99EC
360
99ED
360
99F0
360
99F1
360
99F2
360
99F3
360
99F4
360
99F5
360
99F6
360
99F7
360
99F8
360
99F9
360
99FA
360
99FB
360
99FC
360
99FD
360
99FE
360
99FF
360
9A00
360
9A01
360
9A02
360
9A03
360
9A04
360
9A05
360
9A06
360
9A07
360
9A08
360
9A09
360
9A12
360
9A13
360
9A14
360
9A15
360
9A1B
360
9A1C
360
9A1D
360
9A1E
360
9A23
360
9A24
360
9A25
360
9A26
360
9A27
360
9A28
360
9A2B
 94
        0
  0
ACAD_PROXY_OBJECT
  5
99AC
102
{ACAD_REACTORS
330
C
102
}
330
C
100
AcDbProxyObject
 90
      499
 91
      515
 95
       25
 70
     0
 93
       50
310
09000042641280
  0
ACAD_PROXY_OBJECT
  5
99A3
102
{ACAD_REACTORS
330
C
102
}
330
C
100
AcDbProxyObject
 90
      499
 91
      507
 95
       25
 70
     0
 93
       48
310
903412000000
330
99A4
330
99A5
330
99A6
 94
        0
  0
ACAD_PROXY_OBJECT
  5
9A2A
102
{ACAD_REACTORS
330
C
102
}
330
C
100
AcDbProxyObject
 90
      499
 91
      507
 95
       25
 70
     0
 93
       32
310
90140A00
330
9A2B
 94
        0
  0
ACAD_PROXY_OBJECT
  5
9A17
102
{ACAD_REACTORS
330
C
102
}
330
C
100
AcDbProxyObject
 90
      499
 91
      574
 95
       25
 70
     0
 93
       42
310
000900004040
330
9A12
 94
        0
  0
ACAD_PROXY_OBJECT
  5
9A16
102
{ACAD_REACTORS
330
C
102
}
330
C
100
AcDbProxyObject
 90
      499
 91
      507
 95
       25
 70
     0
 93
        8
310
AA
  0
ACAD_PROXY_OBJECT
  5
9A0A
102
{ACAD_REACTORS
330
C
102
}
330
C
100
AcDbProxyObject
 90
      499
 91
      565
 95
       25
 70
     0
 93
       42
310
000100005E80
330
99E8
 94
        0
  0
DICTIONARY
  5
3F
102
{ACAD_REACTORS
330
C
102
}
330
C
100
AcDbDictionary
281
     1
  3
AcMgSettings
350
40
  3
AMGLAYCFG
350
99B4
  0
DICTIONARY
  5
73
102
{ACAD_REACTORS
330
C
102
}
330
C
100
AcDbDictionary
281
     1
  0
ACAD_PROXY_OBJECT
  5
23D2
102
{ACAD_REACTORS
330
C
102
}
330
C
100
AcDbProxyObject
 90
      499
 91
      536
 95
       25
 70
     0
 93
       34
310
0500004280
  0
ACAD_PROXY_OBJECT
  5
9A1F
102
{ACAD_REACTORS
330
C
102
}
330
C
100
AcDbProxyObject
 90
      499
 91
      577
 95
       25
 70
     0
 93
       98
310
0900004E400000000000000000
330
9A26
330
0
330
9A27
330
0
330
0
330
0
330
0
330
0
 94
        0
  0
ACAD_PROXY_OBJECT
  5
9A1A
102
{ACAD_REACTORS
330
C
102
}
330
C
100
AcDbProxyObject
 90
      499
 91
      507
 95
       25
 70
     0
 93
       56
310
90441600000000
330
9A1B
330
9A1C
330
9A1D
330
9A1E
 94
        0
  0
XRECORD
  5
F4D0
102
{ACAD_REACTORS
330
C
102
}
330
C
100
AcDbXrecord
280
     1
  1
DWGPROPS COOKIE
  2

  3

  4

  6

  7

  8

  9

300
AmdtFileType=84
301
=
302
=
303
=
304
=
305
=
306
=
307
=
308
=
309
=
 40
0.0
 41
2451943.235431667
 42
2455478.189941759
  1

 90
        1
  0
DICTIONARY
  5
1C9F
102
{ACAD_REACTORS
330
C
102
}
330
C
100
AcDbDictionary
281
     1
  3
FILENAME
350
1CA0
  0
ACAD_PROXY_OBJECT
  5
9A10
102
{ACAD_REACTORS
330
C
102
}
330
C
100
AcDbProxyObject
 90
      499
 91
      568
 95
       25
 70
     0
 93
        8
310
05
  0
DICTIONARY
  5
1CA1
102
{ACAD_REACTORS
330
C
102
}
330
C
100
AcDbDictionary
281
     1
  3
ZWKSIZE
350
1CA2
  0
DICTIONARY
  5
9F3B
102
{ACAD_REACTORS
330
9B25
102
}
330
9B25
100
AcDbDictionary
281
     1
  0
DICTIONARY
  5
9B26
102
{ACAD_REACTORS
330
9B25
102
}
330
9B25
100
AcDbDictionary
281
     1
  0
DICTIONARY
  5
9F3A
102
{ACAD_REACTORS
330
9B25
102
}
330
9B25
100
AcDbDictionary
281
     1
1001
ACAD
1000
<All
  0
DICTIONARY
  5
9F39
102
{ACAD_REACTORS
330
9B25
102
}
330
9B25
100
AcDbDictionary
280
     1
281
     1
  0
XRECORD
  5
98ED
102
{ACAD_REACTORS
330
165
102
}
330
165
100
AcDbXrecord
280
     1
340
1F
  0
SORTENTSTABLE
  5
D714
102
{ACAD_REACTORS
330
165
102
}
330
165
100
AcDbSortentsTable
330
1F
331
6E5E
  5
6E5E
331
6E5F
  5
6E5F
331
7A0E
  5
7A0E
331
9D0C
  5
9D0C
331
9D4C
  5
9D4C
331
9D56
  5
9D56
331
9D7F
  5
9D7F
331
9D80
  5
9D80
331
9D81
  5
9D81
331
9D82
  5
9D82
331
9D83
  5
9D83
331
9D84
  5
9D84
331
9D85
  5
9D85
331
9D86
  5
9D86
331
9D87
  5
9D87
331
9D88
  5
9D88
331
9D89
  5
9D89
331
9D8A
  5
9D8A
331
9D8B
  5
9D8B
331
9D8C
  5
9D8C
331
9D8D
  5
9D8D
331
9D8E
  5
9D8E
331
9D8F
  5
9D8F
331
9D90
  5
9D90
331
9D91
  5
9D91
331
9D92
  5
9D92
331
9D93
  5
9D93
331
9D94
  5
9D94
331
9D95
  5
9D95
331
9D96
  5
9D96
331
9DA4
  5
9DA4
331
9DA5
  5
9DA5
331
9DAD
  5
9DAD
331
9DAF
  5
9DAF
331
9DFB
  5
9DFB
331
9DFC
  5
9DFC
331
9DFD
  5
9DFD
331
9DFE
  5
9DFE
331
9DFF
  5
9DFF
331
9E00
  5
9E00
331
9E01
  5
9E01
331
9E02
  5
9E02
331
9E03
  5
9E03
331
9E04
  5
9E04
331
9E05
  5
9E05
331
9E06
  5
9E06
331
9E07
  5
9E07
331
9E08
  5
9E08
331
9E09
  5
9E09
331
9E0A
  5
9E0A
331
9E10
  5
9E10
331
9E11
  5
9E11
331
9E26
  5
9E26
331
9E27
  5
9E27
331
9E28
  5
9E28
331
9E29
  5
9E29
331
9E2A
  5
9E2A
331
9E2B
  5
9E2B
331
9E2C
  5
9E2C
331
9E2D
  5
9E2D
331
A4B2
  5
A4B2
331
AE2A
  5
AE2A
331
B201
  5
B201
331
B20E
  5
B20E
331
B51C
  5
B51C
331
B51D
  5
B51D
331
B522
  5
B522
331
B527
  5
B527
331
B528
  5
B528
331
B52A
  5
B52A
331
B530
  5
B530
331
B531
  5
B531
331
B532
  5
B532
331
B536
  5
B536
331
B537
  5
B537
331
B538
  5
B538
331
B539
  5
B539
331
B53A
  5
B53A
331
B53B
  5
B53B
331
B53C
  5
B53C
331
B53D
  5
B53D
331
B53E
  5
B53E
331
B544
  5
B544
331
B545
  5
B545
331
B546
  5
B546
331
B547
  5
B547
331
B548
  5
B548
331
B549
  5
B549
331
B54A
  5
B54A
331
B54B
  5
B54B
331
B54C
  5
B54C
331
B552
  5
B552
331
B553
  5
B553
331
B554
  5
B554
331
B555
  5
B555
331
B556
  5
B556
331
B55B
  5
B55B
331
B55C
  5
B55C
331
B55D
  5
B55D
331
B55E
  5
B55E
331
B55F
  5
B55F
331
B560
  5
B560
331
B561
  5
B561
331
B562
  5
B562
331
B563
  5
B563
331
B564
  5
B564
331
B565
  5
B565
331
B566
  5
B566
331
B567
  5
B567
331
B568
  5
B568
331
B569
  5
B569
331
B56A
  5
B56A
331
B56B
  5
B56B
331
B56C
  5
B56C
331
B56D
  5
B56D
331
B56E
  5
B56E
331
B56F
  5
B56F
331
B570
  5
B570
331
B571
  5
B571
331
B911
  5
B911
  0
XRECORD
  5
98EC
102
{ACAD_REACTORS
330
264F
102
}
330
264F
100
AcDbXrecord
280
     1
340
1B
  0
XRECORD
  5
98EE
102
{ACAD_REACTORS
330
2651
102
}
330
2651
100
AcDbXrecord
280
     1
340
23
  0
LAYOUT
  5
22
102
{ACAD_REACTORS
330
1A
102
}
330
1A
100
AcDbPlotSettings
  1

  2
SII LP-2150 (D-SCAN C2)
  4
User120
  6
AM_VIEW1
 40
3.174999952316284
 41
3.174999952316284
 42
3.17498779296875
 43
3.17498779296875
 44
296.9259948730469
 45
419.9889831542969
 46
0.0
 47
0.0
 48
0.0
 49
0.0
140
420.0
141
297.0
142
1.0
143
1.022107788374329
 70
 11952
 72
     1
 73
     1
 74
     4
  7
sei_cad.ctb
 75
     0
147
0.9783703943695685
148
0.0
149
0.0
100
AcDbLayout
  1
Model
 70
     1
 71
     0
 10
0.0
 20
0.0
 11
12.0
 21
9.0
 12
0.0
 22
0.0
 32
0.0
 14
0.0
 24
0.0
 34
0.0
 15
0.0
 25
0.0
 35
0.0
146
0.0
 13
0.0
 23
0.0
 33
0.0
 16
1.0
 26
0.0
 36
0.0
 17
0.0
 27
1.0
 37
0.0
 76
     0
330
1F
1001
ACAD_PSEXT
1000
SII LP-2150 (D-SCAN C2)
1000
SII LP-2150 (D-SCAN C2)
1000
133.153.16.130#3000
1000

1070
     0
  0
LAYOUT
  5
1E
102
{ACAD_REACTORS
330
1A
102
}
330
1A
100
AcDbPlotSettings
  1

  2
Canon LASER SHOT LBP-2030
  4

  6

 40
0.0
 41
0.0
 42
0.0
 43
0.0
 44
0.0
 45
0.0
 46
0.0
 47
0.0
 48
0.0
 49
0.0
140
0.0
141
0.0
142
1.0
143
1.0
 70
   688
 72
     0
 73
     0
 74
     5
  7
sei_cad.ctb
 75
    16
147
1.0
148
0.0
149
0.0
100
AcDbLayout
  1
ﾚｲｱｳﾄ1
 70
     1
 71
     1
 10
0.0
 20
0.0
 11
420.0
 21
297.0
 12
0.0
 22
0.0
 32
0.0
 14
1.000000000000000E+20
 24
1.000000000000000E+20
 34
1.000000000000000E+20
 15
-1.000000000000000E+20
 25
-1.000000000000000E+20
 35
-1.000000000000000E+20
146
0.0
 13
0.0
 23
0.0
 33
0.0
 16
1.0
 26
0.0
 36
0.0
 17
0.0
 27
1.0
 37
0.0
 76
     0
330
1B
  0
LAYOUT
  5
26
102
{ACAD_REACTORS
330
1A
102
}
330
1A
100
AcDbPlotSettings
  1

  2
Canon LASER SHOT LBP-2030
  4

  6

 40
0.0
 41
0.0
 42
0.0
 43
0.0
 44
0.0
 45
0.0
 46
0.0
 47
0.0
 48
0.0
 49
0.0
140
0.0
141
0.0
142
1.0
143
1.0
 70
   688
 72
     0
 73
     0
 74
     5
  7
sei_cad.ctb
 75
    16
147
1.0
148
0.0
149
0.0
100
AcDbLayout
  1
ﾚｲｱｳﾄ2
 70
     1
 71
     2
 10
0.0
 20
0.0
 11
12.0
 21
9.0
 12
0.0
 22
0.0
 32
0.0
 14
0.0
 24
0.0
 34
0.0
 15
0.0
 25
0.0
 35
0.0
146
0.0
 13
0.0
 23
0.0
 33
0.0
 16
1.0
 26
0.0
 36
0.0
 17
0.0
 27
1.0
 37
0.0
 76
     0
330
23
  0
MLINESTYLE
  5
18
102
{ACAD_REACTORS
330
17
102
}
330
17
100
AcDbMlineStyle
  2
STANDARD
 70
     0
  3

 62
   256
 51
90.0
 52
90.0
 71
     2
 49
0.5
 62
   256
  6
BYLAYER
 49
-0.5
 62
   256
  6
BYLAYER
  0
ACDBPLACEHOLDER
  5
F
102
{ACAD_REACTORS
330
E
102
}
330
E
  0
TABLESTYLE
  5
99D7
102
{ACAD_REACTORS
330
99D6
102
}
330
99D6
100
AcDbTableStyle
  3
Standard
 70
     0
 71
     8
 40
1.5
 41
1.5
280
     0
281
     0
  7
STANDARD
140
4.5
170
     2
 62
     0
 63
     7
283
     0
274
    -2
284
     1
 64
     0
275
    -2
285
     1
 65
     0
276
    -2
286
     1
 66
     0
277
    -2
287
     1
 67
     0
278
    -2
288
     1
 68
     0
279
    -2
289
     1
 69
     0
  7
STANDARD
140
6.0
170
     5
 62
     0
 63
     7
283
     0
274
    -2
284
     1
 64
     0
275
    -2
285
     1
 65
     0
276
    -2
286
     1
 66
     0
277
    -2
287
     1
 67
     0
278
    -2
288
     1
 68
     0
279
    -2
289
     1
 69
     0
  7
STANDARD
140
4.5
170
     5
 62
     0
 63
     7
283
     0
274
    -2
284
     1
 64
     0
275
    -2
285
     1
 65
     0
276
    -2
286
     1
 66
     0
277
    -2
287
     1
 67
     0
278
    -2
288
     1
 68
     0
279
    -2
289
     1
 69
     0
  0
XRECORD
  5
F4CE
102
{ACAD_REACTORS
330
F4CD
102
}
330
F4CD
100
AcDbXrecord
280
     1
340
99D5
  0
XRECORD
  5
F4CF
102
{ACAD_REACTORS
330
F4CD
102
}
330
F4CD
100
AcDbXrecord
280
     1
340
99D4
  0
DICTIONARYVAR
  5
9A53
102
{ACAD_REACTORS
330
30
102
}
330
30
100
DictionaryVariables
280
     0
  1
STANDARD
  0
DICTIONARYVAR
  5
F4CC
102
{ACAD_REACTORS
330
30
102
}
330
30
100
DictionaryVariables
280
     0
  1
0
  0
DICTIONARYVAR
  5
F4CB
102
{ACAD_REACTORS
330
30
102
}
330
30
100
DictionaryVariables
280
     0
  1
1
  0
ACAD_PROXY_OBJECT
  5
99B0
102
{ACAD_REACTORS
330
4D
102
}
330
4D
100
AcDbProxyObject
 90
      499
 91
      520
 95
       25
 70
     0
 93
      118
310
405010040CA904C415CD5B075DD138
350
99B1
 94
        0
  0
DICTIONARY
  5
17E
102
{ACAD_REACTORS
330
4D
102
}
330
4D
100
AcDbDictionary
281
     1
  3
ISO
350
9A35
  3
JIS
350
9CBB
  0
XRECORD
  5
9A47
102
{ACAD_REACTORS
330
4D
102
}
330
4D
100
AcDbXrecord
280
     1
 90
-1023410169
  0
ACAD_PROXY_OBJECT
  5
99A4
330
99A1
100
AcDbProxyObject
 90
      499
 91
      508
 95
       25
 70
     0
 93
      156
310
00010143D050D351505391D5531054925390D490
330
99A1
 94
        0
  0
ACAD_PROXY_OBJECT
  5
99A5
330
99A1
100
AcDbProxyObject
 90
      499
 91
      508
 95
       25
 70
     0
 93
      148
310
000101439050D351531253915054925390D490
330
99A1
 94
        0
  0
ACAD_PROXY_OBJECT
  5
99A6
330
99A1
100
AcDbProxyObject
 90
      499
 91
      509
 95
       25
 70
     0
 93
      156
310
000101439050D35154D6535093D314D256915080
330
99A1
 94
        0
  0
ACAD_PROXY_OBJECT
  5
99A8
330
99A1
100
AcDbProxyObject
 90
      499
 91
      511
 95
       25
 70
     0
 93
       88
310
000101411093D34C402B00
330
99A1
330
0
330
0
 94
        0
  0
ACAD_PROXY_OBJECT
  5
99E8
330
99A1
100
AcDbProxyObject
 90
      499
 91
      561
 95
       25
 70
     0
 93
      358
310
0001014124FEA55D00507392E322E302E32014124FEA55D00507392E322E302E3240501000041505391D311658
330
99A1
330
99E9
330
99EF
 94
        0
  0
ACAD_PROXY_OBJECT
  5
99E9
330
99A1
100
AcDbProxyObject
 90
      499
 91
      562
 95
       25
 70
     0
 93
       56
310
000190240E0000
330
99A1
330
99EA
330
99EC
 94
        0
  0
ACAD_PROXY_OBJECT
  5
99EA
330
99A1
100
AcDbProxyObject
 90
      499
 91
      563
 95
       25
 70
     0
 93
       48
310
0001AA000000
330
99A1
330
1E
330
99EB
330
0
 94
        0
  0
ACAD_PROXY_OBJECT
  5
99EB
330
99A1
100
AcDbProxyObject
 90
      499
 91
      564
 95
       25
 70
     0
 93
       28
310
0001AAA0
330
99A1
 94
        0
  0
ACAD_PROXY_OBJECT
  5
99EC
330
99A1
100
AcDbProxyObject
 90
      499
 91
      563
 95
       25
 70
     0
 93
       48
310
0001AA000000
330
99A1
330
26
330
99ED
330
0
 94
        0
  0
ACAD_PROXY_OBJECT
  5
99ED
330
99A1
100
AcDbProxyObject
 90
      499
 91
      564
 95
       25
 70
     0
 93
       28
310
0001AAA0
330
99A1
 94
        0
  0
ACAD_PROXY_OBJECT
  5
99F0
330
99A1
100
AcDbProxyObject
 90
      499
 91
      509
 95
       25
 70
     0
 93
      108
310
000101421053521310D05310D010
330
99A1
 94
        0
  0
ACAD_PROXY_OBJECT
  5
99F1
330
99A1
100
AcDbProxyObject
 90
      499
 91
      509
 95
       25
 70
     0
 93
      124
310
00010142905354915554D15112535010
330
99A1
 94
        0
  0
ACAD_PROXY_OBJECT
  5
99F2
330
99A1
100
AcDbProxyObject
 90
      499
 91
      509
 95
       25
 70
     0
 93
      132
310
00010143105354D150D51253D391125360
330
99A1
 94
        0
  0
ACAD_PROXY_OBJECT
  5
99F3
330
99A1
100
AcDbProxyObject
 90
      499
 91
      509
 95
       25
 70
     0
 93
      124
310
00010142905355941093D49111549010
330
99A1
 94
        0
  0
ACAD_PROXY_OBJECT
  5
99F4
330
99A1
100
AcDbProxyObject
 90
      499
 91
      509
 95
       25
 70
     0
 93
      116
310
0001014290535115D1D0D3D313D4A0
330
99A1
 94
        0
  0
ACAD_PROXY_OBJECT
  5
99F5
330
99A1
100
AcDbProxyObject
 90
      499
 91
      509
 95
       25
 70
     0
 93
      148
310
00010143505355925155D49151949154D21010
330
99A1
 94
        0
  0
ACAD_PROXY_OBJECT
  5
99F6
330
99A1
100
AcDbProxyObject
 90
      499
 91
      509
 95
       25
 70
     0
 93
      172
310
00010144105350539393D51154149154D15495915010
330
99A1
 94
        0
  0
ACAD_PROXY_OBJECT
  5
99F7
330
99A1
100
AcDbProxyObject
 90
      499
 91
      509
 95
       25
 70
     0
 93
      172
310
00010144105350555513D11253505494905391D15010
330
99A1
 94
        0
  0
ACAD_PROXY_OBJECT
  5
99F8
330
99A1
100
AcDbProxyObject
 90
      499
 91
      509
 95
       25
 70
     0
 93
      124
310
00010142D05351561514915191125360
330
99A1
 94
        0
  0
ACAD_PROXY_OBJECT
  5
99F9
330
99A1
100
AcDbProxyObject
 90
      499
 91
      509
 95
       25
 70
     0
 93
      132
310
00010142D05355105410539393D5115010
330
99A1
 94
        0
  0
ACAD_PROXY_OBJECT
  5
99FA
330
99A1
100
AcDbProxyObject
 90
      499
 91
      509
 95
       25
 70
     0
 93
      108
310
00010142105350555513D0D31010
330
99A1
 94
        0
  0
ACAD_PROXY_OBJECT
  5
99FB
330
99A1
100
AcDbProxyObject
 90
      499
 91
      509
 95
       25
 70
     0
 93
      108
310
00010142105350D3119150551050
330
99A1
 94
        0
  0
ACAD_PROXY_OBJECT
  5
99FC
330
99A1
100
AcDbProxyObject
 90
      499
 91
      509
 95
       25
 70
     0
 93
      108
310
00010142105350D315925155D3F0
330
99A1
 94
        0
  0
ACAD_PROXY_OBJECT
  5
99FD
330
99A1
100
AcDbProxyObject
 90
      499
 91
      509
 95
       25
 70
     0
 93
      148
310
0001014350535212511156915493D112535010
330
99A1
 94
        0
  0
ACAD_PROXY_OBJECT
  5
99FE
330
99A1
100
AcDbProxyObject
 90
      499
 91
      509
 95
       25
 70
     0
 93
      124
310
00010142905352105510D21254D3D010
330
99A1
 94
        0
  0
ACAD_PROXY_OBJECT
  5
99FF
330
99A1
100
AcDbProxyObject
 90
      499
 91
      509
 95
       25
 70
     0
 93
      148
310
00010143905354D25391D31152105513105660
330
99A1
 94
        0
  0
ACAD_PROXY_OBJECT
  5
9A00
330
99A1
100
AcDbProxyObject
 90
      499
 91
      509
 95
       25
 70
     0
 93
      124
310
00010142D0535115D1D193111254D420
330
99A1
 94
        0
  0
ACAD_PROXY_OBJECT
  5
9A01
330
99A1
100
AcDbProxyObject
 90
      499
 91
      509
 95
       25
 70
     0
 93
      100
310
00010142105350555513D213A0
330
99A1
 94
        0
  0
ACAD_PROXY_OBJECT
  5
9A02
330
99A1
100
AcDbProxyObject
 90
      499
 91
      509
 95
       25
 70
     0
 93
      116
310
000101425053521390D3D553951010
330
99A1
 94
        0
  0
ACAD_PROXY_OBJECT
  5
9A03
330
99A1
100
AcDbProxyObject
 90
      499
 91
      509
 95
       25
 70
     0
 93
      108
310
0001014210535213941493D29010
330
99A1
 94
        0
  0
ACAD_PROXY_OBJECT
  5
9A04
330
99A1
100
AcDbProxyObject
 90
      499
 91
      509
 95
       25
 70
     0
 93
      108
310
0001014210535213951654115070
330
99A1
 94
        0
  0
ACAD_PROXY_OBJECT
  5
9A05
330
99A1
100
AcDbProxyObject
 90
      499
 91
      509
 95
       25
 70
     0
 93
      108
310
000101421053521395925155D0F0
330
99A1
 94
        0
  0
ACAD_PROXY_OBJECT
  5
9A06
330
99A1
100
AcDbProxyObject
 90
      499
 91
      509
 95
       25
 70
     0
 93
      140
310
00010143505354D150D51253D390D3D41660
330
99A1
 94
        0
  0
ACAD_PROXY_OBJECT
  5
9A07
330
99A1
100
AcDbProxyObject
 90
      499
 91
      509
 95
       25
 70
     0
 93
      108
310
00010142105350D3141493D29030
330
99A1
 94
        0
  0
ACAD_PROXY_OBJECT
  5
9A08
330
99A1
100
AcDbProxyObject
 90
      499
 91
      508
 95
       25
 70
     0
 93
      212
310
00010143905350555513D2105510D21493D500000000000002E400
330
99A1
 94
        0
  0
ACAD_PROXY_OBJECT
  5
9A09
330
99A1
100
AcDbProxyObject
 90
      499
 91
      509
 95
       25
 70
     0
 93
      156
310
00010143905350555513D2105510D21111551010
330
99A1
 94
        0
  0
ACAD_PROXY_OBJECT
  5
9A12
330
99A1
100
AcDbProxyObject
 90
      499
 91
      570
 95
       25
 70
     0
 93
      698
310
0001000000009AA6A9AA4051E467269204A756E2032332030373A34373A333020323030362028555443290141CE4B8C8B8C0B8C80518467269204F63742030382031333A33333A333020323031300141CE4B8C8B8C0B8C80
330
99A1
330
9A13
330
9A14
330
9A16
330
0
 94
        0
  0
ACAD_PROXY_OBJECT
  5
9A13
330
99A1
100
AcDbProxyObject
 90
      499
 91
      571
 95
       25
 70
     0
 93
       70
310
0001AAA80820000000
330
99A1
330
9A13
330
9A13
 94
        0
  0
ACAD_PROXY_OBJECT
  5
9A14
330
99A1
100
AcDbProxyObject
 90
      499
 91
      572
 95
       25
 70
     0
 93
       48
310
000100000000
330
99A1
330
0
330
9A15
330
0
330
0
 94
        0
  0
ACAD_PROXY_OBJECT
  5
9A15
330
99A1
100
AcDbProxyObject
 90
      499
 91
      573
 95
       25
 70
     0
 93
       40
310
000100AAAA
330
99A1
330
0
 94
        0
  0
ACAD_PROXY_OBJECT
  5
9A1B
330
99A1
100
AcDbProxyObject
 90
      499
 91
      522
 95
       25
 70
     0
 93
      180
310
00010143105050D3D35411119390535140504434F4D500
330
99A1
 94
        0
  0
ACAD_PROXY_OBJECT
  5
9A1C
330
99A1
100
AcDbProxyObject
 90
      499
 91
      522
 95
       25
 70
     0
 93
      212
310
0001014390505193D311115491119390535140506466F6C6465720
330
99A1
 94
        0
  0
ACAD_PROXY_OBJECT
  5
9A1D
330
99A1
100
AcDbProxyObject
 90
      499
 91
      522
 95
       25
 70
     0
 93
      180
310
00010143105050539393D1119390535140504284156290
330
99A1
 94
        0
  0
ACAD_PROXY_OBJECT
  5
9A1E
330
99A1
100
AcDbProxyObject
 90
      499
 91
      522
 95
       25
 70
     0
 93
      436
310
00010143905050D3D35415925155D31254D50052295BD96CA0A90B396CA0A894591A496CA0A8DB691A496CA0A89BA96CA0A95E28F95310
330
99A1
 94
        0
  0
ACAD_PROXY_OBJECT
  5
9A23
330
99A1
100
AcDbProxyObject
 90
      499
 91
      578
 95
       25
 70
     0
 93
       32
310
00010000
330
99A1
340
9A20
330
9A25
330
9A20
 94
        0
  0
ACAD_PROXY_OBJECT
  5
9A24
330
99A1
100
AcDbProxyObject
 90
      499
 91
      579
 95
       25
 70
     0
 93
       18
310
000180
330
99A1
 94
        0
  0
ACAD_PROXY_OBJECT
  5
9A25
330
99A1
100
AcDbProxyObject
 90
      499
 91
      580
 95
       25
 70
     0
 93
      186
310
0001014310CD8B5110D353938B520C4C9050055401550000
330
99A1
330
9A23
330
9A24
 94
        0
  0
ACAD_PROXY_OBJECT
  5
9A26
330
99A1
100
AcDbProxyObject
 90
      499
 91
      581
 95
       25
 70
     0
 93
      178
310
000100AAAAAAB54A018816C84011E71A8B242D3714CA40
330
99A1
330
9A25
 94
        0
  0
ACAD_PROXY_OBJECT
  5
9A27
330
99A1
100
AcDbProxyObject
 90
      499
 91
      582
 95
       25
 70
     0
 93
      108
310
000190140A000000000000AAAAA0
330
99A1
330
9A28
330
9A28
330
9A28
330
9A28
330
9A28
330
0
 94
        0
  0
ACAD_PROXY_OBJECT
  5
9A28
330
99A1
100
AcDbProxyObject
 90
      499
 91
      583
 95
       25
 70
     0
 93
       51
310
00010000AAAA80
330
99A1
330
9A27
330
9A25
 94
        0
  0
ACAD_PROXY_OBJECT
  5
9A2B
330
99A1
100
AcDbProxyObject
 90
      499
 91
      522
 95
       25
 70
     0
 93
      140
310
00010142105350D55494D511005034A49530
330
99A1
 94
        0
  0
DICTIONARY
  5
40
102
{ACAD_REACTORS
330
3F
102
}
330
3F
100
AcDbDictionary
281
     1
  3
DWGSETTINGS
350
999E
  3
Shaft
350
9F38
  3
TRANSSETTINGS
350
999F
  0
ACAD_PROXY_OBJECT
  5
99B4
102
{ACAD_REACTORS
330
3F
102
}
330
3F
100
AcDbProxyObject
 90
      499
 91
      519
 95
       25
 70
     0
 93
    17944
310
41502491013041105357CC201C00030C0132441013141105357CC603800030C0132441013241105357CCA01400030C0132441013341105357CCE01800030C01199013441105357CD200C00030C01199013541105357CD600C00030C01199013641105357CDA00800030C01239013741105357CDE01000030C0119901384110
310
5357CE200400030C01199013941105357CE63F400030C0241102324141505357CC4C201C00030C0132902344141505357CC4C600C00030C0119902495041505357CC4CA01C00030C013240902304E41505357CC13A01C00030C0132902314E41505357CC53A03800030C0132902324E41505357CC93A01400030C013290233
310
4E41505357CCD3A01800030C0119902344E41505357CD13A00C00030C0119902354E41505357CD53A00C00030C0119902364E41505357CD93A00800030C0123902374E41505357CDD3A01000030C0119902384E41505357CE13A00400030C0119902394E41505357CE53A3F400030C024110332414E41905357CC4C13A01C0
310
0030C013290334414E41905357CC4C53A00C00030C011990349504E41905357CC4C93A01C00030C0132409044B4C494E41505357D0D3200400030C011942504494E464F42105357D410549151A01000030C011942D055241484D3541905357D093D4A01C00030C0132425045649455742105357D5925155D4E00400030C011
310
942D06424548494E4441905357D25395A3F400030C0243505545241494C41505357D514A00C00030C01194250348494441905357D21251201C00030C01194250356495341905357D59254E01C00030C01324250650415244494D42505357D41054911253600C00030C01194250652454644494D42505357D49151911253601
310
000030C0119425534110921395901398000000C0003FFFFFFFE415092139594D06424548494E448000000C0003FFFFFFFE411093D48C9055241484D358010000C300466411093D48CD055241484D358020000C30048E411093D48D5055241484D358000000C0003FFFFFFFE4110D0530C901348000000C0003FFFFFFFE4110
310
D0530CD01348020000C30048E4110D0530D501348070000C3004CA4110D0530DD013481E0000C30051A4110D15393901378000000C0003FFFFFFFE4110D15395D01378000000C0003FFFFFFFE4110D312539044B4C494E8000000C0003FFFFFFFE4110D3D38C501308000000C0003FFFFFFFD034110D3D38C901318000000C
310
0003FFFFFFFD034110D3D38CD01328000000C0003FFFFFFFD034110D3D38D101328000000C0003FFFFFFFD034111115510501348000000C0003FFFFFFFE4111125051D01358000000C0003FFFFFFFE4111125312501358000000C0003FFFFFFFE411112535410650415244494D8000000C0003FFFFFFFE4111125354906524
310
54644494D8000000C0003FFFFFFFE4111915353901388000000C0003FFFFFFFE415191535413901388030000C3003FFFFFFFE4151915354D410234418000000C0003FFFFFFFE4151915354D510234418030000C300466415191535593901328000000C0003FFFFFFFE415191535595101328030000C3004664112105510D01
310
388000000C0003FFFFFFFD014112125113901338000000C0003FFFFFFFD034112125115D01338000000C0003FFFFFFFD034112131253901348000000C0003FFFFFFFD01411213D0D3901378000000C0003FFFFFFFE411213D0D5D01378000000C0003FFFFFFFE4112539193D04494E464F8000000C0003FFFFFFFE41131150
310
51101358000000C0003FFFFFFFE419397D0921395902394E8000000C0003FFFFFFFE419397D0D3D38C502304E8000000C0003FFFFFFFD03419397D0D3D38C902314E8000000C0003FFFFFFFD03419397D0D3D38CD02324E8000000C0003FFFFFFFD03419397D0D3D38D102324E8000000C0003FFFFFFFD03419397D0D15393
310
902374E8000000C0003FFFFFFFE419397D0D15395D02374E8000000C0003FFFFFFFE419397D1125312502354E8000000C0003FFFFFFFE419397D2105510D02384E8000000C0003FFFFFFFD01419397D2125113902334E8000000C0003FFFFFFFD03419397D2125115D02334E8000000C0003FFFFFFFD03419397D311505110
310
2354E8000000C0003FFFFFFFE419397D391D25410349504E8000000C0003FFFFFFFE419397D412105390334414E8000000C0003FFFFFFFE419397D510D3D3902304E8000000C0003FFFFFFFD03419397D5121312502344E8000000C0003FFFFFFFD01419397D5131153902304E8000000C0003FFFFFFFD03419397D5941312
310
50332414E8000000C0003FFFFFFFE411391D25410249508000000C0003FFFFFFFE411410530C9055241484D358010000C300466411410530CD055241484D358020000C30048E411410530D5055241484D358000000C0003FFFFFFFE411412105390234418000000C0003FFFFFFFE411413D4D3901358000000C0003FFFFFFF
310
E411490D1D3901378000000C0003FFFFFFFE411490D1D5D01378000000C0003FFFFFFFE4114D09492D01348000000C0003FFFFFFFD014114D150D5101348000000C0003FFFFFFFD014114D6508CD01358020000C30048E411354D653501358020000C30048E411510D3D3901308000000C0003FFFFFFFD0341151213125013
310
48000000C0003FFFFFFFD01411512550C9055241484D358010000C300466411512550CD055241484D358020000C30048E411512550D5055241484D358000000C0003FFFFFFFE4115131153901308000000C0003FFFFFFFD03415514905253105545241494C8000000C0003FFFFFFFE4115149312501348000000C0003FFFFF
310
FFD01411516150C501368030000C300466411516150C901368030000C300466411516150CD01368000000C0003FFFFFFFE411516150D501368070000C3004CA411516150DD013681E0000C30051A4115925155D04564945578000000C0003FFFFFFFE41159151121034849448000000C0003FFFFFFFD024115915115903564
310
9538000000C0003FFFFFFFD02411594131250232418000000C0003FFFFFFFE4116925690501348000000C0003FFFFFFFD01AAA00000030401013F90A4393241D3241919415324111940D194092340519479467F6
340
16
340
16
340
16
340
43
340
16
340
16
340
16
340
44
340
16
340
16
340
44
340
45
340
16
340
16
340
16
340
16
340
43
340
16
340
16
340
16
340
44
340
16
340
16
340
44
340
45
340
16
340
46
340
16
340
16
340
16
340
16
340
16
340
43
340
16
340
16
340
16
340
15
340
15
340
15
340
15
340
15
340
15
340
15
340
15
340
15
340
48
340
15
340
15
340
15
340
15
340
15
340
15
340
15
340
15
340
15
340
15
340
15
340
15
340
15
340
16
340
15
340
15
340
15
340
15
340
47
340
15
340
15
340
48
340
15
340
15
340
15
340
15
340
15
340
15
340
15
340
15
340
48
340
15
340
15
340
15
340
47
340
15
340
15
340
15
340
15
340
15
340
15
340
15
340
15
340
15
340
15
340
15
340
15
340
15
340
15
340
48
340
15
340
15
340
15
340
15
340
15
340
15
340
15
340
15
340
15
340
15
340
15
340
15
340
15
340
15
340
15
340
15
340
15
340
15
340
15
340
15
340
15
340
15
340
4B
 94
        0
  0
XRECORD
  5
1CA0
102
{ACAD_REACTORS
330
1C9F
102
}
330
1C9F
100
AcDbXrecord
280
     1
  1
21000845__00___
  0

  0
XRECORD
  5
1CA2
102
{ACAD_REACTORS
330
1CA1
102
}
330
1CA1
100
AcDbXrecord
280
     1
  1
3
  0

  0
ACAD_PROXY_OBJECT
  5
99B1
102
{ACAD_REACTORS
330
99B0
102
}
330
99B0
100
AcDbProxyObject
 90
      499
 91
      521
 95
       25
 70
     0
 93
      157
310
057356C1D77406406AA8FFFFFFFF05DD01009010
330
1F
330
0
330
9A25
 94
        0
  0
ACAD_PROXY_OBJECT
  5
9A35
102
{ACAD_REACTORS
330
17E
102
}
330
17E
100
AcDbProxyObject
 90
      499
 91
      589
 95
       25
 70
     0
 93
     2497
310
5DC0000000000000C408030000C30040D254D3D01640600800030C0200800030C000000000000000C40C88A2085A0B6B23A22B233B2A9BA3220480A1C82C6DAA6EAE4CCA8CAF0E8A6E8C88120284A0B1B6A321A329BA3220480A1A82C6DAAECAD8C8D2DCCEA6E8C8812028420B1B6A4B229BA3220480A1682C6DA88C2E8EAD
310
AA6E8C88120284A0B1B6A127A6A9BA3220480A2082DAC8E888CAE8C2D2D8A6F2DAA6E8C88120288A0B6B23A29B2B1BA34B7B729BCB6A9BA3220480A2282DAC8E886CADCE8CAE498D2DCCAA6E8C88120288A0B6B23A2A343932B0B22634B732A9BA3220480A1682DAC8E89CDEE8CAA6E8C88120285A0B1A0B6B3A630BCA9BA3
310
220480A1682C682DACE88D2DAA6E8C88120288A0B1A0B6B3A437B632A1B430B93A29BA3220480A1A82C682DACEA8D2E8D8CAA6E8C8812032048080
340
9A36
360
9A37
360
9A38
360
9A39
360
9A3A
360
9A3B
360
9A3C
360
9A3D
360
9A3E
360
9A3F
360
9A40
360
9A41
360
9A42
360
9A4D
360
9A4E
360
9A4F
360
9A50
340
0
340
0
 94
        0
  0
ACAD_PROXY_OBJECT
  5
9CBB
102
{ACAD_REACTORS
330
17E
102
}
330
17E
100
AcDbProxyObject
 90
      499
 91
      526
 95
       25
 70
     0
 93
     2379
310
5DC33333333333309408000000C00040D29254D01640600800030C0200800030C003333333333330940C8121E8720B1B6A9BAB9332A32BC3A29BA3220480A1282C6DA8C868CA6E8C88120286A0B1B6ABB2B63234B733A9BA3220480A1082C6DA92C8A6E8C88120285A0B1B6A230BA3AB6A9BA3220480A1282C6DA849E9AA6E
310
8C88120286A0B1A0B6B3AA34BA3632A9BA3220480A2082DAC8E888CAE8C2D2D8A6F2DAA6E8C88120288A0B6B23A29B2B1BA34B7B729BCB6A9BA3220480A2282DAC8E886CADCE8CAE498D2DCCAA6E8C88120288A0B6B23A2A343932B0B22634B732A9BA3220480A1682DAC8E89CDEE8CAA6E8C88120285A0B1A0B6B3A630BCA
310
9BA3220480A1682C682DACE88D2DAA6E8C88120288A0B1A0B6B3A437B632A1B430B93A29BA3220480C812020
340
180
360
9CBC
360
9CBD
360
9CBE
360
9CBF
360
9CC0
360
9CC1
360
9CC2
360
9CC3
360
9CC4
360
9CC5
360
9CC6
360
9CC7
360
9CCD
360
9CCE
360
9CCF
340
0
340
0
 94
        0
  0
ACAD_PROXY_OBJECT
  5
999E
102
{ACAD_REACTORS
330
40
102
}
330
40
100
AcDbProxyObject
 90
      499
 91
      518
 95
       25
 70
     0
 93
     2954
310
4050B44574753455454494E4753A0E8482A68AA6A88882A069492A684A1A0A723A0A92920ACA0A81969B1820C868A9C829C8E82A12686AF87260F862666A8321A2A72224A0A5046FF223E88C92BA020E868A9C889282A682A106260F86460F8666083A1A2A72224A9AA250000000000000042020C868A9C988A9C940000000
310
00000048808321A2A727A323250000000000000122020E868A9C9E8C8C62940000000000000488083A1A2A727A32319250000000000000122021CC6D0C2DACCCAE4C8D2DADADEC8CA9FC84A1A624A720A92920ACA0A8119982108698929C8AA8B2A082A0AB098929C8A84A22BA3AAA9A1A0A622A50A0E9882A6A89E849482A
310
02608426A0A5A2AB24A2ABA7E8120CA0A68682988A0C00800010652455649534941501304154D0D0531150540CC4E8C5085354414E44415244415034A4953425512535154D5105354128039988409E4ADCD050756455253494F4E4150531352E3030441ED115D1D4D15515125391D4D153911F40
  0
ACAD_PROXY_OBJECT
  5
9F38
102
{ACAD_REACTORS
330
40
102
}
330
40
100
AcDbProxyObject
 90
      499
 91
      518
 95
       25
 70
     0
 93
      199
310
405055368616674220F688AE8EA68AA8A8929C8EA68A9C88FA
  0
ACAD_PROXY_OBJECT
  5
999F
102
{ACAD_REACTORS
330
40
102
}
330
40
100
AcDbProxyObject
 90
      499
 91
      518
 95
       25
 70
     0
 93
      852
310
4050D5452414E5353455454494E4753A2488A482AE929C8EA8A4829CA69882A8929E9C0C00800050D4F524947494E414C4C595F4F4E0600400008529A7AAA921A2A620A723A0A81A52827212AAA0A48AA68AA4AC8A0C0080001107B44574753455454494E4753454E447D0
  0
ACAD_PROXY_OBJECT
  5
9A37
330
9A35
100
AcDbProxyObject
 90
      499
 91
      590
 95
       25
 70
     0
 93
       13
310
5DD8
  0
ACAD_PROXY_OBJECT
  5
9A38
330
9A35
100
AcDbProxyObject
 90
      499
 91
      591
 95
       25
 70
     0
 93
       96
310
5DEA0E80A0280A0280A0280F
  0
ACAD_PROXY_OBJECT
  5
9A39
330
9A35
100
AcDbProxyObject
 90
      499
 91
      592
 95
       25
 70
     0
 93
      272
310
5DD0E4050140501405014050140501405014050140D01405012C0000000000000040
340
9A43
 94
        0
  0
ACAD_PROXY_OBJECT
  5
9A3A
330
9A35
100
AcDbProxyObject
 90
      499
 91
      593
 95
       25
 70
     0
 93
      497
310
5DE8666666666667A67E199999999999E99FD22405014050140501405014050140501405014050140501405014050140501405014050140501405014050100
340
9A44
 94
        0
  0
ACAD_PROXY_OBJECT
  5
9A3B
330
9A35
100
AcDbProxyObject
 90
      499
 91
      594
 95
       25
 70
     0
 93
       10
310
5DC0
  0
ACAD_PROXY_OBJECT
  5
9A3C
330
9A35
100
AcDbProxyObject
 90
      499
 91
      595
 95
       25
 70
     0
 93
      257
310
5DE290EA22A7D90F49F80000000000001081400000000000004204010000618000
340
9A45
340
9A46
 94
        0
  0
ACAD_PROXY_OBJECT
  5
9A3D
330
9A35
100
AcDbProxyObject
 90
      499
 91
      596
 95
       25
 70
     0
 93
    13013
310
5DD0E411255115350141236025B690140501406901000000000000091013347454E545241434F2C4A504E2C302C8D8096DA2C47454E54524154582C25732C2847454E4D53472067656E647767203232322940690120281A8AA2CA0282484A4BE52028120280A0320200000000000012202668E8A9CA8A482869E5894A09C58
310
605921292F94588E8A9CA8A482A8B0584AE658508E8A9C9AA68E40CECADCC8EECE406464665280D202405044E414D454050496BC914F4051C40640A80000000000004E404CD1D15395149050D3CB1294138B0C0B25AF2453CB11D15395149055160B095CCB0A11D1539354D1C819D95B991DD9C80C8C8D8A50192C3D494628
310
4953424C414E4B28504152543A4E414D45292C424C4F434B3A4E414D452C504152543A4E414D452940480A0A888AA686A480A09251B1DBE80A3A80C81D0000000000100A28099A3A2A72A2920A1A7962528271618164946C76F9623A2A72A2920AA2C1612B9961423A2A726A9A39033B2B7323BB39019189B94A0348090142
310
14D51053911054911014122D2E29A50147501904A000000000000125013347454E545241434F2C4A504E2C302C8B4B8A692C47454E54524154582C25732C2847454E4D53472067656E64776720323138294069012028426A0AA22A924A0A62028246EF4BDFA028EA0320B40000000000001CA02668E8A9CA8A482869E5894A
310
09C5860591BBD2F7E588E8A9CA8A482A8B0584AE658508E8A9C9AA68E40CECADCC8EECE406464625280D202405044E4F544540504928D8B4C4051D40641A80000000000003E404CD1D15395149050D3CB1294138B0C0B24A362D30B11D15395149055160B095CCB0A11D1539354D1C819D95B991DD9C80C8C8D4A501240480
310
A0CAC8A9C889EA480A1106F1072706BF02B680A3A80C83D00000000000007C809BA3A2A72A2920A1A79625282716181641BC41C9C1AFC0AD9623A2A72A2920AA2C1612B9961423A2A726A9A39033B2B7323BB39019191A14A0248090141911154D0D48C90141A43825AF880C90147501908A000000000020145013447454E5
310
45241434F2C4A504E2C302C90E096BE20322C47454E54524154582C25732C2847454E4D53472067656E6477672033362940490120284A9AA20A72220A922192028345A5C53490192028EA03213400000000000024A026A8E8A9CA8A482869E5894A09C586059169714D24064588E8A9CA8A482A8B0584AE658508E8A9C9AA6
310
8E40CECADCC8EECE4064646052809202405094D4154455249414C32405068DDE97BF20324051D40642A8713D0AD7A37045404D11D15395149050D3CB1294138B0C0B2377A5EFC80C8B11D15395149055160B095CCB0A11D1539354D1C819D95B991DD9C80D0C0A501240480A089A82A6A680A091D7F2F9480A3A80A0485A06
310
8100000000000007C809923A2A72A2920A1A796252827161816475FCBE51623A2A72A2920AA2C1612B9961423A2A726A9A39033B2B7323BB3901A1914A024809014154149250D150141226FE29A501475014090C409020000000000000F9013247454E545241434F2C4A504E2C302C89BF8A692C47454E54524154582C2573
310
2C2847454E4D53472067656E6477672034332940490120281A224A6A02824850CB202028EA028121A81A040000000000001F202648E8A9CA8A482869E5894A09C58605921432C80588E8A9CA8A482A8B0584AE658508E8A9C9AA68E40CECADCC8EECE406868528092024050E445020000000000000510201C00030C0001018
310
0000000000003E400000000000000F901073D3C4954454D3E4050180000000000003E400000000000000F901073D3C4954454D3E40501800000000000034400000000000000D101073D3C4954454D3E40501800000000000034400000000000000D101073D3C4954454D3E405029010000000000000F9000000000000003E4
310
041CF4F125511534F901418F4F1455164F9014060000000000000F9000000000000003E4041CF4F125511534F9014060000000000000D100000000000000344041CF4F125511534F901901000000000000000F9000000000000003E40A2200000000000008204038000618048220681A048120280C88214844882034852034
310
8452028521485214814000000000000F0BF0000000000003C2FD018020000C3008070000C3003373333333333B0FCCDCCCCCCCCCCEC3F000000000000031012034164050341105901A000000000000062040100006180401000061804008000618008098A02808
340
0
340
0
 94
        0
  0
ACAD_PROXY_OBJECT
  5
9A3E
330
9A35
100
AcDbProxyObject
 90
      499
 91
      597
 95
       25
 70
     0
 93
      898
310
5DC4000000000000144048CF4F11115510525317D3105091530F880A0F11115510525317D05094D4D0D053114F8A51141C9A9999999999B93F26A666666666724FC000000000000E03F400000000000000400000000000000510000000000000024408070000C300000000000000051000
340
16
340
9A36
 94
        0
  0
ACAD_PROXY_OBJECT
  5
9A3F
330
9A35
100
AcDbProxyObject
 90
      499
 91
      598
 95
       25
 70
     0
 93
      823
310
5DC0B00000000000002880959E9E29A2A1AA24A7A72FA620A122A62FA324A929AA1F169E29A2A1AA24A7A72FA620A122A62FA620A9AA1F000000000000048803FFFE01C00030C0088C0380006180000000000000048800000000000000A2000000000000002880
340
652
340
9A36
 94
        0
  0
ACAD_PROXY_OBJECT
  5
9A40
330
9A35
100
AcDbProxyObject
 90
      499
 91
      599
 95
       25
 70
     0
 93
      152
310
5DE80000000000000840A3D0A5723F0BD1F200
  0
ACAD_PROXY_OBJECT
  5
9A41
330
9A35
100
AcDbProxyObject
 90
      499
 91
      600
 95
       25
 70
     0
 93
       14
310
5DE0
340
0
 94
        0
  0
ACAD_PROXY_OBJECT
  5
9A42
330
9A35
100
AcDbProxyObject
 90
      499
 91
      601
 95
       25
 70
     0
 93
     8619
310
5DD084050BA4050AA405024050E836583938376838C815B836720314043A013D2525633C486F6C653A63746469613E2078203C486F6C653A637464657074683E20555C503C696628657175616C28486F6C653A7461707065642C223022292C22252563222C486F6C653A6E6F6D696E616C202220782022293E3C6966286571
310
75616C28486F6C653A7461707065642C223022292C486F6C653A6469612C486F6C653A706974636864657363293E3C696628657175616C28486F6C653A7461707065642C223122292C22207820222C2222293E3C696628657175616C28486F6C653A7461707065642C223122292C486F6C653A74617064657074682C222229
310
3E203C696628657175616C28486F6C653A7465726D696E6174696F6E2C223022292C22202F20222C2222293E3C696628657175616C28486F6C653A7465726D696E6174696F6E2C223022292C486F6C653A64657074682C2222293E406901405034050E836583938376838C815B836720314043B013D2525633C486F6C653A6
310
3746469613E2078203C486F6C653A6374616E676C653E2525645C503C696628657175616C28486F6C653A7461707065642C223022292C22252563222C486F6C653A6E6F6D696E616C202220782022293E3C696628657175616C28486F6C653A7461707065642C223022292C486F6C653A6469612C486F6C653A70697463686
310
4657363293E3C696628657175616C28486F6C653A7461707065642C223122292C22207820222C2222293E3C696628657175616C28486F6C653A7461707065642C223122292C486F6C653A74617064657074682C2222293E203C696628657175616C28486F6C653A7465726D696E6174696F6E2C223022292C22202F20222C2
310
222293E3C696628657175616C28486F6C653A7465726D696E6174696F6E2C223022292C486F6C653A64657074682C2222293E406901405014050E836583938376838C815B8367203140416013D3C696628657175616C28486F6C653A7461707065642C223022292C22252563222C486F6C653A6E6F6D696E616C2022207820
310
22293E3C696628657175616C28486F6C653A7461707065642C223022292C486F6C653A6469612C486F6C653A706974636864657363293E3C696628657175616C28486F6C653A7461707065642C223122292C22207820222C2222293E3C696628657175616C28486F6C653A7461707065642C223122292C486F6C653A746170
310
64657074682C2222293E203C696628657175616C28486F6C653A7465726D696E6174696F6E2C223022292C22202F20222C2222293E3C696628657175616C28486F6C653A7465726D696E6174696F6E2C223022292C486F6C653A64657074682C2222293E4069014051E4090E836583938376838C815B83672032405173D3C5
310
35444503A444553433E203C535444503A5354443E40690E836583938376838C815B836720314050C3D3C535444503A444553433E40690240515AAABBA120
360
9A4B
330
9A4B
360
9A4C
330
9A4C
360
9A4A
330
9A4A
360
9A49
360
9A48
330
9A49
330
9A48
 94
        0
  0
ACAD_PROXY_OBJECT
  5
9A4D
330
9A35
100
AcDbProxyObject
 90
      499
 91
      542
 95
       25
 70
     0
 93
    23182
310
5DD02491013041105357CC201C00030C0132441013141105357CC603800030C0132441013241105357CCA01400030C0132441013341105357CCE01800030C01199013441105357CD200C00030C01199013541105357CD600C00030C01199013641105357CDA00800030C01239013741105357CDE01000030C0119901384110
310
5357CE200400030C01199013941105357CE63F400030C0241102324141505357CC4C201C00030C0132902344141505357CC4C600C00030C0119902495041505357CC4CA01C00030C013240902304E41505357CC13A01C00030C0132902314E41505357CC53A03800030C0132902324E41505357CC93A01400030C013290233
310
4E41505357CCD3A01800030C0119902344E41505357CD13A00C00030C0119902354E41505357CD53A00C00030C0119902364E41505357CD93A00800030C0123902374E41505357CDD3A01000030C0119902384E41505357CE13A00400030C0119902394E41505357CE53A3F400030C024110332414E41905357CC4C13A01C0
310
0030C013290334414E41905357CC4C53A00C00030C011990349504E41905357CC4C93A01C00030C0132409044B4C494E41505357D0D3200400030C011942504494E464F42105357D410549151A01000030C011942D055241484D3541905357D093D4A01C00030C0132425045649455742105357D5925155D4E00400030C011
310
942D06424548494E4441905357D25395A3F400030C0243505545241494C41505357D514A00C00030C01194250348494441905357D21251201C00030C01194250356495341905357D59254E01C00030C01324250650415244494D42505357D41054911253600C00030C01194250652454644494D42505357D49151911253601
310
000030C0119425774110531514901348070000C3004C9034110915312501348000000C0003FFFFFFFD034110921395901398000000C0003FFFFFFFE415092139594D06424548494E448000000C0003FFFFFFFE411093125110234418000000C0003FFFFFFFD03411093D05410234418000000C0003FFFFFFFD03411093D48C
310
9055241484D358010000C300466411093D48CD055241484D358020000C30048E411093D48D5055241484D358000000C0003FFFFFFFE411093D48DD055241484D3581E0000C30051903411094105410234418000000C0003FFFFFFFD03411094115610234418000000C0003FFFFFFFD034110951112501358000000C0003FFF
310
FFFFD034110D0530C901348000000C0003FFFFFFFE4110D0530CD01348020000C30048E4110D0530D501348070000C3004CA4110D0530DD013481E0000C30051A4110D15393901378000000C0003FFFFFFFE4110D15395D01378000000C0003FFFFFFFE4110D312539044B4C494E8000000C0003FFFFFFFE4110D3D38C5013
310
08000000C0003FFFFFFFD034110D3D38C901318000000C0003FFFFFFFD034110D3D38CD01328000000C0003FFFFFFFD034110D3D38D101328000000C0003FFFFFFFD034111115494101348000000C0003FFFFFFFD034111115510501348000000C0003FFFFFFFE4111125051D01358000000C0003FFFFFFFE4111125312501
310
358000000C0003FFFFFFFE411112535410650415244494D8000000C0003FFFFFFFE411112535490652454644494D8000000C0003FFFFFFFE411156135410234418000000C0003FFFFFFFD034111915353901388000000C0003FFFFFFFE415191535413901388030000C3003FFFFFFFE4151915354D410234418000000C0003
310
FFFFFFFE4151915354D510234418030000C300466415191535593901328000000C0003FFFFFFFE415191535595101328030000C3004664111931055101308000000C0003FFFFFFFD03411194905490234418000000C0003FFFFFFFD034111D49312501358000000C0003FFFFFFFD034111D5931250234418000000C0003FFF
310
FFFFD034112105510D01388000000C0003FFFFFFFD014112125113901338000000C0003FFFFFFFD034112125115D01338000000C0003FFFFFFFD034112131253901348000000C0003FFFFFFFD01411213D0D3901378000000C0003FFFFFFFE411213D0D5D01378000000C0003FFFFFFFE4112539193D04494E464F8000000C
310
0003FFFFFFFE4113105112501348000000C0003FFFFFFFD034113115051101358000000C0003FFFFFFFE419397D0921395902394E8000000C0003FFFFFFFE419397D0D3D38C502304E8000000C0003FFFFFFFD03419397D0D3D38C902314E8000000C0003FFFFFFFD03419397D0D3D38CD02324E8000000C0003FFFFFFFD03
310
419397D0D3D38D102324E8000000C0003FFFFFFFD03419397D0D15393902374E8000000C0003FFFFFFFE419397D0D15395D02374E8000000C0003FFFFFFFE419397D1125312502354E8000000C0003FFFFFFFE419397D2105510D02384E8000000C0003FFFFFFFD01419397D2125113902334E8000000C0003FFFFFFFD0341
310
9397D2125115D02334E8000000C0003FFFFFFFD03419397D3115051102354E8000000C0003FFFFFFFE419397D391D25410349504E8000000C0003FFFFFFFE419397D412105390334414E8000000C0003FFFFFFFE419397D510D3D3902304E8000000C0003FFFFFFFD03419397D5121312502344E8000000C0003FFFFFFFD01
310
419397D5131153902304E8000000C0003FFFFFFFD03419397D516150CD02364E8000000C0003FFFFFFFD03419397D594131250332414E8000000C0003FFFFFFFE411391D25410249508000000C0003FFFFFFFE411410530C9055241484D358010000C300466411410530CD055241484D358020000C30048E411410530D5055
310
241484D358000000C0003FFFFFFFE411410530DD055241484D3581E0000C30051903411412105390234418000000C0003FFFFFFFE411413D4D3901368070000C3004CA419413D4D49151901368050000C3004C903411413D4D6101368000000C0003FFFFFFFD03411414D150D0234418000000C0003FFFFFFFD03411490D1D
310
3901378000000C0003FFFFFFFE411490D1D5D01378000000C0003FFFFFFFE4114919112501348000000C0003FFFFFFFD034114945514901348070000C3004C903411494D093D01348000000C0003FFFFFFFD034114D09492D01348000000C0003FFFFFFFD014114D0D153901378000000C0003FFFFFFFD034114D150D51013
310
48000000C0003FFFFFFFD014114D15313901378000000C0003FFFFFFFD034114D15315D01378000000C0003FFFFFFFD034114D4D654D01308000000C0003FFFFFFFD034114D51312501348070000C3004C9034114D6508C501358000000C0003FFFFFFFD034114D6508C901358000000C0003FFFFFFFD034114D6508CD0135
310
8020000C30048E4114D6508D501358070000C3004C9034114D65353901378000000C0003FFFFFFFD034114D65355D01378000000C0003FFFFFFFD03411510D3D3901308000000C0003FFFFFFFD034115121312501348000000C0003FFFFFFFD01411512550C9055241484D358010000C300466411512550CD055241484D358
310
020000C30048E411512550D5055241484D358000000C0003FFFFFFFE411512550DD055241484D3581E0000C300519034115131153901308000000C0003FFFFFFFD03415514905253105545241494C8000000C0003FFFFFFFE41151492D3901378000000C0003FFFFFFFD0341151492D5D01378000000C0003FFFFFFFD03411
310
5149312501348000000C0003FFFFFFFD01411516150C501368030000C300466411516150C901368030000C300466411516150CD01368000000C0003FFFFFFFE411516150D501368070000C3004CA411516150DD013681E0000C30051A4115925155D04564945578000000C0003FFFFFFFE41159151121034849448000000C0
310
003FFFFFFFD0241159151159035649538000000C0003FFFFFFFD02411594131250232418000000C0003FFFFFFFE4116925690501348000000C0003FFFFFFFD01411354D653501358020000C30048E4290E4C9074C906465054C904465034650248D014651E519FD8
340
99B4
340
16
340
16
340
16
340
43
340
16
340
16
340
16
340
44
340
16
340
16
340
44
340
45
340
16
340
16
340
16
340
16
340
43
340
16
340
16
340
16
340
44
340
16
340
16
340
44
340
45
340
16
340
46
340
16
340
16
340
16
340
16
340
16
340
43
340
16
340
16
340
16
340
47
340
15
340
15
340
15
340
15
340
15
340
15
340
15
340
15
340
15
340
15
340
15
340
15
340
15
340
15
340
15
340
15
340
48
340
15
340
15
340
15
340
15
340
15
340
15
340
15
340
15
340
15
340
15
340
15
340
15
340
15
340
15
340
15
340
16
340
15
340
15
340
15
340
15
340
15
340
15
340
15
340
15
340
47
340
15
340
15
340
48
340
15
340
15
340
15
340
15
340
15
340
15
340
15
340
15
340
15
340
48
340
15
340
15
340
15
340
47
340
15
340
15
340
15
340
15
340
15
340
15
340
15
340
15
340
15
340
15
340
15
340
15
340
15
340
15
340
15
340
15
340
15
340
15
340
15
340
48
340
15
340
15
340
48
340
15
340
15
340
16
340
15
340
48
340
15
340
15
340
47
340
15
340
15
340
16
340
15
340
48
340
15
340
15
340
15
340
15
340
15
340
15
340
15
340
15
340
15
340
48
340
15
340
15
340
15
340
15
340
15
340
15
340
15
340
15
340
15
340
15
340
15
340
4B
340
16
 94
        0
  0
ACAD_PROXY_OBJECT
  5
9A4E
330
9A35
100
AcDbProxyObject
 90
      499
 91
      543
 95
       25
 70
     0
 93
      250
310
5DD020000000000000A1000000000000002440408F0F9023C3E409A0DCFFFF80
340
0
340
0
340
0
340
0
340
0
340
0
340
0
340
0
340
0
340
0
 94
        0
  0
ACAD_PROXY_OBJECT
  5
9A4F
330
9A35
100
AcDbProxyObject
 90
      499
 91
      603
 95
       25
 70
     0
 93
    13889
310
5DD1D003FFFFFFFD030300030000000000000310200800030C01030300030000000000000310200800030C00050C8DC0955782CC838A83588367014ED1D15395149050D3CB1294138B0C0B23702555E0B320E2A0D620D9CB11D15395149055160B095CCB0A11D1539354D1C819D95B991A5B5E880CCC0A78000C0000000000
310
00000000000000000000010000000000000310200800030C010000000000000310200800030C020143CF4F111959985D5B1D151A5D1B194F8050A8C8A8365815B8375838B014E51D15395149050D3CB1294138B0C0B2322A0D96056E0DD60E2CB11D15395149055160B095CCB0A11D1539354D1C819D95B991A5B5E880CCC4
310
A78000C000000000000000000000000000000010000000000000310200800030C010000000000000310200800030C020143CF4F111959985D5B1D151A5D1B194F90D44111409034110541D0C4350F4050E44D03449074510F000141232D24D7C053247454E545241434F2C4A504E2C302C8CB4935F2C47454E54524154582C
310
25732C2847454E4D53472067656E64696D7A20312900010104002214000281464500A608E8A9CA8A482869E5894A09C5860591914588E8A9CA8A482A8B0584AE658508E8A9C9AA68E40CECADCC8D2DAF4406452029E9E9E27B934B3B4B71F1E24A31427A91424A9A12620A7259427B934B3B4B7149624A9A12620A7259424B
310
A32B6949496111116111711149F1E24BA32B69F00808200111A000140560052F47454E545241434F2C4A504E2C302C582C47454E54524154582C25732C2847454E4D53472067656E64696D7A20332900010100002054000280AC80A5E8E8A9CA8A482869E5894A09C586058B2588E8A9CA8A482A8B0584AE658508E8A9C9AA
310
68E40CECADCC8D2DAF4406852000202000040E800050152014BD1D15395149050D3CB1294138B0C0B148B11D15395149055160B095CCB0A11D1539354D1C819D95B991A5B5E880D8A400040400008250000A0507A6029823A2A72A2920A1A79625282716181641E99623A2A72A2920AA2C1612B9961423A2A726A9A39033B2
310
B73234B6BD101B948000808180105A000140A0F4C053047454E545241434F2C4A504E2C302C83D32C47454E54524154582C25732C2847454E4D53472067656E64696D7A203829000101010020F400028248704B5F00A668E8A9CA8A482869E5894A09C58605921C12D7C588E8A9CA8A482A8B0584AE658508E8A9C9AA68E40
310
CECADCC8D2DAF440646052000200080043280005048B4B8A69014CD1D15395149050D3CB1294138B0C0B22D2E29A4B11D15395149055160B095CCB0A11D1539354D1C819D95B991A5B5E880C8C4A4000400100086D0000A09196926BE029923A2A72A2920A1A796252827161816465A49AF9623A2A72A2920AA2C1612B9961
310
423A2A726A9A39033B2B73234B6BD10189480A02620202080043E80005048D8096DA014CD1D15395149050D3CB1294138B0C0B236025B68B11D15395149055160B095CCB0A11D1539354D1C819D95B991A5B5E880C4D0A4000404140280D0000A190687072706CD06C5069D06B0029DA3A2A72A2920A1A7962528271618164
310
1A1C1C9C1B341B141A741AC1623A2A72A2920AA2C1612B9961423A2A726A9A39033B2B73234B6BD10189A94800080828050EA000143A322A0D0E0E4E0D9A0D8A0D3A0D60053D47454E545241434F2C4A504E2C302C8C8A8343839383668362834E83582C47454E54524154582C25732C2847454E4D53472067656E64696D7A
310
2031372900010105002274000281464500A628E8A9CA8A482869E5894A09C5860591914588E8A9CA8A482A8B0584AE658508E8A9C9AA68E40CECADCC8D2DAF440626C52000202080044A8000504909497CA014CD1D15395149050D3CB1294138B0C0B242525F28B11D15395149055160B095CCB0A11D1539354D1C819D95B9
310
91A5B5E880C4E4A400040418008A521E000000000000001CA040C00000000000034408080000000000006881010000000000000D102040000000000001A204080000000000003440818000000000000728103000000000000125020600000000004028A040000000000000034408000000000000004881000000000000000D
310
102000000000000001A204000000000000003440818000000000000508143C0000000000000039408180000000000006881030000000000000D102060000000000001A2040C00000000000034408180000000000006881030000000000000E5020600000000000024A040C0000000000805140800000000000000688100000
310
00000000009102000000000000001A2040000000000000034408180000000000006881030000000000000A10284220000000878000002020000008380000020400000081800000208000000828000002028900000000
340
0
340
0
340
0
340
0
340
9A36
340
9A36
 94
        0
  0
ACAD_PROXY_OBJECT
  5
9A50
330
9A35
100
AcDbProxyObject
 90
      499
 91
      537
 95
       25
 70
     0
 93
     7018
310
5DD9740D254D3D0649534F5F4133429254D3D7D5125513115051349534F5F42525F5265766973696F6E6C69737446111413478342028323937783834316D6D2920421254D3D7D04D1E0D11141327835202835393478323130326D6D29421254D3D7D04C9E0D51141347839202832393778313839326D6D29421254D3D7D04D
310
1E0E51141337837202834323078323038306D6D29421254D3D7D04CDE0DD1141347838202832393778313638326D6D29421254D3D7D04D1E0E11141327834202835393478313638326D6D29421254D3D7D04C9E0D10E41312028353934783834316D6D29419254D3D7D04C51141347837202832393778313437316D6D29421
310
254D3D7D04D1E0DD1141347836202832393778313236316D6D29421254D3D7D04D1E0D91141347835202832393778313035316D6D29421254D3D7D04D1E0D5104130202838343078313138396D6D2920419254D3D7D04C10E41332028323937783432306D6D29419254D3D7D04CD1141327833202835393478313236316D6D
310
29421254D3D7D04C9E0CD10413478332028323937783633306D6D29421254D3D7D04D1E0CD1141337834202834323078313138396D6D29421254D3D7D04CDE0D11141337836202834323078313738336D6D29421254D3D7D04CDE0D91141337835202834323078313438366D6D29421254D3D7D04CDE0D50E4132202834323
310
0783539346D6D29419254D3D7D04C910413378332028343230783839316D6D29421254D3D7D04CDE0CD0E41342028323937783231306D6D29419254D3D7D04D1124130783220283131383978313638326D6D29421254D3D7D04C1E0C9124130783320283131383978323532336D6D29421254D3D7D04C1E0CD114131783420
310
2838343178323337386D6D29421254D3D7D04C5E0D11141317833202838343178313738336D6D29421254D3D7D04C5E0CD02431254D3C82557247A25E4C81050A49534F5F5449544C4541431254D3C82557247A25E4C81090A49534F5F5449544C45424110E979A97F0838A835883675F42525F44D254D3D7D09497D4995D9
310
A5CDA5BDB9B1A5CDD10E979A97F0838A835883675F54525F44D254D3D7D51497D4995D9A5CDA5BDB9B1A5CDD10E979A97F0838A835883675F424C5F44D254D3D7D09317D4995D9A5CDA5BDB9B1A5CDD10E979A97F0838A835883675F544C5F44D254D3D7D51317D4995D9A5CDA5BDB9B1A5CDD00
  0
ACAD_PROXY_OBJECT
  5
9CBC
330
9CBB
100
AcDbProxyObject
 90
      499
 91
      527
 95
       25
 70
     0
 93
       86
310
5DEA0C80A0280A0280A034
  0
ACAD_PROXY_OBJECT
  5
9CBD
330
9CBB
100
AcDbProxyObject
 90
      499
 91
      528
 95
       25
 70
     0
 93
      282
310
5DD0E4050140501405014050140501405014050141101405014041000000000000001000
340
187
 94
        0
  0
ACAD_PROXY_OBJECT
  5
9CBE
330
9CBB
100
AcDbProxyObject
 90
      499
 91
      529
 95
       25
 70
     0
 93
      323
310
5DCC199999999999E99F91740501405014050140501405014050140501405014050140501405014040
340
0
 94
        0
  0
ACAD_PROXY_OBJECT
  5
9CBF
330
9CBB
100
AcDbProxyObject
 90
      499
 91
      530
 95
       25
 70
     0
 93
       10
310
5DC0
  0
ACAD_PROXY_OBJECT
  5
9CC0
330
9CBB
100
AcDbProxyObject
 90
      499
 91
      531
 95
       25
 70
     0
 93
      257
310
5DE0C16A22A7D90F49F80000000000001081400000000000004204010000618000
340
188
340
189
 94
        0
  0
ACAD_PROXY_OBJECT
  5
9CC1
330
9CBB
100
AcDbProxyObject
 90
      499
 91
      532
 95
       25
 70
     0
 93
     5277
310
5DD06411255115350141236025B6901405014069010000000000000910240690120281A8AA2CA0282484A4BE52028120280A032020000000000001220480D202405044E414D454050496BC914F4051C40640A80000000000004E4090193C3D3C4946284953424C414E4B28504152543A4E414D45292C424C4F434B3A4E414D
310
452C504152543A4E414D45293E3C41435F44455343524950544E3E40480A109A82A88AA492829880A091BBD2F7E80A3A80C81D0E27A15AF46E08A81203480901411393D5115014124A363B7D0147501904A0000000000000F902406428F4F1050D7D393D5114F901202832B22A72227A92028366EF6EE06F582028EA0320B4
310
0000000000001F20480C879E9E20A1AFAB27222FA620A122A61F20240506445020000000000000490201C00030C00010180000000000003E400000000000000F901073D3C4954454D3E4050180000000000003E400000000000000F901073D3C4954454D3E40501800000000000034400000000000000D101073D3C4954454
310
D3E40501800000000000034400000000000000D101073D3C4954454D3E405029010000000000000F9000000000000003E4041CF4F125511534F901418F4F1455164F9014060000000000000F9000000000000003E4041CF4F125511534F901800000000000034400000000000000D101073D3C4954454D3E40640400000000
310
0000003E400000000000000F90288800000000000020810000001800120881A068120480A032208521122080D21480D211480A1485214852050000000000003C2FC000000000000F0BF40600800030C0200400030C00CDCCCCCCCCCCEC3F3373333333333B0FC3333333333330940C80D069014090341504901A1999999999
310
9984A040100006180400800061804010000618008098A02808
340
0
340
0
 94
        0
  0
ACAD_PROXY_OBJECT
  5
9CC2
330
9CBB
100
AcDbProxyObject
 90
      499
 91
      537
 95
       25
 70
     0
 93
     3042
310
5DD9740D29254D064A49535F413342929254D7D512551311505134A49535F42525F5265766973696F6E6C6973744190F4134522028323937783231306D6D2941D29254D7D04D1490E41312028353934783834316D6D2941929254D7D04C50F41344C2028323130783239376D6D2941D29254D7D04D1310E413320283239377
310
83432306D6D2941929254D7D04CD0E41322028343230783539346D6D2941929254D7D04C90F4130202838343178313138396D6D2941929254D7D04C10243129254C82557247A25E4C81050A4A49535F5449544C454143129254C82557247A25E4C81090A4A49535F5449544C45424110E979A97F0838A835883675F42525F4
310
4D29254D7D09497D4995D9A5CDA5BDB9B1A5CDD10E979A97F0838A835883675F54525F44D29254D7D51497D4995D9A5CDA5BDB9B1A5CDD10E979A97F0838A835883675F424C5F44D29254D7D09317D4995D9A5CDA5BDB9B1A5CDD10E979A97F0838A835883675F544C5F44D29254D7D51317D4995D9A5CDA5BDB9B1A5CDD00
  0
ACAD_PROXY_OBJECT
  5
9CC3
330
9CBB
100
AcDbProxyObject
 90
      499
 91
      538
 95
       25
 70
     0
 93
      898
310
5DC4000000000000124048CF4F11115510525317D3105091530F880A0F11115510525317D05094D4D0D053114F8A50241C9A9999999999B93F26A666666666724FC000000000000E03F400000000000000400000000000000510000000000000024408070000C300000000000000049000
340
16
340
180
 94
        0
  0
ACAD_PROXY_OBJECT
  5
9CC4
330
9CBB
100
AcDbProxyObject
 90
      499
 91
      539
 95
       25
 70
     0
 93
      823
310
5DC0B00000000000002480959E9E29A2A1AA24A7A72FA620A122A62FA324A929AA1F169E29A2A1AA24A7A72FA620A122A62FA620A9AA1F000000000000048803FFFE01C00030C008140380006180000000000000048800000000000000A2000000000000002480
340
652
340
180
 94
        0
  0
ACAD_PROXY_OBJECT
  5
9CC5
330
9CBB
100
AcDbProxyObject
 90
      499
 91
      540
 95
       25
 70
     0
 93
      152
310
5DE8273108AC1C5A0640A3D0A5723F0BD1F200
  0
ACAD_PROXY_OBJECT
  5
9CC6
330
9CBB
100
AcDbProxyObject
 90
      499
 91
      604
 95
       25
 70
     0
 93
       14
310
5DE0
340
0
 94
        0
  0
ACAD_PROXY_OBJECT
  5
9CC7
330
9CBB
100
AcDbProxyObject
 90
      499
 91
      541
 95
       25
 70
     0
 93
     6059
310
5DD084050BA4050AA405024050E836583938376838C815B83672031405983D3C486F6C653A6469613E3C696628657175616C28486F6C653A7465726D696E6174696F6E2C223022292C2220905B82B320222C22208368838A838B22293E3C696628657175616C28486F6C653A7465726D696E6174696F6E2C223022292C486F
310
6C653A64657074682C2222293E2C203C486F6C653A63746469613E2082B482AE82E882CC905B82B3203C486F6C653A637464657074683E406901405034050E836583938376838C815B83672031405EF3D3C486F6C653A6374616E676C653E252564202525633C486F6C653A63746469613E208E4D8C8A2C203C69662865717
310
5616C28486F6C653A7461707065642C223022292C22252563222C486F6C653A6E6F6D696E616C202220782022293E3C696628657175616C28486F6C653A7461707065642C223022292C486F6C653A6469612C486F6C653A706974636864657363293E203C696628657175616C28486F6C653A7465726D696E6174696F6E2C2
310
23022292C22905B82B320222C222022293E3C696628657175616C28486F6C653A7465726D696E6174696F6E2C223022292C486F6C653A64657074682C2222293E406901405014050E836583938376838C815B83672031405C73D3C696628657175616C28486F6C653A7461707065642C223022292C22252563222C486F6C65
310
3A6E6F6D696E616C202220782022293E3C696628657175616C28486F6C653A7461707065642C223022292C486F6C653A6469612C486F6C653A706974636864657363293E203C696628657175616C28486F6C653A7465726D696E6174696F6E2C223022292C22905B82B320222C222022293E3C696628657175616C28486F6C
310
653A7465726D696E6174696F6E2C223022292C486F6C653A64657074682C2222293E4069014051E4090E836583938376838C815B83672032405173D3C535444503A444553433E203C535444503A5354443E40690E836583938376838C815B836720314050C3D3C535444503A444553433E40690240515AAABBA120
360
9CC8
330
9CC8
360
9CC9
330
9CC9
360
9CCA
330
9CCA
360
9CCB
360
9CCC
330
9CCB
330
9CCC
 94
        0
  0
ACAD_PROXY_OBJECT
  5
9CCD
330
9CBB
100
AcDbProxyObject
 90
      499
 91
      542
 95
       25
 70
     0
 93
       26
310
5DD02A80
340
0
 94
        0
  0
ACAD_PROXY_OBJECT
  5
9CCE
330
9CBB
100
AcDbProxyObject
 90
      499
 91
      543
 95
       25
 70
     0
 93
      250
310
5DD020000000000000A1000000000000002440408F0F9023C3E409A0DCFFFF80
340
58
340
1899
340
189A
340
5F
340
60
340
61
340
62
340
63
340
68
340
0
 94
        0
  0
ACAD_PROXY_OBJECT
  5
9CCF
330
9CBB
100
AcDbProxyObject
 90
      499
 91
      605
 95
       25
 70
     0
 93
    13889
310
5DD1D003FFFFFFFD030300030CCCCCCCCCCCC250200800030C01030300030CCCCCCCCCCCC250200800030C00050C8DC0955782CC838A83588367014ED1D15395149050D3CB1294138B0C0B23702555E0B320E2A0D620D9CB11D15395149055160B095CCB0A11D1539354D1C819D95B991A5B5E880CCC0A78000C0000000000
310
00000000000000000000010CCCCCCCCCCCC250200800030C010CCCCCCCCCCCC250200800030C020143CF4F111959985D5B1D151A5D1B194F8050A8C8A8365815B8375838B014E51D15395149050D3CB1294138B0C0B2322A0D96056E0DD60E2CB11D15395149055160B095CCB0A11D1539354D1C819D95B991A5B5E880CCC4
310
A78000C000000000000000000000000000000010CCCCCCCCCCCC250200800030C010CCCCCCCCCCCC250200800030C020143CF4F111959985D5B1D151A5D1B194F90D44111409034110541D0C4350F4050E44D03449074510F000141232D24D7C053247454E545241434F2C4A504E2C302C8CB4935F2C47454E54524154582C
310
25732C2847454E4D53472067656E64696D7A20312900010104002214000281464500A608E8A9CA8A482869E5894A09C5860591914588E8A9CA8A482A8B0584AE658508E8A9C9AA68E40CECADCC8D2DAF4406452029E9E9E27B934B3B4B71F1E24A31427A91424A9A12620A7259427B934B3B4B7149624A9A12620A7259424B
310
A32B6949496111116111711149F1E24BA32B69F00808200111A000140560052F47454E545241434F2C4A504E2C302C582C47454E54524154582C25732C2847454E4D53472067656E64696D7A20332900010100002054000280AC80A5E8E8A9CA8A482869E5894A09C586058B2588E8A9CA8A482A8B0584AE658508E8A9C9AA
310
68E40CECADCC8D2DAF4406852000202000040E800050152014BD1D15395149050D3CB1294138B0C0B148B11D15395149055160B095CCB0A11D1539354D1C819D95B991A5B5E880D8A400040400008250000A0507A6029823A2A72A2920A1A79625282716181641E99623A2A72A2920AA2C1612B9961423A2A726A9A39033B2
310
B73234B6BD101B948000808180105A000140A0F4C053047454E545241434F2C4A504E2C302C83D32C47454E54524154582C25732C2847454E4D53472067656E64696D7A203829000101010020F400028248704B5F00A668E8A9CA8A482869E5894A09C58605921C12D7C588E8A9CA8A482A8B0584AE658508E8A9C9AA68E40
310
CECADCC8D2DAF440646052000200080043280005048B4B8A69014CD1D15395149050D3CB1294138B0C0B22D2E29A4B11D15395149055160B095CCB0A11D1539354D1C819D95B991A5B5E880C8C4A4000400100086D0000A09196926BE029923A2A72A2920A1A796252827161816465A49AF9623A2A72A2920AA2C1612B9961
310
423A2A726A9A39033B2B73234B6BD10189480A02620202080043E80005048D8096DA014CD1D15395149050D3CB1294138B0C0B236025B68B11D15395149055160B095CCB0A11D1539354D1C819D95B991A5B5E880C4D0A4000404140280D0000A190687072706CD06C5069D06B0029DA3A2A72A2920A1A7962528271618164
310
1A1C1C9C1B341B141A741AC1623A2A72A2920AA2C1612B9961423A2A726A9A39033B2B73234B6BD10189A94800080820050EA000143A322A0D0E0E4E0D9A0D8A0D3A0D60053D47454E545241434F2C4A504E2C302C8C8A8343839383668362834E83582C47454E54524154582C25732C2847454E4D53472067656E64696D7A
310
2031372900010105002274000281464500A628E8A9CA8A482869E5894A09C5860591914588E8A9CA8A482A8B0584AE658508E8A9C9AA68E40CECADCC8D2DAF440626C52000202080044A8000504909497CA014CD1D15395149050D3CB1294138B0C0B242525F28B11D15395149055160B095CCB0A11D1539354D1C819D95B9
310
91A5B5E880C4E4A400040418008A521E000000000000001CA040C00000000000034408080000000000006881010000000000000D102040000000000001A204080000000000003440818000000000000728103000000000000125020600000000004028A040000000000000034408000000000000004881000000000000000D
310
102000000000000001A204000000000000003440818000000000000508143C0000000000000039408180000000000006881030000000000000D102060000000000001A2040C00000000000034408180000000000006881030000000000000E5020600000000000024A040C0000000000805140800000000000000688100000
310
00000000009102000000000000001A2040000000000000034408180000000000006881030000000000000A10284220000000878000002020000008380000020400000081800000208000000828000002028900000000
340
0
340
0
340
0
340
0
340
180
340
180
 94
        0
  0
ACAD_PROXY_OBJECT
  5
9A4B
330
9A42
100
AcDbProxyObject
 90
      499
 91
      602
 95
       25
 70
     0
 93
     2680
310
5DE0143A0D960E4E0DDA0E32056E0D9C80C4043A013D2525633C486F6C653A63746469613E2078203C486F6C653A637464657074683E20555C503C696628657175616C28486F6C653A7461707065642C223022292C22252563222C486F6C653A6E6F6D696E616C202220782022293E3C696628657175616C28486F6C653A74
310
61707065642C223022292C486F6C653A6469612C486F6C653A706974636864657363293E3C696628657175616C28486F6C653A7461707065642C223122292C22207820222C2222293E3C696628657175616C28486F6C653A7461707065642C223122292C486F6C653A74617064657074682C2222293E203C69662865717561
310
6C28486F6C653A7465726D696E6174696F6E2C223022292C22202F20222C2222293E3C696628657175616C28486F6C653A7465726D696E6174696F6E2C223022292C486F6C653A64657074682C2222293E
  0
ACAD_PROXY_OBJECT
  5
9A4C
330
9A42
100
AcDbProxyObject
 90
      499
 91
      602
 95
       25
 70
     0
 93
     2688
310
5DE0143A0D960E4E0DDA0E32056E0D9C80C4043B013D2525633C486F6C653A63746469613E2078203C486F6C653A6374616E676C653E2525645C503C696628657175616C28486F6C653A7461707065642C223022292C22252563222C486F6C653A6E6F6D696E616C202220782022293E3C696628657175616C28486F6C653A
310
7461707065642C223022292C486F6C653A6469612C486F6C653A706974636864657363293E3C696628657175616C28486F6C653A7461707065642C223122292C22207820222C2222293E3C696628657175616C28486F6C653A7461707065642C223122292C486F6C653A74617064657074682C2222293E203C696628657175
310
616C28486F6C653A7465726D696E6174696F6E2C223022292C22202F20222C2222293E3C696628657175616C28486F6C653A7465726D696E6174696F6E2C223022292C486F6C653A64657074682C2222293E
  0
ACAD_PROXY_OBJECT
  5
9A4A
330
9A42
100
AcDbProxyObject
 90
      499
 91
      602
 95
       25
 70
     0
 93
     2392
310
5DE0143A0D960E4E0DDA0E32056E0D9C80C40416013D3C696628657175616C28486F6C653A7461707065642C223022292C22252563222C486F6C653A6E6F6D696E616C202220782022293E3C696628657175616C28486F6C653A7461707065642C223022292C486F6C653A6469612C486F6C653A706974636864657363293E
310
3C696628657175616C28486F6C653A7461707065642C223122292C22207820222C2222293E3C696628657175616C28486F6C653A7461707065642C223122292C486F6C653A74617064657074682C2222293E203C696628657175616C28486F6C653A7465726D696E6174696F6E2C223022292C22202F20222C2222293E3C69
310
6628657175616C28486F6C653A7465726D696E6174696F6E2C223022292C486F6C653A64657074682C2222293E
  0
ACAD_PROXY_OBJECT
  5
9A49
330
9A42
100
AcDbProxyObject
 90
      499
 91
      602
 95
       25
 70
     0
 93
      344
310
5DE0143A0D960E4E0DDA0E32056E0D9C80C805173D3C535444503A444553433E203C535444503A5354443E
  0
ACAD_PROXY_OBJECT
  5
9A48
330
9A42
100
AcDbProxyObject
 90
      499
 91
      602
 95
       25
 70
     0
 93
      256
310
5DE0143A0D960E4E0DDA0E32056E0D9C80C4050C3D3C535444503A444553433E
  0
ACAD_PROXY_OBJECT
  5
9CC8
330
9CC7
100
AcDbProxyObject
 90
      499
 91
      602
 95
       25
 70
     0
 93
     1376
310
5DE0143A0D960E4E0DDA0E32056E0D9C80C405983D3C486F6C653A6469613E3C696628657175616C28486F6C653A7465726D696E6174696F6E2C223022292C2220905B82B320222C22208368838A838B22293E3C696628657175616C28486F6C653A7465726D696E6174696F6E2C223022292C486F6C653A64657074682C22
310
22293E2C203C486F6C653A63746469613E2082B482AE82E882CC905B82B3203C486F6C653A637464657074683E
  0
ACAD_PROXY_OBJECT
  5
9CC9
330
9CC7
100
AcDbProxyObject
 90
      499
 91
      602
 95
       25
 70
     0
 93
     2072
310
5DE0143A0D960E4E0DDA0E32056E0D9C80C405EF3D3C486F6C653A6374616E676C653E252564202525633C486F6C653A63746469613E208E4D8C8A2C203C696628657175616C28486F6C653A7461707065642C223022292C22252563222C486F6C653A6E6F6D696E616C202220782022293E3C696628657175616C28486F6C
310
653A7461707065642C223022292C486F6C653A6469612C486F6C653A706974636864657363293E203C696628657175616C28486F6C653A7465726D696E6174696F6E2C223022292C22905B82B320222C222022293E3C696628657175616C28486F6C653A7465726D696E6174696F6E2C223022292C486F6C653A6465707468
310
2C2222293E
  0
ACAD_PROXY_OBJECT
  5
9CCA
330
9CC7
100
AcDbProxyObject
 90
      499
 91
      602
 95
       25
 70
     0
 93
     1752
310
5DE0143A0D960E4E0DDA0E32056E0D9C80C405C73D3C696628657175616C28486F6C653A7461707065642C223022292C22252563222C486F6C653A6E6F6D696E616C202220782022293E3C696628657175616C28486F6C653A7461707065642C223022292C486F6C653A6469612C486F6C653A706974636864657363293E20
310
3C696628657175616C28486F6C653A7465726D696E6174696F6E2C223022292C22905B82B320222C222022293E3C696628657175616C28486F6C653A7465726D696E6174696F6E2C223022292C486F6C653A64657074682C2222293E
  0
ACAD_PROXY_OBJECT
  5
9CCB
330
9CC7
100
AcDbProxyObject
 90
      499
 91
      602
 95
       25
 70
     0
 93
      344
310
5DE0143A0D960E4E0DDA0E32056E0D9C80C805173D3C535444503A444553433E203C535444503A5354443E
  0
ACAD_PROXY_OBJECT
  5
9CCC
330
9CC7
100
AcDbProxyObject
 90
      499
 91
      602
 95
       25
 70
     0
 93
      256
310
5DE0143A0D960E4E0DDA0E32056E0D9C80C4050C3D3C535444503A444553433E
  0
ENDSEC
  0
EOF
