  0
SECTION
  2
HEADER
  9
$ACADVER
  1
AC1015
  9
$ACADMAINTVER
 70
     6
  9
$DWGCODEPAGE
  3
ANSI_932
  9
$INSBASE
 10
0.0
 20
0.0
 30
0.0
  9
$EXTMIN
 10
-116.6006262555159
 20
-127.3869588357788
 30
-0.0000000000000284
  9
$EXTMAX
 10
123.8523436000096
 20
85.06935598199178
 30
0.0000000000000003
  9
$LIMMIN
 10
0.0
 20
0.0
  9
$LIMMAX
 10
420.0
 20
297.0
  9
$ORTHOMODE
 70
     0
  9
$REGENMODE
 70
     1
  9
$FILLMODE
 70
     1
  9
$QTEXTMODE
 70
     0
  9
$MIRRTEXT
 70
     1
  9
$LTSCALE
 40
1.0
  9
$ATTMODE
 70
     1
  9
$TEXTSIZE
 40
3.15
  9
$TRACEWID
 40
1.0
  9
$TEXTSTYLE
  7
STANDARD
  9
$CLAYER
  8
AM_0
  9
$CELTYPE
  6
ByLayer
  9
$CECOLOR
 62
   256
  9
$CELTSCALE
 40
1.0
  9
$DISPSILH
 70
     0
  9
$DIMSCALE
 40
1.0
  9
$DIMASZ
 40
2.5
  9
$DIMEXO
 40
0.0
  9
$DIMDLI
 40
10.0
  9
$DIMRND
 40
0.0
  9
$DIMDLE
 40
0.0
  9
$DIMEXE
 40
1.0
  9
$DIMTP
 40
0.1
  9
$DIMTM
 40
0.1000000001
  9
$DIMTXT
 40
3.8
  9
$DIMCEN
 40
0.0
  9
$DIMTSZ
 40
0.0
  9
$DIMTOL
 70
     0
  9
$DIMLIM
 70
     0
  9
$DIMTIH
 70
     0
  9
$DIMTOH
 70
     0
  9
$DIMSE1
 70
     0
  9
$DIMSE2
 70
     0
  9
$DIMTAD
 70
     3
  9
$DIMZIN
 70
     1
  9
$DIMBLK
  1
Open30
  9
$DIMASO
 70
     1
  9
$DIMSHO
 70
     1
  9
$DIMPOST
  1

  9
$DIMAPOST
  1
"
  9
$DIMALT
 70
     0
  9
$DIMALTD
 70
     2
  9
$DIMALTF
 40
0.0393701
  9
$DIMLFAC
 40
1.0
  9
$DIMTOFL
 70
     1
  9
$DIMTVP
 40
0.0
  9
$DIMTIX
 70
     0
  9
$DIMSOXD
 70
     0
  9
$DIMSAH
 70
     0
  9
$DIMBLK1
  1

  9
$DIMBLK2
  1

  9
$DIMSTYLE
  2
AM_JIS
  9
$DIMCLRD
 70
   256
  9
$DIMCLRE
 70
   256
  9
$DIMCLRT
 70
     2
  9
$DIMTFAC
 40
0.71
  9
$DIMGAP
 40
1.5
  9
$DIMJUST
 70
     0
  9
$DIMSD1
 70
     0
  9
$DIMSD2
 70
     0
  9
$DIMTOLJ
 70
     0
  9
$DIMTZIN
 70
     8
  9
$DIMALTZ
 70
     0
  9
$DIMALTTZ
 70
     0
  9
$DIMUPT
 70
     0
  9
$DIMDEC
 70
     0
  9
$DIMTDEC
 70
     3
  9
$DIMALTU
 70
     2
  9
$DIMALTTD
 70
     2
  9
$DIMTXSTY
  7
STANDARD
  9
$DIMAUNIT
 70
     1
  9
$DIMADEC
 70
     2
  9
$DIMALTRND
 40
0.0
  9
$DIMAZIN
 70
     2
  9
$DIMDSEP
 70
    46
  9
$DIMATFIT
 70
     3
  9
$DIMFRAC
 70
     0
  9
$DIMLDRBLK
  1
Open30
  9
$DIMLUNIT
 70
     2
  9
$DIMLWD
 70
    -1
  9
$DIMLWE
 70
    -1
  9
$DIMTMOVE
 70
     0
  9
$LUNITS
 70
     2
  9
$LUPREC
 70
     2
  9
$SKETCHINC
 40
1.0
  9
$FILLETRAD
 40
1.5
  9
$AUNITS
 70
     1
  9
$AUPREC
 70
     5
  9
$MENU
  1
.
  9
$ELEVATION
 40
0.0
  9
$PELEVATION
 40
0.0
  9
$THICKNESS
 40
0.0
  9
$LIMCHECK
 70
     0
  9
$CHAMFERA
 40
2.5
  9
$CHAMFERB
 40
2.5
  9
$CHAMFERC
 40
20.0
  9
$CHAMFERD
 40
0.0
  9
$SKPOLY
 70
     0
  9
$TDCREATE
 40
2451943.610431667
  9
$TDUCREATE
 40
2451943.235431667
  9
$TDUPDATE
 40
2455478.563343634
  9
$TDUUPDATE
 40
2455478.188343634
  9
$TDINDWG
 40
0.4926116551
  9
$TDUSRTIMER
 40
0.4926114815
  9
$USRTIMER
 70
     1
  9
$ANGBASE
 50
0.0
  9
$ANGDIR
 70
     0
  9
$PDMODE
 70
     0
  9
$PDSIZE
 40
0.0
  9
$PLINEWID
 40
0.0
  9
$SPLFRAME
 70
     0
  9
$SPLINETYPE
 70
     6
  9
$SPLINESEGS
 70
     8
  9
$HANDSEED
  5
D78C
  9
$SURFTAB1
 70
     6
  9
$SURFTAB2
 70
     6
  9
$SURFTYPE
 70
     6
  9
$SURFU
 70
     6
  9
$SURFV
 70
     6
  9
$UCSBASE
  2

  9
$UCSNAME
  2

  9
$UCSORG
 10
0.0
 20
0.0
 30
0.0
  9
$UCSXDIR
 10
1.0
 20
0.0
 30
0.0
  9
$UCSYDIR
 10
0.0
 20
1.0
 30
0.0
  9
$UCSORTHOREF
  2

  9
$UCSORTHOVIEW
 70
     0
  9
$UCSORGTOP
 10
0.0
 20
0.0
 30
0.0
  9
$UCSORGBOTTOM
 10
0.0
 20
0.0
 30
0.0
  9
$UCSORGLEFT
 10
0.0
 20
0.0
 30
0.0
  9
$UCSORGRIGHT
 10
0.0
 20
0.0
 30
0.0
  9
$UCSORGFRONT
 10
0.0
 20
0.0
 30
0.0
  9
$UCSORGBACK
 10
0.0
 20
0.0
 30
0.0
  9
$PUCSBASE
  2

  9
$PUCSNAME
  2

  9
$PUCSORG
 10
0.0
 20
0.0
 30
0.0
  9
$PUCSXDIR
 10
1.0
 20
0.0
 30
0.0
  9
$PUCSYDIR
 10
0.0
 20
1.0
 30
0.0
  9
$PUCSORTHOREF
  2

  9
$PUCSORTHOVIEW
 70
     0
  9
$PUCSORGTOP
 10
0.0
 20
0.0
 30
0.0
  9
$PUCSORGBOTTOM
 10
0.0
 20
0.0
 30
0.0
  9
$PUCSORGLEFT
 10
0.0
 20
0.0
 30
0.0
  9
$PUCSORGRIGHT
 10
0.0
 20
0.0
 30
0.0
  9
$PUCSORGFRONT
 10
0.0
 20
0.0
 30
0.0
  9
$PUCSORGBACK
 10
0.0
 20
0.0
 30
0.0
  9
$USERI1
 70
     0
  9
$USERI2
 70
     0
  9
$USERI3
 70
     0
  9
$USERI4
 70
     0
  9
$USERI5
 70
     0
  9
$USERR1
 40
0.0
  9
$USERR2
 40
0.0
  9
$USERR3
 40
0.0
  9
$USERR4
 40
0.0
  9
$USERR5
 40
0.0
  9
$WORLDVIEW
 70
     1
  9
$SHADEDGE
 70
     3
  9
$SHADEDIF
 70
    70
  9
$TILEMODE
 70
     1
  9
$MAXACTVP
 70
    48
  9
$PINSBASE
 10
0.0
 20
0.0
 30
0.0
  9
$PLIMCHECK
 70
     0
  9
$PEXTMIN
 10
1.000000000000000E+20
 20
1.000000000000000E+20
 30
1.000000000000000E+20
  9
$PEXTMAX
 10
-1.000000000000000E+20
 20
-1.000000000000000E+20
 30
-1.000000000000000E+20
  9
$PLIMMIN
 10
0.0
 20
0.0
  9
$PLIMMAX
 10
420.0
 20
297.0
  9
$UNITMODE
 70
     0
  9
$VISRETAIN
 70
     1
  9
$PLINEGEN
 70
     0
  9
$PSLTSCALE
 70
     1
  9
$TREEDEPTH
 70
  3020
  9
$CMLSTYLE
  2
Standard
  9
$CMLJUST
 70
     0
  9
$CMLSCALE
 40
20.0
  9
$PROXYGRAPHICS
 70
     1
  9
$MEASUREMENT
 70
     1
  9
$CELWEIGHT
370
    -1
  9
$ENDCAPS
280
     0
  9
$JOINSTYLE
280
     0
  9
$LWDISPLAY
290
     0
  9
$INSUNITS
 70
     4
  9
$HYPERLINKBASE
  1

  9
$STYLESHEET
  1
sei_cad.ctb
  9
$XEDIT
290
     1
  9
$CEPSNTYPE
380
     0
  9
$PSTYLEMODE
290
     1
  9
$FINGERPRINTGUID
  2
{C77AB3BE-9CA2-11D3-BAF3-006094EB760E}
  9
$VERSIONGUID
  2
{76A62AAA-CE30-4C51-8914-19F1380AC1C9}
  9
$EXTNAMES
290
     1
  9
$PSVPSCALE
 40
0.0
  9
$OLESTARTUP
290
     0
  0
ENDSEC
  0
SECTION
  2
CLASSES
  0
CLASS
  1
ACDBDICTIONARYWDFLT
  2
AcDbDictionaryWithDefault
  3
ObjectDBX Classes
 90
        0
280
     0
281
     0
  0
CLASS
  1
ACDBPLACEHOLDER
  2
AcDbPlaceHolder
  3
ObjectDBX Classes
 90
        0
280
     0
281
     0
  0
CLASS
  1
LAYOUT
  2
AcDbLayout
  3
ObjectDBX Classes
 90
        0
280
     0
281
     0
  0
CLASS
  1
ACME_DOCUMENT
  2
AcMeDbDoc
  3
AcMeServices
 90
        0
280
     1
281
     0
  0
CLASS
  1
ACMESCOPE
  2
AcMeScope
  3
AcMeServices
 90
        0
280
     1
281
     0
  0
CLASS
  1
ACMECOMMANDHISTORY
  2
AcMeCommandHistory
  3
AcMeServices
 90
        0
280
     1
281
     0
  0
CLASS
  1
DICTIONARYVAR
  2
AcDbDictionaryVar
  3
ObjectDBX Classes
 90
        0
280
     0
281
     0
  0
CLASS
  1
ACIMSYSVARMAN
  2
AcImSysVarManager
  3
AcMeServices
 90
        0
280
     1
281
     0
  0
CLASS
  1
ACIMREALSYSVAR
  2
AcImRealSysVar
  3
AcMeServices
 90
        0
280
     1
281
     0
  0
CLASS
  1
ACIMINTSYSVAR
  2
AcImIntSysVar
  3
AcMeServices
 90
        0
280
     1
281
     0
  0
CLASS
  1
ACMEDRAWINGMAN
  2
AcMeDrawingMan
  3
AcMeServices
 90
        0
280
     1
281
     0
  0
CLASS
  1
ACMEVIEW
  2
AcMeView
  3
AcMeServices
 90
        0
280
     1
281
     0
  0
CLASS
  1
ACDBENTITYCACHE
  2
AcMeEntityCache
  3
AcMeServices
 90
        0
280
     1
281
     0
  0
CLASS
  1
GSMANAGER
  2
AcMeGSManager
  3
AcMeServices
 90
        0
280
     1
281
     0
  0
CLASS
  1
AMDTINTERNALREACTOR
  2
AmdtInternalReactor
  3
AcMeServices
 90
        0
280
     1
281
     0
  0
CLASS
  1
ACMESTATEMGR
  2
AcMeStateMgr
  3
AcMeServices
 90
        0
280
     1
281
     0
  0
CLASS
  1
ACME_DATABASE
  2
AcMeDbDatabase
  3
AcMeServices
 90
        0
280
     1
281
     0
  0
CLASS
  1
ACRFINSADJUSTERMGR
  2
AcRfInsAdjusterMgr
  3
AcMeServices
 90
        0
280
     1
281
     0
  0
CLASS
  1
AMGSETTINGSOBJ
  2
AmgSettingsObj
  3
"AcadM|Product Description: AutoCAD Mechanical 2000|Company: Autodesk"
 90
        0
280
     1
281
     0
  0
CLASS
  1
AMGOBJPROPCFG
  2
AmgObjPropCfg
  3
"AmgLay|Product Description: AutoCAD Mechanical 2000|Company: Autodesk"
 90
        1
280
     1
281
     0
  0
CLASS
  1
ACMDATADICTIONARY
  2
AcmDataDictionary
  3
"AcmSymBB|Product Description: AutoCAD Mechanical 2004 DX|Company: Autodesk"
 90
        0
280
     1
281
     0
  0
CLASS
  1
ACMDATAENTRYBLOCK
  2
AcmDataEntryBlock
  3
"AcmSymBB|Product Description: AutoCAD Mechanical 2004 DX|Company: Autodesk"
 90
        0
280
     1
281
     0
  0
CLASS
  1
ACIMSTRSYSVAR
  2
AcImStrSysVar
  3
AcMeServices
 90
        0
280
     1
281
     0
  0
CLASS
  1
ACAMGFILTERDAT
  2
AcAmgFilterDat
  3
"AcadM|Product Description: AutoCAD Mechanical 2000|Company: Autodesk"
 90
        0
280
     1
281
     0
  0
CLASS
  1
LAYER_INDEX
  2
AcDbLayerIndex
  3
ObjectDBX Classes
 90
        0
280
     0
281
     0
  0
CLASS
  1
IDBUFFER
  2
AcDbIdBuffer
  3
ObjectDBX Classes
 90
        0
280
     0
281
     0
  0
CLASS
  1
ACMSTANDARDJIS
  2
AcmStandardJIS
  3
"Amdt_StdImp|Product Description: AutoCAD Mechanical 2004 DX|Company: Autodesk"
 90
        0
280
     1
281
     0
  0
CLASS
  1
ACMSURFSTANDARDJIS
  2
AcmSurfTextStdJIS
  3
"Amdt_StdImp|Product Description: AutoCAD Mechanical 2004 DX|Company: Autodesk"
 90
        0
280
     1
281
     0
  0
CLASS
  1
ACMFCFSTANDARDJIS
  2
AcmFCFStdJIS
  3
"Amdt_StdImp|Product Description: AutoCAD Mechanical 2004 DX|Company: Autodesk"
 90
        0
280
     1
281
     0
  0
CLASS
  1
ACMWELDSTANDARDJIS
  2
AcmWeldingStdJIS
  3
"Amdt_StdImp|Product Description: AutoCAD Mechanical 2004 DX|Company: Autodesk"
 90
        0
280
     1
281
     0
  0
CLASS
  1
ACMIDSTANDARDJIS
  2
AcmIdStdJIS
  3
"Amdt_StdImp|Product Description: AutoCAD Mechanical 2004 DX|Company: Autodesk"
 90
        0
280
     1
281
     0
  0
CLASS
  1
ACMDATUMSTANDARDJIS
  2
AcmDatumStdJIS
  3
"Amdt_StdImp|Product Description: AutoCAD Mechanical 2004 DX|Company: Autodesk"
 90
        0
280
     1
281
     0
  0
CLASS
  1
ACMBOMSTANDARDJIS
  2
AcmBOMStdJIS
  3
"Amdt_StdImp|Product Description: AutoCAD Mechanical 2004 DX|Company: Autodesk"
 90
        0
280
     1
281
     0
  0
CLASS
  1
AMDTNOTE
  2
AmdtNote
  3
"AcmSymBB|Product Description: AutoCAD Mechanical 2004 DX|Company: Autodesk"
 90
     1023
280
     1
281
     1
  0
CLASS
  1
ACGREFMASTER
  2
AcGrefMaster
  3
AcAttribServices
 90
        0
280
     1
281
     0
  0
CLASS
  1
ACGREFACADMASTER
  2
AcGrefacadMaster
  3
AcGrefServices
 90
        0
280
     1
281
     0
  0
CLASS
  1
AMIMASTER
  2
AmiMaster
  3
AmiServices
 90
        0
280
     1
281
     0
  0
CLASS
  1
ACAMGTITLESTD
  2
AcAmgTitleStd
  3
"TITLEAPP"
 90
        0
280
     1
281
     0
  0
CLASS
  1
ACMDETAILSTANDARDJIS
  2
AmdtDetailSymStdJIS
  3
"Amdt_StdImp|Product Description: AutoCAD Mechanical 2004 DX|Company: Autodesk"
 90
        0
280
     1
281
     0
  0
CLASS
  1
ACMSECTIONSTANDARDJIS
  2
AmdtSectionSymStdJIS
  3
"Amdt_StdImp|Product Description: AutoCAD Mechanical 2004 DX|Company: Autodesk"
 90
        0
280
     1
281
     0
  0
CLASS
  1
ACMCENTERLINESTANDARDJIS
  2
AmdtCenterLineStdJIS
  3
"Amdt_StdImp|Product Description: AutoCAD Mechanical 2004 DX|Company: Autodesk"
 90
        0
280
     1
281
     0
  0
CLASS
  1
ACMNOTESTANDARDJIS
  2
AmdtNoteStdJIS
  3
"Amdt_StdImp|Product Description: AutoCAD Mechanical 2004 DX|Company: Autodesk"
 90
        0
280
     1
281
     0
  0
CLASS
  1
ACAMGLAYSTD
  2
AcAmgLayStd
  3
"AcAmgLayStd|Product Description: AutoCAD Mechanical 2000|Company: Autodesk"
 90
        0
280
     1
281
     0
  0
CLASS
  1
ACAMGDIMSTD
  2
AcAmgDimStd
  3
"AcAmgDimStd|Product Description: AutoCAD Mechanical 2000|Company: Autodesk"
 90
        0
280
     1
281
     0
  0
CLASS
  1
AMDTFORMULAUPDATEDISPATCHER
  2
AmdtFormulaUpdateDispatcher
  3
AcMeServices
 90
        0
280
     1
281
     0
  0
CLASS
  1
DUMMY
  2
AcDbLongTransaction
  3
DUMMY
 90
        0
280
     0
281
     0
  0
CLASS
  1
LWPOLYLINE
  2
AcDbPolyline
  3
AutoCAD 2000
 90
        0
280
     0
281
     1
  0
CLASS
  1
HATCH
  2
AcDbHatch
  3
AutoCAD 2000
 90
        0
280
     0
281
     1
  0
CLASS
  1
XRECORD
  2
AcDbXrecord
  3
AutoCAD 2000
 90
        0
280
     0
281
     0
  0
CLASS
  1
DUMMY
  2
AcDbLongTransaction
  3
DUMMY
 90
        0
280
     0
281
     0
  0
CLASS
  1
LWPOLYLINE
  2
AcDbPolyline
  3
AutoCAD 2000
 90
        0
280
     0
281
     1
  0
CLASS
  1
HATCH
  2
AcDbHatch
  3
AutoCAD 2000
 90
        0
280
     0
281
     1
  0
CLASS
  1
XRECORD
  2
AcDbXrecord
  3
AutoCAD 2000
 90
        0
280
     0
281
     0
  0
CLASS
  1
ACDBCIRCARCRES
  2
AcDbCircArcRes
  3
AcGrefServices
 90
        0
280
     1
281
     0
  0
CLASS
  1
ACDBLINERES
  2
AcDbLineRes
  3
AcGrefServices
 90
        0
280
     1
281
     0
  0
CLASS
  1
ACDBELLIPSERES
  2
AcDbEllipseRes
  3
AcGrefServices
 90
        0
280
     1
281
     0
  0
CLASS
  1
DUMMY
  2
AcDbLongTransaction
  3
DUMMY
 90
        0
280
     0
281
     0
  0
CLASS
  1
LWPOLYLINE
  2
AcDbPolyline
  3
AutoCAD 2000
 90
        0
280
     0
281
     1
  0
CLASS
  1
HATCH
  2
AcDbHatch
  3
AutoCAD 2000
 90
        0
280
     0
281
     1
  0
CLASS
  1
XRECORD
  2
AcDbXrecord
  3
AutoCAD 2000
 90
        0
280
     0
281
     0
  0
CLASS
  1
TABLESTYLE
  2
AcDbTableStyle
  3
ObjectDBX Classes
 90
     2047
280
     0
281
     0
  0
CLASS
  1
AM_DRAWING_MGR
  2
AcDmDwgMgr
  3
AcMechDwgViewMgmt
 90
        0
280
     1
281
     0
  0
CLASS
  1
AM_DWG_DOCUMENT
  2
AcDmDwgDocument
  3
AcMechDwgViewMgmt
 90
        0
280
     1
281
     0
  0
CLASS
  1
AM_DWG_SHEET
  2
AcDmSheet
  3
AcMechDwgViewMgmt
 90
        0
280
     1
281
     0
  0
CLASS
  1
AM_VIEWDIMPARMAP
  2
AcDmViewDimParMap
  3
AcMechDwgViewMgmt
 90
        0
280
     1
281
     0
  0
CLASS
  1
AM_DWGMGR_NAME
  2
AcDmDwgMgrName
  3
AcMechDwgViewMgmt
 90
        0
280
     1
281
     0
  0
CLASS
  1
AMDTMENUSTATEMGR
  2
AmdtMenuStateMgr
  3
McadcomServices
 90
        0
280
     1
281
     0
  0
CLASS
  1
AMDTMCOMMENUSTATE
  2
AmdtMcomMenuState
  3
McadcomServices
 90
        0
280
     1
281
     0
  0
CLASS
  1
MAPIAMMOUDLE
  2
MApiAmModule
  3
MApiAmServices
 90
        0
280
     1
281
     0
  0
CLASS
  1
AMDTADMENUSTATE
  2
AmdtAdMenuState
  3
DesignerServices
 90
        0
280
     1
281
     0
  0
CLASS
  1
ADAPPL
  2
AcAdAppl
  3
DesignerServices
 90
        0
280
     1
281
     0
  0
CLASS
  1
DEPMGR
  2
AcAdDepMgr
  3
DesignerServices
 90
        0
280
     1
281
     0
  0
CLASS
  1
PARAMMGR
  2
AcAdParamMgr
  3
DesignerServices
 90
        0
280
     1
281
     0
  0
CLASS
  1
PARAMSCOPE
  2
AcAdParamScope
  3
DesignerServices
 90
        0
280
     1
281
     0
  0
CLASS
  1
NAMEDAPPL
  2
AcAdNamedAppl
  3
DesignerServices
 90
        0
280
     1
281
     0
  0
CLASS
  1
AMDTDMMENUSTATE
  2
AmdtDmMenuState
  3
AcMechDwgViewMgmt
 90
        0
280
     1
281
     0
  0
CLASS
  1
AMDTAMMENUSTATE
  2
AmdtAmMenuState
  3
DesignerAssemblies
 90
        0
280
     1
281
     0
  0
CLASS
  1
ACAMPROJECT
  2
AcAmProject
  3
DesignerAssemblies
 90
        0
280
     1
281
     0
  0
CLASS
  1
ACAMGRCOMPDEF
  2
AcAmGrCompDef
  3
DesignerAssemblies
 90
        0
280
     1
281
     0
  0
CLASS
  1
ACCMCONTEXT
  2
AcCmContext
  3
DesignerAssemblies
 90
        0
280
     1
281
     0
  0
CLASS
  1
ACAMCOMPDEF
  2
AcAmCompDef
  3
DesignerAssemblies
 90
        0
280
     1
281
     0
  0
CLASS
  1
ACAMCOMPDEFMGR
  2
AcAmCompDefMgr
  3
DesignerAssemblies
 90
        0
280
     1
281
     0
  0
CLASS
  1
AMCONTEXTMGR
  2
AcAmContextMgr
  3
DesignerAssemblies
 90
        0
280
     1
281
     0
  0
CLASS
  1
ACAMCONTEXTMODELER
  2
AcAmContextModeler
  3
DesignerAssemblies
 90
        0
280
     1
281
     0
  0
CLASS
  1
CATALOGSTATE
  2
AcAmCatalogState
  3
DesignerAssemblies
 90
        0
280
     1
281
     0
  0
CLASS
  1
ACAMGRCOMPDEFSET
  2
AcAmGrCompDefSet
  3
DesignerAssemblies
 90
        0
280
     1
281
     0
  0
CLASS
  1
AMDTBROWSERDBTAB
  2
AmdtBrowserDbTab
  3
McadcomServices
 90
        0
280
     1
281
     0
  0
CLASS
  1
CBROWSERAPPOBJECT
  2
CBrowserAppObject
  3
McadcomServices
 90
        0
280
     1
281
     0
  0
CLASS
  1
DM_PLACEHOLDER
  2
AcDmSelsetPlaceholder
  3
AcMechDwgViewMgmt
 90
        0
280
     1
281
     0
  0
CLASS
  1
ACMSTANDARDISO
  2
AcmStandardISO
  3
"Amdt_StdImp|Product Description: AutoCAD Mechanical 2004 DX|Company: Autodesk"
 90
        0
280
     1
281
     0
  0
CLASS
  1
AMDTEDGESTANDARDISO13715
  2
AmdtEdgeStdISO13715
  3
"Amdt_StdImp|Product Description: AutoCAD Mechanical 2004 DX|Company: Autodesk"
 90
        0
280
     1
281
     0
  0
CLASS
  1
ACMSURFSTANDARDISO
  2
AcmSurfTextStdISO
  3
"Amdt_StdImp|Product Description: AutoCAD Mechanical 2004 DX|Company: Autodesk"
 90
        0
280
     1
281
     0
  0
CLASS
  1
ACMFCFSTANDARDISO
  2
AcmFCFStdISO
  3
"Amdt_StdImp|Product Description: AutoCAD Mechanical 2004 DX|Company: Autodesk"
 90
        0
280
     1
281
     0
  0
CLASS
  1
ACMWELDSTANDARDISO
  2
AcmWeldingStdISO
  3
"Amdt_StdImp|Product Description: AutoCAD Mechanical 2004 DX|Company: Autodesk"
 90
        0
280
     1
281
     0
  0
CLASS
  1
ACMIDSTANDARDISO
  2
AcmIdStdISO
  3
"Amdt_StdImp|Product Description: AutoCAD Mechanical 2004 DX|Company: Autodesk"
 90
        0
280
     1
281
     0
  0
CLASS
  1
ACMDATUMSTANDARDISO
  2
AcmDatumStdISO
  3
"Amdt_StdImp|Product Description: AutoCAD Mechanical 2004 DX|Company: Autodesk"
 90
        0
280
     1
281
     0
  0
CLASS
  1
ACMBOMSTANDARDISO
  2
AcmBOMStdISO
  3
"Amdt_StdImp|Product Description: AutoCAD Mechanical 2004 DX|Company: Autodesk"
 90
        0
280
     1
281
     0
  0
CLASS
  1
ACMDETAILSTANDARDISO
  2
AmdtDetailSymStdISO
  3
"Amdt_StdImp|Product Description: AutoCAD Mechanical 2004 DX|Company: Autodesk"
 90
        0
280
     1
281
     0
  0
CLASS
  1
ACMSECTIONSTANDARDISO
  2
AmdtSectionSymStdISO
  3
"Amdt_StdImp|Product Description: AutoCAD Mechanical 2004 DX|Company: Autodesk"
 90
        0
280
     1
281
     0
  0
CLASS
  1
ACMCENTERLINESTANDARDISO
  2
AmdtCenterLineStdISO
  3
"Amdt_StdImp|Product Description: AutoCAD Mechanical 2004 DX|Company: Autodesk"
 90
        0
280
     1
281
     0
  0
CLASS
  1
ACMTHREADLINESTANDARDISO
  2
AmdtThreadLineStdISO
  3
"Amdt_StdImp|Product Description: AutoCAD Mechanical 2004 DX|Company: Autodesk"
 90
        0
280
     1
281
     0
  0
CLASS
  1
ACMNOTESTANDARDISO
  2
AmdtNoteStdISO
  3
"Amdt_StdImp|Product Description: AutoCAD Mechanical 2004 DX|Company: Autodesk"
 90
        0
280
     1
281
     0
  0
CLASS
  1
AMDTNOTETEMPLATEDB
  2
AmdtNoteTemplateDB
  3
AMDT_STDIMP_MODULE_NAME
 90
        0
280
     1
281
     0
  0
CLASS
  1
ACAMGHOLECHARTSTDISO
  2
AcAmgHoleChartStdISO
  3
ACMSYMBB_MODULE_NAME
 90
        0
280
     1
281
     0
  0
CLASS
  1
SORTENTSTABLE
  2
AcDbSortentsTable
  3
ObjectDBX Classes
 90
        0
280
     0
281
     0
  0
CLASS
  1
ACMFCFSTANDARDJIS98
  2
AcmFCFStdJIS98
  3
"Amdt_StdImp|Product Description: AutoCAD Mechanical 2004 DX|Company: Autodesk"
 90
        0
280
     1
281
     0
  0
CLASS
  1
ACMTHREADLINESTANDARDJIS
  2
AmdtThreadLineStdJIS
  3
"Amdt_StdImp|Product Description: AutoCAD Mechanical 2004 DX|Company: Autodesk"
 90
        0
280
     1
281
     0
  0
CLASS
  1
ACAMGHOLECHARTSTDJIS
  2
AcAmgHoleChartStdJIS
  3
ACMSYMBB_MODULE_NAME
 90
        0
280
     1
281
     0
  0
ENDSEC
  0
SECTION
  2
TABLES
  0
TABLE
  2
VPORT
  5
8
330
0
100
AcDbSymbolTable
 70
     3
  0
VPORT
  5
D785
330
8
100
AcDbSymbolTableRecord
100
AcDbViewportTableRecord
  2
*Active
 70
     0
 10
0.0
 20
0.0
 11
1.0
 21
1.0
 12
76.94473955218012
 22
7.141309676495155
 13
0.0
 23
0.0
 14
2.5
 24
2.5
 15
10.0
 25
10.0
 16
0.0
 26
0.0
 36
1.0
 17
0.0
 27
0.0
 37
0.0
 40
379.327889551603
 41
1.943262411347518
 42
50.0
 43
0.0
 44
0.0
 50
0.0
 51
0.0
 71
    16
 72
  2000
 73
     1
 74
     3
 75
     0
 76
     0
 77
     0
 78
     0
281
     0
 65
     1
110
0.0
120
0.0
130
0.0
111
1.0
121
0.0
131
0.0
112
0.0
122
1.0
132
0.0
 79
     0
146
0.0
  0
ENDTAB
  0
TABLE
  2
LTYPE
  5
5
330
0
100
AcDbSymbolTable
 70
    17
  0
LTYPE
  5
14
330
5
100
AcDbSymbolTableRecord
100
AcDbLinetypeTableRecord
  2
ByBlock
 70
     0
  3

 72
    65
 73
     0
 40
0.0
  0
LTYPE
  5
15
330
5
100
AcDbSymbolTableRecord
100
AcDbLinetypeTableRecord
  2
ByLayer
 70
     0
  3

 72
    65
 73
     0
 40
0.0
  0
LTYPE
  5
16
330
5
100
AcDbSymbolTableRecord
100
AcDbLinetypeTableRecord
  2
Continuous
 70
     0
  3
Solid line
 72
    65
 73
     0
 40
0.0
  0
LTYPE
  5
43
330
5
100
AcDbSymbolTableRecord
100
AcDbLinetypeTableRecord
  2
AM_ISO02W050
 70
     0
  3
__ __ __ __ __ __ __ __ __ __ __ __ __ __ __
 72
    65
 73
     2
 40
7.5
 49
6.0
 74
     0
 49
-1.5
 74
     0
  0
LTYPE
  5
44
330
5
100
AcDbSymbolTableRecord
100
AcDbLinetypeTableRecord
  2
AM_ISO08W050
 70
     0
  3
____ . ____ . ____ . ____ . ____ . ____ . ____
 72
    65
 73
     4
 40
18.0
 49
12.0
 74
     0
 49
-1.5
 74
     0
 49
3.0
 74
     0
 49
-1.5
 74
     0
  0
LTYPE
  5
45
330
5
100
AcDbSymbolTableRecord
100
AcDbLinetypeTableRecord
  2
AM_ISO09W050
 70
     0
  3
_____ . . _____ . . _____ . . ____ .. ____
 72
    65
 73
     6
 40
22.5
 49
12.0
 74
     0
 49
-1.5
 74
     0
 49
3.0
 74
     0
 49
-1.5
 74
     0
 49
3.0
 74
     0
 49
-1.5
 74
     0
  0
LTYPE
  5
46
330
5
100
AcDbSymbolTableRecord
100
AcDbLinetypeTableRecord
  2
Amconstr
 70
     0
  3
_______________________
 72
    65
 73
     2
 40
9999.0
 49
9999.0
 74
     0
 49
0.0
 74
     0
  0
LTYPE
  5
47
330
5
100
AcDbSymbolTableRecord
100
AcDbLinetypeTableRecord
  2
AM_ISO02W050x2
 70
     0
  3
 _ _ _ _ _ _ _ _ _ _ _ _
 72
    65
 73
     2
 40
3.75
 49
3.0
 74
     0
 49
-0.75
 74
     0
  0
LTYPE
  5
48
330
5
100
AcDbSymbolTableRecord
100
AcDbLinetypeTableRecord
  2
AM_ISO08W050x2
 70
     0
  3
__ . __ . __ . __ . __ . __
 72
    65
 73
     4
 40
9.0
 49
6.0
 74
     0
 49
-0.75
 74
     0
 49
1.5
 74
     0
 49
-0.75
 74
     0
  0
LTYPE
  5
4B
330
5
100
AcDbSymbolTableRecord
100
AcDbLinetypeTableRecord
  2
Amzigzag
 70
     0
  3
/\/-/\/-/\/-/\/-/\/-/\/
 72
    65
 73
     2
 40
11.0001
 49
0.0001
 74
     4
 75
   135
340
4A
 46
0.04
 50
0.0
 44
0.0
 45
0.0
 49
-11.0
 74
     0
  0
LTYPE
  5
188
330
5
100
AcDbSymbolTableRecord
100
AcDbLinetypeTableRecord
  2
ACJISTGB
 70
     0
  3
__ . . __ . .
 72
    65
 73
     6
 40
9.0
 49
4.0
 74
     0
 49
-1.0
 74
     0
 49
1.0
 74
     0
 49
-1.0
 74
     0
 49
1.0
 74
     0
 49
-1.0
 74
     0
  0
LTYPE
  5
189
330
5
100
AcDbSymbolTableRecord
100
AcDbLinetypeTableRecord
  2
ACJISTGL
 70
     0
  3
_ _ _ _ _
 72
    65
 73
     2
 40
3.0
 49
2.0
 74
     0
 49
-1.0
 74
     0
  0
LTYPE
  5
652
330
5
100
AcDbSymbolTableRecord
100
AcDbLinetypeTableRecord
  2
CENTER
 70
     0
  3
____ _ ____ _ ____ _ ____ _ ____ _ ____ _ ____
 72
    65
 73
     4
 40
17.5
 49
13.0
 74
     0
 49
-1.5
 74
     0
 49
1.5
 74
     0
 49
-1.5
 74
     0
  0
LTYPE
  5
12AB
330
5
100
AcDbSymbolTableRecord
100
AcDbLinetypeTableRecord
  2
HIDDEN
 70
     0
  3
Hidden __ __ __ __ __ __ __ __ __ __ __ __ __ _
 72
    65
 73
     2
 40
0.375
 49
0.25
 74
     0
 49
-0.125
 74
     0
  0
LTYPE
  5
12AC
330
5
100
AcDbSymbolTableRecord
100
AcDbLinetypeTableRecord
  2
PHANTOM2
 70
     0
  3
Phantom (.5x) ___ _ _ ___ _ _ ___ _ _ ___ _ _
 72
    65
 73
     6
 40
1.25
 49
0.625
 74
     0
 49
-0.125
 74
     0
 49
0.125
 74
     0
 49
-0.125
 74
     0
 49
0.125
 74
     0
 49
-0.125
 74
     0
  0
LTYPE
  5
9D39
330
5
100
AcDbSymbolTableRecord
100
AcDbLinetypeTableRecord
  2
ACISOWELD
 70
     0
  3
_ _ _ _ _
 72
    65
 73
     2
 40
2.0
 49
2.0
 74
     0
 49
-1.0
 74
     0
  0
LTYPE
  5
9D3A
330
5
100
AcDbSymbolTableRecord
100
AcDbLinetypeTableRecord
  2
ACISOTGB
 70
     0
  3
__ . . __ . .
 72
    65
 73
     6
 40
9.0
 49
4.0
 74
     0
 49
-1.0
 74
     0
 49
1.0
 74
     0
 49
-1.0
 74
     0
 49
1.0
 74
     0
 49
-1.0
 74
     0
  0
LTYPE
  5
9D3B
330
5
100
AcDbSymbolTableRecord
100
AcDbLinetypeTableRecord
  2
ACISOTGL
 70
     0
  3
_ _ _ _ _
 72
    65
 73
     2
 40
3.0
 49
2.0
 74
     0
 49
-1.0
 74
     0
  0
LTYPE
  5
9EDB
330
5
100
AcDbSymbolTableRecord
100
AcDbLinetypeTableRecord
  2
ACJISWELD
 70
     0
  3
_ _ _ _ _
 72
    65
 73
     2
 40
2.0
 49
2.0
 74
     0
 49
-1.0
 74
     0
  0
ENDTAB
  0
TABLE
  2
LAYER
  5
2
102
{ACAD_XDICTIONARY
360
A0C0
102
}
330
0
100
AcDbSymbolTable
 70
     7
  0
LAYER
  5
10
330
2
100
AcDbSymbolTableRecord
100
AcDbLayerTableRecord
  2
0
 70
     0
 62
     7
  6
Continuous
370
    -3
390
F
  0
LAYER
  5
7D
330
2
100
AcDbSymbolTableRecord
100
AcDbLayerTableRecord
  2
AM_5
 70
     0
 62
     3
  6
Continuous
370
    13
390
F
  0
LAYER
  5
7F
330
2
100
AcDbSymbolTableRecord
100
AcDbLayerTableRecord
  2
Defpoints
 70
     0
 62
     7
  6
Continuous
290
     0
370
    -3
390
F
  0
LAYER
  5
12B1
330
2
100
AcDbSymbolTableRecord
100
AcDbLayerTableRecord
  2
AM_0
 70
     0
 62
     7
  6
Continuous
370
    30
390
F
  0
LAYER
  5
1896
330
2
100
AcDbSymbolTableRecord
100
AcDbLayerTableRecord
  2
AM_7
 70
     0
 62
     4
  6
AM_ISO08W050
370
    13
390
F
  0
LAYER
  5
1898
330
2
100
AcDbSymbolTableRecord
100
AcDbLayerTableRecord
  2
AM_3
 70
     0
 62
     6
  6
AM_ISO02W050
370
    13
390
F
  0
ENDTAB
  0
TABLE
  2
STYLE
  5
3
330
0
100
AcDbSymbolTable
 70
     6
  0
STYLE
  5
11
330
3
100
AcDbSymbolTableRecord
100
AcDbTextStyleTableRecord
  2
STANDARD
 70
     0
 40
0.0
 41
1.0
 50
0.0
 71
     0
 42
3.15
  3
ISOCP.SHX
  4
EXTFONT.SHX
  0
STYLE
  5
4A
330
3
100
AcDbSymbolTableRecord
100
AcDbTextStyleTableRecord
  2

 70
     1
 40
0.0
 41
1.0
 50
0.0
 71
     0
 42
2.5
  3
ltypeshp.shx
  4

  0
STYLE
  5
180
330
3
100
AcDbSymbolTableRecord
100
AcDbTextStyleTableRecord
  2
ACJISTS
 70
     0
 40
1.0
 41
1.0
 50
0.0
 71
     0
 42
2.5
  3
isocp.shx
  4
bigfont.shx
  0
STYLE
  5
187
330
3
100
AcDbSymbolTableRecord
100
AcDbTextStyleTableRecord
  2
ACJISGDT
 70
     0
 40
0.0
 41
1.0
 50
0.0
 71
     0
 42
2.5
  3
amgdt.shx
  4

  0
STYLE
  5
9D2B
330
3
100
AcDbSymbolTableRecord
100
AcDbTextStyleTableRecord
  2
ACISOTS
 70
     0
 40
1.0
 41
1.0
 50
0.0
 71
     0
 42
3.15
  3
isocp.shx
  4
extfont.shx
  0
STYLE
  5
9D38
330
3
100
AcDbSymbolTableRecord
100
AcDbTextStyleTableRecord
  2
ACISOGDT
 70
     0
 40
0.0
 41
1.0
 50
0.0
 71
     0
 42
3.15
  3
amgdt.shx
  4

  0
ENDTAB
  0
TABLE
  2
VIEW
  5
6
330
0
100
AcDbSymbolTable
 70
     6
  0
VIEW
  5
A30
330
6
100
AcDbSymbolTableRecord
100
AcDbViewTableRecord
  2
AM_VIEW1
 70
     0
 40
148.5
 10
108.6929657794677
 20
222.75
 41
217.3859315589354
 11
0.0
 21
0.0
 31
1.0
 12
0.0
 22
0.0
 32
0.0
 42
50.0
 43
0.0
 44
0.0
 50
0.0
 71
    16
281
     0
 72
     0
  0
VIEW
  5
A31
330
6
100
AcDbSymbolTableRecord
100
AcDbViewTableRecord
  2
AM_VIEW2
 70
     0
 40
148.5
 10
311.3070342205323
 20
222.75
 41
217.3859315589354
 11
0.0
 21
0.0
 31
1.0
 12
0.0
 22
0.0
 32
0.0
 42
50.0
 43
0.0
 44
0.0
 50
0.0
 71
    16
281
     0
 72
     0
  0
VIEW
  5
A32
330
6
100
AcDbSymbolTableRecord
100
AcDbViewTableRecord
  2
AM_VIEW3
 70
     0
 40
148.5
 10
108.6929657794677
 20
74.25
 41
217.3859315589354
 11
0.0
 21
0.0
 31
1.0
 12
0.0
 22
0.0
 32
0.0
 42
50.0
 43
0.0
 44
0.0
 50
0.0
 71
    16
281
     0
 72
     0
  0
VIEW
  5
A33
330
6
100
AcDbSymbolTableRecord
100
AcDbViewTableRecord
  2
AM_VIEW4
 70
     0
 40
148.5
 10
311.3070342205323
 20
74.25
 41
217.3859315589354
 11
0.0
 21
0.0
 31
1.0
 12
0.0
 22
0.0
 32
0.0
 42
50.0
 43
0.0
 44
0.0
 50
0.0
 71
    16
281
     0
 72
     0
  0
VIEW
  5
A34
330
6
100
AcDbSymbolTableRecord
100
AcDbViewTableRecord
  2
AM_VIEW5
 70
     0
 40
148.5
 10
210.0
 20
148.5
 41
217.3859315589353
 11
0.0
 21
0.0
 31
1.0
 12
0.0
 22
0.0
 32
0.0
 42
50.0
 43
0.0
 44
0.0
 50
0.0
 71
    16
281
     0
 72
     0
  0
VIEW
  5
A35
330
6
100
AcDbSymbolTableRecord
100
AcDbViewTableRecord
  2
AM_VIEW6
 70
     0
 40
296.99703
 10
210.0
 20
148.5
 41
434.7675153992395
 11
0.0
 21
0.0
 31
1.0
 12
0.0
 22
0.0
 32
0.0
 42
50.0
 43
0.0
 44
0.0
 50
0.0
 71
    16
281
     0
 72
     0
  0
ENDTAB
  0
TABLE
  2
UCS
  5
7
330
0
100
AcDbSymbolTable
 70
     0
  0
ENDTAB
  0
TABLE
  2
APPID
  5
9
330
0
100
AcDbSymbolTable
 70
    47
  0
APPID
  5
12
330
9
100
AcDbSymbolTableRecord
100
AcDbRegAppTableRecord
  2
ACAD
 70
     0
  0
APPID
  5
2C
330
9
100
AcDbSymbolTableRecord
100
AcDbRegAppTableRecord
  2
MCAD_NO_VIS
 70
     0
  0
APPID
  5
2D
330
9
100
AcDbSymbolTableRecord
100
AcDbRegAppTableRecord
  2
ACAD_TEMP_GRAPHIC
 70
     0
  0
APPID
  5
B9
330
9
100
AcDbSymbolTableRecord
100
AcDbRegAppTableRecord
  2
GENIUS_GENDTOL_13
 70
     0
  0
APPID
  5
359
330
9
100
AcDbSymbolTableRecord
100
AcDbRegAppTableRecord
  2
GENIUS_GENREC_14
 70
     0
  0
APPID
  5
35A
330
9
100
AcDbSymbolTableRecord
100
AcDbRegAppTableRecord
  2
GENIUS_GENODEF_13
 70
     0
  0
APPID
  5
35B
330
9
100
AcDbSymbolTableRecord
100
AcDbRegAppTableRecord
  2
GENIUS_GENOBJ-N-REC_13
 70
     0
  0
APPID
  5
667
330
9
100
AcDbSymbolTableRecord
100
AcDbRegAppTableRecord
  2
GENIUS_GENCFG_13
 70
     0
1001
GENIUS_GENCFG0_13
1000
GEN
  0
APPID
  5
668
330
9
100
AcDbSymbolTableRecord
100
AcDbRegAppTableRecord
  2
GENIUS_GENCFG0_13
 70
     0
1001
GENIUS_GENCFG_13
1071
1094015123
1000
668
1000
GEN
1070
     0
  0
APPID
  5
669
330
9
100
AcDbSymbolTableRecord
100
AcDbRegAppTableRecord
  2
GENIUS_GENCFG1_13
 70
     0
  0
APPID
  5
66A
330
9
100
AcDbSymbolTableRecord
100
AcDbRegAppTableRecord
  2
GENIUS_GENCFG2_13
 70
     0
  0
APPID
  5
66B
330
9
100
AcDbSymbolTableRecord
100
AcDbRegAppTableRecord
  2
GENIUS_GENCFG3_13
 70
     0
  0
APPID
  5
66C
330
9
100
AcDbSymbolTableRecord
100
AcDbRegAppTableRecord
  2
GENIUS_GENCFG4_13
 70
     0
  0
APPID
  5
A76
330
9
100
AcDbSymbolTableRecord
100
AcDbRegAppTableRecord
  2
GENIUS_GENBLLY_14
 70
     0
  0
APPID
  5
A77
330
9
100
AcDbSymbolTableRecord
100
AcDbRegAppTableRecord
  2
GENIUS_GENOBJ-N-CEN_13
 70
     0
  0
APPID
  5
A83
330
9
100
AcDbSymbolTableRecord
100
AcDbRegAppTableRecord
  2
GENIUS_GENTRA_14
 70
     0
  0
APPID
  5
A8D
330
9
100
AcDbSymbolTableRecord
100
AcDbRegAppTableRecord
  2
GENIUS_GENOBJ-N-TIT_13
 70
     0
  0
APPID
  5
A8E
330
9
100
AcDbSymbolTableRecord
100
AcDbRegAppTableRecord
  2
GENIUS_GENTITLE_13
 70
     0
  0
APPID
  5
A8F
330
9
100
AcDbSymbolTableRecord
100
AcDbRegAppTableRecord
  2
GENIUS_GENOENT_13
 70
     0
  0
APPID
  5
A90
330
9
100
AcDbSymbolTableRecord
100
AcDbRegAppTableRecord
  2
GENIUS_GENOREF_13
 70
     0
  0
APPID
  5
A91
330
9
100
AcDbSymbolTableRecord
100
AcDbRegAppTableRecord
  2
GENIUS_GENOLIS_13
 70
     0
  0
APPID
  5
A92
330
9
100
AcDbSymbolTableRecord
100
AcDbRegAppTableRecord
  2
GENIUS_GENZVEED_13
 70
     0
  0
APPID
  5
A93
330
9
100
AcDbSymbolTableRecord
100
AcDbRegAppTableRecord
  2
GENIUS_GENSCREG_15
 70
     0
  0
APPID
  5
A94
330
9
100
AcDbSymbolTableRecord
100
AcDbRegAppTableRecord
  2
GENIUS_GENOBJ-N-SDF_13
 70
     0
  0
APPID
  5
12B5
330
9
100
AcDbSymbolTableRecord
100
AcDbRegAppTableRecord
  2
GENIUS_GENOBJ-N-RSBK_13
 70
     0
  0
APPID
  5
12B6
330
9
100
AcDbSymbolTableRecord
100
AcDbRegAppTableRecord
  2
GENIUS_GENOBJ-N-LIB_13
 70
     0
  0
APPID
  5
12B7
330
9
100
AcDbSymbolTableRecord
100
AcDbRegAppTableRecord
  2
GENIUS_GENSCALE_13
 70
     0
  0
APPID
  5
12B8
330
9
100
AcDbSymbolTableRecord
100
AcDbRegAppTableRecord
  2
GENIUS_GENOBJ-N-HTC_13
 70
     0
  0
APPID
  5
12B9
330
9
100
AcDbSymbolTableRecord
100
AcDbRegAppTableRecord
  2
GENIUS_GENHATCH_13
 70
     0
  0
APPID
  5
189B
330
9
100
AcDbSymbolTableRecord
100
AcDbRegAppTableRecord
  2
BASE_TYPE
 70
     0
  0
APPID
  5
189C
330
9
100
AcDbSymbolTableRecord
100
AcDbRegAppTableRecord
  2
GENIUS_GENOBJ-N-FIL_13
 70
     0
  0
APPID
  5
23D0
330
9
100
AcDbSymbolTableRecord
100
AcDbRegAppTableRecord
  2
ACATTRIBSERVICES
 70
     0
  0
APPID
  5
264C
330
9
100
AcDbSymbolTableRecord
100
AcDbRegAppTableRecord
  2
GENIUS_GENSCREG_13
 70
     0
  0
APPID
  5
26E5
330
9
100
AcDbSymbolTableRecord
100
AcDbRegAppTableRecord
  2
CONTENTBLOCKICON
 70
     0
  0
APPID
  5
2747
330
9
100
AcDbSymbolTableRecord
100
AcDbRegAppTableRecord
  2
GENIUS_GENFIL_13
 70
     0
  0
APPID
  5
2748
330
9
100
AcDbSymbolTableRecord
100
AcDbRegAppTableRecord
  2
GENIUS_GENOBJ-N-CHA_13
 70
     0
  0
APPID
  5
2749
330
9
100
AcDbSymbolTableRecord
100
AcDbRegAppTableRecord
  2
GENIUS_GENDIMSH_14
 70
     0
  0
APPID
  5
274A
330
9
100
AcDbSymbolTableRecord
100
AcDbRegAppTableRecord
  2
GENIUS_GENOBJ-N-DIM_13
 70
     0
  0
APPID
  5
274B
330
9
100
AcDbSymbolTableRecord
100
AcDbRegAppTableRecord
  2
GENIUS_GENDIM_13
 70
     0
  0
APPID
  5
2A08
330
9
100
AcDbSymbolTableRecord
100
AcDbRegAppTableRecord
  2
GENIUS_GENOBJ-N-CRS_13
 70
     0
  0
APPID
  5
9CFE
330
9
100
AcDbSymbolTableRecord
100
AcDbRegAppTableRecord
  2
AD_DRAW
 70
     0
  0
APPID
  5
9D1C
330
9
100
AcDbSymbolTableRecord
100
AcDbRegAppTableRecord
  2
DESIGNERASSEMBLIES
 70
     0
  0
APPID
  5
9D21
330
9
100
AcDbSymbolTableRecord
100
AcDbRegAppTableRecord
  2
ACADM_DIM_EDIT
 70
     0
  0
APPID
  5
9D22
330
9
100
AcDbSymbolTableRecord
100
AcDbRegAppTableRecord
  2
AMDT_DM_ADJ
 70
     0
  0
APPID
  5
9EDC
330
9
100
AcDbSymbolTableRecord
100
AcDbRegAppTableRecord
  2
ACAD_DSTYLE_DIMTEXT_FILL
 70
     0
  0
APPID
  5
9EDD
330
9
100
AcDbSymbolTableRecord
100
AcDbRegAppTableRecord
  2
ACAD_PSEXT
 70
     0
  0
APPID
  5
A13E
330
9
100
AcDbSymbolTableRecord
100
AcDbRegAppTableRecord
  2
GENIUS_GENCEN_19
 70
     0
  0
ENDTAB
  0
TABLE
  2
DIMSTYLE
  5
A
330
0
100
AcDbSymbolTable
 70
    17
100
AcDbDimStyleTable
  0
DIMSTYLE
105
58
330
A
100
AcDbSymbolTableRecord
100
AcDbDimStyleTableRecord
  2
AM_JIS
 70
     0
  4
"
 41
2.5
 42
0.0
 43
10.0
 44
1.0
 47
0.1
 48
0.1000000001
 73
     0
 74
     0
 77
     3
 78
     1
 79
     2
140
3.8
141
0.0
143
0.0393701
146
0.71
147
1.5
172
     1
176
   256
177
   256
178
     2
179
     2
271
     3
272
     3
275
     1
283
     0
284
     8
340
11
341
59
342
59
371
    -1
372
    -1
  0
DIMSTYLE
105
5F
330
A
100
AcDbSymbolTableRecord
100
AcDbDimStyleTableRecord
  2
AM_JIS$3
 70
     0
  4
"
 41
2.5
 42
0.0
 43
10.0
 44
1.0
 47
0.1
 48
0.1000000001
 73
     0
 77
     3
 78
     1
 79
     2
140
3.8
141
0.0
143
0.0393701
146
0.71
147
1.5
172
     1
176
   256
177
   256
178
     2
179
     2
271
     3
272
     3
275
     1
283
     0
284
     8
288
     1
289
     0
340
11
341
59
342
59
371
    -1
372
    -1
  0
DIMSTYLE
105
60
330
A
100
AcDbSymbolTableRecord
100
AcDbDimStyleTableRecord
  2
AM_JIS$4
 70
     0
  4
"
 41
2.5
 42
0.0
 43
10.0
 44
1.0
 47
0.1
 48
0.1000000001
 73
     0
 77
     3
 78
     1
 79
     2
140
3.8
141
0.0
143
0.0393701
146
0.71
147
1.5
172
     1
176
   256
177
   256
178
     2
179
     2
271
     3
272
     3
275
     1
283
     0
284
     8
288
     1
289
     0
340
11
341
59
342
59
371
    -1
372
    -1
  0
DIMSTYLE
105
61
330
A
100
AcDbSymbolTableRecord
100
AcDbDimStyleTableRecord
  2
AM_JIS$6
 70
     0
  4
"
 41
2.5
 42
0.0
 43
10.0
 44
1.0
 47
0.1
 48
0.1000000001
 73
     0
 74
     0
 78
     1
 79
     2
140
3.8
141
0.0
143
0.0393701
146
0.71
147
1.5
172
     1
176
   256
177
   256
178
     2
179
     2
271
     3
272
     3
275
     1
283
     0
284
     8
340
11
341
59
342
59
371
    -1
372
    -1
  0
DIMSTYLE
105
62
330
A
100
AcDbSymbolTableRecord
100
AcDbDimStyleTableRecord
  2
AM_JIS$7
 70
     0
  4
"
 41
2.5
 42
0.0
 43
10.0
 44
1.0
 47
0.1
 48
0.1000000001
 73
     0
 74
     0
 77
     3
 78
     1
 79
     2
140
5.0
141
0.0
143
0.0393701
146
0.71
147
1.5
172
     1
176
   256
177
   256
178
     2
179
     2
271
     3
272
     3
275
     1
283
     0
284
     8
340
11
341
59
342
59
371
    -1
372
    -1
  0
DIMSTYLE
105
63
330
A
100
AcDbSymbolTableRecord
100
AcDbDimStyleTableRecord
  2
AM_JIS$SF
 70
     0
  4
"
 41
2.5
 42
1.0
 43
10.0
 44
1.0
 47
0.1
 48
0.1
 73
     0
 74
     0
 75
     1
 76
     1
 77
     3
 78
     8
 79
     2
140
3.5
141
0.0
143
0.0393701
146
0.71
147
1.5
176
   256
177
   256
178
     2
271
     2
272
     3
274
     4
340
11
341
59
342
59
343
59
344
59
371
    -1
372
    -1
  0
DIMSTYLE
105
68
330
A
100
AcDbSymbolTableRecord
100
AcDbDimStyleTableRecord
  2
AM_JIS$SH
 70
     0
  4
"
 41
2.5
 42
1.0
 43
10.0
 44
1.0
 47
0.1
 48
0.1
 73
     0
 74
     0
 75
     1
 76
     1
 77
     3
 78
     8
 79
     2
140
3.5
141
0.0
143
0.0393701
144
2.0
146
0.71
147
1.5
173
     1
176
   256
177
   256
178
     2
271
     2
272
     3
274
     4
340
11
341
59
342
59
343
64
344
59
371
    -1
372
    -1
  0
DIMSTYLE
105
65F
330
A
100
AcDbSymbolTableRecord
100
AcDbDimStyleTableRecord
  2
STANDARD
 70
     0
340
11
  0
DIMSTYLE
105
1899
102
{ACAD_REACTORS
330
7A0E
330
A507
330
B06A
102
}
330
A
100
AcDbSymbolTableRecord
100
AcDbDimStyleTableRecord
  2
AM_JIS$0
 70
     0
  4
"
 41
2.5
 42
0.0
 43
10.0
 44
1.0
 47
0.1
 48
0.1000000001
 73
     0
 74
     0
 77
     3
 78
     1
 79
     2
140
3.8
141
0.0
143
0.0393701
146
0.71
147
1.5
172
     1
176
     3
177
     3
178
     2
271
     3
272
     3
275
     1
283
     0
284
     8
289
     0
340
11
341
59
342
59
371
    13
372
    13
  0
DIMSTYLE
105
189A
102
{ACAD_REACTORS
330
B06B
102
}
330
A
100
AcDbSymbolTableRecord
100
AcDbDimStyleTableRecord
  2
AM_JIS$2
 70
     0
  4
"
 41
2.5
 42
0.0
 43
10.0
 44
1.0
 47
0.1
 48
0.1000000001
 73
     0
 74
     0
 77
     3
 78
     1
 79
     2
140
3.8
141
0.0
143
0.0393701
146
0.71
147
1.5
172
     1
176
     3
177
     3
178
     2
179
     3
271
     3
272
     3
275
     1
283
     0
284
     8
289
     0
340
11
341
59
342
59
371
    13
372
    13
  0
DIMSTYLE
105
9D44
330
A
100
AcDbSymbolTableRecord
100
AcDbDimStyleTableRecord
  2
AM_ISO
 70
     0
  4
"
 41
2.5
 42
1.0
 43
10.0
 44
1.0
 47
0.1
 48
0.1
 73
     0
 74
     0
 77
     1
 78
     8
 79
     2
140
3.5
141
0.0
143
0.0393701
146
0.71
147
1.5
172
     1
176
   256
177
   256
178
     2
271
     2
272
     3
274
     4
283
     0
284
     8
340
11
371
    -1
372
    -1
  0
DIMSTYLE
105
9D45
330
A
100
AcDbSymbolTableRecord
100
AcDbDimStyleTableRecord
  2
AM_ISO$3
 70
     0
  4
"
 41
2.5
 42
1.0
 43
10.0
 44
1.0
 47
0.1
 48
0.1
 73
     0
 77
     1
 78
     8
 79
     2
140
3.5
141
0.0
143
0.0393701
146
0.71
147
1.5
176
   256
177
   256
178
     2
271
     2
272
     3
274
     4
283
     0
284
     8
288
     1
289
     0
340
11
371
    -1
372
    -1
  0
DIMSTYLE
105
9D46
330
A
100
AcDbSymbolTableRecord
100
AcDbDimStyleTableRecord
  2
AM_ISO$4
 70
     0
  4
"
 41
2.5
 42
1.0
 43
10.0
 44
1.0
 47
0.1
 48
0.1
 73
     0
 77
     1
 78
     8
 79
     2
140
3.5
141
0.0
143
0.0393701
146
0.71
147
1.5
176
   256
177
   256
178
     2
271
     2
272
     3
274
     4
283
     0
284
     8
288
     1
289
     0
340
11
371
    -1
372
    -1
  0
DIMSTYLE
105
9D47
330
A
100
AcDbSymbolTableRecord
100
AcDbDimStyleTableRecord
  2
AM_ISO$6
 70
     0
  4
"
 41
2.5
 42
1.0
 43
10.0
 44
1.0
 47
0.1
 48
0.1
 73
     0
 74
     0
 78
     8
 79
     2
140
3.5
141
0.0
143
0.0393701
146
0.71
147
1.5
172
     1
176
   256
177
   256
178
     2
271
     2
272
     3
274
     4
283
     0
284
     8
340
11
371
    -1
372
    -1
  0
DIMSTYLE
105
9D48
330
A
100
AcDbSymbolTableRecord
100
AcDbDimStyleTableRecord
  2
AM_ISO$7
 70
     0
  4
"
 41
2.5
 42
1.0
 43
10.0
 44
1.0
 47
0.1
 48
0.1
 73
     0
 74
     0
 77
     1
 78
     8
 79
     2
140
5.0
141
0.0
143
0.0393701
146
0.71
147
1.5
172
     1
176
   256
177
   256
178
     2
271
     2
272
     3
274
     4
283
     0
284
     8
340
11
371
    -1
372
    -1
  0
DIMSTYLE
105
9D49
330
A
100
AcDbSymbolTableRecord
100
AcDbDimStyleTableRecord
  2
AM_ISO$SF
 70
     0
  4
"
 41
2.5
 42
1.0
 43
10.0
 44
1.0
 47
0.1
 48
0.1
 73
     0
 74
     0
 75
     1
 76
     1
 77
     1
 78
     8
 79
     2
140
3.5
141
0.0
143
0.0393701
146
0.71
147
1.5
172
     1
176
   256
177
   256
178
     2
271
     2
272
     3
274
     4
283
     0
284
     8
340
11
371
    -1
372
    -1
  0
DIMSTYLE
105
9D4A
330
A
100
AcDbSymbolTableRecord
100
AcDbDimStyleTableRecord
  2
AM_ISO$SH
 70
     0
  4
"
 41
2.5
 42
1.0
 43
10.0
 44
1.0
 47
0.1
 48
0.1
 73
     0
 74
     0
 75
     1
 76
     1
 77
     1
 78
     8
 79
     2
140
3.5
141
0.0
143
0.0393701
144
2.0
146
0.71
147
1.5
172
     1
173
     1
176
   256
177
   256
178
     2
271
     2
272
     3
274
     4
283
     0
284
     8
340
11
343
64
371
    -1
372
    -1
  0
ENDTAB
  0
TABLE
  2
BLOCK_RECORD
  5
1
330
0
100
AcDbSymbolTable
 70
     8
  0
BLOCK_RECORD
  5
1F
102
{ACAD_XDICTIONARY
360
165
102
}
330
1
100
AcDbSymbolTableRecord
100
AcDbBlockTableRecord
  2
*Model_Space
340
22
  0
BLOCK_RECORD
  5
1B
102
{ACAD_XDICTIONARY
360
264F
102
}
330
1
100
AcDbSymbolTableRecord
100
AcDbBlockTableRecord
  2
*Paper_Space
340
1E
  0
BLOCK_RECORD
  5
23
102
{ACAD_XDICTIONARY
360
2651
102
}
330
1
100
AcDbSymbolTableRecord
100
AcDbBlockTableRecord
  2
*Paper_Space0
340
26
  0
BLOCK_RECORD
  5
59
330
1
100
AcDbSymbolTableRecord
100
AcDbBlockTableRecord
  2
_Open30
340
0
102
{BLKREFS
331
D705
331
D706
331
D70E
331
D70F
331
D717
331
D718
331
D720
331
D721
102
}
  0
BLOCK_RECORD
  5
64
330
1
100
AcDbSymbolTableRecord
100
AcDbBlockTableRecord
  2
GENAXEH
340
0
  0
BLOCK_RECORD
  5
7A0F
330
1
100
AcDbSymbolTableRecord
100
AcDbBlockTableRecord
  2
*D3
340
0
  0
BLOCK_RECORD
  5
9D13
330
1
100
AcDbSymbolTableRecord
100
AcDbBlockTableRecord
  2
*U4
340
0
  0
BLOCK_RECORD
  5
A682
330
1
100
AcDbSymbolTableRecord
100
AcDbBlockTableRecord
  2
*D5
340
0
  0
BLOCK_RECORD
  5
B0F8
330
1
100
AcDbSymbolTableRecord
100
AcDbBlockTableRecord
  2
*D6
340
0
  0
BLOCK_RECORD
  5
B102
330
1
100
AcDbSymbolTableRecord
100
AcDbBlockTableRecord
  2
*D7
340
0
  0
ENDTAB
  0
ENDSEC
  0
SECTION
  2
BLOCKS
  0
BLOCK
  5
20
330
1F
100
AcDbEntity
  8
0
100
AcDbBlockBegin
  2
*Model_Space
 70
     0
 71
     0
 10
0.0
 20
0.0
 30
0.0
  3
*Model_Space
  1

  0
ENDBLK
  5
21
330
1F
100
AcDbEntity
  8
0
100
AcDbBlockEnd
  0
BLOCK
  5
1C
330
1B
100
AcDbEntity
 67
     1
  8
0
100
AcDbBlockBegin
  2
*Paper_Space
 70
     0
 71
     0
 10
0.0
 20
0.0
 30
0.0
  3
*Paper_Space
  1

  0
ENDBLK
  5
1D
330
1B
100
AcDbEntity
 67
     1
  8
0
100
AcDbBlockEnd
  0
BLOCK
  5
24
330
23
100
AcDbEntity
  8
0
100
AcDbBlockBegin
  2
*Paper_Space0
 70
     0
 71
     0
 10
0.0
 20
0.0
 30
0.0
  3
*Paper_Space0
  1

  0
ENDBLK
  5
25
330
23
100
AcDbEntity
  8
0
100
AcDbBlockEnd
  0
BLOCK
  5
2F22
330
59
100
AcDbEntity
  8
0
100
AcDbBlockBegin
  2
_Open30
 70
     0
 71
     0
 10
0.0
 20
0.0
 30
0.0
  3
_Open30
  1

  0
LINE
  5
2F1F
330
59
100
AcDbEntity
  8
0
 62
     0
370
    -2
100
AcDbLine
 10
-1.0
 20
0.26794919
 30
0.0
 11
0.0
 21
0.0
 31
0.0
  0
LINE
  5
2F20
330
59
100
AcDbEntity
  8
0
 62
     0
370
    -2
100
AcDbLine
 10
0.0
 20
0.0
 30
0.0
 11
-1.0
 21
-0.26794919
 31
0.0
  0
LINE
  5
2F21
330
59
100
AcDbEntity
  8
0
 62
     0
370
    -2
100
AcDbLine
 10
0.0
 20
0.0
 30
0.0
 11
-1.0
 21
0.0
 31
0.0
  0
ENDBLK
  5
2F23
330
59
100
AcDbEntity
  8
0
100
AcDbBlockEnd
  0
BLOCK
  5
2F2E
330
64
100
AcDbEntity
  8
0
100
AcDbBlockBegin
  2
GENAXEH
 70
     0
 71
     0
 10
0.0
 20
0.0
 30
0.0
  3
GENAXEH
  1

  0
LINE
  5
2F2D
330
64
100
AcDbEntity
  8
0
100
AcDbLine
 10
-1.0
 20
0.0
 30
0.0
 11
1.0
 21
0.0
 31
0.0
  0
ENDBLK
  5
2F2F
330
64
100
AcDbEntity
  8
0
100
AcDbBlockEnd
  0
BLOCK
  5
7A19
330
7A0F
100
AcDbEntity
  8
0
100
AcDbBlockBegin
  2
*D3
 70
     1
 71
     0
 10
0.0
 20
0.0
 30
0.0
  3
*D3
  1

  0
LINE
  5
D702
330
7A0F
100
AcDbEntity
  8
AM_5
 62
     3
370
    13
100
AcDbLine
 10
0.0
 20
0.0
 30
0.0
 11
-0.0000000000000021
 21
-33.72163889869594
 31
0.0
  0
LINE
  5
D703
330
7A0F
100
AcDbEntity
  8
AM_5
 62
     3
370
    13
100
AcDbLine
 10
65.00836431697002
 20
13.50017594134434
 30
0.0
 11
65.00836431697002
 21
-33.72163889869594
 31
0.0
  0
LINE
  5
D704
330
7A0F
100
AcDbEntity
  8
AM_5
 62
     3
370
    13
100
AcDbLine
 10
2.499999999999998
 20
-32.72163889869594
 30
0.0
 11
62.50836431697002
 21
-32.72163889869594
 31
0.0
  0
INSERT
  5
D705
330
7A0F
100
AcDbEntity
  8
AM_5
 62
     3
370
    13
100
AcDbBlockReference
  2
_Open30
 10
-0.000000000000002
 20
-32.72163889869594
 30
0.0
 41
2.5
 42
2.5
 43
2.5
 50
180.0
  0
INSERT
  5
D706
330
7A0F
100
AcDbEntity
  8
AM_5
 62
     3
370
    13
100
AcDbBlockReference
  2
_Open30
 10
65.00836431697002
 20
-32.72163889869594
 30
0.0
 41
2.5
 42
2.5
 43
2.5
  0
MTEXT
  5
D707
330
7A0F
100
AcDbEntity
  8
AM_5
 62
     2
100
AcDbMText
 10
32.50418215848501
 20
-29.32163889869594
 30
0.0
 40
3.8
 41
0.0
 71
     5
 72
     1
  1
65
 73
     1
 44
1.0
  0
POINT
  5
D708
330
7A0F
100
AcDbEntity
  8
Defpoints
 62
     0
100
AcDbPoint
 10
0.0
 20
0.0
 30
0.0
  0
POINT
  5
D709
330
7A0F
100
AcDbEntity
  8
Defpoints
 62
     0
100
AcDbPoint
 10
65.00836431697002
 20
13.50017594134434
 30
0.0
  0
POINT
  5
D70A
330
7A0F
100
AcDbEntity
  8
Defpoints
 62
     0
100
AcDbPoint
 10
65.00836431697002
 20
-32.72163889869594
 30
0.0
  0
ENDBLK
  5
7A1A
330
7A0F
100
AcDbEntity
  8
0
100
AcDbBlockEnd
  0
BLOCK
  5
9D14
330
9D13
100
AcDbEntity
  8
0
100
AcDbBlockBegin
  2
*U4
 70
     1
 71
     0
 10
0.0
 20
0.0
 30
0.0
  3
*U4
  1

  0
ENDBLK
  5
9D15
330
9D13
100
AcDbEntity
  8
0
100
AcDbBlockEnd
  0
BLOCK
  5
A6FB
330
A682
100
AcDbEntity
  8
0
100
AcDbBlockBegin
  2
*D5
 70
     1
 71
     0
 10
0.0
 20
0.0
 30
0.0
  3
*D5
  1

  0
LINE
  5
D70B
330
A682
100
AcDbEntity
  8
AM_5
 62
     3
370
    13
100
AcDbLine
 10
64.70836431697012
 20
76.50017594134421
 30
0.0
 11
123.8523436000096
 21
76.5001759413442
 31
0.0
  0
LINE
  5
D70C
330
A682
100
AcDbEntity
  8
AM_5
 62
     3
370
    13
100
AcDbLine
 10
64.70836431697001
 20
13.5001759413444
 30
0.0
 11
123.8523436000096
 21
13.50017594134438
 31
0.0
  0
LINE
  5
D70D
330
A682
100
AcDbEntity
  8
AM_5
 62
     3
370
    13
100
AcDbLine
 10
122.8523436000096
 20
74.0001759413442
 30
0.0
 11
122.8523436000096
 21
16.00017594134438
 31
0.0
  0
INSERT
  5
D70E
330
A682
100
AcDbEntity
  8
AM_5
 62
     3
370
    13
100
AcDbBlockReference
  2
_Open30
 10
122.8523436000096
 20
76.5001759413442
 30
0.0
 41
2.5
 42
2.5
 43
2.5
 50
90.0
  0
INSERT
  5
D70F
330
A682
100
AcDbEntity
  8
AM_5
 62
     3
370
    13
100
AcDbBlockReference
  2
_Open30
 10
122.8523436000096
 20
13.50017594134438
 30
0.0
 41
2.5
 42
2.5
 43
2.5
 50
270.0
  0
MTEXT
  5
D710
330
A682
100
AcDbEntity
  8
AM_5
 62
     2
100
AcDbMText
 10
119.4523436000096
 20
45.00017594134431
 30
0.0
 40
3.8
 41
0.0
 71
     5
 72
     1
  1
%%c63
 11
6.123031769111886E-17
 21
1.0
 31
0.0
 73
     1
 44
1.0
  0
POINT
  5
D711
330
A682
100
AcDbEntity
  8
Defpoints
 62
     0
100
AcDbPoint
 10
64.70836431697012
 20
76.50017594134421
 30
0.0
  0
POINT
  5
D712
330
A682
100
AcDbEntity
  8
Defpoints
 62
     0
100
AcDbPoint
 10
64.70836431697001
 20
13.5001759413444
 30
0.0
  0
POINT
  5
D713
330
A682
100
AcDbEntity
  8
Defpoints
 62
     0
100
AcDbPoint
 10
122.8523436000096
 20
13.50017594134438
 30
0.0
  0
ENDBLK
  5
A6FC
330
A682
100
AcDbEntity
  8
0
100
AcDbBlockEnd
  0
BLOCK
  5
B1B8
330
B0F8
100
AcDbEntity
  8
0
100
AcDbBlockBegin
  2
*D6
 70
     1
 71
     0
 10
0.0
 20
0.0
 30
0.0
  3
*D6
  1

  0
LINE
  5
D714
330
B0F8
100
AcDbEntity
  8
AM_5
 62
     3
370
    13
100
AcDbLine
 10
-5.035678148629813
 20
45.00017594134432
 30
0.0
 11
-19.97031079905638
 21
45.00017594134433
 31
0.0
  0
LINE
  5
D715
330
B0F8
100
AcDbEntity
  8
AM_5
 62
     3
370
    13
100
AcDbLine
 10
0.0
 20
0.0
 30
0.0
 11
-19.97031079905639
 21
0.0000000000000057
 31
0.0
  0
LINE
  5
D716
330
B0F8
100
AcDbEntity
  8
AM_5
 62
     3
370
    13
100
AcDbLine
 10
-18.97031079905638
 20
42.50017594134433
 30
0.0
 11
-18.97031079905639
 21
2.500000000000005
 31
0.0
  0
INSERT
  5
D717
330
B0F8
100
AcDbEntity
  8
AM_5
 62
     3
370
    13
100
AcDbBlockReference
  2
_Open30
 10
-18.97031079905638
 20
45.00017594134433
 30
0.0
 41
2.5
 42
2.5
 43
2.5
 50
90.0
  0
INSERT
  5
D718
330
B0F8
100
AcDbEntity
  8
AM_5
 62
     3
370
    13
100
AcDbBlockReference
  2
_Open30
 10
-18.97031079905639
 20
0.0000000000000054
 30
0.0
 41
2.5
 42
2.5
 43
2.5
 50
270.0
  0
MTEXT
  5
D719
330
B0F8
100
AcDbEntity
  8
AM_5
 62
     2
100
AcDbMText
 10
-22.37031079905639
 20
22.50008797067216
 30
0.0
 40
3.8
 41
0.0
 71
     5
 72
     1
  1
45
 11
6.123031769111886E-17
 21
1.0
 31
0.0
 73
     1
 44
1.0
  0
POINT
  5
D71A
330
B0F8
100
AcDbEntity
  8
Defpoints
 62
     0
100
AcDbPoint
 10
-5.035678148629813
 20
45.00017594134432
 30
0.0
  0
POINT
  5
D71B
330
B0F8
100
AcDbEntity
  8
Defpoints
 62
     0
100
AcDbPoint
 10
0.0
 20
0.0
 30
0.0
  0
POINT
  5
D71C
330
B0F8
100
AcDbEntity
  8
Defpoints
 62
     0
100
AcDbPoint
 10
-18.97031079905639
 20
0.0000000000000054
 30
0.0
  0
ENDBLK
  5
B1B9
330
B0F8
100
AcDbEntity
  8
0
100
AcDbBlockEnd
  0
BLOCK
  5
B1BA
330
B102
100
AcDbEntity
  8
0
100
AcDbBlockBegin
  2
*D7
 70
     1
 71
     0
 10
0.0
 20
0.0
 30
0.0
  3
*D7
  1

  0
LINE
  5
D71D
330
B102
100
AcDbEntity
  8
AM_5
 62
     3
370
    13
100
AcDbLine
 10
0.0
 20
-11.42451778050517
 30
0.0
 11
-0.0000000000000036
 21
-21.80292729650918
 31
0.0
  0
LINE
  5
D71E
330
B102
100
AcDbEntity
  8
AM_5
 62
     3
370
    13
100
AcDbLine
 10
14.68028792452787
 20
0.726214942660051
 30
0.0
 11
21.72995992638728
 21
1.095672596898677
 31
0.0
  0
ARC
  5
D71F
330
B102
100
AcDbEntity
  8
AM_5
 62
     3
370
    13
100
AcDbCircle
 10
0.0000000000000003
 20
-0.0431463465904289
 30
0.0
 40
20.75978094991875
100
AcDbArc
 50
276.9040296906464
 51
356.0959703089267
  0
INSERT
  5
D720
330
B102
100
AcDbEntity
  8
AM_5
 62
     3
370
    13
100
AcDbBlockReference
  2
_Open30
 10
-0.0000000000000018
 20
-20.80292729650918
 30
0.0
 41
2.5
 42
2.5
 43
2.5
 50
183.4520148453232
  0
INSERT
  5
D721
330
B102
100
AcDbEntity
  8
AM_5
 62
     3
370
    13
100
AcDbBlockReference
  2
_Open30
 10
20.73133039163232
 20
1.043336640663171
 30
0.0
 41
2.5
 42
2.5
 43
2.5
 50
89.54798515424993
  0
MTEXT
  5
D722
330
B102
100
AcDbEntity
  8
AM_5
 62
     2
100
AcDbMText
 10
12.5923401874139
 20
-11.99283099655517
 30
0.0
 40
3.8
 41
0.0
 71
     5
 72
     1
  1
93°
 11
0.6883545756964565
 21
0.725374371009723
 31
0.0
 73
     1
 44
1.0
  0
POINT
  5
D723
330
B102
100
AcDbEntity
  8
Defpoints
 62
     0
100
AcDbPoint
 10
10.69207761595638
 20
-17.83775174662597
 30
0.0
  0
POINT
  5
D724
330
B102
100
AcDbEntity
  8
Defpoints
 62
     0
100
AcDbPoint
 10
0.0
 20
-5.962616850064563
 30
0.0
  0
POINT
  5
D725
330
B102
100
AcDbEntity
  8
Defpoints
 62
     0
100
AcDbPoint
 10
14.68028792452787
 20
0.726214942660051
 30
0.0
  0
POINT
  5
D726
330
B102
100
AcDbEntity
  8
Defpoints
 62
     0
100
AcDbPoint
 10
0.843946496083845
 20
0.0010830150967251
 30
0.0
  0
POINT
  5
D727
330
B102
100
AcDbEntity
  8
Defpoints
 62
     0
100
AcDbPoint
 10
0.0
 20
-11.42451778050517
 30
0.0
  0
ENDBLK
  5
B1BB
330
B102
100
AcDbEntity
  8
0
100
AcDbBlockEnd
  0
ENDSEC
  0
SECTION
  2
ENTITIES
  0
DIMENSION
  5
7A0E
330
1F
100
AcDbEntity
  8
AM_5
100
AcDbDimension
  2
*D3
 10
65.00836431697002
 20
-32.72163889869594
 30
0.0
 11
32.50418215848501
 21
-29.32163889869594
 31
0.0
 70
    32
  1
<>
 71
     5
 42
65.00836431697002
  3
AM_JIS$0
100
AcDbAlignedDimension
 13
0.0
 23
0.0
 33
0.0
 14
65.00836431697002
 24
13.50017594134434
 34
0.0
100
AcDbRotatedDimension
1001
ACAD
1000
DSTYLE
1002
{
1070
   179
1070
     0
1070
   271
1070
     0
1070
   272
1070
     2
1002
}
  0
LINE
  5
99BB
330
1F
100
AcDbEntity
  8
AM_7
100
AcDbLine
 10
104.4787824474888
 20
-82.03044768209401
 30
0.0
 11
-5.035678148629813
 21
-82.03044768209398
 31
0.0
1001
GENIUS_GENOBJ-N-CEN_13
1002
{
1000
OWNER
1000
GEN
1002
}
1001
GENIUS_GENODEF_13
1002
{
1000
HIER
1070
     0
1002
}
1002
{
1000
MANEDIT
1070
     0
1002
}
1002
{
1000
NOSEL
1070
     0
1002
}
1002
{
1000
BEHIND
1070
     0
1002
}
1002
{
1000
OTHER
1070
     0
1002
}
1002
{
1000
REACTOR
1002
}
  0
LINE
  5
9A5B
330
1F
100
AcDbEntity
  8
AM_7
100
AcDbLine
 10
-5.035678148629813
 20
45.00017594134432
 30
0.0
 11
107.124067222172
 21
45.00017594134427
 31
0.0
1001
GENIUS_GENOBJ-N-CEN_13
1002
{
1000
OWNER
1000
GEN
1002
}
1001
GENIUS_GENODEF_13
1002
{
1000
HIER
1070
     0
1002
}
1002
{
1000
MANEDIT
1070
     0
1002
}
1002
{
1000
NOSEL
1070
     0
1002
}
1002
{
1000
BEHIND
1070
     0
1002
}
1002
{
1000
OTHER
1070
     0
1002
}
1002
{
1000
REACTOR
1002
}
  0
DIMENSION
  5
A507
330
1F
100
AcDbEntity
  8
AM_5
100
AcDbDimension
  2
*D5
 10
122.8523436000096
 20
13.50017594134438
 30
0.0
 11
119.4523436000096
 21
45.00017594134431
 31
0.0
 70
    32
  1
%%c<>
 71
     5
 42
62.99999999999982
  3
AM_JIS$0
100
AcDbAlignedDimension
 13
64.70836431697012
 23
76.50017594134421
 33
0.0
 14
64.70836431697001
 24
13.5001759413444
 34
0.0
 50
90.0
100
AcDbRotatedDimension
1001
ACAD
1000
DSTYLE
1002
{
1070
   179
1070
     0
1070
   271
1070
     0
1070
   272
1070
     2
1002
}
  0
LINE
  5
A52A
330
1F
100
AcDbEntity
  8
AM_0
100
AcDbLine
 10
64.70836431697001
 20
13.5001759413443
 30
0.0
 11
64.70836431697006
 21
76.50017594134438
 31
0.0
  0
LINE
  5
A534
330
1F
100
AcDbEntity
  8
AM_0
100
AcDbLine
 10
65.00836431697002
 20
13.80017594134448
 30
0.0
 11
65.00836431697007
 21
76.20017594134426
 31
0.0
  0
SPLINE
  5
A55D
330
1F
100
AcDbEntity
  8
AM_0
100
AcDbSpline
210
0.0
220
0.0
230
1.0
 70
     8
 71
     3
 72
    14
 73
    10
 74
     0
 42
0.0000000001
 43
0.0000000001
 40
2.582172705186494
 40
2.582172705186494
 40
2.582172705186494
 40
2.582172705186494
 40
2.675834359684354
 40
2.675834359684354
 40
2.769496014182214
 40
2.769496014182214
 40
2.956819323177933
 40
2.956819323177933
 40
3.30651863770592
 40
3.30651863770592
 40
3.30651863770592
 40
3.30651863770592
 10
51.54703945156484
 20
-72.68122636756806
 30
0.0
 10
51.5158189000656
 20
-72.68122636756806
 30
0.0
 10
51.48555634810026
 20
-72.67520239332788
 30
0.0
 10
51.42809053754786
 20
-72.65355710291235
 30
0.0
 10
51.40089244945227
 20
-72.63792354116731
 30
0.0
 10
51.32526589171914
 20
-72.58112445604922
 30
0.0
 10
51.282866275147
 20
-72.52984436590515
 30
0.0
 10
51.18834959921389
 20
-72.38498024440651
 30
0.0
 10
51.14536725644297
 20
-72.27560200779013
 30
0.0
 10
51.11402674967263
 20
-72.1610350631268
 30
0.0
  0
ARC
  5
A55E
330
1F
100
AcDbEntity
  8
AM_0
100
AcDbCircle
 10
51.50928054535416
 20
-52.4976534932977
 30
0.0
 40
0.5490983609134384
100
AcDbArc
 50
86.0569275439549
 51
136.0398939119356
  0
LINE
  5
A55F
330
1F
100
AcDbEntity
  8
AM_0
100
AcDbLine
 10
51.11402674967269
 20
-52.11649283562535
 30
0.0
 11
51.11402674967269
 21
-72.1610350631268
 31
0.0
  0
ELLIPSE
  5
A560
330
1F
100
AcDbEntity
  8
AM_0
100
AcDbEllipse
 10
67.35551850632987
 20
-82.03044768209401
 30
0.0
 11
14.75368316065342
 21
-31.09325491558129
 31
-2.584885466634972E-16
210
3.219739583813334E-18
220
-6.785572290740563E-18
230
1.0
 40
0.3419987131196118
 41
3.299398840235308
 42
4.232832239342633
  0
LINE
  5
A561
330
1F
100
AcDbEntity
  8
AM_0
100
AcDbLine
 10
54.46968918237553
 20
-72.68122636756783
 30
0.0
 11
51.54703945156496
 21
-72.68122636756783
 31
0.0
  0
LINE
  5
A563
330
1F
100
AcDbEntity
  8
AM_0
100
AcDbLine
 10
51.54703945156496
 20
-51.94985492177754
 30
0.0
 11
54.46968918237553
 21
-51.94985492177754
 31
0.0
  0
SPLINE
  5
A564
330
1F
100
AcDbEntity
  8
AM_0
100
AcDbSpline
210
0.0
220
0.0
230
1.0
 70
     8
 71
     3
 72
    14
 73
    10
 74
     0
 42
0.0000000001
 43
0.0000000001
 40
1.857826772665431
 40
1.857826772665431
 40
1.857826772665431
 40
1.857826772665431
 40
2.207526087195096
 40
2.207526087195096
 40
2.394849396190812
 40
2.394849396190812
 40
2.48851105068867
 40
2.48851105068867
 40
2.582172705186528
 40
2.582172705186528
 40
2.582172705186528
 40
2.582172705186528
 10
54.90270188426757
 20
-72.16103506312678
 30
0.0
 10
54.87136137749712
 20
-72.27560200779067
 30
0.0
 10
54.82837903472671
 20
-72.3849802444058
 30
0.0
 10
54.73386235879332
 20
-72.52984436590489
 30
0.0
 10
54.69146274222118
 20
-72.58112445604897
 30
0.0
 10
54.61583618448805
 20
-72.63792354116708
 30
0.0
 10
54.58863809639246
 20
-72.65355710291209
 30
0.0
 10
54.53117228584006
 20
-72.67520239332762
 30
0.0
 10
54.50090973387472
 20
-72.6812263675678
 30
0.0
 10
54.46968918237542
 20
-72.6812263675678
 30
0.0
  0
ARC
  5
A566
330
1F
100
AcDbEntity
  8
AM_0
100
AcDbCircle
 10
54.50744808858605
 20
-52.49765349329832
 30
0.0
 40
0.5490983609139751
100
AcDbArc
 50
43.96010608810124
 51
93.94307245601888
  0
ARC
  5
A567
330
1F
100
AcDbEntity
  8
AM_0
100
AcDbCircle
 10
54.50744808858633
 20
-111.5632418708905
 30
0.0
 40
0.5490983609132026
100
AcDbArc
 50
266.0569275439451
 51
316.0398939119402
  0
SPLINE
  5
A568
330
1F
100
AcDbEntity
  8
AM_0
100
AcDbSpline
210
0.0
220
0.0
230
1.0
 70
     8
 71
     3
 72
    14
 73
    10
 74
     0
 42
0.0000000001
 43
0.0000000001
 40
2.563234579399785
 40
2.563234579399785
 40
2.563234579399785
 40
2.563234579399785
 40
2.656896233897643
 40
2.656896233897643
 40
2.750557888395502
 40
2.750557888395502
 40
2.937881197391219
 40
2.937881197391219
 40
3.287580511918983
 40
3.287580511918983
 40
3.287580511918983
 40
3.287580511918983
 10
54.46968918237542
 20
-91.37966899662021
 30
0.0
 10
54.50090973387472
 20
-91.37966899662021
 30
0.0
 10
54.53117228584006
 20
-91.38569297086039
 30
0.0
 10
54.58863809639246
 20
-91.40733826127593
 30
0.0
 10
54.61583618448805
 20
-91.42297182302093
 30
0.0
 10
54.69146274222118
 20
-91.47977090813905
 30
0.0
 10
54.73386235879332
 20
-91.53105099828309
 30
0.0
 10
54.82837903472637
 20
-91.67591511978171
 30
0.0
 10
54.87136137749729
 20
-91.785293356398
 30
0.0
 10
54.90270188426757
 20
-91.89986030106124
 30
0.0
  0
LINE
  5
A56A
330
1F
100
AcDbEntity
  8
AM_0
100
AcDbLine
 10
54.46968918237553
 20
-112.1110404424105
 30
0.0
 11
51.54703945156496
 21
-112.1110404424105
 31
0.0
  0
LINE
  5
A56B
330
1F
100
AcDbEntity
  8
AM_0
100
AcDbLine
 10
51.54703945156496
 20
-91.37966899662018
 30
0.0
 11
54.46968918237553
 21
-91.37966899662018
 31
0.0
  0
ARC
  5
A56D
330
1F
100
AcDbEntity
  8
AM_0
100
AcDbCircle
 10
51.50928054535427
 20
-111.5632418708899
 30
0.0
 40
0.5490983609138569
100
AcDbArc
 50
223.9601060880874
 51
273.9430724560255
  0
SPLINE
  5
A56E
330
1F
100
AcDbEntity
  8
AM_0
100
AcDbSpline
210
0.0
220
0.0
230
1.0
 70
     8
 71
     3
 72
    14
 73
    10
 74
     0
 42
0.0000000001
 43
0.0000000001
 40
1.857826772665184
 40
1.857826772665184
 40
1.857826772665184
 40
1.857826772665184
 40
2.20752608719506
 40
2.20752608719506
 40
2.394849396190778
 40
2.394849396190778
 40
2.488511050688637
 40
2.488511050688637
 40
2.582172705186496
 40
2.582172705186496
 40
2.582172705186496
 40
2.582172705186496
 10
51.11402674967263
 20
-91.89986030106121
 30
0.0
 10
51.14536725644314
 20
-91.78529335639723
 30
0.0
 10
51.18834959921355
 20
-91.67591511978202
 30
0.0
 10
51.282866275147
 20
-91.53105099828287
 30
0.0
 10
51.32526589171914
 20
-91.47977090813879
 30
0.0
 10
51.40089244945222
 20
-91.42297182302067
 30
0.0
 10
51.42809053754786
 20
-91.40733826127567
 30
0.0
 10
51.48555634810026
 20
-91.38569297086013
 30
0.0
 10
51.5158189000656
 20
-91.37966899661996
 30
0.0
 10
51.54703945156484
 20
-91.37966899661996
 30
0.0
  0
LINE
  5
A56F
330
1F
100
AcDbEntity
  8
AM_0
100
AcDbLine
 10
51.11402674967269
 20
-91.89986030106121
 30
0.0
 11
51.11402674967269
 21
-111.9444025285627
 31
0.0
  0
ELLIPSE
  5
A570
330
1F
100
AcDbEntity
  8
AM_0
100
AcDbEllipse
 10
67.35551850632987
 20
-82.03044768209401
 30
0.0
 11
-14.75368316065455
 21
-31.09325491558076
 31
2.584885466635379E-16
210
3.219739583814083E-18
220
6.785572290741514E-18
230
1.0
 40
0.3419987131196122
 41
5.191945721427334
 42
6.12537912053466
  0
LINE
  5
A571
330
1F
100
AcDbEntity
  8
AM_0
100
AcDbLine
 10
54.90270188426763
 20
-52.11649283562538
 30
0.0
 11
54.90270188426763
 21
-72.16103506312678
 31
0.0
  0
ELLIPSE
  5
A572
330
1F
100
AcDbEntity
  8
AM_0
100
AcDbEllipse
 10
38.66121012760016
 20
-82.03044768209401
 30
0.0
 11
14.75368316066581
 21
31.09325491557982
 31
-2.584885467126133E-16
210
3.219739584427084E-18
220
6.785572292028013E-18
230
1.0
 40
0.3419987131197481
 41
5.191945721427526
 42
6.125379120534849
  0
LINE
  5
A573
330
1F
100
AcDbEntity
  8
AM_0
100
AcDbLine
 10
54.90270188426763
 20
-91.89986030106124
 30
0.0
 11
54.90270188426763
 21
-111.9444025285627
 31
0.0
  0
ELLIPSE
  5
A574
330
1F
100
AcDbEntity
  8
AM_0
100
AcDbEllipse
 10
38.66121012760016
 20
-82.03044768209401
 30
0.0
 11
-14.7536831606647
 21
31.09325491558033
 31
2.584885467125726E-16
210
3.219739584426339E-18
220
-6.785572292027061E-18
230
0.9999999999999999
 40
0.3419987131197481
 41
3.299398840235119
 42
4.232832239342441
  0
LINE
  5
A582
330
1F
100
AcDbEntity
  8
AM_0
100
AcDbLine
 10
65.00836431697002
 20
-50.83044768209412
 30
0.0
 11
64.70836431697001
 21
-50.53044768209411
 31
0.0
  0
LINE
  5
A583
330
1F
100
AcDbEntity
  8
AM_0
100
AcDbLine
 10
65.00836431697002
 20
-113.2304476820939
 30
0.0
 11
64.70836431697001
 21
-113.5304476820939
 31
0.0
  0
LINE
  5
A58B
330
1F
100
AcDbEntity
  8
AM_0
100
AcDbLine
 10
64.70836431697001
 20
-113.530447682094
 30
0.0
 11
64.70836431697001
 21
-50.53044768209399
 31
0.0
  0
LINE
  5
A58D
330
1F
100
AcDbEntity
  8
AM_0
100
AcDbLine
 10
65.00836431697002
 20
-113.2304476820939
 30
0.0
 11
65.00836431697002
 21
-50.83044768209412
 31
0.0
  0
ARC
  5
A5D9
330
1F
100
AcDbEntity
  8
AM_0
100
AcDbCircle
 10
51.50881683937706
 20
74.53417508148333
 30
0.0
 40
0.5479284202349815
100
AcDbArc
 50
85.99988912538892
 51
136.0969323304963
  0
SPLINE
  5
A5DA
330
1F
100
AcDbEntity
  8
AM_0
100
AcDbSpline
210
0.0
220
0.0
230
1.0
 70
     8
 71
     3
 72
    16
 73
    12
 74
     0
 42
0.0000000001
 43
0.0000000001
 40
2.582172705186496
 40
2.582172705186496
 40
2.582172705186496
 40
2.582172705186496
 40
2.669304144884479
 40
2.669304144884479
 40
2.756435584582462
 40
2.756435584582462
 40
2.907176786441196
 40
2.907176786441196
 40
3.057917988299931
 40
3.057917988299931
 40
3.291061354033606
 40
3.291061354033606
 40
3.291061354033606
 40
3.291061354033606
 10
51.5470394515649
 20
54.34939725587027
 30
0.0
 10
51.51799563833225
 20
54.34939725587027
 30
0.0
 10
51.48706946213935
 20
54.35500405932415
 30
0.0
 10
51.42900707524848
 20
54.37657468416093
 30
0.0
 10
51.40181150914901
 20
54.39239178590624
 30
0.0
 10
51.33900780785268
 20
54.4385839054524
 30
0.0
 10
51.30272483181483
 20
54.47733548674002
 30
0.0
 10
51.24043445094924
 20
54.5624828800289
 30
0.0
 10
51.21434953985335
 20
54.60882577797584
 30
0.0
 10
51.16121763251664
 20
54.71963556281106
 30
0.0
 10
51.13494395724189
 20
54.79312455863943
 30
0.0
 10
51.11402674967269
 20
54.86958856031153
 30
0.0
  0
LINE
  5
A5DB
330
1F
100
AcDbEntity
  8
AM_0
100
AcDbLine
 10
51.54703945156496
 20
75.08076870166077
 30
0.0
 11
54.46968918237553
 21
75.08076870166077
 31
0.0
  0
LINE
  5
A5DC
330
1F
100
AcDbEntity
  8
AM_0
100
AcDbLine
 10
54.46968918237548
 20
54.3493972558705
 30
0.0
 11
51.5470394515649
 21
54.3493972558705
 31
0.0
  0
ARC
  5
A5DD
330
1F
100
AcDbEntity
  8
AM_0
100
AcDbCircle
 10
54.50744808858616
 20
74.53297013014013
 30
0.0
 40
0.549098360913817
100
AcDbArc
 50
43.96010608809205
 51
93.94307245602543
  0
SPLINE
  5
A5DE
330
1F
100
AcDbEntity
  8
AM_0
100
AcDbSpline
210
0.0
220
0.0
230
1.0
 70
     8
 71
     3
 72
    14
 73
    10
 74
     0
 42
0.0000000001
 43
0.0000000001
 40
1.857826772665455
 40
1.857826772665455
 40
1.857826772665455
 40
1.857826772665455
 40
2.207526087195107
 40
2.207526087195107
 40
2.394849396190826
 40
2.394849396190826
 40
2.488511050688685
 40
2.488511050688685
 40
2.582172705186545
 40
2.582172705186545
 40
2.582172705186545
 40
2.582172705186545
 10
54.90270188426763
 20
54.86958856031158
 30
0.0
 10
54.87136137749712
 20
54.75502161564772
 30
0.0
 10
54.82837903472677
 20
54.64564337903262
 30
0.0
 10
54.73386235879332
 20
54.50077925753347
 30
0.0
 10
54.69146274222118
 20
54.44949916738945
 30
0.0
 10
54.6158361844881
 20
54.3927000822713
 30
0.0
 10
54.58863809639252
 20
54.3770665205263
 30
0.0
 10
54.53117228584011
 20
54.35542123011074
 30
0.0
 10
54.50090973387478
 20
54.34939725587056
 30
0.0
 10
54.46968918237548
 20
54.34939725587056
 30
0.0
  0
ELLIPSE
  5
A5DF
330
1F
100
AcDbEntity
  8
AM_0
100
AcDbEllipse
 10
38.66121012760016
 20
45.00017594134427
 30
0.0
 11
-14.7536831606658
 21
-31.09325491557982
 31
0.0
210
0.0
220
0.0
230
0.9999999999999999
 40
0.3419987131197481
 41
2.050353067837734
 42
2.983786466945056
  0
ARC
  5
A5E0
330
1F
100
AcDbEntity
  8
AM_0
100
AcDbCircle
 10
51.50928054535433
 20
15.46738175254878
 30
0.0
 40
0.5490983609142087
100
AcDbArc
 50
223.9601060881012
 51
273.943072456006
  0
SPLINE
  5
A5E1
330
1F
100
AcDbEntity
  8
AM_0
100
AcDbSpline
210
0.0
220
0.0
230
1.0
 70
     8
 71
     3
 72
    14
 73
    10
 74
     0
 42
0.0000000001
 43
0.0000000001
 40
1.857826772665185
 40
1.857826772665185
 40
1.857826772665185
 40
1.857826772665185
 40
2.207526087195061
 40
2.207526087195061
 40
2.394849396190778
 40
2.394849396190778
 40
2.488511050688637
 40
2.488511050688637
 40
2.582172705186495
 40
2.582172705186495
 40
2.582172705186495
 40
2.582172705186495
 10
51.11402674967269
 20
35.13076332237708
 30
0.0
 10
51.14536725644319
 20
35.24533026704106
 30
0.0
 10
51.18834959921361
 20
35.35470850365627
 30
0.0
 10
51.28286627514706
 20
35.49957262515542
 30
0.0
 10
51.3252658917192
 20
35.5508527152995
 30
0.0
 10
51.40089244945227
 20
35.60765180041764
 30
0.0
 10
51.42809053754786
 20
35.62328536216265
 30
0.0
 10
51.48555634810026
 20
35.64493065257815
 30
0.0
 10
51.51581890006565
 20
35.65095462681833
 30
0.0
 10
51.5470394515649
 20
35.65095462681833
 30
0.0
  0
ELLIPSE
  5
A5E2
330
1F
100
AcDbEntity
  8
AM_0
100
AcDbEllipse
 10
67.35551850632987
 20
45.00017594134432
 30
0.0
 11
-14.75368316065455
 21
-31.09325491558077
 31
0.0
210
0.0
220
0.0
230
1.0
 40
0.3419987131196121
 41
5.191945721427338
 42
6.125379120534663
  0
LINE
  5
A5E3
330
1F
100
AcDbEntity
  8
AM_0
100
AcDbLine
 10
54.46968918237548
 20
14.91958318102785
 30
0.0
 11
51.5470394515649
 21
14.91958318102785
 31
0.0
  0
LINE
  5
A5E4
330
1F
100
AcDbEntity
  8
AM_0
100
AcDbLine
 10
51.54703945156496
 20
35.65095462681812
 30
0.0
 11
54.46968918237553
 21
35.65095462681812
 31
0.0
  0
ARC
  5
A5E5
330
1F
100
AcDbEntity
  8
AM_0
100
AcDbCircle
 10
54.5074480885861
 20
15.46738175254809
 30
0.0
 40
0.5490983609134491
100
AcDbArc
 50
266.0569275439549
 51
316.0398939119264
  0
SPLINE
  5
A5E6
330
1F
100
AcDbEntity
  8
AM_0
100
AcDbSpline
210
0.0
220
0.0
230
1.0
 70
     8
 71
     3
 72
    14
 73
    10
 74
     0
 42
0.0000000001
 43
0.0000000001
 40
2.563234579399782
 40
2.563234579399782
 40
2.563234579399782
 40
2.563234579399782
 40
2.656896233897641
 40
2.656896233897641
 40
2.750557888395499
 40
2.750557888395499
 40
2.937881197391216
 40
2.937881197391216
 40
3.287580511918981
 40
3.287580511918981
 40
3.287580511918981
 40
3.287580511918981
 10
54.46968918237548
 20
35.65095462681805
 30
0.0
 10
54.50090973387478
 20
35.65095462681805
 30
0.0
 10
54.53117228584011
 20
35.64493065257798
 30
0.0
 10
54.58863809639252
 20
35.62328536216242
 30
0.0
 10
54.6158361844881
 20
35.60765180041742
 30
0.0
 10
54.69146274222123
 20
35.55085271529927
 30
0.0
 10
54.73386235879337
 20
35.49957262515525
 30
0.0
 10
54.82837903472642
 20
35.35470850365661
 30
0.0
 10
54.87136137749735
 20
35.24533026704032
 30
0.0
 10
54.90270188426763
 20
35.13076332237708
 30
0.0
  0
ELLIPSE
  5
A5E7
330
1F
100
AcDbEntity
  8
AM_0
100
AcDbEllipse
 10
67.35551850632987
 20
45.00017594134432
 30
0.0
 11
-14.75368316065343
 21
31.09325491558131
 31
0.0
210
0.0
220
0.0
230
1.0
 40
0.3419987131196118
 41
0.1578061866455143
 42
1.091239585752841
  0
ELLIPSE
  5
A5E8
330
1F
100
AcDbEntity
  8
AM_0
100
AcDbEllipse
 10
38.66121012760016
 20
45.00017594134427
 30
0.0
 11
-14.7536831606647
 21
31.09325491558033
 31
0.0
210
0.0
220
0.0
230
1.0
 40
0.3419987131197479
 41
3.29939884023512
 42
4.232832239342442
  0
LINE
  5
A5EE
330
1F
100
AcDbEntity
  8
AM_0
100
AcDbLine
 10
65.00836431697013
 20
76.2001759413442
 30
0.0
 11
64.70836431697006
 21
76.50017594134427
 31
0.0
  0
LINE
  5
A5EF
330
1F
100
AcDbEntity
  8
AM_0
100
AcDbLine
 10
65.00836431697002
 20
13.80017594134442
 30
0.0
 11
64.70836431697001
 21
13.50017594134441
 31
0.0
  0
LINE
  5
A603
330
1F
100
AcDbEntity
  8
AM_0
100
AcDbLine
 10
51.11402674967275
 20
74.91413078781297
 30
0.0
 11
51.11402674967269
 21
54.86958856031153
 31
0.0
  0
LINE
  5
A608
330
1F
100
AcDbEntity
  8
AM_0
100
AcDbLine
 10
51.11402674967269
 20
35.13076332237709
 30
0.0
 11
51.11402674967269
 21
15.08622109487565
 31
0.0
  0
LINE
  5
A609
330
1F
100
AcDbEntity
  8
AM_0
100
AcDbLine
 10
54.90270188426769
 20
74.91413078781291
 30
0.0
 11
54.90270188426763
 21
54.86958856031153
 31
0.0
  0
LINE
  5
A60A
330
1F
100
AcDbEntity
  8
AM_0
100
AcDbLine
 10
54.90270188426763
 20
35.13076332237706
 30
0.0
 11
54.90270188426763
 21
15.08622109487565
 31
0.0
  0
LINE
  5
B061
330
1F
100
AcDbEntity
  8
AM_7
100
AcDbLine
 10
-77.50728680836983
 20
45.00017594134432
 30
0.0
 11
-40.3966545079266
 21
45.00017594134432
 31
0.0
1001
GENIUS_GENOREF_13
1005
B06C
  0
LINE
  5
B062
330
1F
100
AcDbEntity
  8
AM_7
100
AcDbLine
 10
-77.50728680836983
 20
45.00017594134432
 30
0.0
 11
-77.50728680836983
 21
82.11080824178767
 31
0.0
1001
GENIUS_GENOREF_13
1005
B06C
  0
LINE
  5
B063
330
1F
100
AcDbEntity
  8
AM_7
100
AcDbLine
 10
-77.50728680836983
 20
45.00017594134432
 30
0.0
 11
-114.6179191088131
 21
45.00017594134432
 31
0.0
1001
GENIUS_GENOREF_13
1005
B06C
  0
LINE
  5
B064
330
1F
100
AcDbEntity
  8
AM_7
100
AcDbLine
 10
-77.50728680837017
 20
45.00017594134432
 30
0.0
 11
-77.50728680836983
 21
-3.485398164515644
 31
0.0
1001
GENIUS_GENOREF_13
1005
B06C
  0
LINE
  5
B068
330
1F
100
AcDbEntity
  8
AM_5
100
AcDbLine
 10
0.0
 20
0.0000000000000142
 30
0.0
 11
0.8025764957905039
 21
0.0000000000000142
 31
0.0
  0
LINE
  5
B069
330
1F
100
AcDbEntity
  8
AM_5
100
AcDbLine
 10
0.0
 20
0.0000000000000142
 30
0.0
 11
0.0
 21
0.8054844226697782
 31
0.0
  0
DIMENSION
  5
B06A
330
1F
100
AcDbEntity
  8
AM_5
100
AcDbDimension
  2
*D6
 10
-18.97031079905639
 20
0.0000000000000054
 30
0.0
 11
-22.37031079905639
 21
22.50008797067216
 31
0.0
 70
    32
 71
     5
 42
45.00017594134432
  3
AM_JIS$0
100
AcDbAlignedDimension
 13
-5.035678148629813
 23
45.00017594134432
 33
0.0
 14
0.0
 24
0.0
 34
0.0
 50
90.0
100
AcDbRotatedDimension
1001
ACAD
1000
DSTYLE
1002
{
1070
   179
1070
     0
1070
   271
1070
     0
1070
   272
1070
     2
1002
}
  0
DIMENSION
  5
B06B
330
1F
100
AcDbEntity
  8
AM_5
100
AcDbDimension
  2
*D7
 10
0.0
 20
-11.42451778050517
 30
0.0
 11
12.5923401874139
 21
-11.99283099655517
 31
0.0
 70
    34
 71
     5
 42
1.623156204347277
  3
AM_JIS$2
100
AcDb2LineAngularDimension
 13
14.68028792452788
 23
0.7262149426600502
 33
0.0
 14
0.843946496083845
 24
0.0010830150967251
 34
0.0
 15
0.0
 25
-5.962616850064563
 35
0.0
 16
10.69207761595638
 26
-17.83775174662597
 36
0.0
1001
ACAD
1000
DSTYLE
1002
{
1070
    79
1070
     1
1070
   179
1070
     0
1070
   271
1070
     0
1070
   272
1070
     2
1002
}
  0
POINT
  5
B06C
330
1F
100
AcDbEntity
  8
0
 60
     1
100
AcDbPoint
 10
-281.6248710224024
 20
-51.81845366722564
 30
0.0
1001
GENIUS_GENOLIS_13
1002
{
1000
ENT
1005
B064
1005
B063
1005
B062
1005
B061
1002
}
1001
GENIUS_GENOBJ-N-CRS_13
1002
{
1000
OWNER
1000
GEN
1002
}
1001
GENIUS_GENOENT_13
1002
{
1000
MYREF
1005
B06C
1002
}
1002
{
1000
GRP
1005
0
1002
}
1001
GENIUS_GENODEF_13
1002
{
1000
HIER
1070
    10
1002
}
1002
{
1000
MANEDIT
1070
     0
1002
}
1002
{
1000
NOSEL
1070
     0
1002
}
1002
{
1000
BEHIND
1070
     0
1002
}
1002
{
1000
OTHER
1070
     0
1002
}
1002
{
1000
REACTOR
1002
}
  0
ARC
  5
B688
330
1F
100
AcDbEntity
  8
AM_3
  6
ACJISTGL
100
AcDbCircle
 10
65.6083643169697
 20
-58.58044768209394
 30
0.0
 40
1.0
100
AcDbArc
 50
135.0000000000091
 51
180.0
  0
ARC
  5
B689
330
1F
100
AcDbEntity
  8
AM_3
  6
ACJISTGL
100
AcDbCircle
 10
65.6083643169697
 20
-58.58044768209394
 30
0.0
 40
1.0
100
AcDbArc
 50
180.0
 51
233.1301023541707
  0
LINE
  5
B6F4
330
1F
100
AcDbEntity
  8
AM_3
  6
ACJISTGL
100
AcDbLine
 10
64.90125753578303
 20
-57.87334090090756
 30
0.0
 11
65.0083643169699
 21
-57.76623411972075
 31
0.0
  0
LINE
  5
B747
330
1F
100
AcDbEntity
  8
AM_0
100
AcDbLine
 10
101.5088374849502
 20
-59.47209617363158
 30
0.0
 11
66.99796268525034
 21
-58.6050628761863
 31
0.0
  0
LINE
  5
B748
330
1F
100
AcDbEntity
  8
AM_0
100
AcDbLine
 10
66.31547109815659
 20
-59.28755446328027
 30
0.0
 11
66.99796268525034
 21
-58.6050628761863
 31
0.0
  0
LINE
  5
B74D
330
1F
100
AcDbEntity
  8
AM_0
100
AcDbLine
 10
103.0083643169701
 20
-60.38881883371009
 30
0.0
 11
101.5088374849502
 21
-59.47209617363153
 31
0.0
  0
LINE
  5
B752
330
1F
100
AcDbEntity
  8
AM_0
100
AcDbLine
 10
76.06841053922176
 20
-102.4279512662772
 30
0.0
 11
65.0083643169699
 21
-102.7058181242352
 31
0.0
  0
LINE
  5
B753
330
1F
100
AcDbEntity
  8
AM_0
100
AcDbLine
 10
98.00836431696985
 20
-101.8767432606811
 30
0.0
 11
84.96841053922162
 21
-102.2043522879247
 31
0.0
  0
LINE
  5
B755
330
1F
100
AcDbEntity
  8
AM_3
  6
ACJISTGL
100
AcDbLine
 10
101.5083643169699
 20
-66.71749663918155
 30
0.0
 11
101.5083643169699
 21
-97.34339872500637
 31
0.0
  0
LINE
  5
B75B
330
1F
100
AcDbEntity
  8
AM_0
100
AcDbLine
 10
67.0083643169699
 20
-88.68113544114357
 30
0.0
 11
67.0083643169699
 21
-59.80751927194073
 31
0.0
  0
LINE
  5
B75C
330
1F
100
AcDbEntity
  8
AM_0
100
AcDbLine
 10
67.00836431697002
 20
-91.54736072257117
 30
0.0
 11
67.00836431697002
 21
-88.68113544114351
 31
0.0
  0
LINE
  5
B75D
330
1F
100
AcDbEntity
  8
AM_0
100
AcDbLine
 10
67.00836431697002
 20
-59.80751927194011
 30
0.0
 11
67.00836431697002
 21
-58.85381471417132
 31
0.0
  0
LINE
  5
B761
330
1F
100
AcDbEntity
  8
AM_0
100
AcDbLine
 10
103.0083643169701
 20
-60.38881883371003
 30
0.0
 11
103.0083643169701
 21
-61.40674327969333
 31
0.0
  0
LINE
  5
B762
330
1F
100
AcDbEntity
  8
AM_0
100
AcDbLine
 10
101.5088374849502
 20
-60.58473638386448
 30
0.0
 11
101.5088374849502
 21
-59.47209617363153
 31
0.0
  0
LINE
  5
B763
330
1F
100
AcDbEntity
  8
AM_0
100
AcDbLine
 10
103.0083643169699
 20
-61.4067432796939
 30
0.0
 11
103.0083643169701
 21
-88.56526443898594
 31
0.0
  0
LINE
  5
B764
330
1F
100
AcDbEntity
  8
AM_0
100
AcDbLine
 10
101.5088374849502
 20
-88.62482255113184
 30
0.0
 11
101.5088374849502
 21
-60.58473638386505
 31
0.0
  0
LINE
  5
B765
330
1F
100
AcDbEntity
  8
AM_0
100
AcDbLine
 10
103.0083643169699
 20
-88.56526443898594
 30
0.0
 11
103.0083643169699
 21
-96.11933532760112
 31
0.0
  0
LINE
  5
B766
330
1F
100
AcDbEntity
  8
AM_0
100
AcDbLine
 10
101.5088374849502
 20
-96.88178411128406
 30
0.0
 11
101.5088374849502
 21
-88.62482255113179
 31
0.0
  0
LINE
  5
B767
330
1F
100
AcDbEntity
  8
AM_0
100
AcDbLine
 10
103.0083643169699
 20
-96.11933532760135
 30
0.0
 11
103.0083643169699
 21
-100.7531266945919
 31
0.0
  0
LINE
  5
B768
330
1F
100
AcDbEntity
  8
AM_0
100
AcDbLine
 10
101.5088374849502
 20
-101.5651616125114
 30
0.0
 11
101.5088374849502
 21
-96.88178411128429
 31
0.0
  0
LINE
  5
B769
330
1F
100
AcDbEntity
  8
AM_0
100
AcDbLine
 10
98.00836431696985
 20
-101.6444261553978
 30
0.0
 11
98.00836431696985
 21
-101.8767432606811
 31
0.0
  0
ARC
  5
B76F
330
1F
100
AcDbEntity
  8
AM_0
100
AcDbCircle
 10
65.6083643169697
 20
-58.58044768209394
 30
0.0
 40
1.0
100
AcDbArc
 50
233.1301023541707
 51
315.0000000000184
  0
ARC
  5
B770
330
1F
100
AcDbEntity
  8
AM_0
100
AcDbCircle
 10
53.56576502766887
 20
-93.55804006891829
 30
0.0
 40
13.45985320576692
100
AcDbArc
 50
342.4557432490449
 51
8.500764333599902
  0
LINE
  5
B771
330
1F
100
AcDbEntity
  8
AM_0
100
AcDbLine
 10
66.87776719179402
 20
-58.84630726210627
 30
0.0
 11
66.99799829783609
 21
-58.60508062605275
 31
0.0
  0
LINE
  5
B772
330
1F
100
AcDbEntity
  8
AM_0
100
AcDbLine
 10
66.30830325472863
 20
-59.72730535656369
 30
0.0
 11
66.87067963823364
 21
-58.84180876055761
 31
0.0
  0
LINE
  5
B773
330
1F
100
AcDbEntity
  8
AM_0
100
AcDbLine
 10
66.8777471442001
 20
-58.84629157199343
 30
0.0
 11
67.00836463778313
 21
-58.85380914005161
 31
0.0
  0
LINE
  5
B774
330
1F
100
AcDbEntity
  8
AM_0
100
AcDbLine
 10
66.87774877478847
 20
-91.56838162877023
 30
0.0
 11
67.0083662783731
 21
-91.54737291720676
 31
0.0
  0
LINE
  5
B775
330
1F
100
AcDbEntity
  8
AM_0
100
AcDbLine
 10
66.31216967504378
 20
-89.30641139300724
 30
0.0
 11
66.87478824547765
 21
-91.56910515942354
 31
0.0
  0
SPLINE
  5
B776
330
1F
100
AcDbEntity
  8
AM_0
100
AcDbSpline
210
0.0
220
0.0
230
1.0
 70
     8
 71
     3
 72
    22
 73
    18
 74
     0
 42
0.0000000001
 43
0.0000000001
 40
-2.001088860157947
 40
-2.001088860157947
 40
-2.001088860157947
 40
-2.001088860157947
 40
-1.390091464536804
 40
-1.390091464536804
 40
-1.135920523871576
 40
-1.135920523871576
 40
-1.015296545225475
 40
-1.015296545225475
 40
-0.9350769137296103
 40
-0.9350769137296103
 40
-0.858379408596526
 40
-0.858379408596526
 40
-0.7615084108000589
 40
-0.7615084108000589
 40
-0.5987514027027772
 40
-0.5987514027027772
 40
0.0
 40
0.0
 40
0.0
 40
0.0
 10
66.31547109815659
 20
-89.30559049449255
 30
0.0
 10
66.23045160982389
 20
-88.94792299460471
 30
0.0
 10
66.13094802183645
 20
-88.64974685682444
 30
0.0
 10
65.97467617592025
 20
-88.34123623972596
 30
0.0
 10
65.9164406357549
 20
-88.24396483203503
 30
0.0
 10
65.81488356429526
 20
-88.13354717187229
 30
0.0
 10
65.77716302753828
 20
-88.10017805590815
 30
0.0
 10
65.70714921210509
 20
-88.06053401192531
 30
0.0
 10
65.67721004069
 20
-88.04889078524832
 30
0.0
 10
65.61517565021092
 20
-88.03866158236968
 30
0.0
 10
65.58502480120245
 20
-88.03982052897868
 30
0.0
 10
65.5173493310852
 20
-88.05583147444395
 30
0.0
 10
65.48242077097092
 20
-88.07362546756229
 30
0.0
 10
65.39749658373665
 20
-88.13364465288771
 30
0.0
 10
65.35098455301153
 20
-88.18598886928135
 30
0.0
 10
65.17079576722455
 20
-88.43157604183432
 30
0.0
 10
65.06763599679169
 20
-88.72156767426083
 30
0.0
 10
65.00836431696979
 20
-88.91163602485
 30
0.0
  0
SPLINE
  5
B777
330
1F
100
AcDbEntity
  8
AM_0
100
AcDbSpline
210
0.0
220
0.0
230
1.0
 70
     8
 71
     3
 72
    22
 73
    18
 74
     0
 42
0.0000000001
 43
0.0000000001
 40
-3.608297247991451
 40
-3.608297247991451
 40
-3.608297247991451
 40
-3.608297247991451
 40
-2.530308969091733
 40
-2.530308969091733
 40
-2.252602965573062
 40
-2.252602965573062
 40
-2.090576289934671
 40
-2.090576289934671
 40
-1.955422443234214
 40
-1.955422443234214
 40
-1.803181533646466
 40
-1.803181533646466
 40
-1.567937045222921
 40
-1.567937045222921
 40
-1.094836533147729
 40
-1.094836533147729
 40
-0.0014877806800928
 40
-0.0014877806800928
 40
-0.0014877806800928
 40
-0.0014877806800928
 10
65.00836431696979
 20
-59.90151997763597
 30
0.0
 10
65.06769296475176
 20
-59.98455341297414
 30
0.0
 10
65.17101443694531
 20
-60.11414580443061
 30
0.0
 10
65.34949220095842
 20
-60.22491774374502
 30
0.0
 10
65.39309822582374
 20
-60.24756478909386
 30
0.0
 10
65.47163782415686
 20
-60.27443458284664
 30
0.0
 10
65.50348990060928
 20
-60.28269934927947
 30
0.0
 10
65.56663124659502
 20
-60.2918301427391
 30
0.0
 10
65.5960312294946
 20
-60.29353472248918
 30
0.0
 10
65.65982538387715
 20
-60.29122400957412
 30
0.0
 10
65.69193183054182
 20
-60.28654762828874
 30
0.0
 10
65.76885359874467
 20
-60.26854261149843
 30
0.0
 10
65.81044372196317
 20
-60.25203337363574
 30
0.0
 10
65.9174972592902
 20
-60.19907027217668
 30
0.0
 10
65.97768848391155
 20
-60.15287660469248
 30
0.0
 10
66.13343829645095
 20
-60.01280726243174
 30
0.0
 10
66.23152023150777
 20
-59.8819140724472
 30
0.0
 10
66.31547109815659
 20
-59.73185763365068
 30
0.0
  0
SPLINE
  5
B77D
330
1F
100
AcDbEntity
  8
AM_0
100
AcDbSpline
210
0.0
220
0.0
230
1.0
 70
     8
 71
     3
 72
    22
 73
    18
 74
     0
 42
0.0000000001
 43
0.0000000001
 40
0.0
 40
0.0
 40
0.0
 40
0.0
 40
1.24928658656778
 40
1.24928658656778
 40
1.776460179713746
 40
1.776460179713746
 40
2.005422428856085
 40
2.005422428856085
 40
2.152398627518596
 40
2.152398627518596
 40
2.281576123806236
 40
2.281576123806236
 40
2.43421133612644
 40
2.43421133612644
 40
2.692936324137533
 40
2.692936324137533
 40
3.777444205468512
 40
3.777444205468512
 40
3.777444205468512
 40
3.777444205468512
 10
66.31547109815682
 20
-97.82589976523595
 30
0.0
 10
66.22610007754219
 20
-98.04930512781438
 30
0.0
 10
66.12027955678724
 20
-98.23056065696727
 30
0.0
 10
65.95416000578899
 20
-98.41515369502332
 30
0.0
 10
65.88914086354856
 20
-98.4759426637163
 30
0.0
 10
65.77742973596656
 20
-98.54024882084673
 30
0.0
 10
65.73779565246417
 20
-98.5586788840198
 30
0.0
 10
65.66480830720121
 20
-98.5794117810384
 30
0.0
 10
65.63442485856461
 20
-98.58509309746506
 30
0.0
 10
65.5742503511454
 20
-98.58907028724963
 30
0.0
 10
65.54663228391797
 20
-98.58805859357204
 30
0.0
 10
65.48767390927782
 20
-98.58024613404047
 30
0.0
 10
65.45810736339348
 20
-98.57262924417955
 30
0.0
 10
65.38557702735346
 20
-98.54725210286648
 30
0.0
 10
65.34541763099054
 20
-98.52534628067457
 30
0.0
 10
65.17015602241719
 20
-98.40911999432296
 30
0.0
 10
65.0671974792694
 20
-98.25679637799203
 30
0.0
 10
65.00836431696979
 20
-98.15520338592518
 30
0.0
  0
LINE
  5
B77E
330
1F
100
AcDbEntity
  8
AM_0
100
AcDbLine
 10
66.31549279770746
 20
-97.82590843039613
 30
0.0
 11
66.39954640688262
 21
-97.61541887815862
 31
0.0
  0
ARC
  5
B77F
330
1F
100
AcDbEntity
  8
AM_0
100
AcDbCircle
 10
81.23625166531838
 20
-130.8886706201542
 30
0.0
 40
28.92609769818128
100
AcDbArc
 50
82.58680724521062
 51
100.2915260887816
  0
LINE
  5
B780
330
1F
100
AcDbEntity
  8
AM_0
100
AcDbLine
 10
98.00836387752906
 20
-101.6444067488581
 30
0.0
 11
101.5088370455048
 21
-101.5651422057709
 31
0.0
  0
LINE
  5
B781
330
1F
100
AcDbEntity
  8
AM_0
100
AcDbLine
 10
101.5081564775333
 20
-101.563904439597
 30
0.0
 11
103.0075765105853
 21
-100.7516723655734
 31
0.0
  0
ARC
  5
B786
330
1F
100
AcDbEntity
  8
AM_0
100
AcDbCircle
 10
44.44272698636382
 20
44.98330725092616
 30
0.0
 40
22.55828980360275
100
AcDbArc
 50
354.0074571860088
 51
13.26078240284609
  0
LINE
  5
B787
330
1F
100
AcDbEntity
  8
AM_0
100
AcDbLine
 10
66.31375419643291
 20
40.52714987535113
 30
0.0
 11
66.87627841693222
 21
42.62863689892747
 31
0.0
  0
LINE
  5
B788
330
1F
100
AcDbEntity
  8
AM_0
100
AcDbLine
 10
66.87774848675679
 20
42.62825473113371
 30
0.0
 11
67.00836598863384
 21
42.60833623205166
 31
0.0
  0
SPLINE
  5
B789
330
1F
100
AcDbEntity
  8
AM_0
100
AcDbSpline
210
0.0
220
0.0
230
1.0
 70
     8
 71
     3
 72
    22
 73
    18
 74
     0
 42
0.0000000001
 43
0.0000000001
 40
-3.608297247991451
 40
-3.608297247991451
 40
-3.608297247991451
 40
-3.608297247991451
 40
-2.530308969091733
 40
-2.530308969091733
 40
-2.252602965573062
 40
-2.252602965573062
 40
-2.090576289934671
 40
-2.090576289934671
 40
-1.955422443234214
 40
-1.955422443234214
 40
-1.803181533646466
 40
-1.803181533646466
 40
-1.567937045222921
 40
-1.567937045222921
 40
-1.094836533147729
 40
-1.094836533147729
 40
-0.0014877806800928
 40
-0.0014877806800928
 40
-0.0014877806800928
 40
-0.0014877806800928
 10
65.00836431696985
 20
40.16974545836743
 30
0.0
 10
65.06769296475204
 20
39.99800186607743
 30
0.0
 10
65.17101443694537
 20
39.73746222988618
 30
0.0
 10
65.34949220095859
 20
39.52099962435747
 30
0.0
 10
65.39309822582391
 20
39.47705695257517
 30
0.0
 10
65.47163782415692
 20
39.42513630272654
 30
0.0
 10
65.50348990060945
 20
39.40921888355953
 30
0.0
 10
65.56663124659519
 20
39.39164808191075
 30
0.0
 10
65.59603122949477
 20
39.38837354589859
 30
0.0
 10
65.65982538387743
 20
39.39281638691594
 30
0.0
 10
65.69193183054199
 20
39.40180509883246
 30
0.0
 10
65.76885359874473
 20
39.43650361683731
 30
0.0
 10
65.81044372196334
 20
39.46839531623957
 30
0.0
 10
65.91749725929037
 20
39.57129054012384
 30
0.0
 10
65.97768848391172
 20
39.66188402132397
 30
0.0
 10
66.13343829645123
 20
39.94024665840138
 30
0.0
 10
66.23152023150806
 20
40.20551760685092
 30
0.0
 10
66.31547109815676
 20
40.52669029658946
 30
0.0
  0
LINE
  5
B78A
330
1F
100
AcDbEntity
  8
AM_0
100
AcDbLine
 10
66.31540984168328
 20
50.49799818795027
 30
0.0
 11
66.39946444578754
 21
50.15779323946846
 31
0.0
  0
SPLINE
  5
B78B
330
1F
100
AcDbEntity
  8
AM_0
100
AcDbSpline
210
0.0
220
0.0
230
1.0
 70
     8
 71
     3
 72
    22
 73
    18
 74
     0
 42
0.0000000001
 43
0.0000000001
 40
0.0
 40
0.0
 40
0.0
 40
0.0
 40
0.6104979114020642
 40
0.6104979114020642
 40
0.7635149291197938
 40
0.7635149291197938
 40
0.8554662116289986
 40
0.8554662116289986
 40
0.9294361364572942
 40
0.9294361364572942
 40
1.007795334351185
 40
1.007795334351185
 40
1.127823541472723
 40
1.127823541472723
 40
1.385991912774112
 40
1.385991912774112
 40
2.103995362990674
 40
2.103995362990674
 40
2.103995362990674
 40
2.103995362990674
 10
65.00836431696996
 20
51.01140526774812
 30
0.0
 10
65.06729256008248
 20
51.18257308962042
 30
0.0
 10
65.17056549546794
 20
51.44317243097358
 30
0.0
 10
65.34813532694784
 20
51.64823489117323
 30
0.0
 10
65.39099047666389
 20
51.68887476473624
 30
0.0
 10
65.46940150385262
 20
51.73501704872315
 30
0.0
 10
65.5017369411496
 20
51.74848593376619
 30
0.0
 10
65.56473258399399
 20
51.75996720499485
 30
0.0
 10
65.59297277856058
 20
51.76021265169119
 30
0.0
 10
65.65132948107839
 20
51.75048588627034
 30
0.0
 10
65.67963322810635
 20
51.74021004821141
 30
0.0
 10
65.74641471565531
 20
51.70572552101636
 30
0.0
 10
65.7826686401155
 20
51.67681210492005
 30
0.0
 10
65.88139103312824
 20
51.58066946232056
 30
0.0
 10
65.93858683499832
 20
51.49532578036771
 30
0.0
 10
66.10847357814532
 20
51.19669123680241
 30
0.0
 10
66.22120877740451
 20
50.88131584760295
 30
0.0
 10
66.31547109815688
 20
50.49801332261667
 30
0.0
  0
LINE
  5
B78C
330
1F
100
AcDbEntity
  8
AM_0
100
AcDbLine
 10
101.5088374849504
 20
23.98246322845533
 30
0.0
 11
67.00836431697007
 21
23.11569125620405
 31
0.0
  0
LINE
  5
B78D
330
1F
100
AcDbEntity
  8
AM_0
100
AcDbLine
 10
65.00836431697007
 20
23.34081473691803
 30
0.0
 11
67.00836431697007
 21
23.34081473691803
 31
0.0
  0
LINE
  5
B78E
330
1F
100
AcDbEntity
  8
AM_0
100
AcDbLine
 10
103.0083643169701
 20
24.89918588853384
 30
0.0
 11
101.5088374849503
 21
23.98246322845533
 31
0.0
  0
LINE
  5
B78F
330
1F
100
AcDbEntity
  8
AM_0
100
AcDbLine
 10
103.0083643169701
 20
65.10116599415456
 30
0.0
 11
101.5088374849504
 21
66.01788865423306
 31
0.0
  0
LINE
  5
B790
330
1F
100
AcDbEntity
  8
AM_0
100
AcDbLine
 10
67.00836431697007
 20
23.11569125620405
 30
0.0
 11
67.00836431697007
 21
39.84931497752955
 31
0.0
  0
LINE
  5
B791
330
1F
100
AcDbEntity
  8
AM_0
100
AcDbLine
 10
67.00836431697007
 20
39.84931497752926
 30
0.0
 11
67.00836431697007
 21
42.60832526995323
 31
0.0
  0
LINE
  5
B792
330
1F
100
AcDbEntity
  8
AM_0
100
AcDbLine
 10
103.0083643169701
 20
49.36152080236424
 30
0.0
 11
103.0083643169701
 21
40.63883108032586
 31
0.0
  0
LINE
  5
B793
330
1F
100
AcDbEntity
  8
AM_0
100
AcDbLine
 10
101.5088374849504
 20
40.23301696190315
 30
0.0
 11
101.5088374849504
 21
49.76733492078706
 31
0.0
  0
LINE
  5
B794
330
1F
100
AcDbEntity
  8
AM_0
100
AcDbLine
 10
103.0083643169701
 20
40.63883108032614
 30
0.0
 11
103.0083643169701
 21
24.89918588853378
 31
0.0
  0
LINE
  5
B795
330
1F
100
AcDbEntity
  8
AM_0
100
AcDbLine
 10
101.5088374849504
 20
23.98246322845533
 30
0.0
 11
101.5088374849504
 21
40.23301696190343
 31
0.0
  0
LINE
  5
B796
330
1F
100
AcDbEntity
  8
AM_0
100
AcDbLine
 10
101.5088374849504
 20
49.76733492078706
 30
0.0
 11
101.5088374849504
 21
66.01788865423306
 31
0.0
  0
LINE
  5
B797
330
1F
100
AcDbEntity
  8
AM_0
100
AcDbLine
 10
103.0083643169701
 20
65.10116599415456
 30
0.0
 11
103.0083643169701
 21
49.3615208023643
 31
0.0
  0
LINE
  5
B798
330
1F
100
AcDbEntity
  8
AM_0
100
AcDbLine
 10
66.87774848675679
 20
47.37209715155485
 30
0.0
 11
67.00836598863384
 21
47.39201565063691
 31
0.0
  0
LINE
  5
B799
330
1F
100
AcDbEntity
  8
AM_0
100
AcDbLine
 10
101.5088374849504
 20
66.01788865423318
 30
0.0
 11
67.00836431697007
 21
66.88466062648458
 31
0.0
  0
LINE
  5
B79A
330
1F
100
AcDbEntity
  8
AM_0
100
AcDbLine
 10
65.00836431697007
 20
66.65953714577059
 30
0.0
 11
67.00836431697007
 21
66.65953714577059
 31
0.0
  0
LINE
  5
B79B
330
1F
100
AcDbEntity
  8
AM_0
100
AcDbLine
 10
67.00836431697007
 20
66.88466062648458
 30
0.0
 11
67.00836431697007
 21
50.15103690515902
 31
0.0
  0
LINE
  5
B79C
330
1F
100
AcDbEntity
  8
AM_0
100
AcDbLine
 10
67.00836431697007
 20
50.1510369051593
 30
0.0
 11
67.00836431697007
 21
47.39202661273534
 31
0.0
  0
TEXT
  5
B7ED
330
1F
100
AcDbEntity
  8
AM_0
100
AcDbText
 10
-80.1474874820193
 20
-127.3521870116473
 30
0.0
 40
5.0
  1
C6-DDJNR-DX15
100
AcDbText
  0
LINE
  5
CE4E
330
1F
100
AcDbEntity
  8
AM_3
  6
ACJISTGL
100
AcDbLine
 10
-66.12128541525431
 20
23.88266652239228
 30
0.0
 11
-66.25416424161233
 21
23.2892194209882
 31
0.0
  0
LINE
  5
D0BC
330
1F
100
AcDbEntity
  8
AM_0
100
AcDbLine
 10
7.339334339228799
 20
13.01748874222339
 30
0.0
 11
7.917316865465182
 21
13.43222203363364
 31
0.0
  0
LINE
  5
D0BD
330
1F
100
AcDbEntity
  8
AM_0
100
AcDbLine
 10
8.684858997931883
 20
13.47244721229662
 30
0.0
 11
7.917316865465182
 21
13.43222203363364
 31
0.0
  0
LINE
  5
D0BE
330
1F
100
AcDbEntity
  8
AM_0
100
AcDbLine
 10
14.68028792452844
 20
0.7262149426596096
 30
0.0
 11
0.8439464960842997
 21
0.0010830150963415
 31
0.0
  0
LINE
  5
D0BF
330
1F
100
AcDbEntity
  8
AM_0
100
AcDbLine
 10
0.1162897035064816
 20
1.219430027614905
 30
0.0
 11
7.339334339228799
 21
13.01748874222339
 31
0.0
  0
LINE
  5
D0C0
330
1F
100
AcDbEntity
  8
AM_0
100
AcDbLine
 10
7.339334339228799
 20
13.01748874222339
 30
0.0
 11
11.36701360624011
 21
13.22857046824167
 31
0.0
  0
LINE
  5
D0C1
330
1F
100
AcDbEntity
  8
AM_0
100
AcDbLine
 10
15.25827045076494
 20
1.140948234069853
 30
0.0
 11
15.75037603546969
 21
1.944749245269563
 31
0.0
  0
LINE
  5
D0C2
330
1F
100
AcDbEntity
  8
AM_0
100
AcDbLine
 10
14.68028792452844
 20
0.7262149426596096
 30
0.0
 11
15.25827045076494
 21
1.140948234069853
 31
0.0
  0
LINE
  5
D0C3
330
1F
100
AcDbEntity
  8
AM_0
100
AcDbLine
 10
19.67289823576016
 20
8.881101498359598
 30
0.0
 11
14.68028792452844
 21
0.7262149426595528
 31
0.0
  0
ELLIPSE
  5
D0C4
330
1F
100
AcDbEntity
  8
AM_0
100
AcDbEllipse
 10
0.7940804970970703
 20
0.7969576409372792
 30
0.0
 11
-0.4663958313698908
 21
0.6499807139298747
 31
0.0
210
0.0
220
0.0
230
0.9999999999999999
 40
0.9887692138764507
 41
0.3950003939154191
 42
2.576661958908313
  0
ELLIPSE
  5
D0C5
330
1F
100
AcDbEntity
  8
AM_0
100
AcDbEllipse
 10
11.58779365811495
 20
7.28658513385173
 30
0.0
 11
1.504126556167897
 21
-2.096187802423844
 31
0.0
210
0.0
220
0.0
230
1.0
 40
0.9887692138764507
 41
4.095098408143402
 42
6.143298449027949
  0
ELLIPSE
  5
D0C6
330
1F
100
AcDbEntity
  8
AM_0
100
AcDbEllipse
 10
11.58779365811495
 20
7.28658513385173
 30
0.0
 11
1.504126556167897
 21
-2.096187802423844
 31
0.0
210
0.0
220
0.0
230
1.0
 40
0.9887692138764507
 41
3.281479511741436
 42
4.095098408143402
  0
ELLIPSE
  5
D0C7
330
1F
100
AcDbEntity
  8
AM_0
100
AcDbEllipse
 10
11.00981113187845
 20
6.871851842441487
 30
0.0
 11
-1.504126556167897
 21
2.096187802423844
 31
0.0
210
0.0
220
0.0
230
1.0
 40
0.9887692138764507
 41
6.108479266682734
 42
7.236691061733217
  0
ELLIPSE
  5
D0C8
330
1F
100
AcDbEntity
  8
AM_0
100
AcDbEllipse
 10
11.00981113187845
 20
6.871851842441487
 30
0.0
 11
-1.504126556167897
 21
2.096187802423844
 31
0.0
210
0.0
220
0.0
230
1.0
 40
0.9887692138764507
 41
0.9535057545536312
 42
3.739780338998268
  0
LINE
  5
D0C9
330
1F
100
AcDbEntity
  8
AM_0
100
AcDbLine
 10
31.39545458953444
 20
19.69982553596769
 30
0.0
 11
31.42718227518958
 21
19.67091609469502
 31
0.0
  0
LINE
  5
D0CA
330
1F
100
AcDbEntity
  8
AM_0
100
AcDbLine
 10
31.26690140656933
 20
19.55590602228715
 30
0.0
 11
31.42718227518958
 21
19.67091609469502
 31
0.0
  0
SPLINE
  5
D0CB
330
1F
100
AcDbEntity
  8
AM_0
100
AcDbSpline
210
0.0
220
0.0
230
1.0
 70
     8
 71
     3
 72
    26
 73
    22
 74
     0
 42
0.0000000001
 43
0.0000000001
 40
0.0
 40
0.0
 40
0.0
 40
0.0
 40
0.2713201130182787
 40
0.2713201130182787
 40
0.5426402260365575
 40
0.5426402260365575
 40
0.8170010649551114
 40
0.8170010649551114
 40
1.091361903873665
 40
1.091361903873665
 40
1.603653698997455
 40
1.603653698997455
 40
2.115945494121244
 40
2.115945494121244
 40
2.454564954443122
 40
2.454564954443122
 40
2.793184414765001
 40
2.793184414765001
 40
2.985940191262639
 40
2.985940191262639
 40
3.144998242976461
 40
3.144998242976461
 40
3.144998242976461
 40
3.144998242976461
 10
22.86673802656492
 20
29.68880714240416
 30
0.0
 10
22.79992015681569
 20
29.74968984599875
 30
0.0
 10
22.71955080267571
 20
29.80626874308726
 30
0.0
 10
22.54793524506749
 20
29.89317329585273
 30
0.0
 10
22.45670443569645
 20
29.92352361173349
 30
0.0
 10
22.28559605001829
 20
29.95724996363973
 30
0.0
 10
22.19162073209964
 20
29.96313445524098
 30
0.0
 10
22.00993088771486
 20
29.94719890152479
 30
0.0
 10
21.92222871226761
 20
29.92544686283853
 30
0.0
 10
21.70581587554489
 20
29.84050162688394
 30
0.0
 10
21.57800490475415
 20
29.74681495677734
 30
0.0
 10
21.39082755648576
 20
29.51017173465303
 30
0.0
 10
21.33155002882995
 20
29.36743812813612
 30
0.0
 10
21.29502855375677
 20
29.1317649058287
 30
0.0
 10
21.29503402250089
 20
29.0267739100731
 30
0.0
 10
21.33205907716388
 20
28.8176833320621
 30
0.0
 10
21.36899146129076
 20
28.71355715950969
 30
0.0
 10
21.44693211187337
 20
28.5666026463015
 30
0.0
 10
21.48317643073642
 20
28.50962884557984
 30
0.0
 10
21.55980387674231
 20
28.41105267780804
 30
0.0
 10
21.59839297377425
 20
28.3684858891194
 30
0.0
 10
21.63748339254221
 20
28.33064600668084
 30
0.0
  0
LINE
  5
D0CC
330
1F
100
AcDbEntity
  8
AM_0
100
AcDbLine
 10
32.47124869566108
 20
20.93742703358798
 30
0.0
 11
22.86673802656492
 21
29.68880714240412
 31
0.0
  0
LINE
  5
D0CD
330
1F
100
AcDbEntity
  8
AM_0
100
AcDbLine
 10
22.86673802656492
 20
29.68880714240412
 30
0.0
 11
23.01834716097199
 21
29.87002204600354
 31
0.0
  0
LINE
  5
D0CE
330
1F
100
AcDbEntity
  8
AM_0
100
AcDbLine
 10
32.62285783006803
 20
21.11864193718741
 30
0.0
 11
23.01834716097199
 21
29.87002204600354
 31
0.0
  0
LINE
  5
D0CF
330
1F
100
AcDbEntity
  8
AM_0
100
AcDbLine
 10
8.44169232942545
 20
13.07526087645617
 30
0.0
 11
15.13017821206154
 21
24.00017594134424
 31
0.0
  0
SPLINE
  5
D0D0
330
1F
100
AcDbEntity
  8
AM_0
100
AcDbSpline
210
0.0
220
0.0
230
1.0
 70
     8
 71
     3
 72
    26
 73
    22
 74
     0
 42
0.0000000001
 43
0.0000000001
 40
-3.178695967760166
 40
-3.178695967760166
 40
-3.178695967760166
 40
-3.178695967760166
 40
-2.985940191262536
 40
-2.985940191262536
 40
-2.793184414764907
 40
-2.793184414764907
 40
-2.454564954443053
 40
-2.454564954443053
 40
-2.1159454941212
 40
-2.1159454941212
 40
-1.60365369899743
 40
-1.60365369899743
 40
-1.091361903873661
 40
-1.091361903873661
 40
-0.8170010649551092
 40
-0.8170010649551092
 40
-0.5426402260365579
 40
-0.5426402260365579
 40
-0.2713201130182785
 40
-0.2713201130182785
 40
0.0
 40
0.0
 40
0.0
 40
0.0
 10
31.26690140656933
 20
19.55590602228713
 30
0.0
 10
31.31437127610525
 20
19.51265271284345
 30
0.0
 10
31.3692984839854
 20
19.47014228273164
 30
0.0
 10
31.48324066961675
 20
19.39783062054258
 30
0.0
 10
31.5423010835184
 20
19.36796522962513
 30
0.0
 10
31.69279888799076
 20
19.30677256901757
 30
0.0
 10
31.79727932669039
 20
19.28204705849598
 30
0.0
 10
32.00317287099847
 20
19.26979653248398
 30
0.0
 10
32.10460534817821
 20
19.28235991242221
 30
0.0
 10
32.32855716546021
 20
19.34725148586622
 30
0.0
 10
32.46039127024346
 20
19.42387342800865
 30
0.0
 10
32.66961130593211
 20
19.64043192714374
 30
0.0
 10
32.74676704154638
 20
19.78027432894808
 30
0.0
 10
32.8057943333796
 20
20.00862517653818
 30
0.0
 10
32.81739984660317
 20
20.0997145129875
 30
0.0
 10
32.81306097855656
 20
20.28515458699943
 30
0.0
 10
32.79704805541337
 20
20.37948851757463
 30
0.0
 10
32.74541568481902
 20
20.54871774466912
 30
0.0
 10
32.70580690310317
 20
20.6375850583307
 30
0.0
 10
32.60214426411721
 20
20.80150683259686
 30
0.0
 10
32.53806656541042
 20
20.87654432999338
 30
0.0
 10
32.47124869566108
 20
20.93742703358797
 30
0.0
  0
LINE
  5
D0D1
330
1F
100
AcDbEntity
  8
AM_0
100
AcDbLine
 10
32.47124869566108
 20
20.93742703358798
 30
0.0
 11
32.62285783006803
 21
21.11864193718741
 31
0.0
  0
LINE
  5
D0D2
330
1F
100
AcDbEntity
  8
AM_0
100
AcDbLine
 10
30.26298333264867
 20
18.50444519700675
 30
0.0
 11
31.26690140656933
 21
19.55590602228715
 31
0.0
  0
LINE
  5
D0D3
330
1F
100
AcDbEntity
  8
AM_0
100
AcDbLine
 10
30.26244087606233
 20
18.50493946932765
 30
0.0
 11
30.26298333264867
 21
18.50444519700675
 31
0.0
  0
LINE
  5
D0D4
330
1F
100
AcDbEntity
  8
AM_0
100
AcDbLine
 10
11.36701360624011
 20
13.22857046824167
 30
0.0
 11
8.44169232942545
 21
13.07526087645628
 31
0.0
  0
LINE
  5
D0D5
330
1F
100
AcDbEntity
  8
AM_0
100
AcDbLine
 10
15.41556017773962
 20
1.92720228969965
 30
0.0
 11
19.67289823576016
 21
8.881101498359541
 31
0.0
  0
LINE
  5
D0D6
330
1F
100
AcDbEntity
  8
AM_0
100
AcDbLine
 10
40.16807497611239
 20
3.224426621767506
 30
0.0
 11
15.41556017773962
 21
1.92720228969965
 31
0.0
  0
LINE
  5
D0D7
330
1F
100
AcDbEntity
  8
AM_0
100
AcDbLine
 10
40.16807497611239
 20
3.224426621767506
 30
0.0
 11
40.25622342045995
 21
3.229046285982335
 31
0.0
  0
LINE
  5
D0D8
330
1F
100
AcDbEntity
  8
AM_0
100
AcDbLine
 10
40.17006730232447
 20
3.223908181014778
 30
0.0
 11
42.18635645378379
 21
10.97234559980068
 31
0.0
  0
LINE
  5
D0D9
330
1F
100
AcDbEntity
  8
AM_0
100
AcDbLine
 10
17.79674381639461
 20
42.97377610516587
 30
0.0
 11
20.39074594999443
 21
39.6849291603957
 31
0.0
  0
LINE
  5
D0DA
330
1F
100
AcDbEntity
  8
AM_0
100
AcDbLine
 10
17.79674381639461
 20
42.97377610516581
 30
0.0
 11
17.79892084181324
 21
42.98926644591408
 31
0.0
  0
LINE
  5
D0DB
330
1F
100
AcDbEntity
  8
AM_0
100
AcDbLine
 10
15.13017821206142
 20
24.00017594134424
 30
0.0
 11
17.79674381639461
 21
42.97377610516587
 31
0.0
  0
LINE
  5
D0DC
330
1F
100
AcDbEntity
  8
AM_0
100
AcDbLine
 10
20.39074594999443
 20
39.68492916039564
 30
0.0
 11
36.82278857233177
 21
16.78482998150246
 31
0.0
  0
LINE
  5
D0DD
330
1F
100
AcDbEntity
  8
AM_0
100
AcDbLine
 10
38.81125459227815
 20
14.01365477722611
 30
0.0
 11
41.11207870099088
 21
10.80716964974208
 31
0.0
  0
LINE
  5
D0DE
330
1F
100
AcDbEntity
  8
AM_0
100
AcDbLine
 10
17.79892084181324
 20
42.98926644591408
 30
0.0
 11
20.39074594999443
 21
39.68492916039564
 31
0.0
  0
LINE
  5
D0DF
330
1F
100
AcDbEntity
  8
AM_0
100
AcDbLine
 10
22.46330620120926
 20
76.17809280568913
 30
0.0
 11
17.79892084181324
 21
42.98926644591403
 31
0.0
  0
LINE
  5
D0E0
330
1F
100
AcDbEntity
  8
AM_0
100
AcDbLine
 10
42.18454810240723
 20
10.97281829016093
 30
0.0
 11
43.00951783001858
 21
14.17318867878343
 31
0.0
  0
ELLIPSE
  5
D0E1
330
1F
100
AcDbEntity
  8
AM_0
100
AcDbEllipse
 10
41.11207870099088
 20
56.20059772056733
 30
0.0
 11
0.4912551374137278
 21
-45.73441294215997
 31
0.0
210
0.0
220
0.0
230
1.0
 40
0.0867993853090989
 41
6.160060670269334
 42
6.431273671711773
  0
LINE
  5
D0E4
330
1F
100
AcDbEntity
  8
AM_0
100
AcDbLine
 10
42.94138603300013
 20
76.08961085898984
 30
0.0
 11
43.00837455513016
 21
75.8268684694619
 31
0.0
  0
LINE
  5
D0E6
330
1F
100
AcDbEntity
  8
AM_0
100
AcDbLine
 10
41.11254510625537
 20
76.18813870794516
 30
0.0
 11
42.94200810257036
 21
76.10320147175487
 31
0.0
  0
LINE
  5
D0E7
330
1F
100
AcDbEntity
  8
AM_0
100
AcDbLine
 10
41.11207870099094
 20
76.17809280568913
 30
0.0
 11
22.46330620120926
 21
76.17809280568913
 31
0.0
  0
LINE
  5
D0E8
330
1F
100
AcDbEntity
  8
AM_0
100
AcDbLine
 10
22.54370724261349
 20
76.75017594134438
 30
0.0
 11
22.46330620120926
 21
76.17809280568925
 31
0.0
  0
ELLIPSE
  5
D0E9
330
1F
100
AcDbEntity
  8
AM_0
100
AcDbEllipse
 10
53.0083643169699
 20
19.96382169426195
 30
0.0
 11
1.75
 21
-4.585934605917018E-16
 31
0.0
210
0.0
220
0.0
230
1.0
 40
0.7330766919389433
 41
3.141592653589795
 42
6.283185307179585
  0
ELLIPSE
  5
D0EA
330
1F
100
AcDbEntity
  8
AM_0
100
AcDbEllipse
 10
53.0083643169699
 20
19.96382169426195
 30
0.0
 11
1.75
 21
-4.585934605917018E-16
 31
0.0
210
0.0
220
0.0
230
1.0
 40
0.7330766919389433
 41
-0.0000000000000015
 42
3.141592653589795
  0
SPLINE
  5
D0EB
330
1F
100
AcDbEntity
  8
AM_0
100
AcDbSpline
210
0.0
220
0.0
230
1.0
 70
     8
 71
     3
 72
    16
 73
    12
 74
     0
 42
0.0000000001
 43
0.0000000001
 40
2.663078360112622
 40
2.663078360112622
 40
2.663078360112622
 40
2.663078360112622
 40
2.761903408411102
 40
2.761903408411102
 40
3.133868699072244
 40
3.133868699072244
 40
3.505833989733431
 40
3.505833989733431
 40
3.877799280394617
 40
3.877799280394617
 40
4.444256858360244
 40
4.444256858360244
 40
4.444256858360244
 40
4.444256858360244
 10
51.25873436491196
 20
19.99020258592466
 30
0.0
 10
51.25940054620304
 20
19.96556313379429
 30
0.0
 10
51.26092911851487
 20
19.94164967039782
 30
0.0
 10
51.27254621868923
 20
19.83172058453508
 30
0.0
 10
51.29463795687724
 20
19.75676116922378
 30
0.0
 10
51.36470291450604
 20
19.63782481541799
 30
0.0
 10
51.41235910135623
 20
19.59438604467019
 30
0.0
 10
51.52824222557371
 20
19.54021835109521
 30
0.0
 10
51.59645454428068
 20
19.52945439759461
 30
0.0
 10
51.78551610188191
 20
19.53795929191179
 30
0.0
 10
51.91581656360819
 20
19.57657817915677
 30
0.0
 10
52.04734963940035
 20
19.63204378968615
 30
0.0
  0
ELLIPSE
  5
D0F0
330
1F
100
AcDbEntity
  8
AM_0
100
AcDbEllipse
 10
44.25247141590506
 20
45.00017594134427
 30
0.0
 11
1.140678293664357E-14
 21
31.50000000000001
 31
0.0
210
0.0
220
0.0
230
1.0
 40
0.0874886635259265
 41
3.783599418432877
 42
5.971783923105501
  0
SPLINE
  5
D0F1
330
1F
100
AcDbEntity
  8
AM_0
100
AcDbSpline
210
0.0
220
0.0
230
1.0
 70
     8
 71
     3
 72
    18
 73
    14
 74
     0
 42
0.0000000001
 43
0.0000000001
 40
1.892258397308411
 40
1.892258397308411
 40
1.892258397308411
 40
1.892258397308411
 40
2.252825887410447
 40
2.252825887410447
 40
3.003767849880596
 40
3.003767849880596
 40
3.788035129008954
 40
3.788035129008954
 40
4.572302408137313
 40
4.572302408137313
 40
5.356569687265671
 40
5.356569687265671
 40
5.778899267083244
 40
5.778899267083244
 40
5.778899267083244
 40
5.778899267083244
 10
43.00836431697013
 20
75.8268658591514
 30
0.0
 10
43.11980411533278
 20
75.81425690341412
 30
0.0
 10
43.22792714601758
 20
75.80040168180911
 30
0.0
 10
43.54860460598991
 20
75.75403259821788
 30
0.0
 10
43.74733772966101
 20
75.71747060389301
 30
0.0
 10
44.10661310966839
 20
75.63470593305301
 30
0.0
 10
44.27765066587949
 20
75.58528155172458
 30
0.0
 10
44.57733627957214
 20
75.47239450015259
 30
0.0
 10
44.70600672482601
 20
75.40890224546742
 30
0.0
 10
44.91141337796876
 20
75.27014281750992
 30
0.0
 10
44.98832614996468
 20
75.19474188851014
 30
0.0
 10
45.06550923822215
 20
75.07304110238597
 30
0.0
 10
45.08484358798273
 20
75.02938706761491
 30
0.0
 10
45.0968574933579
 20
74.98518755454718
 30
0.0
  0
ARC
  5
D0F2
330
1F
100
AcDbEntity
  8
AM_0
100
AcDbCircle
 10
42.94573984127567
 20
17.82220138047843
 30
0.0
 40
3.649252742813845
100
AcDbArc
 50
270.9832956340724
 51
303.1397687722371
  0
ELLIPSE
  5
D0F3
330
1F
100
AcDbEntity
  8
AM_0
100
AcDbEllipse
 10
-48.75262210415099
 20
45.00017594134432
 30
0.0
 11
-257.4998363476868
 21
2.80668811715372
 31
0.0
210
0.0
220
0.0
230
1.0
 40
0.1218436160113851
 41
1.944530401104177
 42
1.967083866908806
  0
ELLIPSE
  5
D0F4
330
1F
100
AcDbEntity
  8
AM_0
100
AcDbEllipse
 10
41.11207870099088
 20
33.24608647882636
 30
0.0
 11
0.4912551374137419
 21
-45.73441294215999
 31
0.0
210
0.0
220
0.0
230
1.0
 40
0.0867993853090989
 41
1.153910763715278
 42
1.198170427379582
  0
ELLIPSE
  5
D0F5
330
1F
100
AcDbEntity
  8
AM_0
100
AcDbEllipse
 10
41.11207870099088
 20
33.24608647882636
 30
0.0
 11
0.4912551374137419
 21
-45.73441294215999
 31
0.0
210
0.0
220
0.0
230
1.0
 40
0.0867993853090989
 41
1.301608622114463
 42
1.360405227284927
  0
LINE
  5
D0F6
330
1F
100
AcDbEntity
  8
AM_0
100
AcDbLine
 10
45.09685749335785
 20
23.73650270345233
 30
0.0
 11
45.09813765576354
 21
23.90077146587178
 31
0.0
  0
ELLIPSE
  5
D0F7
330
1F
100
AcDbEntity
  8
AM_0
100
AcDbEllipse
 10
34.48527312260683
 20
45.00017594134427
 30
0.0
 11
18.72474286406528
 21
-31.4068908934402
 31
0.0
210
0.0
220
0.0
230
1.0
 40
0.1292496357236357
 41
5.564272080043986
 42
5.899210834165728
  0
LINE
  5
D0F8
330
1F
100
AcDbEntity
  8
AM_0
100
AcDbLine
 10
45.09813765576354
 20
23.90077146587178
 30
0.0
 11
45.90271071003878
 21
19.77196098779614
 31
0.0
  0
LINE
  5
D0F9
330
1F
100
AcDbEntity
  8
AM_0
100
AcDbLine
 10
43.00836431696968
 20
76.50017594134415
 30
0.0
 11
42.94137701886194
 21
76.75017594134427
 31
0.0
  0
LINE
  5
D0FA
330
1F
100
AcDbEntity
  8
AM_0
100
AcDbLine
 10
43.00836431696962
 20
13.50017594134441
 30
0.0
 11
40.25622342046017
 21
3.229046285982165
 31
0.0
  0
LINE
  5
D0FB
330
1F
100
AcDbEntity
  8
AM_0
100
AcDbLine
 10
42.94137701886194
 20
76.75017594134438
 30
0.0
 11
22.54370724261349
 21
76.75017594134438
 31
0.0
  0
LINE
  5
D0FC
330
1F
100
AcDbEntity
  8
AM_0
100
AcDbLine
 10
64.70836431697006
 20
76.50017594134438
 30
0.0
 11
43.00836431697013
 21
76.50017594134438
 31
0.0
  0
LINE
  5
D0FD
330
1F
100
AcDbEntity
  8
AM_0
100
AcDbLine
 10
64.70836431697001
 20
13.5001759413443
 30
0.0
 11
43.00836431697007
 21
13.5001759413443
 31
0.0
  0
ELLIPSE
  5
D0FE
330
1F
100
AcDbEntity
  8
AM_0
100
AcDbEllipse
 10
26.95636998803184
 20
24.41376861261156
 30
0.0
 11
0.8744921838185442
 21
-1.218713838618515
 31
0.0
210
0.0
220
0.0
230
0.9999999999999999
 40
0.9887692138764508
 41
2.472223730713473
 42
2.700351343039883
  0
ELLIPSE
  5
D0FF
330
1F
100
AcDbEntity
  8
AM_0
100
AcDbEllipse
 10
26.95636998803184
 20
24.41376861261156
 30
0.0
 11
0.8744921838185442
 21
-1.218713838618515
 31
0.0
210
0.0
220
0.0
230
0.9999999999999999
 40
0.9887692138764508
 41
0.8647229554619407
 42
1.092850567788376
  0
ELLIPSE
  5
D100
330
1F
100
AcDbEntity
  8
AM_0
100
AcDbEllipse
 10
22.48555770087421
 20
29.15662113052818
 30
0.0
 11
0.5829947892123628
 21
-0.8124758924123431
 31
0.0
210
0.0
220
0.0
230
1.0
 40
0.9887692138764508
 41
3.300176952432817
 42
4.889983024719216
  0
ELLIPSE
  5
D101
330
1F
100
AcDbEntity
  8
AM_0
100
AcDbEllipse
 10
32.09006836997037
 20
20.4052410217121
 30
0.0
 11
0.5829947892123628
 21
-0.8124758924123431
 31
0.0
210
0.0
220
0.0
230
1.0
 40
0.9887692138764508
 41
4.924129802840682
 42
6.138512451448555
  0
ELLIPSE
  5
D102
330
1F
100
AcDbEntity
  8
AM_0
100
AcDbEllipse
 10
21.83840991226225
 20
28.5629236759132
 30
0.0
 11
1.037730724798006
 21
-1.446207088493945
 31
0.0
210
0.0
220
0.0
230
1.0
 40
0.9887692138764511
 41
1.78253714925093
 42
4.828978309223324
  0
ELLIPSE
  5
D103
330
1F
100
AcDbEntity
  8
AM_0
100
AcDbEllipse
 10
31.44292058135829
 20
19.81154356709706
 30
0.0
 11
1.037730724798006
 21
-1.446207088493945
 31
0.0
210
0.0
220
0.0
230
1.0
 40
0.9887692138764511
 41
4.924129802840701
 42
8.065722456430494
  0
ELLIPSE
  5
D104
330
1F
100
AcDbEntity
  8
AM_0
100
AcDbEllipse
 10
22.77672391431327
 20
12.54631067379651
 30
0.0
 11
1.603235670333993
 21
-2.234308704133935
 31
0.0
210
0.0
220
0.0
230
1.0
 40
0.9887692138764507
 41
5.408049669566155
 42
5.972911992214905
  0
ELLIPSE
  5
D105
330
1F
100
AcDbEntity
  8
AM_0
100
AcDbEllipse
 10
21.4276932700933
 20
11.57830923103009
 30
0.0
 11
1.603235670334011
 21
-2.234308704133921
 31
0.0
210
0.0
220
0.0
230
1.0
 40
0.9887692138764511
 41
5.208297316080922
 42
7.30177105480937
  0
LINE
  5
D106
330
1F
100
AcDbEntity
  8
AM_0
100
AcDbLine
 10
42.94137701886194
 20
76.0896085607546
 30
0.0
 11
42.94137701886194
 21
76.75017594134427
 31
0.0
  0
LINE
  5
D10B
330
1F
100
AcDbEntity
  8
AM_0
100
AcDbLine
 10
43.00836431697007
 20
13.5001759413443
 30
0.0
 11
43.00836431697007
 21
14.17348602353728
 31
0.0
  0
LINE
  5
D10C
330
1F
100
AcDbEntity
  8
AM_0
100
AcDbLine
 10
43.00836431697013
 20
75.8268658591514
 30
0.0
 11
43.00836431697013
 21
76.50017594134438
 31
0.0
  0
LINE
  5
D10E
330
1F
100
AcDbEntity
  8
AM_0
100
AcDbLine
 10
8.464983222555816
 20
13.46092401119266
 30
0.0
 11
8.844548148099193
 21
13.73328209076912
 31
0.0
  0
LINE
  5
D10F
330
1F
100
AcDbEntity
  8
AM_0
100
AcDbLine
 10
15.99630484274667
 20
1.957637827918788
 30
0.0
 11
15.5717653532854
 21
1.653008099846645
 31
0.0
  0
LINE
  5
D110
330
1F
100
AcDbEntity
  8
AM_0
100
AcDbLine
 10
8.234975733495389
 20
13.44886982947428
 30
0.0
 11
8.721963234857185
 21
13.79830933698081
 31
0.0
  0
LINE
  5
D111
330
1F
100
AcDbEntity
  8
AM_0
100
AcDbLine
 10
15.48897651464165
 20
1.51778152594413
 30
0.0
 11
15.99572031733965
 21
1.881397233434811
 31
0.0
  0
ELLIPSE
  5
D112
330
1F
100
AcDbEntity
  8
AM_0
100
AcDbEllipse
 10
9.188359066227122
 20
13.14832862305096
 30
0.0
 11
0.4663958313698907
 21
-0.6499807139298747
 31
0.0
210
0.0
220
0.0
230
1.0
 40
0.9887692138764507
 41
2.813220255305551
 42
3.141592653589865
  0
ELLIPSE
  5
D113
330
1F
100
AcDbEntity
  8
AM_0
100
AcDbEllipse
 10
15.52932448596982
 20
2.531377947364632
 30
0.0
 11
0.4663958313698907
 21
-0.6499807139298747
 31
0.0
210
0.0
220
0.0
230
1.0
 40
0.9887692138764507
 41
-0.0000000000000785
 42
0.1590380789001971
  0
ELLIPSE
  5
D114
330
1F
100
AcDbEntity
  8
AM_0
100
AcDbEllipse
 10
11.58779365811506
 20
7.28658513385173
 30
0.0
 11
-1.165989578424727
 21
1.624951784824686
 31
0.0
210
0.0
220
0.0
230
1.0
 40
0.9887692138764511
 41
2.484148358969738
 42
3.209397155313253
  0
LINE
  5
D115
330
1F
100
AcDbEntity
  8
AM_0
100
AcDbLine
 10
30.08525031594593
 20
18.32000514223704
 30
0.0
 11
30.55318316107628
 21
18.80838807742786
 31
0.0
  0
LINE
  5
D116
330
1F
100
AcDbEntity
  8
AM_0
100
AcDbLine
 10
23.08135137556144
 20
10.57254409406657
 30
0.0
 11
30.05643594156175
 21
18.29932929169517
 31
0.0
  0
LINE
  5
D117
330
1F
100
AcDbEntity
  8
AM_0
100
AcDbLine
 10
15.75081346324623
 20
7.244309446928966
 30
0.0
 11
22.22701458038887
 21
9.947003327054105
 31
0.0
  0
LINE
  5
D118
330
1F
100
AcDbEntity
  8
AM_0
100
AcDbLine
 10
15.54315047180558
 20
6.863245844158527
 30
0.0
 11
15.75081346324623
 21
7.244309446928966
 31
0.0
  0
LINE
  5
D119
330
1F
100
AcDbEntity
  8
AM_0
100
AcDbLine
 10
12.17316534557074
 20
5.456859907088344
 30
0.0
 11
15.54315047180558
 21
6.86324584415847
 31
0.0
  0
LINE
  5
D11A
330
1F
100
AcDbEntity
  8
AM_0
100
AcDbLine
 10
18.91372321794802
 20
22.50565699365636
 30
0.0
 11
18.25083712316723
 21
21.77133206663932
 31
0.0
  0
LINE
  5
D11B
330
1F
100
AcDbEntity
  8
AM_0
100
AcDbLine
 10
18.51302104639751
 20
22.21813181263666
 30
0.0
 11
18.91372321794802
 21
22.50565699365636
 31
0.0
  0
ELLIPSE
  5
D11C
330
1F
100
AcDbEntity
  8
AM_0
100
AcDbEllipse
 10
30.16668508442854
 20
20.57141852773466
 30
0.0
 11
1.284553778528953
 21
1.145725830230067
 31
0.0
210
0.0
220
0.0
230
1.0
 40
0.8698883913753831
 41
4.802505868581064
 42
5.221308291649676
  0
LINE
  5
D11D
330
1F
100
AcDbEntity
  8
AM_0
100
AcDbLine
 10
30.46792556147761
 20
18.98259823710116
 30
0.0
 11
31.27489785393959
 21
19.56164389979431
 31
0.0
  0
LINE
  5
D11E
330
1F
100
AcDbEntity
  8
AM_0
100
AcDbLine
 10
26.84532787990065
 20
14.96959540134871
 30
0.0
 11
30.46792556147761
 21
18.98259823710122
 31
0.0
  0
ELLIPSE
  5
D11F
330
1F
100
AcDbEntity
  8
AM_0
100
AcDbEllipse
 10
22.77859995435483
 20
27.30324938067022
 30
0.0
 11
1.284553778528959
 21
1.14572583023006
 31
0.0
210
0.0
220
0.0
230
1.0
 40
0.8698883913753824
 41
1.242110791922675
 42
1.449172392535264
  0
LINE
  5
D120
330
1F
100
AcDbEntity
  8
AM_0
100
AcDbLine
 10
31.24044370756769
 20
21.72990080751974
 30
0.0
 11
30.35404193413774
 21
21.09386025556709
 31
0.0
  0
LINE
  5
D121
330
1F
100
AcDbEntity
  8
AM_0
100
AcDbLine
 10
30.35404193413774
 20
21.09386025556709
 30
0.0
 11
22.96595680406404
 21
27.82569110850271
 31
0.0
  0
LINE
  5
D122
330
1F
100
AcDbEntity
  8
AM_0
100
AcDbLine
 10
22.96595680406404
 20
27.82569110850277
 30
0.0
 11
23.85235857749387
 21
28.46173166045541
 31
0.0
  0
LINE
  5
D123
330
1F
100
AcDbEntity
  8
AM_0
100
AcDbLine
 10
27.54640114253073
 20
25.09581623398758
 30
0.0
 11
23.85235857749387
 21
28.46173166045541
 31
0.0
  0
LINE
  5
D124
330
1F
100
AcDbEntity
  8
AM_0
100
AcDbLine
 10
31.24044370756769
 20
21.7299008075198
 30
0.0
 11
27.54640114253073
 21
25.09581623398758
 31
0.0
  0
LINE
  5
D125
330
1F
100
AcDbEntity
  8
AM_0
100
AcDbLine
 10
30.05643594156175
 20
18.29932929169517
 30
0.0
 11
30.08525031594593
 21
18.32000514223704
 31
0.0
  0
LINE
  5
D126
330
1F
100
AcDbEntity
  8
AM_0
100
AcDbLine
 10
10.55985013580289
 20
11.40389939115032
 30
0.0
 11
9.494813711700544
 21
7.897304196299885
 31
0.0
  0
LINE
  5
D127
330
1F
100
AcDbEntity
  8
AM_0
100
AcDbLine
 10
10.89364833867307
 20
11.67003187266373
 30
0.0
 11
10.55985013580289
 21
11.40389939115032
 31
0.0
  0
LINE
  5
D128
330
1F
100
AcDbEntity
  8
AM_0
100
AcDbLine
 10
12.94036065970795
 20
18.40876064077206
 30
0.0
 11
10.89364833867307
 21
11.67003187266373
 31
0.0
  0
LINE
  5
D129
330
1F
100
AcDbEntity
  8
AM_0
100
AcDbLine
 10
26.3830719705968
 20
14.80208081217806
 30
0.0
 11
22.22701458038887
 21
9.947003327054105
 31
0.0
  0
LINE
  5
D12A
330
1F
100
AcDbEntity
  8
AM_0
100
AcDbLine
 10
23.08135137556144
 20
10.57254409406657
 30
0.0
 11
26.84532787990065
 21
14.96959540134871
 31
0.0
  0
ELLIPSE
  5
D12B
330
1F
100
AcDbEntity
  8
AM_0
100
AcDbEllipse
 10
22.34254286255407
 20
11.2457271793601
 30
0.0
 11
-1.119088218904904
 21
-1.246108258816079
 31
0.0
210
0.0
220
0.0
230
1.0
 40
0.5967615205462942
 41
0.8982096411525208
 42
1.566494538524512
  0
ELLIPSE
  5
D12C
330
1F
100
AcDbEntity
  8
AM_0
100
AcDbEllipse
 10
25.3028858052096
 20
14.3512899108795
 30
0.0
 11
1.143378863096972
 21
0.604789610197275
 31
0.0
210
0.0
220
0.0
230
1.0
 40
0.1900721793888821
 41
5.834796431512186
 42
7.405592758307084
  0
ELLIPSE
  5
D12D
330
1F
100
AcDbEntity
  8
AM_0
100
AcDbEllipse
 10
25.02633320150608
 20
15.19198758534358
 30
0.0
 11
-1.838640637334655
 21
0.1734708956935857
 31
0.0
210
0.0
220
0.0
230
0.9999999999999999
 40
0.2154554420477906
 41
3.01420696565375
 42
4.585003292448646
  0
LINE
  5
D12E
330
1F
100
AcDbEntity
  8
AM_0
100
AcDbLine
 10
18.74160617578593
 20
11.90749068659794
 30
0.0
 11
25.69496669107832
 21
14.80931608872133
 31
0.0
  0
LINE
  5
D12F
330
1F
100
AcDbEntity
  8
AM_0
100
AcDbLine
 10
11.67575465502694
 20
5.314740593221288
 30
0.0
 11
14.16038585308252
 21
8.755845329605435
 31
0.0
  0
ELLIPSE
  5
D130
330
1F
100
AcDbEntity
  8
AM_0
100
AcDbEllipse
 10
24.07025579060814
 20
8.832076327768306
 30
0.0
 11
10.48010616242712
 21
2.077780496308953
 31
0.0
210
0.0
220
0.0
230
0.9999999999999999
 40
0.4209002228752405
 41
2.018885954659845
 42
2.717017655457581
  0
ARC
  5
D131
330
1F
100
AcDbEntity
  8
AM_0
100
AcDbCircle
 10
11.37182573893324
 20
7.036282305437865
 30
0.0
 40
1.748164366682817
100
AcDbArc
 50
248.4880403332617
 51
280.0120929868811
  0
ELLIPSE
  5
D132
330
1F
100
AcDbEntity
  8
AM_0
100
AcDbEllipse
 10
10.97365687301681
 20
6.995937135274431
 30
0.0
 11
2.15032102551182
 21
-0.50631259924415
 31
0.0
210
0.0
220
0.0
230
0.9999999999999999
 40
0.7631766188153519
 41
5.217354702686008
 42
5.471395867631748
  0
ELLIPSE
  5
D133
330
1F
100
AcDbEntity
  8
AM_0
100
AcDbEllipse
 10
10.97365687301681
 20
6.995937135274431
 30
0.0
 11
0.256396476911112
 21
-2.094243813665011
 31
0.0
210
0.0
220
0.0
230
1.0
 40
0.7480557599358924
 41
4.178107947195193
 42
4.432149112140852
  0
LINE
  5
D134
330
1F
100
AcDbEntity
  8
AM_0
100
AcDbLine
 10
13.36472141075933
 20
9.057783473687877
 30
0.0
 11
10.73078185482996
 21
5.409893240179187
 31
0.0
  0
ELLIPSE
  5
D135
330
1F
100
AcDbEntity
  8
AM_0
100
AcDbEllipse
 10
11.19050988845231
 20
7.151540740506988
 30
0.0
 11
-1.330628541597869
 21
1.496816908216292
 31
0.0
210
0.0
220
0.0
230
1.0
 40
0.8637835164024095
 41
1.29333188700988
 42
2.091427742855851
  0
ELLIPSE
  5
D136
330
1F
100
AcDbEntity
  8
AM_0
100
AcDbEllipse
 10
23.79370318690462
 20
9.672774002232501
 30
0.0
 11
-11.08512227099928
 21
-2.992817094490369
 31
0.0
210
0.0
220
0.0
230
1.0
 40
0.4073076335133217
 41
5.113473372154553
 42
5.811605072952291
  0
LINE
  5
D137
330
1F
100
AcDbEntity
  8
AM_0
100
AcDbLine
 10
12.73656071374285
 20
9.63014714929902
 30
0.0
 11
13.36472141075933
 21
9.057783473687934
 31
0.0
  0
LINE
  5
D138
330
1F
100
AcDbEntity
  8
AM_0
100
AcDbLine
 10
21.78949031118805
 20
26.59351045387727
 30
0.0
 11
29.17757544126187
 21
19.86167960094166
 31
0.0
  0
LINE
  5
D139
330
1F
100
AcDbEntity
  8
AM_0
100
AcDbLine
 10
29.17757544126187
 20
19.86167960094166
 30
0.0
 11
25.29698918690497
 21
15.56288492045228
 31
0.0
  0
LINE
  5
D13A
330
1F
100
AcDbEntity
  8
AM_0
100
AcDbLine
 10
25.29698918690497
 20
15.56288492045228
 30
0.0
 11
24.160920766608
 21
15.08877284280042
 31
0.0
  0
LINE
  5
D13B
330
1F
100
AcDbEntity
  8
AM_0
100
AcDbLine
 10
25.16229766346385
 20
16.15948404499459
 30
0.0
 11
24.49941156868306
 21
15.42515911797754
 31
0.0
  0
LINE
  5
D13C
330
1F
100
AcDbEntity
  8
AM_0
100
AcDbLine
 10
17.85013495161672
 20
21.48380688561956
 30
0.0
 11
18.51302104639751
 21
22.2181318126366
 31
0.0
  0
LINE
  5
D13D
330
1F
100
AcDbEntity
  8
AM_0
100
AcDbLine
 10
21.50553422210635
 20
13.98060822076688
 30
0.0
 11
18.34362867161258
 21
12.66105951832883
 31
0.0
  0
LINE
  5
D13E
330
1F
100
AcDbEntity
  8
AM_0
100
AcDbLine
 10
18.34362867161258
 20
12.66105951832883
 30
0.0
 11
15.7113922158884
 21
15.05948485762762
 31
0.0
  0
LINE
  5
D13F
330
1F
100
AcDbEntity
  8
AM_0
100
AcDbLine
 10
17.85013495161672
 20
21.48380688561956
 30
0.0
 11
18.25083712316723
 21
21.77133206663926
 31
0.0
  0
ARC
  5
D140
330
1F
100
AcDbEntity
  8
AM_0
100
AcDbCircle
 10
21.22094144192806
 20
18.39805397470964
 30
0.0
 40
4.426603668678351
100
AcDbArc
 50
273.6861712738678
 51
311.6180230142973
  0
LINE
  5
D141
330
1F
100
AcDbEntity
  8
AM_0
100
AcDbLine
 10
17.90890405683103
 20
22.29471577338767
 30
0.0
 11
21.78949031118805
 21
26.59351045387727
 31
0.0
  0
LINE
  5
D142
330
1F
100
AcDbEntity
  8
AM_0
100
AcDbLine
 10
12.94036065970795
 20
18.40876064077206
 30
0.0
 11
17.09641804991588
 21
23.26383812589602
 31
0.0
  0
ELLIPSE
  5
D143
330
1F
100
AcDbEntity
  8
AM_0
100
AcDbEllipse
 10
14.21564921947265
 20
18.65074111758909
 30
0.0
 11
-1.119088218904901
 21
-1.246108258816077
 31
0.0
210
0.0
220
0.0
230
1.0
 40
0.5967615205462957
 41
4.752199758774559
 42
5.376372089486293
  0
ELLIPSE
  5
D144
330
1F
100
AcDbEntity
  8
AM_0
100
AcDbEllipse
 10
17.63824807143215
 20
21.92381843827903
 30
0.0
 11
-0.3461826547343775
 21
1.833949374525831
 31
0.0
210
0.0
220
0.0
230
1.0
 40
0.1819634380211769
 41
4.881577040342692
 42
6.420618459685048
  0
ELLIPSE
  5
D145
330
1F
100
AcDbEntity
  8
AM_0
100
AcDbEllipse
 10
16.75504039753605
 20
22.1398641393038
 30
0.0
 11
0.4785708811362003
 21
1.2110599529833
 31
0.0
210
0.0
220
0.0
230
1.0
 40
0.1676767327811262
 41
5.165512868337601
 42
6.736309195132495
  0
LINE
  5
D146
330
1F
100
AcDbEntity
  8
AM_0
100
AcDbLine
 10
12.37246487846653
 20
10.38495238070554
 30
0.0
 11
9.397244883427788
 21
7.390859385725591
 31
0.0
  0
LINE
  5
D147
330
1F
100
AcDbEntity
  8
AM_0
100
AcDbLine
 10
9.582551523703955
 20
6.456130828574871
 30
0.0
 11
12.73656071374285
 21
9.630147149298963
 31
0.0
  0
ARC
  5
D148
330
1F
100
AcDbEntity
  8
AM_0
100
AcDbCircle
 10
11.07890626043047
 20
7.238510351026847
 30
0.0
 40
1.688548256721241
100
AcDbArc
 50
174.8234565928185
 51
207.6031324797999
  0
LINE
  5
D149
330
1F
100
AcDbEntity
  8
AM_0
100
AcDbLine
 10
15.7113922158884
 20
15.05948485762768
 30
0.0
 11
16.71066801524785
 21
18.34956549436974
 31
0.0
  0
LINE
  5
D14A
330
1F
100
AcDbEntity
  8
AM_0
100
AcDbLine
 10
17.14712128340477
 20
22.59789031714574
 30
0.0
 11
14.94960944246213
 21
15.36265940138576
 31
0.0
  0
LINE
  5
D14B
330
1F
100
AcDbEntity
  8
AM_0
100
AcDbLine
 10
17.54986560337613
 20
21.11259421664163
 30
0.0
 11
17.90890405683103
 21
22.29471577338761
 31
0.0
  0
ARC
  5
D14C
330
1F
100
AcDbEntity
  8
AM_0
100
AcDbCircle
 10
21.21128530610872
 20
18.49157740226924
 30
0.0
 40
4.50285724632495
100
AcDbArc
 50
144.4031269480842
 51
181.8073041159701
  0
ELLIPSE
  5
D14D
330
1F
100
AcDbEntity
  8
AM_0
100
AcDbEllipse
 10
12.68981570999313
 20
19.79034722838892
 30
0.0
 11
2.225138415379008
 21
11.18571962629204
 31
0.0
210
0.0
220
0.0
230
1.0
 40
0.3645408990273529
 41
3.651184747179197
 42
4.349316447976933
  0
ELLIPSE
  5
D14E
330
1F
100
AcDbEntity
  8
AM_0
100
AcDbEllipse
 10
11.80660803609703
 20
20.00639292941375
 30
0.0
 11
-1.387658308446746
 21
-10.50164911731625
 31
0.0
210
0.0
220
0.0
230
1.0
 40
0.3828300160259387
 41
0.465797229182326
 42
1.163928929980062
  0
LINE
  5
D14F
330
1F
100
AcDbEntity
  8
AM_0
100
AcDbLine
 10
21.09713547807428
 20
27.94291755659576
 30
0.0
 11
21.94515630674414
 21
28.55141773349344
 31
0.0
  0
LINE
  5
D150
330
1F
100
AcDbEntity
  8
AM_0
100
AcDbLine
 10
17.24961078487218
 20
23.73184531418217
 30
0.0
 11
20.85819080925171
 21
27.72931981832606
 31
0.0
  0
LINE
  5
D151
330
1F
100
AcDbEntity
  8
AM_0
100
AcDbLine
 10
17.21994887270023
 20
23.69809318750718
 30
0.0
 11
13.42806896512241
 21
19.26844531764128
 31
0.0
  0
LINE
  5
D152
330
1F
100
AcDbEntity
  8
AM_0
100
AcDbLine
 10
17.21987516490287
 20
23.69815796028006
 30
0.0
 11
17.24953634696794
 21
23.7319107285566
 31
0.0
  0
ELLIPSE
  5
D153
330
1F
100
AcDbEntity
  8
AM_0
100
AcDbEllipse
 10
22.23836152648119
 20
19.47633310983534
 30
0.0
 11
2.623476551455634
 21
-3.656141515855544
 31
0.0
210
0.0
220
0.0
230
1.0
 40
0.9887692138764506
 41
3.197041988206345
 42
3.353333476045802
  0
ELLIPSE
  5
D154
330
1F
100
AcDbEntity
  8
AM_0
100
AcDbEllipse
 10
30.24611456539651
 20
20.62841341699416
 30
0.0
 11
0.874492183818545
 21
-1.218713838618515
 31
0.0
210
0.0
220
0.0
230
1.0
 40
0.9887692138764507
 41
0.6305432455246086
 42
1.782537149250901
  0
ELLIPSE
  5
D155
330
1F
100
AcDbEntity
  8
AM_0
100
AcDbEllipse
 10
22.85802943532269
 20
27.36024426992984
 30
0.0
 11
0.874492183818545
 21
-1.218713838618515
 31
0.0
210
0.0
220
0.0
230
1.0
 40
0.9887692138764507
 41
1.782537149250901
 42
2.934531052977192
  0
ELLIPSE
  5
D156
330
1F
100
AcDbEntity
  8
AM_0
100
AcDbEllipse
 10
21.97162766189285
 20
26.72420371797713
 30
0.0
 11
0.874492183818545
 21
-1.218713838618515
 31
0.0
210
0.0
220
0.0
230
1.0
 40
0.9887692138764507
 41
1.782537149250901
 42
3.141592653589753
  0
ELLIPSE
  5
D157
330
1F
100
AcDbEntity
  8
AM_0
100
AcDbEllipse
 10
21.97162766189285
 20
26.72420371797713
 30
0.0
 11
-1.01027307556385
 21
-1.108759808430464
 31
0.0
210
0.0
220
0.0
230
1.0
 40
0.0314088328733607
 41
3.288303231485282
 42
4.859099558280182
  0
ELLIPSE
  5
D158
330
1F
100
AcDbEntity
  8
AM_0
100
AcDbEllipse
 10
29.35971279196656
 20
19.99237286504152
 30
0.0
 11
-1.1134368526412
 21
1.005116100348841
 31
0.0
210
0.0
220
0.0
230
0.9999999999999999
 40
0.1461127198695549
 41
1.539041419342399
 42
3.109837746137295
  0
ELLIPSE
  5
D159
330
1F
100
AcDbEntity
  8
AM_0
100
AcDbEllipse
 10
29.35971279196656
 20
19.99237286504152
 30
0.0
 11
1.010273075563851
 21
1.108759808430465
 31
0.0
210
0.0
220
0.0
230
0.9999999999999999
 40
0.0314088328733607
 41
0.1467105778954968
 42
1.717506904690392
  0
ELLIPSE
  5
D15A
330
1F
100
AcDbEntity
  8
AM_0
100
AcDbEllipse
 10
29.35971279196656
 20
19.99237286504152
 30
0.0
 11
0.874492183818545
 21
-1.218713838618515
 31
0.0
210
0.0
220
0.0
230
1.0
 40
0.9887692138764507
 41
0.211740822456001
 42
1.782537149250901
  0
ELLIPSE
  5
D15B
330
1F
100
AcDbEntity
  8
AM_0
100
AcDbEllipse
 10
26.84020859608529
 20
24.21401565955264
 30
0.0
 11
0.8453424443579269
 21
-1.178090043997898
 31
0.0
210
0.0
220
0.0
230
0.9999999999999999
 40
0.9887692138764503
 41
1.116028423791875
 42
1.483172173958625
  0
ELLIPSE
  5
D15C
330
1F
100
AcDbEntity
  8
AM_0
100
AcDbEllipse
 10
26.84020859608529
 20
24.21401565955264
 30
0.0
 11
0.8453424443579269
 21
-1.178090043997898
 31
0.0
210
0.0
220
0.0
230
0.9999999999999999
 40
0.9887692138764503
 41
2.081902124543321
 42
2.449045874709973
  0
ELLIPSE
  5
D15D
330
1F
100
AcDbEntity
  8
AM_0
100
AcDbEllipse
 10
26.10651936689328
 20
15.64277848664224
 30
0.0
 11
-0.7596768511117537
 21
0.6503007626359781
 31
0.0
210
0.0
220
0.0
230
1.0
 40
0.7019294178793935
 41
2.429195189557543
 42
3.097480086929551
  0
ELLIPSE
  5
D15E
330
1F
100
AcDbEntity
  8
AM_0
100
AcDbEllipse
 10
25.4184140873748
 20
15.65001376318551
 30
0.0
 11
0.3851346079860003
 21
-0.9228604085838058
 31
0.0
210
0.0
220
0.0
230
1.0
 40
0.1456970421551261
 41
4.746038157963671
 42
5.793235709160292
  0
ELLIPSE
  5
D15F
330
1F
100
AcDbEntity
  8
AM_0
100
AcDbEllipse
 10
18.46505357208241
 20
12.74818836106206
 30
0.0
 11
0.3851346079860015
 21
-0.9228604085838064
 31
0.0
210
0.0
220
0.0
230
1.0
 40
0.1456970421551279
 41
4.746038157963665
 42
5.793235709160284
  0
ELLIPSE
  5
D160
330
1F
100
AcDbEntity
  8
AM_0
100
AcDbEllipse
 10
13.883833249379
 20
9.596543004069559
 30
0.0
 11
-0.8107475632267461
 21
0.5853959247568287
 31
0.0
210
0.0
220
0.0
230
1.0
 40
0.7448391536190512
 41
1.465118714912001
 42
2.369360988019595
  0
ELLIPSE
  5
D161
330
1F
100
AcDbEntity
  8
AM_0
100
AcDbEllipse
 10
21.83765935493068
 20
19.18880792881558
 30
0.0
 11
-2.623476551455634
 21
3.656141515855544
 31
0.0
210
0.0
220
0.0
230
1.0
 40
0.9887692138764506
 41
3.353333476045802
 42
6.494926129635595
  0
ELLIPSE
  5
D162
330
1F
100
AcDbEntity
  8
AM_0
100
AcDbEllipse
 10
21.17477326014989
 20
18.45448300179854
 30
0.0
 11
-2.623476551455634
 21
3.656141515855544
 31
0.0
210
0.0
220
0.0
230
1.0
 40
0.9887692138764506
 41
0.2117408224560088
 42
0.3190136314783335
  0
ELLIPSE
  5
D163
330
1F
100
AcDbEntity
  8
AM_0
100
AcDbEllipse
 10
21.5754754317004
 20
18.74200818281824
 30
0.0
 11
2.623476551455634
 21
-3.656141515855544
 31
0.0
210
0.0
220
0.0
230
1.0
 40
0.9887692138764506
 41
3.353333476045802
 42
6.227772852149534
  0
ELLIPSE
  5
D164
330
1F
100
AcDbEntity
  8
AM_0
100
AcDbEllipse
 10
21.17477326014989
 20
18.45448300179854
 30
0.0
 11
-2.623476551455634
 21
3.656141515855544
 31
0.0
210
0.0
220
0.0
230
1.0
 40
0.9887692138764506
 41
3.246060667023622
 42
3.353333476045802
  0
ELLIPSE
  5
D165
330
1F
100
AcDbEntity
  8
AM_0
100
AcDbEllipse
 10
21.17477326014989
 20
18.45448300179854
 30
0.0
 11
-2.623476551455634
 21
3.656141515855544
 31
0.0
210
0.0
220
0.0
230
1.0
 40
0.9887692138764506
 41
0.9771326394308546
 42
2.587941659070828
  0
ELLIPSE
  5
D166
330
1F
100
AcDbEntity
  8
AM_0
100
AcDbEllipse
 10
21.97162766189285
 20
26.72420371797713
 30
0.0
 11
-1.1134368526412
 21
1.005116100348841
 31
0.0
210
0.0
220
0.0
230
0.9999999999999999
 40
0.1461127198695549
 41
0.0000000000000317
 42
1.539041419342385
  0
ELLIPSE
  5
D167
330
1F
100
AcDbEntity
  8
AM_0
100
AcDbEllipse
 10
17.97962572381198
 20
23.04779242487118
 30
0.0
 11
-0.759676851111754
 21
0.6503007626359746
 31
0.0
210
0.0
220
0.0
230
1.0
 40
0.7019294178793946
 41
-0.0000000000000089
 42
0.624172330711687
  0
ELLIPSE
  5
D168
330
1F
100
AcDbEntity
  8
AM_0
100
AcDbEllipse
 10
18.03032895730075
 20
22.3818446161209
 30
0.0
 11
0.9568400421926255
 21
-0.2906150953698289
 31
0.0
210
0.0
220
0.0
230
1.0
 40
0.1191491494506382
 41
3.57420268262248
 42
4.62140023381909
  0
ELLIPSE
  5
D169
330
1F
100
AcDbEntity
  8
AM_0
100
AcDbEllipse
 10
13.25567255236263
 20
10.1689066796807
 30
0.0
 11
-0.7093388744135271
 21
0.7048676196604204
 31
0.0
210
0.0
220
0.0
230
1.0
 40
0.7481179165085192
 41
0.6780822494820211
 42
1.582324522589642
  0
ELLIPSE
  5
D16A
330
1F
100
AcDbEntity
  8
AM_0
100
AcDbEllipse
 10
15.83281711635823
 20
15.14661370036092
 30
0.0
 11
0.956840042192625
 21
-0.2906150953698307
 31
0.0
210
0.0
220
0.0
230
1.0
 40
0.1191491494506403
 41
3.574202682622267
 42
4.621400233818877
  0
ARC
  5
D16B
330
1F
100
AcDbEntity
  8
AM_0
100
AcDbCircle
 10
21.97162766189285
 20
26.72420371797712
 30
0.0
 40
1.5
100
AcDbArc
 50
125.6614570189069
 51
137.9269611299671
  0
LINE
  5
D16C
330
1F
100
AcDbEntity
  8
AM_0
100
AcDbLine
 10
23.54284593328384
 20
18.17508565064536
 30
0.0
 11
22.01197607222889
 21
16.47923487350151
 31
0.0
  0
LINE
  5
D16D
330
1F
100
AcDbEntity
  8
AM_0
100
AcDbLine
 10
22.01197607222878
 20
16.47923487350151
 30
0.0
 11
19.76892411568656
 21
16.97767565551673
 31
0.0
  0
LINE
  5
D16E
330
1F
100
AcDbEntity
  8
AM_0
100
AcDbLine
 10
20.13319881709617
 20
17.23906218371648
 30
0.0
 11
22.26937298602024
 21
16.7643712965198
 31
0.0
  0
LINE
  5
D16F
330
1F
100
AcDbEntity
  8
AM_0
100
AcDbLine
 10
19.76892411568656
 20
16.97767565551673
 30
0.0
 11
20.13319881709617
 21
17.23906218371648
 31
0.0
  0
LINE
  5
D170
330
1F
100
AcDbEntity
  8
AM_0
100
AcDbLine
 10
19.76892411568656
 20
16.97767565551673
 30
0.0
 11
19.0567420201993
 21
19.17196721467575
 31
0.0
  0
LINE
  5
D171
330
1F
100
AcDbEntity
  8
AM_0
100
AcDbLine
 10
19.42101672160879
 20
19.43335374287555
 30
0.0
 11
20.13319881709617
 21
17.23906218371654
 31
0.0
  0
LINE
  5
D172
330
1F
100
AcDbEntity
  8
AM_0
100
AcDbLine
 10
19.0567420201993
 20
19.1719672146758
 30
0.0
 11
19.42101672160879
 21
19.43335374287555
 31
0.0
  0
LINE
  5
D173
330
1F
100
AcDbEntity
  8
AM_0
100
AcDbLine
 10
19.0567420201993
 20
19.1719672146758
 30
0.0
 11
20.58761188125425
 21
20.86781799181965
 31
0.0
  0
LINE
  5
D174
330
1F
100
AcDbEntity
  8
AM_0
100
AcDbLine
 10
20.69448966887239
 20
20.84406809700106
 30
0.0
 11
19.42101672160879
 21
19.43335374287555
 31
0.0
  0
LINE
  5
D175
330
1F
100
AcDbEntity
  8
AM_0
100
AcDbLine
 10
20.58761188125425
 20
20.86781799181954
 30
0.0
 11
22.83066383779647
 21
20.36937720980431
 31
0.0
  0
LINE
  5
D176
330
1F
100
AcDbEntity
  8
AM_0
100
AcDbLine
 10
22.83066383779647
 20
20.36937720980431
 30
0.0
 11
23.54284593328384
 21
18.1750856506453
 31
0.0
  0
LINE
  5
D177
330
1F
100
AcDbEntity
  8
AM_0
100
AcDbLine
 10
23.97959879706582
 20
15.36550489165863
 30
0.0
 11
24.38464633324327
 21
15.65614810357435
 31
0.0
  0
LINE
  5
D178
330
1F
100
AcDbEntity
  8
AM_0
100
AcDbLine
 10
19.02414308876075
 20
22.27154997716347
 30
0.0
 11
19.4291906249382
 21
22.5621931890792
 31
0.0
  0
ARC
  5
D179
330
1F
100
AcDbEntity
  8
AM_0
100
AcDbCircle
 10
21.53165480670566
 20
18.83989894531466
 30
0.0
 40
4.250158093532603
100
AcDbArc
 50
126.1556464873125
 51
305.1672675505037
  0
ELLIPSE
  5
D17A
330
1F
100
AcDbEntity
  8
AM_0
100
AcDbEllipse
 10
21.29979397674151
 20
18.67352643266057
 30
0.0
 11
-1.507500019152485
 21
2.100889143498654
 31
0.0
210
0.0
220
0.0
230
1.0
 40
0.9887692138764501
 41
-0.0000000000000033
 42
6.283185307179583
  0
ELLIPSE
  5
D17B
330
1F
100
AcDbEntity
  8
AM_0
100
AcDbEllipse
 10
21.90691847909079
 20
19.10917064632676
 30
0.0
 11
2.477727854152545
 21
-3.453022542752458
 31
0.0
210
0.0
220
0.0
230
1.0
 40
0.9887692138764507
 41
1.782537149250896
 42
3.141592653589786
  0
ELLIPSE
  5
D17C
330
1F
100
AcDbEntity
  8
AM_0
100
AcDbEllipse
 10
21.90691847909079
 20
19.10917064632676
 30
0.0
 11
2.477727854152545
 21
-3.453022542752458
 31
0.0
210
0.0
220
0.0
230
1.0
 40
0.9887692138764507
 41
0.0000000000000024
 42
1.782537149250896
  0
ELLIPSE
  5
D17D
330
1F
100
AcDbEntity
  8
AM_0
100
AcDbEllipse
 10
21.33535850668432
 20
18.69904587986017
 30
0.0
 11
1.919739588000969
 21
-2.675396356574013
 31
0.0
210
0.0
220
0.0
230
1.0
 40
0.9887692138764506
 41
0.0000000000000011
 42
6.283185307179587
  0
ELLIPSE
  5
D17E
330
1F
100
AcDbEntity
  8
AM_0
100
AcDbEllipse
 10
21.41601057238609
 20
18.75691803887744
 30
0.0
 11
-2.306972633788665
 21
3.215053863415477
 31
0.0
210
0.0
220
0.0
230
1.0
 40
0.9887692138764505
 41
-0.0000000000000015
 42
6.283185307179585
  0
ELLIPSE
  5
D17F
330
1F
100
AcDbEntity
  8
AM_0
100
AcDbEllipse
 10
21.50187094291323
 20
18.8185274344111
 30
0.0
 11
2.477727854152545
 21
-3.453022542752458
 31
0.0
210
0.0
220
0.0
230
1.0
 40
0.9887692138764507
 41
-0.0000000000000067
 42
3.141592653589795
  0
LINE
  5
D180
330
1F
100
AcDbEntity
  8
AM_0
100
AcDbLine
 10
38.09951771985539
 20
14.02758817456827
 30
0.0
 11
38.66949929369343
 21
13.95632609536482
 31
0.0
  0
LINE
  5
D181
330
1F
100
AcDbEntity
  8
AM_0
100
AcDbLine
 10
36.7248658367414
 20
17.26606506558635
 30
0.0
 11
37.06954665818944
 21
17.72557829692271
 31
0.0
  0
LINE
  5
D182
330
1F
100
AcDbEntity
  8
AM_0
100
AcDbLine
 10
45.59567890534567
 20
21.34754958796536
 30
0.0
 11
37.07683160050601
 21
17.73151344392572
 31
0.0
  0
LINE
  5
D183
330
1F
100
AcDbEntity
  8
AM_0
100
AcDbLine
 10
54.47576076356228
 20
20.66284315529644
 30
0.0
 11
52.04734963940012
 21
19.63204378968628
 31
0.0
  0
LINE
  5
D184
330
1F
100
AcDbEntity
  8
AM_0
100
AcDbLine
 10
47.61400577405237
 20
17.75020096724875
 30
0.0
 11
38.67882922731201
 21
13.95744354477067
 31
0.0
  0
ELLIPSE
  5
D185
330
1F
100
AcDbEntity
  8
AM_0
100
AcDbEllipse
 10
37.41932938662046
 20
15.64985635505789
 30
0.0
 11
0.6882044522960018
 21
-1.621308087111936
 31
0.0
210
0.0
220
0.0
230
1.0
 40
0.087155742747658
 41
3.192125761129887
 42
6.108652381980241
  0
ELLIPSE
  5
D186
330
1F
100
AcDbEntity
  8
AM_0
100
AcDbEllipse
 10
37.41932938662046
 20
15.64985635505789
 30
0.0
 11
0.6882044522960018
 21
-1.621308087111936
 31
0.0
210
0.0
220
0.0
230
1.0
 40
0.087155742747658
 41
6.108652381980242
 42
6.23265219963967
  0
ELLIPSE
  5
D187
330
1F
100
AcDbEntity
  8
AM_0
100
AcDbEllipse
 10
37.87783041390912
 20
15.84447849434818
 30
0.0
 11
0.8009988134030427
 21
-1.887034949577531
 31
0.0
210
0.0
220
0.0
230
1.0
 40
0.0871557427476581
 41
3.141592653589861
 42
6.108652381980219
  0
ELLIPSE
  5
D188
330
1F
100
AcDbEntity
  8
AM_0
100
AcDbEllipse
 10
37.87783041390912
 20
15.84447849434818
 30
0.0
 11
0.8009988134030427
 21
-1.887034949577531
 31
0.0
210
0.0
220
0.0
230
1.0
 40
0.0871557427476581
 41
6.108652381980219
 42
6.283185307179656
  0
LINE
  5
D189
330
1F
100
AcDbEntity
  8
AM_0
100
AcDbLine
 10
-80.16648933563056
 20
13.43222203363415
 30
0.0
 11
-82.09313576793193
 21
1.63416331902566
 31
0.0
  0
LINE
  5
D18A
330
1F
100
AcDbEntity
  8
AM_0
100
AcDbLine
 10
-75.45994787757866
 20
13.0174887422239
 30
0.0
 11
-80.16648933563056
 21
13.43222203363415
 31
0.0
  0
LINE
  5
D18B
330
1F
100
AcDbEntity
  8
AM_0
100
AcDbLine
 10
-80.0686874431874
 20
13.47244721229707
 30
0.0
 11
-80.16648933563056
 21
13.43222203363409
 31
0.0
  0
LINE
  5
D18C
330
1F
100
AcDbEntity
  8
AM_0
100
AcDbLine
 10
-77.38659430988014
 20
1.219430027615417
 30
0.0
 11
-82.09313576793193
 21
1.63416331902566
 31
0.0
  0
LINE
  5
D18D
330
1F
100
AcDbEntity
  8
AM_0
100
AcDbLine
 10
-75.64153717152601
 20
0.7262149426601212
 30
0.0
 11
-77.40459397186737
 21
0.001083015096853
 31
0.0
  0
LINE
  5
D18E
330
1F
100
AcDbEntity
  8
AM_0
100
AcDbLine
 10
-77.38659430988014
 20
1.219430027615417
 30
0.0
 11
-75.45994787757866
 21
13.0174887422239
 31
0.0
  0
LINE
  5
D18F
330
1F
100
AcDbEntity
  8
AM_0
100
AcDbLine
 10
-75.45994787757866
 20
13.0174887422239
 30
0.0
 11
-74.41354984600139
 21
13.44786433845489
 31
0.0
  0
LINE
  5
D190
330
1F
100
AcDbEntity
  8
AM_0
100
AcDbLine
 10
-74.82185826400632
 20
5.745620535668863
 30
0.0
 11
-75.64153717152601
 21
0.7262149426600075
 31
0.0
  0
LINE
  5
D191
330
1F
100
AcDbEntity
  8
AM_0
100
AcDbLine
 10
-77.41080913437213
 20
0.0000456160302491
 30
0.0
 11
-82.11735059242415
 21
0.4147789074404926
 31
0.0
  0
ELLIPSE
  5
D192
330
1F
100
AcDbEntity
  8
AM_0
100
AcDbEllipse
 10
-82.04712791405189
 20
1.211690932348034
 30
0.0
 11
0.07022267837221222
 21
0.7969120249075389
 31
0.0
210
0.0
220
0.0
230
1.0
 40
0.1214249004698425
 41
1.022769593950926
 42
3.141592653585199
  0
ELLIPSE
  5
D193
330
1F
100
AcDbEntity
  8
AM_0
100
AcDbEllipse
 10
-77.34058645599998
 20
0.7969576409377908
 30
0.0
 11
0.07022267837222226
 21
0.796912024907538
 31
0.0
210
0.0
220
0.0
230
1.0
 40
0.1214249004698425
 41
1.02276959395554
 42
3.204431158948432
  0
ELLIPSE
  5
D194
330
1F
100
AcDbEntity
  8
AM_0
100
AcDbEllipse
 10
-75.55074252455233
 20
6.871851842441998
 30
0.0
 11
0.2264681377504167
 21
2.57004128032681
 31
0.0
210
0.0
220
0.0
230
1.0
 40
0.1214249004698425
 41
0.4530631595432286
 42
1.581274954593747
  0
ELLIPSE
  5
D195
330
1F
100
AcDbEntity
  8
AM_0
100
AcDbEllipse
 10
-75.55074252455233
 20
6.871851842441998
 30
0.0
 11
0.2264681377504167
 21
2.57004128032681
 31
0.0
210
0.0
220
0.0
230
1.0
 40
0.1214249004698425
 41
1.581274954593747
 42
4.063822457440626
  0
LINE
  5
D196
330
1F
100
AcDbEntity
  8
AM_0
100
AcDbLine
 10
-72.89357085153824
 20
23.37674420823002
 30
0.0
 11
-72.83938226114719
 21
23.37196919187248
 31
0.0
  0
LINE
  5
D197
330
1F
100
AcDbEntity
  8
AM_0
100
AcDbLine
 10
-72.36724830378591
 20
29.68880714240468
 30
0.0
 11
-72.37924388471481
 21
29.68986417479361
 31
0.0
  0
LINE
  5
D198
330
1F
100
AcDbEntity
  8
AM_0
100
AcDbLine
 10
-72.56964264507269
 20
27.25582530582334
 30
0.0
 11
-72.47408929060964
 21
25.20783765130135
 31
0.0
  0
LINE
  5
D199
330
1F
100
AcDbEntity
  8
AM_0
100
AcDbLine
 10
-72.37045397289467
 20
29.73476620292659
 30
0.0
 11
-72.36703779179061
 21
29.68882279529457
 31
0.0
  0
LINE
  5
D19A
330
1F
100
AcDbEntity
  8
AM_0
100
AcDbLine
 10
-72.32066970789788
 20
28.69049169989954
 30
0.0
 11
-72.36724830378591
 21
29.68880714240468
 31
0.0
  0
LINE
  5
D19B
330
1F
100
AcDbEntity
  8
AM_0
100
AcDbLine
 10
-72.36724830378591
 20
29.68880714240463
 30
0.0
 11
-72.04948136233702
 21
29.87002204600405
 31
0.0
  0
LINE
  5
D19C
330
1F
100
AcDbEntity
  8
AM_0
100
AcDbLine
 10
-71.99310103471555
 20
28.6616268454831
 30
0.0
 11
-72.04948136233713
 21
29.87002204600411
 31
0.0
  0
LINE
  5
D19D
330
1F
100
AcDbEntity
  8
AM_0
100
AcDbLine
 10
-75.319483018347
 20
13.07526087645668
 30
0.0
 11
-73.53542267908961
 21
24.00017594134475
 31
0.0
  0
LINE
  5
D19E
330
1F
100
AcDbEntity
  8
AM_0
100
AcDbLine
 10
-86.40428578304761
 20
14.00230713510926
 30
0.0
 11
-86.41898337618068
 21
13.91230459814084
 31
0.0
  0
LINE
  5
D19F
330
1F
100
AcDbEntity
  8
AM_0
100
AcDbLine
 10
-108.8464663187021
 20
2.80025020827587
 30
0.0
 11
-109.2572868083702
 21
3.211070697943896
 31
0.0
  0
LINE
  5
D1A0
330
1F
100
AcDbEntity
  8
AM_0
100
AcDbLine
 10
-108.8464663187021
 20
2.80025020827587
 30
0.0
 11
-107.3243259518929
 21
1.278109841466673
 31
0.0
  0
LINE
  5
D1A1
330
1F
100
AcDbEntity
  8
AM_0
100
AcDbLine
 10
-88.26149097928806
 20
2.80025020827587
 30
0.0
 11
-108.8464663187021
 21
2.80025020827587
 31
0.0
  0
LINE
  5
D1A2
330
1F
100
AcDbEntity
  8
AM_0
100
AcDbLine
 10
-75.319483018347
 20
13.0752608764568
 30
0.0
 11
-86.40428578304761
 21
14.00230713510938
 31
0.0
  0
LINE
  5
D1A3
330
1F
100
AcDbEntity
  8
AM_0
100
AcDbLine
 10
-74.41354984600139
 20
13.44786433845489
 30
0.0
 11
-75.319483018347
 21
13.0752608764568
 31
0.0
  0
LINE
  5
D1A4
330
1F
100
AcDbEntity
  8
AM_0
100
AcDbLine
 10
-75.44541355124352
 20
1.927202289700162
 30
0.0
 11
-74.82185826400632
 21
5.745620535668863
 31
0.0
  0
LINE
  5
D1A5
330
1F
100
AcDbEntity
  8
AM_0
100
AcDbLine
 10
-72.29139413314022
 20
3.224426621768018
 30
0.0
 11
-75.44541355124352
 21
1.927202289700162
 31
0.0
  0
LINE
  5
D1A6
330
1F
100
AcDbEntity
  8
AM_0
100
AcDbLine
 10
-72.29130065281447
 20
3.224415389161308
 30
0.0
 11
-71.71743898279067
 21
8.000223626399858
 31
0.0
  0
LINE
  5
D1A7
330
1F
100
AcDbEntity
  8
AM_0
100
AcDbLine
 10
-71.53603266965661
 20
42.97377610516638
 30
0.0
 11
-71.50728680837028
 21
39.68492916039621
 31
0.0
  0
LINE
  5
D1A8
330
1F
100
AcDbEntity
  8
AM_0
100
AcDbLine
 10
-71.53603266965661
 20
42.97377610516632
 30
0.0
 11
-71.50728680837017
 21
42.9892664459146
 31
0.0
  0
LINE
  5
D1A9
330
1F
100
AcDbEntity
  8
AM_0
100
AcDbLine
 10
-73.53542267908961
 20
24.00017594134475
 30
0.0
 11
-71.53603266965661
 21
42.97377610516638
 31
0.0
  0
LINE
  5
D1AA
330
1F
100
AcDbEntity
  8
AM_0
100
AcDbLine
 10
-73.53542267908961
 20
24.00017594134475
 30
0.0
 11
-109.2572868083702
 21
24.00017594134475
 31
0.0
  0
LINE
  5
D1AB
330
1F
100
AcDbEntity
  8
AM_0
100
AcDbLine
 10
-71.50728680837028
 20
39.68492916039615
 30
0.0
 11
-71.50728680837028
 21
28.61881763304932
 31
0.0
  0
LINE
  5
D1AC
330
1F
100
AcDbEntity
  8
AM_0
100
AcDbLine
 10
-71.50728680837028
 20
42.9892664459146
 30
0.0
 11
-71.50728680837028
 21
39.68492916039615
 31
0.0
  0
LINE
  5
D1AD
330
1F
100
AcDbEntity
  8
AM_0
100
AcDbLine
 10
-71.50728680837028
 20
76.17809280568964
 30
0.0
 11
-71.50728680837028
 21
42.98926644591454
 31
0.0
  0
LINE
  5
D1AE
330
1F
100
AcDbEntity
  8
AM_0
100
AcDbLine
 10
-71.06458323255492
 20
76.08959554888999
 30
0.0
 11
-71.02934197214677
 21
75.82685116464542
 31
0.0
  0
LINE
  5
D1B0
330
1F
100
AcDbEntity
  8
AM_0
100
AcDbLine
 10
-109.2572868083702
 20
45.00017594134478
 30
0.0
 11
-109.2572868083702
 21
24.00017594134475
 31
0.0
  0
LINE
  5
D1B1
330
1F
100
AcDbEntity
  8
AM_0
100
AcDbLine
 10
-109.2572868083702
 20
24.00017594134475
 30
0.0
 11
-109.2572868083702
 21
3.211070697943896
 31
0.0
  0
LINE
  5
D1B2
330
1F
100
AcDbEntity
  8
AM_0
100
AcDbLine
 10
-71.50721910104812
 20
76.17843168788876
 30
0.0
 11
-71.0644157397669
 21
76.08996132879237
 31
0.0
  0
ARC
  5
D1B3
330
1F
100
AcDbEntity
  8
AM_0
100
AcDbCircle
 10
-77.50728680837017
 20
45.00017594134478
 30
0.0
 40
31.74999999999999
100
AcDbArc
 50
79.10694718056591
 51
180.0
  0
ARC
  5
D1B4
330
1F
100
AcDbEntity
  8
AM_0
100
AcDbCircle
 10
-77.50728680837017
 20
45.00017594134478
 30
0.0
 40
31.5
100
AcDbArc
 50
306.7842780443579
 51
72.15801495802472
  0
LINE
  5
D1B5
330
1F
100
AcDbEntity
  8
AM_0
100
AcDbLine
 10
-71.02328397597239
 20
75.84918052086506
 30
0.0
 11
-67.85101592502275
 21
75.00354609977184
 31
0.0
  0
ELLIPSE
  5
D1B6
330
1F
100
AcDbEntity
  8
AM_0
100
AcDbEllipse
 10
-64.95081888045434
 20
19.72790094752995
 30
0.0
 11
1.972427068893077
 21
-0.5617465296040625
 31
0.0
210
0.0
220
0.0
230
1.0
 40
0.8620712654158144
 41
1.355884654605298
 42
1.507648004301214
  0
ELLIPSE
  5
D1B7
330
1F
100
AcDbEntity
  8
AM_0
100
AcDbEllipse
 10
-64.95081888045434
 20
19.72790094752995
 30
0.0
 11
1.972427068893077
 21
-0.5617465296040625
 31
0.0
210
0.0
220
0.0
230
1.0
 40
0.8620712654158144
 41
0.0493044277544763
 42
1.355884654605297
  0
ARC
  5
D1B8
330
1F
100
AcDbEntity
  8
AM_0
100
AcDbCircle
 10
-77.50728680837017
 20
45.00017594134478
 30
0.0
 40
31.5
100
AcDbArc
 50
296.3824843580308
 51
306.7842780443579
  0
LINE
  5
D1B9
330
1F
100
AcDbEntity
  8
AM_0
100
AcDbLine
 10
-65.26786529366689
 20
22.74540277082575
 30
0.0
 11
-58.64496536434945
 21
19.77196098779659
 31
0.0
  0
LINE
  5
D1BA
330
1F
100
AcDbEntity
  8
AM_0
100
AcDbLine
 10
-88.3432194658742
 20
1.27810984146673
 30
0.0
 11
-107.3243259518929
 21
1.27810984146673
 31
0.0
  0
ELLIPSE
  5
D1BB
330
1F
100
AcDbEntity
  8
AM_0
100
AcDbEllipse
 10
-73.05513726918002
 20
19.41412159589473
 30
0.0
 11
0.3730579788524306
 21
4.233595132321295
 31
0.0
210
0.0
220
0.0
230
0.9999999999999999
 40
0.1214249004698441
 41
0.2190128629900233
 42
1.460007182002236
  0
ELLIPSE
  5
D1BC
330
1F
100
AcDbEntity
  8
AM_0
100
AcDbEllipse
 10
-72.30956200370486
 20
28.56292367591371
 30
0.0
 11
0.1562454593781704
 21
1.773129255419253
 31
0.0
210
0.0
220
0.0
230
1.0
 40
0.1214249004698403
 41
5.551899002876237
 42
8.69349165646603
  0
LINE
  5
D1BD
330
1F
100
AcDbEntity
  8
AM_0
100
AcDbLine
 10
-86.50354978733196
 20
13.5708010097291
 30
0.0
 11
-88.24486430602838
 21
2.907645286008673
 31
0.0
  0
LINE
  5
D1BE
330
1F
100
AcDbEntity
  8
AM_0
100
AcDbLine
 10
-81.97539087400742
 20
2.355188800700816
 30
0.0
 11
-88.24486430602838
 21
2.907645286008673
 31
0.0
  0
LINE
  5
D1BF
330
1F
100
AcDbEntity
  8
AM_0
100
AcDbLine
 10
-86.27795171325306
 20
13.99174154100454
 30
0.0
 11
-86.39353441758442
 21
13.94420324889244
 31
0.0
  0
LINE
  5
D1C0
330
1F
100
AcDbEntity
  8
AM_0
100
AcDbLine
 10
-80.17240338424949
 20
13.39600662240035
 30
0.0
 11
-86.39353441758442
 21
13.94420324889244
 31
0.0
  0
LINE
  5
D1C1
330
1F
100
AcDbEntity
  8
AM_0
100
AcDbLine
 10
-86.50354978733196
 20
13.5708010097291
 30
0.0
 11
-80.234076355311
 21
13.01834452442118
 31
0.0
  0
LINE
  5
D1C2
330
1F
100
AcDbEntity
  8
AM_0
100
AcDbLine
 10
-82.15781020644499
 20
0.538986037703225
 30
0.0
 11
-88.28118654276659
 21
1.078568668631007
 31
0.0
  0
ELLIPSE
  5
D1C3
330
1F
100
AcDbEntity
  8
AM_0
100
AcDbEllipse
 10
-88.17585252520826
 20
2.273936705992213
 30
0.0
 11
0.1053340175583183
 21
1.195368037361308
 31
0.0
210
0.0
220
0.0
230
1.0
 40
0.1214249004698425
 41
1.022769593950917
 42
3.14159265358522
  0
ELLIPSE
  5
D1C4
330
1F
100
AcDbEntity
  8
AM_0
100
AcDbEllipse
 10
-86.45754193345192
 20
13.14832862305147
 30
0.0
 11
0.07022267837221222
 21
0.7969120249075389
 31
0.0
210
0.0
220
0.0
230
0.9999999999999999
 40
0.1214249004698425
 41
0.0628385053540783
 42
1.022769593950922
  0
LINE
  5
D1C5
330
1F
100
AcDbEntity
  8
AM_0
100
AcDbLine
 10
-72.1074028365058
 20
27.05070940051199
 30
0.0
 11
-73.64484431443498
 21
19.32392420288316
 31
0.0
  0
LINE
  5
D1C6
330
1F
100
AcDbEntity
  8
AM_0
100
AcDbLine
 10
-72.57063867788634
 20
27.27836650938285
 30
0.0
 11
-72.34203977009963
 21
27.07138525105391
 31
0.0
  0
LINE
  5
D1C7
330
1F
100
AcDbEntity
  8
AM_0
100
AcDbLine
 10
-72.55277308532664
 20
28.21075498828041
 30
0.0
 11
-67.14214153009448
 21
27.73397834591798
 31
0.0
  0
LINE
  5
D1C8
330
1F
100
AcDbEntity
  8
AM_0
100
AcDbLine
 10
-72.34203977009963
 20
27.07138525105385
 30
0.0
 11
-72.1074028365058
 21
27.05070940051199
 31
0.0
  0
LINE
  5
D1C9
330
1F
100
AcDbEntity
  8
AM_0
100
AcDbLine
 10
-73.08408063572347
 20
22.1421781359512
 30
0.0
 11
-73.21231847330296
 21
22.15347825960605
 31
0.0
  0
LINE
  5
D1CA
330
1F
100
AcDbEntity
  8
AM_0
100
AcDbLine
 10
-72.34203977009963
 20
27.07138525105385
 30
0.0
 11
-72.29668976168284
 21
26.09940202877901
 31
0.0
  0
LINE
  5
D1CB
330
1F
100
AcDbEntity
  8
AM_0
100
AcDbLine
 10
-75.20664242091607
 20
11.40389939115083
 30
0.0
 11
-75.64642909403653
 21
7.897304196300397
 31
0.0
  0
LINE
  5
D1CC
330
1F
100
AcDbEntity
  8
AM_0
100
AcDbLine
 10
-74.63652027231228
 20
11.67003187266424
 30
0.0
 11
-75.20664242091607
 21
11.40389939115083
 31
0.0
  0
LINE
  5
D1CD
330
1F
100
AcDbEntity
  8
AM_0
100
AcDbLine
 10
-73.79136908111127
 20
18.40876064077257
 30
0.0
 11
-74.63652027231228
 21
11.67003187266424
 31
0.0
  0
LINE
  5
D1CE
330
1F
100
AcDbEntity
  8
AM_0
100
AcDbLine
 10
-75.58024420679044
 20
5.410149510861785
 30
0.0
 11
-75.44992094731742
 21
5.288964074201076
 31
0.0
  0
ELLIPSE
  5
D1CF
330
1F
100
AcDbEntity
  8
AM_0
100
AcDbEllipse
 10
-72.04080011623989
 20
6.995937135274943
 30
0.0
 11
-3.573281262575272
 21
1.056393908648238
 31
0.0
210
0.0
220
0.0
230
1.0
 40
0.5088955001268993
 41
0.0833337017406701
 42
0.3373748666863288
  0
LINE
  5
D1D0
330
1F
100
AcDbEntity
  8
AM_0
100
AcDbLine
 10
-70.55782122253493
 20
9.057783473688389
 30
0.0
 11
-75.58048250864567
 21
5.409893240179699
 31
0.0
  0
ELLIPSE
  5
D1D1
330
1F
100
AcDbEntity
  8
AM_0
100
AcDbEllipse
 10
-73.8066453816615
 20
7.1515407405075
 30
0.0
 11
-1.802386501519291
 21
-1.714021158763852
 31
0.0
210
0.0
220
0.0
230
1.0
 40
0.4381515509844901
 41
5.521520157620293
 42
6.319616013466264
  0
ELLIPSE
  5
D1D2
330
1F
100
AcDbEntity
  8
AM_0
100
AcDbEllipse
 10
-76.97036204095059
 20
9.672774002233012
 30
0.0
 11
-9.726860693053922
 21
-4.233332518666255
 31
0.0
210
0.0
220
0.0
230
1.0
 40
0.3474483259073843
 41
2.130738602545473
 42
2.828870303343211
  0
LINE
  5
D1D3
330
1F
100
AcDbEntity
  8
AM_0
100
AcDbLine
 10
-70.58452610479174
 20
9.630147149299532
 30
0.0
 11
-70.55782122253493
 21
9.057783473688446
 31
0.0
  0
LINE
  5
D1D4
330
1F
100
AcDbEntity
  8
AM_0
100
AcDbLine
 10
-65.61187445996984
 20
26.59351045387778
 30
0.0
 11
-65.43879697015643
 21
22.88395400339827
 31
0.0
  0
LINE
  5
D1D5
330
1F
100
AcDbEntity
  8
AM_0
100
AcDbLine
 10
-66.54590272268524
 20
21.48380688562007
 30
0.0
 11
-66.39979000281574
 21
22.21813181263711
 31
0.0
  0
LINE
  5
D1D6
330
1F
100
AcDbEntity
  8
AM_0
100
AcDbLine
 10
-66.75817523372609
 20
13.98060822076739
 30
0.0
 11
-67.26274678706307
 21
12.66105951832934
 31
0.0
  0
LINE
  5
D1D7
330
1F
100
AcDbEntity
  8
AM_0
100
AcDbLine
 10
-67.26274678706307
 20
12.66105951832934
 30
0.0
 11
-67.37465058008309
 21
15.05948485762814
 31
0.0
  0
ARC
  5
D1D8
330
1F
100
AcDbEntity
  8
AM_0
100
AcDbCircle
 10
-68.16190145838516
 20
14.98180001164609
 30
0.0
 40
1.724190336337145
100
AcDbArc
 50
324.5020667357873
 51
346.6960696519881
  0
LINE
  5
D1D9
330
1F
100
AcDbEntity
  8
AM_0
100
AcDbLine
 10
-67.14214153009448
 20
27.73397834591798
 30
0.0
 11
-67.94063105101805
 21
23.72097551016525
 31
0.0
  0
LINE
  5
D1DA
330
1F
100
AcDbEntity
  8
AM_0
100
AcDbLine
 10
-66.46722957569295
 20
22.29471577338818
 30
0.0
 11
-65.61187445996984
 21
26.59351045387778
 31
0.0
  0
LINE
  5
D1DB
330
1F
100
AcDbEntity
  8
AM_0
100
AcDbLine
 10
-67.94063105101805
 20
23.72097551016525
 30
0.0
 11
-73.64484431443498
 21
19.32392420288316
 31
0.0
  0
LINE
  5
D1DC
330
1F
100
AcDbEntity
  8
AM_0
100
AcDbLine
 10
-73.79136908111127
 20
18.40876064077257
 30
0.0
 11
-67.49296693608835
 21
23.26383812589653
 31
0.0
  0
ELLIPSE
  5
D1DD
330
1F
100
AcDbEntity
  8
AM_0
100
AcDbEllipse
 10
-73.61343548156162
 20
18.6507411175896
 30
0.0
 11
-0.2046722676259428
 21
-1.413632125601668
 31
0.0
210
0.0
220
0.0
230
1.0
 40
0.1007595414232758
 41
4.23069658295334
 42
4.898981480325333
  0
ELLIPSE
  5
D1DE
330
1F
100
AcDbEntity
  8
AM_0
100
AcDbEllipse
 10
-68.05018767117542
 20
21.92381843827954
 30
0.0
 11
1.001912179737032
 21
1.682382384526044
 31
0.0
210
0.0
220
0.0
230
1.0
 40
0.7313551503516926
 41
5.326680137367727
 42
6.897476464162623
  0
ELLIPSE
  5
D1DF
330
1F
100
AcDbEntity
  8
AM_0
100
AcDbEllipse
 10
-67.63393238911908
 20
22.13986413930431
 30
0.0
 11
0.4151416743533571
 21
1.203848737616761
 31
0.0
210
0.0
220
0.0
230
1.0
 40
0.3720332168446971
 41
5.226946207806119
 42
6.797742534601014
  0
LINE
  5
D1E0
330
1F
100
AcDbEntity
  8
AM_0
100
AcDbLine
 10
-70.83179253860283
 20
10.38495238070605
 30
0.0
 11
-75.59059391963922
 21
7.390859385726103
 31
0.0
  0
LINE
  5
D1E1
330
1F
100
AcDbEntity
  8
AM_0
100
AcDbLine
 10
-75.62929701732492
 20
6.456130828575383
 30
0.0
 11
-70.58452610479174
 21
9.630147149299475
 31
0.0
  0
ARC
  5
D1E2
330
1F
100
AcDbEntity
  8
AM_0
100
AcDbCircle
 10
-77.00049761451703
 20
6.981071903251845
 30
0.0
 40
1.468248687934969
100
AcDbArc
 50
339.0514963659035
 51
16.20646773237532
  0
LINE
  5
D1E3
330
1F
100
AcDbEntity
  8
AM_0
100
AcDbLine
 10
-67.37465058008309
 20
15.05948485762819
 30
0.0
 11
-66.962018514752
 21
18.34956549437025
 31
0.0
  0
LINE
  5
D1E4
330
1F
100
AcDbEntity
  8
AM_0
100
AcDbLine
 10
-67.03974350751309
 20
22.59789031714625
 30
0.0
 11
-67.94716451190311
 21
15.36265940138627
 31
0.0
  0
LINE
  5
D1E5
330
1F
100
AcDbEntity
  8
AM_0
100
AcDbLine
 10
-66.61548772292053
 20
21.11259421664214
 30
0.0
 11
-66.46722957569295
 21
22.29471577338812
 31
0.0
  0
ARC
  5
D1E6
330
1F
100
AcDbEntity
  8
AM_0
100
AcDbCircle
 10
-50.81785066904524
 20
17.72805707561996
 30
0.0
 40
16.15612664424646
100
AcDbArc
 50
167.9075690260668
 51
177.7953504039405
  0
ELLIPSE
  5
D1E7
330
1F
100
AcDbEntity
  8
AM_0
100
AcDbEllipse
 10
-77.4424196037246
 20
19.79034722838944
 30
0.0
 11
7.176573171887889
 21
-9.944478040380467
 31
0.0
210
0.0
220
0.0
230
1.0
 40
0.7225088308018441
 41
6.239759668425691
 42
6.937891369223427
  0
ELLIPSE
  5
D1E8
330
1F
100
AcDbEntity
  8
AM_0
100
AcDbEllipse
 10
-77.02616432166815
 20
20.00639292941426
 30
0.0
 11
6.28860364848588
 21
-9.560815068910729
 31
0.0
210
0.0
220
0.0
230
1.0
 40
0.6960124926356577
 41
6.269117615310914
 42
6.96724931610865
  0
LINE
  5
D1E9
330
1F
100
AcDbEntity
  8
AM_0
100
AcDbLine
 10
-66.96336075883653
 20
28.21841376467931
 30
0.0
 11
-72.51325419319778
 21
28.70746195250966
 31
0.0
  0
LINE
  5
D1EA
330
1F
100
AcDbEntity
  8
AM_0
100
AcDbLine
 10
-65.5966582902156
 20
26.79411345523094
 30
0.0
 11
-65.41342292357774
 21
22.86684401654865
 31
0.0
  0
LINE
  5
D1EB
330
1F
100
AcDbEntity
  8
AM_0
100
AcDbLine
 10
-73.23588492524209
 20
22.0272175156985
 30
0.0
 11
-73.10917662107124
 21
22.01605217220661
 31
0.0
  0
LINE
  5
D1EC
330
1F
100
AcDbEntity
  8
AM_0
100
AcDbLine
 10
-66.47832536554051
 20
14.58555533654344
 30
0.0
 11
-67.31747319260546
 21
12.39102728787644
 31
0.0
  0
LINE
  5
D1ED
330
1F
100
AcDbEntity
  8
AM_0
100
AcDbLine
 10
-70.63369336979861
 20
8.787427447106992
 30
0.0
 11
-75.45093993295677
 21
5.288727118908
 31
0.0
  0
ARC
  5
D1EE
330
1F
100
AcDbEntity
  8
AM_0
100
AcDbCircle
 10
-75.54635911863443
 20
16.63599736825113
 30
0.0
 40
9.259283696208621
100
AcDbArc
 50
302.0437389852927
 51
332.712507648465
  0
LINE
  5
D1EF
330
1F
100
AcDbEntity
  8
AM_0
100
AcDbLine
 10
-75.45110788431646
 20
5.288698428957432
 30
0.0
 11
-75.93619836273047
 21
5.331443865821697
 31
0.0
  0
ELLIPSE
  5
D1F0
330
1F
100
AcDbEntity
  8
AM_0
100
AcDbEllipse
 10
-67.0950282807845
 20
26.72420371797765
 30
0.0
 11
0.1316675219478979
 21
1.494210046701635
 31
0.0
210
0.0
220
0.0
230
1.0
 40
0.1214249004698425
 41
-0.000000000004607
 42
0.8395100224915342
  0
ELLIPSE
  5
D1F1
330
1F
100
AcDbEntity
  8
AM_0
100
AcDbEllipse
 10
-67.0950282807845
 20
26.72420371797765
 30
0.0
 11
1.49836999056881
 21
0.06990973725329371
 31
0.0
210
0.0
220
0.0
230
1.0
 40
0.7388085130073785
 41
6.102017641531639
 42
6.283185307179581
  0
ELLIPSE
  5
D1F2
330
1F
100
AcDbEntity
  8
AM_0
100
AcDbEllipse
 10
-68.25151600093943
 20
12.74818836106257
 30
0.0
 11
0.934042808334004
 21
-0.3571610731862133
 31
0.0
210
0.0
220
0.0
230
1.0
 40
0.9130127991445456
 41
0.0000000000000715
 42
0.3022410863727518
  0
ELLIPSE
  5
D1F3
330
1F
100
AcDbEntity
  8
AM_0
100
AcDbEllipse
 10
-71.22134293840236
 20
9.596543004070071
 30
0.0
 11
0.5876495686037413
 21
-0.8091155569631863
 31
0.0
210
0.0
220
0.0
230
1.0
 40
0.3906019533802307
 41
0.0000000000001963
 42
0.5991115112170528
  0
ELLIPSE
  5
D1F4
330
1F
100
AcDbEntity
  8
AM_0
100
AcDbEllipse
 10
-66.25845025488559
 20
19.18880792881609
 30
0.0
 11
0.3950025658437498
 21
4.482630140104901
 31
0.0
210
0.0
220
0.0
230
1.0
 40
0.1214249004698425
 41
5.733371931479915
 42
7.122695329675709
  0
ELLIPSE
  5
D1F5
330
1F
100
AcDbEntity
  8
AM_0
100
AcDbEllipse
 10
-66.4045629747551
 20
18.45448300179905
 30
0.0
 11
0.3950025658437498
 21
4.482630140104901
 31
0.0
210
0.0
220
0.0
230
1.0
 40
0.1214249004698425
 41
0.8395100224961226
 42
0.9467828315184473
  0
ELLIPSE
  5
D1F6
330
1F
100
AcDbEntity
  8
AM_0
100
AcDbEllipse
 10
-66.4045629747551
 20
18.45448300179905
 30
0.0
 11
0.3950025658437498
 21
4.482630140104901
 31
0.0
210
0.0
220
0.0
230
1.0
 40
0.1214249004698425
 41
1.604901839470968
 42
3.21571085911094
  0
ELLIPSE
  5
D1F7
330
1F
100
AcDbEntity
  8
AM_0
100
AcDbEllipse
 10
-67.0950282807845
 20
26.72420371797765
 30
0.0
 11
1.471160127110566
 21
-0.2927249227517675
 31
0.0
210
0.0
220
0.0
230
1.0
 40
0.6628860947807816
 41
0.1628960487017466
 42
1.733692375496643
  0
ELLIPSE
  5
D1F8
330
1F
100
AcDbEntity
  8
AM_0
100
AcDbEllipse
 10
-67.90922221814469
 20
23.04779242487169
 30
0.0
 11
0.6105125271894472
 21
-0.7920065998113621
 31
0.0
210
0.0
220
0.0
230
1.0
 40
0.4631744492350745
 41
1.487681221849099
 42
2.155966119221118
  0
ELLIPSE
  5
D1F9
330
1F
100
AcDbEntity
  8
AM_0
100
AcDbEllipse
 10
-67.45599878956944
 20
22.38184461612141
 30
0.0
 11
0.9922268681239495
 21
-0.124442123788284
 31
0.0
210
0.0
220
0.0
230
1.0
 40
0.2885448600917256
 41
0.1271613941353995
 42
1.174358945332009
  0
ELLIPSE
  5
D1FA
330
1F
100
AcDbEntity
  8
AM_0
100
AcDbEllipse
 10
-71.24804782065917
 20
10.16890667968121
 30
0.0
 11
0.5325343857072602
 21
-0.8464083695471043
 31
0.0
210
0.0
220
0.0
230
1.0
 40
0.4677260523443298
 41
0.627736944984219
 42
1.53197921809184
  0
ELLIPSE
  5
D1FB
330
1F
100
AcDbEntity
  8
AM_0
100
AcDbEllipse
 10
-68.36341979395945
 20
15.14661370036143
 30
0.0
 11
0.9922268681239492
 21
-0.1244421237882862
 31
0.0
210
0.0
220
0.0
230
1.0
 40
0.2885448600917273
 41
0.1271613941354002
 42
1.174358945332009
  0
ARC
  5
D1FC
330
1F
100
AcDbEntity
  8
AM_0
100
AcDbCircle
 10
-67.0950282807845
 20
26.72420371797766
 30
0.0
 40
1.5
100
AcDbArc
 50
2.671322949238384
 51
84.96419010361478
  0
LINE
  5
D1FD
330
1F
100
AcDbEntity
  8
AM_0
100
AcDbLine
 10
-64.41906484918616
 20
18.17508565064587
 30
0.0
 11
-64.7564977217811
 21
16.47923487350202
 31
0.0
  0
LINE
  5
D1FE
330
1F
100
AcDbEntity
  8
AM_0
100
AcDbLine
 10
-64.7564977217811
 20
16.47923487350202
 30
0.0
 11
-64.98803182382517
 21
16.97767565551725
 31
0.0
  0
LINE
  5
D1FF
330
1F
100
AcDbEntity
  8
AM_0
100
AcDbLine
 10
-64.98803182382517
 20
16.97767565551725
 30
0.0
 11
-64.88213305327452
 21
19.17196721467626
 31
0.0
  0
LINE
  5
D200
330
1F
100
AcDbEntity
  8
AM_0
100
AcDbLine
 10
-64.88213305327452
 20
19.17196721467631
 30
0.0
 11
-64.54470018067968
 21
20.86781799182016
 31
0.0
  0
LINE
  5
D201
330
1F
100
AcDbEntity
  8
AM_0
100
AcDbLine
 10
-64.54470018067968
 20
20.86781799182005
 30
0.0
 11
-64.3131660786355
 21
20.36937720980482
 31
0.0
  0
LINE
  5
D202
330
1F
100
AcDbEntity
  8
AM_0
100
AcDbLine
 10
-64.3131660786355
 20
20.36937720980482
 30
0.0
 11
-64.63817912672255
 21
20.39801686641589
 31
0.0
  0
LINE
  5
D203
330
1F
100
AcDbEntity
  8
AM_0
100
AcDbLine
 10
-64.3131660786355
 20
20.36937720980482
 30
0.0
 11
-64.41906484918616
 21
18.17508565064581
 31
0.0
  0
LINE
  5
D204
330
1F
100
AcDbEntity
  8
AM_0
100
AcDbLine
 10
-64.41906484918616
 20
18.17508565064587
 30
0.0
 11
-64.92807890590677
 21
18.21993919692805
 31
0.0
  0
LINE
  5
D205
330
1F
100
AcDbEntity
  8
AM_0
100
AcDbLine
 10
-73.25140962018281
 20
21.94110413253115
 30
0.0
 11
-73.1262833421124
 21
21.93007819477866
 31
0.0
  0
ARC
  5
D206
330
1F
100
AcDbEntity
  8
AM_0
100
AcDbCircle
 10
-74.0568221670826
 20
19.50238854910457
 30
0.0
 40
9.764049872767998
100
AcDbArc
 50
335.4090572532352
 51
14.51932295398978
  0
LINE
  5
D207
330
1F
100
AcDbEntity
  8
AM_0
100
AcDbLine
 10
-65.92306410816809
 20
23.05212256673285
 30
0.0
 11
-66.19420938962003
 21
23.0760154774889
 31
0.0
  0
LINE
  5
D208
330
1F
100
AcDbEntity
  8
AM_0
100
AcDbLine
 10
-66.66918006587298
 20
14.58493230209028
 30
0.0
 11
-67.02110323933096
 21
14.6159432381147
 31
0.0
  0
LINE
  5
D209
330
1F
100
AcDbEntity
  8
AM_0
100
AcDbLine
 10
-64.60460534053971
 20
21.9502992872484
 30
0.0
 11
-65.19366549428412
 21
22.66398579079429
 31
0.0
  0
LINE
  5
D20A
330
1F
100
AcDbEntity
  8
AM_0
100
AcDbLine
 10
-65.17835303784239
 20
15.43920558017145
 30
0.0
 11
-65.88314454896909
 21
14.83953132199757
 31
0.0
  0
ARC
  5
D20B
330
1F
100
AcDbEntity
  8
AM_0
100
AcDbCircle
 10
-66.02073179904915
 20
21.98915983990007
 30
0.0
 40
1.067440273026045
100
AcDbArc
 50
39.21194350375605
 51
84.75025991141006
  0
ARC
  5
D20C
330
1F
100
AcDbEntity
  8
AM_0
100
AcDbCircle
 10
-66.57945277557758
 20
15.64859472497368
 30
0.0
 40
1.067440273025992
100
AcDbArc
 50
265.1781202958092
 51
310.7164367034671
  0
ELLIPSE
  5
D20D
330
1F
100
AcDbEntity
  8
AM_0
100
AcDbEllipse
 10
-64.65059895123034
 20
18.67352643266108
 30
0.0
 11
0.2269760616859104
 21
2.575805382484632
 31
0.0
210
0.0
220
0.0
230
1.0
 40
0.1214249004698425
 41
0.6277692000401143
 42
6.910954507219699
  0
ELLIPSE
  5
D20E
330
1F
100
AcDbEntity
  8
AM_0
100
AcDbEllipse
 10
-64.94020274894626
 20
18.69904587986068
 30
0.0
 11
0.2890447267734696
 21
3.280182753511164
 31
0.0
210
0.0
220
0.0
230
1.0
 40
0.1214249004698425
 41
2.41030634928645
 42
3.264229897971436
  0
ELLIPSE
  5
D20F
330
1F
100
AcDbEntity
  8
AM_0
100
AcDbEllipse
 10
-64.94020274894626
 20
18.69904587986068
 30
0.0
 11
0.2890447267734696
 21
3.280182753511164
 31
0.0
210
0.0
220
0.0
230
1.0
 40
0.1214249004698425
 41
6.16054806278876
 42
8.693491656466037
  0
ELLIPSE
  5
D210
330
1F
100
AcDbEntity
  8
AM_0
100
AcDbEllipse
 10
-65.59695667085998
 20
18.75691803887796
 30
0.0
 11
0.3473482959747531
 21
3.941832472213403
 31
0.0
210
0.0
220
0.0
230
1.0
 40
0.1214249004698425
 41
6.160548062793347
 42
8.693491656470599
  0
ELLIPSE
  5
D211
330
1F
100
AcDbEntity
  8
AM_0
100
AcDbEllipse
 10
-65.59695667085998
 20
18.75691803887796
 30
0.0
 11
0.3473482959747531
 21
3.941832472213403
 31
0.0
210
0.0
220
0.0
230
1.0
 40
0.1214249004698425
 41
2.410306349291012
 42
3.264229897976034
  0
ELLIPSE
  5
D212
330
1F
100
AcDbEntity
  8
AM_0
100
AcDbEllipse
 10
-66.29612208702054
 20
18.81852743441161
 30
0.0
 11
0.3730579788523774
 21
4.233595132321299
 31
0.0
210
0.0
220
0.0
230
1.0
 40
0.1214249004698425
 41
2.410306349286426
 42
3.14159265358521
  0
ELLIPSE
  5
D213
330
1F
100
AcDbEntity
  8
AM_0
100
AcDbEllipse
 10
-66.29612208702054
 20
18.81852743441161
 30
0.0
 11
0.3730579788523774
 21
4.233595132321299
 31
0.0
210
0.0
220
0.0
230
1.0
 40
0.1214249004698425
 41
-0.0000000000045834
 42
2.410306349286426
  0
LINE
  5
D214
330
1F
100
AcDbEntity
  8
AM_0
100
AcDbLine
 10
-62.95692197570725
 20
19.2506390024556
 30
0.0
 11
-63.81989072882095
 21
15.39655389970174
 31
0.0
  0
ELLIPSE
  5
D215
330
1F
100
AcDbEntity
  8
AM_0
100
AcDbEllipse
 10
-65.86393443532177
 20
15.6498563550584
 30
0.0
 11
1.718765959903763
 21
-0.3848491348186938
 31
0.0
210
0.0
220
0.0
230
1.0
 40
0.9170020545770365
 41
5.089433394981001
 42
7.249800311053901
  0
ELLIPSE
  5
D216
330
1F
100
AcDbEntity
  8
AM_0
100
AcDbEllipse
 10
-65.86393443532177
 20
15.6498563550584
 30
0.0
 11
1.718765959903763
 21
-0.3848491348186938
 31
0.0
210
0.0
220
0.0
230
1.0
 40
0.9170020545770365
 41
4.468917645217958
 42
5.089433394981
  0
ELLIPSE
  5
D217
330
1F
100
AcDbEntity
  8
AM_0
100
AcDbEllipse
 10
-65.82035656394794
 20
15.84447849434869
 30
0.0
 11
2.000465835127023
 21
-0.4479245946470211
 31
0.0
210
0.0
220
0.0
230
0.9999999999999999
 40
0.9170020545770369
 41
5.089433394981005
 42
7.355111735945041
  0
ELLIPSE
  5
D218
330
1F
100
AcDbEntity
  8
AM_0
100
AcDbEllipse
 10
-65.82035656394794
 20
15.84447849434869
 30
0.0
 11
2.000465835127023
 21
-0.4479245946470211
 31
0.0
210
0.0
220
0.0
230
0.9999999999999999
 40
0.9170020545770369
 41
4.498645546616752
 42
5.089433394981005
  0
ELLIPSE
  5
D219
330
1F
100
AcDbEntity
  8
AM_0
100
AcDbEllipse
 10
-65.86393443532177
 20
15.6498563550584
 30
0.0
 11
1.512547338754551
 21
-0.3386746935135949
 31
0.0
210
0.0
220
0.0
230
1.0
 40
0.9170020545770364
 41
4.453790567077489
 42
7.152642568605421
  0
LINE
  5
D21A
330
1F
100
AcDbEntity
  8
AM_0
100
AcDbLine
 10
1.421929022320796
 20
-86.63429630364308
 30
0.0
 11
15.25827045076494
 21
-84.87123950330167
 31
0.0
  0
LINE
  5
D21B
330
1F
100
AcDbEntity
  8
AM_0
100
AcDbLine
 10
1.421929022320796
 20
-86.63429630364308
 30
0.0
 11
0.8439464960842997
 21
-81.92775484559118
 31
0.0
  0
LINE
  5
D21C
330
1F
100
AcDbEntity
  8
AM_0
100
AcDbLine
 10
14.68028792452844
 20
-80.16469804524976
 30
0.0
 11
0.8439464960842997
 21
-81.92775484559118
 31
0.0
  0
LINE
  5
D21D
330
1F
100
AcDbEntity
  8
AM_0
100
AcDbLine
 10
0.1162897035064816
 20
-81.90975518360384
 30
0.0
 11
7.339334339228799
 21
-79.98310875130241
 31
0.0
  0
LINE
  5
D21E
330
1F
100
AcDbEntity
  8
AM_0
100
AcDbLine
 10
7.339334339228799
 20
-79.98310875130241
 30
0.0
 11
9.625118217296517
 21
-79.6918491845174
 31
0.0
  0
LINE
  5
D21F
330
1F
100
AcDbEntity
  8
AM_0
100
AcDbLine
 10
17.0535082502862
 20
-78.74530752601751
 30
0.0
 11
21.17567576767272
 21
-78.22005195096106
 31
0.0
  0
LINE
  5
D220
330
1F
100
AcDbEntity
  8
AM_0
100
AcDbLine
 10
15.25827045076494
 20
-84.87123950330167
 30
0.0
 11
15.75037603546969
 21
-84.73997720092049
 31
0.0
  0
LINE
  5
D221
330
1F
100
AcDbEntity
  8
AM_0
100
AcDbLine
 10
14.68028792452844
 20
-80.16469804524976
 30
0.0
 11
15.25827045076494
 21
-84.87123950330167
 31
0.0
  0
LINE
  5
D222
330
1F
100
AcDbEntity
  8
AM_0
100
AcDbLine
 10
21.90333256025065
 20
-78.23805161294841
 30
0.0
 11
14.68028792452844
 21
-80.16469804524976
 31
0.0
  0
LINE
  5
D223
330
1F
100
AcDbEntity
  8
AM_0
100
AcDbLine
 10
21.90333256025065
 20
-78.23805161294841
 30
0.0
 11
21.94215590231568
 21
-78.55419208549709
 31
0.0
  0
LINE
  5
D224
330
1F
100
AcDbEntity
  8
AM_0
100
AcDbLine
 10
0.0000454513493651
 20
-81.96125807848736
 30
0.0
 11
0.5780279775858617
 21
-86.66779953653926
 31
0.0
  0
LINE
  5
D225
330
1F
100
AcDbEntity
  8
AM_0
100
AcDbLine
 10
22.01957681240765
 20
-78.18654871806488
 30
0.0
 11
22.06264004439288
 21
-78.53721483244679
 31
0.0
  0
ELLIPSE
  5
D226
330
1F
100
AcDbEntity
  8
AM_0
100
AcDbEllipse
 10
1.372063023333567
 20
-86.57028878777564
 30
0.0
 11
0.7940350457477072
 21
0.09751074876359313
 31
0.0
210
0.0
220
0.0
230
0.9999999999999999
 40
0.0871288427332453
 41
3.14159265358983
 42
4.764528116062628
  0
ELLIPSE
  5
D227
330
1F
100
AcDbEntity
  8
AM_0
100
AcDbEllipse
 10
0.7940804970970703
 20
-81.86374732972374
 30
0.0
 11
0.7940350457477081
 21
0.09751074876358602
 31
0.0
210
0.0
220
0.0
230
1.0
 40
0.0871288427332453
 41
2.58286655106973
 42
4.764528116062626
  0
ELLIPSE
  5
D228
330
1F
100
AcDbEntity
  8
AM_0
100
AcDbEllipse
 10
21.22554176665994
 20
-78.28405946682851
 30
0.0
 11
0.7940350457477079
 21
0.09751074876358593
 31
0.0
210
0.0
220
0.0
230
1.0
 40
0.0871288427332453
 41
5.724459204659555
 42
7.906120769652419
  0
ELLIPSE
  5
D229
330
1F
100
AcDbEntity
  8
AM_0
100
AcDbEllipse
 10
11.00981113187845
 20
-80.07390339827614
 30
0.0
 11
2.560763022536357
 21
0.3144721647625647
 31
0.0
210
0.0
220
0.0
230
1.0
 40
0.0871288427332453
 41
2.243726878371537
 42
3.141371911707942
  0
ELLIPSE
  5
D22A
330
1F
100
AcDbEntity
  8
AM_0
100
AcDbEllipse
 10
11.00981113187845
 20
-80.07390339827614
 30
0.0
 11
2.560763022536357
 21
0.3144721647625647
 31
0.0
210
0.0
220
0.0
230
1.0
 40
0.0871288427332453
 41
3.141371911707942
 42
5.927646496152622
  0
LINE
  5
D22B
330
1F
100
AcDbEntity
  8
AM_0
100
AcDbLine
 10
26.09394715325732
 20
-77.09565687690427
 30
0.0
 11
26.11680948398475
 21
-77.28182601266927
 31
0.0
  0
LINE
  5
D22C
330
1F
100
AcDbEntity
  8
AM_0
100
AcDbLine
 10
32.02440345593868
 20
-76.50109100112518
 30
0.0
 11
31.51186854857929
 21
-76.52288030507008
 31
0.0
  0
LINE
  5
D22D
330
1F
100
AcDbEntity
  8
AM_0
100
AcDbLine
 10
32.62285783006803
 20
-76.16432740870714
 30
0.0
 11
31.47383554330122
 21
-76.21317558565345
 31
0.0
  0
LINE
  5
D22E
330
1F
100
AcDbEntity
  8
AM_0
100
AcDbLine
 10
8.44169232942545
 20
-79.84264389207081
 30
0.0
 11
9.748823743298772
 21
-79.49398481517224
 31
0.0
  0
LINE
  5
D22F
330
1F
100
AcDbEntity
  8
AM_0
100
AcDbLine
 10
2.15109296184437
 20
-113.369627192426
 30
0.0
 11
2.402606774914943
 21
-113.780447682094
 31
0.0
  0
ARC
  5
D230
330
1F
100
AcDbEntity
  8
AM_0
100
AcDbCircle
 10
3.003952526689773
 20
-112.8474868256168
 30
0.0
 40
1.000000000000016
100
AcDbArc
 50
87.00000000043143
 51
211.4759328862583
  0
LINE
  5
D231
330
1F
100
AcDbEntity
  8
AM_0
100
AcDbLine
 10
32.50054612226484
 20
-76.42068806562956
 30
0.0
 11
32.62285783006803
 21
-76.16432740870719
 31
0.0
  0
LINE
  5
D232
330
1F
100
AcDbEntity
  8
AM_0
100
AcDbLine
 10
27.40885731292099
 20
-76.80582563542059
 30
0.0
 11
30.26298333264867
 21
-76.68448869144275
 31
0.0
  0
LINE
  5
D233
330
1F
100
AcDbEntity
  8
AM_0
100
AcDbLine
 10
19.63317676220152
 20
-78.41660053825778
 30
0.0
 11
17.05350825028609
 21
-78.74530752601751
 31
0.0
  0
LINE
  5
D234
330
1F
100
AcDbEntity
  8
AM_0
100
AcDbLine
 10
9.625118217296517
 20
-79.6918491845174
 30
0.0
 11
8.44169232942545
 21
-79.84264389207081
 31
0.0
  0
LINE
  5
D235
330
1F
100
AcDbEntity
  8
AM_0
100
AcDbLine
 10
15.41556017773962
 20
-79.96857442496733
 30
0.0
 11
19.93135485202618
 21
-78.76404916768296
 31
0.0
  0
LINE
  5
D236
330
1F
100
AcDbEntity
  8
AM_0
100
AcDbLine
 10
37.37927904852791
 20
-113.6476490045007
 30
0.0
 11
3.056288482925311
 21
-111.8488572908618
 31
0.0
  0
LINE
  5
D237
330
1F
100
AcDbEntity
  8
AM_0
100
AcDbLine
 10
3.056288482925311
 20
-92.79724745090708
 30
0.0
 11
3.056288482925311
 21
-111.8488572908618
 31
0.0
  0
LINE
  5
D238
330
1F
100
AcDbEntity
  8
AM_0
100
AcDbLine
 10
16.09161485051504
 20
-91.1186213250563
 30
0.0
 11
16.19703164399607
 21
-91.10518888732858
 31
0.0
  0
LINE
  5
D239
330
1F
100
AcDbEntity
  8
AM_0
100
AcDbLine
 10
16.19703164399607
 20
-91.10518888732858
 30
0.0
 11
15.41556017773962
 21
-79.96857442496733
 31
0.0
  0
LINE
  5
D23A
330
1F
100
AcDbEntity
  8
AM_0
100
AcDbLine
 10
40.16807497611239
 20
-76.814555006864
 30
0.0
 11
15.41556017773962
 21
-79.96857442496733
 31
0.0
  0
LINE
  5
D23B
330
1F
100
AcDbEntity
  8
AM_0
100
AcDbLine
 10
37.37929372384633
 20
-113.6476482425555
 30
0.0
 11
37.38618865466901
 21
-113.7804469195096
 31
0.0
  0
SPLINE
  5
D23C
330
1F
100
AcDbEntity
  8
AM_0
100
AcDbSpline
210
0.0
220
0.0
230
1.0
 70
    12
 71
     2
 72
     6
 73
     3
 74
     0
 42
0.0000000001
 43
0.0000000001
 40
27.97134273749154
 40
27.97134273749154
 40
27.97134273749154
 40
66.18242201826359
 40
66.18242201826359
 40
66.18242201826359
 10
40.16807497611234
 20
-76.814555006864
 30
0.0
 41
1.142249338787052
 10
40.71903479578464
 20
-93.17999901899043
 30
0.0
 41
1.171368597149644
 10
37.37927904852796
 20
-113.6476490045004
 30
-0.0000000000000284
 41
1.014584379216698
  0
LINE
  5
D23D
330
1F
100
AcDbEntity
  8
AM_0
100
AcDbLine
 10
40.16834603299412
 20
-76.81514243632154
 30
0.0
 11
42.1840508267851
 21
-75.88503815042066
 31
0.0
  0
LINE
  5
D23E
330
1F
100
AcDbEntity
  8
AM_0
100
AcDbLine
 10
31.45139580995249
 20
-76.03044768209405
 30
0.0
 11
41.11207870099088
 21
-76.03044768209406
 31
0.0
  0
ARC
  5
D23F
330
1F
100
AcDbEntity
  8
AM_0
100
AcDbCircle
 10
41.11302847281922
 20
-72.03280803580998
 30
0.0
 40
3.997471490982617
100
AcDbArc
 50
285.5353081758814
 51
298.3029585971981
  0
ARC
  5
D240
330
1F
100
AcDbEntity
  8
AM_0
100
AcDbCircle
 10
41.11207870099088
 20
-72.03044768209406
 30
0.0
 40
4.000000000000007
100
AcDbArc
 50
270.0
 51
285.5393603317306
  0
LINE
  5
D241
330
1F
100
AcDbEntity
  8
AM_0
100
AcDbLine
 10
2.402606774914943
 20
-113.780447682094
 30
0.0
 11
37.3861739670391
 21
-113.780447682094
 31
0.0
  0
LINE
  5
D242
330
1F
100
AcDbEntity
  8
AM_0
100
AcDbLine
 10
37.3861739670391
 20
-113.780447682094
 30
0.0
 11
42.94137701886189
 21
-113.780447682094
 31
0.0
  0
ELLIPSE
  5
D243
330
1F
100
AcDbEntity
  8
AM_0
100
AcDbEllipse
 10
53.0083643169699
 20
-67.57570181801418
 30
0.0
 11
1.75
 21
-4.589800097365767E-16
 31
0.0
210
0.0
220
0.0
230
1.0
 40
0.7314585129516621
 41
3.141592653589795
 42
6.283185307179585
  0
ELLIPSE
  5
D244
330
1F
100
AcDbEntity
  8
AM_0
100
AcDbEllipse
 10
53.0083643169699
 20
-67.57570181801418
 30
0.0
 11
1.75
 21
-4.589800097365767E-16
 31
0.0
210
0.0
220
0.0
230
1.0
 40
0.7314585129516621
 41
-0.0000000000000015
 42
3.141592653589795
  0
SPLINE
  5
D245
330
1F
100
AcDbEntity
  8
AM_0
100
AcDbSpline
210
0.0
220
0.0
230
1.0
 70
     8
 71
     3
 72
    18
 73
    14
 74
     0
 42
0.0000000001
 43
0.0000000001
 40
0.0
 40
0.0
 40
0.0
 40
0.0
 40
0.411501884106919
 40
0.411501884106919
 40
0.823003768213838
 40
0.823003768213838
 40
1.234505652320757
 40
1.234505652320757
 40
1.646007536427676
 40
1.646007536427676
 40
2.38993811774996
 40
2.38993811774996
 40
2.603067862039433
 40
2.603067862039433
 40
2.603067862039433
 40
2.603067862039433
 10
52.51390819863485
 20
-66.89320448365749
 30
0.0
 10
52.38812550757206
 20
-66.90515940110799
 30
0.0
 10
52.27586755430815
 20
-66.91553527846361
 30
0.0
 10
52.06956098363577
 20
-66.93834350953676
 30
0.0
 10
51.97557162791026
 20
-66.95098941056
 30
0.0
 10
51.80297973423257
 20
-66.9849551831187
 30
0.0
 10
51.72462794638926
 20
-67.00629414334759
 30
0.0
 10
51.58487227565905
 20
-67.06138326107475
 30
0.0
 10
51.52354035895536
 20
-67.09515367254778
 30
0.0
 10
51.37802352088846
 20
-67.20824273802958
 30
0.0
 10
51.30253043981128
 20
-67.31432489719566
 30
0.0
 10
51.26425483801444
 20
-67.50007539904544
 30
0.0
 10
51.25939595093036
 20
-67.54454844143379
 30
0.0
 10
51.25850341060658
 20
-67.59184052445841
 30
0.0
  0
SPLINE
  5
D246
330
1F
100
AcDbEntity
  8
AM_0
100
AcDbSpline
210
0.0
220
0.0
230
1.0
 70
     8
 71
     3
 72
    24
 73
    20
 74
     0
 42
0.0000000001
 43
0.0000000001
 40
8.858620701309652
 40
8.858620701309652
 40
8.858620701309652
 40
8.858620701309652
 40
9.024875439100565
 40
9.024875439100565
 40
9.347111209116545
 40
9.347111209116545
 40
9.669346979132525
 40
9.669346979132525
 40
9.991582749148506
 40
9.991582749148506
 40
10.31381851916449
 40
10.31381851916449
 40
10.68086725938731
 40
10.68086725938731
 40
11.04791599961014
 40
11.04791599961014
 40
11.41496473983297
 40
11.41496473983297
 40
11.7820134800558
 40
11.7820134800558
 40
11.7820134800558
 40
11.7820134800558
 10
54.72680229515214
 20
-67.81771502856924
 30
0.0
 10
54.71604045532189
 20
-67.76787378916714
 30
0.0
 10
54.70271642154393
 20
-67.71970789767812
 30
0.0
 10
54.65670935100417
 20
-67.58443868420596
 30
0.0
 10
54.6158397514094
 20
-67.4980497336324
 30
0.0
 10
54.51405872595996
 20
-67.33859632767258
 30
0.0
 10
54.45315940499603
 20
-67.26552247848667
 30
0.0
 10
54.31551757942663
 20
-67.13724842760541
 30
0.0
 10
54.23865788935274
 20
-67.08191442721466
 30
0.0
 10
54.0751546298863
 20
-66.99025641673353
 30
0.0
 10
53.98850890254533
 20
-66.95391423031157
 30
0.0
 10
53.8013005711129
 20
-66.89457539883961
 30
0.0
 10
53.69288300057116
 20
-66.87181978206206
 30
0.0
 10
53.46587393153112
 20
-66.84442609709817
 30
0.0
 10
53.34730476741999
 20
-66.83973851666542
 30
0.0
 10
53.10700719157097
 20
-66.84311877454115
 30
0.0
 10
52.9847878809764
 20
-66.85108436566009
 30
0.0
 10
52.74434229355092
 20
-66.8709546164676
 30
0.0
 10
52.62610301493959
 20
-66.88254101513127
 30
0.0
 10
52.51390819863485
 20
-66.89320448365749
 30
0.0
  0
LINE
  5
D24B
330
1F
100
AcDbEntity
  8
AM_0
100
AcDbLine
 10
45.90271071003889
 20
-63.16812623807323
 30
0.0
 11
47.00836431697161
 21
-50.53044768209399
 31
0.0
  0
ARC
  5
D24C
330
1F
100
AcDbEntity
  8
AM_0
100
AcDbCircle
 10
41.11131363109075
 20
-72.02982223345987
 30
0.0
 40
4.00091341455311
100
AcDbArc
 50
298.304307144871
 51
343.1633380411598
  0
ELLIPSE
  5
D24D
330
1F
100
AcDbEntity
  8
AM_0
100
AcDbEllipse
 10
-48.75262210415099
 20
-82.03044768209398
 30
0.0
 11
-257.4998493452546
 21
-31.38195037968777
 31
0.0
210
0.0
220
0.0
230
0.9999999999999999
 40
0.0105807954785983
 41
1.941912835844004
 42
1.964466301648638
  0
ARC
  5
D24E
330
1F
100
AcDbEntity
  8
AM_0
100
AcDbCircle
 10
41.11207870099088
 20
-72.03044768209406
 30
0.0
 40
4.000000000000007
100
AcDbArc
 50
343.1687387446873
 51
354.9999999999999
  0
LINE
  5
D24F
330
1F
100
AcDbEntity
  8
AM_0
100
AcDbLine
 10
45.09685749335785
 20
-72.37907065308468
 30
0.0
 11
45.09813765576354
 21
-72.36443832983224
 31
0.0
  0
ELLIPSE
  5
D250
330
1F
100
AcDbEntity
  8
AM_0
100
AcDbEllipse
 10
47.02660038772905
 20
-69.47397975417817
 30
0.0
 11
-0.3643122747584616
 21
2.022813454158754
 31
0.0
210
0.0
220
0.0
230
1.0
 40
0.5001998357775281
 41
3.099787279436145
 42
6.241379933025998
  0
ELLIPSE
  5
D251
330
1F
100
AcDbEntity
  8
AM_0
100
AcDbEllipse
 10
34.48527312260683
 20
-82.03044768209401
 30
0.0
 11
8.044788608938458
 21
-31.17882967496171
 31
0.0
210
0.0
220
0.0
230
1.0
 40
0.5577165193305066
 41
1.73494298429445
 42
2.069881738416191
  0
LINE
  5
D252
330
1F
100
AcDbEntity
  8
AM_0
100
AcDbLine
 10
45.09813765576354
 20
-72.36443832983224
 30
0.0
 11
50.32587893988733
 21
-72.50909711397014
 31
0.0
  0
LINE
  5
D253
330
1F
100
AcDbEntity
  8
AM_0
100
AcDbLine
 10
45.09813765576354
 20
-72.36443832983224
 30
0.0
 11
45.15529958434053
 21
-71.71107449646928
 31
0.0
  0
LINE
  5
D254
330
1F
100
AcDbEntity
  8
AM_0
100
AcDbLine
 10
45.51864090817406
 20
-67.55806416129849
 30
0.0
 11
45.90271071003878
 21
-63.16812623807323
 31
0.0
  0
LINE
  5
D255
330
1F
100
AcDbEntity
  8
AM_0
100
AcDbLine
 10
2.003952526689773
 20
-92.87816551172618
 30
0.0
 11
2.003952526689773
 21
-112.8474868256168
 31
0.0
  0
LINE
  5
D256
330
1F
100
AcDbEntity
  8
AM_0
100
AcDbLine
 10
43.00836431696962
 20
-113.5304476820939
 30
0.0
 11
42.94137701886189
 21
-113.780447682094
 31
0.0
  0
LINE
  5
D257
330
1F
100
AcDbEntity
  8
AM_0
100
AcDbLine
 10
64.70836431697001
 20
-50.53044768209399
 30
0.0
 11
47.00836431697161
 21
-50.53044768209399
 31
0.0
  0
LINE
  5
D258
330
1F
100
AcDbEntity
  8
AM_0
100
AcDbLine
 10
64.70836431697001
 20
-113.530447682094
 30
0.0
 11
43.00836431697007
 21
-113.530447682094
 31
0.0
  0
ELLIPSE
  5
D259
330
1F
100
AcDbEntity
  8
AM_0
100
AcDbEllipse
 10
22.33190563073526
 20
-77.57829814290379
 30
0.0
 11
4.218311180534697
 21
0.5180258528065569
 31
0.0
210
0.0
220
0.0
230
1.0
 40
0.0871288427332452
 41
4.462309977228822
 42
6.442697491251602
  0
ELLIPSE
  5
D25A
330
1F
100
AcDbEntity
  8
AM_0
100
AcDbEllipse
 10
31.44292058135829
 20
-76.42440805007492
 30
0.0
 11
1.766727976788628
 21
0.2169614159989882
 31
0.0
210
0.0
220
0.0
230
1.0
 40
0.0871288427332452
 41
3.970403306405198
 42
7.111995959994991
  0
ELLIPSE
  5
D25B
330
1F
100
AcDbEntity
  8
AM_0
100
AcDbEllipse
 10
21.4276932700933
 20
-78.37981901147235
 30
0.0
 11
2.729495469757733
 21
0.335193198874844
 31
0.0
210
0.0
220
0.0
230
1.0
 40
0.0871288427332452
 41
4.121503924497052
 42
8.560666572949359
  0
LINE
  5
D260
330
1F
100
AcDbEntity
  8
AM_0
100
AcDbLine
 10
43.00836431697007
 20
-113.530447682094
 30
0.0
 11
43.00836431697007
 21
-75.55239328965678
 31
0.0
  0
LINE
  5
D262
330
1F
100
AcDbEntity
  8
AM_0
100
AcDbLine
 10
3.073822706495548
 20
-92.79502467273322
 30
0.0
 11
15.57919048495705
 21
-91.20156343757876
 31
0.0
  0
LINE
  5
D263
330
1F
100
AcDbEntity
  8
AM_0
100
AcDbLine
 10
3.073822706495548
 20
-92.79502467273322
 30
0.0
 11
2.303465827756327
 21
-86.52196896136033
 31
0.0
  0
LINE
  5
D264
330
1F
100
AcDbEntity
  8
AM_0
100
AcDbLine
 10
14.80883360621795
 20
-84.92850772620588
 30
0.0
 11
15.57919048495705
 21
-91.20156343757876
 31
0.0
  0
LINE
  5
D265
330
1F
100
AcDbEntity
  8
AM_0
100
AcDbLine
 10
16.18135451464889
 20
-90.88177683333149
 30
0.0
 11
15.43736935266054
 21
-84.82346736872844
 31
0.0
  0
LINE
  5
D266
330
1F
100
AcDbEntity
  8
AM_0
100
AcDbLine
 10
1.050077914065241
 20
-86.67371598189723
 30
0.0
 11
1.807971139393089
 21
-92.84527952207746
 31
0.0
  0
ELLIPSE
  5
D267
330
1F
100
AcDbEntity
  8
AM_0
100
AcDbEllipse
 10
2.999023708014647
 20
-92.69901339893208
 30
0.0
 11
1.191052568621561
 21
0.1462661231453897
 31
0.0
210
0.0
220
0.0
230
1.0
 40
0.0871288427332452
 41
3.14159265358982
 42
4.764528116062591
  0
ELLIPSE
  5
D268
330
1F
100
AcDbEntity
  8
AM_0
100
AcDbEllipse
 10
15.52932448596982
 20
-91.13755592171131
 30
0.0
 11
0.7940350457477072
 21
0.09751074876359313
 31
0.0
210
0.0
220
0.0
230
1.0
 40
0.0871288427332452
 41
4.764528116062557
 42
5.698792158995086
  0
LINE
  5
D269
330
1F
100
AcDbEntity
  8
AM_0
100
AcDbLine
 10
30.08525031594593
 20
-76.45688581646975
 30
0.0
 11
30.281981141188
 21
-76.68365941533976
 31
0.0
  0
LINE
  5
D26A
330
1F
100
AcDbEntity
  8
AM_0
100
AcDbLine
 10
23.08135137556144
 20
-77.7596903608051
 30
0.0
 11
30.05643594156175
 21
-76.22224888287592
 31
0.0
  0
LINE
  5
D26B
330
1F
100
AcDbEntity
  8
AM_0
100
AcDbLine
 10
15.75081346324623
 20
-78.95318936237342
 30
0.0
 11
22.22701458038887
 21
-77.91972811401693
 31
0.0
  0
LINE
  5
D26C
330
1F
100
AcDbEntity
  8
AM_0
100
AcDbLine
 10
15.54315047180558
 20
-79.51794914751562
 30
0.0
 11
15.75081346324623
 21
-78.95318936237337
 31
0.0
  0
LINE
  5
D26D
330
1F
100
AcDbEntity
  8
AM_0
100
AcDbLine
 10
12.17316534557074
 20
-80.05572568850087
 30
0.0
 11
15.54315047180558
 21
-79.51794914751568
 31
0.0
  0
LINE
  5
D26E
330
1F
100
AcDbEntity
  8
AM_0
100
AcDbLine
 10
30.46792556147761
 20
-71.2569875764646
 30
0.0
 11
31.12612329937076
 21
-76.61672563145679
 31
0.0
  0
LINE
  5
D26F
330
1F
100
AcDbEntity
  8
AM_0
100
AcDbLine
 10
26.84532787990065
 20
-72.05547709738811
 30
0.0
 11
30.46792556147761
 21
-71.2569875764646
 31
0.0
  0
LINE
  5
D270
330
1F
100
AcDbEntity
  8
AM_0
100
AcDbLine
 10
30.05643594156175
 20
-76.22224888287592
 30
0.0
 11
30.08525031594593
 21
-76.45688581646975
 31
0.0
  0
LINE
  5
D271
330
1F
100
AcDbEntity
  8
AM_0
100
AcDbLine
 10
28.73067056576576
 20
-76.51447282073131
 30
0.0
 11
30.08525031594593
 21
-76.45688581646975
 31
0.0
  0
LINE
  5
D272
330
1F
100
AcDbEntity
  8
AM_0
100
AcDbLine
 10
26.04327138705094
 20
-77.10682678088959
 30
0.0
 11
26.06658591884195
 21
-77.29667821318849
 31
0.0
  0
LINE
  5
D273
330
1F
100
AcDbEntity
  8
AM_0
100
AcDbLine
 10
26.3830719705968
 20
-71.62132596899401
 30
0.0
 11
22.22701458038887
 21
-77.91972811401693
 31
0.0
  0
LINE
  5
D274
330
1F
100
AcDbEntity
  8
AM_0
100
AcDbLine
 10
23.08135137556144
 20
-77.7596903608051
 30
0.0
 11
26.84532787990065
 21
-72.05547709738811
 31
0.0
  0
ELLIPSE
  5
D275
330
1F
100
AcDbEntity
  8
AM_0
100
AcDbEllipse
 10
22.34254286255407
 20
-77.79109919367845
 30
0.0
 11
1.343511226457881
 21
0.2253325123094152
 31
0.0
210
0.0
220
0.0
230
1.0
 40
0.0794863424238824
 41
4.612969918738973
 42
5.281254816110964
  0
ELLIPSE
  5
D276
330
1F
100
AcDbEntity
  8
AM_0
100
AcDbEllipse
 10
25.3028858052096
 20
-71.79370025489804
 30
0.0
 11
1.13674544415756
 21
0.4340353259142418
 31
0.0
210
0.0
220
0.0
230
1.0
 40
0.3878555439170697
 41
5.787974796418324
 42
7.358771123213222
  0
ELLIPSE
  5
D277
330
1F
100
AcDbEntity
  8
AM_0
100
AcDbEllipse
 10
25.02633320150608
 20
-72.25926021616554
 30
0.0
 11
1.681662520346144
 21
1.01891687363647
 31
0.0
210
0.0
220
0.0
230
1.0
 40
0.7304980416163914
 41
5.718785257163653
 42
7.28958158395855
  0
LINE
  5
D278
330
1F
100
AcDbEntity
  8
AM_0
100
AcDbLine
 10
18.74160617578593
 20
-72.3091169133958
 30
0.0
 11
25.69496669107832
 21
-71.19951137329217
 31
0.0
  0
LINE
  5
D279
330
1F
100
AcDbEntity
  8
AM_0
100
AcDbLine
 10
11.67575465502694
 20
-80.01688891897683
 30
0.0
 11
14.16038585308252
 21
-75.27894385085861
 31
0.0
  0
ELLIPSE
  5
D27A
330
1F
100
AcDbEntity
  8
AM_0
100
AcDbEllipse
 10
24.07025579060814
 20
-81.02796295340687
 30
0.0
 11
-9.721332506839392
 21
6.077673869412213
 31
0.0
210
0.0
220
0.0
230
1.0
 40
0.6600593048509755
 41
5.635107255443981
 42
6.333238956241718
  0
ARC
  5
D27B
330
1F
100
AcDbEntity
  8
AM_0
100
AcDbCircle
 10
11.32986746726749
 20
-81.43924779044514
 30
0.0
 40
1.46381102123901
100
AcDbArc
 50
76.33219175479691
 51
114.1586284903199
  0
ELLIPSE
  5
D27C
330
1F
100
AcDbEntity
  8
AM_0
100
AcDbEllipse
 10
10.97365687301681
 20
-76.56396098996382
 30
0.0
 11
1.397580117173723
 21
-3.436711075360485
 31
0.0
210
0.0
220
0.0
230
1.0
 40
0.4886281037839732
 41
5.916251505456116
 42
6.170292670401856
  0
LINE
  5
D27D
330
1F
100
AcDbEntity
  8
AM_0
100
AcDbLine
 10
13.36472141075933
 20
-75.08098209625868
 30
0.0
 11
10.73078185482996
 21
-80.10364338236948
 31
0.0
  0
ELLIPSE
  5
D27E
330
1F
100
AcDbEntity
  8
AM_0
100
AcDbEllipse
 10
11.19050988845231
 20
-78.32980625538525
 30
0.0
 11
-1.649071546555461
 21
-1.788284594352319
 31
0.0
210
0.0
220
0.0
230
1.0
 40
0.4754120160908165
 41
0.04629681036906
 42
0.844392666215031
  0
ELLIPSE
  5
D27F
330
1F
100
AcDbEntity
  8
AM_0
100
AcDbEllipse
 10
23.79370318690462
 20
-81.49352291467437
 30
0.0
 11
-10.06216132004931
 21
7.013902821700915
 31
0.0
210
0.0
220
0.0
230
1.0
 40
0.6855243663895416
 41
5.668771167020847
 42
6.366902867818585
  0
LINE
  5
D280
330
1F
100
AcDbEntity
  8
AM_0
100
AcDbLine
 10
12.73656071374285
 20
-75.10768697851549
 30
0.0
 11
13.36472141075933
 21
-75.08098209625868
 31
0.0
  0
LINE
  5
D281
330
1F
100
AcDbEntity
  8
AM_0
100
AcDbLine
 10
25.62178241316792
 20
-69.97211379173272
 30
0.0
 11
29.17757544126175
 21
-69.82094700496002
 31
0.0
  0
LINE
  5
D282
330
1F
100
AcDbEntity
  8
AM_0
100
AcDbLine
 10
29.17757544126187
 20
-69.82094700495996
 30
0.0
 11
25.29698918690497
 21
-70.67630212068313
 31
0.0
  0
LINE
  5
D283
330
1F
100
AcDbEntity
  8
AM_0
100
AcDbLine
 10
25.29698918690497
 20
-70.67630212068313
 30
0.0
 11
24.160920766608
 21
-70.85759400254743
 31
0.0
  0
LINE
  5
D284
330
1F
100
AcDbEntity
  8
AM_0
100
AcDbLine
 10
25.16229766346385
 20
-70.64027138067921
 30
0.0
 11
24.49941156868306
 21
-70.78638410054877
 31
0.0
  0
LINE
  5
D285
330
1F
100
AcDbEntity
  8
AM_0
100
AcDbLine
 10
21.50553422210635
 20
-71.28133610744992
 30
0.0
 11
18.34362867161258
 21
-71.78590766078682
 31
0.0
  0
LINE
  5
D286
330
1F
100
AcDbEntity
  8
AM_0
100
AcDbLine
 10
18.34362867161258
 20
-71.78590766078682
 30
0.0
 11
15.7113922158884
 21
-71.89781145380684
 31
0.0
  0
ARC
  5
D287
330
1F
100
AcDbEntity
  8
AM_0
100
AcDbCircle
 10
20.12145209303549
 20
-54.07608198291124
 30
0.0
 40
17.26083580913646
100
AcDbArc
 50
274.5992729123118
 51
283.5341622113755
  0
LINE
  5
D288
330
1F
100
AcDbEntity
  8
AM_0
100
AcDbLine
 10
9.582551523703955
 20
-80.15245789104861
 30
0.0
 11
12.73656071374285
 21
-75.10768697851549
 31
0.0
  0
SPLINE
  5
D289
330
1F
100
AcDbEntity
  8
AM_0
100
AcDbSpline
210
0.0
220
0.0
230
1.0
 70
     8
 71
     3
 72
    12
 73
     8
 74
     0
 42
0.0000000001
 43
0.0000000001
 40
-2.555497711727869
 40
-2.555497711727869
 40
-2.555497711727869
 40
-2.555497711727869
 40
-2.201983172992293
 40
-2.201983172992293
 40
-1.765885894744844
 40
-1.765885894744844
 40
-1.717671851544119
 40
-1.717671851544119
 40
-1.717671851544119
 40
-1.717671851544119
 10
9.391052524103543
 20
-80.08517980700546
 30
0.0
 10
9.388213334357715
 20
-80.05969604866979
 30
0.0
 10
9.397348073371177
 20
-80.05116949432861
 30
0.0
 10
9.449720363939605
 20
-80.06346605307411
 30
0.0
 10
9.500566325205455
 20
-80.09250163462062
 30
0.0
 10
9.568392494762975
 20
-80.14184834945141
 30
0.0
 10
9.575366437881485
 20
-80.14702094192839
 30
0.0
 10
9.582551523703955
 20
-80.15245789104861
 30
0.0
  0
LINE
  5
D28A
330
1F
100
AcDbEntity
  8
AM_0
100
AcDbLine
 10
15.7113922158884
 20
-71.89781145380684
 30
0.0
 11
16.71066801524785
 21
-71.48517938847581
 31
0.0
  0
SPLINE
  5
D28B
330
1F
100
AcDbEntity
  8
AM_0
100
AcDbSpline
210
0.0
220
0.0
230
1.0
 70
     8
 71
     3
 72
    16
 73
    12
 74
     0
 42
0.0000000001
 43
0.0000000001
 40
9.28033164244842
 40
9.28033164244842
 40
9.28033164244842
 40
9.28033164244842
 40
9.31735987719081
 40
9.31735987719081
 40
10.01296202430315
 40
10.01296202430315
 40
10.70856417141549
 40
10.70856417141549
 40
11.40416631852782
 40
11.40416631852782
 40
11.64352943170354
 40
11.64352943170354
 40
11.64352943170354
 40
11.64352943170354
 10
16.71066801524785
 20
-71.48517938847581
 30
0.0
 10
16.71023256348781
 20
-71.48410380012231
 30
0.0
 10
16.70985472590951
 20
-71.48304634559909
 30
0.0
 10
16.70351896638306
 20
-71.46244799994341
 30
0.0
 10
16.71809689642521
 20
-71.44825329288724
 30
0.0
 10
16.78516871681791
 20
-71.41242154635873
 30
0.0
 10
16.83765083169101
 20
-71.39057450530564
 30
0.0
 10
16.97145911450298
 20
-71.33532090251597
 30
0.0
 10
17.05734654543812
 20
-71.30003085338601
 30
0.0
 10
17.19766774925449
 20
-71.24755550112801
 30
0.0
 10
17.23578549581089
 20
-71.23370161849451
 30
0.0
 10
17.27594674224429
 20
-71.21994305334218
 30
0.0
  0
ELLIPSE
  5
D28C
330
1F
100
AcDbEntity
  8
AM_0
100
AcDbEllipse
 10
12.68981570999313
 20
-81.9655804774483
 30
0.0
 11
3.750815082195854
 21
10.10406643156057
 31
0.0
210
0.0
220
0.0
230
1.0
 40
0.2712190385523965
 41
0.23162034775178
 42
0.9297520485495163
  0
LINE
  5
D28D
330
1F
100
AcDbEntity
  8
AM_0
100
AcDbLine
 10
30.84852850274353
 20
-71.12126817184291
 30
0.0
 11
31.51782516274443
 21
-76.57138532078459
 31
0.0
  0
LINE
  5
D28E
330
1F
100
AcDbEntity
  8
AM_0
100
AcDbLine
 10
25.6166563539814
 20
-69.96187381512208
 30
0.0
 11
29.2960011112275
 21
-69.80545449600321
 31
0.0
  0
LINE
  5
D28F
330
1F
100
AcDbEntity
  8
AM_0
100
AcDbLine
 10
9.391052524103543
 20
-80.08517980700552
 30
0.0
 11
9.435164308589037
 21
-80.44438433836311
 31
0.0
  0
LINE
  5
D290
330
1F
100
AcDbEntity
  8
AM_0
100
AcDbLine
 10
13.3935681844705
 20
-79.86097586239546
 30
0.0
 11
13.3941823580717
 21
-79.86597710963949
 31
0.0
  0
LINE
  5
D291
330
1F
100
AcDbEntity
  8
AM_0
100
AcDbLine
 10
9.393634350614775
 20
-80.06210272754615
 30
0.0
 11
12.40775186616918
 21
-75.24108558610973
 31
0.0
  0
LINE
  5
D292
330
1F
100
AcDbEntity
  8
AM_0
100
AcDbLine
 10
15.45114568832412
 20
-71.96228259832336
 30
0.0
 11
17.27592530131153
 21
-71.2087743266695
 31
0.0
  0
ARC
  5
D293
330
1F
100
AcDbEntity
  8
AM_0
100
AcDbCircle
 10
19.70135170437129
 20
-78.95918003690241
 30
0.0
 40
8.186624759010138
100
AcDbArc
 50
121.2762332133632
 51
152.9886524537344
  0
ELLIPSE
  5
D294
330
1F
100
AcDbEntity
  8
AM_0
100
AcDbEllipse
 10
29.35971279196656
 20
-71.30410082577463
 30
0.0
 11
-0.3228781430793605
 21
1.46483777419946
 31
0.0
210
0.0
220
0.0
230
1.0
 40
0.7343249270170563
 41
4.583676361703033
 42
6.154472688497929
  0
ELLIPSE
  5
D295
330
1F
100
AcDbEntity
  8
AM_0
100
AcDbEllipse
 10
29.35971279196656
 20
-71.30410082577463
 30
0.0
 11
-0.06371168073911467
 21
1.498646329771436
 31
0.0
210
0.0
220
0.0
230
1.0
 40
0.6731830852935627
 41
-0.0000000000000258
 42
0.1180994765037933
  0
ELLIPSE
  5
D296
330
1F
100
AcDbEntity
  8
AM_0
100
AcDbEllipse
 10
29.35971279196656
 20
-71.30410082577463
 30
0.0
 11
1.488815710776951
 21
0.1828326539317371
 31
0.0
210
0.0
220
0.0
230
0.9999999999999999
 40
0.0871288427332452
 41
5.541199633200072
 42
6.283185307179606
  0
ELLIPSE
  5
D297
330
1F
100
AcDbEntity
  8
AM_0
100
AcDbEllipse
 10
26.10651936689328
 20
-72.08688593026146
 30
0.0
 11
-0.8346635049901345
 21
0.5507602322586372
 31
0.0
210
0.0
220
0.0
230
1.0
 40
0.5410771866298554
 41
4.069690421526424
 42
4.737975318898432
  0
ELLIPSE
  5
D298
330
1F
100
AcDbEntity
  8
AM_0
100
AcDbEllipse
 10
25.4184140873748
 20
-71.66507133455961
 30
0.0
 11
-0.1575844636443564
 21
0.9875055122974851
 31
0.0
210
0.0
220
0.0
230
1.0
 40
0.3810249342306725
 41
5.141610027276061
 42
6.188807578472681
  0
ELLIPSE
  5
D299
330
1F
100
AcDbEntity
  8
AM_0
100
AcDbEllipse
 10
18.46505357208241
 20
-72.77467687466324
 30
0.0
 11
-0.1575844636443587
 21
0.9875055122974864
 31
0.0
210
0.0
220
0.0
230
1.0
 40
0.381024934230673
 41
5.141610027276061
 42
6.18880757847268
  0
ELLIPSE
  5
D29A
330
1F
100
AcDbEntity
  8
AM_0
100
AcDbEllipse
 10
13.883833249379
 20
-75.74450381212611
 30
0.0
 11
-0.8856124374376675
 21
0.464425032331078
 31
0.0
210
0.0
220
0.0
230
1.0
 40
0.5409664954981998
 41
4.683684313258897
 42
5.587926586366492
  0
ELLIPSE
  5
D29B
330
1F
100
AcDbEntity
  8
AM_0
100
AcDbEllipse
 10
21.83765935493068
 20
-70.7816111286093
 30
0.0
 11
4.466447132330857
 21
0.548497961795171
 31
0.0
210
0.0
220
0.0
230
1.0
 40
0.0871288427332452
 41
5.54119963320011
 42
6.808261114433642
  0
ELLIPSE
  5
D29C
330
1F
100
AcDbEntity
  8
AM_0
100
AcDbEllipse
 10
21.17477326014989
 20
-70.92772384847886
 30
0.0
 11
4.466447132330857
 21
0.548497961795171
 31
0.0
210
0.0
220
0.0
230
1.0
 40
0.0871288427332452
 41
5.43392682417793
 42
5.54119963320011
  0
ELLIPSE
  5
D29D
330
1F
100
AcDbEntity
  8
AM_0
100
AcDbEllipse
 10
21.17477326014989
 20
-70.92772384847886
 30
0.0
 11
4.466447132330857
 21
0.548497961795171
 31
0.0
210
0.0
220
0.0
230
1.0
 40
0.0871288427332452
 41
3.164998796585162
 42
4.775807816225136
  0
ELLIPSE
  5
D29E
330
1F
100
AcDbEntity
  8
AM_0
100
AcDbEllipse
 10
13.25567255236263
 20
-75.77120869438292
 30
0.0
 11
-0.8479206861934489
 21
0.5301231082731882
 31
0.0
210
0.0
220
0.0
230
1.0
 40
0.4706930241222422
 41
5.626325864122224
 42
6.283185307179585
  0
ELLIPSE
  5
D29F
330
1F
100
AcDbEntity
  8
AM_0
100
AcDbEllipse
 10
15.83281711635823
 20
-72.88658066768326
 30
0.0
 11
-0.3816714280340705
 21
0.9242980693598978
 31
0.0
210
0.0
220
0.0
230
1.0
 40
0.9500238649106847
 41
6.000328026180784
 42
6.283185307179599
  0
ARC
  5
D2A0
330
1F
100
AcDbEntity
  8
AM_0
100
AcDbCircle
 10
29.35971279196656
 20
-71.30410082577464
 30
0.0
 40
1.5
100
AcDbArc
 50
7.001102138964868
 51
92.43433927267031
  0
LINE
  5
D2A1
330
1F
100
AcDbEntity
  8
AM_0
100
AcDbLine
 10
23.54284593328384
 20
-68.94222572290998
 30
0.0
 11
22.01197607222889
 21
-69.27965859550487
 31
0.0
  0
LINE
  5
D2A2
330
1F
100
AcDbEntity
  8
AM_0
100
AcDbLine
 10
22.01197607222878
 20
-69.27965859550481
 30
0.0
 11
19.76892411568656
 21
-69.51119269754899
 31
0.0
  0
LINE
  5
D2A3
330
1F
100
AcDbEntity
  8
AM_0
100
AcDbLine
 10
19.76892411568656
 20
-69.51119269754899
 30
0.0
 11
19.0567420201993
 21
-69.40529392699828
 31
0.0
  0
LINE
  5
D2A4
330
1F
100
AcDbEntity
  8
AM_0
100
AcDbLine
 10
19.0567420201993
 20
-69.40529392699828
 30
0.0
 11
20.58761188125425
 21
-69.06786105440339
 31
0.0
  0
LINE
  5
D2A5
330
1F
100
AcDbEntity
  8
AM_0
100
AcDbLine
 10
20.58761188125425
 20
-69.06786105440345
 30
0.0
 11
20.63112539882695
 21
-69.42219386749922
 31
0.0
  0
LINE
  5
D2A6
330
1F
100
AcDbEntity
  8
AM_0
100
AcDbLine
 10
20.58761188125425
 20
-69.06786105440339
 30
0.0
 11
22.83066383779647
 21
-68.83632695235922
 31
0.0
  0
LINE
  5
D2A7
330
1F
100
AcDbEntity
  8
AM_0
100
AcDbLine
 10
22.83066383779647
 20
-68.83632695235927
 30
0.0
 11
22.86209543876225
 21
-69.09227609670755
 31
0.0
  0
LINE
  5
D2A8
330
1F
100
AcDbEntity
  8
AM_0
100
AcDbLine
 10
22.83066383779647
 20
-68.83632695235927
 30
0.0
 11
23.54284593328384
 21
-68.94222572290998
 31
0.0
  0
LINE
  5
D2A9
330
1F
100
AcDbEntity
  8
AM_0
100
AcDbLine
 10
24.84976535849557
 20
-77.57080013995788
 30
0.0
 11
24.82574400277645
 21
-77.3751930040351
 31
0.0
  0
ARC
  5
D2AA
330
1F
100
AcDbEntity
  8
AM_0
100
AcDbCircle
 10
22.6247772504355
 20
-79.96316681528691
 30
0.0
 40
11.09955875897603
100
AcDbArc
 50
79.81166239767239
 51
114.190541880256
  0
LINE
  5
D2AB
330
1F
100
AcDbEntity
  8
AM_0
100
AcDbLine
 10
17.28355976237856
 20
-71.33730881355089
 30
0.0
 11
17.31543603671548
 21
-71.5968789560458
 31
0.0
  0
LINE
  5
D2AC
330
1F
100
AcDbEntity
  8
AM_0
100
AcDbLine
 10
25.72018212344801
 20
-70.3012571079377
 30
0.0
 11
25.74423009763405
 21
-70.49708099940669
 31
0.0
  0
LINE
  5
D2AD
330
1F
100
AcDbEntity
  8
AM_0
100
AcDbLine
 10
18.07648375588087
 20
-69.83828504158922
 30
0.0
 11
17.49978416645115
 21
-70.57066482645152
 31
0.0
  0
LINE
  5
D2AE
330
1F
100
AcDbEntity
  8
AM_0
100
AcDbLine
 10
24.58811611231693
 20
-69.03862997579624
 30
0.0
 11
25.32488593623509
 21
-69.60971034867474
 31
0.0
  0
ARC
  5
D2AF
330
1F
100
AcDbEntity
  8
AM_0
100
AcDbCircle
 10
24.69346977459281
 20
-70.42938651891956
 30
0.0
 40
1.034676467911637
100
AcDbArc
 50
7.113497469145234
 51
52.39207939812222
  0
ARC
  5
D2B0
330
1F
100
AcDbEntity
  8
AM_0
100
AcDbCircle
 10
18.31076690295959
 20
-71.21320851705636
 30
0.0
 40
1.034676467911901
100
AcDbArc
 50
141.6101248798182
 51
186.8887068087794
  0
ELLIPSE
  5
D2B1
330
1F
100
AcDbEntity
  8
AM_0
100
AcDbEllipse
 10
21.29979397674151
 20
-69.1737598249541
 30
0.0
 11
2.566506315368602
 21
0.3151774645946562
 31
0.0
210
0.0
220
0.0
230
1.0
 40
0.0871288427332452
 41
2.187866157154307
 42
8.471051464333891
  0
ELLIPSE
  5
D2B2
330
1F
100
AcDbEntity
  8
AM_0
100
AcDbEllipse
 10
21.33535850668432
 20
-69.46336362267003
 30
0.0
 11
3.268340772053568
 21
0.4013656042063225
 31
0.0
210
0.0
220
0.0
230
0.9999999999999998
 40
0.0871288427332452
 41
3.970403306405193
 42
6.370758653091994
  0
ELLIPSE
  5
D2B3
330
1F
100
AcDbEntity
  8
AM_0
100
AcDbEllipse
 10
21.33535850668432
 20
-69.46336362267003
 30
0.0
 11
3.268340772053568
 21
0.4013656042063225
 31
0.0
210
0.0
220
0.0
230
0.9999999999999998
 40
0.0871288427332452
 41
3.054019307677383
 42
3.970403306405192
  0
ELLIPSE
  5
D2B4
330
1F
100
AcDbEntity
  8
AM_0
100
AcDbEllipse
 10
21.41601057238609
 20
-70.12011754458375
 30
0.0
 11
3.927601830035032
 21
0.4823255564637046
 31
0.0
210
0.0
220
0.0
230
1.0
 40
0.0871288427332452
 41
3.054019307677429
 42
3.970403306405201
  0
ELLIPSE
  5
D2B5
330
1F
100
AcDbEntity
  8
AM_0
100
AcDbEllipse
 10
21.41601057238609
 20
-70.12011754458375
 30
0.0
 11
3.927601830035032
 21
0.4823255564637046
 31
0.0
210
0.0
220
0.0
230
1.0
 40
0.0871288427332452
 41
3.970403306405202
 42
6.370758653092036
  0
ELLIPSE
  5
D2B6
330
1F
100
AcDbEntity
  8
AM_0
100
AcDbEllipse
 10
21.50187094291323
 20
-70.8192829607443
 30
0.0
 11
4.218311180534695
 21
0.5180258528065885
 31
0.0
210
0.0
220
0.0
230
1.0
 40
0.0871288427332452
 41
3.970403306405165
 42
6.283185307179585
  0
ELLIPSE
  5
D2B7
330
1F
100
AcDbEntity
  8
AM_0
100
AcDbEllipse
 10
21.50187094291323
 20
-70.8192829607443
 30
0.0
 11
4.218311180534695
 21
0.5180258528065885
 31
0.0
210
0.0
220
0.0
230
1.0
 40
0.0871288427332452
 41
3.1415926535898
 42
3.970403306405165
  0
LINE
  5
D2B8
330
1F
100
AcDbEntity
  8
AM_0
100
AcDbLine
 10
37.414433532511
 20
-72.1033602735298
 30
0.0
 11
37.87213214601911
 21
-72.3410723727651
 31
0.0
  0
LINE
  5
D2B9
330
1F
100
AcDbEntity
  8
AM_0
100
AcDbLine
 10
37.09119976470447
 20
-68.70248249034664
 30
0.0
 11
37.49592146676378
 21
-68.38280232703914
 31
0.0
  0
LINE
  5
D2BA
330
1F
100
AcDbEntity
  8
AM_0
100
AcDbLine
 10
46.70489323471492
 20
-67.44531773713317
 30
0.0
 11
37.6838638872789
 21
-68.30271441274573
 31
0.0
  0
LINE
  5
D2BB
330
1F
100
AcDbEntity
  8
AM_0
100
AcDbLine
 10
47.34830754074307
 20
-71.50264177122318
 30
0.0
 11
38.07179694053923
 21
-72.38432046259777
 31
0.0
  0
ELLIPSE
  5
D2BC
330
1F
100
AcDbEntity
  8
AM_0
100
AcDbEllipse
 10
37.41932938662046
 20
-70.38709530904555
 30
0.0
 11
-0.1666527153219986
 21
1.753422982046947
 31
0.0
210
0.0
220
0.0
230
0.9999999999999999
 40
0.3892442785804277
 41
4.675410426714788
 42
10.95859573389437
  0
ELLIPSE
  5
D2BD
330
1F
100
AcDbEntity
  8
AM_0
100
AcDbEllipse
 10
37.87783041390912
 20
-70.34351743767172
 30
0.0
 11
-0.193966526630231
 21
2.040803024926012
 31
0.0
210
0.0
220
0.0
230
1.0
 40
0.3892442785804278
 41
4.849943351914224
 42
6.529643982659034
  0
ELLIPSE
  5
D2BE
330
1F
100
AcDbEntity
  8
AM_0
100
AcDbEllipse
 10
37.87783041390912
 20
-70.34351743767172
 30
0.0
 11
-0.193966526630231
 21
2.040803024926012
 31
0.0
210
0.0
220
0.0
230
1.0
 40
0.3892442785804278
 41
2.895133978110357
 42
4.849943351914224
  0
ELLIPSE
  5
D2BF
330
1F
100
AcDbEntity
  8
AM_0
100
AcDbEllipse
 10
37.41932938662046
 20
-70.38709530904555
 30
0.0
 11
-0.1466576176960256
 21
1.543046189578176
 31
0.0
210
0.0
220
0.0
230
1.0
 40
0.3892442785804277
 41
1.533817773124996
 42
7.817003080304582
  0
ENDSEC
  0
SECTION
  2
OBJECTS
  0
DICTIONARY
  5
C
330
0
100
AcDbDictionary
281
     1
  3
ACAD_COLOR
350
9CBF
  3
ACAD_GROUP
350
D
  3
ACAD_LAYOUT
350
1A
  3
ACAD_MATERIAL
350
9CBE
  3
ACAD_MLINESTYLE
350
17
  3
ACAD_PLOTSETTINGS
350
19
  3
ACAD_PLOTSTYLENAME
350
E
  3
ACAD_TABLESTYLE
350
9CC0
  3
AcAmCatalogState
350
9D1E
  3
ACDBHEADERROUNDTRIPXREC
350
D788
  3
AcDbVariableDictionary
350
30
  3
ACDMSYSVARMGR
350
9CE2
  3
ACGREF_MASTER
350
23CD
  3
ACGREFACAD_MASTER
350
23D1
  3
AcmDictionary
350
4D
  3
ACME_BOM_MANAGER_NAME
350
9CD5
  3
ACME_COMMAND_HISTORY
350
9CD2
  3
ACME_SCOPE_NAME
350
9CD1
  3
ACMESTATEMGR
350
9CDA
  3
AcmeSysVarManager
350
9CD3
  3
AcmSystemVariableManager
350
9D27
  3
AD_APPL
350
9D0A
  3
ADSYSVARMGR
350
9D09
  3
AmdtNamedDwgMgr
350
9CFD
  3
AMG
350
3F
  3
AMGSNAPSETTINGS
350
73
  3
AMI_MASTER
350
23D2
  3
AUTOCAD_ASSEMBLIES_PROJECT
350
9D12
  3
Designer_Assemblies_SysVars
350
9D0D
  3
DWGPROPS
350
D78B
  3
FILENAME
350
1C9F
  3
GREFAM_MODULE
350
9D03
  3
ZWKSIZE
350
1CA1
  0
DICTIONARY
  5
A0C0
330
2
100
AcDbDictionary
280
     1
281
     1
  3
ACAD_LAYERFILTERS
360
A0C3
  3
ACAD_LAYERSTATES
360
A13F
  3
ACLYDICTIONARY
360
A0C2
  3
AMLAYER_GROUPCOLORS
360
A0C1
  0
DICTIONARY
  5
165
330
1F
100
AcDbDictionary
280
     1
281
     1
  3
ACAD_LAYOUTSELFREF
360
9C24
  0
DICTIONARY
  5
264F
330
1B
100
AcDbDictionary
280
     1
281
     1
  3
ACAD_LAYOUTSELFREF
360
9C23
  0
DICTIONARY
  5
2651
330
23
100
AcDbDictionary
280
     1
281
     1
  3
ACAD_LAYOUTSELFREF
360
9C25
  0
DICTIONARY
  5
9CBF
102
{ACAD_REACTORS
330
C
102
}
330
C
100
AcDbDictionary
281
     1
  0
DICTIONARY
  5
D
102
{ACAD_REACTORS
330
C
102
}
330
C
100
AcDbDictionary
281
     1
  0
DICTIONARY
  5
1A
102
{ACAD_REACTORS
330
C
102
}
330
C
100
AcDbDictionary
281
     1
  3
Model
350
22
  3
ﾚｲｱｳﾄ1
350
1E
  3
ﾚｲｱｳﾄ2
350
26
  0
DICTIONARY
  5
9CBE
102
{ACAD_REACTORS
330
C
102
}
330
C
100
AcDbDictionary
281
     1
  0
DICTIONARY
  5
17
102
{ACAD_REACTORS
330
C
102
}
330
C
100
AcDbDictionary
281
     1
  3
Standard
350
18
  0
DICTIONARY
  5
19
102
{ACAD_REACTORS
330
C
102
}
330
C
100
AcDbDictionary
281
     1
  0
ACDBDICTIONARYWDFLT
  5
E
102
{ACAD_REACTORS
330
C
102
}
330
C
100
AcDbDictionary
281
     1
  3
Normal
350
F
100
AcDbDictionaryWithDefault
340
F
  0
DICTIONARY
  5
9CC0
102
{ACAD_REACTORS
330
C
102
}
330
C
100
AcDbDictionary
281
     1
  3
Standard
350
9CC1
  0
ACAD_PROXY_OBJECT
  5
9D1E
102
{ACAD_REACTORS
330
C
102
}
330
C
100
AcDbProxyObject
 90
      499
 91
      584
 95
       25
 70
     0
 93
      424
310
3FFFFFFFE00A0281402902C1D2E482B415AC15141BA41A441C5C1AFAE20A1A0A226991818182E24A1AA26C00800051000800051000
  0
DICTIONARY
  5
D788
102
{ACAD_REACTORS
330
C
102
}
330
C
100
AcDbDictionary
281
     1
  3
COLORDICT
350
D789
  3
MATERIALDICT
350
D78A
  0
DICTIONARY
  5
30
102
{ACAD_REACTORS
330
C
102
}
330
C
100
AcDbDictionary
281
     1
  3
CTABLESTYLE
350
9D4F
  3
HIDETEXT
350
D787
  3
INDEXCTL
350
D786
  0
ACAD_PROXY_OBJECT
  5
9CE2
102
{ACAD_REACTORS
330
C
102
}
330
C
100
AcDbProxyObject
 90
      499
 91
      507
 95
       25
 70
     0
 93
      240
310
4C51A47A0000000000000000000000000000000000000000000000000000
330
9CE3
330
9CE4
330
9CE5
330
9CE6
330
9CE7
330
9CE8
330
9CE9
330
9CEA
330
9CEB
330
9CEC
330
9CED
330
9CEE
330
9CEF
330
9CF0
330
9CF1
330
9CF2
330
9CF3
330
9CF4
330
9CF5
330
9CF6
330
9CF7
330
9CF8
330
9CF9
330
9CFA
330
9CFB
330
9CFC
 94
        0
  0
ACAD_PROXY_OBJECT
  5
23CD
102
{ACAD_REACTORS
330
C
102
}
330
C
100
AcDbProxyObject
 90
      499
 91
      534
 95
       25
 70
     0
 93
       34
310
0400004280
  0
ACAD_PROXY_OBJECT
  5
23D1
102
{ACAD_REACTORS
330
C
102
}
330
C
100
AcDbProxyObject
 90
      499
 91
      535
 95
       25
 70
     0
 93
      114
310
04000041C080000000000000000000
  0
DICTIONARY
  5
4D
102
{ACAD_REACTORS
330
C
102
}
330
C
100
AcDbDictionary
281
     1
  3
AcmBOMDATA
350
9D1D
  3
AcmStdDictionary
350
17E
  3
AMDTSECTSYM_ARROWCOLOR
350
9D3C
  0
ACAD_PROXY_OBJECT
  5
9CD5
102
{ACAD_REACTORS
330
C
102
}
330
C
100
AcDbProxyObject
 90
      499
 91
      510
 95
       25
 70
     0
 93
       50
310
00010040400000
330
0
330
0
330
9CD6
 94
        0
  0
ACAD_PROXY_OBJECT
  5
9CD2
102
{ACAD_REACTORS
330
C
102
}
330
C
100
AcDbProxyObject
 90
      499
 91
      505
 95
       25
 70
     0
 93
     5566
310
47805055153415645408052D4D5347202D205050413A2020206465736B746F702E6172782046696C6556657273696F6E3A20392E322E302E34014B5354D1C80B481414104E88080819195CDADD1BDC0B985C9E08119A5B1955995C9CDA5BDB8E880E4B8C8B8C0B8D0050E414D4454524553455444424D4F4440805084E202D
310
20554E444F014213880B4815539113C0504554E444F80504554E444F805054552415345404052D4D5347202D205050413A2020206465736B746F702E6172782046696C6556657273696F6E3A20392E322E302E34014151549054D16014194D1531150D52014151549054D16014151549054D16014151549054D1501014B535
310
4D1C80B481414104E88080819195CDADD1BDC0B985C9E08119A5B1955995C9CDA5BDB8E880E4B8C8B8C0B8D005054552415345805054552415345805054552415345805054552415345805054552415345805054552415345805045A4F4F4D805055153415645404052D4D5347202D205050413A2020206465736B746F702E
310
6172782046696C6556657273696F6E3A20392E322E302E34014390535115149154D15511109353D1102014213880B4815539113C05084E202D20554E444F014115539113E014115539113E014151549054D16014151549054D16014151549054D16014151549054D16014151549054D1502014B5354D1C80B481414104E880
310
80819195CDADD1BDC0B985C9E08119A5B1955995C9CDA5BDB8E880E4B8C8B8C0B8D0052D4D5347202D205050413A2020206465736B746F702E6172782046696C6556657273696F6E3A20392E322E302E34014390535115149154D15511109353D1102014213880B4815539113C05084E202D20554E444F014115539113E014
310
115539113E014154155491D1501014B5354D1C80B481414104E88080819195CDADD1BDC0B985C9E08119A5B1955995C9CDA5BDB8E880E4B8C8B8C0B8D0
  0
ACAD_PROXY_OBJECT
  5
9CD1
102
{ACAD_REACTORS
330
C
102
}
330
C
100
AcDbProxyObject
 90
      499
 91
      504
 95
       25
 70
     0
 93
      562
310
09000046408000000000000000001314D600000000000000000000000000000000000000000000000000000000000000000000000000000000000000000000000000AAA406AA80
360
9CD4
360
9CD6
360
9CDB
360
9CDC
360
9CDD
360
9CDE
360
9CDF
360
9CE0
360
9CE3
360
9CE4
360
9CE5
360
9CE6
360
9CE7
360
9CE8
360
9CE9
360
9CEA
360
9CEB
360
9CEC
360
9CED
360
9CEE
360
9CEF
360
9CF0
360
9CF1
360
9CF2
360
9CF3
360
9CF4
360
9CF5
360
9CF6
360
9CF7
360
9CF8
360
9CF9
360
9CFA
360
9CFB
360
9CFC
360
9D05
360
9D06
360
9D07
360
9D08
360
9D0E
360
9D0F
360
9D10
360
9D11
360
9D16
360
9D17
360
9D18
360
9D19
360
9D1A
360
9D1B
360
9D28
 94
        0
  0
ACAD_PROXY_OBJECT
  5
9CDA
102
{ACAD_REACTORS
330
C
102
}
330
C
100
AcDbProxyObject
 90
      499
 91
      515
 95
       25
 70
     0
 93
       50
310
09000042641280
  0
ACAD_PROXY_OBJECT
  5
9CD3
102
{ACAD_REACTORS
330
C
102
}
330
C
100
AcDbProxyObject
 90
      499
 91
      507
 95
       25
 70
     0
 93
       32
310
90140A00
330
9CD4
 94
        0
  0
ACAD_PROXY_OBJECT
  5
9D27
102
{ACAD_REACTORS
330
C
102
}
330
C
100
AcDbProxyObject
 90
      499
 91
      507
 95
       25
 70
     0
 93
       32
310
90140A00
330
9D28
 94
        0
  0
ACAD_PROXY_OBJECT
  5
9D0A
102
{ACAD_REACTORS
330
C
102
}
330
C
100
AcDbProxyObject
 90
      499
 91
      574
 95
       25
 70
     0
 93
       42
310
000900004040
330
9D05
 94
        0
  0
ACAD_PROXY_OBJECT
  5
9D09
102
{ACAD_REACTORS
330
C
102
}
330
C
100
AcDbProxyObject
 90
      499
 91
      507
 95
       25
 70
     0
 93
        8
310
AA
  0
ACAD_PROXY_OBJECT
  5
9CFD
102
{ACAD_REACTORS
330
C
102
}
330
C
100
AcDbProxyObject
 90
      499
 91
      565
 95
       25
 70
     0
 93
       42
310
000100005E80
330
9CDB
 94
        0
  0
DICTIONARY
  5
3F
102
{ACAD_REACTORS
330
C
102
}
330
C
100
AcDbDictionary
281
     1
  3
AcMgSettings
350
40
  3
AMGLAYCFG
350
9D2A
  0
DICTIONARY
  5
73
102
{ACAD_REACTORS
330
C
102
}
330
C
100
AcDbDictionary
281
     1
  0
ACAD_PROXY_OBJECT
  5
23D2
102
{ACAD_REACTORS
330
C
102
}
330
C
100
AcDbProxyObject
 90
      499
 91
      536
 95
       25
 70
     0
 93
       34
310
0500004280
  0
ACAD_PROXY_OBJECT
  5
9D12
102
{ACAD_REACTORS
330
C
102
}
330
C
100
AcDbProxyObject
 90
      499
 91
      577
 95
       25
 70
     0
 93
       98
310
0900004E400000000000000000
330
9D19
330
0
330
9D1A
330
0
330
0
330
0
330
0
330
0
 94
        0
  0
ACAD_PROXY_OBJECT
  5
9D0D
102
{ACAD_REACTORS
330
C
102
}
330
C
100
AcDbProxyObject
 90
      499
 91
      507
 95
       25
 70
     0
 93
       56
310
90441600000000
330
9D0E
330
9D0F
330
9D10
330
9D11
 94
        0
  0
XRECORD
  5
D78B
102
{ACAD_REACTORS
330
C
102
}
330
C
100
AcDbXrecord
280
     1
  1
DWGPROPS COOKIE
  2

  3

  4

  6

  7

  8

  9

300
AmdtFileType=84
301
=
302
=
303
=
304
=
305
=
306
=
307
=
308
=
309
=
 40
0.0
 41
2451943.235431667
 42
2455478.188343634
  1

 90
        1
  0
DICTIONARY
  5
1C9F
102
{ACAD_REACTORS
330
C
102
}
330
C
100
AcDbDictionary
281
     1
  3
FILENAME
350
1CA0
  0
ACAD_PROXY_OBJECT
  5
9D03
102
{ACAD_REACTORS
330
C
102
}
330
C
100
AcDbProxyObject
 90
      499
 91
      568
 95
       25
 70
     0
 93
        8
310
05
  0
DICTIONARY
  5
1CA1
102
{ACAD_REACTORS
330
C
102
}
330
C
100
AcDbDictionary
281
     1
  3
ZWKSIZE
350
1CA2
  0
DICTIONARY
  5
A0C3
102
{ACAD_REACTORS
330
A0C0
102
}
330
A0C0
100
AcDbDictionary
281
     1
  0
DICTIONARY
  5
A13F
102
{ACAD_REACTORS
330
A0C0
102
}
330
A0C0
100
AcDbDictionary
281
     1
  0
DICTIONARY
  5
A0C2
102
{ACAD_REACTORS
330
A0C0
102
}
330
A0C0
100
AcDbDictionary
281
     1
1001
ACAD
1000
<All
  0
DICTIONARY
  5
A0C1
102
{ACAD_REACTORS
330
A0C0
102
}
330
A0C0
100
AcDbDictionary
280
     1
281
     1
  0
XRECORD
  5
9C24
102
{ACAD_REACTORS
330
165
102
}
330
165
100
AcDbXrecord
280
     1
340
1F
  0
XRECORD
  5
9C23
102
{ACAD_REACTORS
330
264F
102
}
330
264F
100
AcDbXrecord
280
     1
340
1B
  0
XRECORD
  5
9C25
102
{ACAD_REACTORS
330
2651
102
}
330
2651
100
AcDbXrecord
280
     1
340
23
  0
LAYOUT
  5
22
102
{ACAD_REACTORS
330
1A
102
}
330
1A
100
AcDbPlotSettings
  1

  2
SII LP-2150 (D-SCAN C2)
  4
User120
  6
AM_VIEW1
 40
3.174999952316284
 41
3.174999952316284
 42
3.17498779296875
 43
3.17498779296875
 44
296.9259948730469
 45
419.9889831542969
 46
0.0
 47
0.0
 48
0.0
 49
0.0
140
420.0
141
297.0
142
1.0
143
1.022107788374329
 70
 11952
 72
     1
 73
     1
 74
     4
  7
sei_cad.ctb
 75
     0
147
0.9783703943695685
148
0.0
149
0.0
100
AcDbLayout
  1
Model
 70
     1
 71
     0
 10
0.0
 20
0.0
 11
12.0
 21
9.0
 12
0.0
 22
0.0
 32
0.0
 14
0.0
 24
0.0
 34
0.0
 15
0.0
 25
0.0
 35
0.0
146
0.0
 13
0.0
 23
0.0
 33
0.0
 16
1.0
 26
0.0
 36
0.0
 17
0.0
 27
1.0
 37
0.0
 76
     0
330
1F
1001
ACAD_PSEXT
1000
SII LP-2150 (D-SCAN C2)
1000
SII LP-2150 (D-SCAN C2)
1000
133.153.16.130#3000
1000

1070
     0
  0
LAYOUT
  5
1E
102
{ACAD_REACTORS
330
1A
102
}
330
1A
100
AcDbPlotSettings
  1

  2
Canon LASER SHOT LBP-2030
  4

  6

 40
0.0
 41
0.0
 42
0.0
 43
0.0
 44
0.0
 45
0.0
 46
0.0
 47
0.0
 48
0.0
 49
0.0
140
0.0
141
0.0
142
1.0
143
1.0
 70
   688
 72
     0
 73
     0
 74
     5
  7
sei_cad.ctb
 75
    16
147
1.0
148
0.0
149
0.0
100
AcDbLayout
  1
ﾚｲｱｳﾄ1
 70
     1
 71
     1
 10
0.0
 20
0.0
 11
420.0
 21
297.0
 12
0.0
 22
0.0
 32
0.0
 14
1.000000000000000E+20
 24
1.000000000000000E+20
 34
1.000000000000000E+20
 15
-1.000000000000000E+20
 25
-1.000000000000000E+20
 35
-1.000000000000000E+20
146
0.0
 13
0.0
 23
0.0
 33
0.0
 16
1.0
 26
0.0
 36
0.0
 17
0.0
 27
1.0
 37
0.0
 76
     0
330
1B
  0
LAYOUT
  5
26
102
{ACAD_REACTORS
330
1A
102
}
330
1A
100
AcDbPlotSettings
  1

  2
Canon LASER SHOT LBP-2030
  4

  6

 40
0.0
 41
0.0
 42
0.0
 43
0.0
 44
0.0
 45
0.0
 46
0.0
 47
0.0
 48
0.0
 49
0.0
140
0.0
141
0.0
142
1.0
143
1.0
 70
   688
 72
     0
 73
     0
 74
     5
  7
sei_cad.ctb
 75
    16
147
1.0
148
0.0
149
0.0
100
AcDbLayout
  1
ﾚｲｱｳﾄ2
 70
     1
 71
     2
 10
0.0
 20
0.0
 11
12.0
 21
9.0
 12
0.0
 22
0.0
 32
0.0
 14
0.0
 24
0.0
 34
0.0
 15
0.0
 25
0.0
 35
0.0
146
0.0
 13
0.0
 23
0.0
 33
0.0
 16
1.0
 26
0.0
 36
0.0
 17
0.0
 27
1.0
 37
0.0
 76
     0
330
23
  0
MLINESTYLE
  5
18
102
{ACAD_REACTORS
330
17
102
}
330
17
100
AcDbMlineStyle
  2
STANDARD
 70
     0
  3

 62
   256
 51
90.0
 52
90.0
 71
     2
 49
0.5
 62
   256
  6
BYLAYER
 49
-0.5
 62
   256
  6
BYLAYER
  0
ACDBPLACEHOLDER
  5
F
102
{ACAD_REACTORS
330
E
102
}
330
E
  0
TABLESTYLE
  5
9CC1
102
{ACAD_REACTORS
330
9CC0
102
}
330
9CC0
100
AcDbTableStyle
  3
Standard
 70
     0
 71
     8
 40
1.5
 41
1.5
280
     0
281
     0
  7
STANDARD
140
4.5
170
     2
 62
     0
 63
     7
283
     0
274
    -2
284
     1
 64
     0
275
    -2
285
     1
 65
     0
276
    -2
286
     1
 66
     0
277
    -2
287
     1
 67
     0
278
    -2
288
     1
 68
     0
279
    -2
289
     1
 69
     0
  7
STANDARD
140
6.0
170
     5
 62
     0
 63
     7
283
     0
274
    -2
284
     1
 64
     0
275
    -2
285
     1
 65
     0
276
    -2
286
     1
 66
     0
277
    -2
287
     1
 67
     0
278
    -2
288
     1
 68
     0
279
    -2
289
     1
 69
     0
  7
STANDARD
140
4.5
170
     5
 62
     0
 63
     7
283
     0
274
    -2
284
     1
 64
     0
275
    -2
285
     1
 65
     0
276
    -2
286
     1
 66
     0
277
    -2
287
     1
 67
     0
278
    -2
288
     1
 68
     0
279
    -2
289
     1
 69
     0
  0
XRECORD
  5
D789
102
{ACAD_REACTORS
330
D788
102
}
330
D788
100
AcDbXrecord
280
     1
340
9CBF
  0
XRECORD
  5
D78A
102
{ACAD_REACTORS
330
D788
102
}
330
D788
100
AcDbXrecord
280
     1
340
9CBE
  0
DICTIONARYVAR
  5
9D4F
102
{ACAD_REACTORS
330
30
102
}
330
30
100
DictionaryVariables
280
     0
  1
STANDARD
  0
DICTIONARYVAR
  5
D787
102
{ACAD_REACTORS
330
30
102
}
330
30
100
DictionaryVariables
280
     0
  1
0
  0
DICTIONARYVAR
  5
D786
102
{ACAD_REACTORS
330
30
102
}
330
30
100
DictionaryVariables
280
     0
  1
1
  0
ACAD_PROXY_OBJECT
  5
9D1D
102
{ACAD_REACTORS
330
4D
102
}
330
4D
100
AcDbProxyObject
 90
      499
 91
      520
 95
       25
 70
     0
 93
       76
310
90100057356C1D774560
  0
DICTIONARY
  5
17E
102
{ACAD_REACTORS
330
4D
102
}
330
4D
100
AcDbDictionary
281
     1
  3
ISO
350
9D29
  3
JIS
350
A0AB
  0
XRECORD
  5
9D3C
102
{ACAD_REACTORS
330
4D
102
}
330
4D
100
AcDbXrecord
280
     1
 90
-1023410169
  0
ACAD_PROXY_OBJECT
  5
9CD4
330
9CD1
100
AcDbProxyObject
 90
      499
 91
      509
 95
       25
 70
     0
 93
      156
310
000101439050D35154D6535093D314D256915080
330
9CD1
 94
        0
  0
ACAD_PROXY_OBJECT
  5
9CD6
330
9CD1
100
AcDbProxyObject
 90
      499
 91
      511
 95
       25
 70
     0
 93
      120
310
000101422565255A6557080C402B00
330
9CD1
330
0
330
0
 94
        0
  0
ACAD_PROXY_OBJECT
  5
9CDB
330
9CD1
100
AcDbProxyObject
 90
      499
 91
      561
 95
       25
 70
     0
 93
      358
310
0001014124FEA55D00507392E322E302E32014124FEA55D00507392E322E302E3240501000041505391D311658
330
9CD1
330
9CDC
330
9CE2
 94
        0
  0
ACAD_PROXY_OBJECT
  5
9CDC
330
9CD1
100
AcDbProxyObject
 90
      499
 91
      562
 95
       25
 70
     0
 93
       56
310
000190240E0000
330
9CD1
330
9CDD
330
9CDF
 94
        0
  0
ACAD_PROXY_OBJECT
  5
9CDD
330
9CD1
100
AcDbProxyObject
 90
      499
 91
      563
 95
       25
 70
     0
 93
       48
310
0001AA000000
330
9CD1
330
1E
330
9CDE
330
0
 94
        0
  0
ACAD_PROXY_OBJECT
  5
9CDE
330
9CD1
100
AcDbProxyObject
 90
      499
 91
      564
 95
       25
 70
     0
 93
       28
310
0001AAA0
330
9CD1
 94
        0
  0
ACAD_PROXY_OBJECT
  5
9CDF
330
9CD1
100
AcDbProxyObject
 90
      499
 91
      563
 95
       25
 70
     0
 93
       48
310
0001AA000000
330
9CD1
330
26
330
9CE0
330
0
 94
        0
  0
ACAD_PROXY_OBJECT
  5
9CE0
330
9CD1
100
AcDbProxyObject
 90
      499
 91
      564
 95
       25
 70
     0
 93
       28
310
0001AAA0
330
9CD1
 94
        0
  0
ACAD_PROXY_OBJECT
  5
9CE3
330
9CD1
100
AcDbProxyObject
 90
      499
 91
      509
 95
       25
 70
     0
 93
      108
310
000101421053521310D05310D010
330
9CD1
 94
        0
  0
ACAD_PROXY_OBJECT
  5
9CE4
330
9CD1
100
AcDbProxyObject
 90
      499
 91
      509
 95
       25
 70
     0
 93
      124
310
00010142905354915554D15112535010
330
9CD1
 94
        0
  0
ACAD_PROXY_OBJECT
  5
9CE5
330
9CD1
100
AcDbProxyObject
 90
      499
 91
      509
 95
       25
 70
     0
 93
      132
310
00010143105354D150D51253D391125360
330
9CD1
 94
        0
  0
ACAD_PROXY_OBJECT
  5
9CE6
330
9CD1
100
AcDbProxyObject
 90
      499
 91
      509
 95
       25
 70
     0
 93
      124
310
00010142905355941093D49111549010
330
9CD1
 94
        0
  0
ACAD_PROXY_OBJECT
  5
9CE7
330
9CD1
100
AcDbProxyObject
 90
      499
 91
      509
 95
       25
 70
     0
 93
      116
310
0001014290535115D1D0D3D313D4A0
330
9CD1
 94
        0
  0
ACAD_PROXY_OBJECT
  5
9CE8
330
9CD1
100
AcDbProxyObject
 90
      499
 91
      509
 95
       25
 70
     0
 93
      148
310
00010143505355925155D49151949154D21010
330
9CD1
 94
        0
  0
ACAD_PROXY_OBJECT
  5
9CE9
330
9CD1
100
AcDbProxyObject
 90
      499
 91
      509
 95
       25
 70
     0
 93
      172
310
00010144105350539393D51154149154D15495915010
330
9CD1
 94
        0
  0
ACAD_PROXY_OBJECT
  5
9CEA
330
9CD1
100
AcDbProxyObject
 90
      499
 91
      509
 95
       25
 70
     0
 93
      172
310
00010144105350555513D11253505494905391D15010
330
9CD1
 94
        0
  0
ACAD_PROXY_OBJECT
  5
9CEB
330
9CD1
100
AcDbProxyObject
 90
      499
 91
      509
 95
       25
 70
     0
 93
      124
310
00010142D05351561514915191125360
330
9CD1
 94
        0
  0
ACAD_PROXY_OBJECT
  5
9CEC
330
9CD1
100
AcDbProxyObject
 90
      499
 91
      509
 95
       25
 70
     0
 93
      132
310
00010142D05355105410539393D5115010
330
9CD1
 94
        0
  0
ACAD_PROXY_OBJECT
  5
9CED
330
9CD1
100
AcDbProxyObject
 90
      499
 91
      509
 95
       25
 70
     0
 93
      108
310
00010142105350555513D0D31010
330
9CD1
 94
        0
  0
ACAD_PROXY_OBJECT
  5
9CEE
330
9CD1
100
AcDbProxyObject
 90
      499
 91
      509
 95
       25
 70
     0
 93
      108
310
00010142105350D3119150551050
330
9CD1
 94
        0
  0
ACAD_PROXY_OBJECT
  5
9CEF
330
9CD1
100
AcDbProxyObject
 90
      499
 91
      509
 95
       25
 70
     0
 93
      108
310
00010142105350D315925155D3F0
330
9CD1
 94
        0
  0
ACAD_PROXY_OBJECT
  5
9CF0
330
9CD1
100
AcDbProxyObject
 90
      499
 91
      509
 95
       25
 70
     0
 93
      148
310
0001014350535212511156915493D112535010
330
9CD1
 94
        0
  0
ACAD_PROXY_OBJECT
  5
9CF1
330
9CD1
100
AcDbProxyObject
 90
      499
 91
      509
 95
       25
 70
     0
 93
      124
310
00010142905352105510D21254D3D010
330
9CD1
 94
        0
  0
ACAD_PROXY_OBJECT
  5
9CF2
330
9CD1
100
AcDbProxyObject
 90
      499
 91
      509
 95
       25
 70
     0
 93
      148
310
00010143905354D25391D31152105513105660
330
9CD1
 94
        0
  0
ACAD_PROXY_OBJECT
  5
9CF3
330
9CD1
100
AcDbProxyObject
 90
      499
 91
      509
 95
       25
 70
     0
 93
      124
310
00010142D0535115D1D193111254D420
330
9CD1
 94
        0
  0
ACAD_PROXY_OBJECT
  5
9CF4
330
9CD1
100
AcDbProxyObject
 90
      499
 91
      509
 95
       25
 70
     0
 93
      100
310
00010142105350555513D213A0
330
9CD1
 94
        0
  0
ACAD_PROXY_OBJECT
  5
9CF5
330
9CD1
100
AcDbProxyObject
 90
      499
 91
      509
 95
       25
 70
     0
 93
      116
310
000101425053521390D3D553951010
330
9CD1
 94
        0
  0
ACAD_PROXY_OBJECT
  5
9CF6
330
9CD1
100
AcDbProxyObject
 90
      499
 91
      509
 95
       25
 70
     0
 93
      108
310
0001014210535213941493D29010
330
9CD1
 94
        0
  0
ACAD_PROXY_OBJECT
  5
9CF7
330
9CD1
100
AcDbProxyObject
 90
      499
 91
      509
 95
       25
 70
     0
 93
      108
310
0001014210535213951654115070
330
9CD1
 94
        0
  0
ACAD_PROXY_OBJECT
  5
9CF8
330
9CD1
100
AcDbProxyObject
 90
      499
 91
      509
 95
       25
 70
     0
 93
      108
310
000101421053521395925155D0F0
330
9CD1
 94
        0
  0
ACAD_PROXY_OBJECT
  5
9CF9
330
9CD1
100
AcDbProxyObject
 90
      499
 91
      509
 95
       25
 70
     0
 93
      140
310
00010143505354D150D51253D390D3D41660
330
9CD1
 94
        0
  0
ACAD_PROXY_OBJECT
  5
9CFA
330
9CD1
100
AcDbProxyObject
 90
      499
 91
      509
 95
       25
 70
     0
 93
      108
310
00010142105350D3141493D29030
330
9CD1
 94
        0
  0
ACAD_PROXY_OBJECT
  5
9CFB
330
9CD1
100
AcDbProxyObject
 90
      499
 91
      508
 95
       25
 70
     0
 93
      212
310
00010143905350555513D2105510D21493D500000000000002E400
330
9CD1
 94
        0
  0
ACAD_PROXY_OBJECT
  5
9CFC
330
9CD1
100
AcDbProxyObject
 90
      499
 91
      509
 95
       25
 70
     0
 93
      156
310
00010143905350555513D2105510D21111551010
330
9CD1
 94
        0
  0
ACAD_PROXY_OBJECT
  5
9D05
330
9CD1
100
AcDbProxyObject
 90
      499
 91
      570
 95
       25
 70
     0
 93
      698
310
0001000000009AA6A9AA4051E467269204A756E2032332030373A34343A323720323030362028555443290141CE4B8C8B8C0B8C80518467269204F63742030382031333A33313A313220323031300141CE4B8C8B8C0B8C80
330
9CD1
330
9D06
330
9D07
330
9D09
330
0
 94
        0
  0
ACAD_PROXY_OBJECT
  5
9D06
330
9CD1
100
AcDbProxyObject
 90
      499
 91
      571
 95
       25
 70
     0
 93
       70
310
0001AAA80820000000
330
9CD1
330
9D06
330
9D06
 94
        0
  0
ACAD_PROXY_OBJECT
  5
9D07
330
9CD1
100
AcDbProxyObject
 90
      499
 91
      572
 95
       25
 70
     0
 93
       48
310
000100000000
330
9CD1
330
0
330
9D08
330
0
330
0
 94
        0
  0
ACAD_PROXY_OBJECT
  5
9D08
330
9CD1
100
AcDbProxyObject
 90
      499
 91
      573
 95
       25
 70
     0
 93
       40
310
000100AAAA
330
9CD1
330
0
 94
        0
  0
ACAD_PROXY_OBJECT
  5
9D0E
330
9CD1
100
AcDbProxyObject
 90
      499
 91
      522
 95
       25
 70
     0
 93
      180
310
00010143105050D3D35411119390535140504434F4D500
330
9CD1
 94
        0
  0
ACAD_PROXY_OBJECT
  5
9D0F
330
9CD1
100
AcDbProxyObject
 90
      499
 91
      522
 95
       25
 70
     0
 93
      212
310
0001014390505193D311115491119390535140506466F6C6465720
330
9CD1
 94
        0
  0
ACAD_PROXY_OBJECT
  5
9D10
330
9CD1
100
AcDbProxyObject
 90
      499
 91
      522
 95
       25
 70
     0
 93
      180
310
00010143105050539393D1119390535140504284156290
330
9CD1
 94
        0
  0
ACAD_PROXY_OBJECT
  5
9D11
330
9CD1
100
AcDbProxyObject
 90
      499
 91
      522
 95
       25
 70
     0
 93
      436
310
00010143905050D3D35415925155D31254D50052295BD96CA0A90B396CA0A894591A496CA0A8DB691A496CA0A89BA96CA0A95E28F95310
330
9CD1
 94
        0
  0
ACAD_PROXY_OBJECT
  5
9D16
330
9CD1
100
AcDbProxyObject
 90
      499
 91
      578
 95
       25
 70
     0
 93
       32
310
00010000
330
9CD1
340
9D13
330
9D18
330
9D13
 94
        0
  0
ACAD_PROXY_OBJECT
  5
9D17
330
9CD1
100
AcDbProxyObject
 90
      499
 91
      579
 95
       25
 70
     0
 93
       18
310
000180
330
9CD1
 94
        0
  0
ACAD_PROXY_OBJECT
  5
9D18
330
9CD1
100
AcDbProxyObject
 90
      499
 91
      580
 95
       25
 70
     0
 93
      194
310
0001014350CD8B51111293948B51160C4D5050055401550000
330
9CD1
330
9D16
330
9D17
 94
        0
  0
ACAD_PROXY_OBJECT
  5
9D19
330
9CD1
100
AcDbProxyObject
 90
      499
 91
      581
 95
       25
 70
     0
 93
      178
310
000100AAAAAAAD01FD729C46A010A091D9E47210706300
330
9CD1
330
9D18
 94
        0
  0
ACAD_PROXY_OBJECT
  5
9D1A
330
9CD1
100
AcDbProxyObject
 90
      499
 91
      582
 95
       25
 70
     0
 93
      108
310
000190140A000000000000AAAAA0
330
9CD1
330
9D1B
330
9D1B
330
9D1B
330
9D1B
330
9D1B
330
0
 94
        0
  0
ACAD_PROXY_OBJECT
  5
9D1B
330
9CD1
100
AcDbProxyObject
 90
      499
 91
      583
 95
       25
 70
     0
 93
       51
310
00010000AAAA80
330
9CD1
330
9D1A
330
9D18
 94
        0
  0
ACAD_PROXY_OBJECT
  5
9D28
330
9CD1
100
AcDbProxyObject
 90
      499
 91
      522
 95
       25
 70
     0
 93
      140
310
00010142105350D55494D511005034A49530
330
9CD1
 94
        0
  0
DICTIONARY
  5
40
102
{ACAD_REACTORS
330
3F
102
}
330
3F
100
AcDbDictionary
281
     1
  3
DWGSETTINGS
350
9CCE
  3
Shaft
350
A0AA
  3
TRANSSETTINGS
350
9CCF
  0
ACAD_PROXY_OBJECT
  5
9D2A
102
{ACAD_REACTORS
330
3F
102
}
330
3F
100
AcDbProxyObject
 90
      499
 91
      519
 95
       25
 70
     0
 93
    17944
310
41502491013041105357CC201C00030C0132441013141105357CC603800030C0132441013241105357CCA01400030C0132441013341105357CCE01800030C01199013441105357CD200C00030C01199013541105357CD600C00030C01199013641105357CDA00800030C01239013741105357CDE01000030C0119901384110
310
5357CE200400030C01199013941105357CE63F400030C0241102324141505357CC4C201C00030C0132902344141505357CC4C600C00030C0119902495041505357CC4CA01C00030C013240902304E41505357CC13A01C00030C0132902314E41505357CC53A03800030C0132902324E41505357CC93A01400030C013290233
310
4E41505357CCD3A01800030C0119902344E41505357CD13A00C00030C0119902354E41505357CD53A00C00030C0119902364E41505357CD93A00800030C0123902374E41505357CDD3A01000030C0119902384E41505357CE13A00400030C0119902394E41505357CE53A3F400030C024110332414E41905357CC4C13A01C0
310
0030C013290334414E41905357CC4C53A00C00030C011990349504E41905357CC4C93A01C00030C0132409044B4C494E41505357D0D3200400030C011942504494E464F42105357D410549151A01000030C011942D055241484D3541905357D093D4A01C00030C0132425045649455742105357D5925155D4E00400030C011
310
942D06424548494E4441905357D25395A3F400030C0243505545241494C41505357D514A00C00030C01194250348494441905357D21251201C00030C01194250356495341905357D59254E01C00030C01324250650415244494D42505357D41054911253600C00030C01194250652454644494D42505357D49151911253601
310
000030C0119425534110921395901398000000C0003FFFFFFFE415092139594D06424548494E448000000C0003FFFFFFFE411093D48C9055241484D358010000C300466411093D48CD055241484D358020000C30048E411093D48D5055241484D358000000C0003FFFFFFFE4110D0530C901348000000C0003FFFFFFFE4110
310
D0530CD01348020000C30048E4110D0530D501348070000C3004CA4110D0530DD013481E0000C30051A4110D15393901378000000C0003FFFFFFFE4110D15395D01378000000C0003FFFFFFFE4110D312539044B4C494E8000000C0003FFFFFFFE4110D3D38C501308000000C0003FFFFFFFD034110D3D38C901318000000C
310
0003FFFFFFFD034110D3D38CD01328000000C0003FFFFFFFD034110D3D38D101328000000C0003FFFFFFFD034111115510501348000000C0003FFFFFFFE4111125051D01358000000C0003FFFFFFFE4111125312501358000000C0003FFFFFFFE411112535410650415244494D8000000C0003FFFFFFFE4111125354906524
310
54644494D8000000C0003FFFFFFFE4111915353901388000000C0003FFFFFFFE415191535413901388030000C3003FFFFFFFE4151915354D410234418000000C0003FFFFFFFE4151915354D510234418030000C300466415191535593901328000000C0003FFFFFFFE415191535595101328030000C3004664112105510D01
310
388000000C0003FFFFFFFD014112125113901338000000C0003FFFFFFFD034112125115D01338000000C0003FFFFFFFD034112131253901348000000C0003FFFFFFFD01411213D0D3901378000000C0003FFFFFFFE411213D0D5D01378000000C0003FFFFFFFE4112539193D04494E464F8000000C0003FFFFFFFE41131150
310
51101358000000C0003FFFFFFFE419397D0921395902394E8000000C0003FFFFFFFE419397D0D3D38C502304E8000000C0003FFFFFFFD03419397D0D3D38C902314E8000000C0003FFFFFFFD03419397D0D3D38CD02324E8000000C0003FFFFFFFD03419397D0D3D38D102324E8000000C0003FFFFFFFD03419397D0D15393
310
902374E8000000C0003FFFFFFFE419397D0D15395D02374E8000000C0003FFFFFFFE419397D1125312502354E8000000C0003FFFFFFFE419397D2105510D02384E8000000C0003FFFFFFFD01419397D2125113902334E8000000C0003FFFFFFFD03419397D2125115D02334E8000000C0003FFFFFFFD03419397D311505110
310
2354E8000000C0003FFFFFFFE419397D391D25410349504E8000000C0003FFFFFFFE419397D412105390334414E8000000C0003FFFFFFFE419397D510D3D3902304E8000000C0003FFFFFFFD03419397D5121312502344E8000000C0003FFFFFFFD01419397D5131153902304E8000000C0003FFFFFFFD03419397D5941312
310
50332414E8000000C0003FFFFFFFE411391D25410249508000000C0003FFFFFFFE411410530C9055241484D358010000C300466411410530CD055241484D358020000C30048E411410530D5055241484D358000000C0003FFFFFFFE411412105390234418000000C0003FFFFFFFE411413D4D3901358000000C0003FFFFFFF
310
E411490D1D3901378000000C0003FFFFFFFE411490D1D5D01378000000C0003FFFFFFFE4114D09492D01348000000C0003FFFFFFFD014114D150D5101348000000C0003FFFFFFFD014114D6508CD01358020000C30048E411354D653501358020000C30048E411510D3D3901308000000C0003FFFFFFFD0341151213125013
310
48000000C0003FFFFFFFD01411512550C9055241484D358010000C300466411512550CD055241484D358020000C30048E411512550D5055241484D358000000C0003FFFFFFFE4115131153901308000000C0003FFFFFFFD03415514905253105545241494C8000000C0003FFFFFFFE4115149312501348000000C0003FFFFF
310
FFD01411516150C501368030000C300466411516150C901368030000C300466411516150CD01368000000C0003FFFFFFFE411516150D501368070000C3004CA411516150DD013681E0000C30051A4115925155D04564945578000000C0003FFFFFFFE41159151121034849448000000C0003FFFFFFFD024115915115903564
310
9538000000C0003FFFFFFFD02411594131250232418000000C0003FFFFFFFE4116925690501348000000C0003FFFFFFFD01AAA00000030401013F90A405194092340D1941119415324191941D3243932479467F6
340
16
340
16
340
16
340
43
340
16
340
16
340
16
340
44
340
16
340
16
340
44
340
45
340
16
340
16
340
16
340
16
340
43
340
16
340
16
340
16
340
44
340
16
340
16
340
44
340
45
340
16
340
46
340
16
340
16
340
16
340
16
340
16
340
43
340
16
340
16
340
16
340
15
340
15
340
15
340
15
340
15
340
15
340
15
340
15
340
15
340
48
340
15
340
15
340
15
340
15
340
15
340
15
340
15
340
15
340
15
340
15
340
15
340
15
340
15
340
16
340
15
340
15
340
15
340
15
340
47
340
15
340
15
340
48
340
15
340
15
340
15
340
15
340
15
340
15
340
15
340
15
340
48
340
15
340
15
340
15
340
47
340
15
340
15
340
15
340
15
340
15
340
15
340
15
340
15
340
15
340
15
340
15
340
15
340
15
340
15
340
48
340
15
340
15
340
15
340
15
340
15
340
15
340
15
340
15
340
15
340
15
340
15
340
15
340
15
340
15
340
15
340
15
340
15
340
15
340
15
340
15
340
15
340
15
340
4B
 94
        0
  0
XRECORD
  5
1CA0
102
{ACAD_REACTORS
330
1C9F
102
}
330
1C9F
100
AcDbXrecord
280
     1
  1
21000845__00___
  0

  0
XRECORD
  5
1CA2
102
{ACAD_REACTORS
330
1CA1
102
}
330
1CA1
100
AcDbXrecord
280
     1
  1
3
  0

  0
ACAD_PROXY_OBJECT
  5
9D29
102
{ACAD_REACTORS
330
17E
102
}
330
17E
100
AcDbProxyObject
 90
      499
 91
      589
 95
       25
 70
     0
 93
     2497
310
5DC0000000000000C408030000C30040D254D3D01640600800030C0200800030C000000000000000C40C88A2085A0B6B23A22B233B2A9BA3220480A1C82C6DAA6EAE4CCA8CAF0E8A6E8C88120284A0B1B6A321A329BA3220480A1A82C6DAAECAD8C8D2DCCEA6E8C8812028420B1B6A4B229BA3220480A1682C6DA88C2E8EAD
310
AA6E8C88120284A0B1B6A127A6A9BA3220480A2082DAC8E888CAE8C2D2D8A6F2DAA6E8C88120288A0B6B23A29B2B1BA34B7B729BCB6A9BA3220480A2282DAC8E886CADCE8CAE498D2DCCAA6E8C88120288A0B6B23A2A343932B0B22634B732A9BA3220480A1682DAC8E89CDEE8CAA6E8C88120285A0B1A0B6B3A630BCA9BA3
310
220480A1682C682DACE88D2DAA6E8C88120288A0B1A0B6B3A437B632A1B430B93A29BA3220480A1A82C682DACEA8D2E8D8CAA6E8C8812032048080
340
9D2B
360
9D2C
360
9D2D
360
9D2E
360
9D2F
360
9D30
360
9D31
360
9D32
360
9D33
360
9D34
360
9D35
360
9D36
360
9D37
360
9D42
360
9D43
360
9D4B
360
9D4C
340
0
340
0
 94
        0
  0
ACAD_PROXY_OBJECT
  5
A0AB
102
{ACAD_REACTORS
330
17E
102
}
330
17E
100
AcDbProxyObject
 90
      499
 91
      526
 95
       25
 70
     0
 93
     2387
310
5DC33333333333309408030000C30040D29254D01640600800030C0200800030C003333333333330940C8121E8720B1B6A9BAB9332A32BC3A29BA3220480A1282C6DA8C868CA6E8C88120286A0B1B6ABB2B63234B733A9BA3220480A1082C6DA92C8A6E8C88120285A0B1B6A230BA3AB6A9BA3220480A1282C6DA849E9AA6E
310
8C8812028820B6B23A2232BA30B4B629BCB6A9BA3220480A2282DAC8E8A6CAC6E8D2DEDCA6F2DAA6E8C88120288A0B6B23A21B2B73A32B92634B732A9BA3220480A2282DAC8E8A8D0E4CAC2C898D2DCCAA6E8C88120285A0B6B23A2737BA32A9BA3220480A1682C682DACE98C2F2A6E8C88120285A0B1A0B6B3A234B6A9BA3
310
220480A2282C682DACE90DED8CA86D0C2E4E8A6E8C88120286A0B1A0B6B3AA34BA3632A9BA3220480A02812020
340
180
360
A0AC
360
A0AD
360
A0AE
360
A0AF
360
A0B0
360
A0B1
360
A0B2
360
A0B3
360
A0B4
360
A0B5
360
A0B6
360
A0BC
360
A0BD
360
A0BE
360
A0BF
340
0
340
0
 94
        0
  0
ACAD_PROXY_OBJECT
  5
9CCE
102
{ACAD_REACTORS
330
40
102
}
330
40
100
AcDbProxyObject
 90
      499
 91
      518
 95
       25
 70
     0
 93
     2704
310
4050B44574753455454494E4753A1286829C8E82A4A482B282A106660F8686AF86C608321A2A720A723A0A849A1ABE1C983E18999AA0C868A9C889282940000000000000488083A1A2A72224A0A9A0A8418983E19183E199820E868A9C8892A6A894000000000000010808321A2A72622A7250000000000000122020C868A9
310
C9E8C8C940000000000000488083A1A2A727A32318A50000000000000122020E868A9C9E8C8C64940000000000000488084A1A624A720A92920ACA0A8418983E19183E19982108698929C8AA8B2A082A0AB098929C8A84A22BA3AAA9A1A0A622A50A0E9882A6A89E849482A0884606C868426A0A5A2AB24A2ABA7E8120CA0A
310
68682988A0C00800010652455649534941501304154D0D0531150540CC4E8C50954494D455354414D504A0A52F2102792B734141D5915494D253D3905414C4D4B8C0C1107B44574753455454494E4753454E447D
  0
ACAD_PROXY_OBJECT
  5
A0AA
102
{ACAD_REACTORS
330
40
102
}
330
40
100
AcDbProxyObject
 90
      499
 91
      518
 95
       25
 70
     0
 93
      199
310
405055368616674220F688AE8EA68AA8A8929C8EA68A9C88FA
  0
ACAD_PROXY_OBJECT
  5
9CCF
102
{ACAD_REACTORS
330
40
102
}
330
40
100
AcDbProxyObject
 90
      499
 91
      518
 95
       25
 70
     0
 93
      852
310
4050D5452414E5353455454494E4753A2488A482AE929C8EA8A4829CA69882A8929E9C0C00800050D4F524947494E414C4C595F4F4E0600400008529A7AAA921A2A620A723A0A81A52827212AAA0A48AA68AA4AC8A0C0080001107B44574753455454494E4753454E447D0
  0
ACAD_PROXY_OBJECT
  5
9D2C
330
9D29
100
AcDbProxyObject
 90
      499
 91
      590
 95
       25
 70
     0
 93
       13
310
5DD8
  0
ACAD_PROXY_OBJECT
  5
9D2D
330
9D29
100
AcDbProxyObject
 90
      499
 91
      591
 95
       25
 70
     0
 93
       96
310
5DEA0E80A0280A0280A0280F
  0
ACAD_PROXY_OBJECT
  5
9D2E
330
9D29
100
AcDbProxyObject
 90
      499
 91
      592
 95
       25
 70
     0
 93
      272
310
5DD0E4050140501405014050140501405014050140D01405012C0000000000000040
340
9D38
 94
        0
  0
ACAD_PROXY_OBJECT
  5
9D2F
330
9D29
100
AcDbProxyObject
 90
      499
 91
      593
 95
       25
 70
     0
 93
      497
310
5DE8666666666667A67E199999999999E99FD22405014050140501405014050140501405014050140501405014050140501405014050140501405014050100
340
9D39
 94
        0
  0
ACAD_PROXY_OBJECT
  5
9D30
330
9D29
100
AcDbProxyObject
 90
      499
 91
      594
 95
       25
 70
     0
 93
       10
310
5DC0
  0
ACAD_PROXY_OBJECT
  5
9D31
330
9D29
100
AcDbProxyObject
 90
      499
 91
      595
 95
       25
 70
     0
 93
      257
310
5DE290EA22A7D90F49F80000000000001081400000000000004204010000618000
340
9D3A
340
9D3B
 94
        0
  0
ACAD_PROXY_OBJECT
  5
9D32
330
9D29
100
AcDbProxyObject
 90
      499
 91
      596
 95
       25
 70
     0
 93
    13013
310
5DD0E411255115350141236025B690140501406901000000000000091013347454E545241434F2C4A504E2C302C8D8096DA2C47454E54524154582C25732C2847454E4D53472067656E647767203232322940690120281A8AA2CA0282484A4BE52028120280A0320200000000000012202668E8A9CA8A482869E5894A09C58
310
605921292F94588E8A9CA8A482A8B0584AE658508E8A9C9AA68E40CECADCC8EECE406464665280D202405044E414D454050496BC914F4051C40640A80000000000004E404CD1D15395149050D3CB1294138B0C0B25AF2453CB11D15395149055160B095CCB0A11D1539354D1C819D95B991DD9C80C8C8D8A50192C3D494628
310
4953424C414E4B28504152543A4E414D45292C424C4F434B3A4E414D452C504152543A4E414D452940480A0A888AA686A480A09251B1DBE80A3A80C81D0000000000100A28099A3A2A72A2920A1A7962528271618164946C76F9623A2A72A2920AA2C1612B9961423A2A726A9A39033B2B7323BB39019189B94A0348090142
310
14D51053911054911014122D2E29A50147501904A000000000000125013347454E545241434F2C4A504E2C302C8B4B8A692C47454E54524154582C25732C2847454E4D53472067656E64776720323138294069012028426A0AA22A924A0A62028246EF4BDFA028EA0320B40000000000001CA02668E8A9CA8A482869E5894A
310
09C5860591BBD2F7E588E8A9CA8A482A8B0584AE658508E8A9C9AA68E40CECADCC8EECE406464625280D202405044E4F544540504928D8B4C4051D40641A80000000000003E404CD1D15395149050D3CB1294138B0C0B24A362D30B11D15395149055160B095CCB0A11D1539354D1C819D95B991DD9C80C8C8D4A501240480
310
A0CAC8A9C889EA480A1106F1072706BF02B680A3A80C83D00000000000007C809BA3A2A72A2920A1A79625282716181641BC41C9C1AFC0AD9623A2A72A2920AA2C1612B9961423A2A726A9A39033B2B7323BB39019191A14A0248090141911154D0D48C90141A43825AF880C90147501908A000000000020145013447454E5
310
45241434F2C4A504E2C302C90E096BE20322C47454E54524154582C25732C2847454E4D53472067656E6477672033362940490120284A9AA20A72220A922192028345A5C53490192028EA03213400000000000024A026A8E8A9CA8A482869E5894A09C586059169714D24064588E8A9CA8A482A8B0584AE658508E8A9C9AA6
310
8E40CECADCC8EECE4064646052809202405094D4154455249414C32405068DDE97BF20324051D40642A8713D0AD7A37045404D11D15395149050D3CB1294138B0C0B2377A5EFC80C8B11D15395149055160B095CCB0A11D1539354D1C819D95B991DD9C80D0C0A501240480A089A82A6A680A091D7F2F9480A3A80A0485A06
310
8100000000000007C809923A2A72A2920A1A796252827161816475FCBE51623A2A72A2920AA2C1612B9961423A2A726A9A39033B2B7323BB3901A1914A024809014154149250D150141226FE29A501475014090C409020000000000000F9013247454E545241434F2C4A504E2C302C89BF8A692C47454E54524154582C2573
310
2C2847454E4D53472067656E6477672034332940490120281A224A6A02824850CB202028EA028121A81A040000000000001F202648E8A9CA8A482869E5894A09C58605921432C80588E8A9CA8A482A8B0584AE658508E8A9C9AA68E40CECADCC8EECE406868528092024050E445020000000000000510201C00030C0001018
310
0000000000003E400000000000000F901073D3C4954454D3E4050180000000000003E400000000000000F901073D3C4954454D3E40501800000000000034400000000000000D101073D3C4954454D3E40501800000000000034400000000000000D101073D3C4954454D3E405029010000000000000F9000000000000003E4
310
041CF4F125511534F901418F4F1455164F9014060000000000000F9000000000000003E4041CF4F125511534F9014060000000000000D100000000000000344041CF4F125511534F901901000000000000000F9000000000000003E40A2200000000000008204018000618048220681A048120280C88214844882034852034
310
8452028521485214814000000000000F0BF0000000000003C2FD018020000C3008070000C3003373333333333B0FCCDCCCCCCCCCCEC3F000000000000031012034164050341105901A000000000000062040100006180401000061804008000618008098A02808
340
0
340
0
 94
        0
  0
ACAD_PROXY_OBJECT
  5
9D33
330
9D29
100
AcDbProxyObject
 90
      499
 91
      597
 95
       25
 70
     0
 93
      898
310
5DC4000000000000144048CF4F11115510525317D3105091530F880A0F11115510525317D05094D4D0D053114F8A51141C9A9999999999B93F26A666666666724FC000000000000E03F400000000000000400000000000000510000000000000024408070000C300000000000000051000
340
16
340
9D2B
 94
        0
  0
ACAD_PROXY_OBJECT
  5
9D34
330
9D29
100
AcDbProxyObject
 90
      499
 91
      598
 95
       25
 70
     0
 93
      823
310
5DC0B00000000000002880959E9E29A2A1AA24A7A72FA620A122A62FA324A929AA1F169E29A2A1AA24A7A72FA620A122A62FA620A9AA1F000000000000048803FFFE01C00030C0088C0380006180000000000000048800000000000000A2000000000000002880
340
652
340
9D2B
 94
        0
  0
ACAD_PROXY_OBJECT
  5
9D35
330
9D29
100
AcDbProxyObject
 90
      499
 91
      599
 95
       25
 70
     0
 93
      152
310
5DE80000000000000840A3D0A5723F0BD1F200
  0
ACAD_PROXY_OBJECT
  5
9D36
330
9D29
100
AcDbProxyObject
 90
      499
 91
      600
 95
       25
 70
     0
 93
       14
310
5DE0
340
0
 94
        0
  0
ACAD_PROXY_OBJECT
  5
9D37
330
9D29
100
AcDbProxyObject
 90
      499
 91
      601
 95
       25
 70
     0
 93
     8619
310
5DD084050BA4050AA405024050E836583938376838C815B836720314043A013D2525633C486F6C653A63746469613E2078203C486F6C653A637464657074683E20555C503C696628657175616C28486F6C653A7461707065642C223022292C22252563222C486F6C653A6E6F6D696E616C202220782022293E3C6966286571
310
75616C28486F6C653A7461707065642C223022292C486F6C653A6469612C486F6C653A706974636864657363293E3C696628657175616C28486F6C653A7461707065642C223122292C22207820222C2222293E3C696628657175616C28486F6C653A7461707065642C223122292C486F6C653A74617064657074682C222229
310
3E203C696628657175616C28486F6C653A7465726D696E6174696F6E2C223022292C22202F20222C2222293E3C696628657175616C28486F6C653A7465726D696E6174696F6E2C223022292C486F6C653A64657074682C2222293E406901405034050E836583938376838C815B836720314043B013D2525633C486F6C653A6
310
3746469613E2078203C486F6C653A6374616E676C653E2525645C503C696628657175616C28486F6C653A7461707065642C223022292C22252563222C486F6C653A6E6F6D696E616C202220782022293E3C696628657175616C28486F6C653A7461707065642C223022292C486F6C653A6469612C486F6C653A70697463686
310
4657363293E3C696628657175616C28486F6C653A7461707065642C223122292C22207820222C2222293E3C696628657175616C28486F6C653A7461707065642C223122292C486F6C653A74617064657074682C2222293E203C696628657175616C28486F6C653A7465726D696E6174696F6E2C223022292C22202F20222C2
310
222293E3C696628657175616C28486F6C653A7465726D696E6174696F6E2C223022292C486F6C653A64657074682C2222293E406901405014050E836583938376838C815B8367203140416013D3C696628657175616C28486F6C653A7461707065642C223022292C22252563222C486F6C653A6E6F6D696E616C2022207820
310
22293E3C696628657175616C28486F6C653A7461707065642C223022292C486F6C653A6469612C486F6C653A706974636864657363293E3C696628657175616C28486F6C653A7461707065642C223122292C22207820222C2222293E3C696628657175616C28486F6C653A7461707065642C223122292C486F6C653A746170
310
64657074682C2222293E203C696628657175616C28486F6C653A7465726D696E6174696F6E2C223022292C22202F20222C2222293E3C696628657175616C28486F6C653A7465726D696E6174696F6E2C223022292C486F6C653A64657074682C2222293E4069014051E4090E836583938376838C815B83672032405173D3C5
310
35444503A444553433E203C535444503A5354443E40690E836583938376838C815B836720314050C3D3C535444503A444553433E40690240515AAABBA120
360
9D40
330
9D40
360
9D41
330
9D41
360
9D3F
330
9D3F
360
9D3E
360
9D3D
330
9D3E
330
9D3D
 94
        0
  0
ACAD_PROXY_OBJECT
  5
9D42
330
9D29
100
AcDbProxyObject
 90
      499
 91
      542
 95
       25
 70
     0
 93
    17870
310
5DD02491013041105357CC201C00030C0132441013141105357CC603800030C0132441013241105357CCA01400030C0132441013341105357CCE01800030C01199013441105357CD200C00030C01199013541105357CD600C00030C01199013641105357CDA00800030C01239013741105357CDE01000030C0119901384110
310
5357CE200400030C01199013941105357CE63F400030C0241102324141505357CC4C201C00030C0132902344141505357CC4C600C00030C0119902495041505357CC4CA01C00030C013240902304E41505357CC13A01C00030C0132902314E41505357CC53A03800030C0132902324E41505357CC93A01400030C013290233
310
4E41505357CCD3A01800030C0119902344E41505357CD13A00C00030C0119902354E41505357CD53A00C00030C0119902364E41505357CD93A00800030C0123902374E41505357CDD3A01000030C0119902384E41505357CE13A00400030C0119902394E41505357CE53A3F400030C024110332414E41905357CC4C13A01C0
310
0030C013290334414E41905357CC4C53A00C00030C011990349504E41905357CC4C93A01C00030C0132409044B4C494E41505357D0D3200400030C011942504494E464F42105357D410549151A01000030C011942D055241484D3541905357D093D4A01C00030C0132425045649455742105357D5925155D4E00400030C011
310
942D06424548494E4441905357D25395A3F400030C0243505545241494C41505357D514A00C00030C01194250348494441905357D21251201C00030C01194250356495341905357D59254E01C00030C01324250650415244494D42505357D41054911253600C00030C01194250652454644494D42505357D49151911253601
310
000030C0119425534110921395901398000000C0003FFFFFFFE415092139594D06424548494E448000000C0003FFFFFFFE411093D48C9055241484D358010000C300466411093D48CD055241484D358020000C30048E411093D48D5055241484D358000000C0003FFFFFFFE4110D0530C901348000000C0003FFFFFFFE4110
310
D0530CD01348020000C30048E4110D0530D501348070000C3004CA4110D0530DD013481E0000C30051A4110D15393901378000000C0003FFFFFFFE4110D15395D01378000000C0003FFFFFFFE4110D312539044B4C494E8000000C0003FFFFFFFE4110D3D38C501308000000C0003FFFFFFFD034110D3D38C901318000000C
310
0003FFFFFFFD034110D3D38CD01328000000C0003FFFFFFFD034110D3D38D101328000000C0003FFFFFFFD034111115510501348000000C0003FFFFFFFE4111125051D01358000000C0003FFFFFFFE4111125312501358000000C0003FFFFFFFE411112535410650415244494D8000000C0003FFFFFFFE4111125354906524
310
54644494D8000000C0003FFFFFFFE4111915353901388000000C0003FFFFFFFE415191535413901388030000C3003FFFFFFFE4151915354D410234418000000C0003FFFFFFFE4151915354D510234418030000C300466415191535593901328000000C0003FFFFFFFE415191535595101328030000C3004664112105510D01
310
388000000C0003FFFFFFFD014112125113901338000000C0003FFFFFFFD034112125115D01338000000C0003FFFFFFFD034112131253901348000000C0003FFFFFFFD01411213D0D3901378000000C0003FFFFFFFE411213D0D5D01378000000C0003FFFFFFFE4112539193D04494E464F8000000C0003FFFFFFFE41131150
310
51101358000000C0003FFFFFFFE419397D0921395902394E8000000C0003FFFFFFFE419397D0D3D38C502304E8000000C0003FFFFFFFD03419397D0D3D38C902314E8000000C0003FFFFFFFD03419397D0D3D38CD02324E8000000C0003FFFFFFFD03419397D0D3D38D102324E8000000C0003FFFFFFFD03419397D0D15393
310
902374E8000000C0003FFFFFFFE419397D0D15395D02374E8000000C0003FFFFFFFE419397D1125312502354E8000000C0003FFFFFFFE419397D2105510D02384E8000000C0003FFFFFFFD01419397D2125113902334E8000000C0003FFFFFFFD03419397D2125115D02334E8000000C0003FFFFFFFD03419397D311505110
310
2354E8000000C0003FFFFFFFE419397D391D25410349504E8000000C0003FFFFFFFE419397D412105390334414E8000000C0003FFFFFFFE419397D510D3D3902304E8000000C0003FFFFFFFD03419397D5121312502344E8000000C0003FFFFFFFD01419397D5131153902304E8000000C0003FFFFFFFD03419397D5941312
310
50332414E8000000C0003FFFFFFFE411391D25410249508000000C0003FFFFFFFE411410530C9055241484D358010000C300466411410530CD055241484D358020000C30048E411410530D5055241484D358000000C0003FFFFFFFE411412105390234418000000C0003FFFFFFFE411413D4D3901358000000C0003FFFFFFF
310
E411490D1D3901378000000C0003FFFFFFFE411490D1D5D01378000000C0003FFFFFFFE4114D09492D01348000000C0003FFFFFFFD014114D150D5101348000000C0003FFFFFFFD014114D6508CD01358020000C30048E411354D653501358020000C30048E411510D3D3901308000000C0003FFFFFFFD0341151213125013
310
48000000C0003FFFFFFFD01411512550C9055241484D358010000C300466411512550CD055241484D358020000C30048E411512550D5055241484D358000000C0003FFFFFFFE4115131153901308000000C0003FFFFFFFD03415514905253105545241494C8000000C0003FFFFFFFE4115149312501348000000C0003FFFFF
310
FFD01411516150C501368030000C300466411516150C901368030000C300466411516150CD01368000000C0003FFFFFFFE411516150D501368070000C3004CA411516150DD013681E0000C30051A4115925155D04564945578000000C0003FFFFFFFE41159151121034849448000000C0003FFFFFFFD024115915115903564
310
9538000000C0003FFFFFFFD02411594131250232418000000C0003FFFFFFFE4116925690501348000000C0003FFFFFFFD01429014650248D0346504465054C906465074C90E4C91E519FD8
340
9D2A
340
16
340
16
340
16
340
43
340
16
340
16
340
16
340
44
340
16
340
16
340
44
340
45
340
16
340
16
340
16
340
16
340
43
340
16
340
16
340
16
340
44
340
16
340
16
340
44
340
45
340
16
340
46
340
16
340
16
340
16
340
16
340
16
340
43
340
16
340
16
340
16
340
15
340
15
340
15
340
15
340
15
340
15
340
15
340
15
340
15
340
48
340
15
340
15
340
15
340
15
340
15
340
15
340
15
340
15
340
15
340
15
340
15
340
15
340
15
340
16
340
15
340
15
340
15
340
15
340
47
340
15
340
15
340
48
340
15
340
15
340
15
340
15
340
15
340
15
340
15
340
15
340
48
340
15
340
15
340
15
340
47
340
15
340
15
340
15
340
15
340
15
340
15
340
15
340
15
340
15
340
15
340
15
340
15
340
15
340
15
340
48
340
15
340
15
340
15
340
15
340
15
340
15
340
15
340
15
340
15
340
15
340
15
340
15
340
15
340
15
340
15
340
15
340
15
340
15
340
15
340
15
340
15
340
15
340
4B
 94
        0
  0
ACAD_PROXY_OBJECT
  5
9D43
330
9D29
100
AcDbProxyObject
 90
      499
 91
      543
 95
       25
 70
     0
 93
      250
310
5DD020000000000000A1000000000000002440408F0F9023C3E409A0DCFFFF80
340
9D44
340
0
340
0
340
9D45
340
9D46
340
9D47
340
9D48
340
9D49
340
9D4A
340
0
 94
        0
  0
ACAD_PROXY_OBJECT
  5
9D4B
330
9D29
100
AcDbProxyObject
 90
      499
 91
      603
 95
       25
 70
     0
 93
    13889
310
5DD1D003FFFFFFFD030300030CCCCCCCCCCCC250200800030C01030300030000000000000310200800030C00050C8DC0955782CC838A83588367014ED1D15395149050D3CB1294138B0C0B23702555E0B320E2A0D620D9CB11D15395149055160B095CCB0A11D1539354D1C819D95B991A5B5E880CCC0A78100C0000000000
310
00000000000000000000010CCCCCCCCCCCC250200800030C010CCCCCCCCCCCC250200800030C020143CF4F111959985D5B1D151A5D1B194F8050A8C8A8365815B8375838B014E51D15395149050D3CB1294138B0C0B2322A0D96056E0DD60E2CB11D15395149055160B095CCB0A11D1539354D1C819D95B991A5B5E880CCC4
310
A78100C000000000000000000000000000000010CCCCCCCCCCCC250200800030C010CCCCCCCCCCCC250200800030C020143CF4F111959985D5B1D151A5D1B194F90D44111409034110541D0C4350F4050E44D03449074510F000141232D24D7C053247454E545241434F2C4A504E2C302C8CB4935F2C47454E54524154582C
310
25732C2847454E4D53472067656E64696D7A20312900010104002214000281464500A608E8A9CA8A482869E5894A09C5860591914588E8A9CA8A482A8B0584AE658508E8A9C9AA68E40CECADCC8D2DAF4406452029E9E9E27B934B3B4B71F1E24A31427A91424A9A12620A7259427B934B3B4B7149624A9A12620A7259424B
310
A32B6949496111116111711149F1E24BA32B69F00808200111A000140560052F47454E545241434F2C4A504E2C302C582C47454E54524154582C25732C2847454E4D53472067656E64696D7A20332900010100002054000280AC80A5E8E8A9CA8A482869E5894A09C586058B2588E8A9CA8A482A8B0584AE658508E8A9C9AA
310
68E40CECADCC8D2DAF4406852000202000040E800050152014BD1D15395149050D3CB1294138B0C0B148B11D15395149055160B095CCB0A11D1539354D1C819D95B991A5B5E880D8A400040400008250000A0507A6029823A2A72A2920A1A79625282716181641E99623A2A72A2920AA2C1612B9961423A2A726A9A39033B2
310
B73234B6BD101B948000808180105A000140A0F4C053047454E545241434F2C4A504E2C302C83D32C47454E54524154582C25732C2847454E4D53472067656E64696D7A203829000101010020F400028248704B5F00A668E8A9CA8A482869E5894A09C58605921C12D7C588E8A9CA8A482A8B0584AE658508E8A9C9AA68E40
310
CECADCC8D2DAF440646052000200080043280005048B4B8A69014CD1D15395149050D3CB1294138B0C0B22D2E29A4B11D15395149055160B095CCB0A11D1539354D1C819D95B991A5B5E880C8C4A4000400100086D0000A09196926BE029923A2A72A2920A1A796252827161816465A49AF9623A2A72A2920AA2C1612B9961
310
423A2A726A9A39033B2B73234B6BD10189480A02620202080043E80005048D8096DA014CD1D15395149050D3CB1294138B0C0B236025B68B11D15395149055160B095CCB0A11D1539354D1C819D95B991A5B5E880C4D0A4000404140280D0000A190687072706CD06C5069D06B0029DA3A2A72A2920A1A7962528271618164
310
1A1C1C9C1B341B141A741AC1623A2A72A2920AA2C1612B9961423A2A726A9A39033B2B73234B6BD10189A94800080828050EA000143A322A0D0E0E4E0D9A0D8A0D3A0D60053D47454E545241434F2C4A504E2C302C8C8A8343839383668362834E83582C47454E54524154582C25732C2847454E4D53472067656E64696D7A
310
2031372900010105002274000281464500A628E8A9CA8A482869E5894A09C5860591914588E8A9CA8A482A8B0584AE658508E8A9C9AA68E40CECADCC8D2DAF440626C52000202080044A8000504909497CA014CD1D15395149050D3CB1294138B0C0B242525F28B11D15395149055160B095CCB0A11D1539354D1C819D95B9
310
91A5B5E880C4E4A400040418008A521E000000000000001CA040C00000000000034408080000000000006881010000000000000D102040000000000001A204080000000000003440818000000000000728103000000000000125020600000000004028A040000000000000034408000000000000004881000000000000000D
310
102000000000000001A204000000000000003440818000000000000508143C0000000000000039408180000000000006881030000000000000D102060000000000001A2040C00000000000034408180000000000006881030000000000000E5020600000000000024A040C0000000000805140800000000000000688100000
310
00000000009102000000000000001A2040000000000000034408180000000000006881030000000000000A10284220000000878000002020000008380000020400000081800000208000000828000002028900000000
340
0
340
0
340
0
340
0
340
9D2B
340
9D2B
 94
        0
  0
ACAD_PROXY_OBJECT
  5
9D4C
330
9D29
100
AcDbProxyObject
 90
      499
 91
      537
 95
       25
 70
     0
 93
     7018
310
5DD9740D254D3D0649534F5F4133429254D3D7D5125513115051349534F5F42525F5265766973696F6E6C69737446111413478342028323937783834316D6D2920421254D3D7D04D1E0D11141327835202835393478323130326D6D29421254D3D7D04C9E0D51141347839202832393778313839326D6D29421254D3D7D04D
310
1E0E51141337837202834323078323038306D6D29421254D3D7D04CDE0DD1141347838202832393778313638326D6D29421254D3D7D04D1E0E11141327834202835393478313638326D6D29421254D3D7D04C9E0D10E41312028353934783834316D6D29419254D3D7D04C51141347837202832393778313437316D6D29421
310
254D3D7D04D1E0DD1141347836202832393778313236316D6D29421254D3D7D04D1E0D91141347835202832393778313035316D6D29421254D3D7D04D1E0D5104130202838343078313138396D6D2920419254D3D7D04C10E41332028323937783432306D6D29419254D3D7D04CD1141327833202835393478313236316D6D
310
29421254D3D7D04C9E0CD10413478332028323937783633306D6D29421254D3D7D04D1E0CD1141337834202834323078313138396D6D29421254D3D7D04CDE0D11141337836202834323078313738336D6D29421254D3D7D04CDE0D91141337835202834323078313438366D6D29421254D3D7D04CDE0D50E4132202834323
310
0783539346D6D29419254D3D7D04C910413378332028343230783839316D6D29421254D3D7D04CDE0CD0E41342028323937783231306D6D29419254D3D7D04D1124130783220283131383978313638326D6D29421254D3D7D04C1E0C9124130783320283131383978323532336D6D29421254D3D7D04C1E0CD114131783420
310
2838343178323337386D6D29421254D3D7D04C5E0D11141317833202838343178313738336D6D29421254D3D7D04C5E0CD02431254D3C82557247A25E4C81050A49534F5F5449544C4541431254D3C82557247A25E4C81090A49534F5F5449544C45424110E979A97F0838A835883675F42525F44D254D3D7D09497D4995D9
310
A5CDA5BDB9B1A5CDD10E979A97F0838A835883675F54525F44D254D3D7D51497D4995D9A5CDA5BDB9B1A5CDD10E979A97F0838A835883675F424C5F44D254D3D7D09317D4995D9A5CDA5BDB9B1A5CDD10E979A97F0838A835883675F544C5F44D254D3D7D51317D4995D9A5CDA5BDB9B1A5CDD00
  0
ACAD_PROXY_OBJECT
  5
A0AC
330
A0AB
100
AcDbProxyObject
 90
      499
 91
      527
 95
       25
 70
     0
 93
       86
310
5DEA0C80A0280A0280A034
  0
ACAD_PROXY_OBJECT
  5
A0AD
330
A0AB
100
AcDbProxyObject
 90
      499
 91
      605
 95
       25
 70
     0
 93
      282
310
5DD0E4050140501405014050140501405014050141101405014048000000000000001000
340
187
 94
        0
  0
ACAD_PROXY_OBJECT
  5
A0AE
330
A0AB
100
AcDbProxyObject
 90
      499
 91
      529
 95
       25
 70
     0
 93
      387
310
5DC8666666666667A67E6DDB36EDDB36ED9F91740501405014050140501405014050140501405014050140501405014040
340
9EDB
 94
        0
  0
ACAD_PROXY_OBJECT
  5
A0AF
330
A0AB
100
AcDbProxyObject
 90
      499
 91
      530
 95
       25
 70
     0
 93
       10
310
5DC0
  0
ACAD_PROXY_OBJECT
  5
A0B0
330
A0AB
100
AcDbProxyObject
 90
      499
 91
      531
 95
       25
 70
     0
 93
      257
310
5DE0C16A22A7D90F49F80000000000001081400000000000004204010000618000
340
188
340
189
 94
        0
  0
ACAD_PROXY_OBJECT
  5
A0B1
330
A0AB
100
AcDbProxyObject
 90
      499
 91
      532
 95
       25
 70
     0
 93
    13013
310
5DD0E411255115350141236025B690140501406901000000000000091013347454E545241434F2C4A504E2C302C8D8096DA2C47454E54524154582C25732C2847454E4D53472067656E647767203232322940690120281A8AA2CA0282484A4BE52028120280A0320200000000000012202668E8A9CA8A482869E5894A09C58
310
605921292F94588E8A9CA8A482A8B0584AE658508E8A9C9AA68E40CECADCC8EECE406464665280D202405044E414D454050496BC914F4051C40640A80000000000004E404CD1D15395149050D3CB1294138B0C0B25AF2453CB11D15395149055160B095CCB0A11D1539354D1C819D95B991DD9C80C8C8D8A50192C3D494628
310
4953424C414E4B28504152543A4E414D45292C424C4F434B3A4E414D452C504152543A4E414D452940480A0A888AA686A480A09251B1DBE80A3A80C81D0000000000100A28099A3A2A72A2920A1A7962528271618164946C76F9623A2A72A2920AA2C1612B9961423A2A726A9A39033B2B7323BB39019189B94A0348090142
310
14D51053911054911014122D2E29A50147501904A000000000000125013347454E545241434F2C4A504E2C302C8B4B8A692C47454E54524154582C25732C2847454E4D53472067656E64776720323138294069012028426A0AA22A924A0A62028246EF4BDFA028EA0320B40000000000001CA02668E8A9CA8A482869E5894A
310
09C5860591BBD2F7E588E8A9CA8A482A8B0584AE658508E8A9C9AA68E40CECADCC8EECE406464625280D202405044E4F544540504928D8B4C4051D40641A80000000000003E404CD1D15395149050D3CB1294138B0C0B24A362D30B11D15395149055160B095CCB0A11D1539354D1C819D95B991DD9C80C8C8D4A501240480
310
A0CAC8A9C889EA480A1106F1072706BF02B680A3A80C83D00000000000007C809BA3A2A72A2920A1A79625282716181641BC41C9C1AFC0AD9623A2A72A2920AA2C1612B9961423A2A726A9A39033B2B7323BB39019191A14A0248090141911154D0D48C90141A43825AF880C90147501908A000000000020145013447454E5
310
45241434F2C4A504E2C302C90E096BE20322C47454E54524154582C25732C2847454E4D53472067656E6477672033362940490120284A9AA20A72220A922192028345A5C53490192028EA03213400000000000024A026A8E8A9CA8A482869E5894A09C586059169714D24064588E8A9CA8A482A8B0584AE658508E8A9C9AA6
310
8E40CECADCC8EECE4064646052809202405094D4154455249414C32405068DDE97BF20324051D40642A8713D0AD7A37045404D11D15395149050D3CB1294138B0C0B2377A5EFC80C8B11D15395149055160B095CCB0A11D1539354D1C819D95B991DD9C80D0C0A501240480A089A82A6A680A091D7F2F9480A3A80A0485A06
310
8100000000000007C809923A2A72A2920A1A796252827161816475FCBE51623A2A72A2920AA2C1612B9961423A2A726A9A39033B2B7323BB3901A1914A024809014154149250D150141226FE29A501475014090C409020000000000000F9013247454E545241434F2C4A504E2C302C89BF8A692C47454E54524154582C2573
310
2C2847454E4D53472067656E6477672034332940490120281A224A6A02824850CB202028EA028121A81A040000000000001F202648E8A9CA8A482869E5894A09C58605921432C80588E8A9CA8A482A8B0584AE658508E8A9C9AA68E40CECADCC8EECE406868528092024050E445020000000000000490201C00030C0001018
310
0000000000003B400000000000000ED01073D3C4954454D3E4050180000000000003B400000000000000ED01073D3C4954454D3E40501800000000000032400000000000000C901073D3C4954454D3E40501800000000000032400000000000000C901073D3C4954454D3E405029010000000000000ED000000000000003B4
310
041CF4F125511534F901418F4F1455164F9014060000000000000ED000000000000003B4041CF4F125511534F9014060000000000000D100000000000000344041CF4F125511534F901901000000000000000ED000000000000003B40A2200000000000008204018000618048220681A048120280C88214844882034852034
310
8452028521485214814000000000000F0BF0000000000003C2FD018020000C3008070000C3003373333333333B0FCCDCCCCCCCCCCEC3F0CCCCCCCCCCCC25012034164050341105901A19999999999984A040100006180401000061804008000618008098A02808
340
0
340
0
 94
        0
  0
ACAD_PROXY_OBJECT
  5
A0B2
330
A0AB
100
AcDbProxyObject
 90
      499
 91
      538
 95
       25
 70
     0
 93
      898
310
5DC4000000000000124048CF4F11115510525317D3105091530F880A0F11115510525317D05094D4D0D053114F8A50241C9A9999999999B93F26A666666666724FC000000000000E03F400000000000000400000000000000510000000000000024408070000C300000000000000049000
340
16
340
180
 94
        0
  0
ACAD_PROXY_OBJECT
  5
A0B3
330
A0AB
100
AcDbProxyObject
 90
      499
 91
      539
 95
       25
 70
     0
 93
      823
310
5DC0B00000000000002480959E9E29A2A1AA24A7A72FA620A122A62FA324A929AA1F169E29A2A1AA24A7A72FA620A122A62FA620A9AA1F000000000000048803FFFE01C00030C008140380006180000000000000048800000000000000A2000000000000002480
340
652
340
180
 94
        0
  0
ACAD_PROXY_OBJECT
  5
A0B4
330
A0AB
100
AcDbProxyObject
 90
      499
 91
      540
 95
       25
 70
     0
 93
      152
310
5DE8273108AC1C5A0640A3D0A5723F0BD1F200
  0
ACAD_PROXY_OBJECT
  5
A0B5
330
A0AB
100
AcDbProxyObject
 90
      499
 91
      606
 95
       25
 70
     0
 93
       14
310
5DE0
340
0
 94
        0
  0
ACAD_PROXY_OBJECT
  5
A0B6
330
A0AB
100
AcDbProxyObject
 90
      499
 91
      541
 95
       25
 70
     0
 93
     6059
310
5DD084050BA4050AA405024050E836583938376838C815B83672031405983D3C486F6C653A6469613E3C696628657175616C28486F6C653A7465726D696E6174696F6E2C223022292C2220905B82B320222C22208368838A838B22293E3C696628657175616C28486F6C653A7465726D696E6174696F6E2C223022292C486F
310
6C653A64657074682C2222293E2C203C486F6C653A63746469613E2082B482AE82E882CC905B82B3203C486F6C653A637464657074683E406901405034050E836583938376838C815B83672031405EF3D3C486F6C653A6374616E676C653E252564202525633C486F6C653A63746469613E208E4D8C8A2C203C69662865717
310
5616C28486F6C653A7461707065642C223022292C22252563222C486F6C653A6E6F6D696E616C202220782022293E3C696628657175616C28486F6C653A7461707065642C223022292C486F6C653A6469612C486F6C653A706974636864657363293E203C696628657175616C28486F6C653A7465726D696E6174696F6E2C2
310
23022292C22905B82B320222C222022293E3C696628657175616C28486F6C653A7465726D696E6174696F6E2C223022292C486F6C653A64657074682C2222293E406901405014050E836583938376838C815B83672031405C73D3C696628657175616C28486F6C653A7461707065642C223022292C22252563222C486F6C65
310
3A6E6F6D696E616C202220782022293E3C696628657175616C28486F6C653A7461707065642C223022292C486F6C653A6469612C486F6C653A706974636864657363293E203C696628657175616C28486F6C653A7465726D696E6174696F6E2C223022292C22905B82B320222C222022293E3C696628657175616C28486F6C
310
653A7465726D696E6174696F6E2C223022292C486F6C653A64657074682C2222293E4069014051E4090E836583938376838C815B83672032405173D3C535444503A444553433E203C535444503A5354443E40690E836583938376838C815B836720314050C3D3C535444503A444553433E40690240515AAABBA120
360
A0BA
330
A0BA
360
A0BB
330
A0BB
360
A0B9
330
A0B9
360
A0B8
360
A0B7
330
A0B8
330
A0B7
 94
        0
  0
ACAD_PROXY_OBJECT
  5
A0BC
330
A0AB
100
AcDbProxyObject
 90
      499
 91
      542
 95
       25
 70
     0
 93
       26
310
5DD02A80
340
9D2A
 94
        0
  0
ACAD_PROXY_OBJECT
  5
A0BD
330
A0AB
100
AcDbProxyObject
 90
      499
 91
      543
 95
       25
 70
     0
 93
      250
310
5DD020000000000000A1000000000000002440408F0F9023C3E409A0DCFFFF80
340
58
340
1899
340
189A
340
5F
340
60
340
61
340
62
340
63
340
68
340
0
 94
        0
  0
ACAD_PROXY_OBJECT
  5
A0BE
330
A0AB
100
AcDbProxyObject
 90
      499
 91
      607
 95
       25
 70
     0
 93
    13889
310
5DD1D003FFFFFFFD030300030CCCCCCCCCCCC250200800030C01030300030CCCCCCCCCCCC250200800030C00050C8DC0955782CC838A83588367014ED1D15395149050D3CB1294138B0C0B23702555E0B320E2A0D620D9CB11D15395149055160B095CCB0A11D1539354D1C819D95B991A5B5E880CCC0A78000C0000000000
310
00000000000000000000010CCCCCCCCCCCC250200800030C010CCCCCCCCCCCC250200800030C020143CF4F111959985D5B1D151A5D1B194F8050A8C8A8365815B8375838B014E51D15395149050D3CB1294138B0C0B2322A0D96056E0DD60E2CB11D15395149055160B095CCB0A11D1539354D1C819D95B991A5B5E880CCC4
310
A78000C000000000000000000000000000000010CCCCCCCCCCCC250200800030C010CCCCCCCCCCCC250200800030C020143CF4F111959985D5B1D151A5D1B194F90D44111409034110541D0C4350F4050E44D03449074510F000141232D24D7C053247454E545241434F2C4A504E2C302C8CB4935F2C47454E54524154582C
310
25732C2847454E4D53472067656E64696D7A20312900010104002214000281464500A608E8A9CA8A482869E5894A09C5860591914588E8A9CA8A482A8B0584AE658508E8A9C9AA68E40CECADCC8D2DAF4406452029E9E9E27B934B3B4B71F1E24A31427A91424A9A12620A7259427B934B3B4B7149624A9A12620A7259424B
310
A32B6949496111116111711149F1E24BA32B69F00808200111A000140560052F47454E545241434F2C4A504E2C302C582C47454E54524154582C25732C2847454E4D53472067656E64696D7A20332900010100002054000280AC80A5E8E8A9CA8A482869E5894A09C586058B2588E8A9CA8A482A8B0584AE658508E8A9C9AA
310
68E40CECADCC8D2DAF4406852000202000040E800050152014BD1D15395149050D3CB1294138B0C0B148B11D15395149055160B095CCB0A11D1539354D1C819D95B991A5B5E880D8A400040400008250000A0507A6029823A2A72A2920A1A79625282716181641E99623A2A72A2920AA2C1612B9961423A2A726A9A39033B2
310
B73234B6BD101B948000808180105A000140A0F4C053047454E545241434F2C4A504E2C302C83D32C47454E54524154582C25732C2847454E4D53472067656E64696D7A203829000101010020F400028248704B5F00A668E8A9CA8A482869E5894A09C58605921C12D7C588E8A9CA8A482A8B0584AE658508E8A9C9AA68E40
310
CECADCC8D2DAF440646052000200080043280005048B4B8A69014CD1D15395149050D3CB1294138B0C0B22D2E29A4B11D15395149055160B095CCB0A11D1539354D1C819D95B991A5B5E880C8C4A4000400100086D0000A09196926BE029923A2A72A2920A1A796252827161816465A49AF9623A2A72A2920AA2C1612B9961
310
423A2A726A9A39033B2B73234B6BD10189480A02620202080043E80005048D8096DA014CD1D15395149050D3CB1294138B0C0B236025B68B11D15395149055160B095CCB0A11D1539354D1C819D95B991A5B5E880C4D0A4000404140280D0000A190687072706CD06C5069D06B0029DA3A2A72A2920A1A7962528271618164
310
1A1C1C9C1B341B141A741AC1623A2A72A2920AA2C1612B9961423A2A726A9A39033B2B73234B6BD10189A94800080820050EA000143A322A0D0E0E4E0D9A0D8A0D3A0D60053D47454E545241434F2C4A504E2C302C8C8A8343839383668362834E83582C47454E54524154582C25732C2847454E4D53472067656E64696D7A
310
2031372900010105002274000281464500A628E8A9CA8A482869E5894A09C5860591914588E8A9CA8A482A8B0584AE658508E8A9C9AA68E40CECADCC8D2DAF440626C52000202080044A8000504909497CA014CD1D15395149050D3CB1294138B0C0B242525F28B11D15395149055160B095CCB0A11D1539354D1C819D95B9
310
91A5B5E880C4E4A400040418008A521E000000000000001CA040C00000000000034408080000000000006881010000000000000D102040000000000001A204080000000000003440818000000000000728103000000000000125020600000000004028A040000000000000034408000000000000004881000000000000000D
310
102000000000000001A204000000000000003440818000000000000508143C0000000000000039408180000000000006881030000000000000D102060000000000001A2040C00000000000034408180000000000006881030000000000000E5020600000000000024A040C0000000000805140800000000000000688100000
310
00000000009102000000000000001A2040000000000000034408180000000000006881030000000000000A10284220000000878000002020000008380000020400000081800000208000000828000002028900000000
340
0
340
0
340
0
340
0
340
180
340
180
 94
        0
  0
ACAD_PROXY_OBJECT
  5
A0BF
330
A0AB
100
AcDbProxyObject
 90
      499
 91
      537
 95
       25
 70
     0
 93
     3042
310
5DD9740D29254D064A49535F413342929254D7D512551311505134A49535F42525F5265766973696F6E6C6973744190F4134522028323937783231306D6D2941D29254D7D04D1490E41312028353934783834316D6D2941929254D7D04C50E41332028323937783432306D6D2941929254D7D04CD0F41344C2028323130783
310
239376D6D2941D29254D7D04D1310E41322028343230783539346D6D2941929254D7D04C90F4130202838343178313138396D6D2941929254D7D04C10243129254C82557247A25E4C81050A4A49535F5449544C454143129254C82557247A25E4C81090A4A49535F5449544C45424110E979A97F0838A835883675F42525F4
310
4D29254D7D09497D4995D9A5CDA5BDB9B1A5CDD10E979A97F0838A835883675F54525F44D29254D7D51497D4995D9A5CDA5BDB9B1A5CDD10E979A97F0838A835883675F424C5F44D29254D7D09317D4995D9A5CDA5BDB9B1A5CDD10E979A97F0838A835883675F544C5F44D29254D7D51317D4995D9A5CDA5BDB9B1A5CDD00
  0
ACAD_PROXY_OBJECT
  5
9D40
330
9D37
100
AcDbProxyObject
 90
      499
 91
      602
 95
       25
 70
     0
 93
     2680
310
5DE0143A0D960E4E0DDA0E32056E0D9C80C4043A013D2525633C486F6C653A63746469613E2078203C486F6C653A637464657074683E20555C503C696628657175616C28486F6C653A7461707065642C223022292C22252563222C486F6C653A6E6F6D696E616C202220782022293E3C696628657175616C28486F6C653A74
310
61707065642C223022292C486F6C653A6469612C486F6C653A706974636864657363293E3C696628657175616C28486F6C653A7461707065642C223122292C22207820222C2222293E3C696628657175616C28486F6C653A7461707065642C223122292C486F6C653A74617064657074682C2222293E203C69662865717561
310
6C28486F6C653A7465726D696E6174696F6E2C223022292C22202F20222C2222293E3C696628657175616C28486F6C653A7465726D696E6174696F6E2C223022292C486F6C653A64657074682C2222293E
  0
ACAD_PROXY_OBJECT
  5
9D41
330
9D37
100
AcDbProxyObject
 90
      499
 91
      602
 95
       25
 70
     0
 93
     2688
310
5DE0143A0D960E4E0DDA0E32056E0D9C80C4043B013D2525633C486F6C653A63746469613E2078203C486F6C653A6374616E676C653E2525645C503C696628657175616C28486F6C653A7461707065642C223022292C22252563222C486F6C653A6E6F6D696E616C202220782022293E3C696628657175616C28486F6C653A
310
7461707065642C223022292C486F6C653A6469612C486F6C653A706974636864657363293E3C696628657175616C28486F6C653A7461707065642C223122292C22207820222C2222293E3C696628657175616C28486F6C653A7461707065642C223122292C486F6C653A74617064657074682C2222293E203C696628657175
310
616C28486F6C653A7465726D696E6174696F6E2C223022292C22202F20222C2222293E3C696628657175616C28486F6C653A7465726D696E6174696F6E2C223022292C486F6C653A64657074682C2222293E
  0
ACAD_PROXY_OBJECT
  5
9D3F
330
9D37
100
AcDbProxyObject
 90
      499
 91
      602
 95
       25
 70
     0
 93
     2392
310
5DE0143A0D960E4E0DDA0E32056E0D9C80C40416013D3C696628657175616C28486F6C653A7461707065642C223022292C22252563222C486F6C653A6E6F6D696E616C202220782022293E3C696628657175616C28486F6C653A7461707065642C223022292C486F6C653A6469612C486F6C653A706974636864657363293E
310
3C696628657175616C28486F6C653A7461707065642C223122292C22207820222C2222293E3C696628657175616C28486F6C653A7461707065642C223122292C486F6C653A74617064657074682C2222293E203C696628657175616C28486F6C653A7465726D696E6174696F6E2C223022292C22202F20222C2222293E3C69
310
6628657175616C28486F6C653A7465726D696E6174696F6E2C223022292C486F6C653A64657074682C2222293E
  0
ACAD_PROXY_OBJECT
  5
9D3E
330
9D37
100
AcDbProxyObject
 90
      499
 91
      602
 95
       25
 70
     0
 93
      344
310
5DE0143A0D960E4E0DDA0E32056E0D9C80C805173D3C535444503A444553433E203C535444503A5354443E
  0
ACAD_PROXY_OBJECT
  5
9D3D
330
9D37
100
AcDbProxyObject
 90
      499
 91
      602
 95
       25
 70
     0
 93
      256
310
5DE0143A0D960E4E0DDA0E32056E0D9C80C4050C3D3C535444503A444553433E
  0
ACAD_PROXY_OBJECT
  5
A0BA
330
A0B6
100
AcDbProxyObject
 90
      499
 91
      602
 95
       25
 70
     0
 93
     1376
310
5DE0143A0D960E4E0DDA0E32056E0D9C80C405983D3C486F6C653A6469613E3C696628657175616C28486F6C653A7465726D696E6174696F6E2C223022292C2220905B82B320222C22208368838A838B22293E3C696628657175616C28486F6C653A7465726D696E6174696F6E2C223022292C486F6C653A64657074682C22
310
22293E2C203C486F6C653A63746469613E2082B482AE82E882CC905B82B3203C486F6C653A637464657074683E
  0
ACAD_PROXY_OBJECT
  5
A0BB
330
A0B6
100
AcDbProxyObject
 90
      499
 91
      602
 95
       25
 70
     0
 93
     2072
310
5DE0143A0D960E4E0DDA0E32056E0D9C80C405EF3D3C486F6C653A6374616E676C653E252564202525633C486F6C653A63746469613E208E4D8C8A2C203C696628657175616C28486F6C653A7461707065642C223022292C22252563222C486F6C653A6E6F6D696E616C202220782022293E3C696628657175616C28486F6C
310
653A7461707065642C223022292C486F6C653A6469612C486F6C653A706974636864657363293E203C696628657175616C28486F6C653A7465726D696E6174696F6E2C223022292C22905B82B320222C222022293E3C696628657175616C28486F6C653A7465726D696E6174696F6E2C223022292C486F6C653A6465707468
310
2C2222293E
  0
ACAD_PROXY_OBJECT
  5
A0B9
330
A0B6
100
AcDbProxyObject
 90
      499
 91
      602
 95
       25
 70
     0
 93
     1752
310
5DE0143A0D960E4E0DDA0E32056E0D9C80C405C73D3C696628657175616C28486F6C653A7461707065642C223022292C22252563222C486F6C653A6E6F6D696E616C202220782022293E3C696628657175616C28486F6C653A7461707065642C223022292C486F6C653A6469612C486F6C653A706974636864657363293E20
310
3C696628657175616C28486F6C653A7465726D696E6174696F6E2C223022292C22905B82B320222C222022293E3C696628657175616C28486F6C653A7465726D696E6174696F6E2C223022292C486F6C653A64657074682C2222293E
  0
ACAD_PROXY_OBJECT
  5
A0B8
330
A0B6
100
AcDbProxyObject
 90
      499
 91
      602
 95
       25
 70
     0
 93
      344
310
5DE0143A0D960E4E0DDA0E32056E0D9C80C805173D3C535444503A444553433E203C535444503A5354443E
  0
ACAD_PROXY_OBJECT
  5
A0B7
330
A0B6
100
AcDbProxyObject
 90
      499
 91
      602
 95
       25
 70
     0
 93
      256
310
5DE0143A0D960E4E0DDA0E32056E0D9C80C4050C3D3C535444503A444553433E
  0
ENDSEC
  0
EOF
