  0
SECTION
  2
HEADER
  9
$ACADVER
  1
AC1015
  9
$ACADMAINTVER
 70
     6
  9
$DWGCODEPAGE
  3
ANSI_932
  9
$INSBASE
 10
0.0
 20
0.0
 30
0.0
  9
$EXTMIN
 10
-130.8079164527637
 20
-195.229840527083
 30
-0.0000000000000005
  9
$EXTMAX
 10
171.6033526699225
 20
39.83595014969581
 30
0.0000000000000005
  9
$LIMMIN
 10
0.0
 20
0.0
  9
$LIMMAX
 10
420.0
 20
297.0
  9
$ORTHOMODE
 70
     0
  9
$REGENMODE
 70
     1
  9
$FILLMODE
 70
     1
  9
$QTEXTMODE
 70
     0
  9
$MIRRTEXT
 70
     1
  9
$LTSCALE
 40
1.0
  9
$ATTMODE
 70
     1
  9
$TEXTSIZE
 40
10.0
  9
$TRACEWID
 40
1.0
  9
$TEXTSTYLE
  7
STANDARD
  9
$CLAYER
  8
AM_0
  9
$CELTYPE
  6
ByLayer
  9
$CECOLOR
 62
   256
  9
$CELTSCALE
 40
1.0
  9
$DISPSILH
 70
     0
  9
$DIMSCALE
 40
1.0
  9
$DIMASZ
 40
2.5
  9
$DIMEXO
 40
0.0
  9
$DIMDLI
 40
10.0
  9
$DIMRND
 40
0.0
  9
$DIMDLE
 40
0.0
  9
$DIMEXE
 40
1.0
  9
$DIMTP
 40
0.1
  9
$DIMTM
 40
0.1000000001
  9
$DIMTXT
 40
3.8
  9
$DIMCEN
 40
0.0
  9
$DIMTSZ
 40
0.0
  9
$DIMTOL
 70
     0
  9
$DIMLIM
 70
     0
  9
$DIMTIH
 70
     0
  9
$DIMTOH
 70
     0
  9
$DIMSE1
 70
     0
  9
$DIMSE2
 70
     0
  9
$DIMTAD
 70
     3
  9
$DIMZIN
 70
     1
  9
$DIMBLK
  1
Open30
  9
$DIMASO
 70
     1
  9
$DIMSHO
 70
     1
  9
$DIMPOST
  1

  9
$DIMAPOST
  1
"
  9
$DIMALT
 70
     0
  9
$DIMALTD
 70
     2
  9
$DIMALTF
 40
0.0393701
  9
$DIMLFAC
 40
1.0
  9
$DIMTOFL
 70
     1
  9
$DIMTVP
 40
0.0
  9
$DIMTIX
 70
     0
  9
$DIMSOXD
 70
     0
  9
$DIMSAH
 70
     0
  9
$DIMBLK1
  1

  9
$DIMBLK2
  1

  9
$DIMSTYLE
  2
AM_JIS
  9
$DIMCLRD
 70
   256
  9
$DIMCLRE
 70
   256
  9
$DIMCLRT
 70
     2
  9
$DIMTFAC
 40
0.71
  9
$DIMGAP
 40
1.5
  9
$DIMJUST
 70
     0
  9
$DIMSD1
 70
     0
  9
$DIMSD2
 70
     0
  9
$DIMTOLJ
 70
     0
  9
$DIMTZIN
 70
     8
  9
$DIMALTZ
 70
     0
  9
$DIMALTTZ
 70
     0
  9
$DIMUPT
 70
     0
  9
$DIMDEC
 70
     1
  9
$DIMTDEC
 70
     2
  9
$DIMALTU
 70
     2
  9
$DIMALTTD
 70
     2
  9
$DIMTXSTY
  7
STANDARD
  9
$DIMAUNIT
 70
     1
  9
$DIMADEC
 70
     1
  9
$DIMALTRND
 40
0.0
  9
$DIMAZIN
 70
     2
  9
$DIMDSEP
 70
    46
  9
$DIMATFIT
 70
     3
  9
$DIMFRAC
 70
     0
  9
$DIMLDRBLK
  1
Open30
  9
$DIMLUNIT
 70
     2
  9
$DIMLWD
 70
    -1
  9
$DIMLWE
 70
    -1
  9
$DIMTMOVE
 70
     0
  9
$LUNITS
 70
     2
  9
$LUPREC
 70
     2
  9
$SKETCHINC
 40
1.0
  9
$FILLETRAD
 40
0.794
  9
$AUNITS
 70
     1
  9
$AUPREC
 70
     5
  9
$MENU
  1
.
  9
$ELEVATION
 40
0.0
  9
$PELEVATION
 40
0.0
  9
$THICKNESS
 40
0.0
  9
$LIMCHECK
 70
     0
  9
$CHAMFERA
 40
1.0
  9
$CHAMFERB
 40
1.0
  9
$CHAMFERC
 40
20.0
  9
$CHAMFERD
 40
0.0
  9
$SKPOLY
 70
     0
  9
$TDCREATE
 40
2451943.610431667
  9
$TDUCREATE
 40
2451943.235431667
  9
$TDUPDATE
 40
2455477.758361181
  9
$TDUUPDATE
 40
2455477.383361181
  9
$TDINDWG
 40
2.0701570255
  9
$TDUSRTIMER
 40
2.0701568519
  9
$USRTIMER
 70
     1
  9
$ANGBASE
 50
0.0
  9
$ANGDIR
 70
     0
  9
$PDMODE
 70
     0
  9
$PDSIZE
 40
0.0
  9
$PLINEWID
 40
0.0
  9
$SPLFRAME
 70
     0
  9
$SPLINETYPE
 70
     6
  9
$SPLINESEGS
 70
     8
  9
$HANDSEED
  5
35386
  9
$SURFTAB1
 70
     6
  9
$SURFTAB2
 70
     6
  9
$SURFTYPE
 70
     6
  9
$SURFU
 70
     6
  9
$SURFV
 70
     6
  9
$UCSBASE
  2

  9
$UCSNAME
  2

  9
$UCSORG
 10
0.0
 20
0.0
 30
0.0
  9
$UCSXDIR
 10
1.0
 20
0.0
 30
0.0
  9
$UCSYDIR
 10
0.0
 20
1.0
 30
0.0
  9
$UCSORTHOREF
  2

  9
$UCSORTHOVIEW
 70
     0
  9
$UCSORGTOP
 10
0.0
 20
0.0
 30
0.0
  9
$UCSORGBOTTOM
 10
0.0
 20
0.0
 30
0.0
  9
$UCSORGLEFT
 10
0.0
 20
0.0
 30
0.0
  9
$UCSORGRIGHT
 10
0.0
 20
0.0
 30
0.0
  9
$UCSORGFRONT
 10
0.0
 20
0.0
 30
0.0
  9
$UCSORGBACK
 10
0.0
 20
0.0
 30
0.0
  9
$PUCSBASE
  2

  9
$PUCSNAME
  2

  9
$PUCSORG
 10
0.0
 20
0.0
 30
0.0
  9
$PUCSXDIR
 10
1.0
 20
0.0
 30
0.0
  9
$PUCSYDIR
 10
0.0
 20
1.0
 30
0.0
  9
$PUCSORTHOREF
  2

  9
$PUCSORTHOVIEW
 70
     0
  9
$PUCSORGTOP
 10
0.0
 20
0.0
 30
0.0
  9
$PUCSORGBOTTOM
 10
0.0
 20
0.0
 30
0.0
  9
$PUCSORGLEFT
 10
0.0
 20
0.0
 30
0.0
  9
$PUCSORGRIGHT
 10
0.0
 20
0.0
 30
0.0
  9
$PUCSORGFRONT
 10
0.0
 20
0.0
 30
0.0
  9
$PUCSORGBACK
 10
0.0
 20
0.0
 30
0.0
  9
$USERI1
 70
     0
  9
$USERI2
 70
     0
  9
$USERI3
 70
     0
  9
$USERI4
 70
     0
  9
$USERI5
 70
     0
  9
$USERR1
 40
0.0
  9
$USERR2
 40
0.0
  9
$USERR3
 40
0.0
  9
$USERR4
 40
0.0
  9
$USERR5
 40
0.0
  9
$WORLDVIEW
 70
     1
  9
$SHADEDGE
 70
     3
  9
$SHADEDIF
 70
    70
  9
$TILEMODE
 70
     1
  9
$MAXACTVP
 70
    64
  9
$PINSBASE
 10
0.0
 20
0.0
 30
0.0
  9
$PLIMCHECK
 70
     0
  9
$PEXTMIN
 10
1.000000000000000E+20
 20
1.000000000000000E+20
 30
1.000000000000000E+20
  9
$PEXTMAX
 10
-1.000000000000000E+20
 20
-1.000000000000000E+20
 30
-1.000000000000000E+20
  9
$PLIMMIN
 10
0.0
 20
0.0
  9
$PLIMMAX
 10
420.0
 20
297.0
  9
$UNITMODE
 70
     0
  9
$VISRETAIN
 70
     1
  9
$PLINEGEN
 70
     0
  9
$PSLTSCALE
 70
     1
  9
$TREEDEPTH
 70
  3020
  9
$CMLSTYLE
  2
Standard
  9
$CMLJUST
 70
     0
  9
$CMLSCALE
 40
20.0
  9
$PROXYGRAPHICS
 70
     1
  9
$MEASUREMENT
 70
     1
  9
$CELWEIGHT
370
    -1
  9
$ENDCAPS
280
     0
  9
$JOINSTYLE
280
     0
  9
$LWDISPLAY
290
     0
  9
$INSUNITS
 70
     4
  9
$HYPERLINKBASE
  1

  9
$STYLESHEET
  1
sei_cad.ctb
  9
$XEDIT
290
     1
  9
$CEPSNTYPE
380
     0
  9
$PSTYLEMODE
290
     1
  9
$FINGERPRINTGUID
  2
{C77AB3BE-9CA2-11D3-BAF3-006094EB760E}
  9
$VERSIONGUID
  2
{453C73EC-1523-4A86-AC88-8773F9DD183D}
  9
$EXTNAMES
290
     1
  9
$PSVPSCALE
 40
0.0
  9
$OLESTARTUP
290
     0
  0
ENDSEC
  0
SECTION
  2
CLASSES
  0
CLASS
  1
ACDBDICTIONARYWDFLT
  2
AcDbDictionaryWithDefault
  3
ObjectDBX Classes
 90
        0
280
     0
281
     0
  0
CLASS
  1
ACDBPLACEHOLDER
  2
AcDbPlaceHolder
  3
ObjectDBX Classes
 90
        0
280
     0
281
     0
  0
CLASS
  1
LAYOUT
  2
AcDbLayout
  3
ObjectDBX Classes
 90
        0
280
     0
281
     0
  0
CLASS
  1
ACME_DOCUMENT
  2
AcMeDbDoc
  3
AcMeServices
 90
        0
280
     1
281
     0
  0
CLASS
  1
ACMESCOPE
  2
AcMeScope
  3
AcMeServices
 90
        0
280
     1
281
     0
  0
CLASS
  1
ACMECOMMANDHISTORY
  2
AcMeCommandHistory
  3
AcMeServices
 90
        0
280
     1
281
     0
  0
CLASS
  1
DICTIONARYVAR
  2
AcDbDictionaryVar
  3
ObjectDBX Classes
 90
        0
280
     0
281
     0
  0
CLASS
  1
ACIMSYSVARMAN
  2
AcImSysVarManager
  3
AcMeServices
 90
        0
280
     1
281
     0
  0
CLASS
  1
ACIMREALSYSVAR
  2
AcImRealSysVar
  3
AcMeServices
 90
        0
280
     1
281
     0
  0
CLASS
  1
ACIMINTSYSVAR
  2
AcImIntSysVar
  3
AcMeServices
 90
        0
280
     1
281
     0
  0
CLASS
  1
ACMEDRAWINGMAN
  2
AcMeDrawingMan
  3
AcMeServices
 90
        0
280
     1
281
     0
  0
CLASS
  1
ACMEVIEW
  2
AcMeView
  3
AcMeServices
 90
        0
280
     1
281
     0
  0
CLASS
  1
ACDBENTITYCACHE
  2
AcMeEntityCache
  3
AcMeServices
 90
        0
280
     1
281
     0
  0
CLASS
  1
GSMANAGER
  2
AcMeGSManager
  3
AcMeServices
 90
        0
280
     1
281
     0
  0
CLASS
  1
AMDTINTERNALREACTOR
  2
AmdtInternalReactor
  3
AcMeServices
 90
        0
280
     1
281
     0
  0
CLASS
  1
ACMESTATEMGR
  2
AcMeStateMgr
  3
AcMeServices
 90
        0
280
     1
281
     0
  0
CLASS
  1
ACME_DATABASE
  2
AcMeDbDatabase
  3
AcMeServices
 90
        0
280
     1
281
     0
  0
CLASS
  1
ACRFINSADJUSTERMGR
  2
AcRfInsAdjusterMgr
  3
AcMeServices
 90
        0
280
     1
281
     0
  0
CLASS
  1
AMGSETTINGSOBJ
  2
AmgSettingsObj
  3
"AcadM|Product Description: AutoCAD Mechanical 2000|Company: Autodesk"
 90
        0
280
     1
281
     0
  0
CLASS
  1
AMGOBJPROPCFG
  2
AmgObjPropCfg
  3
"AmgLay|Product Description: AutoCAD Mechanical 2000|Company: Autodesk"
 90
        1
280
     1
281
     0
  0
CLASS
  1
ACMDATADICTIONARY
  2
AcmDataDictionary
  3
"AcmSymBB|Product Description: AutoCAD Mechanical 2004 DX|Company: Autodesk"
 90
        0
280
     1
281
     0
  0
CLASS
  1
ACMDATAENTRYBLOCK
  2
AcmDataEntryBlock
  3
"AcmSymBB|Product Description: AutoCAD Mechanical 2004 DX|Company: Autodesk"
 90
        0
280
     1
281
     0
  0
CLASS
  1
ACIMSTRSYSVAR
  2
AcImStrSysVar
  3
AcMeServices
 90
        0
280
     1
281
     0
  0
CLASS
  1
ACAMGFILTERDAT
  2
AcAmgFilterDat
  3
"AcadM|Product Description: AutoCAD Mechanical 2000|Company: Autodesk"
 90
        0
280
     1
281
     0
  0
CLASS
  1
LAYER_INDEX
  2
AcDbLayerIndex
  3
ObjectDBX Classes
 90
        0
280
     0
281
     0
  0
CLASS
  1
IDBUFFER
  2
AcDbIdBuffer
  3
ObjectDBX Classes
 90
        0
280
     0
281
     0
  0
CLASS
  1
ACMSTANDARDJIS
  2
AcmStandardJIS
  3
"Amdt_StdImp|Product Description: AutoCAD Mechanical 2004 DX|Company: Autodesk"
 90
        0
280
     1
281
     0
  0
CLASS
  1
ACMSURFSTANDARDJIS
  2
AcmSurfTextStdJIS
  3
"Amdt_StdImp|Product Description: AutoCAD Mechanical 2004 DX|Company: Autodesk"
 90
        0
280
     1
281
     0
  0
CLASS
  1
ACMFCFSTANDARDJIS
  2
AcmFCFStdJIS
  3
"Amdt_StdImp|Product Description: AutoCAD Mechanical 2004 DX|Company: Autodesk"
 90
        0
280
     1
281
     0
  0
CLASS
  1
ACMWELDSTANDARDJIS
  2
AcmWeldingStdJIS
  3
"Amdt_StdImp|Product Description: AutoCAD Mechanical 2004 DX|Company: Autodesk"
 90
        0
280
     1
281
     0
  0
CLASS
  1
ACMIDSTANDARDJIS
  2
AcmIdStdJIS
  3
"Amdt_StdImp|Product Description: AutoCAD Mechanical 2004 DX|Company: Autodesk"
 90
        0
280
     1
281
     0
  0
CLASS
  1
ACMDATUMSTANDARDJIS
  2
AcmDatumStdJIS
  3
"Amdt_StdImp|Product Description: AutoCAD Mechanical 2004 DX|Company: Autodesk"
 90
        0
280
     1
281
     0
  0
CLASS
  1
ACMBOMSTANDARDJIS
  2
AcmBOMStdJIS
  3
"Amdt_StdImp|Product Description: AutoCAD Mechanical 2004 DX|Company: Autodesk"
 90
        0
280
     1
281
     0
  0
CLASS
  1
AMDTNOTE
  2
AmdtNote
  3
"AcmSymBB|Product Description: AutoCAD Mechanical 2004 DX|Company: Autodesk"
 90
     1023
280
     1
281
     1
  0
CLASS
  1
ACMDATUMID
  2
AcmDatumId
  3
"AcmSymBB|Product Description: AutoCAD Mechanical 2004 DX|Company: Autodesk"
 90
     1023
280
     1
281
     1
  0
CLASS
  1
TABLESTYLE
  2
AcDbTableStyle
  3
ObjectDBX Classes
 90
     2047
280
     0
281
     0
  0
CLASS
  1
ACGREFMASTER
  2
AcGrefMaster
  3
AcAttribServices
 90
        0
280
     1
281
     0
  0
CLASS
  1
AM_DRAWING_MGR
  2
AcDmDwgMgr
  3
AcMechDwgViewMgmt
 90
        0
280
     1
281
     0
  0
CLASS
  1
AM_DWG_DOCUMENT
  2
AcDmDwgDocument
  3
AcMechDwgViewMgmt
 90
        0
280
     1
281
     0
  0
CLASS
  1
AM_DWG_SHEET
  2
AcDmSheet
  3
AcMechDwgViewMgmt
 90
        0
280
     1
281
     0
  0
CLASS
  1
AM_VIEWDIMPARMAP
  2
AcDmViewDimParMap
  3
AcMechDwgViewMgmt
 90
        0
280
     1
281
     0
  0
CLASS
  1
AM_DWGMGR_NAME
  2
AcDmDwgMgrName
  3
AcMechDwgViewMgmt
 90
        0
280
     1
281
     0
  0
CLASS
  1
ACGREFACADMASTER
  2
AcGrefacadMaster
  3
AcGrefServices
 90
        0
280
     1
281
     0
  0
CLASS
  1
AMDTMENUSTATEMGR
  2
AmdtMenuStateMgr
  3
McadcomServices
 90
        0
280
     1
281
     0
  0
CLASS
  1
AMDTMCOMMENUSTATE
  2
AmdtMcomMenuState
  3
McadcomServices
 90
        0
280
     1
281
     0
  0
CLASS
  1
AMIMASTER
  2
AmiMaster
  3
AmiServices
 90
        0
280
     1
281
     0
  0
CLASS
  1
MAPIAMMOUDLE
  2
MApiAmModule
  3
MApiAmServices
 90
        0
280
     1
281
     0
  0
CLASS
  1
AMDTADMENUSTATE
  2
AmdtAdMenuState
  3
DesignerServices
 90
        0
280
     1
281
     0
  0
CLASS
  1
ADAPPL
  2
AcAdAppl
  3
DesignerServices
 90
        0
280
     1
281
     0
  0
CLASS
  1
DEPMGR
  2
AcAdDepMgr
  3
DesignerServices
 90
        0
280
     1
281
     0
  0
CLASS
  1
PARAMMGR
  2
AcAdParamMgr
  3
DesignerServices
 90
        0
280
     1
281
     0
  0
CLASS
  1
PARAMSCOPE
  2
AcAdParamScope
  3
DesignerServices
 90
        0
280
     1
281
     0
  0
CLASS
  1
NAMEDAPPL
  2
AcAdNamedAppl
  3
DesignerServices
 90
        0
280
     1
281
     0
  0
CLASS
  1
AMDTDMMENUSTATE
  2
AmdtDmMenuState
  3
AcMechDwgViewMgmt
 90
        0
280
     1
281
     0
  0
CLASS
  1
AMDTAMMENUSTATE
  2
AmdtAmMenuState
  3
DesignerAssemblies
 90
        0
280
     1
281
     0
  0
CLASS
  1
ACAMPROJECT
  2
AcAmProject
  3
DesignerAssemblies
 90
        0
280
     1
281
     0
  0
CLASS
  1
ACAMGRCOMPDEF
  2
AcAmGrCompDef
  3
DesignerAssemblies
 90
        0
280
     1
281
     0
  0
CLASS
  1
ACCMCONTEXT
  2
AcCmContext
  3
DesignerAssemblies
 90
        0
280
     1
281
     0
  0
CLASS
  1
ACAMCOMPDEF
  2
AcAmCompDef
  3
DesignerAssemblies
 90
        0
280
     1
281
     0
  0
CLASS
  1
ACAMCOMPDEFMGR
  2
AcAmCompDefMgr
  3
DesignerAssemblies
 90
        0
280
     1
281
     0
  0
CLASS
  1
AMCONTEXTMGR
  2
AcAmContextMgr
  3
DesignerAssemblies
 90
        0
280
     1
281
     0
  0
CLASS
  1
ACAMCONTEXTMODELER
  2
AcAmContextModeler
  3
DesignerAssemblies
 90
        0
280
     1
281
     0
  0
CLASS
  1
ACAMGTITLESTD
  2
AcAmgTitleStd
  3
"TITLEAPP"
 90
        0
280
     1
281
     0
  0
CLASS
  1
ACMDETAILSTANDARDJIS
  2
AmdtDetailSymStdJIS
  3
"Amdt_StdImp|Product Description: AutoCAD Mechanical 2004 DX|Company: Autodesk"
 90
        0
280
     1
281
     0
  0
CLASS
  1
ACMSECTIONSTANDARDJIS
  2
AmdtSectionSymStdJIS
  3
"Amdt_StdImp|Product Description: AutoCAD Mechanical 2004 DX|Company: Autodesk"
 90
        0
280
     1
281
     0
  0
CLASS
  1
ACMCENTERLINESTANDARDJIS
  2
AmdtCenterLineStdJIS
  3
"Amdt_StdImp|Product Description: AutoCAD Mechanical 2004 DX|Company: Autodesk"
 90
        0
280
     1
281
     0
  0
CLASS
  1
ACMTHREADLINESTANDARDJIS
  2
AmdtThreadLineStdJIS
  3
"Amdt_StdImp|Product Description: AutoCAD Mechanical 2004 DX|Company: Autodesk"
 90
        0
280
     1
281
     0
  0
CLASS
  1
ACMNOTESTANDARDJIS
  2
AmdtNoteStdJIS
  3
"Amdt_StdImp|Product Description: AutoCAD Mechanical 2004 DX|Company: Autodesk"
 90
        0
280
     1
281
     0
  0
CLASS
  1
AMDTNOTETEMPLATEDB
  2
AmdtNoteTemplateDB
  3
AMDT_STDIMP_MODULE_NAME
 90
        0
280
     1
281
     0
  0
CLASS
  1
ACAMGLAYSTD
  2
AcAmgLayStd
  3
"AcAmgLayStd|Product Description: AutoCAD Mechanical 2000|Company: Autodesk"
 90
        0
280
     1
281
     0
  0
CLASS
  1
ACAMGDIMSTD
  2
AcAmgDimStd
  3
"AcAmgDimStd|Product Description: AutoCAD Mechanical 2000|Company: Autodesk"
 90
        0
280
     1
281
     0
  0
CLASS
  1
ACAMGHOLECHARTSTDJIS
  2
AcAmgHoleChartStdJIS
  3
ACMSYMBB_MODULE_NAME
 90
        0
280
     1
281
     0
  0
CLASS
  1
CATALOGSTATE
  2
AcAmCatalogState
  3
DesignerAssemblies
 90
        0
280
     1
281
     0
  0
CLASS
  1
ACAMGRCOMPDEFSET
  2
AcAmGrCompDefSet
  3
DesignerAssemblies
 90
        0
280
     1
281
     0
  0
CLASS
  1
AMDTBROWSERDBTAB
  2
AmdtBrowserDbTab
  3
McadcomServices
 90
        0
280
     1
281
     0
  0
CLASS
  1
CBROWSERAPPOBJECT
  2
CBrowserAppObject
  3
McadcomServices
 90
        0
280
     1
281
     0
  0
CLASS
  1
DM_PLACEHOLDER
  2
AcDmSelsetPlaceholder
  3
AcMechDwgViewMgmt
 90
        0
280
     1
281
     0
  0
CLASS
  1
SORTENTSTABLE
  2
AcDbSortentsTable
  3
ObjectDBX Classes
 90
        0
280
     0
281
     0
  0
CLASS
  1
ACMSTANDARDISO
  2
AcmStandardISO
  3
"Amdt_StdImp|Product Description: AutoCAD Mechanical 2004 DX|Company: Autodesk"
 90
        0
280
     1
281
     0
  0
CLASS
  1
AMDTEDGESTANDARDISO13715
  2
AmdtEdgeStdISO13715
  3
"Amdt_StdImp|Product Description: AutoCAD Mechanical 2004 DX|Company: Autodesk"
 90
        0
280
     1
281
     0
  0
CLASS
  1
ACMSURFSTANDARDISO
  2
AcmSurfTextStdISO
  3
"Amdt_StdImp|Product Description: AutoCAD Mechanical 2004 DX|Company: Autodesk"
 90
        0
280
     1
281
     0
  0
CLASS
  1
ACMFCFSTANDARDISO
  2
AcmFCFStdISO
  3
"Amdt_StdImp|Product Description: AutoCAD Mechanical 2004 DX|Company: Autodesk"
 90
        0
280
     1
281
     0
  0
CLASS
  1
ACMWELDSTANDARDISO
  2
AcmWeldingStdISO
  3
"Amdt_StdImp|Product Description: AutoCAD Mechanical 2004 DX|Company: Autodesk"
 90
        0
280
     1
281
     0
  0
CLASS
  1
ACMIDSTANDARDISO
  2
AcmIdStdISO
  3
"Amdt_StdImp|Product Description: AutoCAD Mechanical 2004 DX|Company: Autodesk"
 90
        0
280
     1
281
     0
  0
CLASS
  1
ACMDATUMSTANDARDISO
  2
AcmDatumStdISO
  3
"Amdt_StdImp|Product Description: AutoCAD Mechanical 2004 DX|Company: Autodesk"
 90
        0
280
     1
281
     0
  0
CLASS
  1
ACMBOMSTANDARDISO
  2
AcmBOMStdISO
  3
"Amdt_StdImp|Product Description: AutoCAD Mechanical 2004 DX|Company: Autodesk"
 90
        0
280
     1
281
     0
  0
CLASS
  1
ACMDETAILSTANDARDISO
  2
AmdtDetailSymStdISO
  3
"Amdt_StdImp|Product Description: AutoCAD Mechanical 2004 DX|Company: Autodesk"
 90
        0
280
     1
281
     0
  0
CLASS
  1
ACMSECTIONSTANDARDISO
  2
AmdtSectionSymStdISO
  3
"Amdt_StdImp|Product Description: AutoCAD Mechanical 2004 DX|Company: Autodesk"
 90
        0
280
     1
281
     0
  0
CLASS
  1
ACMCENTERLINESTANDARDISO
  2
AmdtCenterLineStdISO
  3
"Amdt_StdImp|Product Description: AutoCAD Mechanical 2004 DX|Company: Autodesk"
 90
        0
280
     1
281
     0
  0
CLASS
  1
ACMTHREADLINESTANDARDISO
  2
AmdtThreadLineStdISO
  3
"Amdt_StdImp|Product Description: AutoCAD Mechanical 2004 DX|Company: Autodesk"
 90
        0
280
     1
281
     0
  0
CLASS
  1
ACMNOTESTANDARDISO
  2
AmdtNoteStdISO
  3
"Amdt_StdImp|Product Description: AutoCAD Mechanical 2004 DX|Company: Autodesk"
 90
        0
280
     1
281
     0
  0
CLASS
  1
ACAMGHOLECHARTSTDISO
  2
AcAmgHoleChartStdISO
  3
ACMSYMBB_MODULE_NAME
 90
        0
280
     1
281
     0
  0
CLASS
  1
AMDTFORMULAUPDATEDISPATCHER
  2
AmdtFormulaUpdateDispatcher
  3
AcMeServices
 90
        0
280
     1
281
     0
  0
ENDSEC
  0
SECTION
  2
TABLES
  0
TABLE
  2
VPORT
  5
8
330
0
100
AcDbSymbolTable
 70
     3
  0
VPORT
  5
3537F
330
8
100
AcDbSymbolTableRecord
100
AcDbViewportTableRecord
  2
*Active
 70
     0
 10
0.0
 20
0.0
 11
1.0
 21
1.0
 12
99.18226207541466
 22
-82.22754733045088
 13
0.0
 23
0.0
 14
2.5
 24
2.5
 15
10.0
 25
10.0
 16
0.0
 26
0.0
 36
1.0
 17
0.0
 27
0.0
 37
0.0
 40
327.1979392990747
 41
1.943262411347518
 42
50.0
 43
0.0
 44
0.0
 50
0.0
 51
0.0
 71
    16
 72
 20000
 73
     1
 74
     3
 75
     0
 76
     0
 77
     0
 78
     0
281
     0
 65
     1
110
0.0
120
0.0
130
0.0
111
1.0
121
0.0
131
0.0
112
0.0
122
1.0
132
0.0
 79
     0
146
0.0
  0
ENDTAB
  0
TABLE
  2
LTYPE
  5
5
330
0
100
AcDbSymbolTable
 70
    16
  0
LTYPE
  5
14
330
5
100
AcDbSymbolTableRecord
100
AcDbLinetypeTableRecord
  2
ByBlock
 70
     0
  3

 72
    65
 73
     0
 40
0.0
  0
LTYPE
  5
15
330
5
100
AcDbSymbolTableRecord
100
AcDbLinetypeTableRecord
  2
ByLayer
 70
     0
  3

 72
    65
 73
     0
 40
0.0
  0
LTYPE
  5
16
330
5
100
AcDbSymbolTableRecord
100
AcDbLinetypeTableRecord
  2
Continuous
 70
     0
  3
Solid line
 72
    65
 73
     0
 40
0.0
  0
LTYPE
  5
43
330
5
100
AcDbSymbolTableRecord
100
AcDbLinetypeTableRecord
  2
AM_ISO02W050
 70
     0
  3
__ __ __ __ __ __ __ __ __ __ __ __ __ __ __
 72
    65
 73
     2
 40
7.5
 49
6.0
 74
     0
 49
-1.5
 74
     0
  0
LTYPE
  5
44
330
5
100
AcDbSymbolTableRecord
100
AcDbLinetypeTableRecord
  2
AM_ISO08W050
 70
     0
  3
____ . ____ . ____ . ____ . ____ . ____ . ____
 72
    65
 73
     4
 40
18.0
 49
12.0
 74
     0
 49
-1.5
 74
     0
 49
3.0
 74
     0
 49
-1.5
 74
     0
  0
LTYPE
  5
45
330
5
100
AcDbSymbolTableRecord
100
AcDbLinetypeTableRecord
  2
AM_ISO09W050
 70
     0
  3
_____ . . _____ . . _____ . . ____ .. ____
 72
    65
 73
     6
 40
22.5
 49
12.0
 74
     0
 49
-1.5
 74
     0
 49
3.0
 74
     0
 49
-1.5
 74
     0
 49
3.0
 74
     0
 49
-1.5
 74
     0
  0
LTYPE
  5
46
330
5
100
AcDbSymbolTableRecord
100
AcDbLinetypeTableRecord
  2
Amconstr
 70
     0
  3
_______________________
 72
    65
 73
     2
 40
9999.0
 49
9999.0
 74
     0
 49
0.0
 74
     0
  0
LTYPE
  5
47
330
5
100
AcDbSymbolTableRecord
100
AcDbLinetypeTableRecord
  2
AM_ISO02W050x2
 70
     0
  3
 _ _ _ _ _ _ _ _ _ _ _ _
 72
    65
 73
     2
 40
3.75
 49
3.0
 74
     0
 49
-0.75
 74
     0
  0
LTYPE
  5
48
330
5
100
AcDbSymbolTableRecord
100
AcDbLinetypeTableRecord
  2
AM_ISO08W050x2
 70
     0
  3
__ . __ . __ . __ . __ . __
 72
    65
 73
     4
 40
9.0
 49
6.0
 74
     0
 49
-0.75
 74
     0
 49
1.5
 74
     0
 49
-0.75
 74
     0
  0
LTYPE
  5
4B
330
5
100
AcDbSymbolTableRecord
100
AcDbLinetypeTableRecord
  2
Amzigzag
 70
     0
  3
/\/-/\/-/\/-/\/-/\/-/\/
 72
    65
 73
     2
 40
11.0001
 49
0.0001
 74
     4
 75
   135
340
4A
 46
0.04
 50
0.0
 44
0.0
 45
0.0
 49
-11.0
 74
     0
  0
LTYPE
  5
188
330
5
100
AcDbSymbolTableRecord
100
AcDbLinetypeTableRecord
  2
ACJISTGB
 70
     0
  3
__ . . __ . .
 72
    65
 73
     6
 40
9.0
 49
4.0
 74
     0
 49
-1.0
 74
     0
 49
1.0
 74
     0
 49
-1.0
 74
     0
 49
1.0
 74
     0
 49
-1.0
 74
     0
  0
LTYPE
  5
189
330
5
100
AcDbSymbolTableRecord
100
AcDbLinetypeTableRecord
  2
ACJISTGL
 70
     0
  3
_ _ _ _ _
 72
    65
 73
     2
 40
3.0
 49
2.0
 74
     0
 49
-1.0
 74
     0
  0
LTYPE
  5
652
330
5
100
AcDbSymbolTableRecord
100
AcDbLinetypeTableRecord
  2
CENTER
 70
     0
  3
____ _ ____ _ ____ _ ____ _ ____ _ ____ _ ____
 72
    65
 73
     4
 40
17.5
 49
13.0
 74
     0
 49
-1.5
 74
     0
 49
1.5
 74
     0
 49
-1.5
 74
     0
  0
LTYPE
  5
12AB
330
5
100
AcDbSymbolTableRecord
100
AcDbLinetypeTableRecord
  2
HIDDEN
 70
     0
  3
Hidden __ __ __ __ __ __ __ __ __ __ __ __ __ _
 72
    65
 73
     2
 40
0.375
 49
0.25
 74
     0
 49
-0.125
 74
     0
  0
LTYPE
  5
12AC
330
5
100
AcDbSymbolTableRecord
100
AcDbLinetypeTableRecord
  2
PHANTOM2
 70
     0
  3
Phantom (.5x) ___ _ _ ___ _ _ ___ _ _ ___ _ _
 72
    65
 73
     6
 40
1.25
 49
0.625
 74
     0
 49
-0.125
 74
     0
 49
0.125
 74
     0
 49
-0.125
 74
     0
 49
0.125
 74
     0
 49
-0.125
 74
     0
  0
LTYPE
  5
1341A
330
5
100
AcDbSymbolTableRecord
100
AcDbLinetypeTableRecord
  2
ACISOTGB
 70
     0
  3
__ . . __ . .
 72
    65
 73
     6
 40
9.0
 49
4.0
 74
     0
 49
-1.0
 74
     0
 49
1.0
 74
     0
 49
-1.0
 74
     0
 49
1.0
 74
     0
 49
-1.0
 74
     0
  0
LTYPE
  5
233DE
330
5
100
AcDbSymbolTableRecord
100
AcDbLinetypeTableRecord
  2
ACISOWELD
 70
     0
  3
_ _ _ _ _
 72
    65
 73
     2
 40
2.0
 49
2.0
 74
     0
 49
-1.0
 74
     0
  0
LTYPE
  5
233DF
330
5
100
AcDbSymbolTableRecord
100
AcDbLinetypeTableRecord
  2
ACISOTGL
 70
     0
  3
_ _ _ _ _
 72
    65
 73
     2
 40
3.0
 49
2.0
 74
     0
 49
-1.0
 74
     0
  0
ENDTAB
  0
TABLE
  2
LAYER
  5
2
102
{ACAD_XDICTIONARY
360
233EB
102
}
330
0
100
AcDbSymbolTable
 70
     8
  0
LAYER
  5
10
330
2
100
AcDbSymbolTableRecord
100
AcDbLayerTableRecord
  2
0
 70
     0
 62
     7
  6
Continuous
370
    -3
390
F
  0
LAYER
  5
7D
330
2
100
AcDbSymbolTableRecord
100
AcDbLayerTableRecord
  2
AM_5
 70
     0
 62
     3
  6
Continuous
370
    13
390
F
  0
LAYER
  5
7F
330
2
100
AcDbSymbolTableRecord
100
AcDbLayerTableRecord
  2
Defpoints
 70
     0
 62
     7
  6
Continuous
290
     0
370
    -3
390
F
  0
LAYER
  5
12B1
330
2
100
AcDbSymbolTableRecord
100
AcDbLayerTableRecord
  2
AM_0
 70
     0
 62
     7
  6
Continuous
370
    30
390
F
  0
LAYER
  5
18A4
330
2
100
AcDbSymbolTableRecord
100
AcDbLayerTableRecord
  2
AM_7
 70
     0
 62
     4
  6
AM_ISO08W050
370
    13
390
F
  0
LAYER
  5
18A5
330
2
100
AcDbSymbolTableRecord
100
AcDbLayerTableRecord
  2
AM_6
 70
     0
 62
     2
  6
Continuous
370
    30
390
F
  0
LAYER
  5
263B
330
2
100
AcDbSymbolTableRecord
100
AcDbLayerTableRecord
  2
AM_3
 70
     0
 62
     6
  6
AM_ISO02W050
370
    13
390
F
  0
ENDTAB
  0
TABLE
  2
STYLE
  5
3
330
0
100
AcDbSymbolTable
 70
     6
  0
STYLE
  5
11
330
3
100
AcDbSymbolTableRecord
100
AcDbTextStyleTableRecord
  2
STANDARD
 70
     0
 40
0.0
 41
1.0
 50
0.0
 71
     0
 42
10.0
  3
ISOCP.SHX
  4
EXTFONT.SHX
  0
STYLE
  5
4A
330
3
100
AcDbSymbolTableRecord
100
AcDbTextStyleTableRecord
  2

 70
     1
 40
0.0
 41
1.0
 50
0.0
 71
     0
 42
2.5
  3
ltypeshp.shx
  4

  0
STYLE
  5
180
330
3
100
AcDbSymbolTableRecord
100
AcDbTextStyleTableRecord
  2
ACJISTS
 70
     0
 40
1.0
 41
1.0
 50
0.0
 71
     0
 42
2.5
  3
isocp.shx
  4
bigfont.shx
  0
STYLE
  5
187
330
3
100
AcDbSymbolTableRecord
100
AcDbTextStyleTableRecord
  2
ACJISGDT
 70
     0
 40
0.0
 41
1.0
 50
0.0
 71
     0
 42
2.5
  3
amgdt.shx
  4

  0
STYLE
  5
233E2
330
3
100
AcDbSymbolTableRecord
100
AcDbTextStyleTableRecord
  2
ACISOTS
 70
     0
 40
1.0
 41
1.0
 50
0.0
 71
     0
 42
2.5
  3
isocp.shx
  4
extfont.shx
  0
STYLE
  5
233E3
330
3
100
AcDbSymbolTableRecord
100
AcDbTextStyleTableRecord
  2
ACISOGDT
 70
     0
 40
0.0
 41
1.0
 50
0.0
 71
     0
 42
2.5
  3
amgdt.shx
  4

  0
ENDTAB
  0
TABLE
  2
VIEW
  5
6
330
0
100
AcDbSymbolTable
 70
     6
  0
VIEW
  5
A30
330
6
100
AcDbSymbolTableRecord
100
AcDbViewTableRecord
  2
AM_VIEW1
 70
     0
 40
148.5
 10
108.6929657794677
 20
222.75
 41
217.3859315589354
 11
0.0
 21
0.0
 31
1.0
 12
0.0
 22
0.0
 32
0.0
 42
50.0
 43
0.0
 44
0.0
 50
0.0
 71
    16
281
     0
 72
     0
  0
VIEW
  5
A31
330
6
100
AcDbSymbolTableRecord
100
AcDbViewTableRecord
  2
AM_VIEW2
 70
     0
 40
148.5
 10
311.3070342205323
 20
222.75
 41
217.3859315589354
 11
0.0
 21
0.0
 31
1.0
 12
0.0
 22
0.0
 32
0.0
 42
50.0
 43
0.0
 44
0.0
 50
0.0
 71
    16
281
     0
 72
     0
  0
VIEW
  5
A32
330
6
100
AcDbSymbolTableRecord
100
AcDbViewTableRecord
  2
AM_VIEW3
 70
     0
 40
148.5
 10
108.6929657794677
 20
74.25
 41
217.3859315589354
 11
0.0
 21
0.0
 31
1.0
 12
0.0
 22
0.0
 32
0.0
 42
50.0
 43
0.0
 44
0.0
 50
0.0
 71
    16
281
     0
 72
     0
  0
VIEW
  5
A33
330
6
100
AcDbSymbolTableRecord
100
AcDbViewTableRecord
  2
AM_VIEW4
 70
     0
 40
148.5
 10
311.3070342205323
 20
74.25
 41
217.3859315589354
 11
0.0
 21
0.0
 31
1.0
 12
0.0
 22
0.0
 32
0.0
 42
50.0
 43
0.0
 44
0.0
 50
0.0
 71
    16
281
     0
 72
     0
  0
VIEW
  5
A34
330
6
100
AcDbSymbolTableRecord
100
AcDbViewTableRecord
  2
AM_VIEW5
 70
     0
 40
148.5
 10
210.0
 20
148.5
 41
217.3859315589353
 11
0.0
 21
0.0
 31
1.0
 12
0.0
 22
0.0
 32
0.0
 42
50.0
 43
0.0
 44
0.0
 50
0.0
 71
    16
281
     0
 72
     0
  0
VIEW
  5
A35
330
6
100
AcDbSymbolTableRecord
100
AcDbViewTableRecord
  2
AM_VIEW6
 70
     0
 40
296.99703
 10
210.0
 20
148.5
 41
434.7675153992395
 11
0.0
 21
0.0
 31
1.0
 12
0.0
 22
0.0
 32
0.0
 42
50.0
 43
0.0
 44
0.0
 50
0.0
 71
    16
281
     0
 72
     0
  0
ENDTAB
  0
TABLE
  2
UCS
  5
7
330
0
100
AcDbSymbolTable
 70
     0
  0
ENDTAB
  0
TABLE
  2
APPID
  5
9
330
0
100
AcDbSymbolTable
 70
    46
  0
APPID
  5
12
330
9
100
AcDbSymbolTableRecord
100
AcDbRegAppTableRecord
  2
ACAD
 70
     0
  0
APPID
  5
2C
330
9
100
AcDbSymbolTableRecord
100
AcDbRegAppTableRecord
  2
MCAD_NO_VIS
 70
     0
  0
APPID
  5
2D
330
9
100
AcDbSymbolTableRecord
100
AcDbRegAppTableRecord
  2
ACAD_TEMP_GRAPHIC
 70
     0
  0
APPID
  5
B9
330
9
100
AcDbSymbolTableRecord
100
AcDbRegAppTableRecord
  2
GENIUS_GENDTOL_13
 70
     0
  0
APPID
  5
359
330
9
100
AcDbSymbolTableRecord
100
AcDbRegAppTableRecord
  2
GENIUS_GENREC_14
 70
     0
  0
APPID
  5
35A
330
9
100
AcDbSymbolTableRecord
100
AcDbRegAppTableRecord
  2
GENIUS_GENODEF_13
 70
     0
  0
APPID
  5
35B
330
9
100
AcDbSymbolTableRecord
100
AcDbRegAppTableRecord
  2
GENIUS_GENOBJ-N-REC_13
 70
     0
  0
APPID
  5
667
330
9
100
AcDbSymbolTableRecord
100
AcDbRegAppTableRecord
  2
GENIUS_GENCFG_13
 70
     0
  0
APPID
  5
668
330
9
100
AcDbSymbolTableRecord
100
AcDbRegAppTableRecord
  2
GENIUS_GENCFG0_13
 70
     0
  0
APPID
  5
669
330
9
100
AcDbSymbolTableRecord
100
AcDbRegAppTableRecord
  2
GENIUS_GENCFG1_13
 70
     0
  0
APPID
  5
66A
330
9
100
AcDbSymbolTableRecord
100
AcDbRegAppTableRecord
  2
GENIUS_GENCFG2_13
 70
     0
  0
APPID
  5
66B
330
9
100
AcDbSymbolTableRecord
100
AcDbRegAppTableRecord
  2
GENIUS_GENCFG3_13
 70
     0
  0
APPID
  5
66C
330
9
100
AcDbSymbolTableRecord
100
AcDbRegAppTableRecord
  2
GENIUS_GENCFG4_13
 70
     0
  0
APPID
  5
A76
330
9
100
AcDbSymbolTableRecord
100
AcDbRegAppTableRecord
  2
GENIUS_GENBLLY_14
 70
     0
  0
APPID
  5
A77
330
9
100
AcDbSymbolTableRecord
100
AcDbRegAppTableRecord
  2
GENIUS_GENOBJ-N-CEN_13
 70
     0
  0
APPID
  5
A83
330
9
100
AcDbSymbolTableRecord
100
AcDbRegAppTableRecord
  2
GENIUS_GENTRA_14
 70
     0
  0
APPID
  5
A8D
330
9
100
AcDbSymbolTableRecord
100
AcDbRegAppTableRecord
  2
GENIUS_GENOBJ-N-TIT_13
 70
     0
  0
APPID
  5
A8E
330
9
100
AcDbSymbolTableRecord
100
AcDbRegAppTableRecord
  2
GENIUS_GENTITLE_13
 70
     0
  0
APPID
  5
A8F
330
9
100
AcDbSymbolTableRecord
100
AcDbRegAppTableRecord
  2
GENIUS_GENOENT_13
 70
     0
  0
APPID
  5
A90
330
9
100
AcDbSymbolTableRecord
100
AcDbRegAppTableRecord
  2
GENIUS_GENOREF_13
 70
     0
  0
APPID
  5
A91
330
9
100
AcDbSymbolTableRecord
100
AcDbRegAppTableRecord
  2
GENIUS_GENOLIS_13
 70
     0
  0
APPID
  5
A92
330
9
100
AcDbSymbolTableRecord
100
AcDbRegAppTableRecord
  2
GENIUS_GENZVEED_13
 70
     0
  0
APPID
  5
A93
330
9
100
AcDbSymbolTableRecord
100
AcDbRegAppTableRecord
  2
GENIUS_GENSCREG_15
 70
     0
  0
APPID
  5
A94
330
9
100
AcDbSymbolTableRecord
100
AcDbRegAppTableRecord
  2
GENIUS_GENOBJ-N-SDF_13
 70
     0
  0
APPID
  5
12B5
330
9
100
AcDbSymbolTableRecord
100
AcDbRegAppTableRecord
  2
GENIUS_GENOBJ-N-RSBK_13
 70
     0
  0
APPID
  5
12B6
330
9
100
AcDbSymbolTableRecord
100
AcDbRegAppTableRecord
  2
GENIUS_GENOBJ-N-LIB_13
 70
     0
  0
APPID
  5
12B7
330
9
100
AcDbSymbolTableRecord
100
AcDbRegAppTableRecord
  2
GENIUS_GENSCALE_13
 70
     0
  0
APPID
  5
12B8
330
9
100
AcDbSymbolTableRecord
100
AcDbRegAppTableRecord
  2
GENIUS_GENOBJ-N-HTC_13
 70
     0
  0
APPID
  5
12B9
330
9
100
AcDbSymbolTableRecord
100
AcDbRegAppTableRecord
  2
GENIUS_GENHATCH_13
 70
     0
  0
APPID
  5
18AA
330
9
100
AcDbSymbolTableRecord
100
AcDbRegAppTableRecord
  2
BASE_TYPE
 70
     0
  0
APPID
  5
18AB
330
9
100
AcDbSymbolTableRecord
100
AcDbRegAppTableRecord
  2
GENIUS_GENOBJ-N-FIL_13
 70
     0
  0
APPID
  5
1E91
330
9
100
AcDbSymbolTableRecord
100
AcDbRegAppTableRecord
  2
GENIUS_GENOBJ-N-CRS_13
 70
     0
  0
APPID
  5
3B24
330
9
100
AcDbSymbolTableRecord
100
AcDbRegAppTableRecord
  2
GENIUS_GENDIMSH_14
 70
     0
  0
APPID
  5
576E
330
9
100
AcDbSymbolTableRecord
100
AcDbRegAppTableRecord
  2
GENIUS_GENFIL_13
 70
     0
  0
APPID
  5
576F
330
9
100
AcDbSymbolTableRecord
100
AcDbRegAppTableRecord
  2
GENIUS_GENOBJ-N-CHA_13
 70
     0
  0
APPID
  5
D3D6
330
9
100
AcDbSymbolTableRecord
100
AcDbRegAppTableRecord
  2
GENIUS_GENOBJ-N-DIM_13
 70
     0
  0
APPID
  5
D3E0
330
9
100
AcDbSymbolTableRecord
100
AcDbRegAppTableRecord
  2
GENIUS_GENDIM_13
 70
     0
  0
APPID
  5
23301
330
9
100
AcDbSymbolTableRecord
100
AcDbRegAppTableRecord
  2
AD_DRAW
 70
     0
  0
APPID
  5
23304
330
9
100
AcDbSymbolTableRecord
100
AcDbRegAppTableRecord
  2
ACATTRIBSERVICES
 70
     0
  0
APPID
  5
23322
330
9
100
AcDbSymbolTableRecord
100
AcDbRegAppTableRecord
  2
DESIGNERASSEMBLIES
 70
     0
  0
APPID
  5
23335
330
9
100
AcDbSymbolTableRecord
100
AcDbRegAppTableRecord
  2
ACADM_DIM_EDIT
 70
     0
  0
APPID
  5
23336
330
9
100
AcDbSymbolTableRecord
100
AcDbRegAppTableRecord
  2
AMDT_DM_ADJ
 70
     0
  0
APPID
  5
25646
330
9
100
AcDbSymbolTableRecord
100
AcDbRegAppTableRecord
  2
ACAD_DSTYLE_DIMTEXT_FILL
 70
     0
  0
APPID
  5
25647
330
9
100
AcDbSymbolTableRecord
100
AcDbRegAppTableRecord
  2
ACAD_PSEXT
 70
     0
  0
APPID
  5
25961
330
9
100
AcDbSymbolTableRecord
100
AcDbRegAppTableRecord
  2
GENIUS_GENSCREG_13
 70
     0
  0
APPID
  5
26FE7
330
9
100
AcDbSymbolTableRecord
100
AcDbRegAppTableRecord
  2
GENIUS_GENCEN_19
 70
     0
  0
ENDTAB
  0
TABLE
  2
DIMSTYLE
  5
A
330
0
100
AcDbSymbolTable
 70
    17
100
AcDbDimStyleTable
  0
DIMSTYLE
105
58
330
A
100
AcDbSymbolTableRecord
100
AcDbDimStyleTableRecord
  2
AM_JIS
 70
     0
  4
"
 41
2.5
 42
0.0
 43
10.0
 44
1.0
 47
0.1
 48
0.1000000001
 73
     0
 74
     0
 77
     3
 78
     1
 79
     2
140
3.8
141
0.0
143
0.0393701
146
0.71
147
1.5
172
     1
176
   256
177
   256
178
     2
179
     1
271
     2
272
     2
275
     1
283
     0
284
     8
340
11
341
59
342
59
371
    -1
372
    -1
  0
DIMSTYLE
105
5F
330
A
100
AcDbSymbolTableRecord
100
AcDbDimStyleTableRecord
  2
AM_JIS$3
 70
     0
  4
"
 41
2.5
 42
0.0
 43
10.0
 44
1.0
 47
0.1
 48
0.1000000001
 73
     0
 77
     3
 78
     1
 79
     2
140
3.8
141
0.0
143
0.0393701
146
0.71
147
1.5
172
     1
176
   256
177
   256
178
     2
179
     1
271
     2
272
     2
275
     1
283
     0
284
     8
288
     1
289
     0
340
11
341
59
342
59
371
    -1
372
    -1
  0
DIMSTYLE
105
60
330
A
100
AcDbSymbolTableRecord
100
AcDbDimStyleTableRecord
  2
AM_JIS$4
 70
     0
  4
"
 41
2.5
 42
0.0
 43
10.0
 44
1.0
 47
0.1
 48
0.1000000001
 73
     0
 77
     3
 78
     1
 79
     2
140
3.8
141
0.0
143
0.0393701
146
0.71
147
1.5
172
     1
176
   256
177
   256
178
     2
179
     1
271
     2
272
     2
275
     1
283
     0
284
     8
288
     1
289
     0
340
11
341
59
342
59
371
    -1
372
    -1
  0
DIMSTYLE
105
61
330
A
100
AcDbSymbolTableRecord
100
AcDbDimStyleTableRecord
  2
AM_JIS$6
 70
     0
  4
"
 41
2.5
 42
0.0
 43
10.0
 44
1.0
 47
0.1
 48
0.1000000001
 73
     0
 74
     0
 78
     1
 79
     2
140
3.8
141
0.0
143
0.0393701
146
0.71
147
1.5
172
     1
176
   256
177
   256
178
     2
179
     1
271
     2
272
     2
275
     1
283
     0
284
     8
340
11
341
59
342
59
371
    -1
372
    -1
  0
DIMSTYLE
105
62
330
A
100
AcDbSymbolTableRecord
100
AcDbDimStyleTableRecord
  2
AM_JIS$7
 70
     0
  4
"
 41
2.5
 42
0.0
 43
10.0
 44
1.0
 47
0.1
 48
0.1000000001
 73
     0
 74
     0
 77
     3
 78
     1
 79
     2
140
5.0
141
0.0
143
0.0393701
146
0.71
147
1.5
172
     1
176
   256
177
   256
178
     2
179
     1
271
     2
272
     2
275
     1
283
     0
284
     8
340
11
341
59
342
59
371
    -1
372
    -1
  0
DIMSTYLE
105
63
330
A
100
AcDbSymbolTableRecord
100
AcDbDimStyleTableRecord
  2
AM_JIS$SF
 70
     0
  4
"
 41
2.5
 42
1.0
 43
10.0
 44
1.0
 47
0.1
 48
0.1
 73
     0
 74
     0
 75
     1
 76
     1
 77
     3
 78
     8
 79
     2
140
3.5
141
0.0
143
0.0393701
146
0.71
147
1.5
176
   256
177
   256
178
     2
271
     2
272
     3
274
     4
340
11
341
59
342
59
343
59
344
59
371
    -1
372
    -1
  0
DIMSTYLE
105
68
330
A
100
AcDbSymbolTableRecord
100
AcDbDimStyleTableRecord
  2
AM_JIS$SH
 70
     0
  4
"
 41
2.5
 42
1.0
 43
10.0
 44
1.0
 47
0.1
 48
0.1
 73
     0
 74
     0
 75
     1
 76
     1
 77
     3
 78
     8
 79
     2
140
3.5
141
0.0
143
0.0393701
144
2.0
146
0.71
147
1.5
173
     1
176
   256
177
   256
178
     2
271
     2
272
     3
274
     4
340
11
341
59
342
59
343
64
344
59
371
    -1
372
    -1
  0
DIMSTYLE
105
65F
330
A
100
AcDbSymbolTableRecord
100
AcDbDimStyleTableRecord
  2
STANDARD
 70
     0
340
11
  0
DIMSTYLE
105
18A8
102
{ACAD_REACTORS
330
260B4
330
31E23
102
}
330
A
100
AcDbSymbolTableRecord
100
AcDbDimStyleTableRecord
  2
AM_JIS$0
 70
     0
  4
"
 41
2.5
 42
0.0
 43
10.0
 44
1.0
 47
0.1
 48
0.1000000001
 73
     0
 74
     0
 77
     3
 78
     1
 79
     2
140
3.8
141
0.0
143
0.0393701
146
0.71
147
1.5
172
     1
176
     3
177
     3
178
     2
271
     2
272
     2
275
     1
283
     0
284
     8
289
     0
340
11
341
59
342
59
371
    13
372
    13
  0
DIMSTYLE
105
18A9
102
{ACAD_REACTORS
330
300DE
330
35189
102
}
330
A
100
AcDbSymbolTableRecord
100
AcDbDimStyleTableRecord
  2
AM_JIS$2
 70
     0
  4
"
 41
2.5
 42
0.0
 43
10.0
 44
1.0
 47
0.1
 48
0.1000000001
 73
     0
 74
     0
 77
     3
 78
     1
 79
     2
140
3.8
141
0.0
143
0.0393701
146
0.71
147
1.5
172
     1
176
     3
177
     3
178
     2
271
     2
272
     2
275
     1
283
     0
284
     8
289
     0
340
11
341
59
342
59
371
    13
372
    13
  0
DIMSTYLE
105
233E4
330
A
100
AcDbSymbolTableRecord
100
AcDbDimStyleTableRecord
  2
AM_ISO
 70
     0
  4
"
 41
2.5
 42
1.0
 43
10.0
 44
1.0
 47
0.1
 48
0.1
 73
     0
 74
     0
 77
     1
 78
     8
 79
     2
140
3.5
141
0.0
143
0.0393701
146
0.71
147
1.5
172
     1
176
   256
177
   256
178
     2
271
     2
272
     3
274
     4
283
     0
284
     8
340
11
371
    -1
372
    -1
  0
DIMSTYLE
105
233E5
330
A
100
AcDbSymbolTableRecord
100
AcDbDimStyleTableRecord
  2
AM_ISO$3
 70
     0
  4
"
 41
2.5
 42
1.0
 43
10.0
 44
1.0
 47
0.1
 48
0.1
 73
     0
 77
     1
 78
     8
 79
     2
140
3.5
141
0.0
143
0.0393701
146
0.71
147
1.5
176
   256
177
   256
178
     2
271
     2
272
     3
274
     4
283
     0
284
     8
288
     1
289
     0
340
11
371
    -1
372
    -1
  0
DIMSTYLE
105
233E6
330
A
100
AcDbSymbolTableRecord
100
AcDbDimStyleTableRecord
  2
AM_ISO$4
 70
     0
  4
"
 41
2.5
 42
1.0
 43
10.0
 44
1.0
 47
0.1
 48
0.1
 73
     0
 77
     1
 78
     8
 79
     2
140
3.5
141
0.0
143
0.0393701
146
0.71
147
1.5
176
   256
177
   256
178
     2
271
     2
272
     3
274
     4
283
     0
284
     8
288
     1
289
     0
340
11
371
    -1
372
    -1
  0
DIMSTYLE
105
233E7
330
A
100
AcDbSymbolTableRecord
100
AcDbDimStyleTableRecord
  2
AM_ISO$6
 70
     0
  4
"
 41
2.5
 42
1.0
 43
10.0
 44
1.0
 47
0.1
 48
0.1
 73
     0
 74
     0
 78
     8
 79
     2
140
3.5
141
0.0
143
0.0393701
146
0.71
147
1.5
172
     1
176
   256
177
   256
178
     2
271
     2
272
     3
274
     4
283
     0
284
     8
340
11
371
    -1
372
    -1
  0
DIMSTYLE
105
233E8
330
A
100
AcDbSymbolTableRecord
100
AcDbDimStyleTableRecord
  2
AM_ISO$7
 70
     0
  4
"
 41
2.5
 42
1.0
 43
10.0
 44
1.0
 47
0.1
 48
0.1
 73
     0
 74
     0
 77
     1
 78
     8
 79
     2
140
5.0
141
0.0
143
0.0393701
146
0.71
147
1.5
172
     1
176
   256
177
   256
178
     2
271
     2
272
     3
274
     4
283
     0
284
     8
340
11
371
    -1
372
    -1
  0
DIMSTYLE
105
233E9
330
A
100
AcDbSymbolTableRecord
100
AcDbDimStyleTableRecord
  2
AM_ISO$SF
 70
     0
  4
"
 41
2.5
 42
1.0
 43
10.0
 44
1.0
 47
0.1
 48
0.1
 73
     0
 74
     0
 75
     1
 76
     1
 77
     1
 78
     8
 79
     2
140
3.5
141
0.0
143
0.0393701
146
0.71
147
1.5
172
     1
176
   256
177
   256
178
     2
271
     2
272
     3
274
     4
283
     0
284
     8
340
11
371
    -1
372
    -1
  0
DIMSTYLE
105
233EA
330
A
100
AcDbSymbolTableRecord
100
AcDbDimStyleTableRecord
  2
AM_ISO$SH
 70
     0
  4
"
 41
2.5
 42
1.0
 43
10.0
 44
1.0
 47
0.1
 48
0.1
 73
     0
 74
     0
 75
     1
 76
     1
 77
     1
 78
     8
 79
     2
140
3.5
141
0.0
143
0.0393701
144
2.0
146
0.71
147
1.5
172
     1
173
     1
176
   256
177
   256
178
     2
271
     2
272
     3
274
     4
283
     0
284
     8
340
11
343
64
371
    -1
372
    -1
  0
ENDTAB
  0
TABLE
  2
BLOCK_RECORD
  5
1
330
0
100
AcDbSymbolTable
 70
     8
  0
BLOCK_RECORD
  5
1F
102
{ACAD_XDICTIONARY
360
165
102
}
330
1
100
AcDbSymbolTableRecord
100
AcDbBlockTableRecord
  2
*Model_Space
340
22
  0
BLOCK_RECORD
  5
1B
330
1
100
AcDbSymbolTableRecord
100
AcDbBlockTableRecord
  2
*Paper_Space
340
1E
  0
BLOCK_RECORD
  5
23
330
1
100
AcDbSymbolTableRecord
100
AcDbBlockTableRecord
  2
*Paper_Space0
340
26
  0
BLOCK_RECORD
  5
59
330
1
100
AcDbSymbolTableRecord
100
AcDbBlockTableRecord
  2
_Open30
340
0
102
{BLKREFS
331
352EC
331
352ED
331
352F5
331
352F6
331
35351
331
35352
331
35309
331
3530A
102
}
  0
BLOCK_RECORD
  5
64
330
1
100
AcDbSymbolTableRecord
100
AcDbBlockTableRecord
  2
GENAXEH
340
0
  0
BLOCK_RECORD
  5
23319
330
1
100
AcDbSymbolTableRecord
100
AcDbBlockTableRecord
  2
*U3
340
0
  0
BLOCK_RECORD
  5
262AB
330
1
100
AcDbSymbolTableRecord
100
AcDbBlockTableRecord
  2
*D4
340
0
  0
BLOCK_RECORD
  5
300DF
330
1
100
AcDbSymbolTableRecord
100
AcDbBlockTableRecord
  2
*D5
340
0
  0
BLOCK_RECORD
  5
31F66
330
1
100
AcDbSymbolTableRecord
100
AcDbBlockTableRecord
  2
*D6
340
0
  0
BLOCK_RECORD
  5
3518A
330
1
100
AcDbSymbolTableRecord
100
AcDbBlockTableRecord
  2
*D7
340
0
  0
ENDTAB
  0
ENDSEC
  0
SECTION
  2
BLOCKS
  0
BLOCK
  5
20
330
1F
100
AcDbEntity
  8
0
100
AcDbBlockBegin
  2
*Model_Space
 70
     0
 71
     0
 10
0.0
 20
0.0
 30
0.0
  3
*Model_Space
  1

  0
ENDBLK
  5
21
330
1F
100
AcDbEntity
  8
0
100
AcDbBlockEnd
  0
BLOCK
  5
1C
330
1B
100
AcDbEntity
 67
     1
  8
0
100
AcDbBlockBegin
  2
*Paper_Space
 70
     0
 71
     0
 10
0.0
 20
0.0
 30
0.0
  3
*Paper_Space
  1

  0
ENDBLK
  5
1D
330
1B
100
AcDbEntity
 67
     1
  8
0
100
AcDbBlockEnd
  0
BLOCK
  5
24
330
23
100
AcDbEntity
  8
0
100
AcDbBlockBegin
  2
*Paper_Space0
 70
     0
 71
     0
 10
0.0
 20
0.0
 30
0.0
  3
*Paper_Space0
  1

  0
ENDBLK
  5
25
330
23
100
AcDbEntity
  8
0
100
AcDbBlockEnd
  0
BLOCK
  5
5D
330
59
100
AcDbEntity
  8
0
100
AcDbBlockBegin
  2
_Open30
 70
     0
 71
     0
 10
0.0
 20
0.0
 30
0.0
  3
_Open30
  1

  0
LINE
  5
5A
330
59
100
AcDbEntity
  8
0
 62
     0
370
    -2
100
AcDbLine
 10
-1.0
 20
0.26794919
 30
0.0
 11
0.0
 21
0.0
 31
0.0
  0
LINE
  5
5B
330
59
100
AcDbEntity
  8
0
 62
     0
370
    -2
100
AcDbLine
 10
0.0
 20
0.0
 30
0.0
 11
-1.0
 21
-0.26794919
 31
0.0
  0
LINE
  5
5C
330
59
100
AcDbEntity
  8
0
 62
     0
370
    -2
100
AcDbLine
 10
0.0
 20
0.0
 30
0.0
 11
-1.0
 21
0.0
 31
0.0
  0
ENDBLK
  5
5E
330
59
100
AcDbEntity
  8
0
100
AcDbBlockEnd
  0
BLOCK
  5
66
330
64
100
AcDbEntity
  8
0
100
AcDbBlockBegin
  2
GENAXEH
 70
     0
 71
     0
 10
0.0
 20
0.0
 30
0.0
  3
GENAXEH
  1

  0
LINE
  5
65
330
64
100
AcDbEntity
  8
0
100
AcDbLine
 10
-1.0
 20
0.0
 30
0.0
 11
1.0
 21
0.0
 31
0.0
  0
ENDBLK
  5
67
330
64
100
AcDbEntity
  8
0
100
AcDbBlockEnd
  0
BLOCK
  5
2331A
330
23319
100
AcDbEntity
  8
0
100
AcDbBlockBegin
  2
*U3
 70
     1
 71
     0
 10
0.0
 20
0.0
 30
0.0
  3
*U3
  1

  0
ENDBLK
  5
2331B
330
23319
100
AcDbEntity
  8
0
100
AcDbBlockEnd
  0
BLOCK
  5
264AD
330
262AB
100
AcDbEntity
  8
0
100
AcDbBlockBegin
  2
*D4
 70
     1
 71
     0
 10
0.0
 20
0.0
 30
0.0
  3
*D4
  1

  0
LINE
  5
352E9
330
262AB
100
AcDbEntity
  8
AM_5
 62
     3
370
    13
100
AcDbLine
 10
-0.0000000000002274
 20
-6.331786404189302
 30
0.0
 11
-0.0000000000002318
 21
-78.6073011459672
 31
0.0
  0
LINE
  5
352EA
330
262AB
100
AcDbEntity
  8
AM_5
 62
     3
370
    13
100
AcDbLine
 10
99.99999999992349
 20
-31.5
 30
0.0
 11
99.99999999992349
 21
-78.6073011459672
 31
0.0
  0
LINE
  5
352EB
330
262AB
100
AcDbEntity
  8
AM_5
 62
     3
370
    13
100
AcDbLine
 10
2.499999999999768
 20
-77.6073011459672
 30
0.0
 11
97.49999999992349
 21
-77.6073011459672
 31
0.0
  0
INSERT
  5
352EC
330
262AB
100
AcDbEntity
  8
AM_5
 62
     3
370
    13
100
AcDbBlockReference
  2
_Open30
 10
-0.0000000000002317
 20
-77.6073011459672
 30
0.0
 41
2.5
 42
2.5
 43
2.5
 50
180.0
  0
INSERT
  5
352ED
330
262AB
100
AcDbEntity
  8
AM_5
 62
     3
370
    13
100
AcDbBlockReference
  2
_Open30
 10
99.99999999992349
 20
-77.6073011459672
 30
0.0
 41
2.5
 42
2.5
 43
2.5
  0
MTEXT
  5
352EE
330
262AB
100
AcDbEntity
  8
AM_5
 62
     2
100
AcDbMText
 10
49.99999999996163
 20
-74.20730114596719
 30
0.0
 40
3.8
 41
0.0
 71
     5
 72
     1
  1
100
 73
     1
 44
1.0
  0
POINT
  5
352EF
330
262AB
100
AcDbEntity
  8
Defpoints
 62
     0
100
AcDbPoint
 10
-0.0000000000002274
 20
-6.331786404189302
 30
0.0
  0
POINT
  5
352F0
330
262AB
100
AcDbEntity
  8
Defpoints
 62
     0
100
AcDbPoint
 10
99.99999999992349
 20
-31.5
 30
0.0
  0
POINT
  5
352F1
330
262AB
100
AcDbEntity
  8
Defpoints
 62
     0
100
AcDbPoint
 10
99.99999999992349
 20
-77.6073011459672
 30
0.0
  0
ENDBLK
  5
264AE
330
262AB
100
AcDbEntity
  8
0
100
AcDbBlockEnd
  0
BLOCK
  5
30115
330
300DF
100
AcDbEntity
  8
0
100
AcDbBlockBegin
  2
*D5
 70
     1
 71
     0
 10
0.0
 20
0.0
 30
0.0
  3
*D5
  1

  0
LINE
  5
352F2
330
300DF
100
AcDbEntity
  8
AM_5
 62
     3
370
    13
100
AcDbLine
 10
-0.0000000000002269
 20
-6.331786404189302
 30
0.0
 11
-0.0000000000002327
 21
-32.8865205325076
 31
0.0
  0
LINE
  5
352F3
330
300DF
100
AcDbEntity
  8
AM_5
 62
     3
370
    13
100
AcDbLine
 10
13.60334182616691
 20
-4.881269266438493
 30
0.0
 11
30.79968662218059
 21
-10.30325595376686
 31
0.0
  0
ARC
  5
352F4
330
300DF
100
AcDbEntity
  8
AM_5
 62
     3
370
    13
100
AcDbCircle
 10
-0.0000000000002271
 20
-0.5921520639412907
 30
0.0
 40
31.2943684685663
100
AcDbArc
 50
274.5783817382932
 51
337.9216182617073
  0
INSERT
  5
352F5
330
300DF
100
AcDbEntity
  8
AM_5
 62
     3
370
    13
100
AcDbBlockReference
  2
_Open30
 10
-0.0000000000002327
 20
-31.8865205325076
 30
0.0
 41
2.5
 42
2.5
 43
2.5
 50
182.2891908691466
  0
INSERT
  5
352F6
330
300DF
100
AcDbEntity
  8
AM_5
 62
     3
370
    13
100
AcDbBlockReference
  2
_Open30
 10
29.84596967143237
 20
-10.00255015426259
 30
0.0
 41
2.5
 42
2.5
 43
2.5
 50
70.21080913085393
  0
MTEXT
  5
352F7
330
300DF
100
AcDbEntity
  8
AM_5
 62
     2
100
AcDbMText
 10
16.49398805135155
 20
-23.08711338188361
 30
0.0
 40
3.8
 41
0.0
 71
     5
 72
     1
  1
72°30'
 11
0.8064446042674801
 21
0.5913096483635857
 31
0.0
 73
     1
 44
1.0
  0
POINT
  5
352F8
330
300DF
100
AcDbEntity
  8
Defpoints
 62
     0
100
AcDbPoint
 10
12.81167393897858
 20
-29.1438334282268
 30
0.0
  0
POINT
  5
352F9
330
300DF
100
AcDbEntity
  8
Defpoints
 62
     0
100
AcDbPoint
 10
0.5494269557378857
 20
-0.7653857176629798
 30
0.0
  0
POINT
  5
352FA
330
300DF
100
AcDbEntity
  8
Defpoints
 62
     0
100
AcDbPoint
 10
-0.0000000000002269
 20
-6.331786404189302
 30
0.0
  0
POINT
  5
352FB
330
300DF
100
AcDbEntity
  8
Defpoints
 62
     0
100
AcDbPoint
 10
-0.0000000000002274
 20
-0.0000000000001137
 30
0.0
  0
POINT
  5
352FC
330
300DF
100
AcDbEntity
  8
Defpoints
 62
     0
100
AcDbPoint
 10
13.60334182616691
 20
-4.881269266438493
 30
0.0
  0
ENDBLK
  5
30116
330
300DF
100
AcDbEntity
  8
0
100
AcDbBlockEnd
  0
BLOCK
  5
32009
330
31F66
100
AcDbEntity
  8
0
100
AcDbBlockBegin
  2
*D6
 70
     1
 71
     0
 10
0.0
 20
0.0
 30
0.0
  3
*D6
  1

  0
LINE
  5
3534E
330
31F66
100
AcDbEntity
  8
AM_5
 62
     3
370
    13
100
AcDbLine
 10
99.69999999992359
 20
31.49999999999983
 30
0.0
 11
171.6033526699225
 21
31.49999999999981
 31
0.0
  0
LINE
  5
3534F
330
31F66
100
AcDbEntity
  8
AM_5
 62
     3
370
    13
100
AcDbLine
 10
99.69999999992353
 20
-31.49999999999989
 30
0.0
 11
171.6033526699225
 21
-31.49999999999991
 31
0.0
  0
LINE
  5
35350
330
31F66
100
AcDbEntity
  8
AM_5
 62
     3
370
    13
100
AcDbLine
 10
170.6033526699225
 20
28.99999999999981
 30
0.0
 11
170.6033526699225
 21
-28.99999999999991
 31
0.0
  0
INSERT
  5
35351
330
31F66
100
AcDbEntity
  8
AM_5
 62
     3
370
    13
100
AcDbBlockReference
  2
_Open30
 10
170.6033526699225
 20
31.49999999999981
 30
0.0
 41
2.5
 42
2.5
 43
2.5
 50
90.0
  0
INSERT
  5
35352
330
31F66
100
AcDbEntity
  8
AM_5
 62
     3
370
    13
100
AcDbBlockReference
  2
_Open30
 10
170.6033526699225
 20
-31.49999999999991
 30
0.0
 41
2.5
 42
2.5
 43
2.5
 50
270.0
  0
MTEXT
  5
35353
330
31F66
100
AcDbEntity
  8
AM_5
 62
     2
100
AcDbMText
 10
167.2033526699225
 20
-0.0000000000000207
 30
0.0
 40
3.8
 41
0.0
 71
     5
 72
     1
  1
%%c63
 11
6.123031769111886E-17
 21
1.0
 31
0.0
 73
     1
 44
1.0
  0
POINT
  5
35354
330
31F66
100
AcDbEntity
  8
Defpoints
 62
     0
100
AcDbPoint
 10
99.69999999992359
 20
31.49999999999983
 30
0.0
  0
POINT
  5
35355
330
31F66
100
AcDbEntity
  8
Defpoints
 62
     0
100
AcDbPoint
 10
99.69999999992353
 20
-31.49999999999989
 30
0.0
  0
POINT
  5
35356
330
31F66
100
AcDbEntity
  8
Defpoints
 62
     0
100
AcDbPoint
 10
170.6033526699225
 20
-31.49999999999991
 30
0.0
  0
ENDBLK
  5
3200A
330
31F66
100
AcDbEntity
  8
0
100
AcDbBlockEnd
  0
BLOCK
  5
351E3
330
3518A
100
AcDbEntity
  8
0
100
AcDbBlockBegin
  2
*D7
 70
     1
 71
     0
 10
0.0
 20
0.0
 30
0.0
  3
*D7
  1

  0
LINE
  5
35306
330
3518A
100
AcDbEntity
  8
AM_5
 62
     3
370
    13
100
AcDbLine
 10
-1.804774027218777
 20
-0.0231089989589795
 30
0.0
 11
-28.42815211263552
 21
8.371209867239971
 31
0.0
  0
LINE
  5
35307
330
3518A
100
AcDbEntity
  8
AM_5
 62
     3
370
    13
100
AcDbLine
 10
-1.804774027218777
 20
-0.0231089989589795
 30
0.0
 11
-28.27631187245272
 21
-8.884628846864258
 31
0.0
  0
ARC
  5
35308
330
3518A
100
AcDbEntity
  8
AM_5
 62
     3
370
    13
100
AcDbCircle
 10
-1.804774027218777
 20
-0.0231089989589795
 30
0.0
 40
26.91538733219498
100
AcDbArc
 50
167.8237572959594
 51
193.1845484189095
  0
INSERT
  5
35309
330
3518A
100
AcDbEntity
  8
AM_5
 62
     3
370
    13
100
AcDbBlockReference
  2
_Open30
 10
-27.47443516188729
 20
8.070504067735705
 30
0.0
 41
2.5
 42
2.5
 43
2.5
 50
75.1618786479799
  0
INSERT
  5
3530A
330
3518A
100
AcDbEntity
  8
AM_5
 62
     3
370
    13
100
AcDbBlockReference
  2
_Open30
 10
-27.32803422435058
 20
-8.567186722832354
 30
0.0
 41
2.5
 42
2.5
 43
2.5
 50
285.846427066889
  0
MTEXT
  5
3530B
330
3518A
100
AcDbEntity
  8
AM_5
 62
     2
100
AcDbMText
 10
-25.31925103007426
 20
-0.2300212154580888
 30
0.0
 40
3.8
 41
0.0
 71
     5
 72
     1
  1
35%%D
 11
0.008799013751129249
 21
-0.9999612879291915
 31
0.0
 73
     1
 44
1.0
  0
POINT
  5
3530C
330
3518A
100
AcDbEntity
  8
Defpoints
 62
     0
100
AcDbPoint
 10
-28.59637287810795
 20
2.555321968725818
 30
0.0
  0
POINT
  5
3530D
330
3518A
100
AcDbEntity
  8
Defpoints
 62
     0
100
AcDbPoint
 10
13.51590356632471
 20
5.105587693023607
 30
0.0
  0
POINT
  5
3530E
330
3518A
100
AcDbEntity
  8
Defpoints
 62
     0
100
AcDbPoint
 10
0.549426955738113
 20
-0.7653857176629799
 30
0.0
  0
POINT
  5
3530F
330
3518A
100
AcDbEntity
  8
Defpoints
 62
     0
100
AcDbPoint
 10
13.60334182616714
 20
-4.881269266438494
 30
0.0
  0
POINT
  5
35310
330
3518A
100
AcDbEntity
  8
Defpoints
 62
     0
100
AcDbPoint
 10
0.5360672926079815
 20
0.7605028915824049
 30
0.0
  0
ENDBLK
  5
351E4
330
3518A
100
AcDbEntity
  8
0
100
AcDbBlockEnd
  0
ENDSEC
  0
SECTION
  2
ENTITIES
  0
TEXT
  5
1E47B
330
1F
100
AcDbEntity
  8
AM_6
100
AcDbText
 10
151.2162403638389
 20
-76.45697250710231
 30
0.0
 40
3.0
  1

100
AcDbText
  0
TEXT
  5
1E47F
330
1F
100
AcDbEntity
  8
AM_6
100
AcDbText
 10
163.4073958784107
 20
-76.45697250710231
 30
0.0
 40
3.0
  1

100
AcDbText
  0
DIMENSION
  5
260B4
330
1F
100
AcDbEntity
  8
AM_5
100
AcDbDimension
  2
*D4
 10
99.99999999992349
 20
-77.6073011459672
 30
0.0
 11
49.99999999996163
 21
-74.20730114596719
 31
0.0
 70
    32
  1
<>
 71
     5
 42
99.99999999992372
  3
AM_JIS$0
100
AcDbAlignedDimension
 13
-0.0000000000002274
 23
-6.331786404189302
 33
0.0
 14
99.99999999992349
 24
-31.5
 34
0.0
100
AcDbRotatedDimension
1001
ACAD
1000
DSTYLE
1002
{
1070
   179
1070
     0
1070
   271
1070
     0
1070
   272
1070
     2
1002
}
  0
LINE
  5
26215
330
1F
100
AcDbEntity
  8
AM_7
100
AcDbLine
 10
155.4605750667174
 20
0.0
 30
0.0
 11
-1.986927475789059
 21
0.0
 31
0.0
1001
GENIUS_GENODEF_13
1002
{
1000
HIER
1070
     0
1002
}
1002
{
1000
MANEDIT
1070
     0
1002
}
1002
{
1000
NOSEL
1070
     0
1002
}
1002
{
1000
BEHIND
1070
     0
1002
}
1002
{
1000
OTHER
1070
     0
1002
}
1002
{
1000
REACTOR
1002
}
1001
GENIUS_GENOBJ-N-CEN_13
1002
{
1000
OWNER
1000
GEN
1002
}
  0
LINE
  5
2621A
330
1F
100
AcDbEntity
  8
AM_7
100
AcDbLine
 10
155.4605750667174
 20
-132.0306236234383
 30
0.0
 11
-2.403837257410714
 21
-132.0306236234382
 31
0.0
1001
GENIUS_GENODEF_13
1002
{
1000
HIER
1070
     0
1002
}
1002
{
1000
MANEDIT
1070
     0
1002
}
1002
{
1000
NOSEL
1070
     0
1002
}
1002
{
1000
BEHIND
1070
     0
1002
}
1002
{
1000
OTHER
1070
     0
1002
}
1002
{
1000
REACTOR
1002
}
1001
GENIUS_GENOBJ-N-CEN_13
1002
{
1000
OWNER
1000
GEN
1002
}
  0
LINE
  5
26FE6
330
1F
100
AcDbEntity
  8
AM_7
100
AcDbLine
 10
-130.8079164527637
 20
0.0000000000000568
 30
0.0
 11
-54.39855365673725
 21
0.0
 31
0.0
1001
GENIUS_GENODEF_13
1002
{
1000
HIER
1070
     0
1002
}
1002
{
1000
MANEDIT
1070
     0
1002
}
1002
{
1000
NOSEL
1070
     0
1002
}
1002
{
1000
BEHIND
1070
     0
1002
}
1002
{
1000
OTHER
1070
     0
1002
}
1002
{
1000
REACTOR
1002
}
1001
GENIUS_GENOBJ-N-CEN_13
1002
{
1000
OWNER
1000
GEN
1002
}
1001
GENIUS_GENCEN_19
1002
{
1040
2.794
1002
}
  0
LINE
  5
26FF4
330
1F
100
AcDbEntity
  8
AM_7
100
AcDbLine
 10
-92.72846657410423
 20
39.83595014969581
 30
0.0
 11
-92.72846657410423
 21
-47.43746503456117
 31
0.0
1001
GENIUS_GENOBJ-N-CEN_13
1002
{
1000
OWNER
1000
GEN
1002
}
1001
GENIUS_GENODEF_13
1002
{
1000
HIER
1070
     0
1002
}
1002
{
1000
MANEDIT
1070
     0
1002
}
1002
{
1000
NOSEL
1070
     0
1002
}
1002
{
1000
BEHIND
1070
     0
1002
}
1002
{
1000
OTHER
1070
     0
1002
}
1002
{
1000
REACTOR
1002
}
1001
GENIUS_GENCEN_19
1002
{
1040
2.794
1002
}
  0
LINE
  5
2FF85
330
1F
100
AcDbEntity
  8
AM_5
100
AcDbLine
 10
-0.0000000000002274
 20
-6.331786404189302
 30
0.0
 11
-0.0000000000002274
 21
-0.0000000000001137
 31
0.0
  0
DIMENSION
  5
300DE
330
1F
100
AcDbEntity
  8
AM_5
100
AcDbDimension
  2
*D5
 10
13.60334182616691
 20
-4.881269266438494
 30
0.0
 11
16.49398805135155
 21
-23.08711338188361
 31
0.0
 70
    34
 71
     5
 42
1.265363707695897
  3
AM_JIS$2
100
AcDb2LineAngularDimension
 13
-0.0000000000002274
 23
-6.331786404189302
 33
0.0
 14
-0.0000000000002274
 24
-0.0000000000001137
 34
0.0
 15
0.5494269557378857
 25
-0.7653857176629799
 35
0.0
 16
12.81167393897858
 26
-29.1438334282268
 36
0.0
1001
ACAD
1000
DSTYLE
1002
{
1070
   179
1070
     1
1070
   271
1070
     0
1002
}
  0
CIRCLE
  5
30118
330
1F
100
AcDbEntity
  8
AM_0
100
AcDbCircle
 10
-0.0000000000002842
 20
-0.0000000000001137
 30
0.0
 40
0.3
  0
TEXT
  5
3147C
330
1F
100
AcDbEntity
  8
AM_0
100
AcDbText
 10
-95.46365781800364
 20
-195.1950687029515
 30
0.0
 40
5.0
  1
C6-DVVNN-H16
100
AcDbText
  0
DIMENSION
  5
31E23
330
1F
100
AcDbEntity
  8
AM_5
100
AcDbDimension
  2
*D6
 10
170.6033526699225
 20
-31.49999999999991
 30
0.0
 11
167.2033526699225
 21
-0.0000000000000207
 31
0.0
 70
    32
  1
%%c<>
 71
     5
 42
62.99999999999972
  3
AM_JIS$0
100
AcDbAlignedDimension
 13
99.69999999992359
 23
31.49999999999983
 33
0.0
 14
99.69999999992353
 24
-31.49999999999989
 34
0.0
 50
90.0
100
AcDbRotatedDimension
1001
ACAD
1000
DSTYLE
1002
{
1070
   179
1070
     0
1070
   271
1070
     0
1070
   272
1070
     2
1002
}
  0
LINE
  5
31E46
330
1F
100
AcDbEntity
  8
AM_0
100
AcDbLine
 10
99.69999999992353
 20
-31.5
 30
0.0
 11
99.69999999992359
 21
31.5
 31
0.0
  0
LINE
  5
31E50
330
1F
100
AcDbEntity
  8
AM_0
100
AcDbLine
 10
99.99999999992349
 20
-31.19999999999982
 30
0.0
 11
99.99999999992355
 21
31.19999999999988
 31
0.0
  0
SPLINE
  5
31E79
330
1F
100
AcDbEntity
  8
AM_0
100
AcDbSpline
210
0.0
220
0.0
230
1.0
 70
     8
 71
     3
 72
    14
 73
    10
 74
     0
 42
0.0000000001
 43
0.0000000001
 40
2.582172705186494
 40
2.582172705186494
 40
2.582172705186494
 40
2.582172705186494
 40
2.675834359684354
 40
2.675834359684354
 40
2.769496014182214
 40
2.769496014182214
 40
2.956819323177933
 40
2.956819323177933
 40
3.30651863770592
 40
3.30651863770592
 40
3.30651863770592
 40
3.30651863770592
 10
86.53867513451837
 20
-122.6814023089123
 30
0.0
 10
86.50745458301913
 20
-122.6814023089123
 30
0.0
 10
86.47719203105373
 20
-122.6753783346721
 30
0.0
 10
86.41972622050139
 20
-122.6537330442566
 30
0.0
 10
86.3925281324058
 20
-122.6380994825116
 30
0.0
 10
86.31690157467267
 20
-122.5813003973935
 30
0.0
 10
86.27450195810047
 20
-122.5300203072494
 30
0.0
 10
86.17998528216742
 20
-122.3851561857508
 30
0.0
 10
86.13700293939644
 20
-122.2757779491344
 30
0.0
 10
86.1056624326261
 20
-122.1612110044711
 30
0.0
  0
ARC
  5
31E7A
330
1F
100
AcDbEntity
  8
AM_0
100
AcDbCircle
 10
86.50091622830763
 20
-102.4978294346419
 30
0.0
 40
0.5490983609134384
100
AcDbArc
 50
86.0569275439549
 51
136.0398939119357
  0
LINE
  5
31E7B
330
1F
100
AcDbEntity
  8
AM_0
100
AcDbLine
 10
86.10566243262622
 20
-102.1166687769696
 30
0.0
 11
86.10566243262622
 21
-122.1612110044711
 31
0.0
  0
ELLIPSE
  5
31E7C
330
1F
100
AcDbEntity
  8
AM_0
100
AcDbEllipse
 10
102.3471541892834
 20
-132.0306236234383
 30
0.0
 11
14.75368316065343
 21
-31.09325491558128
 31
-2.584885466634972E-16
210
3.219739583813331E-18
220
-6.785572290740567E-18
230
1.0
 40
0.3419987131196119
 41
3.299398840235308
 42
4.232832239342633
  0
LINE
  5
31E7D
330
1F
100
AcDbEntity
  8
AM_0
100
AcDbLine
 10
89.46132486532906
 20
-122.6814023089121
 30
0.0
 11
86.53867513451849
 21
-122.6814023089121
 31
0.0
  0
LINE
  5
31E7E
330
1F
100
AcDbEntity
  8
AM_0
100
AcDbLine
 10
86.53867513451837
 20
-101.9500308631218
 30
0.0
 11
86.53867513451837
 21
-122.6814023089123
 31
0.0
  0
LINE
  5
31E7F
330
1F
100
AcDbEntity
  8
AM_0
100
AcDbLine
 10
86.53867513451849
 20
-101.9500308631218
 30
0.0
 11
89.46132486532906
 21
-101.9500308631218
 31
0.0
  0
SPLINE
  5
31E80
330
1F
100
AcDbEntity
  8
AM_0
100
AcDbSpline
210
0.0
220
0.0
230
1.0
 70
     8
 71
     3
 72
    14
 73
    10
 74
     0
 42
0.0000000001
 43
0.0000000001
 40
1.857826772665431
 40
1.857826772665431
 40
1.857826772665431
 40
1.857826772665431
 40
2.207526087195096
 40
2.207526087195096
 40
2.394849396190812
 40
2.394849396190812
 40
2.48851105068867
 40
2.48851105068867
 40
2.582172705186528
 40
2.582172705186528
 40
2.582172705186528
 40
2.582172705186528
 10
89.8943375672211
 20
-122.161211004471
 30
0.0
 10
89.86299706045065
 20
-122.2757779491349
 30
0.0
 10
89.82001471768024
 20
-122.38515618575
 30
0.0
 10
89.72549804174685
 20
-122.5300203072491
 30
0.0
 10
89.68309842517465
 20
-122.5813003973932
 30
0.0
 10
89.60747186744152
 20
-122.6380994825113
 30
0.0
 10
89.58027377934593
 20
-122.6537330442563
 30
0.0
 10
89.52280796879359
 20
-122.6753783346719
 30
0.0
 10
89.49254541682819
 20
-122.681402308912
 30
0.0
 10
89.46132486532895
 20
-122.681402308912
 30
0.0
  0
LINE
  5
31E81
330
1F
100
AcDbEntity
  8
AM_0
100
AcDbLine
 10
89.46132486532895
 20
-101.9500308631218
 30
0.0
 11
89.46132486532895
 21
-122.681402308912
 31
0.0
  0
ARC
  5
31E82
330
1F
100
AcDbEntity
  8
AM_0
100
AcDbCircle
 10
89.49908377153946
 20
-102.4978294346426
 30
0.0
 40
0.5490983609139751
100
AcDbArc
 50
43.96010608810117
 51
93.94307245601888
  0
ARC
  5
31E83
330
1F
100
AcDbEntity
  8
AM_0
100
AcDbCircle
 10
89.4990837715398
 20
-161.5634178122347
 30
0.0
 40
0.5490983609132026
100
AcDbArc
 50
266.0569275439451
 51
316.0398939119402
  0
SPLINE
  5
31E84
330
1F
100
AcDbEntity
  8
AM_0
100
AcDbSpline
210
0.0
220
0.0
230
1.0
 70
     8
 71
     3
 72
    14
 73
    10
 74
     0
 42
0.0000000001
 43
0.0000000001
 40
2.563234579399785
 40
2.563234579399785
 40
2.563234579399785
 40
2.563234579399785
 40
2.656896233897643
 40
2.656896233897643
 40
2.750557888395502
 40
2.750557888395502
 40
2.937881197391219
 40
2.937881197391219
 40
3.287580511918983
 40
3.287580511918983
 40
3.287580511918983
 40
3.287580511918983
 10
89.46132486532895
 20
-141.3798449379644
 30
0.0
 10
89.49254541682819
 20
-141.3798449379644
 30
0.0
 10
89.52280796879359
 20
-141.3858689122046
 30
0.0
 10
89.58027377934593
 20
-141.4075142026202
 30
0.0
 10
89.60747186744152
 20
-141.4231477643652
 30
0.0
 10
89.68309842517465
 20
-141.4799468494833
 30
0.0
 10
89.72549804174685
 20
-141.5312269396274
 30
0.0
 10
89.8200147176799
 20
-141.6760910611259
 30
0.0
 10
89.86299706045077
 20
-141.7854692977422
 30
0.0
 10
89.8943375672211
 20
-141.9000362424055
 30
0.0
  0
LINE
  5
31E85
330
1F
100
AcDbEntity
  8
AM_0
100
AcDbLine
 10
89.46132486532895
 20
-141.3798449379644
 30
0.0
 11
89.46132486532895
 21
-162.1112163837547
 31
0.0
  0
LINE
  5
31E86
330
1F
100
AcDbEntity
  8
AM_0
100
AcDbLine
 10
89.46132486532906
 20
-162.1112163837547
 30
0.0
 11
86.53867513451849
 21
-162.1112163837547
 31
0.0
  0
LINE
  5
31E87
330
1F
100
AcDbEntity
  8
AM_0
100
AcDbLine
 10
86.53867513451849
 20
-141.3798449379644
 30
0.0
 11
89.46132486532906
 21
-141.3798449379644
 31
0.0
  0
LINE
  5
31E88
330
1F
100
AcDbEntity
  8
AM_0
100
AcDbLine
 10
86.53867513451837
 20
-141.3798449379642
 30
0.0
 11
86.53867513451837
 21
-162.1112163837548
 31
0.0
  0
ARC
  5
31E89
330
1F
100
AcDbEntity
  8
AM_0
100
AcDbCircle
 10
86.50091622830774
 20
-161.5634178122341
 30
0.0
 40
0.5490983609138569
100
AcDbArc
 50
223.9601060880873
 51
273.9430724560255
  0
SPLINE
  5
31E8A
330
1F
100
AcDbEntity
  8
AM_0
100
AcDbSpline
210
0.0
220
0.0
230
1.0
 70
     8
 71
     3
 72
    14
 73
    10
 74
     0
 42
0.0000000001
 43
0.0000000001
 40
1.857826772665184
 40
1.857826772665184
 40
1.857826772665184
 40
1.857826772665184
 40
2.20752608719506
 40
2.20752608719506
 40
2.394849396190778
 40
2.394849396190778
 40
2.488511050688637
 40
2.488511050688637
 40
2.582172705186496
 40
2.582172705186496
 40
2.582172705186496
 40
2.582172705186496
 10
86.1056624326261
 20
-141.9000362424055
 30
0.0
 10
86.13700293939667
 20
-141.7854692977415
 30
0.0
 10
86.17998528216708
 20
-141.6760910611263
 30
0.0
 10
86.27450195810047
 20
-141.5312269396271
 30
0.0
 10
86.31690157467267
 20
-141.479946849483
 30
0.0
 10
86.39252813240569
 20
-141.4231477643649
 30
0.0
 10
86.41972622050139
 20
-141.4075142026199
 30
0.0
 10
86.47719203105373
 20
-141.3858689122044
 30
0.0
 10
86.50745458301913
 20
-141.3798449379642
 30
0.0
 10
86.53867513451837
 20
-141.3798449379642
 30
0.0
  0
LINE
  5
31E8B
330
1F
100
AcDbEntity
  8
AM_0
100
AcDbLine
 10
86.10566243262622
 20
-141.9000362424055
 30
0.0
 11
86.10566243262622
 21
-161.9445784699069
 31
0.0
  0
ELLIPSE
  5
31E8C
330
1F
100
AcDbEntity
  8
AM_0
100
AcDbEllipse
 10
102.3471541892834
 20
-132.0306236234383
 30
0.0
 11
-14.75368316065455
 21
-31.09325491558073
 31
2.584885466635379E-16
210
3.219739583814080E-18
220
6.785572290741521E-18
230
1.0
 40
0.3419987131196122
 41
5.191945721427334
 42
6.12537912053466
  0
LINE
  5
31E8D
330
1F
100
AcDbEntity
  8
AM_0
100
AcDbLine
 10
89.8943375672211
 20
-102.1166687769696
 30
0.0
 11
89.8943375672211
 21
-122.161211004471
 31
0.0
  0
ELLIPSE
  5
31E8E
330
1F
100
AcDbEntity
  8
AM_0
100
AcDbEllipse
 10
73.65284581055369
 20
-132.0306236234383
 30
0.0
 11
14.75368316066582
 21
31.0932549155798
 31
-2.584885467126133E-16
210
3.219739584427082E-18
220
6.785572292028020E-18
230
1.0
 40
0.3419987131197482
 41
5.191945721427526
 42
6.125379120534849
  0
LINE
  5
31E8F
330
1F
100
AcDbEntity
  8
AM_0
100
AcDbLine
 10
89.8943375672211
 20
-141.9000362424055
 30
0.0
 11
89.8943375672211
 21
-161.9445784699069
 31
0.0
  0
ELLIPSE
  5
31E90
330
1F
100
AcDbEntity
  8
AM_0
100
AcDbEllipse
 10
73.65284581055369
 20
-132.0306236234383
 30
0.0
 11
-14.75368316066471
 21
31.09325491558032
 31
2.584885467125726E-16
210
3.219739584426334E-18
220
-6.785572292027064E-18
230
0.9999999999999999
 40
0.3419987131197481
 41
3.299398840235119
 42
4.232832239342441
  0
LINE
  5
31E9E
330
1F
100
AcDbEntity
  8
AM_0
100
AcDbLine
 10
99.99999999992349
 20
-100.8306236234384
 30
0.0
 11
99.69999999992353
 21
-100.5306236234384
 31
0.0
  0
LINE
  5
31E9F
330
1F
100
AcDbEntity
  8
AM_0
100
AcDbLine
 10
99.99999999992349
 20
-163.2306236234381
 30
0.0
 11
99.69999999992353
 21
-163.5306236234382
 31
0.0
  0
LINE
  5
31EA7
330
1F
100
AcDbEntity
  8
AM_0
100
AcDbLine
 10
99.69999999992353
 20
-163.5306236234383
 30
0.0
 11
99.69999999992353
 21
-100.5306236234383
 31
0.0
  0
LINE
  5
31EA9
330
1F
100
AcDbEntity
  8
AM_0
100
AcDbLine
 10
99.99999999992349
 20
-163.2306236234381
 30
0.0
 11
99.99999999992349
 21
-100.8306236234384
 31
0.0
  0
ARC
  5
31EF5
330
1F
100
AcDbEntity
  8
AM_0
100
AcDbCircle
 10
86.50045252233059
 20
29.53399914013897
 30
0.0
 40
0.5479284202349815
100
AcDbArc
 50
85.99988912538892
 51
136.0969323304974
  0
SPLINE
  5
31EF6
330
1F
100
AcDbEntity
  8
AM_0
100
AcDbSpline
210
0.0
220
0.0
230
1.0
 70
     8
 71
     3
 72
    16
 73
    12
 74
     0
 42
0.0000000001
 43
0.0000000001
 40
2.582172705186496
 40
2.582172705186496
 40
2.582172705186496
 40
2.582172705186496
 40
2.669304144884479
 40
2.669304144884479
 40
2.756435584582462
 40
2.756435584582462
 40
2.907176786441196
 40
2.907176786441196
 40
3.057917988299931
 40
3.057917988299931
 40
3.291061354033606
 40
3.291061354033606
 40
3.291061354033606
 40
3.291061354033606
 10
86.53867513451843
 20
9.349221314525892
 30
0.0
 10
86.50963132128578
 20
9.349221314525892
 30
0.0
 10
86.47870514509287
 20
9.354828117979764
 30
0.0
 10
86.42064275820206
 20
9.376398742816548
 30
0.0
 10
86.39344719210254
 20
9.392215844561861
 30
0.0
 10
86.33064349080627
 20
9.438407964108023
 30
0.0
 10
86.29436051476836
 20
9.477159545395637
 30
0.0
 10
86.23207013390282
 20
9.562306938684515
 30
0.0
 10
86.20598522280687
 20
9.608649836631457
 30
0.0
 10
86.15285331547017
 20
9.719459621466683
 30
0.0
 10
86.12657964019542
 20
9.792948617295053
 30
0.0
 10
86.10566243262628
 20
9.869412618967147
 30
0.0
  0
LINE
  5
31EF7
330
1F
100
AcDbEntity
  8
AM_0
100
AcDbLine
 10
86.53867513451843
 20
30.08059276031639
 30
0.0
 11
89.461324865329
 21
30.08059276031639
 31
0.0
  0
LINE
  5
31EF8
330
1F
100
AcDbEntity
  8
AM_0
100
AcDbLine
 10
89.461324865329
 20
9.349221314526119
 30
0.0
 11
86.53867513451843
 21
9.349221314526119
 31
0.0
  0
ARC
  5
31EF9
330
1F
100
AcDbEntity
  8
AM_0
100
AcDbCircle
 10
89.49908377153969
 20
29.53279418879578
 30
0.0
 40
0.549098360913817
100
AcDbArc
 50
43.96010608809197
 51
93.94307245602543
  0
SPLINE
  5
31EFA
330
1F
100
AcDbEntity
  8
AM_0
100
AcDbSpline
210
0.0
220
0.0
230
1.0
 70
     8
 71
     3
 72
    14
 73
    10
 74
     0
 42
0.0000000001
 43
0.0000000001
 40
1.857826772665455
 40
1.857826772665455
 40
1.857826772665455
 40
1.857826772665455
 40
2.207526087195107
 40
2.207526087195107
 40
2.394849396190826
 40
2.394849396190826
 40
2.488511050688685
 40
2.488511050688685
 40
2.582172705186545
 40
2.582172705186545
 40
2.582172705186545
 40
2.582172705186545
 10
89.89433756722116
 20
9.869412618967203
 30
0.0
 10
89.86299706045071
 20
9.75484567430334
 30
0.0
 10
89.82001471768029
 20
9.645467437688239
 30
0.0
 10
89.7254980417469
 20
9.500603316189086
 30
0.0
 10
89.68309842517471
 20
9.449323226045067
 30
0.0
 10
89.60747186744169
 20
9.392524140926923
 30
0.0
 10
89.5802737793461
 20
9.376890579181918
 30
0.0
 10
89.52280796879364
 20
9.355245288766355
 30
0.0
 10
89.49254541682836
 20
9.349221314526176
 30
0.0
 10
89.461324865329
 20
9.349221314526176
 30
0.0
  0
ELLIPSE
  5
31EFB
330
1F
100
AcDbEntity
  8
AM_0
100
AcDbEllipse
 10
73.65284581055374
 20
-0.0000000000000568
 30
0.0
 11
-14.75368316066581
 21
-31.0932549155798
 31
0.0
210
0.0
220
0.0
230
1.0
 40
0.3419987131197481
 41
2.050353067837734
 42
2.983786466945056
  0
ARC
  5
31EFC
330
1F
100
AcDbEntity
  8
AM_0
100
AcDbCircle
 10
86.50091622830774
 20
-29.53279418879555
 30
0.0
 40
0.5490983609142087
100
AcDbArc
 50
223.9601060881012
 51
273.943072456006
  0
SPLINE
  5
31EFD
330
1F
100
AcDbEntity
  8
AM_0
100
AcDbSpline
210
0.0
220
0.0
230
1.0
 70
     8
 71
     3
 72
    14
 73
    10
 74
     0
 42
0.0000000001
 43
0.0000000001
 40
1.857826772665185
 40
1.857826772665185
 40
1.857826772665185
 40
1.857826772665185
 40
2.207526087195061
 40
2.207526087195061
 40
2.394849396190778
 40
2.394849396190778
 40
2.488511050688637
 40
2.488511050688637
 40
2.582172705186495
 40
2.582172705186495
 40
2.582172705186495
 40
2.582172705186495
 10
86.10566243262628
 20
-9.86941261896726
 30
0.0
 10
86.13700293939672
 20
-9.754845674303283
 30
0.0
 10
86.17998528216714
 20
-9.645467437688069
 30
0.0
 10
86.27450195810064
 20
-9.500603316188915
 30
0.0
 10
86.31690157467273
 20
-9.449323226044839
 30
0.0
 10
86.39252813240586
 20
-9.392524140926696
 30
0.0
 10
86.41972622050145
 20
-9.376890579181691
 30
0.0
 10
86.47719203105379
 20
-9.355245288766184
 30
0.0
 10
86.50745458301918
 20
-9.349221314526005
 30
0.0
 10
86.53867513451843
 20
-9.349221314526005
 30
0.0
  0
ELLIPSE
  5
31EFE
330
1F
100
AcDbEntity
  8
AM_0
100
AcDbEllipse
 10
102.3471541892835
 20
0.0
 30
0.0
 11
-14.75368316065456
 21
-31.09325491558076
 31
0.0
210
0.0
220
0.0
230
1.0
 40
0.3419987131196121
 41
5.191945721427338
 42
6.125379120534663
  0
LINE
  5
31EFF
330
1F
100
AcDbEntity
  8
AM_0
100
AcDbLine
 10
89.46132486532895
 20
-30.08059276031645
 30
0.0
 11
86.53867513451837
 21
-30.08059276031645
 31
0.0
  0
LINE
  5
31F00
330
1F
100
AcDbEntity
  8
AM_0
100
AcDbLine
 10
86.53867513451854
 20
-9.349221314526233
 30
0.0
 11
89.46132486532912
 21
-9.349221314526233
 31
0.0
  0
ARC
  5
31F01
330
1F
100
AcDbEntity
  8
AM_0
100
AcDbCircle
 10
89.49908377153957
 20
-29.53279418879623
 30
0.0
 40
0.5490983609134491
100
AcDbArc
 50
266.0569275439549
 51
316.0398939119264
  0
SPLINE
  5
31F02
330
1F
100
AcDbEntity
  8
AM_0
100
AcDbSpline
210
0.0
220
0.0
230
1.0
 70
     8
 71
     3
 72
    14
 73
    10
 74
     0
 42
0.0000000001
 43
0.0000000001
 40
2.563234579399782
 40
2.563234579399782
 40
2.563234579399782
 40
2.563234579399782
 40
2.656896233897641
 40
2.656896233897641
 40
2.750557888395499
 40
2.750557888395499
 40
2.937881197391216
 40
2.937881197391216
 40
3.287580511918981
 40
3.287580511918981
 40
3.287580511918981
 40
3.287580511918981
 10
89.461324865329
 20
-9.34922131452629
 30
0.0
 10
89.49254541682836
 20
-9.34922131452629
 30
0.0
 10
89.52280796879364
 20
-9.355245288766355
 30
0.0
 10
89.5802737793461
 20
-9.376890579181918
 30
0.0
 10
89.60747186744169
 20
-9.392524140926923
 30
0.0
 10
89.68309842517482
 20
-9.449323226045067
 30
0.0
 10
89.7254980417469
 20
-9.500603316189086
 30
0.0
 10
89.82001471767995
 20
-9.645467437687728
 30
0.0
 10
89.86299706045094
 20
-9.754845674304022
 30
0.0
 10
89.89433756722116
 20
-9.86941261896726
 30
0.0
  0
ELLIPSE
  5
31F03
330
1F
100
AcDbEntity
  8
AM_0
100
AcDbEllipse
 10
102.3471541892835
 20
0.0
 30
0.0
 11
-14.75368316065344
 21
31.09325491558128
 31
0.0
210
0.0
220
0.0
230
1.0
 40
0.3419987131196118
 41
0.1578061866455143
 42
1.091239585752841
  0
ELLIPSE
  5
31F04
330
1F
100
AcDbEntity
  8
AM_0
100
AcDbEllipse
 10
73.65284581055374
 20
-0.0000000000000568
 30
0.0
 11
-14.75368316066472
 21
31.09325491558032
 31
0.0
210
0.0
220
0.0
230
1.0
 40
0.3419987131197479
 41
3.29939884023512
 42
4.232832239342442
  0
LINE
  5
31F0A
330
1F
100
AcDbEntity
  8
AM_0
100
AcDbLine
 10
99.99999999992366
 20
31.19999999999982
 30
0.0
 11
99.69999999992359
 21
31.49999999999989
 31
0.0
  0
LINE
  5
31F0B
330
1F
100
AcDbEntity
  8
AM_0
100
AcDbLine
 10
99.99999999992349
 20
-31.19999999999993
 30
0.0
 11
99.69999999992353
 21
-31.49999999999989
 31
0.0
  0
LINE
  5
31F1F
330
1F
100
AcDbEntity
  8
AM_0
100
AcDbLine
 10
86.10566243262628
 20
29.91395484646858
 30
0.0
 11
86.10566243262628
 21
9.869412618967147
 31
0.0
  0
LINE
  5
31F20
330
1F
100
AcDbEntity
  8
AM_0
100
AcDbLine
 10
86.53867513451843
 20
30.08059276031645
 30
0.0
 11
86.53867513451843
 21
9.349221314525892
 31
0.0
  0
LINE
  5
31F21
330
1F
100
AcDbEntity
  8
AM_0
100
AcDbLine
 10
89.461324865329
 20
30.08059276031639
 30
0.0
 11
89.461324865329
 21
9.349221314526176
 31
0.0
  0
LINE
  5
31F22
330
1F
100
AcDbEntity
  8
AM_0
100
AcDbLine
 10
89.461324865329
 20
-9.34922131452629
 30
0.0
 11
89.46132486532895
 21
-30.08059276031645
 31
0.0
  0
LINE
  5
31F23
330
1F
100
AcDbEntity
  8
AM_0
100
AcDbLine
 10
86.53867513451843
 20
-9.349221314526005
 30
0.0
 11
86.53867513451837
 21
-30.08059276031656
 31
0.0
  0
LINE
  5
31F24
330
1F
100
AcDbEntity
  8
AM_0
100
AcDbLine
 10
86.10566243262628
 20
-9.86941261896726
 30
0.0
 11
86.10566243262622
 21
-29.91395484646864
 31
0.0
  0
LINE
  5
31F25
330
1F
100
AcDbEntity
  8
AM_0
100
AcDbLine
 10
89.89433756722116
 20
29.91395484646853
 30
0.0
 11
89.89433756722116
 21
9.869412618967175
 31
0.0
  0
LINE
  5
31F26
330
1F
100
AcDbEntity
  8
AM_0
100
AcDbLine
 10
89.89433756722116
 20
-9.869412618967317
 30
0.0
 11
89.8943375672211
 21
-29.91395484646864
 31
0.0
  0
LINE
  5
32379
330
1F
100
AcDbEntity
  8
AM_0
100
AcDbLine
 10
136.5004731679037
 20
-109.4722721149759
 30
0.0
 11
101.9895983682038
 21
-108.6052388175306
 31
0.0
  0
LINE
  5
3237A
330
1F
100
AcDbEntity
  8
AM_0
100
AcDbLine
 10
101.3071067811101
 20
-109.2877304046245
 30
0.0
 11
101.9895983682038
 21
-108.6052388175306
 31
0.0
  0
LINE
  5
3237F
330
1F
100
AcDbEntity
  8
AM_0
100
AcDbLine
 10
137.9999999999234
 20
-110.3889947750544
 30
0.0
 11
136.5004731679037
 21
-109.4722721149758
 31
0.0
  0
LINE
  5
32384
330
1F
100
AcDbEntity
  8
AM_0
100
AcDbLine
 10
111.0600462221751
 20
-152.4281272076214
 30
0.0
 11
99.99999999992338
 21
-152.7059940655794
 31
0.0
  0
LINE
  5
32385
330
1F
100
AcDbEntity
  8
AM_0
100
AcDbLine
 10
132.9999999999234
 20
-151.8769192020254
 30
0.0
 11
119.9600462221752
 21
-152.2045282292689
 31
0.0
  0
LINE
  5
32387
330
1F
100
AcDbEntity
  8
AM_3
  6
ACJISTGL
100
AcDbLine
 10
136.4999999999233
 20
-116.7176725805258
 30
0.0
 11
136.4999999999234
 21
-147.3435746663506
 31
0.0
  0
LINE
  5
3238D
330
1F
100
AcDbEntity
  8
AM_0
100
AcDbLine
 10
101.9999999999234
 20
-138.6813113824878
 30
0.0
 11
101.9999999999234
 21
-109.807695213285
 31
0.0
  0
LINE
  5
3238E
330
1F
100
AcDbEntity
  8
AM_0
100
AcDbLine
 10
101.9999999999234
 20
-141.5475366639154
 30
0.0
 11
101.9999999999234
 21
-138.6813113824878
 31
0.0
  0
LINE
  5
3238F
330
1F
100
AcDbEntity
  8
AM_0
100
AcDbLine
 10
101.9999999999234
 20
-109.8076952132844
 30
0.0
 11
101.9999999999234
 21
-108.8539906555156
 31
0.0
  0
LINE
  5
32393
330
1F
100
AcDbEntity
  8
AM_0
100
AcDbLine
 10
137.9999999999234
 20
-110.3889947750543
 30
0.0
 11
137.9999999999234
 21
-111.4069192210376
 31
0.0
  0
LINE
  5
32394
330
1F
100
AcDbEntity
  8
AM_0
100
AcDbLine
 10
136.5004731679037
 20
-110.5849123252087
 30
0.0
 11
136.5004731679037
 21
-109.4722721149758
 31
0.0
  0
LINE
  5
32395
330
1F
100
AcDbEntity
  8
AM_0
100
AcDbLine
 10
137.9999999999234
 20
-111.4069192210382
 30
0.0
 11
137.9999999999234
 21
-138.5654403803302
 31
0.0
  0
LINE
  5
32396
330
1F
100
AcDbEntity
  8
AM_0
100
AcDbLine
 10
136.5004731679037
 20
-138.6249984924761
 30
0.0
 11
136.5004731679036
 21
-110.5849123252093
 31
0.0
  0
LINE
  5
32397
330
1F
100
AcDbEntity
  8
AM_0
100
AcDbLine
 10
137.9999999999234
 20
-138.5654403803302
 30
0.0
 11
137.9999999999234
 21
-146.1195112689454
 31
0.0
  0
LINE
  5
32398
330
1F
100
AcDbEntity
  8
AM_0
100
AcDbLine
 10
136.5004731679037
 20
-146.8819600526283
 30
0.0
 11
136.5004731679037
 21
-138.624998492476
 31
0.0
  0
LINE
  5
32399
330
1F
100
AcDbEntity
  8
AM_0
100
AcDbLine
 10
137.9999999999234
 20
-146.1195112689456
 30
0.0
 11
137.9999999999234
 21
-150.7533026359362
 31
0.0
  0
LINE
  5
3239A
330
1F
100
AcDbEntity
  8
AM_0
100
AcDbLine
 10
136.5004731679036
 20
-151.5653375538556
 30
0.0
 11
136.5004731679037
 21
-146.8819600526285
 31
0.0
  0
LINE
  5
3239B
330
1F
100
AcDbEntity
  8
AM_0
100
AcDbLine
 10
132.9999999999234
 20
-151.644602096742
 30
0.0
 11
132.9999999999234
 21
-151.8769192020254
 31
0.0
  0
ARC
  5
323A1
330
1F
100
AcDbEntity
  8
AM_0
100
AcDbCircle
 10
100.5999999999232
 20
-108.5806236234382
 30
0.0
 40
1.0
100
AcDbArc
 50
233.1301023541707
 51
315.0000000000184
  0
ARC
  5
323A2
330
1F
100
AcDbEntity
  8
AM_0
100
AcDbCircle
 10
88.55740071062218
 20
-143.5582160102625
 30
0.0
 40
13.45985320576692
100
AcDbArc
 50
342.4557432490497
 51
8.500764333600301
  0
LINE
  5
323A3
330
1F
100
AcDbEntity
  8
AM_0
100
AcDbLine
 10
101.8694028747475
 20
-108.8464832034505
 30
0.0
 11
101.9896339807895
 21
-108.605256567397
 31
0.0
  0
LINE
  5
323A4
330
1F
100
AcDbEntity
  8
AM_0
100
AcDbLine
 10
101.2999389376821
 20
-109.727481297908
 30
0.0
 11
101.862315321187
 21
-108.8419847019019
 31
0.0
  0
LINE
  5
323A5
330
1F
100
AcDbEntity
  8
AM_0
100
AcDbLine
 10
101.8693828271536
 20
-108.8464675133377
 30
0.0
 11
102.0000003207366
 21
-108.8539850813959
 31
0.0
  0
LINE
  5
323A6
330
1F
100
AcDbEntity
  8
AM_0
100
AcDbLine
 10
101.8693844577419
 20
-141.5685575701145
 30
0.0
 11
102.0000019613266
 21
-141.547548858551
 31
0.0
  0
LINE
  5
323A7
330
1F
100
AcDbEntity
  8
AM_0
100
AcDbLine
 10
101.3038053579973
 20
-139.3065873343515
 30
0.0
 11
101.866423928431
 21
-141.5692811007678
 31
0.0
  0
SPLINE
  5
323A8
330
1F
100
AcDbEntity
  8
AM_0
100
AcDbSpline
210
0.0
220
0.0
230
1.0
 70
     8
 71
     3
 72
    22
 73
    18
 74
     0
 42
0.0000000001
 43
0.0000000001
 40
-2.001088860157947
 40
-2.001088860157947
 40
-2.001088860157947
 40
-2.001088860157947
 40
-1.390091464536804
 40
-1.390091464536804
 40
-1.135920523871576
 40
-1.135920523871576
 40
-1.015296545225475
 40
-1.015296545225475
 40
-0.9350769137296103
 40
-0.9350769137296103
 40
-0.858379408596526
 40
-0.858379408596526
 40
-0.7615084108000589
 40
-0.7615084108000589
 40
-0.5987514027027772
 40
-0.5987514027027772
 40
0.0
 40
0.0
 40
0.0
 40
0.0
 10
101.30710678111
 20
-139.3057664358368
 30
0.0
 10
101.2220872927774
 20
-138.948098935949
 30
0.0
 10
101.1225837047898
 20
-138.6499227981687
 30
0.0
 10
100.9663118588737
 20
-138.3414121810702
 30
0.0
 10
100.9080763187084
 20
-138.2441407733793
 30
0.0
 10
100.8065192472488
 20
-138.1337231132166
 30
0.0
 10
100.7687987104916
 20
-138.1003539972524
 30
0.0
 10
100.6987848950586
 20
-138.0607099532696
 30
0.0
 10
100.6688457236435
 20
-138.0490667265926
 30
0.0
 10
100.6068113331644
 20
-138.0388375237139
 30
0.0
 10
100.5766604841558
 20
-138.0399964703229
 30
0.0
 10
100.5089850140387
 20
-138.0560074157882
 30
0.0
 10
100.4740564539244
 20
-138.0738014089066
 30
0.0
 10
100.3891322666902
 20
-138.133820594232
 30
0.0
 10
100.3426202359649
 20
-138.1861648106256
 30
0.0
 10
100.162431450178
 20
-138.4317519831786
 30
0.0
 10
100.0592716797452
 20
-138.7217436156051
 30
0.0
 10
99.99999999992315
 20
-138.9118119661943
 30
0.0
  0
SPLINE
  5
323A9
330
1F
100
AcDbEntity
  8
AM_0
100
AcDbSpline
210
0.0
220
0.0
230
1.0
 70
     8
 71
     3
 72
    22
 73
    18
 74
     0
 42
0.0000000001
 43
0.0000000001
 40
-3.608297247991451
 40
-3.608297247991451
 40
-3.608297247991451
 40
-3.608297247991451
 40
-2.530308969091733
 40
-2.530308969091733
 40
-2.252602965573062
 40
-2.252602965573062
 40
-2.090576289934671
 40
-2.090576289934671
 40
-1.955422443234214
 40
-1.955422443234214
 40
-1.803181533646466
 40
-1.803181533646466
 40
-1.567937045222921
 40
-1.567937045222921
 40
-1.094836533147729
 40
-1.094836533147729
 40
-0.0014877806800928
 40
-0.0014877806800928
 40
-0.0014877806800928
 40
-0.0014877806800928
 10
99.99999999992315
 20
-109.9016959189802
 30
0.0
 10
100.0593286477053
 20
-109.9847293543184
 30
0.0
 10
100.1626501198987
 20
-110.1143217457749
 30
0.0
 10
100.3411278839119
 20
-110.2250936850893
 30
0.0
 10
100.3847339087772
 20
-110.2477407304381
 30
0.0
 10
100.4632735071102
 20
-110.2746105241909
 30
0.0
 10
100.4951255835628
 20
-110.2828752906237
 30
0.0
 10
100.5582669295485
 20
-110.2920060840834
 30
0.0
 10
100.5876669124481
 20
-110.2937106638335
 30
0.0
 10
100.6514610668307
 20
-110.2913999509184
 30
0.0
 10
100.6835675134953
 20
-110.286723569633
 30
0.0
 10
100.760489281698
 20
-110.2687185528427
 30
0.0
 10
100.8020794049166
 20
-110.25220931498
 30
0.0
 10
100.9091329422437
 20
-110.199246213521
 30
0.0
 10
100.969324166865
 20
-110.1530525460368
 30
0.0
 10
101.1250739794045
 20
-110.012983203776
 30
0.0
 10
101.2231559144614
 20
-109.8820900137915
 30
0.0
 10
101.3071067811101
 20
-109.7320335749949
 30
0.0
  0
SPLINE
  5
323AF
330
1F
100
AcDbEntity
  8
AM_0
100
AcDbSpline
210
0.0
220
0.0
230
1.0
 70
     8
 71
     3
 72
    22
 73
    18
 74
     0
 42
0.0000000001
 43
0.0000000001
 40
0.0
 40
0.0
 40
0.0
 40
0.0
 40
1.24928658656778
 40
1.24928658656778
 40
1.776460179713746
 40
1.776460179713746
 40
2.005422428856085
 40
2.005422428856085
 40
2.152398627518596
 40
2.152398627518596
 40
2.281576123806236
 40
2.281576123806236
 40
2.43421133612644
 40
2.43421133612644
 40
2.692936324137533
 40
2.692936324137533
 40
3.777444205468512
 40
3.777444205468512
 40
3.777444205468512
 40
3.777444205468512
 10
101.3071067811103
 20
-147.8260757065802
 30
0.0
 10
101.2177357604958
 20
-148.0494810691586
 30
0.0
 10
101.1119152397407
 20
-148.2307365983115
 30
0.0
 10
100.9457956887425
 20
-148.4153296363676
 30
0.0
 10
100.8807765465022
 20
-148.4761186050606
 30
0.0
 10
100.76906541892
 20
-148.540424762191
 30
0.0
 10
100.7294313354178
 20
-148.5588548253641
 30
0.0
 10
100.6564439901547
 20
-148.5795877223827
 30
0.0
 10
100.6260605415182
 20
-148.5852690388093
 30
0.0
 10
100.5658860340989
 20
-148.5892462285939
 30
0.0
 10
100.5382679668714
 20
-148.5882345349163
 30
0.0
 10
100.4793095922313
 20
-148.5804220753847
 30
0.0
 10
100.4497430463468
 20
-148.5728051855238
 30
0.0
 10
100.3772127103068
 20
-148.5474280442107
 30
0.0
 10
100.3370533139439
 20
-148.5255222220188
 30
0.0
 10
100.1617917053707
 20
-148.4092959356672
 30
0.0
 10
100.058833162223
 20
-148.2569723193363
 30
0.0
 10
99.99999999992338
 20
-148.1553793272694
 30
0.0
  0
LINE
  5
323B0
330
1F
100
AcDbEntity
  8
AM_0
100
AcDbLine
 10
101.3071284806608
 20
-147.8260843717404
 30
0.0
 11
101.3911820898361
 21
-147.6155948195029
 31
0.0
  0
ARC
  5
323B1
330
1F
100
AcDbEntity
  8
AM_0
100
AcDbCircle
 10
116.2278873482716
 20
-180.8888465614984
 30
0.0
 40
28.92609769818128
100
AcDbArc
 50
82.58680724521055
 51
100.2915260887815
  0
LINE
  5
323B2
330
1F
100
AcDbEntity
  8
AM_0
100
AcDbLine
 10
132.9999995604826
 20
-151.6445826902024
 30
0.0
 11
136.5004727284583
 21
-151.5653181471151
 31
0.0
  0
LINE
  5
323B3
330
1F
100
AcDbEntity
  8
AM_0
100
AcDbLine
 10
136.4997921604866
 20
-151.5640803809413
 30
0.0
 11
137.9992121935388
 21
-150.7518483069176
 31
0.0
  0
ARC
  5
323B8
330
1F
100
AcDbEntity
  8
AM_0
100
AcDbCircle
 10
79.43436266931735
 20
-0.0168686904181641
 30
0.0
 40
22.55828980360275
100
AcDbArc
 50
354.0074571860092
 51
13.26078240284769
  0
LINE
  5
323B9
330
1F
100
AcDbEntity
  8
AM_0
100
AcDbLine
 10
101.3053898793864
 20
-4.473026065993224
 30
0.0
 11
101.8679140998857
 21
-2.371539042416885
 31
0.0
  0
LINE
  5
323BA
330
1F
100
AcDbEntity
  8
AM_0
100
AcDbLine
 10
101.8693841697103
 20
-2.371921210210644
 30
0.0
 11
102.0000016715873
 21
-2.391839709292697
 31
0.0
  0
SPLINE
  5
323BB
330
1F
100
AcDbEntity
  8
AM_0
100
AcDbSpline
210
0.0
220
0.0
230
1.0
 70
     8
 71
     3
 72
    22
 73
    18
 74
     0
 42
0.0000000001
 43
0.0000000001
 40
-3.608297247991451
 40
-3.608297247991451
 40
-3.608297247991451
 40
-3.608297247991451
 40
-2.530308969091733
 40
-2.530308969091733
 40
-2.252602965573062
 40
-2.252602965573062
 40
-2.090576289934671
 40
-2.090576289934671
 40
-1.955422443234214
 40
-1.955422443234214
 40
-1.803181533646466
 40
-1.803181533646466
 40
-1.567937045222921
 40
-1.567937045222921
 40
-1.094836533147729
 40
-1.094836533147729
 40
-0.0014877806800928
 40
-0.0014877806800928
 40
-0.0014877806800928
 40
-0.0014877806800928
 10
99.99999999992343
 20
-4.830430482976908
 30
0.0
 10
100.0593286477054
 20
-5.002174075266908
 30
0.0
 10
100.162650119899
 20
-5.262713711458162
 30
0.0
 10
100.3411278839121
 20
-5.479176316986866
 30
0.0
 10
100.3847339087774
 20
-5.52311898876917
 30
0.0
 10
100.4632735071105
 20
-5.575039638617795
 30
0.0
 10
100.4951255835629
 20
-5.590957057784806
 30
0.0
 10
100.5582669295487
 20
-5.608527859433593
 30
0.0
 10
100.5876669124482
 20
-5.61180239544575
 30
0.0
 10
100.6514610668308
 20
-5.607359554428399
 30
0.0
 10
100.6835675134955
 20
-5.598370842511883
 30
0.0
 10
100.7604892816983
 20
-5.563672324507024
 30
0.0
 10
100.8020794049168
 20
-5.531780625104773
 30
0.0
 10
100.9091329422438
 20
-5.428885401220498
 30
0.0
 10
100.9693241668652
 20
-5.338291920020367
 30
0.0
 10
101.1250739794046
 20
-5.05992928294296
 30
0.0
 10
101.2231559144614
 20
-4.79465833449342
 30
0.0
 10
101.3071067811102
 20
-4.473485644754874
 30
0.0
  0
LINE
  5
323BC
330
1F
100
AcDbEntity
  8
AM_0
100
AcDbLine
 10
101.3070455246366
 20
5.497822246605949
 30
0.0
 11
101.3911001287409
 21
5.157617298124137
 31
0.0
  0
SPLINE
  5
323BD
330
1F
100
AcDbEntity
  8
AM_0
100
AcDbSpline
210
0.0
220
0.0
230
1.0
 70
     8
 71
     3
 72
    22
 73
    18
 74
     0
 42
0.0000000001
 43
0.0000000001
 40
0.0
 40
0.0
 40
0.0
 40
0.0
 40
0.6104979114020642
 40
0.6104979114020642
 40
0.7635149291197938
 40
0.7635149291197938
 40
0.8554662116289986
 40
0.8554662116289986
 40
0.9294361364572942
 40
0.9294361364572942
 40
1.007795334351185
 40
1.007795334351185
 40
1.127823541472723
 40
1.127823541472723
 40
1.385991912774112
 40
1.385991912774112
 40
2.103995362990674
 40
2.103995362990674
 40
2.103995362990674
 40
2.103995362990674
 10
99.99999999992343
 20
6.011229326403793
 30
0.0
 10
100.058928243036
 20
6.182397148276095
 30
0.0
 10
100.1622011784214
 20
6.442996489629195
 30
0.0
 10
100.3397710099014
 20
6.648058949828851
 30
0.0
 10
100.3826261596174
 20
6.68869882339186
 30
0.0
 10
100.4610371868061
 20
6.73484110737877
 30
0.0
 10
100.4933726241031
 20
6.74830999242181
 30
0.0
 10
100.5563682669475
 20
6.75979126365047
 30
0.0
 10
100.5846084615141
 20
6.76003671034681
 30
0.0
 10
100.642965164032
 20
6.750309944925959
 30
0.0
 10
100.6712689110598
 20
6.740034106867029
 30
0.0
 10
100.7380503986088
 20
6.705549579671981
 30
0.0
 10
100.774304323069
 20
6.676636163575665
 30
0.0
 10
100.8730267160817
 20
6.580493520976177
 30
0.0
 10
100.9302225179518
 20
6.495149839023327
 30
0.0
 10
101.1001092610989
 20
6.196515295458084
 30
0.0
 10
101.212844460358
 20
5.881139906258625
 30
0.0
 10
101.3071067811105
 20
5.497837381272348
 30
0.0
  0
LINE
  5
323BE
330
1F
100
AcDbEntity
  8
AM_0
100
AcDbLine
 10
136.5004731679038
 20
-21.01771271288897
 30
0.0
 11
101.9999999999235
 21
-21.88448468514031
 31
0.0
  0
LINE
  5
323BF
330
1F
100
AcDbEntity
  8
AM_0
100
AcDbLine
 10
99.99999999992349
 20
-21.65936120442632
 30
0.0
 11
101.9999999999235
 21
-21.65936120442632
 31
0.0
  0
LINE
  5
323C0
330
1F
100
AcDbEntity
  8
AM_0
100
AcDbLine
 10
137.9999999999235
 20
-20.10099005281052
 30
0.0
 11
136.5004731679037
 21
-21.01771271288897
 31
0.0
  0
LINE
  5
323C1
330
1F
100
AcDbEntity
  8
AM_0
100
AcDbLine
 10
137.9999999999236
 20
20.1009900528102
 30
0.0
 11
136.5004731679038
 21
21.01771271288871
 31
0.0
  0
LINE
  5
323C2
330
1F
100
AcDbEntity
  8
AM_0
100
AcDbLine
 10
101.9999999999235
 20
-21.88448468514031
 30
0.0
 11
101.9999999999237
 21
-5.150860963814807
 31
0.0
  0
LINE
  5
323C3
330
1F
100
AcDbEntity
  8
AM_0
100
AcDbLine
 10
101.9999999999237
 20
-5.150860963815092
 30
0.0
 11
101.9999999999237
 21
-2.391850671391126
 31
0.0
  0
LINE
  5
323C4
330
1F
100
AcDbEntity
  8
AM_0
100
AcDbLine
 10
137.9999999999237
 20
4.361344861019916
 30
0.0
 11
137.9999999999237
 21
-4.361344861018438
 31
0.0
  0
LINE
  5
323C5
330
1F
100
AcDbEntity
  8
AM_0
100
AcDbLine
 10
136.5004731679038
 20
-4.767158979441206
 30
0.0
 11
136.5004731679038
 21
4.767158979442797
 31
0.0
  0
LINE
  5
323C6
330
1F
100
AcDbEntity
  8
AM_0
100
AcDbLine
 10
137.9999999999236
 20
-4.36134486101821
 30
0.0
 11
137.9999999999235
 21
-20.10099005281052
 31
0.0
  0
LINE
  5
323C7
330
1F
100
AcDbEntity
  8
AM_0
100
AcDbLine
 10
136.5004731679037
 20
-21.01771271288897
 30
0.0
 11
136.5004731679038
 21
-4.767158979440865
 31
0.0
  0
LINE
  5
323C8
330
1F
100
AcDbEntity
  8
AM_0
100
AcDbLine
 10
136.5004731679038
 20
4.767158979442797
 30
0.0
 11
136.5004731679038
 21
21.01771271288871
 31
0.0
  0
LINE
  5
323C9
330
1F
100
AcDbEntity
  8
AM_0
100
AcDbLine
 10
137.9999999999236
 20
20.1009900528102
 30
0.0
 11
137.9999999999236
 21
4.361344861020029
 31
0.0
  0
LINE
  5
323CA
330
1F
100
AcDbEntity
  8
AM_0
100
AcDbLine
 10
101.8693841697103
 20
2.37192121021053
 30
0.0
 11
102.0000016715873
 21
2.391839709292583
 31
0.0
  0
LINE
  5
323CB
330
1F
100
AcDbEntity
  8
AM_0
100
AcDbLine
 10
136.5004731679039
 20
21.01771271288882
 30
0.0
 11
101.9999999999236
 21
21.88448468514019
 31
0.0
  0
LINE
  5
323CC
330
1F
100
AcDbEntity
  8
AM_0
100
AcDbLine
 10
99.99999999992355
 20
21.6593612044262
 30
0.0
 11
101.9999999999236
 21
21.6593612044262
 31
0.0
  0
LINE
  5
323CD
330
1F
100
AcDbEntity
  8
AM_0
100
AcDbLine
 10
101.9999999999236
 20
21.88448468514019
 30
0.0
 11
101.9999999999237
 21
5.150860963814694
 31
0.0
  0
LINE
  5
323CE
330
1F
100
AcDbEntity
  8
AM_0
100
AcDbLine
 10
101.9999999999237
 20
5.150860963814978
 30
0.0
 11
101.9999999999237
 21
2.391850671391012
 31
0.0
  0
LINE
  5
33106
330
1F
100
AcDbEntity
  8
AM_0
100
AcDbLine
 10
34.31020482403926
 20
2.253236948587528
 30
0.0
 11
34.42129236707285
 21
1.901128208984233
 31
0.0
  0
LINE
  5
33107
330
1F
100
AcDbEntity
  8
AM_0
100
AcDbLine
 10
34.0817985672453
 20
1.89842027677264
 30
0.0
 11
34.42129236707285
 21
1.901128208984233
 31
0.0
  0
LINE
  5
33108
330
1F
100
AcDbEntity
  8
AM_0
100
AcDbLine
 10
34.0817985672453
 20
1.89842027677264
 30
0.0
 11
34.00678146801931
 21
2.136198298824979
 31
0.0
  0
LINE
  5
33109
330
1F
100
AcDbEntity
  8
AM_0
100
AcDbLine
 10
31.44972488934752
 20
11.31995997584545
 30
0.0
 11
31.62369695699215
 21
10.76852924120476
 31
0.0
  0
LINE
  5
3310A
330
1F
100
AcDbEntity
  8
AM_0
100
AcDbLine
 10
31.28420315716528
 20
10.76582130899317
 30
0.0
 11
31.14188831840295
 21
11.21690967709503
 31
0.0
  0
LINE
  5
3310B
330
1F
100
AcDbEntity
  8
AM_0
100
AcDbLine
 10
31.14188831840295
 20
11.21690967709503
 30
0.0
 11
31.44972488934752
 21
11.31995997584545
 31
0.0
  0
LINE
  5
3310C
330
1F
100
AcDbEntity
  8
AM_0
100
AcDbLine
 10
14.57004552829005
 20
-4.976363947894129
 30
0.0
 11
36.46232565444836
 21
-11.87897335746982
 31
0.0
  0
LINE
  5
3310D
330
1F
100
AcDbEntity
  8
AM_0
100
AcDbLine
 10
14.70987124251576
 20
-4.504511912578892
 30
0.0
 11
14.57004552828983
 21
-4.976363947894129
 31
0.0
  0
LINE
  5
3310E
330
1F
100
AcDbEntity
  8
AM_0
100
AcDbLine
 10
22.11355929177955
 20
-2.026079077289296
 30
0.0
 11
14.70987124251599
 21
-4.504511912579005
 31
0.0
  0
LINE
  5
3310F
330
1F
100
AcDbEntity
  8
AM_0
100
AcDbLine
 10
27.215921107383
 20
-2.88114744499228
 30
0.0
 11
23.34468357720664
 21
-2.601381297046032
 31
0.0
  0
LINE
  5
33110
330
1F
100
AcDbEntity
  8
AM_0
100
AcDbLine
 10
14.15683864422169
 20
5.494224053318476
 30
0.0
 11
14.23732202454391
 21
5.2391198280352
 31
0.0
  0
LINE
  5
33111
330
1F
100
AcDbEntity
  8
AM_0
100
AcDbLine
 10
28.96048076357954
 20
10.48666927865486
 30
0.0
 11
23.14743396754659
 21
8.540713971449577
 31
0.0
  0
LINE
  5
33112
330
1F
100
AcDbEntity
  8
AM_0
100
AcDbLine
 10
22.04510432769746
 20
8.171701938995625
 30
0.0
 11
14.22719116308315
 21
5.55460454622505
 31
0.0
  0
LINE
  5
33113
330
1F
100
AcDbEntity
  8
AM_0
100
AcDbLine
 10
28.97057617651205
 20
10.454670343163
 30
0.0
 11
28.96048076357954
 21
10.48666927865486
 31
0.0
  0
LINE
  5
33114
330
1F
100
AcDbEntity
  8
AM_0
100
AcDbLine
 10
31.87325624500829
 20
1.25418762047002
 30
0.0
 11
31.79629529978058
 21
1.498126955904809
 31
0.0
  0
LINE
  5
33115
330
1F
100
AcDbEntity
  8
AM_0
100
AcDbLine
 10
33.71815658244361
 20
12.07933227183753
 30
0.0
 11
36.3249034524116
 21
3.816854501743705
 31
0.0
  0
LINE
  5
33116
330
1F
100
AcDbEntity
  8
AM_0
100
AcDbLine
 10
36.24515631110842
 20
12.925261903207
 30
0.0
 11
33.71815658244361
 21
12.07933227183753
 31
0.0
  0
ELLIPSE
  5
33117
330
1F
100
AcDbEntity
  8
AM_0
100
AcDbEllipse
 10
34.86028379880315
 20
32.60583627600795
 30
0.0
 11
3.73157854090328
 21
-32.84417307555633
 31
5.895383546681235E-17
210
-2.013343444420917E-19
220
1.772081166837523E-18
230
1.0
 40
0.1102601387363943
 41
5.76832985573363
 42
5.833183767955215
  0
LINE
  5
33119
330
1F
100
AcDbEntity
  8
AM_0
100
AcDbLine
 10
39.82940629860684
 20
14.12511295038644
 30
0.0
 11
36.24515631110842
 21
12.925261903207
 31
0.0
  0
LINE
  5
3311B
330
1F
100
AcDbEntity
  8
AM_0
100
AcDbLine
 10
36.46232565444836
 20
-11.8789733574697
 30
0.0
 11
40.06703169422201
 21
-13.01553280607493
 31
0.0
  0
ARC
  5
3311D
330
1F
100
AcDbEntity
  8
AM_0
100
AcDbCircle
 10
34.30033200943859
 20
2.042807209756234
 30
0.0
 40
2.480693012254371
100
AcDbArc
 50
325.8234909105549
 51
19.04913702112838
  0
LINE
  5
3311E
330
1F
100
AcDbEntity
  8
AM_0
100
AcDbLine
 10
99.69999999992359
 20
31.5
 30
0.0
 11
77.99999999992355
 21
31.5
 31
0.0
  0
LINE
  5
3311F
330
1F
100
AcDbEntity
  8
AM_0
100
AcDbLine
 10
99.69999999992353
 20
-31.5
 30
0.0
 11
77.99999999992349
 21
-31.5
 31
0.0
  0
LINE
  5
33120
330
1F
100
AcDbEntity
  8
AM_0
100
AcDbLine
 10
77.99999999992332
 20
31.75
 30
0.0
 11
62.41040832439097
 21
31.75
 31
0.0
  0
LINE
  5
33121
330
1F
100
AcDbEntity
  8
AM_0
100
AcDbLine
 10
77.99999999992349
 20
-31.75
 30
0.0
 11
62.76001573099313
 21
-31.75
 31
0.0
  0
ELLIPSE
  5
33123
330
1F
100
AcDbEntity
  8
AM_0
100
AcDbEllipse
 10
25.80741341542978
 20
-0.5877141852928389
 30
0.0
 11
0.01595225641267315
 21
-1.999936380366971
 31
0.0
210
0.0
220
0.0
230
1.0
 40
0.9701505847080268
 41
5.494006255741466
 42
6.205448352445876
  0
LINE
  5
33124
330
1F
100
AcDbEntity
  8
AM_0
100
AcDbLine
 10
77.99999999992355
 20
31.75
 30
0.0
 11
77.99999999992349
 21
-31.75
 31
0.0
  0
ELLIPSE
  5
33125
330
1F
100
AcDbEntity
  8
AM_0
100
AcDbEllipse
 10
33.45725775136441
 20
6.573330556521455
 30
0.0
 11
0.01196419230959861
 21
-1.499952285275228
 31
7.395570986446986E-32
210
-3.932534823161757E-34
220
4.930223823127258E-32
230
1.0
 40
0.9701505847080223
 41
0.9411999305029463
 42
1.061963621034043
  0
ELLIPSE
  5
33126
330
1F
100
AcDbEntity
  8
AM_0
100
AcDbEllipse
 10
35.343872908447
 20
2.209968059032576
 30
0.0
 11
0.007976128206299098
 21
-0.9999681901834864
 31
0.0
210
0.0
220
0.0
230
1.0
 40
0.9701505847080223
 41
5.018624461091275
 42
6.064762591032764
  0
ELLIPSE
  5
33127
330
1F
100
AcDbEntity
  8
AM_0
100
AcDbEllipse
 10
33.45725775136441
 20
6.573330556521455
 30
0.0
 11
0.01196419230959861
 21
-1.499952285275228
 31
7.395570986446986E-32
210
-3.932534823161757E-34
220
4.930223823127258E-32
230
1.0
 40
0.9701505847080223
 41
2.692099993968834
 42
2.812863684500024
  0
ELLIPSE
  5
33128
330
1F
100
AcDbEntity
  8
AM_0
100
AcDbEllipse
 10
23.4794559385374
 20
-0.6062828632537958
 30
0.0
 11
-0.01595225641280989
 21
1.99993638036697
 31
0.0
210
0.0
220
0.0
230
1.0
 40
0.9701505847080231
 41
2.352413602151652
 42
3.06385569885606
  0
ELLIPSE
  5
33129
330
1F
100
AcDbEntity
  8
AM_0
100
AcDbEllipse
 10
27.35069346870898
 20
-0.8860490112000434
 30
0.0
 11
-0.0159522564128078
 21
1.999936380366708
 31
9.860761315261351E-32
210
3.932534823164639E-34
220
-4.930223823127257E-32
230
1.0
 40
0.9701505847080231
 41
3.063855698858404
 42
5.491296287929691
  0
ELLIPSE
  5
3312A
330
1F
100
AcDbEntity
  8
AM_0
100
AcDbEllipse
 10
12.32929133236405
 20
7.829953181506198
 30
0.0
 11
-0.02392838461921484
 21
2.999904570550455
 31
0.0
210
0.0
220
0.0
230
1.0
 40
0.9701505847080233
 41
3.812254451697698
 42
3.843717832863876
  0
ELLIPSE
  5
3312B
330
1F
100
AcDbEntity
  8
AM_0
100
AcDbEllipse
 10
34.2520941544359
 20
2.050519117061754
 30
0.0
 11
-0.02056613520115438
 21
2.578378940756346
 31
1.271279404919513E-31
210
3.932534823164658E-34
220
-4.930223823127258E-32
230
1.0
 40
0.9701505847080231
 41
1.877031807502116
 42
4.130125510990634
  0
LINE
  5
3312C
330
1F
100
AcDbEntity
  8
AM_0
100
AcDbLine
 10
27.73715061585619
 20
-0.5270800647895158
 30
0.0
 11
28.77075642937587
 21
-0.5188356300521946
 31
0.0
  0
LINE
  5
3312D
330
1F
100
AcDbEntity
  8
AM_0
100
AcDbLine
 10
24.32084366654874
 20
-2.008472934079919
 30
0.0
 11
28.77075642937587
 21
-0.5188356300523083
 31
0.0
  0
ELLIPSE
  5
3312E
330
1F
100
AcDbEntity
  8
AM_0
100
AcDbEllipse
 10
28.53070171166507
 20
0.2420540411083039
 30
0.0
 11
0.006380902564988214
 21
-0.7999745521467894
 31
3.944304526105061E-32
210
-3.932534823080997E-34
220
4.930223823127266E-32
230
1.0
 40
0.970150584708027
 41
0.3062354807069162
 42
0.9703613506385022
  0
LINE
  5
3312F
330
1F
100
AcDbEntity
  8
AM_0
100
AcDbLine
 10
13.60334182616759
 20
-4.88126926643838
 30
0.0
 11
14.70778578125544
 21
-4.511549453175917
 31
0.0
  0
LINE
  5
33130
330
1F
100
AcDbEntity
  8
AM_0
100
AcDbLine
 10
22.13295893741031
 20
-2.025924338303753
 30
0.0
 11
26.58317809988409
 21
-0.5361844649970635
 31
0.0
  0
LINE
  5
33131
330
1F
100
AcDbEntity
  8
AM_0
100
AcDbLine
 10
26.58317809988387
 20
-0.5361844649971772
 30
0.0
 11
27.73745701550968
 21
-0.5269774955083904
 31
0.0
  0
LINE
  5
33132
330
1F
100
AcDbEntity
  8
AM_0
100
AcDbLine
 10
23.28723785303612
 20
-2.016717368814966
 30
0.0
 11
27.73745701551013
 21
-0.5269774955082767
 31
0.0
  0
LINE
  5
33133
330
1F
100
AcDbEntity
  8
AM_0
100
AcDbLine
 10
0.5494269557381131
 20
-0.7653857176629799
 30
0.0
 11
13.60334182616714
 21
-4.881269266438494
 31
0.0
  0
LINE
  5
33134
330
1F
100
AcDbEntity
  8
AM_0
100
AcDbLine
 10
13.60334182616714
 20
-4.88126926643838
 30
0.0
 11
14.6005824475609
 21
-4.873314894362579
 31
0.0
  0
LINE
  5
33135
330
1F
100
AcDbEntity
  8
AM_0
100
AcDbLine
 10
13.51590356632471
 20
5.105587693023608
 30
0.0
 11
0.5360672926079815
 21
0.760502891582405
 31
0.0
  0
LINE
  5
33136
330
1F
100
AcDbEntity
  8
AM_0
100
AcDbLine
 10
13.87585933172079
 20
4.992094076144099
 30
0.0
 11
13.51590356632471
 21
5.105587693023495
 31
0.0
  0
LINE
  5
33137
330
1F
100
AcDbEntity
  8
AM_0
100
AcDbLine
 10
13.51590356632471
 20
5.105587693023495
 30
0.0
 11
14.04270570325355
 21
5.109789668071016
 31
0.0
  0
ELLIPSE
  5
33138
330
1F
100
AcDbEntity
  8
AM_0
100
AcDbEllipse
 10
26.34312338217308
 20
0.2247052061634349
 30
0.0
 11
0.006380902564988214
 21
-0.7999745521467894
 31
3.944304526105061E-32
210
-3.932534823080997E-34
220
4.930223823127266E-32
230
1.0
 40
0.970150584708027
 41
0.3062354807071997
 42
1.254448839677344
  0
ELLIPSE
  5
33139
330
1F
100
AcDbEntity
  8
AM_0
100
AcDbEllipse
 10
27.49740229779889
 20
0.2339121756522218
 30
0.0
 11
0.006380902564988214
 21
-0.7999745521467894
 31
3.944304526105061E-32
210
-3.932534823080997E-34
220
4.930223823127266E-32
230
1.0
 40
0.970150584708027
 41
0.3062354807077774
 42
1.741860296621437
  0
ELLIPSE
  5
3313A
330
1F
100
AcDbEntity
  8
AM_0
100
AcDbEllipse
 10
0.7761220103187725
 20
-0.0003867795782071
 30
0.0
 11
0.006380902564988214
 21
-0.7999745521467894
 31
3.944304526105061E-32
210
-3.932534823080997E-34
220
4.930223823127266E-32
230
1.0
 40
0.970150584708027
 41
3.44782813429671
 42
5.978555549688583
  0
LINE
  5
3313B
330
1F
100
AcDbEntity
  8
AM_0
100
AcDbLine
 10
23.0829860685916
 20
6.627561059945379
 30
0.0
 11
25.18856850478267
 21
5.837297985888881
 31
0.0
  0
LINE
  5
3313C
330
1F
100
AcDbEntity
  8
AM_0
100
AcDbLine
 10
25.18856850478267
 20
5.837297985888768
 30
0.0
 11
25.57827937598506
 21
3.562911745462998
 31
0.0
  0
LINE
  5
3313D
330
1F
100
AcDbEntity
  8
AM_0
100
AcDbLine
 10
25.57827937598506
 20
3.562911745462998
 30
0.0
 11
23.86240781099639
 21
2.078788579093839
 31
0.0
  0
LINE
  5
3313E
330
1F
100
AcDbEntity
  8
AM_0
100
AcDbLine
 10
23.86240781099616
 20
2.078788579093839
 30
0.0
 11
21.75682537480509
 21
2.869051653150336
 31
0.0
  0
LINE
  5
3313F
330
1F
100
AcDbEntity
  8
AM_0
100
AcDbLine
 10
22.60555987158898
 20
2.875821483656864
 30
0.0
 11
24.12470453785147
 21
2.305659084283434
 31
0.0
  0
LINE
  5
33140
330
1F
100
AcDbEntity
  8
AM_0
100
AcDbLine
 10
21.75682537480532
 20
2.86905165315045
 30
0.0
 11
22.60555987158898
 21
2.875821483656864
 31
0.0
  0
LINE
  5
33141
330
1F
100
AcDbEntity
  8
AM_0
100
AcDbLine
 10
21.75682537480532
 20
2.869051653150336
 30
0.0
 11
21.36711450360292
 21
5.143437893576106
 31
0.0
  0
LINE
  5
33142
330
1F
100
AcDbEntity
  8
AM_0
100
AcDbLine
 10
22.21584900038658
 20
5.150207724082634
 30
0.0
 11
22.60555987158875
 21
2.875821483656978
 31
0.0
  0
LINE
  5
33143
330
1F
100
AcDbEntity
  8
AM_0
100
AcDbLine
 10
21.36711450360292
 20
5.14343789357622
 30
0.0
 11
22.21584900038658
 21
5.150207724082634
 31
0.0
  0
LINE
  5
33144
330
1F
100
AcDbEntity
  8
AM_0
100
AcDbLine
 10
21.36711450360292
 20
5.14343789357622
 30
0.0
 11
23.0829860685916
 21
6.627561059945379
 31
0.0
  0
LINE
  5
33145
330
1F
100
AcDbEntity
  8
AM_0
100
AcDbLine
 10
23.66942383851995
 20
6.407460385262652
 30
0.0
 11
22.21584900038658
 21
5.150207724082634
 31
0.0
  0
LINE
  5
33146
330
1F
100
AcDbEntity
  8
AM_0
100
AcDbLine
 10
24.65127624746549
 20
8.612710814237175
 30
0.0
 11
23.84236281217488
 21
8.606258611726162
 31
0.0
  0
LINE
  5
33147
330
1F
100
AcDbEntity
  8
AM_0
100
AcDbLine
 10
24.71907333721845
 20
0.1129811976777546
 30
0.0
 11
23.91015990192784
 21
0.106528995166741
 31
0.0
  0
ARC
  5
33148
330
1F
100
AcDbEntity
  8
AM_0
100
AcDbCircle
 10
23.97440188550905
 20
4.357176609784574
 30
0.0
 40
4.251133046155022
100
AcDbArc
 50
91.77987808412891
 51
269.1341285735031
  0
ELLIPSE
  5
33149
330
1F
100
AcDbEntity
  8
AM_0
100
AcDbEllipse
 10
23.47269693979399
 20
4.353174819519609
 30
0.0
 11
-0.02062456414045657
 21
2.585704184234781
 31
-1.274891143684110E-31
210
-3.932534823080996E-34
220
4.930223823127264E-32
230
1.0
 40
0.9701505847080268
 41
0.000000000000002
 42
6.283185307179588
  0
ELLIPSE
  5
3314A
330
1F
100
AcDbEntity
  8
AM_0
100
AcDbEllipse
 10
24.68517479234208
 20
4.362846005957408
 30
0.0
 11
0.03389854487649989
 21
-4.249864808279819
 31
-2.095411779493314E-31
210
3.932534823080988E-34
220
-4.930223823127265E-32
230
1.0
 40
0.9701505847080267
 41
-0.0000000000000101
 42
3.14159265358989
  0
ELLIPSE
  5
3314B
330
1F
100
AcDbEntity
  8
AM_0
100
AcDbEllipse
 10
23.54372224798851
 20
4.35374134450467
 30
0.0
 11
0.02626453848269882
 21
-3.292788472484364
 31
1.623521703368320E-31
210
-3.932534823080994E-34
220
4.930223823127263E-32
230
1.0
 40
0.9701505847080264
 41
0.0000000000000287
 42
6.283185307179615
  0
ELLIPSE
  5
3314C
330
1F
100
AcDbEntity
  8
AM_0
100
AcDbEllipse
 10
23.70479109473638
 20
4.355026091143941
 30
0.0
 11
-0.03156239101250774
 21
3.956980906345915
 31
1.951004273414390E-31
210
3.932534823081105E-34
220
-4.930223823127264E-32
230
1.0
 40
0.9701505847080264
 41
0.0000000000000198
 42
6.283185307179605
  0
ELLIPSE
  5
3314D
330
1F
100
AcDbEntity
  8
AM_0
100
AcDbEllipse
 10
23.87626135705148
 20
4.356393803446395
 30
0.0
 11
0.03389854487649989
 21
-4.249864808279819
 31
-2.095411779493314E-31
210
3.932534823080988E-34
220
-4.930223823127265E-32
230
1.0
 40
0.9701505847080267
 41
0.0000000000000434
 42
3.14159265358989
  0
LINE
  5
3314E
330
1F
100
AcDbEntity
  8
AM_0
100
AcDbLine
 10
18.62271626763379
 20
-2.506464614452966
 30
0.0
 11
19.67495040746951
 21
-2.498071593070222
 31
0.0
  0
LINE
  5
3314F
330
1F
100
AcDbEntity
  8
AM_0
100
AcDbLine
 10
19.67495040746951
 20
-2.498071593070222
 30
0.0
 11
30.32995026128936
 21
1.068759062408503
 31
0.0
  0
LINE
  5
33150
330
1F
100
AcDbEntity
  8
AM_0
100
AcDbLine
 10
16.77709466827616
 20
-2.988789394540163
 30
0.0
 11
17.32126439954465
 21
-2.966938498484183
 31
0.0
  0
LINE
  5
33151
330
1F
100
AcDbEntity
  8
AM_0
100
AcDbLine
 10
32.36700972304345
 20
2.123118853287224
 30
0.0
 11
34.00678146938992
 21
2.136198299019725
 31
0.0
  0
LINE
  5
33152
330
1F
100
AcDbEntity
  8
AM_0
100
AcDbLine
 10
10.36496288925821
 20
0.0050733566001782
 30
0.0
 11
10.84371124030861
 21
-1.512391823311191
 31
0.0
  0
ELLIPSE
  5
33153
330
1F
100
AcDbEntity
  8
AM_0
100
AcDbEllipse
 10
24.44784380724889
 20
-1.976219141647903
 30
0.0
 11
-14.86271076442784
 21
0.5787875447851048
 31
-2.322860714362966E-16
210
-1.560511718038730E-17
220
6.076985283557683E-19
230
1.0
 40
0.0109904034371063
 41
0.4149233823994828
 42
0.8186085756217757
  0
ARC
  5
33154
330
1F
100
AcDbEntity
  8
AM_0
100
AcDbCircle
 10
14.61146880669281
 20
6.619052919083742
 30
0.0
 40
8.325367446003757
100
AcDbArc
 50
267.7762788016947
 51
290.2225276552993
  0
ARC
  5
33155
330
1F
100
AcDbEntity
  8
AM_0
100
AcDbCircle
 10
15.82388779555669
 20
5.285529932347458
 30
0.0
 40
8.279409389169958
100
AcDbArc
 50
270.7257425677389
 51
289.7579237465619
  0
ELLIPSE
  5
33156
330
1F
100
AcDbEntity
  8
AM_0
100
AcDbEllipse
 10
21.48595074835419
 20
7.411948094090576
 30
0.0
 11
-11.7900222753851
 21
-9.099496861101356
 31
-8.856873016562130E-17
210
-4.707851926218961E-18
220
-3.633503213526392E-18
230
1.0
 40
0.140166623895514
 41
5.41713128879543
 42
5.820816482017708
  0
ARC
  5
33157
330
1F
100
AcDbEntity
  8
AM_0
100
AcDbCircle
 10
18.22674800470537
 20
-2.739025254896546
 30
0.0
 40
7.683801316618586
100
AcDbArc
 50
109.2863832622002
 51
134.1329030173296
  0
LINE
  5
33158
330
1F
100
AcDbEntity
  8
AM_0
100
AcDbLine
 10
21.28601043355332
 20
-1.586317890151236
 30
0.0
 11
32.36700972304345
 21
2.123118853287224
 31
0.0
  0
LINE
  5
33159
330
1F
100
AcDbEntity
  8
AM_0
100
AcDbLine
 10
27.21944129420706
 20
8.40551542749381
 30
0.0
 11
29.75275338874201
 21
9.253558164485753
 31
0.0
  0
LINE
  5
3315A
330
1F
100
AcDbEntity
  8
AM_0
100
AcDbLine
 10
29.75275338874201
 20
9.253558164485753
 30
0.0
 11
31.55316377157158
 21
3.546885630781844
 31
0.0
  0
LINE
  5
3315B
330
1F
100
AcDbEntity
  8
AM_0
100
AcDbLine
 10
31.55316377157158
 20
3.546885630781844
 30
0.0
 11
29.01985167703299
 21
2.698842893788651
 31
0.0
  0
LINE
  5
3315C
330
1F
100
AcDbEntity
  8
AM_0
100
AcDbLine
 10
21.90841271996953
 20
0.318242347132923
 30
0.0
 11
20.47216448208144
 21
-0.1625511126566153
 31
0.0
  0
LINE
  5
3315D
330
1F
100
AcDbEntity
  8
AM_0
100
AcDbLine
 10
18.6717540992521
 20
5.544121421047294
 30
0.0
 11
20.47216448208144
 21
-0.162551112656729
 31
0.0
  0
LINE
  5
3315E
330
1F
100
AcDbEntity
  8
AM_0
100
AcDbLine
 10
18.67175409925187
 20
5.544121421047294
 30
0.0
 11
20.04769888846988
 21
6.004727908307814
 31
0.0
  0
LINE
  5
3315F
330
1F
100
AcDbEntity
  8
AM_0
100
AcDbLine
 10
28.05602316622537
 20
1.160891658093647
 30
0.0
 11
26.89036495372955
 21
0.7706799731399769
 31
0.0
  0
LINE
  5
33160
330
1F
100
AcDbEntity
  8
AM_0
100
AcDbLine
 10
24.95136834768516
 20
0.1215882199544467
 30
0.0
 11
23.78571013519093
 21
-0.2686234649987682
 31
0.0
  0
LINE
  5
33161
330
1F
100
AcDbEntity
  8
AM_0
100
AcDbLine
 10
24.43965002251537
 20
8.611022802639923
 30
0.0
 11
25.58463944949619
 21
8.994315476913471
 31
0.0
  0
ARC
  5
33162
330
1F
100
AcDbEntity
  8
AM_0
100
AcDbCircle
 10
24.15118208586279
 20
4.196499613369724
 30
0.0
 40
4.480055117039032
100
AcDbArc
 50
239.9595019377541
 51
265.3207504862388
  0
ARC
  5
33163
330
1F
100
AcDbEntity
  8
AM_0
100
AcDbCircle
 10
24.09182964326493
 20
4.716227037853059
 30
0.0
 40
5.324963844952421
100
AcDbArc
 50
318.1122696323274
 51
337.7372817769947
  0
ARC
  5
33164
330
1F
100
AcDbEntity
  8
AM_0
100
AcDbCircle
 10
25.03723604838211
 20
4.910539707624025
 30
0.0
 40
4.120300355239346
100
AcDbArc
 50
58.02002366371036
 51
82.36538424312229
  0
ELLIPSE
  5
33165
330
1F
100
AcDbEntity
  8
AM_0
100
AcDbEllipse
 10
31.75626849085313
 20
9.269538966149753
 30
0.0
 11
1.649692616207647
 21
0.3117770252661231
 31
-2.724967292366737E-17
210
1.594839233334998E-17
220
3.014102306464487E-18
230
1.0
 40
0.8897482969020343
 41
0.1058239597211913
 42
1.370384805809077
  0
LINE
  5
33166
330
1F
100
AcDbEntity
  8
AM_0
100
AcDbLine
 10
30.59282069393601
 20
1.150736110979437
 30
0.0
 11
34.00678146938992
 21
2.136198299019725
 31
0.0
  0
ELLIPSE
  5
33167
330
1F
100
AcDbEntity
  8
AM_0
100
AcDbEllipse
 10
33.55667887368247
 20
3.56286643244573
 30
0.0
 11
1.649692616207647
 21
0.3117770252661229
 31
-2.724967292366734E-17
210
1.594839233334997E-17
220
3.014102306464484E-18
230
1.0
 40
0.8897482969020343
 41
4.818212940105806
 42
6.389009266900702
  0
LINE
  5
33168
330
1F
100
AcDbEntity
  8
AM_0
100
AcDbLine
 10
34.26763656930677
 20
6.881275442771084
 30
0.0
 11
35.16784176072144
 21
4.027939175919073
 31
0.0
  0
LINE
  5
33169
330
1F
100
AcDbEntity
  8
AM_0
100
AcDbLine
 10
35.16784176072144
 20
4.027939175919073
 30
0.0
 11
33.30077793939711
 21
4.013046761786086
 31
0.0
  0
LINE
  5
3316A
330
1F
100
AcDbEntity
  8
AM_0
100
AcDbLine
 10
33.30077793939711
 20
4.013046761786086
 30
0.0
 11
31.50036755656754
 21
9.719719295489995
 31
0.0
  0
LINE
  5
3316B
330
1F
100
AcDbEntity
  8
AM_0
100
AcDbLine
 10
31.50036755656754
 20
9.719719295489995
 30
0.0
 11
33.36743137789188
 21
9.734611709622982
 31
0.0
  0
LINE
  5
3316C
330
1F
100
AcDbEntity
  8
AM_0
100
AcDbLine
 10
34.26763656930677
 20
6.881275442771084
 30
0.0
 11
33.3674313778921
 21
9.734611709623096
 31
0.0
  0
LINE
  5
3316D
330
1F
100
AcDbEntity
  8
AM_0
100
AcDbLine
 10
15.92875693611006
 20
-2.99321528035432
 30
0.0
 11
16.77700070538265
 21
-2.986449364077998
 31
0.0
  0
LINE
  5
3316E
330
1F
100
AcDbEntity
  8
AM_0
100
AcDbLine
 10
30.10453255219738
 20
10.75641180569244
 30
0.0
 11
31.81282635978539
 21
10.77003780955636
 31
0.0
  0
LINE
  5
3316F
330
1F
100
AcDbEntity
  8
AM_0
100
AcDbLine
 10
10.73777518512077
 20
-1.591753136599891
 30
0.0
 11
10.25902683407037
 21
-0.0742879566885222
 31
0.0
  0
LINE
  5
33170
330
1F
100
AcDbEntity
  8
AM_0
100
AcDbLine
 10
11.98745083669712
 20
-2.635160532277382
 30
0.0
 11
15.15170555749126
 21
-2.962491590369041
 31
0.0
  0
LINE
  5
33171
330
1F
100
AcDbEntity
  8
AM_0
100
AcDbLine
 10
15.15170106788071
 20
-2.966469060160762
 30
0.0
 11
15.92847485845562
 21
-2.999790869541243
 31
0.0
  0
SPLINE
  5
33172
330
1F
100
AcDbEntity
  8
AM_0
100
AcDbSpline
210
0.0
220
0.0
230
1.0
 70
     8
 71
     3
 72
     8
 73
     4
 74
     0
 42
0.0000000001
 43
0.0000000001
 40
0.0
 40
0.0
 40
0.0
 40
0.0
 40
5.404006960049278
 40
5.404006960049278
 40
5.404006960049278
 40
5.404006960049278
 10
10.44894924500147
 20
1.220216832431674
 30
0.0
 10
11.00395504992127
 20
2.036784754763175
 30
0.0
 10
11.80765423795799
 20
2.991599397587947
 30
0.0
 10
12.78821300311631
 20
4.036079293533021
 30
0.0
  0
ARC
  5
33173
330
1F
100
AcDbEntity
  8
AM_0
100
AcDbCircle
 10
18.48251449950573
 20
-1.348283320848395
 30
0.0
 40
7.836863549592247
100
AcDbArc
 50
109.492443273889
 51
136.6024999876542
  0
LINE
  5
33174
330
1F
100
AcDbEntity
  8
AM_0
100
AcDbLine
 10
15.86596231112674
 20
6.043838266673106
 30
0.0
 11
18.55794195501227
 21
6.973471035610942
 31
0.0
  0
LINE
  5
33175
330
1F
100
AcDbEntity
  8
AM_0
100
AcDbLine
 10
18.55933426896888
 20
6.969439249132051
 30
0.0
 11
21.86699895874415
 21
8.076701564983296
 31
0.0
  0
LINE
  5
33176
330
1F
100
AcDbEntity
  8
AM_0
100
AcDbLine
 10
23.34600114085595
 20
8.571807186292631
 30
0.0
 11
29.64033355845902
 21
10.67887599257051
 31
0.0
  0
ARC
  5
33177
330
1F
100
AcDbEntity
  8
AM_0
100
AcDbCircle
 10
33.2204920260013
 20
6.434034922566184
 30
0.0
 40
1.470513228084032
100
AcDbArc
 50
337.9184527588169
 51
347.1152061653568
  0
ARC
  5
33178
330
1F
100
AcDbEntity
  8
AM_0
100
AcDbCircle
 10
33.25708822970506
 20
6.464803846462473
 30
0.0
 40
1.424234866551198
100
AcDbArc
 50
48.24041901361593
 51
57.63497911260103
  0
ELLIPSE
  5
33179
330
1F
100
AcDbEntity
  8
AM_0
100
AcDbEllipse
 10
30.45119804654416
 20
1.069726181052261
 30
0.0
 11
-0.4768320260037913
 21
-0.1504367607239664
 31
0.0
210
0.0
220
0.0
230
1.0
 40
0.0731078059497288
 41
4.387853719199947
 42
4.946359079838438
  0
ELLIPSE
  5
3317A
330
1F
100
AcDbEntity
  8
AM_0
100
AcDbEllipse
 10
16.6742664360869
 20
7.01304929643652
 30
0.0
 11
0.07976128206240654
 21
-9.999681901834865
 31
0.0
210
0.0
220
0.0
230
1.0
 40
0.9701505847080261
 41
0.0585101987256658
 42
0.3062354807068475
  0
ELLIPSE
  5
3317B
330
1F
100
AcDbEntity
  8
AM_0
100
AcDbEllipse
 10
31.916907127336
 20
3.549786986713116
 30
0.0
 11
0.01196419230935273
 21
-1.499952285275229
 31
0.0
210
0.0
220
0.0
230
1.0
 40
0.9701505847080272
 41
0.3062354807068293
 42
1.877031807501624
  0
ELLIPSE
  5
3317C
330
1F
100
AcDbEntity
  8
AM_0
100
AcDbEllipse
 10
12.16827126313194
 20
-1.140442854428102
 30
0.0
 11
1.430496078011375
 21
0.4513102821718995
 31
0.0
210
0.0
220
0.0
230
0.9999999999999999
 40
0.0731078059497288
 41
2.730613081708721
 42
3.141592653589694
  0
ELLIPSE
  5
3317D
330
1F
100
AcDbEntity
  8
AM_0
100
AcDbEllipse
 10
12.16827126313194
 20
-1.140442854427988
 30
0.0
 11
0.1802425558078202
 21
1.489131498920068
 31
0.0
210
0.0
220
0.0
230
1.0
 40
0.9048504823158314
 41
1.930799168762315
 42
3.141592653589823
  0
ELLIPSE
  5
3317E
330
1F
100
AcDbEntity
  8
AM_0
100
AcDbEllipse
 10
15.29391613474274
 20
-1.466477270365317
 30
0.0
 11
0.1419267391935372
 21
1.49327050486571
 31
0.0
210
0.0
220
0.0
230
1.0
 40
0.6687316631083888
 41
1.791009583593116
 42
3.141592653589675
  0
ELLIPSE
  5
3317F
330
1F
100
AcDbEntity
  8
AM_0
100
AcDbEllipse
 10
23.86710246921632
 20
-0.1354717906307315
 30
0.0
 11
13.35129672810616
 21
4.21222930027106
 31
0.0
210
0.0
220
0.0
230
1.0
 40
0.0731078059497288
 41
1.80476642624828
 42
2.045618302746222
  0
ELLIPSE
  5
33180
330
1F
100
AcDbEntity
  8
AM_0
100
AcDbEllipse
 10
24.31720506492354
 20
-1.562139924056737
 30
0.0
 11
-11.92080065009479
 21
-3.760919018099162
 31
0.0
210
0.0
220
0.0
230
1.0
 40
0.0731078059497288
 41
4.946359079838057
 42
5.187210956336008
  0
ELLIPSE
  5
33181
330
1F
100
AcDbEntity
  8
AM_0
100
AcDbEllipse
 10
18.17261367192634
 20
-1.079796481026961
 30
0.0
 11
-0.5047132584587449
 21
1.412538327528123
 31
0.0
210
0.0
220
0.0
230
1.0
 40
0.4559567305377384
 41
1.488560244679513
 42
3.059356571474438
  0
ELLIPSE
  5
33182
330
1F
100
AcDbEntity
  8
AM_0
100
AcDbEllipse
 10
30.11649674450644
 20
9.256459520417138
 30
0.0
 11
0.01196419230935272
 21
-1.499952285275229
 31
0.0
210
0.0
220
0.0
230
1.0
 40
0.9701505847080272
 41
1.877031807501769
 42
3.141592653589537
  0
ELLIPSE
  5
33183
330
1F
100
AcDbEntity
  8
AM_0
100
AcDbEllipse
 10
31.916907127336
 20
3.549786986713116
 30
0.0
 11
-1.430496078011375
 21
-0.4513102821718993
 31
1.848892746611747E-32
210
1.175481698974123E-32
220
3.708552476350782E-33
230
1.0
 40
0.0731078059497288
 41
3.375562753043198
 42
4.946359079838095
  0
ELLIPSE
  5
33184
330
1F
100
AcDbEntity
  8
AM_0
100
AcDbEllipse
 10
30.11649674450644
 20
9.256459520417138
 30
0.0
 11
1.430496078011375
 21
0.4513102821718995
 31
0.0
210
0.0
220
0.0
230
0.9999999999999999
 40
0.0731078059497288
 41
0.2339700994534079
 42
1.804766426248303
  0
ELLIPSE
  5
33185
330
1F
100
AcDbEntity
  8
AM_0
100
AcDbEllipse
 10
11.68952291208154
 20
0.3770223254832672
 30
0.0
 11
-1.430496078011375
 21
-0.4513102821718995
 31
0.0
210
0.0
220
0.0
230
0.9999999999999999
 40
0.0731078059497288
 41
5.872205735298488
 42
6.283185307179482
  0
ELLIPSE
  5
33186
330
1F
100
AcDbEntity
  8
AM_0
100
AcDbEllipse
 10
11.68952291208154
 20
0.3770223254832672
 30
0.0
 11
-1.240573667079771
 21
0.8431945069482033
 31
7.395570986445958E-32
210
4.077666941691808E-32
220
-2.771513258452655E-32
230
0.9999999999999999
 40
0.8695204866103609
 41
0.0000000000000828
 42
0.9385871115381274
  0
ELLIPSE
  5
33187
330
1F
100
AcDbEntity
  8
AM_0
100
AcDbEllipse
 10
13.8818086452826
 20
3.009410616969944
 30
0.0
 11
-1.093595642166037
 21
1.026668676562919
 31
0.0
210
0.0
220
0.0
230
1.0
 40
0.6193253907569292
 41
-0.0000000000000338
 42
1.178694303952987
  0
ELLIPSE
  5
33188
330
1F
100
AcDbEntity
  8
AM_0
100
AcDbEllipse
 10
22.06669208638675
 20
5.571200743073177
 30
0.0
 11
-13.35129672810616
 21
-4.21222930027106
 31
0.0
210
0.0
220
0.0
230
1.0
 40
0.0731078059497288
 41
4.946359079838073
 42
5.187210956336014
  0
ELLIPSE
  5
33189
330
1F
100
AcDbEntity
  8
AM_0
100
AcDbEllipse
 10
16.372203289097
 20
4.626876052677062
 30
0.0
 11
-0.5047132584587459
 21
1.412538327528126
 31
-7.395570986446984E-32
210
-1.658952324770051E-32
220
4.642901098805048E-32
230
1.0
 40
0.4559567305377384
 41
-0.0000000000002712
 42
1.488560244679456
  0
ELLIPSE
  5
3318A
330
1F
100
AcDbEntity
  8
AM_0
100
AcDbEllipse
 10
19.03549745501653
 20
5.547022776978679
 30
0.0
 11
-0.4761631860478185
 21
1.422416472153212
 31
0.0
210
0.0
220
0.0
230
1.0
 40
0.2312208721112576
 41
0.0000000000000455
 42
1.495581312905955
  0
ELLIPSE
  5
3318B
330
1F
100
AcDbEntity
  8
AM_0
100
AcDbEllipse
 10
30.11649674450644
 20
9.256459520417138
 30
0.0
 11
0.4761631860478185
 21
-1.422416472153212
 31
0.0
210
0.0
220
0.0
230
1.0
 40
0.2312208721112576
 41
3.141592653589867
 42
4.637173966495748
  0
ELLIPSE
  5
3318C
330
1F
100
AcDbEntity
  8
AM_0
100
AcDbEllipse
 10
31.916907127336
 20
3.549786986713116
 30
0.0
 11
0.4761631860478185
 21
-1.422416472153212
 31
0.0
210
0.0
220
0.0
230
1.0
 40
0.2312208721112576
 41
4.637173966495748
 42
6.207970293290627
  0
ELLIPSE
  5
3318D
330
1F
100
AcDbEntity
  8
AM_0
100
AcDbEllipse
 10
20.83590783784587
 20
-0.1596497567253437
 30
0.0
 11
-0.4761631860478185
 21
1.422416472153212
 31
0.0
210
0.0
220
0.0
230
1.0
 40
0.2312208721112576
 41
1.495581312905955
 42
3.066377639700833
  0
ELLIPSE
  5
3318E
330
1F
100
AcDbEntity
  8
AM_0
100
AcDbEllipse
 10
24.22388452165581
 20
4.208426080933009
 30
0.0
 11
0.0358925769280582
 21
-4.49985685582569
 31
0.0
210
0.0
220
0.0
230
1.0
 40
0.9701505847080268
 41
5.218365979742659
 42
6.174426600748707
  0
ELLIPSE
  5
3318F
330
1F
100
AcDbEntity
  8
AM_0
100
AcDbEllipse
 10
24.102636736401
 20
4.207458962289252
 30
0.0
 11
-0.0358925769280582
 21
4.49985685582569
 31
0.0
210
0.0
220
0.0
230
1.0
 40
0.9701505847080268
 41
1.630604633155341
 42
2.606759463728823
  0
ELLIPSE
  5
33190
330
1F
100
AcDbEntity
  8
AM_0
100
AcDbEllipse
 10
25.02521727777491
 20
4.516298812337823
 30
0.0
 11
-0.0358925769280582
 21
4.49985685582569
 31
0.0
210
0.0
220
0.0
230
1.0
 40
0.9701505847080268
 41
4.288896804863389
 42
5.748352117318444
  0
ELLIPSE
  5
33191
330
1F
100
AcDbEntity
  8
AM_0
100
AcDbEllipse
 10
33.26954065462758
 20
6.436166805384346
 30
0.0
 11
-0.01156538589904898
 21
1.449953875766056
 31
0.0
210
0.0
220
0.0
230
1.0
 40
0.9701505847080255
 41
5.542982088287002
 42
5.710923838307861
  0
ELLIPSE
  5
33192
330
1F
100
AcDbEntity
  8
AM_0
100
AcDbEllipse
 10
33.26954065462758
 20
6.436166805384346
 30
0.0
 11
-0.01156538589904898
 21
1.449953875766056
 31
0.0
210
0.0
220
0.0
230
1.0
 40
0.9701505847080255
 41
4.32632508387533
 42
4.494266833896109
  0
ARC
  5
33193
330
1F
100
AcDbEntity
  8
AM_0
100
AcDbCircle
 10
12.16827126313189
 20
-1.140442854428102
 30
0.0
 40
1.5
100
AcDbArc
 50
197.5100763921465
 51
263.0985649425198
  0
ARC
  5
33194
330
1F
100
AcDbEntity
  8
AM_0
100
AcDbCircle
 10
30.11649674450638
 20
9.256459520417138
 30
0.0
 40
1.5
100
AcDbArc
 50
90.45700332880951
 51
108.5083057148689
  0
ARC
  5
33195
330
1F
100
AcDbEntity
  8
AM_0
100
AcDbCircle
 10
11.68952291208149
 20
0.3770223254832672
 30
0.0
 40
1.5
100
AcDbArc
 50
145.7967929732066
 51
197.5100763921465
  0
LINE
  5
331C1
330
1F
100
AcDbEntity
  8
AM_0
100
AcDbLine
 10
99.69999999992353
 20
-100.5306236234383
 30
0.0
 11
77.99999999992349
 21
-100.5306236234383
 31
0.0
  0
LINE
  5
331C2
330
1F
100
AcDbEntity
  8
AM_0
100
AcDbLine
 10
99.69999999992353
 20
-163.5306236234383
 30
0.0
 11
77.99999999992349
 21
-163.5306236234383
 31
0.0
  0
LINE
  5
331C8
330
1F
100
AcDbEntity
  8
AM_0
100
AcDbLine
 10
77.99999999992349
 20
-100.2806236234383
 30
0.0
 11
77.99999999992349
 21
-163.7806236234383
 31
0.0
  0
LINE
  5
332E6
330
1F
100
AcDbEntity
  8
AM_0
100
AcDbLine
 10
23.34468357720664
 20
-2.601381297046032
 30
0.0
 11
25.67264105409925
 21
-2.582812619085075
 31
0.0
  0
LINE
  5
332E7
330
1F
100
AcDbEntity
  8
AM_0
100
AcDbLine
 10
27.215921107383
 20
-2.881147444991939
 30
0.0
 11
27.5172739913686
 21
-2.878743739292418
 31
0.0
  0
LINE
  5
332E8
330
1F
100
AcDbEntity
  8
AM_0
100
AcDbLine
 10
31.87325624500829
 20
1.25418762047002
 30
0.0
 11
34.0817985672453
 21
1.898420276773095
 31
0.0
  0
LINE
  5
332E9
330
1F
100
AcDbEntity
  8
AM_0
100
AcDbLine
 10
22.11355929177478
 20
-2.026079077284408
 30
0.0
 11
24.44151676866738
 21
-2.007510399323451
 31
0.0
  0
LINE
  5
332EA
330
1F
100
AcDbEntity
  8
AM_0
100
AcDbLine
 10
25.67264105409925
 20
-2.582812619085075
 30
0.0
 11
28.04436553154017
 21
-2.754212130448309
 31
0.0
  0
LINE
  5
332EB
330
1F
100
AcDbEntity
  8
AM_0
100
AcDbLine
 10
31.14188831840295
 20
11.21690967709503
 30
0.0
 11
28.96048076357954
 21
10.48666927865486
 31
0.0
  0
LINE
  5
332EC
330
1F
100
AcDbEntity
  8
AM_0
100
AcDbLine
 10
44.11775975949979
 20
15.56066722496951
 30
0.0
 11
39.82940629860684
 21
14.12511295038632
 31
0.0
  0
LINE
  5
332ED
330
1F
100
AcDbEntity
  8
AM_0
100
AcDbLine
 10
40.06703169422178
 20
-13.01553280607493
 30
0.0
 11
44.55209261629835
 21
-14.42966708285371
 31
0.0
  0
LINE
  5
332EE
330
1F
100
AcDbEntity
  8
AM_0
100
AcDbLine
 10
62.76001573099313
 20
-31.75
 30
0.0
 11
60.62480734677581
 21
-22.11869738422149
 31
0.0
  0
ARC
  5
332EF
330
1F
100
AcDbEntity
  8
AM_0
100
AcDbCircle
 10
55.74290962469951
 20
-23.20127819305185
 30
0.0
 40
5.000490633573954
100
AcDbArc
 50
12.50324563403813
 51
72.49675436597349
  0
LINE
  5
332F0
330
1F
100
AcDbEntity
  8
AM_0
100
AcDbLine
 10
57.24685630869692
 20
-18.432310700171
 30
0.0
 11
44.55209261629858
 21
-14.42966708285383
 31
0.0
  0
ELLIPSE
  5
332F1
330
1F
100
AcDbEntity
  8
AM_0
100
AcDbEllipse
 10
36.33497935739013
 20
0.0
 30
0.0
 11
0.3008358452002528
 21
-31.74988335279667
 31
4.576015686231560E-17
210
-1.365506682048790E-20
220
1.441140693977290E-18
230
1.0
 40
0.2860843146547631
 41
1.096299857481991
 42
2.080289824299689
  0
LINE
  5
332F2
330
1F
100
AcDbEntity
  8
AM_0
100
AcDbLine
 10
44.11775975949979
 20
15.56066722496951
 30
0.0
 11
57.31790525014952
 21
19.97950197285786
 31
0.0
  0
ARC
  5
332F3
330
1F
100
AcDbEntity
  8
AM_0
100
AcDbCircle
 10
55.73043423549041
 20
24.72112463945734
 30
0.0
 40
5.000304964178996
100
AcDbArc
 50
288.5102824083394
 51
347.4980233065182
  0
LINE
  5
332F4
330
1F
100
AcDbEntity
  8
AM_0
100
AcDbLine
 10
60.61217466559054
 20
23.63869214367833
 30
0.0
 11
62.41040832439097
 21
31.75
 31
0.0
  0
LINE
  5
332F5
330
1F
100
AcDbEntity
  8
AM_0
100
AcDbLine
 10
33.71815658244361
 20
12.07933227183753
 30
0.0
 11
32.860099739352
 21
11.79209215038566
 31
0.0
  0
LINE
  5
332F6
330
1F
100
AcDbEntity
  8
AM_0
100
AcDbLine
 10
35.78695476708265
 20
2.514983244451628
 30
0.0
 11
36.64517984068118
 21
2.852453101097126
 31
0.0
  0
LINE
  5
332F7
330
1F
100
AcDbEntity
  8
AM_0
100
AcDbLine
 10
32.860099739352
 20
11.79209215038566
 30
0.0
 11
35.78695476708288
 21
2.514983244451059
 31
0.0
  0
SPLINE
  5
332F8
330
1F
100
AcDbEntity
  8
AM_0
100
AcDbSpline
210
0.0
220
0.0
230
1.0
 70
     8
 71
     3
 72
    25
 73
    21
 74
     0
 42
0.0000000001
 43
0.0000000001
 40
-0.3032928087601944
 40
-0.3032928087601944
 40
-0.3032928087601944
 40
-0.3032928087601944
 40
0.0
 40
0.0
 40
0.0
 40
0.377573817671387
 40
0.377573817671387
 40
0.755147635342774
 40
0.755147635342774
 40
1.145530205569048
 40
1.145530205569048
 40
1.535912775795321
 40
1.535912775795321
 40
1.933567728923269
 40
1.933567728923269
 40
2.331222682051217
 40
2.331222682051217
 40
2.704709957822047
 40
2.704709957822047
 40
2.772845432510611
 40
2.772845432510611
 40
2.772845432510611
 40
2.772845432510611
 10
35.78695476708288
 20
2.514983244451173
 30
0.0
 10
35.81908578877221
 20
2.413139120076494
 30
0.0
 10
35.83535495420881
 20
2.306581329094115
 30
0.0
 10
35.83682775042428
 20
2.205678273678814
 30
0.0
 10
35.83866125677048
 20
2.080062529594329
 30
0.0
 10
35.8173758500069
 20
1.946534142752284
 30
0.0
 10
35.72773001224721
 20
1.701689950872947
 30
0.0
 10
35.65941159276133
 20
1.59037657612032
 30
0.0
 10
35.49996651145523
 20
1.411997108598598
 30
0.0
 10
35.39711206186678
 20
1.334119966129265
 30
0.0
 10
35.17282410110477
 20
1.231435112375493
 30
0.0
 10
35.05146905638173
 20
1.206608282438992
 30
0.0
 10
34.82361068813555
 20
1.206868852956063
 30
0.0
 10
34.70149229652827
 20
1.232849763570926
 30
0.0
 10
34.4777460746792
 20
1.338370065932281
 30
0.0
 10
34.37611890966502
 20
1.4177982850224
 30
0.0
 10
34.21931449728925
 20
1.598309362982718
 30
0.0
 10
34.15203117340809
 20
1.709304226931749
 30
0.0
 10
34.09684928610398
 20
1.853115653560735
 30
0.0
 10
34.08898211311623
 20
1.875650943565688
 30
0.0
 10
34.0817985672453
 20
1.89842027677264
 30
0.0
  0
LINE
  5
332F9
330
1F
100
AcDbEntity
  8
AM_0
100
AcDbLine
 10
31.44972488934775
 20
11.31995997584534
 30
0.0
 11
32.860099739352
 21
11.79209215038566
 31
0.0
  0
ARC
  5
341C6
330
1F
100
AcDbEntity
  8
AM_3
  6
ACJISTGL
100
AcDbCircle
 10
44.64990703025092
 20
-113.816112826238
 30
0.0
 40
3.901522409500942
100
AcDbArc
 50
115.0170540895661
 51
123.1180604345522
  0
ELLIPSE
  5
34627
330
1F
100
AcDbEntity
  8
AM_0
100
AcDbEllipse
 10
41.48492149862466
 20
0.0
 30
0.0
 11
-0.05211329601894183
 21
5.499979793397877
 31
5.834012103272596E-18
210
1.004973687477036E-20
220
-1.060638147318721E-18
230
1.0
 40
0.2860843146547633
 41
1.799142716190982
 42
4.40407642172886
  0
ARC
  5
34628
330
1F
100
AcDbEntity
  8
AM_0
100
AcDbCircle
 10
57.86257446317819
 20
0.1557610812792518
 30
0.0
 40
17.95433961946591
100
AcDbArc
 50
176.4820819485703
 51
184.5211796925768
  0
ELLIPSE
  5
34629
330
1F
100
AcDbEntity
  8
AM_0
100
AcDbEllipse
 10
41.48492149862466
 20
0.0
 30
0.0
 11
-0.05211329601894183
 21
5.499979793397877
 31
5.834012103272596E-18
210
1.004973687477036E-20
220
-1.060638147318721E-18
230
1.0
 40
0.2860843146547633
 41
4.954485275260895
 42
7.620603265404742
  0
LINE
  5
3462A
330
1F
100
AcDbEntity
  8
AM_0
100
AcDbLine
 10
42.99999999992349
 20
1.333029899268695
 30
0.0
 11
42.99999999992349
 21
-1.65476964360812
 31
0.0
  0
CIRCLE
  5
3463A
330
1F
100
AcDbEntity
  8
AM_0
100
AcDbCircle
 10
72.99999999992343
 20
0.0
 30
0.0
 40
3.0
  0
LINE
  5
346A5
330
1F
100
AcDbEntity
  8
AM_0
100
AcDbLine
 10
72.13397459613918
 20
1.5
 30
0.0
 11
73.86602540370802
 21
1.5
 31
0.0
  0
LINE
  5
346A6
330
1F
100
AcDbEntity
  8
AM_0
100
AcDbLine
 10
73.86602540370802
 20
1.5
 30
0.0
 11
74.73205080749233
 21
0.0
 31
0.0
  0
LINE
  5
346A7
330
1F
100
AcDbEntity
  8
AM_0
100
AcDbLine
 10
74.73205080749233
 20
0.0
 30
0.0
 11
73.86602540370802
 21
-1.5
 31
0.0
  0
LINE
  5
346A8
330
1F
100
AcDbEntity
  8
AM_0
100
AcDbLine
 10
73.8660254037078
 20
-1.5
 30
0.0
 11
72.13397459613896
 21
-1.5
 31
0.0
  0
LINE
  5
346A9
330
1F
100
AcDbEntity
  8
AM_0
100
AcDbLine
 10
72.13397459613896
 20
-1.5
 30
0.0
 11
71.26794919235442
 21
0.0
 31
0.0
  0
LINE
  5
346AA
330
1F
100
AcDbEntity
  8
AM_0
100
AcDbLine
 10
71.26794919235465
 20
0.0
 30
0.0
 11
72.13397459613896
 21
1.5
 31
0.0
  0
LINE
  5
346AC
330
1F
100
AcDbEntity
  8
AM_0
100
AcDbLine
 10
41.29999999992367
 20
2.214510797200319
 30
0.0
 11
41.29999999992367
 21
-2.214510797200319
 31
0.0
  0
ARC
  5
346AD
330
1F
100
AcDbEntity
  8
AM_0
100
AcDbCircle
 10
44.64990703025097
 20
-0.2145107972002052
 30
0.0
 40
3.901522409500942
100
AcDbArc
 50
210.8385318138122
 51
240.1245455624117
  0
ARC
  5
346AE
330
1F
100
AcDbEntity
  8
AM_0
100
AcDbCircle
 10
44.64990703025097
 20
0.2145107972002052
 30
0.0
 40
3.901522409500942
100
AcDbArc
 50
120.8026230405227
 51
149.1614681861879
  0
LINE
  5
346AF
330
1F
100
AcDbEntity
  8
AM_0
100
AcDbLine
 10
27.48546583003446
 20
-125.0757758756901
 30
0.0
 11
27.48733741483471
 21
-125.0832635138539
 31
0.0
  0
LINE
  5
346B0
330
1F
100
AcDbEntity
  8
AM_0
100
AcDbLine
 10
25.78066529096742
 20
-125.5016564382544
 30
0.0
 11
25.78254607626246
 21
-125.509180884783
 31
0.0
  0
LINE
  5
346B1
330
1F
100
AcDbEntity
  8
AM_0
100
AcDbLine
 10
14.71388311419202
 20
-128.9504562951779
 30
0.0
 11
16.88419109664989
 21
-137.6331945149022
 31
0.0
  0
ELLIPSE
  5
346B2
330
1F
100
AcDbEntity
  8
AM_0
100
AcDbEllipse
 10
22.97729122607603
 20
-167.5550243788755
 30
0.0
 11
-8.848743156509961
 21
39.03851568325202
 31
2.089294527756556E-16
210
1.153814008719002E-18
220
-5.090348479805832E-18
230
1.0
 40
0.0716507764136511
 41
4.820746829584599
 42
6.116829793417657
  0
LINE
  5
346B3
330
1F
100
AcDbEntity
  8
AM_0
100
AcDbLine
 10
14.71388311419202
 20
-128.9504562951779
 30
0.0
 11
14.57004552828977
 21
-128.3162035963429
 31
0.0
  0
SPLINE
  5
346B6
330
1F
100
AcDbEntity
  8
AM_0
100
AcDbSpline
210
0.0
220
0.0
230
1.0
 70
     8
 71
     3
 72
    22
 73
    18
 74
     0
 42
0.0000000001
 43
0.0000000001
 40
13.50583973073316
 40
13.50583973073316
 40
13.50583973073316
 40
13.50583973073316
 40
14.08318700319183
 40
14.08318700319183
 40
14.65507438335295
 40
14.65507438335295
 40
15.22696176351408
 40
15.22696176351408
 40
15.7988491436752
 40
15.7988491436752
 40
16.37073652383633
 40
16.37073652383633
 40
16.94463497283192
 40
16.94463497283192
 40
17.51853342182752
 40
17.51853342182752
 40
17.78770383404073
 40
17.78770383404073
 40
17.78770383404073
 40
17.78770383404073
 10
24.80107050538965
 20
-162.7028670689388
 30
0.0
 10
24.85102594885103
 20
-162.7532719864736
 30
0.0
 10
24.88153699955257
 20
-162.802365261135
 30
0.0
 10
24.90471028756434
 20
-162.894334881664
 30
0.0
 10
24.89841109572745
 20
-162.9402236873834
 30
0.0
 10
24.84384982231001
 20
-163.0281628072609
 30
0.0
 10
24.79558981681117
 20
-163.0702164602192
 30
0.0
 10
24.65816426489874
 20
-163.1477398650655
 30
0.0
 10
24.56886044090703
 20
-163.1832988297375
 30
0.0
 10
24.3566183954386
 20
-163.2465898950148
 30
0.0
 10
24.23367117084951
 20
-163.2743400151362
 30
0.0
 10
23.96763197584033
 20
-163.3219334352443
 30
0.0
 10
23.816079732829
 20
-163.3432439784172
 30
0.0
 10
23.48478523647719
 20
-163.3795475477724
 30
0.0
 10
23.30505799924691
 20
-163.3945632847263
 30
0.0
 10
23.02933491517393
 20
-163.4118739424361
 30
0.0
 10
22.93949755926457
 20
-163.4167005441189
 30
0.0
 10
22.84857360878078
 20
-163.4208394382985
 30
0.0
  0
ELLIPSE
  5
346B7
330
1F
100
AcDbEntity
  8
AM_0
100
AcDbEllipse
 10
-1.212964503522414
 20
-132.0306236234382
 30
0.0
 11
100.6981349750548
 21
-2.634024385461425E-14
 31
1.433129566181192E-44
210
-1.423193752829892E-46
220
3.722737318937378E-62
230
1.0
 40
0.3152987888789124
 41
4.973689155514496
 42
5.331787125862072
  0
ARC
  5
346B8
330
1F
100
AcDbEntity
  8
AM_0
100
AcDbCircle
 10
56.65348407186343
 20
-153.8373388635184
 30
0.0
 40
4.088313815333036
100
AcDbArc
 50
278.3453066098323
 51
346.2601494176616
  0
ELLIPSE
  5
346B9
330
1F
100
AcDbEntity
  8
AM_0
100
AcDbEllipse
 10
55.72121019207913
 20
-132.0306236234382
 30
0.0
 11
-8.338593618100434E-15
 21
-31.74999999999999
 31
0.0
210
0.0
220
0.0
230
1.0
 40
0.2216946626429568
 41
0.7707199056196264
 42
2.370872747970169
  0
ARC
  5
346BA
330
1F
100
AcDbEntity
  8
AM_0
100
AcDbCircle
 10
56.65348407186366
 20
-110.223908383358
 30
0.0
 40
4.088313815333021
100
AcDbArc
 50
13.73985058233992
 51
81.65469339017096
  0
ELLIPSE
  5
346BB
330
1F
100
AcDbEntity
  8
AM_0
100
AcDbEllipse
 10
-1.212964503522414
 20
-132.0306236234382
 30
0.0
 11
100.6981349750548
 21
-2.634024385461425E-14
 31
1.433129566181192E-44
210
-1.423193752829892E-46
220
3.722737318937378E-62
230
1.0
 40
0.3152987888789124
 41
0.9513981813175152
 42
1.099010551088165
  0
LINE
  5
346BC
330
1F
100
AcDbEntity
  8
AM_0
100
AcDbLine
 10
16.43100209110691
 20
-137.7460992886456
 30
0.0
 11
16.17293180173857
 21
-137.8104434385118
 31
0.0
  0
LINE
  5
346BD
330
1F
100
AcDbEntity
  8
AM_0
100
AcDbLine
 10
22.84857360878078
 20
-163.4208394382985
 30
0.0
 11
16.43100209110691
 21
-137.7460992886456
 31
0.0
  0
ELLIPSE
  5
346BE
330
1F
100
AcDbEntity
  8
AM_0
100
AcDbEllipse
 10
-1.292769069495023
 20
-132.0306236234382
 30
0.0
 11
107.4493825398747
 21
-2.636788112409044
 31
5.912528197991786E-16
210
-5.499305497550660E-18
220
1.349519468580114E-19
230
0.9999999999999999
 40
0.2944672108140884
 41
4.81484373380785
 42
4.946219960499698
  0
LINE
  5
346BF
330
1F
100
AcDbEntity
  8
AM_0
100
AcDbLine
 10
8.924305324317913
 20
-163.7747040641656
 30
0.0
 11
3.240420385074515
 21
-141.0352194392251
 31
0.0
  0
LINE
  5
346C0
330
1F
100
AcDbEntity
  8
AM_0
100
AcDbLine
 10
8.3423251985908
 20
-163.7806112912577
 30
0.0
 11
8.924303047244791
 21
-163.7744876557676
 31
0.0
  0
LINE
  5
346C1
330
1F
100
AcDbEntity
  8
AM_0
100
AcDbLine
 10
36.63913938394177
 20
-122.7780420066899
 30
0.0
 11
36.64517984068112
 21
-122.7719339194701
 31
0.0
  0
LINE
  5
346C2
330
1F
100
AcDbEntity
  8
AM_0
100
AcDbLine
 10
14.57004552829
 20
-128.3162035963429
 30
0.0
 11
36.46232565444831
 21
-122.8578451127044
 31
0.0
  0
LINE
  5
346C3
330
1F
100
AcDbEntity
  8
AM_0
100
AcDbLine
 10
14.7098712425157
 20
-128.2803124772807
 30
0.0
 11
14.57004552828977
 21
-128.3162035963429
 31
0.0
  0
LINE
  5
346C4
330
1F
100
AcDbEntity
  8
AM_0
100
AcDbLine
 10
22.1135592917795
 20
-126.4247701903807
 30
0.0
 11
14.70987124251593
 21
-128.2803124772807
 31
0.0
  0
LINE
  5
346C5
330
1F
100
AcDbEntity
  8
AM_0
100
AcDbLine
 10
27.21592110738294
 20
-125.1511058193254
 30
0.0
 11
23.34468357720681
 21
-126.1181895217237
 31
0.0
  0
LINE
  5
346C6
330
1F
100
AcDbEntity
  8
AM_0
100
AcDbLine
 10
25.78066529096674
 20
-125.5016564382551
 30
0.0
 11
27.48546583003468
 21
-125.0757758756905
 31
0.0
  0
LINE
  5
346C7
330
1F
100
AcDbEntity
  8
AM_0
100
AcDbLine
 10
15.37183333256468
 20
-128.0968697233721
 30
0.0
 11
25.78066529096674
 21
-125.501656438255
 31
0.0
  0
LINE
  5
346C8
330
1F
100
AcDbEntity
  8
AM_0
100
AcDbLine
 10
28.96048076357948
 20
-124.688389488733
 30
0.0
 11
28.69900307951667
 21
-124.7539220850053
 31
0.0
  0
LINE
  5
346C9
330
1F
100
AcDbEntity
  8
AM_0
100
AcDbLine
 10
23.84900261018703
 20
-125.9694488471332
 30
0.0
 11
15.37116568648804
 21
-128.0941986756906
 31
0.0
  0
LINE
  5
346CA
330
1F
100
AcDbEntity
  8
AM_0
100
AcDbLine
 10
29.74957365646338
 20
-124.4961371534673
 30
0.0
 11
28.96048076357948
 21
-124.6883894887329
 31
0.0
  0
LINE
  5
346CB
330
1F
100
AcDbEntity
  8
AM_0
100
AcDbLine
 10
28.70070792912799
 20
-124.76074266669
 30
0.0
 11
29.74998165611424
 21
-124.4977694352409
 31
0.0
  0
LINE
  5
346CC
330
1F
100
AcDbEntity
  8
AM_0
100
AcDbLine
 10
30.89803395430801
 20
-124.2163295716077
 30
0.0
 11
28.57171110273208
 21
-124.7993620272377
 31
0.0
  0
LINE
  5
346CD
330
1F
100
AcDbEntity
  8
AM_0
100
AcDbLine
 10
31.87325624500824
 20
-123.978729202271
 30
0.0
 11
30.89803395430846
 21
-124.2163295716076
 31
0.0
  0
LINE
  5
346CE
330
1F
100
AcDbEntity
  8
AM_0
100
AcDbLine
 10
34.71840416673859
 20
-123.2523040441731
 30
0.0
 11
36.32490345241155
 21
-122.8609011535142
 31
0.0
  0
LINE
  5
346CF
330
1F
100
AcDbEntity
  8
AM_0
100
AcDbLine
 10
36.24515631110859
 20
-122.8626745970676
 30
0.0
 11
34.71676029052156
 21
-123.245727398382
 31
0.0
  0
ELLIPSE
  5
346D0
330
1F
100
AcDbEntity
  8
AM_0
100
AcDbEllipse
 10
35.24640652683007
 20
-118.0071687173883
 30
0.0
 11
5.013715623231081
 21
0.0565820147680678
 31
-8.111589356233237E-19
210
1.617673796215390E-19
220
1.825616957676360E-21
230
0.9999999999999999
 40
0.997200543031269
 41
4.946080854569374
 42
5.993278405765699
  0
LINE
  5
346D1
330
1F
100
AcDbEntity
  8
AM_0
100
AcDbLine
 10
36.35263651550196
 20
-122.860284416398
 30
0.0
 11
36.46232565444831
 21
-122.8578451127045
 31
0.0
  0
LINE
  5
346D2
330
1F
100
AcDbEntity
  8
AM_0
100
AcDbLine
 10
36.35315559282077
 20
-122.8619818348554
 30
0.0
 11
36.78689217535845
 21
-122.7293434620966
 31
0.0
  0
ELLIPSE
  5
346D3
330
1F
100
AcDbEntity
  8
AM_0
100
AcDbEllipse
 10
34.8602837988031
 20
-118.0157554435282
 30
0.0
 11
4.847325579875315
 21
-1.991565990872824
 31
8.208832943283306E-16
210
-1.448895978429300E-16
220
5.952915494127846E-17
230
1.0
 40
0.9450849703753496
 41
5.36829088436849
 42
5.433144796590074
  0
LINE
  5
346D4
330
1F
100
AcDbEntity
  8
AM_0
100
AcDbLine
 10
36.24515631110836
 20
-122.8626745970676
 30
0.0
 11
36.32490345241155
 21
-122.8609011535142
 31
0.0
  0
ELLIPSE
  5
346D5
330
1F
100
AcDbEntity
  8
AM_0
100
AcDbEllipse
 10
35.03613730376702
 20
-118.011844754573
 30
0.0
 11
0.0547675899382722
 21
-4.999701875111878
 31
1.175649354557335E-19
210
-2.575497382221760E-22
220
2.351156789216586E-20
230
1.0
 40
0.9971151633022115
 41
0.2339598299483068
 42
1.281157381144634
  0
LINE
  5
346D6
330
1F
100
AcDbEntity
  8
AM_0
100
AcDbLine
 10
39.94206696056114
 20
-119.3849504205249
 30
0.0
 11
39.82940629860678
 21
-119.3874558059393
 31
0.0
  0
LINE
  5
346D7
330
1F
100
AcDbEntity
  8
AM_0
100
AcDbLine
 10
44.11775975949973
 20
-104.3552169324108
 30
0.0
 11
42.30924961003626
 21
-110.694702895929
 31
0.0
  0
LINE
  5
346D8
330
1F
100
AcDbEntity
  8
AM_0
100
AcDbLine
 10
41.29999999992361
 20
-114.2324899185195
 30
0.0
 11
39.82940629860678
 21
-119.3874558059392
 31
0.0
  0
ELLIPSE
  5
346D9
330
1F
100
AcDbEntity
  8
AM_0
100
AcDbEllipse
 10
36.33497935739007
 20
-132.0306236234382
 30
0.0
 11
9.084537200164714
 21
31.74991595946516
 31
-7.735896271079337E-18
210
6.443970376243904E-20
220
2.252129232156342E-19
230
1.0
 40
0.0080413353015953
 41
5.813700377902342
 42
6.79769034472004
  0
LINE
  5
346DA
330
1F
100
AcDbEntity
  8
AM_0
100
AcDbLine
 10
40.06703169422173
 20
-119.382171413056
 30
0.0
 11
44.55209261629835
 21
-103.7490535135945
 31
0.0
  0
LINE
  5
346DB
330
1F
100
AcDbEntity
  8
AM_0
100
AcDbLine
 10
40.06703169422195
 20
-119.382171413056
 30
0.0
 11
39.96410403028318
 21
-119.384460352811
 31
0.0
  0
ELLIPSE
  5
346DC
330
1F
100
AcDbEntity
  8
AM_0
100
AcDbEllipse
 10
41.4849214986246
 20
-114.0306236234382
 30
0.0
 11
-1.573699357508857
 21
-5.499985441797144
 31
-1.242300316655416E-17
210
-5.973798005589044E-19
220
-2.087806791443752E-18
230
1.0
 40
0.0080413353015953
 41
0.2333579294332442
 42
2.838291634971102
  0
SPLINE
  5
346DD
330
1F
100
AcDbEntity
  8
AM_0
100
AcDbSpline
210
0.0
220
0.0
230
1.0
 70
     8
 71
     3
 72
    14
 73
    10
 74
     0
 42
0.0000000001
 43
0.0000000001
 40
9.786257973796031
 40
9.786257973796031
 40
9.786257973796031
 40
9.786257973796031
 40
9.870426813131882
 40
9.870426813131882
 40
11.02943401380008
 40
11.02943401380008
 40
12.18452353118711
 40
12.18452353118711
 40
12.27167340264606
 40
12.27167340264606
 40
12.27167340264606
 40
12.27167340264606
 10
39.96410403028318
 20
-119.384460352811
 30
0.0
 10
39.96195224071749
 20
-119.3911204485712
 30
0.0
 10
39.95985067944667
 20
-119.3975517330389
 30
0.0
 10
39.9295979408592
 20
-119.4891575949327
 30
0.0
 10
39.91230218216225
 20
-119.5305483009499
 30
0.0
 10
39.90554887855302
 20
-119.5306984831703
 30
0.0
 10
39.91581970503813
 20
-119.4897348704328
 30
0.0
 10
39.93868760718402
 20
-119.3984920561638
 30
0.0
 10
39.94034993159318
 20
-119.3918443414759
 30
0.0
 10
39.94206696056114
 20
-119.3849504205249
 30
0.0
  0
ELLIPSE
  5
346DE
330
1F
100
AcDbEntity
  8
AM_0
100
AcDbEllipse
 10
41.4849214986246
 20
-114.0306236234382
 30
0.0
 11
-1.573699357508857
 21
-5.499985441797144
 31
-1.242300316655416E-17
210
-5.973798005589044E-19
220
-2.087806791443752E-18
230
1.0
 40
0.0080413353015953
 41
4.802025319008583
 42
6.054818478647008
  0
ELLIPSE
  5
346DF
330
1F
100
AcDbEntity
  8
AM_0
100
AcDbEllipse
 10
41.4849214986246
 20
-114.0306236234382
 30
0.0
 11
-1.573699357508857
 21
-5.499985441797144
 31
-1.242300316655416E-17
210
-5.973798005589044E-19
220
-2.087806791443752E-18
230
1.0
 40
0.0080413353015953
 41
3.388700488503151
 42
4.043596890682336
  0
LINE
  5
346E0
330
1F
100
AcDbEntity
  8
AM_0
100
AcDbLine
 10
42.99999999992343
 20
-108.694610946574
 30
0.0
 11
42.99999999992343
 21
-108.7854603822613
 31
0.0
  0
LINE
  5
346E1
330
1F
100
AcDbEntity
  8
AM_0
100
AcDbLine
 10
69.49857664529196
 20
-100.3075948138541
 30
0.0
 11
72.99903960276811
 21
-100.4923252646126
 31
0.0
  0
LINE
  5
346E2
330
1F
100
AcDbEntity
  8
AM_0
100
AcDbLine
 10
73.00096039707893
 20
-100.4923252646126
 30
0.0
 11
76.50142335455507
 21
-100.3075948138541
 31
0.0
  0
LINE
  5
346E5
330
1F
100
AcDbEntity
  8
AM_0
100
AcDbLine
 10
69.49999999992343
 20
-100.2806236234383
 30
0.0
 11
45.41890507873433
 21
-100.2806236234383
 31
0.0
  0
LINE
  5
346E6
330
1F
100
AcDbEntity
  8
AM_0
100
AcDbLine
 10
77.99999999992321
 20
-100.2806236234383
 30
0.0
 11
76.49999999992343
 21
-100.2806236234383
 31
0.0
  0
LINE
  5
346E7
330
1F
100
AcDbEntity
  8
AM_0
100
AcDbLine
 10
77.99999999992321
 20
-163.7806236234382
 30
0.0
 11
8.357368367161428
 21
-163.7806236234382
 31
0.0
  0
LINE
  5
346E8
330
1F
100
AcDbEntity
  8
AM_0
100
AcDbLine
 10
2.691235704179974
 20
-141.1719960150467
 30
0.0
 11
8.342321516669074
 21
-163.7802613689226
 31
0.0
  0
ELLIPSE
  5
346EA
330
1F
100
AcDbEntity
  8
AM_0
100
AcDbEllipse
 10
15.58089563642949
 20
-137.9643085940608
 30
0.0
 11
2.910457198537951
 21
0.7274880723962139
 31
-1.240806109406013E-18
210
4.012570081233936E-19
220
1.002968494165793E-19
230
1.0
 40
0.001934237287562
 41
1.106012368128964
 42
1.273904706446649
  0
ELLIPSE
  5
346EC
330
1F
100
AcDbEntity
  8
AM_0
100
AcDbEllipse
 10
23.47945593853734
 20
-126.080524549905
 30
0.0
 11
1.940304799025278
 21
0.4849920482641726
 31
-8.272040729448792E-19
210
4.012570081270511E-19
220
1.002968494175008E-19
230
1.0
 40
0.0019342372876032
 41
3.930948066089585
 42
4.642390162793959
  0
ELLIPSE
  5
346ED
330
1F
100
AcDbEntity
  8
AM_0
100
AcDbEllipse
 10
27.35069346870893
 20
-125.113440847508
 30
0.0
 11
1.940304799025023
 21
0.4849920482641089
 31
-8.272040729293140E-19
210
4.012570081195535E-19
220
1.002968494156267E-19
230
1.0
 40
0.0019342372876032
 41
4.6423901627963
 42
7.783982816386327
  0
ELLIPSE
  5
346EE
330
1F
100
AcDbEntity
  8
AM_0
100
AcDbEllipse
 10
26.27644742427611
 20
-125.3714654803849
 30
0.0
 11
2.425380998781597
 21
0.6062400603302156
 31
7.006664485039238E-19
210
-2.719012945096322E-19
220
-6.796353120198032E-20
230
1.0
 40
0.0019342372876032
 41
3.141592653587893
 42
5.95365781623631
  0
ELLIPSE
  5
346EF
330
1F
100
AcDbEntity
  8
AM_0
100
AcDbEllipse
 10
34.25209415443584
 20
-123.3825352101346
 30
0.0
 11
2.501500088486453
 21
0.6252665314529525
 31
-4.899779576703138E-19
210
1.843554346987270E-19
220
4.608086313453622E-20
230
1.0
 40
0.0019342372876032
 41
3.455566271440131
 42
5.708659974928614
  0
ELLIPSE
  5
346F0
330
1F
100
AcDbEntity
  8
AM_0
100
AcDbEllipse
 10
21.49923982677575
 20
-126.5640832677246
 30
0.0
 11
1.261198119366431
 21
0.3152448313717123
 31
8.500545843337981E-19
210
-6.343711497755018E-19
220
-1.585652746124610E-19
230
1.0
 40
0.0019342372876032
 41
1.57853446393795
 42
7.861719771117536
  0
LINE
  5
346F1
330
1F
100
AcDbEntity
  8
AM_0
100
AcDbLine
 10
2.978964288749069
 20
-141.100407765578
 30
0.0
 11
15.9115554123012
 21
-137.8759506479149
 31
0.0
  0
LINE
  5
346F2
330
1F
100
AcDbEntity
  8
AM_0
100
AcDbLine
 10
1.824703767030144
 20
-136.4825645707615
 30
0.0
 11
2.978964288749069
 21
-141.100407765578
 31
0.0
  0
LINE
  5
346F3
330
1F
100
AcDbEntity
  8
AM_0
100
AcDbLine
 10
14.75729489058227
 20
-133.2581074530984
 30
0.0
 11
15.9115554123012
 21
-137.8759506479149
 31
0.0
  0
LINE
  5
346F4
330
1F
100
AcDbEntity
  8
AM_0
100
AcDbLine
 10
15.91155541230143
 20
-137.8759506479149
 30
0.0
 11
16.88395357930773
 21
-137.6322442806857
 31
0.0
  0
LINE
  5
346F5
330
1F
100
AcDbEntity
  8
AM_0
100
AcDbLine
 10
1.275460190571323
 20
-136.6191055234495
 30
0.0
 11
2.429537423719523
 21
-141.236215436773
 31
0.0
  0
ELLIPSE
  5
346F6
330
1F
100
AcDbEntity
  8
AM_0
100
AcDbEllipse
 10
3.205659343329728
 20
-141.0422186174674
 30
0.0
 11
0.7761219196101147
 21
0.1939968193056572
 31
1.895198327305124E-19
210
-2.298289005984264E-19
220
-5.744725741415555E-20
230
0.9999999999999998
 40
0.001934237287562
 41
3.141592653589857
 42
4.415497360036469
  0
LINE
  5
346F7
330
1F
100
AcDbEntity
  8
AM_0
100
AcDbLine
 10
13.60334182616754
 20
-128.6401094260564
 30
0.0
 11
14.58756148414574
 21
-128.393440308878
 31
0.0
  0
LINE
  5
346F8
330
1F
100
AcDbEntity
  8
AM_0
100
AcDbLine
 10
14.75762074179335
 20
-133.2580262092667
 30
0.0
 11
15.729693156927
 21
-133.0144014832912
 31
0.0
  0
LINE
  5
346F9
330
1F
100
AcDbEntity
  8
AM_0
100
AcDbLine
 10
0.5494269557380562
 20
-131.8948159512377
 30
0.0
 11
13.60334182616708
 21
-128.6401094260565
 31
0.0
  0
LINE
  5
346FA
330
1F
100
AcDbEntity
  8
AM_0
100
AcDbLine
 10
13.60334182616708
 20
-128.6401094260565
 30
0.0
 11
14.75762074179289
 21
-133.2580262092668
 31
0.0
  0
LINE
  5
346FB
330
1F
100
AcDbEntity
  8
AM_0
100
AcDbLine
 10
1.703705871363866
 20
-136.5127327344479
 30
0.0
 11
14.75762074179289
 21
-133.2580262092668
 31
0.0
  0
LINE
  5
346FC
330
1F
100
AcDbEntity
  8
AM_0
100
AcDbLine
 10
0.5494269557380562
 20
-131.8948159512377
 30
0.0
 11
1.703705871363866
 21
-136.5127327344478
 31
0.0
  0
LINE
  5
346FD
330
1F
100
AcDbEntity
  8
AM_0
100
AcDbLine
 10
12.2866609690405
 20
-128.9501316659436
 30
0.0
 11
0.5360672926079246
 21
-131.8951130478868
 31
0.0
  0
LINE
  5
346FE
330
1F
100
AcDbEntity
  8
AM_0
100
AcDbLine
 10
0.0000000907087383
 20
-132.0306236224325
 30
0.0
 11
1.154279006334548
 21
-136.6485404056428
 31
0.0
  0
ELLIPSE
  5
346FF
330
1F
100
AcDbEntity
  8
AM_0
100
AcDbEllipse
 10
0.7761220103187156
 20
-131.8366268031269
 30
0.0
 11
0.7761219196101147
 21
0.1939968193056572
 31
1.895198327305124E-19
210
-2.298289005984264E-19
220
-5.744725741415555E-20
230
0.9999999999999998
 40
0.001934237287562
 41
1.884769944644592
 42
4.415497360036458
  0
ELLIPSE
  5
34700
330
1F
100
AcDbEntity
  8
AM_0
100
AcDbEllipse
 10
1.930400925944525
 20
-136.4545435863372
 30
0.0
 11
0.7761219196101147
 21
0.1939968193056572
 31
1.895198327305124E-19
210
-2.298289005984264E-19
220
-5.744725741415555E-20
230
0.9999999999999998
 40
0.001934237287562
 41
3.141592653589857
 42
4.415497360036469
  0
ELLIPSE
  5
34701
330
1F
100
AcDbEntity
  8
AM_0
100
AcDbEllipse
 10
13.55962269624575
 20
-128.6410816666644
 30
0.0
 11
1.848140321071586
 21
0.4619549259715962
 31
-3.889374253453825E-19
210
1.980727435480796E-19
220
4.950959542384233E-20
230
0.9999999999999999
 40
0.001934237287562
 41
2.328998137634849
 42
5.300856042043346
  0
LINE
  5
34702
330
1F
100
AcDbEntity
  8
AM_0
100
AcDbLine
 10
23.08298606859154
 20
-114.2473938748403
 30
0.0
 11
25.18856850478261
 21
-113.7226651720611
 31
0.0
  0
LINE
  5
34703
330
1F
100
AcDbEntity
  8
AM_0
100
AcDbLine
 10
25.18856850478261
 20
-113.7226651720611
 30
0.0
 11
25.18979290320846
 21
-113.7275636155513
 31
0.0
  0
LINE
  5
34704
330
1F
100
AcDbEntity
  8
AM_0
100
AcDbLine
 10
25.18856850478261
 20
-113.7226651720611
 30
0.0
 11
25.57827937598501
 21
-113.6297889126497
 31
0.0
  0
LINE
  5
34705
330
1F
100
AcDbEntity
  8
AM_0
100
AcDbLine
 10
25.57827937598501
 20
-113.6297889126497
 30
0.0
 11
23.86240781099633
 21
-114.0616413560176
 31
0.0
  0
LINE
  5
34706
330
1F
100
AcDbEntity
  8
AM_0
100
AcDbLine
 10
23.8624078109961
 20
-114.0616413560176
 30
0.0
 11
21.75682537480503
 21
-114.5863700587968
 31
0.0
  0
LINE
  5
34707
330
1F
100
AcDbEntity
  8
AM_0
100
AcDbLine
 10
21.75682537480526
 20
-114.5863700587968
 30
0.0
 11
21.36711450360286
 21
-114.6792463182082
 31
0.0
  0
LINE
  5
34708
330
1F
100
AcDbEntity
  8
AM_0
100
AcDbLine
 10
21.36711450360286
 20
-114.6792463182082
 30
0.0
 11
23.08298606859154
 21
-114.2473938748403
 31
0.0
  0
LINE
  5
34709
330
1F
100
AcDbEntity
  8
AM_0
100
AcDbLine
 10
23.08298606859177
 20
-114.2473938748404
 30
0.0
 11
23.08498279196812
 21
-114.2553821541603
 31
0.0
  0
SPLINE
  5
3470A
330
1F
100
AcDbEntity
  8
AM_0
100
AcDbSpline
210
0.0
220
0.0
230
1.0
 70
     8
 71
     3
 72
    60
 73
    56
 74
     0
 42
0.0000000001
 43
0.0000000001
 40
0.0
 40
0.0
 40
0.0
 40
0.0
 40
0.324270383954652
 40
0.324270383954652
 40
0.4817116795371541
 40
0.4817116795371541
 40
0.6379310340493144
 40
0.6379310340493144
 40
0.684884279365453
 40
0.684884279365453
 40
0.7196019494411038
 40
0.7196019494411038
 40
0.7582528658422005
 40
0.7582528658422005
 40
0.7951027272801929
 40
0.7951027272801929
 40
0.8593068662248017
 40
0.8593068662248017
 40
1.027433387578888
 40
1.027433387578888
 40
1.533045544369899
 40
1.533045544369899
 40
2.538464358156372
 40
2.538464358156372
 40
3.3687320046148
 40
3.3687320046148
 40
4.195359802846041
 40
4.195359802846041
 40
5.020795406911981
 40
5.020795406911981
 40
5.8459623354044
 40
5.8459623354044
 40
6.671286595289248
 40
6.671286595289248
 40
7.497436877331842
 40
7.497436877331842
 40
8.326934122596082
 40
8.326934122596082
 40
8.612286891221524
 40
8.612286891221524
 40
8.662394365137747
 40
8.662394365137747
 40
8.712486757143573
 40
8.712486757143573
 40
8.754237809504687
 40
8.754237809504687
 40
8.792006982866701
 40
8.792006982866701
 40
8.859355850837595
 40
8.859355850837595
 40
9.002670025950435
 40
9.002670025950435
 40
9.274826373704435
 40
9.274826373704435
 40
9.437354064345863
 40
9.437354064345863
 40
9.437354064345863
 40
9.437354064345863
 10
20.34911697893432
 20
-115.2371682107089
 30
0.0
 10
20.40473006562598
 20
-115.1444887011832
 30
0.0
 10
20.47648812422796
 20
-115.0598690642327
 30
0.0
 10
20.59877388310025
 20
-114.95588601127
 30
0.0
 10
20.64156129284271
 20
-114.9249604577723
 30
0.0
 10
20.73070535831022
 20
-114.8706455668983
 30
0.0
 10
20.77784002790105
 20
-114.8468399563863
 30
0.0
 10
20.83880623578358
 20
-114.8216345967926
 30
0.0
 10
20.85296900405029
 20
-114.816170513475
 30
0.0
 10
20.87612426155448
 20
-114.8077788603193
 30
0.0
 10
20.88559921813095
 20
-114.804526949566
 30
0.0
 10
20.9029325966697
 20
-114.7988023295786
 30
0.0
 10
20.91058805504923
 20
-114.7964132240348
 30
0.0
 10
20.92235570059535
 20
-114.7928242534354
 30
0.0
 10
20.92684856254988
 20
-114.7915017670063
 30
0.0
 10
20.93725798199654
 20
-114.7884759347297
 30
0.0
 10
20.94194404740375
 20
-114.7871654437503
 30
0.0
 10
20.95719149613029
 20
-114.7829344344979
 30
0.0
 10
20.96531919041632
 20
-114.7807739154821
 30
0.0
 10
21.00365984953629
 20
-114.7706267285256
 30
0.0
 10
21.04267690084004
 20
-114.7605624860963
 30
0.0
 10
21.20585424514167
 20
-114.718808817379
 30
0.0
 10
21.37638520556089
 20
-114.675586972979
 30
0.0
 10
21.77042494806807
 20
-114.5761797331722
 30
0.0
 10
21.98380536614587
 20
-114.5224858039195
 30
0.0
 10
22.44784690418538
 20
-114.4059448488504
 30
0.0
 10
22.70411083179812
 20
-114.3416898157255
 30
0.0
 10
23.22738148260675
 20
-114.2106737368637
 30
0.0
 10
23.50088384898737
 20
-114.142286051153
 30
0.0
 10
24.03101296990832
 20
-114.0099054455822
 30
0.0
 10
24.29424021143251
 20
-113.9442642294311
 30
0.0
 10
24.77783847266602
 20
-113.8238507539762
 30
0.0
 10
25.00420931956347
 20
-113.7675845845996
 30
0.0
 10
25.39256499144682
 20
-113.6712677773386
 30
0.0
 10
25.55925872339964
 20
-113.6300492594918
 30
0.0
 10
25.81393624688332
 20
-113.5673659003311
 30
0.0
 10
25.90285612677513
 20
-113.5456455361981
 30
0.0
 10
25.97340416636172
 20
-113.5288483739108
 30
0.0
 10
25.98362041445904
 20
-113.5263129948432
 30
0.0
 10
26.01091427562784
 20
-113.5203894613053
 30
0.0
 10
26.01567337996113
 20
-113.5193693206075
 30
0.0
 10
26.0288544128087
 20
-113.516691129076
 30
0.0
 10
26.03773592786575
 20
-113.5149331170098
 30
0.0
 10
26.05934354512584
 20
-113.5111307281908
 30
0.0
 10
26.07130987820375
 20
-113.5091868257201
 30
0.0
 10
26.09523379101603
 20
-113.5058168809674
 30
0.0
 10
26.10724237599612
 20
-113.5043291500937
 30
0.0
 10
26.14102024091227
 20
-113.500791272208
 30
0.0
 10
26.16329210274154
 20
-113.4991833691468
 30
0.0
 10
26.23297483782022
 20
-113.4965256885006
 30
0.0
 10
26.28098004885607
 20
-113.498106688474
 30
0.0
 10
26.41858461726685
 20
-113.5125918599591
 30
0.0
 10
26.50832186719259
 20
-113.534666883614
 30
0.0
 10
26.64298543667206
 20
-113.5881052034702
 30
0.0
 10
26.69186950327895
 20
-113.6122704873303
 30
0.0
 10
26.73832154211578
 20
-113.6401441712732
 30
0.0
  0
LINE
  5
3470B
330
1F
100
AcDbEntity
  8
AM_0
100
AcDbLine
 10
28.70862479293447
 20
-117.5758024524433
 30
0.0
 11
27.99940905498016
 21
-114.7384472734829
 31
0.0
  0
LINE
  5
3470C
330
1F
100
AcDbEntity
  8
AM_0
100
AcDbLine
 10
20.4420010023851
 20
-119.5556909699918
 30
0.0
 11
19.75311365912268
 21
-116.7996634786055
 31
0.0
  0
LINE
  5
3470D
330
1F
100
AcDbEntity
  8
AM_0
100
AcDbLine
 10
20.34911697893455
 20
-115.2371682107089
 30
0.0
 11
19.86579804717491
 21
-116.0426218225251
 31
0.0
  0
LINE
  5
3470E
330
1F
100
AcDbEntity
  8
AM_0
100
AcDbLine
 10
26.73832154211578
 20
-113.6401441712732
 30
0.0
 11
27.5437769621613
 21
-114.1234600895957
 31
0.0
  0
ARC
  5
3470F
330
1F
100
AcDbEntity
  8
AM_0
100
AcDbCircle
 10
27.02886206270523
 20
-114.9812286533314
 30
0.0
 40
1.0004520291423
100
AcDbArc
 50
14.0442792032769
 51
59.0237816283376
  0
ARC
  5
34710
330
1F
100
AcDbEntity
  8
AM_0
100
AcDbCircle
 10
20.72374811285772
 20
-116.5572335287337
 30
0.0
 40
1.00045165968796
100
AcDbArc
 50
149.0440189811271
 51
194.023538925681
  0
LINE
  5
34711
330
1F
100
AcDbEntity
  8
AM_0
100
AcDbLine
 10
23.64461849900255
 20
-125.1517705507666
 30
0.0
 11
23.85106642548823
 21
-125.9777055407168
 31
0.0
  0
LINE
  5
34712
330
1F
100
AcDbEntity
  8
AM_0
100
AcDbLine
 10
28.49461896833265
 20
-123.9362437886388
 30
0.0
 11
28.70218738874161
 21
-124.7666615319548
 31
0.0
  0
ELLIPSE
  5
34713
330
1F
100
AcDbEntity
  8
AM_0
100
AcDbEllipse
 10
23.47269693979393
 20
-114.154517615429
 30
0.0
 11
2.508606917090992
 21
0.6270429303791574
 31
-9.250558400607084E-19
210
3.470685474480658E-19
220
8.675208441449869E-20
230
0.9999999999999999
 40
0.001934237287562
 41
1.578534463937784
 42
7.86171977111737
  0
ELLIPSE
  5
34714
330
1F
100
AcDbEntity
  8
AM_0
100
AcDbEllipse
 10
24.68517479234203
 20
-119.0052705389691
 30
0.0
 11
4.123147697928734
 21
1.030608102561304
 31
-2.625144424834628E-18
210
5.992447441930701E-19
220
1.497851966576166E-19
230
0.9999999999999999
 40
0.001934237287562
 41
4.491431650035728
 42
5.669872652869613
  0
ELLIPSE
  5
34715
330
1F
100
AcDbEntity
  8
AM_0
100
AcDbEllipse
 10
23.54372224798846
 20
-114.4386681429179
 30
0.0
 11
3.194608257570782
 21
0.7985135134537217
 31
-1.289731992967840E-18
210
3.799809178619029E-19
220
9.497874960042913E-20
230
1.0
 40
0.001934237287562
 41
3.139658411477842
 42
6.285119549291577
  0
ELLIPSE
  5
34716
330
1F
100
AcDbEntity
  8
AM_0
100
AcDbEllipse
 10
23.70479109473632
 20
-115.0830553188251
 30
0.0
 11
3.838996638895882
 21
0.959582661503797
 31
8.931245380971444E-19
210
-2.189647542032597E-19
220
-5.473169199604172E-20
230
1.0
 40
0.001934237287562
 41
3.139658411477842
 42
6.285119549291577
  0
ELLIPSE
  5
34717
330
1F
100
AcDbEntity
  8
AM_0
100
AcDbEllipse
 10
23.87626135705142
 20
-115.7690553760443
 30
0.0
 11
4.123147697928734
 21
1.030608102561304
 31
-2.625144424834628E-18
210
5.992447441930701E-19
220
1.497851966576166E-19
230
0.9999999999999999
 40
0.001934237287562
 41
3.14159265358973
 42
6.283185307179459
  0
LINE
  5
34718
330
1F
100
AcDbEntity
  8
AM_0
100
AcDbLine
 10
18.62271626763373
 20
-121.936997990207
 30
0.0
 11
19.67495040746945
 21
-126.1466648466612
 31
0.0
  0
LINE
  5
34719
330
1F
100
AcDbEntity
  8
AM_0
100
AcDbLine
 10
15.18017227814022
 20
-124.1434410187106
 30
0.0
 11
16.0435498768166
 21
-127.5975506357209
 31
0.0
  0
LINE
  5
3471A
330
1F
100
AcDbEntity
  8
AM_0
100
AcDbLine
 10
12.05452740652669
 20
-128.3460218262318
 30
0.0
 11
12.17928598241434
 21
-128.8451427177617
 31
0.0
  0
LINE
  5
3471B
330
1F
100
AcDbEntity
  8
AM_0
100
AcDbLine
 10
10.78440045107078
 20
-128.6614407473133
 30
0.0
 11
10.90915902695843
 21
-129.1605616388432
 31
0.0
  0
LINE
  5
3471C
330
1F
100
AcDbEntity
  8
AM_0
100
AcDbLine
 10
19.67495040746945
 20
-126.1466648466612
 30
0.0
 11
30.3299502612893
 21
-123.4762656261485
 31
0.0
  0
LINE
  5
3471D
330
1F
100
AcDbEntity
  8
AM_0
100
AcDbLine
 10
10.43041067590804
 20
-129.2772025176599
 30
0.0
 11
10.90915902695843
 21
-129.1605616388432
 31
0.0
  0
LINE
  5
3471E
330
1F
100
AcDbEntity
  8
AM_0
100
AcDbLine
 10
12.17928598241412
 20
-128.8451427177617
 30
0.0
 11
15.7386539821826
 21
-127.9560321204683
 31
0.0
  0
ARC
  5
3471F
330
1F
100
AcDbEntity
  8
AM_0
100
AcDbCircle
 10
18.12268255105664
 20
-129.3024950474224
 30
0.0
 40
2.688796779907804
100
AcDbArc
 50
107.342757758673
 51
140.6473309053315
  0
LINE
  5
34720
330
1F
100
AcDbEntity
  8
AM_0
100
AcDbLine
 10
15.73782319868388
 20
-127.9553269535375
 30
0.0
 11
16.04236005060562
 21
-127.5965407140982
 31
0.0
  0
LINE
  5
34721
330
1F
100
AcDbEntity
  8
AM_0
100
AcDbLine
 10
32.3670097230434
 20
-118.1203782409692
 30
0.0
 11
33.71700717894538
 21
-123.521305022622
 31
0.0
  0
LINE
  5
34722
330
1F
100
AcDbEntity
  8
AM_0
100
AcDbLine
 10
10.30565210002038
 20
-128.77808162613
 30
0.0
 11
10.78440045107078
 21
-128.6614407473133
 31
0.0
  0
LINE
  5
34723
330
1F
100
AcDbEntity
  8
AM_0
100
AcDbLine
 10
10.36496288925815
 20
-127.833592631252
 30
0.0
 11
10.84371124030855
 21
-127.7169517524352
 31
0.0
  0
LINE
  5
34724
330
1F
100
AcDbEntity
  8
AM_0
100
AcDbLine
 10
10.30565210002038
 20
-128.77808162613
 30
0.0
 11
10.43041067590804
 21
-129.2772025176599
 31
0.0
  0
ELLIPSE
  5
34725
330
1F
100
AcDbEntity
  8
AM_0
100
AcDbEllipse
 10
24.44784380724883
 20
-132.9925970248782
 30
0.0
 11
-14.47186815164617
 21
-3.607264882319536
 31
-2.635707037484806E-18
210
-1.714725239548390E-19
220
-4.274132457975912E-20
230
1.0
 40
0.9386714648418232
 41
5.235165568261651
 42
5.638850761483944
  0
ELLIPSE
  5
34726
330
1F
100
AcDbEntity
  8
AM_0
100
AcDbEllipse
 10
24.33409995064363
 20
-133.0240094119636
 30
0.0
 11
-13.08894226629463
 21
-3.256636928874571
 31
-8.758271502556711E-17
210
-6.301268152070717E-18
220
-1.567807554290944E-18
230
1.0
 40
0.9267480214061298
 41
5.235552381352719
 42
5.639237574575099
  0
ARC
  5
34727
330
1F
100
AcDbEntity
  8
AM_0
100
AcDbCircle
 10
25.41873363971604
 20
-135.0890757488179
 30
0.0
 40
16.41513873499959
100
AcDbArc
 50
118.8852942393209
 51
132.6915305739303
  0
ARC
  5
34728
330
1F
100
AcDbEntity
  8
AM_0
100
AcDbCircle
 10
27.47582227615294
 20
-139.5386112451648
 30
0.0
 40
19.7026464002982
100
AcDbArc
 50
116.7010828439518
 51
128.6132885178273
  0
ELLIPSE
  5
34729
330
1F
100
AcDbEntity
  8
AM_0
100
AcDbEllipse
 10
21.48595074835413
 20
-133.7142241774162
 30
0.0
 11
-3.346449809897861
 21
13.59417553316878
 31
-2.333376500756251E-18
210
-3.983935719837417E-20
220
1.618381406114203E-19
230
1.0
 40
0.8368913252209159
 41
0.5264261547097806
 42
0.930111347932059
  0
ARC
  5
3472A
330
1F
100
AcDbEntity
  8
AM_0
100
AcDbCircle
 10
20.52291148664085
 20
-130.1924525494982
 30
0.0
 40
10.24923885838623
100
AcDbArc
 50
118.1414128256295
 51
138.2505607123799
  0
LINE
  5
3472B
330
1F
100
AcDbEntity
  8
AM_0
100
AcDbLine
 10
21.28601043355326
 20
-120.8975431655231
 30
0.0
 11
32.3670097230434
 21
-118.1203782409691
 31
0.0
  0
LINE
  5
3472C
330
1F
100
AcDbEntity
  8
AM_0
100
AcDbLine
 10
28.68494794640429
 20
-117.4810786335416
 30
0.0
 11
29.75275338874195
 21
-117.21346090853
 31
0.0
  0
LINE
  5
3472D
330
1F
100
AcDbEntity
  8
AM_0
100
AcDbLine
 10
29.75275338874195
 20
-117.21346090853
 30
0.0
 11
31.55316377157152
 21
-116.7748140728317
 31
0.0
  0
LINE
  5
3472E
330
1F
100
AcDbEntity
  8
AM_0
100
AcDbLine
 10
31.55316377157152
 20
-116.7748140728317
 30
0.0
 11
29.01985167703293
 21
-117.4097230109248
 31
0.0
  0
LINE
  5
3472F
330
1F
100
AcDbEntity
  8
AM_0
100
AcDbLine
 10
21.90841271996948
 20
-119.1920206466078
 30
0.0
 11
20.47216448208138
 21
-119.5519789973857
 31
0.0
  0
LINE
  5
34730
330
1F
100
AcDbEntity
  8
AM_0
100
AcDbLine
 10
18.67175409925204
 20
-119.990625833084
 30
0.0
 11
20.47216448208138
 21
-119.5519789973856
 31
0.0
  0
LINE
  5
34731
330
1F
100
AcDbEntity
  8
AM_0
100
AcDbLine
 10
18.67175409925181
 20
-119.990625833084
 30
0.0
 11
20.10800233713559
 21
-119.6306674823073
 31
0.0
  0
LINE
  5
34732
330
1F
100
AcDbEntity
  8
AM_0
100
AcDbLine
 10
28.05602316622532
 20
-118.1690885350408
 30
0.0
 11
26.89036495358624
 21
-118.4612305176894
 31
0.0
  0
LINE
  5
34733
330
1F
100
AcDbEntity
  8
AM_0
100
AcDbLine
 10
24.95136834785427
 20
-118.9471897007547
 30
0.0
 11
23.78571013519087
 21
-119.2393316834095
 31
0.0
  0
ARC
  5
34734
330
1F
100
AcDbEntity
  8
AM_0
100
AcDbCircle
 10
22.72957143646158
 20
-123.8776677752445
 30
0.0
 40
4.757056931735405
100
AcDbArc
 50
77.1725800446327
 51
99.94013204058899
  0
SPLINE
  5
34735
330
1F
100
AcDbEntity
  8
AM_0
100
AcDbSpline
210
0.0
220
0.0
230
1.0
 70
     8
 71
     3
 72
     8
 73
     4
 74
     0
 42
0.0000000001
 43
0.0000000001
 40
8.99452670302588
 40
8.99452670302588
 40
8.99452670302588
 40
8.99452670302588
 40
9.204589678217225
 40
9.204589678217225
 40
9.204589678217225
 40
9.204589678217225
 10
20.10800233713695
 20
-119.630667482307
 30
0.0
 10
20.13540826735431
 20
-119.6236894768803
 30
0.0
 10
20.16474737902951
 20
-119.6189936825628
 30
0.0
 10
20.19591210852087
 20
-119.6163178904471
 30
0.0
  0
ARC
  5
34736
330
1F
100
AcDbEntity
  8
AM_0
100
AcDbCircle
 10
30.31793673913307
 20
-120.0486788594535
 30
0.0
 40
2.940937401395911
100
AcDbArc
 50
116.192270148394
 51
140.2743154572344
  0
LINE
  5
34737
330
1F
100
AcDbEntity
  8
AM_0
100
AcDbLine
 10
29.24516503462775
 20
-124.6190298272583
 30
0.0
 11
28.60984412883119
 21
-124.3972244019999
 31
0.0
  0
LINE
  5
34738
330
1F
100
AcDbEntity
  8
AM_0
100
AcDbLine
 10
28.50961912226859
 20
-123.9962548151551
 30
0.0
 11
30.59282069393595
 21
-123.4887095431168
 31
0.0
  0
LINE
  5
34739
330
1F
100
AcDbEntity
  8
AM_0
100
AcDbLine
 10
30.59282069393618
 20
-123.4887095431169
 30
0.0
 11
31.94568385684585
 21
-123.9610257953098
 31
0.0
  0
LINE
  5
3473A
330
1F
100
AcDbEntity
  8
AM_0
100
AcDbLine
 10
30.94335567539957
 20
-124.1535891187232
 30
0.0
 11
31.0305719976007
 21
-124.1840383818575
 31
0.0
  0
ELLIPSE
  5
3473B
330
1F
100
AcDbEntity
  8
AM_0
100
AcDbEllipse
 10
30.7933214768305
 20
-124.1901430216981
 30
0.0
 11
-0.5570820078625574
 21
0.1743383267197669
 31
1.136809236654746E-17
210
1.858621597213636E-17
220
-5.816540019066461E-18
230
1.0
 40
0.1401754732005299
 41
4.483808850619589
 42
6.054605177414485
  0
LINE
  5
3473C
330
1F
100
AcDbEntity
  8
AM_0
100
AcDbLine
 10
30.95553625136273
 20
-124.202319876435
 30
0.0
 11
30.9433556753998
 21
-124.1535891187233
 31
0.0
  0
LINE
  5
3473D
330
1F
100
AcDbEntity
  8
AM_0
100
AcDbLine
 10
29.68613722658807
 20
-124.1415496054977
 30
0.0
 11
30.25626718115069
 21
-124.0026447741932
 31
0.0
  0
LINE
  5
3473E
330
1F
100
AcDbEntity
  8
AM_0
100
AcDbLine
 10
30.25626718115092
 20
-124.0026447741932
 30
0.0
 11
30.34436385544774
 21
-124.3550926143761
 31
0.0
  0
ELLIPSE
  5
3473F
330
1F
100
AcDbEntity
  8
AM_0
100
AcDbEllipse
 10
30.22319152226788
 20
-124.3290478530026
 30
0.0
 11
-0.5570820078625574
 21
0.1743383267197669
 31
1.136809236654746E-17
210
1.858621597213636E-17
220
-5.816540019066461E-18
230
1.0
 40
0.1401754732005299
 41
6.05460517741446
 42
6.368578795264662
  0
LINE
  5
34740
330
1F
100
AcDbEntity
  8
AM_0
100
AcDbLine
 10
29.77517089197391
 20
-124.4977460603486
 30
0.0
 11
29.6861372265883
 21
-124.1415496054977
 31
0.0
  0
ARC
  5
34741
330
1F
100
AcDbEntity
  8
AM_0
100
AcDbCircle
 10
18.08375987125419
 20
-127.3669282078729
 30
0.0
 40
0.7999992092102252
100
AcDbArc
 50
108.8505802079067
 51
194.0302771698452
  0
LINE
  5
34742
330
1F
100
AcDbEntity
  8
AM_0
100
AcDbLine
 10
12.25565026781788
 20
-128.8260673382529
 30
0.0
 11
12.28945887335573
 21
-128.9613252250746
 31
0.0
  0
LINE
  5
34743
330
1F
100
AcDbEntity
  8
AM_0
100
AcDbLine
 10
15.36025635345237
 20
-128.0505537719855
 30
0.0
 11
15.37595890804283
 21
-128.1133748886163
 31
0.0
  0
LINE
  5
34744
330
1F
100
AcDbEntity
  8
AM_0
100
AcDbLine
 10
33.37213572660522
 20
-117.8662959136956
 30
0.0
 11
34.7228089780163
 21
-123.2699263464169
 31
0.0
  0
LINE
  5
34745
330
1F
100
AcDbEntity
  8
AM_0
100
AcDbLine
 10
10.23429431281267
 20
-128.7949943541613
 30
0.0
 11
10.35905288870032
 21
-129.2941152456912
 31
0.0
  0
LINE
  5
34746
330
1F
100
AcDbEntity
  8
AM_0
100
AcDbLine
 10
29.76142741559562
 20
-117.2113173157366
 30
0.0
 11
31.56183779842519
 21
-116.7726704800382
 31
0.0
  0
ARC
  5
34747
330
1F
100
AcDbEntity
  8
AM_0
100
AcDbCircle
 10
22.49296830485969
 20
-131.7972245293299
 30
0.0
 40
12.81562962651804
100
AcDbArc
 50
139.4933816080858
 51
162.6476481863551
  0
ARC
  5
34748
330
1F
100
AcDbEntity
  8
AM_0
100
AcDbCircle
 10
20.60744184789769
 20
-130.3960554176899
 30
0.0
 40
10.47310847243621
100
AcDbArc
 50
118.2185954796599
 51
138.6215023357438
  0
ARC
  5
34749
330
1F
100
AcDbEntity
  8
AM_0
100
AcDbCircle
 10
21.79409819950865
 20
-132.4456237000007
 30
0.0
 40
12.84040834991449
100
AcDbArc
 50
104.0776527738322
 51
118.560000969459
  0
LINE
  5
3474A
330
1F
100
AcDbEntity
  8
AM_0
100
AcDbLine
 10
28.68494719422603
 20
-117.481075624307
 30
0.0
 11
29.75183878779336
 21
-117.2136869317757
 31
0.0
  0
LINE
  5
3474B
330
1F
100
AcDbEntity
  8
AM_0
100
AcDbLine
 10
18.670839498303
 20
-119.9908518563298
 30
0.0
 11
20.10960724150192
 21
-119.6302620569259
 31
0.0
  0
LINE
  5
3474C
330
1F
100
AcDbEntity
  8
AM_0
100
AcDbLine
 10
29.66605510763503
 20
-124.1620049925803
 30
0.0
 11
29.75146111572809
 21
-124.5036883005057
 31
0.0
  0
ELLIPSE
  5
3474D
330
1F
100
AcDbEntity
  8
AM_0
100
AcDbEllipse
 10
30.45119804654411
 20
-123.9613409185025
 30
0.0
 11
-0.1183564429703028
 21
0.4857898232851502
 31
2.695724302413093E-18
210
1.276225358648860E-18
220
-5.238221729978964E-18
230
1.0
 40
0.9511120889506646
 41
5.730942778226456
 42
6.289448138864949
  0
ELLIPSE
  5
3474E
330
1F
100
AcDbEntity
  8
AM_0
100
AcDbEllipse
 10
16.67426643608684
 20
-126.8777429061585
 30
0.0
 11
9.701523995126424
 21
2.424960241320756
 31
2.802665794042692E-18
210
-2.719012945122518E-19
220
-6.796353120263186E-20
230
1.0
 40
0.0019342372875633
 41
4.77863731625324
 42
5.026362598234422
  0
ELLIPSE
  5
3474F
330
1F
100
AcDbEntity
  8
AM_0
100
AcDbEllipse
 10
12.29302983901954
 20
-128.8137303306763
 30
0.0
 11
1.455228599268967
 21
0.3637440361981011
 31
-6.204030547015788E-19
210
4.012570081224733E-19
220
1.002968494163482E-19
230
1.0
 40
0.0019342372875606
 41
3.45556627143955
 42
4.633663516535666
  0
ELLIPSE
  5
34750
330
1F
100
AcDbEntity
  8
AM_0
100
AcDbEllipse
 10
15.8523978387878
 20
-127.924619733383
 30
0.0
 11
1.455228599268967
 21
0.3637440361981013
 31
-6.204030547016158E-19
210
4.012570081224970E-19
220
1.002968494163542E-19
230
1.0
 40
0.0019342372875606
 41
4.633663516535667
 42
6.283185307179661
  0
ELLIPSE
  5
34751
330
1F
100
AcDbEntity
  8
AM_0
100
AcDbEllipse
 10
11.81428148796937
 20
-128.9303712094931
 30
0.0
 11
1.455228599268967
 21
0.3637440361981011
 31
-6.204030547015788E-19
210
4.012570081224733E-19
220
1.002968494163482E-19
230
1.0
 40
0.0019342372875606
 41
3.14159265358973
 42
3.455566271439435
  0
ELLIPSE
  5
34752
330
1F
100
AcDbEntity
  8
AM_0
100
AcDbEllipse
 10
31.91690712733595
 20
-118.2300399498937
 30
0.0
 11
1.455228599268964
 21
0.3637440361981071
 31
-6.204030547030575E-19
210
4.012570081234295E-19
220
1.002968494165890E-19
230
1.0
 40
0.0019342372875619
 41
5.026362598234488
 42
6.283185307179587
  0
ELLIPSE
  5
34753
330
1F
100
AcDbEntity
  8
AM_0
100
AcDbEllipse
 10
12.16827126313189
 20
-128.3146094391464
 30
0.0
 11
1.455228599268965
 21
0.3637440361981072
 31
-6.204030547030763E-19
210
4.012570081234415E-19
220
1.002968494165920E-19
230
1.0
 40
0.0019342372875619
 41
3.455566271439549
 42
4.633663516535668
  0
ELLIPSE
  5
34754
330
1F
100
AcDbEntity
  8
AM_0
100
AcDbEllipse
 10
12.16827126313189
 20
-128.3146094391464
 30
0.0
 11
-0.3550693289109099
 21
1.457369469855452
 31
-5.432380997856456E-18
210
-8.572763890210072E-19
220
3.518660539955057E-18
230
1.0
 40
0.9511120889506642
 41
0.9321094871458525
 42
1.577059158480283
  0
ELLIPSE
  5
34755
330
1F
100
AcDbEntity
  8
AM_0
100
AcDbEllipse
 10
12.16827126313189
 20
-128.3146094391464
 30
0.0
 11
-1.35905519544788
 21
0.6347983740733696
 31
1.006793683818752E-17
210
6.081280829946412E-18
220
-2.840493304513173E-18
230
1.0
 40
0.0511563817532497
 41
0.250915689056455
 42
1.510918932549469
  0
ELLIPSE
  5
34756
330
1F
100
AcDbEntity
  8
AM_0
100
AcDbEllipse
 10
15.29391613474269
 20
-124.112028631626
 30
0.0
 11
-1.005588881450915
 21
1.113009883829566
 31
4.397025027325914E-18
210
1.965155323973480E-18
220
-2.175081028826533E-18
230
1.0
 40
0.0703487172287349
 41
0.1567395544401385
 42
1.535492433559115
  0
ELLIPSE
  5
34757
330
1F
100
AcDbEntity
  8
AM_0
100
AcDbEllipse
 10
23.86710246921626
 20
-133.134087183298
 30
0.0
 11
-3.313980403168477
 21
13.6021150519842
 31
2.140206484718398E-17
210
3.618674667903499E-19
220
-1.485272185721548E-18
230
0.9999999999999999
 40
0.9511120889506645
 41
0.0062628316853903
 42
0.2471147081833318
  0
ELLIPSE
  5
34758
330
1F
100
AcDbEntity
  8
AM_0
100
AcDbEllipse
 10
24.31720506492349
 20
-133.0244254743734
 30
0.0
 11
-2.958911074257575
 21
12.14474558212875
 31
5.387355365523098E-17
210
1.020205148928465E-18
220
-4.187395857586835E-18
230
1.0
 40
0.9511120889506648
 41
0.0062628316853759
 42
0.2471147081833272
  0
ELLIPSE
  5
34759
330
1F
100
AcDbEntity
  8
AM_0
100
AcDbEllipse
 10
18.17261367192629
 20
-122.0466596991316
 30
0.0
 11
-0.7168322135208265
 21
1.317631047622522
 31
6.016968105328621E-18
210
1.916958473611973E-18
220
-3.523619550282437E-18
230
1.0
 40
0.2994638540428475
 41
4.633126291913748
 42
6.203922618708673
  0
ELLIPSE
  5
3475A
330
1F
100
AcDbEntity
  8
AM_0
100
AcDbEllipse
 10
31.91690712733595
 20
-118.2300399498937
 30
0.0
 11
-0.355069328910909
 21
1.457369469855451
 31
-5.432380997856529E-18
210
-8.572763890210160E-19
220
3.518660539955107E-18
230
0.9999999999999999
 40
0.9511120889506644
 41
-0.0000000000001188
 42
0.0062628316852147
  0
ELLIPSE
  5
3475B
330
1F
100
AcDbEntity
  8
AM_0
100
AcDbEllipse
 10
30.11649674450638
 20
-118.6686867855921
 30
0.0
 11
-0.3550693289109099
 21
1.457369469855452
 31
-5.432380997856456E-18
210
-8.572763890210072E-19
220
3.518660539955057E-18
230
1.0
 40
0.9511120889506642
 41
-0.0000000000001195
 42
0.0062628316853852
  0
ELLIPSE
  5
3475C
330
1F
100
AcDbEntity
  8
AM_0
100
AcDbEllipse
 10
11.68952291208149
 20
-128.4312503179631
 30
0.0
 11
-0.3550693289109098
 21
1.457369469855452
 31
-5.432380997856454E-18
210
-8.572763890210069E-19
220
3.518660539955056E-18
230
1.0
 40
0.9511120889506646
 41
0.9321094871458525
 42
1.577059158480283
  0
ELLIPSE
  5
3475D
330
1F
100
AcDbEntity
  8
AM_0
100
AcDbEllipse
 10
11.68952291208149
 20
-128.4312503179631
 30
0.0
 11
1.455228599268965
 21
0.3637440361981072
 31
-6.204030547030763E-19
210
4.012570081234415E-19
220
1.002968494165920E-19
230
1.0
 40
0.0019342372875619
 41
3.14159265358973
 42
3.455566271439435
  0
ELLIPSE
  5
3475E
330
1F
100
AcDbEntity
  8
AM_0
100
AcDbEllipse
 10
11.68952291208149
 20
-128.4312503179633
 30
0.0
 11
-1.428928091534766
 21
0.4562504895583004
 31
2.500099109064624E-17
210
1.587760821584210E-17
220
-5.069650855356994E-18
230
1.0
 40
0.4084769717780515
 41
6.00806412317554
 42
6.283185307179591
  0
ELLIPSE
  5
3475F
330
1F
100
AcDbEntity
  8
AM_0
100
AcDbEllipse
 10
13.88180864528255
 20
-124.4560704611029
 30
0.0
 11
-1.132960073989185
 21
0.9830572062430648
 31
3.724771370769238E-17
210
1.875563221253116E-17
220
-1.627405927841140E-17
230
1.0
 40
0.5724130548285177
 41
6.092124530047801
 42
6.283185307179562
  0
ELLIPSE
  5
34760
330
1F
100
AcDbEntity
  8
AM_0
100
AcDbEllipse
 10
22.0666920863867
 20
-133.5727340189964
 30
0.0
 11
-3.313980403168479
 21
13.6021150519842
 31
2.140206484718398E-17
210
3.618674667903504E-19
220
-1.485272185721548E-18
230
0.9999999999999999
 40
0.9511120889506645
 41
0.0062628316853903
 42
0.2471147081833316
  0
ELLIPSE
  5
34761
330
1F
100
AcDbEntity
  8
AM_0
100
AcDbEllipse
 10
16.37220328909694
 20
-122.48530653483
 30
0.0
 11
-0.7168322135208278
 21
1.317631047622524
 31
6.016968105327893E-18
210
1.916958473611738E-18
220
-3.523619550282003E-18
230
1.0
 40
0.2994638540428475
 41
6.203922618708673
 42
6.283185307179617
  0
ELLIPSE
  5
34762
330
1F
100
AcDbEntity
  8
AM_0
100
AcDbEllipse
 10
30.11649674450638
 20
-118.6686867855921
 30
0.0
 11
-0.3646579567135579
 21
1.454999853816314
 31
3.386026819099238E-18
210
5.487740538800142E-19
220
-2.189630456358892E-18
230
1.0
 40
0.3088398500485626
 41
6.281151651374399
 42
6.283185307179569
  0
ELLIPSE
  5
34763
330
1F
100
AcDbEntity
  8
AM_0
100
AcDbEllipse
 10
31.91690712733595
 20
-118.2300399498937
 30
0.0
 11
-0.3646579567135579
 21
1.454999853816314
 31
3.386026819099238E-18
210
5.487740538800142E-19
220
-2.189630456358892E-18
230
1.0
 40
0.3088398500485626
 41
4.71035532457952
 42
6.281151651374399
  0
ELLIPSE
  5
34764
330
1F
100
AcDbEntity
  8
AM_0
100
AcDbEllipse
 10
20.83590783784581
 20
-121.0072048744477
 30
0.0
 11
-0.3646579567135579
 21
1.454999853816314
 31
3.386026819099239E-18
210
5.487740538800152E-19
220
-2.189630456358892E-18
230
1.0
 40
0.3088398500485625
 41
4.71035532457952
 42
6.281151651374399
  0
ELLIPSE
  5
34765
330
1F
100
AcDbEntity
  8
AM_0
100
AcDbEllipse
 10
24.10263673640094
 20
-118.6358056826708
 30
0.0
 11
4.365685797806895
 21
1.091232108594322
 31
3.342805454945825E-18
210
-7.206734962710310E-19
220
-1.801371182825248E-19
230
0.9999999999999998
 40
0.0019342372875619
 41
2.725838615214018
 42
4.18529392766653
  0
ELLIPSE
  5
34766
330
1F
100
AcDbEntity
  8
AM_0
100
AcDbEllipse
 10
25.02521727777486
 20
-118.4045848105595
 30
0.0
 11
4.365685797806895
 21
1.091232108594322
 31
3.342805454945825E-18
210
-7.206734962710310E-19
220
-1.801371182825248E-19
230
0.9999999999999998
 40
0.0019342372875619
 41
5.867431268801193
 42
6.858970321552977
  0
ARC
  5
34767
330
1F
100
AcDbEntity
  8
AM_0
100
AcDbCircle
 10
31.91690712733589
 20
-118.2300399498937
 30
0.0
 40
1.5
100
AcDbArc
 50
14.03390468459772
 51
103.6926130716428
  0
ARC
  5
34768
330
1F
100
AcDbEntity
  8
AM_0
100
AcDbCircle
 10
30.11649674450632
 20
-118.6686867855921
 30
0.0
 40
1.5
100
AcDbArc
 50
103.6926130716428
 51
104.0698907162571
  0
ARC
  5
34769
330
1F
100
AcDbEntity
  8
AM_0
100
AcDbCircle
 10
11.68952291208143
 20
-128.4312503179631
 30
0.0
 40
1.5
100
AcDbArc
 50
162.2919447598491
 51
194.0339046845977
  0
LINE
  5
3476A
330
1F
100
AcDbEntity
  8
AM_0
100
AcDbLine
 10
41.29999999992361
 20
-111.8161128262378
 30
0.0
 11
41.29999999992361
 21
-114.8423644163361
 31
0.0
  0
ARC
  5
3476B
330
1F
100
AcDbEntity
  8
AM_0
100
AcDbCircle
 10
44.64990703025092
 20
-113.816112826238
 30
0.0
 40
3.901522409500942
100
AcDbArc
 50
123.1180604345522
 51
149.1614681861879
  0
LINE
  5
3476C
330
1F
100
AcDbEntity
  8
AM_0
100
AcDbLine
 10
-124.0749413908387
 20
5.045891057467713
 30
0.0
 11
-98.64272752032866
 21
4.995185592615059
 31
0.0
  0
LINE
  5
3476D
330
1F
100
AcDbEntity
  8
AM_0
100
AcDbLine
 10
-98.64272752032866
 20
4.995185592615059
 30
0.0
 11
-101.7330406035005
 21
0.8674793847138744
 31
0.0
  0
LINE
  5
3476E
330
1F
100
AcDbEntity
  8
AM_0
100
AcDbLine
 10
-98.40990023027416
 20
5.512792731279461
 30
0.0
 11
-98.37696287962228
 21
5.084287020077028
 31
0.0
  0
LINE
  5
3476F
330
1F
100
AcDbEntity
  8
AM_0
100
AcDbLine
 10
-98.40990023027405
 20
5.512792731279461
 30
0.0
 11
-89.09645461707123
 21
5.494224053318504
 31
0.0
  0
LINE
  5
34770
330
1F
100
AcDbEntity
  8
AM_0
100
AcDbLine
 10
-89.04549739060849
 20
4.831284802461369
 30
0.0
 11
-89.12310943739112
 21
4.831439541444411
 31
0.0
  0
LINE
  5
34771
330
1F
100
AcDbEntity
  8
AM_0
100
AcDbLine
 10
-98.3173187866862
 20
-4.824048339513524
 30
0.0
 11
-98.33103746556822
 21
-5.004404559142699
 31
0.0
  0
LINE
  5
34772
330
1F
100
AcDbEntity
  8
AM_0
100
AcDbLine
 10
-89.05576747472833
 20
-4.504357173589256
 30
0.0
 11
-88.97815542794615
 21
-4.504511912572298
 31
0.0
  0
LINE
  5
34773
330
1F
100
AcDbEntity
  8
AM_0
100
AcDbLine
 10
-89.64829924584387
 20
-5.021715764524402
 30
0.0
 11
-98.33103746556822
 21
-5.004404559142699
 31
0.0
  0
LINE
  5
34774
330
1F
100
AcDbEntity
  8
AM_0
100
AcDbLine
 10
-86.07644061762971
 20
11.21690967709506
 30
0.0
 11
-85.38623243939901
 21
10.48666927865489
 31
0.0
  0
ELLIPSE
  5
34775
330
1F
100
AcDbEntity
  8
AM_0
100
AcDbEllipse
 10
-125.1834274599326
 20
7.901000091951971
 30
0.0
 11
38.84754115287885
 21
-2.915162679355777
 31
-5.710957990021039E-16
210
1.461863102710893E-17
220
-1.096998325474258E-18
230
1.0
 40
0.0250522245476644
 41
0.3799127019755161
 42
1.522979000858381
  0
ELLIPSE
  5
34777
330
1F
100
AcDbEntity
  8
AM_0
100
AcDbEllipse
 10
-128.2528673295416
 20
-7.627158334213561
 30
0.0
 11
39.04360873349914
 21
2.776862604021256
 31
-5.470750769728590E-16
210
1.394137798469392E-17
220
9.915397789806777E-19
230
1.0
 40
0.0236263956337268
 41
4.83530591149439
 42
6.131388875327448
  0
LINE
  5
34778
330
1F
100
AcDbEntity
  8
AM_0
100
AcDbLine
 10
-89.64829924584387
 20
-5.021715764524402
 30
0.0
 11
-89.014046547009
 21
-4.976363947894129
 31
0.0
  0
LINE
  5
3477C
330
1F
100
AcDbEntity
  8
AM_0
100
AcDbLine
 10
-124.146294372889
 20
-4.77205071474333
 30
0.0
 11
-123.4210322613116
 21
-8.206485254323184
 31
0.0
  0
ARC
  5
3477D
330
1F
100
AcDbEntity
  8
AM_0
100
AcDbCircle
 10
-92.72846657410426
 20
0.0000000000000568
 30
0.0
 40
31.75
100
AcDbArc
 50
194.9713972209679
 51
215.4888995740843
  0
ARC
  5
3477E
330
1F
100
AcDbEntity
  8
AM_0
100
AcDbCircle
 10
-92.72414105021304
 20
0.003606954758709
 30
0.0
 40
31.75561596589456
100
AcDbArc
 50
215.4896676913832
 51
224.1582296614273
  0
ARC
  5
3477F
330
1F
100
AcDbEntity
  8
AM_0
100
AcDbCircle
 10
-92.72846657410426
 20
0.0000000000000568
 30
0.0
 40
31.75
100
AcDbArc
 50
224.1589977787268
 51
315.8410022212732
  0
ARC
  5
34780
330
1F
100
AcDbEntity
  8
AM_0
100
AcDbCircle
 10
-92.7327920980147
 20
0.0036069547747388
 30
0.0
 40
31.7556159659195
100
AcDbArc
 50
315.8417703385761
 51
324.5103323086155
  0
ARC
  5
34781
330
1F
100
AcDbEntity
  8
AM_0
100
AcDbCircle
 10
-92.72846657410426
 20
0.0000000000000568
 30
0.0
 40
31.75
100
AcDbArc
 50
324.5111004259157
 51
332.9686662176987
  0
ARC
  5
34782
330
1F
100
AcDbEntity
  8
AM_0
100
AcDbCircle
 10
-92.72846657410426
 20
0.0000000000000568
 30
0.0
 40
31.75
100
AcDbArc
 50
29.34713839956998
 51
38.99670170125901
  0
ARC
  5
34783
330
1F
100
AcDbEntity
  8
AM_0
100
AcDbCircle
 10
-92.73239176653195
 20
-0.0037323675153971
 30
0.0
 40
31.75539928056343
100
AcDbArc
 50
38.99747880940645
 51
48.11760236493461
  0
ARC
  5
34784
330
1F
100
AcDbEntity
  8
AM_0
100
AcDbCircle
 10
-92.72846657410426
 20
0.0000000000000568
 30
0.0
 40
31.75
100
AcDbArc
 50
48.1183794730838
 51
131.8816205269162
  0
ARC
  5
34785
330
1F
100
AcDbEntity
  8
AM_0
100
AcDbCircle
 10
-92.72454138168783
 20
-0.0037323675053926
 30
0.0
 40
31.75539928054838
100
AcDbArc
 50
131.8823976350608
 51
141.0025211905935
  0
ARC
  5
34786
330
1F
100
AcDbEntity
  8
AM_0
100
AcDbCircle
 10
-92.72846657410426
 20
0.0000000000000568
 30
0.0
 40
31.75
100
AcDbArc
 50
141.0032982987408
 51
164.0332693024775
  0
LINE
  5
34787
330
1F
100
AcDbEntity
  8
AM_0
100
AcDbLine
 10
-124.1047835558572
 20
5.05258768964012
 30
0.0
 11
-123.2775173550745
 21
8.739129497873336
 31
0.0
  0
ARC
  5
34788
330
1F
100
AcDbEntity
  8
AM_0
100
AcDbCircle
 10
-92.72846657410426
 20
0.0000000000000568
 30
0.0
 40
31.75
100
AcDbArc
 50
170.8554543310842
 51
178.3525384624907
  0
LINE
  5
34789
330
1F
100
AcDbEntity
  8
AM_0
100
AcDbLine
 10
-124.1186823889645
 20
-4.766219791039532
 30
0.0
 11
-98.57885227779138
 21
-4.817139815723067
 31
0.0
  0
ARC
  5
3478A
330
1F
100
AcDbEntity
  8
AM_0
100
AcDbCircle
 10
-92.72846657410426
 20
0.0000000000000568
 30
0.0
 40
31.75
100
AcDbArc
 50
181.1064128218007
 51
188.6337161395982
  0
LINE
  5
3478B
330
1F
100
AcDbEntity
  8
AM_0
100
AcDbLine
 10
-101.7330406035005
 20
0.8674793847138744
 30
0.0
 11
-124.4653424866613
 21
0.9128019012680966
 31
0.0
  0
LINE
  5
3478C
330
1F
100
AcDbEntity
  8
AM_0
100
AcDbLine
 10
-124.4725470148317
 20
-0.6130717516161326
 30
0.0
 11
-101.8445834405864
 21
-0.65818624371434
 31
0.0
  0
LINE
  5
3478D
330
1F
100
AcDbEntity
  8
AM_0
100
AcDbLine
 10
-124.4764544864884
 20
-0.6130531827412256
 30
0.0
 11
-124.4692033135179
 21
0.9128202484801022
 31
0.0
  0
LINE
  5
3478E
330
1F
100
AcDbEntity
  8
AM_0
100
AcDbLine
 10
-84.19384445512378
 20
12.07933227183756
 30
0.0
 11
-85.05070143544288
 21
11.79209215038569
 31
0.0
  0
LINE
  5
3478F
330
1F
100
AcDbEntity
  8
AM_0
100
AcDbLine
 10
-86.97992257314263
 20
11.93763967594217
 30
0.0
 11
-85.05070143544288
 21
11.79209215038557
 31
0.0
  0
LINE
  5
34790
330
1F
100
AcDbEntity
  8
AM_0
100
AcDbLine
 10
-85.05070143544299
 20
11.79209215038569
 30
0.0
 11
-84.97195617203477
 21
10.76763831810209
 31
0.0
  0
LINE
  5
34791
330
1F
100
AcDbEntity
  8
AM_0
100
AcDbLine
 10
-86.9294699630442
 20
11.28126534271885
 30
0.0
 11
-86.97992257314263
 21
11.93763967594228
 31
0.0
  0
LINE
  5
34792
330
1F
100
AcDbEntity
  8
AM_0
100
AcDbLine
 10
-87.44236431736522
 20
11.31995997584536
 30
0.0
 11
-86.97992257314263
 21
11.93763967594228
 31
0.0
  0
LINE
  5
34793
330
1F
100
AcDbEntity
  8
AM_0
100
AcDbLine
 10
-86.07644061762971
 20
11.21690967709506
 30
0.0
 11
-87.44236431736522
 21
11.31995997584548
 31
0.0
  0
LINE
  5
34794
330
1F
100
AcDbEntity
  8
AM_0
100
AcDbLine
 10
-89.014046547009
 20
-4.976363947894129
 30
0.0
 11
-83.55568806337044
 21
-11.87897335746982
 31
0.0
  0
LINE
  5
34795
330
1F
100
AcDbEntity
  8
AM_0
100
AcDbLine
 10
-88.97815542794672
 20
-4.504511912578892
 30
0.0
 11
-89.014046547009
 21
-4.976363947894129
 31
0.0
  0
LINE
  5
34796
330
1F
100
AcDbEntity
  8
AM_0
100
AcDbLine
 10
-87.84008918288748
 20
-2.984406027413797
 30
0.0
 11
-88.97815542794672
 21
-4.504511912579005
 31
0.0
  0
LINE
  5
34797
330
1F
100
AcDbEntity
  8
AM_0
100
AcDbLine
 10
-89.04549739060815
 20
4.831284802457844
 30
0.0
 11
-88.65237771185821
 21
4.334147869849971
 31
0.0
  0
LINE
  5
34798
330
1F
100
AcDbEntity
  8
AM_0
100
AcDbLine
 10
-89.09645461707123
 20
5.494224053318618
 30
0.0
 11
-89.04549739060815
 21
4.831284802457844
 31
0.0
  0
LINE
  5
34799
330
1F
100
AcDbEntity
  8
AM_0
100
AcDbLine
 10
-85.38623243939901
 20
10.48666927865489
 30
0.0
 11
-89.07874915498144
 21
5.554604546225079
 31
0.0
  0
LINE
  5
3479A
330
1F
100
AcDbEntity
  8
AM_0
100
AcDbLine
 10
-85.2748323683611
 20
9.037385540791121
 30
0.0
 11
-85.38623243939901
 21
10.48666927865489
 31
0.0
  0
LINE
  5
3479B
330
1F
100
AcDbEntity
  8
AM_0
100
AcDbLine
 10
-84.19384445512378
 20
12.07933227183756
 30
0.0
 11
-84.09288558781839
 21
10.7658856715241
 31
0.0
  0
LINE
  5
3479C
330
1F
100
AcDbEntity
  8
AM_0
100
AcDbLine
 10
-83.56051754773353
 20
12.92526190320703
 30
0.0
 11
-84.19384445512378
 21
12.07933227183756
 31
0.0
  0
ELLIPSE
  5
3479D
330
1F
100
AcDbEntity
  8
AM_0
100
AcDbEllipse
 10
-78.70501166805423
 20
-11.49559552915707
 30
0.0
 11
5.000000104650156
 21
-0.0001111296408128381
 31
-5.406007479111530E-20
210
1.081201472658621E-20
220
-2.403070575760942E-25
230
1.0
 40
0.3161837056634105
 41
3.386608199512644
 42
4.43380575070897
  0
ELLIPSE
  5
347A0
330
1F
100
AcDbEntity
  8
AM_0
100
AcDbEllipse
 10
-78.70968770523894
 20
12.52053490953247
 30
0.0
 11
-5.000000104622196
 21
0.0001188646848509364
 31
5.405977171286326E-20
210
1.081195411022817E-20
220
-2.570318982087637E-25
230
0.9999999999999999
 40
0.3337910311547177
 41
4.991113725425295
 42
6.038311276621623
  0
LINE
  5
347A2
330
1F
100
AcDbEntity
  8
AM_0
100
AcDbLine
 10
-65.05305988307691
 20
15.56066722496954
 30
0.0
 11
-80.0852987566052
 21
14.12511295038635
 31
0.0
  0
ARC
  5
347A3
330
1F
100
AcDbEntity
  8
AM_0
100
AcDbCircle
 10
-92.72846657410426
 20
0.0000000000000568
 30
0.0
 40
31.75
100
AcDbArc
 50
332.9686662176987
 51
29.34713839956998
  0
LINE
  5
347A4
330
1F
100
AcDbEntity
  8
AM_0
100
AcDbLine
 10
-80.08001436372206
 20
-13.01553280607493
 30
0.0
 11
-64.44689646426048
 21
-14.42966708285371
 31
0.0
  0
ARC
  5
347A6
330
1F
100
AcDbEntity
  8
AM_0
100
AcDbCircle
 10
-74.72846657410429
 20
0.0000000000000568
 30
0.0
 40
5.500000000000028
100
AcDbArc
 50
193.2385956826344
 51
342.4903029213277
  0
ARC
  5
347A7
330
1F
100
AcDbEntity
  8
AM_0
100
AcDbCircle
 10
-74.70753708690501
 20
0.0036760770116757
 30
0.0
 40
5.521215262797274
100
AcDbArc
 50
186.6977675858574
 51
193.2259912390994
  0
ARC
  5
347A8
330
1F
100
AcDbEntity
  8
AM_0
100
AcDbCircle
 10
-74.72846657410429
 20
0.0000000000000568
 30
0.0
 40
5.500000000000028
100
AcDbArc
 50
14.02640723534709
 51
85.00745823408353
  0
LINE
  5
347A9
330
1F
100
AcDbEntity
  8
AM_0
100
AcDbLine
 10
-69.39245389723999
 20
1.333029899268695
 30
0.0
 11
-69.48330333292734
 21
-1.65476964360812
 31
0.0
  0
ELLIPSE
  5
347AA
330
1F
100
AcDbEntity
  8
AM_0
100
AcDbEllipse
 10
-98.86205093817739
 20
7.848521859467297
 30
0.0
 11
0.005981236749416049
 21
2.999994037461899
 31
7.324660527050732E-19
210
-4.867836524599212E-22
220
-2.441548656398303E-19
230
1.0
 40
0.2424955705096264
 41
3.456049746835277
 42
3.820476064236538
  0
ELLIPSE
  5
347AB
330
1F
100
AcDbEntity
  8
AM_0
100
AcDbEllipse
 10
-98.66215154472673
 20
-7.686154810368976
 30
0.0
 11
-0.005981236749416205
 21
-2.999994037461918
 31
-7.324660527050924E-19
210
-4.867836524599405E-22
220
-2.441548656398352E-19
230
1.0
 40
0.2424955705096246
 41
2.677292170319671
 42
2.837980396628225
  0
ELLIPSE
  5
347AC
330
1F
100
AcDbEntity
  8
AM_0
100
AcDbEllipse
 10
-89.5486053249748
 20
7.829953181506227
 30
0.0
 11
0.005981236749543713
 21
2.999994037461899
 31
7.324660527207070E-19
210
-4.867836524807028E-22
220
-2.441548656450416E-19
230
1.0
 40
0.2424955705096413
 41
3.820476064236628
 42
3.851939445402806
  0
ELLIPSE
  5
347AD
330
1F
100
AcDbEntity
  8
AM_0
100
AcDbEllipse
 10
-87.26192621839061
 20
5.116315388550362
 30
0.0
 11
0.002591869258135611
 21
1.29999741623349
 31
3.174019561789732E-19
210
-4.867836524807017E-22
220
-2.441548656450417E-19
230
1.0
 40
0.2424955705096413
 41
6.219213213209434
 42
6.976071587641068
  0
ARC
  5
347AE
330
1F
100
AcDbEntity
  8
AM_0
100
AcDbCircle
 10
-74.72846657410429
 20
0.0000000000000568
 30
0.0
 40
5.000000000000028
100
AcDbArc
 50
179.8835749923464
 51
84.05925209005603
  0
LINE
  5
347AF
330
1F
100
AcDbEntity
  8
AM_0
100
AcDbLine
 10
-101.7982507162441
 20
-0.7459066746509961
 30
0.0
 11
-98.57379359858089
 21
-4.8235369929738
 31
0.0
  0
LINE
  5
347B0
330
1F
100
AcDbEntity
  8
AM_0
100
AcDbLine
 10
-97.21145943496492
 20
-0.7550515876844202
 30
0.0
 11
-101.798250716244
 21
-0.7459066746509961
 31
0.0
  0
LINE
  5
347B1
330
1F
100
AcDbEntity
  8
AM_0
100
AcDbLine
 10
-97.21003147910005
 20
0.7708335822381969
 30
0.0
 11
-101.7985478128933
 21
0.7799819345942751
 31
0.0
  0
LINE
  5
347B2
330
1F
100
AcDbEntity
  8
AM_0
100
AcDbLine
 10
-98.57572276892074
 20
5.084683297515909
 30
0.0
 11
-101.7985478128932
 21
0.7799819345941614
 31
0.0
  0
LINE
  5
347B3
330
1F
100
AcDbEntity
  8
AM_0
100
AcDbLine
 10
-93.98720643512775
 20
5.075534945159831
 30
0.0
 11
-98.57572276892086
 21
5.084683297515909
 31
0.0
  0
LINE
  5
347B4
330
1F
100
AcDbEntity
  8
AM_0
100
AcDbLine
 10
-93.98700990117516
 20
-4.832681890886875
 30
0.0
 11
-98.57379359858089
 21
-4.8235369929738
 31
0.0
  0
ELLIPSE
  5
347B5
330
1F
100
AcDbEntity
  8
AM_0
100
AcDbEllipse
 10
-101.7400615681335
 20
0.019092263433663
 30
0.0
 11
-0.001594996466510968
 21
-0.7999984099898396
 31
-1.953242807213555E-19
210
-4.867836524599350E-22
220
-2.441548656398337E-19
230
0.9999999999999999
 40
0.2424955705096264
 41
3.456049746835369
 42
5.986777162227242
  0
LINE
  5
347B6
330
1F
100
AcDbEntity
  8
AM_0
100
AcDbLine
 10
-89.33795237672246
 20
-4.88126926643838
 30
0.0
 11
-87.91560781297039
 21
-2.981455128659036
 31
0.0
  0
LINE
  5
347B7
330
1F
100
AcDbEntity
  8
AM_0
100
AcDbLine
 10
-92.59265890190363
 20
-0.7653857176629799
 30
0.0
 11
-89.33795237672257
 21
-4.881269266438494
 31
0.0
  0
LINE
  5
347B8
330
1F
100
AcDbEntity
  8
AM_0
100
AcDbLine
 10
-89.33795237672257
 20
-4.88126926643838
 30
0.0
 11
-93.95586915993272
 21
-4.872062296949594
 31
0.0
  0
LINE
  5
347B9
330
1F
100
AcDbEntity
  8
AM_0
100
AcDbLine
 10
-97.2105756851139
 20
-0.7561787481741931
 30
0.0
 11
-93.95586915993272
 21
-4.872062296949707
 31
0.0
  0
LINE
  5
347BA
330
1F
100
AcDbEntity
  8
AM_0
100
AcDbLine
 10
-92.59265890190363
 20
-0.7653857176629799
 30
0.0
 11
-97.2105756851139
 21
-0.7561787481741931
 31
0.0
  0
LINE
  5
347BB
330
1F
100
AcDbEntity
  8
AM_0
100
AcDbLine
 10
-89.33989685793824
 20
5.105587693023637
 30
0.0
 11
-92.59295599855284
 21
0.760502891582405
 31
0.0
  0
LINE
  5
347BC
330
1F
100
AcDbEntity
  8
AM_0
100
AcDbLine
 10
-92.59295599855284
 20
0.7605028915822913
 30
0.0
 11
-97.21087278176299
 21
0.7697098610710782
 31
0.0
  0
LINE
  5
347BD
330
1F
100
AcDbEntity
  8
AM_0
100
AcDbLine
 10
-93.95781364114839
 20
5.114794662512423
 30
0.0
 11
-97.21087278176299
 21
0.7697098610711919
 31
0.0
  0
LINE
  5
347BE
330
1F
100
AcDbEntity
  8
AM_0
100
AcDbLine
 10
-88.71008086718075
 20
4.309125936776468
 30
0.0
 11
-89.33989685793824
 21
5.105587693023523
 31
0.0
  0
LINE
  5
347BF
330
1F
100
AcDbEntity
  8
AM_0
100
AcDbLine
 10
-89.33989685793824
 20
5.105587693023523
 30
0.0
 11
-93.95781364114839
 21
5.11479466251231
 31
0.0
  0
ELLIPSE
  5
347C0
330
1F
100
AcDbEntity
  8
AM_0
100
AcDbEllipse
 10
-92.53446975379302
 20
-0.0003867795782071
 30
0.0
 11
-0.001594996466510968
 21
-0.7999984099898396
 31
-1.953242807213555E-19
210
-4.867836524599350E-22
220
-2.441548656398337E-19
230
0.9999999999999999
 40
0.2424955705096264
 41
3.456049746835369
 42
5.986777162227242
  0
ELLIPSE
  5
347C1
330
1F
100
AcDbEntity
  8
AM_0
100
AcDbEllipse
 10
-97.15238653700317
 20
0.0088201899105798
 30
0.0
 11
-0.001594996466510968
 21
-0.7999984099898396
 31
-1.953242807213555E-19
210
-4.867836524599350E-22
220
-2.441548656398337E-19
230
0.9999999999999999
 40
0.2424955705096264
 41
3.456049746835369
 42
5.986777162227241
  0
LINE
  5
347C2
330
1F
100
AcDbEntity
  8
AM_0
100
AcDbLine
 10
-74.94523682550641
 20
6.627561059945407
 30
0.0
 11
-74.42050812272714
 21
5.83729798588891
 31
0.0
  0
LINE
  5
347C3
330
1F
100
AcDbEntity
  8
AM_0
100
AcDbLine
 10
-74.42050812272714
 20
5.837297985888796
 30
0.0
 11
-75.17475122135443
 21
5.838801757724042
 31
0.0
  0
LINE
  5
347C4
330
1F
100
AcDbEntity
  8
AM_0
100
AcDbLine
 10
-74.42050812272714
 20
5.837297985888796
 30
0.0
 11
-74.32763186331579
 21
3.562911745462998
 31
0.0
  0
LINE
  5
347C5
330
1F
100
AcDbEntity
  8
AM_0
100
AcDbLine
 10
-74.32763186331579
 20
3.562911745462998
 30
0.0
 11
-75.31262749878397
 21
3.564875580063813
 31
0.0
  0
LINE
  5
347C6
330
1F
100
AcDbEntity
  8
AM_0
100
AcDbLine
 10
-74.32763186331579
 20
3.562911745462998
 30
0.0
 11
-74.75948430668359
 21
2.078788579093839
 31
0.0
  0
LINE
  5
347C7
330
1F
100
AcDbEntity
  8
AM_0
100
AcDbLine
 10
-74.75948430668359
 20
2.078788579093839
 30
0.0
 11
-75.28421300946286
 21
2.869051653150336
 31
0.0
  0
LINE
  5
347C8
330
1F
100
AcDbEntity
  8
AM_0
100
AcDbLine
 10
-75.28421300946286
 20
2.869051653150336
 30
0.0
 11
-75.37708926887422
 21
5.143437893576135
 31
0.0
  0
LINE
  5
347C9
330
1F
100
AcDbEntity
  8
AM_0
100
AcDbLine
 10
-75.37708926887422
 20
5.143437893576248
 30
0.0
 11
-74.94523682550641
 21
6.627561059945407
 31
0.0
  0
ARC
  5
347CA
330
1F
100
AcDbEntity
  8
AM_0
100
AcDbCircle
 10
-81.42148113455917
 20
4.366272000668971
 30
0.0
 40
7.22602286745082
100
AcDbArc
 50
333.703120850661
 51
26.0684125833062
  0
LINE
  5
347CB
330
1F
100
AcDbEntity
  8
AM_0
100
AcDbLine
 10
-79.71158690836342
 20
0.112854452886495
 30
0.0
 11
-76.47537174543857
 21
0.1064022503754813
 31
0.0
  0
LINE
  5
347CC
330
1F
100
AcDbEntity
  8
AM_0
100
AcDbLine
 10
-79.69464007090676
 20
8.612837559028463
 30
0.0
 11
-76.45842490798191
 21
8.60638535651745
 31
0.0
  0
LINE
  5
347CD
330
1F
100
AcDbEntity
  8
AM_0
100
AcDbLine
 10
-74.9305617201959
 20
7.541704512495727
 30
0.0
 11
-75.53340659336925
 21
8.186037251225258
 31
0.0
  0
LINE
  5
347CE
330
1F
100
AcDbEntity
  8
AM_0
100
AcDbLine
 10
-74.94327530720784
 20
1.164982301283203
 30
0.0
 11
-75.54868465373602
 21
0.5230585188553505
 31
0.0
  0
ARC
  5
347CF
330
1F
100
AcDbEntity
  8
AM_0
100
AcDbCircle
 10
-76.47789072580889
 20
7.335576859300488
 30
0.0
 40
1.270957573903449
100
AcDbArc
 50
42.00144255376078
 51
89.12243111977165
  0
ARC
  5
347D0
330
1F
100
AcDbEntity
  8
AM_0
100
AcDbCircle
 10
-76.48977008092658
 20
1.377278264233325
 30
0.0
 40
1.270957573904066
100
AcDbArc
 50
270.649102314212
 51
317.7700908802025
  0
ELLIPSE
  5
347D1
330
1F
100
AcDbEntity
  8
AM_0
100
AcDbEllipse
 10
-74.85236056609494
 20
4.353174819519609
 30
0.0
 11
0.005155400288958553
 21
2.58578129834352
 31
6.313335950356308E-19
210
-4.867836524599209E-22
220
-2.441548656398303E-19
230
1.0
 40
0.2424955705096262
 41
0.0082216125387629
 42
6.291406919718347
  0
ELLIPSE
  5
347D2
330
1F
100
AcDbEntity
  8
AM_0
100
AcDbEllipse
 10
-79.70311348963514
 20
4.362846005957408
 30
0.0
 11
-0.008473418728339515
 21
-4.249991553071024
 31
-1.037660241332201E-18
210
-4.867836524599344E-22
220
-2.441548656398337E-19
230
1.0
 40
0.2424955705096263
 41
3.141592653589739
 42
3.954649746515887
  0
ELLIPSE
  5
347D3
330
1F
100
AcDbEntity
  8
AM_0
100
AcDbEllipse
 10
-79.70311348963514
 20
4.362846005957408
 30
0.0
 11
-0.008473418728339515
 21
-4.249991553071024
 31
-1.037660241332201E-18
210
-4.867836524599344E-22
220
-2.441548656398337E-19
230
1.0
 40
0.2424955705096263
 41
6.164836722064841
 42
6.28318530717964
  0
ELLIPSE
  5
347D4
330
1F
100
AcDbEntity
  8
AM_0
100
AcDbEllipse
 10
-75.13651109358386
 20
4.35374134450467
 30
0.0
 11
-0.006565191310756731
 21
-3.292886674146362
 31
-8.039774993212083E-19
210
-4.867836524599334E-22
220
-2.441548656398334E-19
230
1.0
 40
0.2424955705096263
 41
2.888957703862509
 42
6.535820256906952
  0
ELLIPSE
  5
347D5
330
1F
100
AcDbEntity
  8
AM_0
100
AcDbEllipse
 10
-75.7808982694911
 20
4.355026091143941
 30
0.0
 11
0.007889464166999028
 21
3.957098916386566
 31
9.661487947160888E-19
210
-4.867836524599473E-22
220
-2.441548656398367E-19
230
1.0
 40
0.2424955705096263
 41
6.030550357452116
 42
9.67741291049685
  0
ELLIPSE
  5
347D6
330
1F
100
AcDbEntity
  8
AM_0
100
AcDbEllipse
 10
-76.46689832671029
 20
4.356393803446395
 30
0.0
 11
-0.008473418728339515
 21
-4.249991553071024
 31
-1.037660241332201E-18
210
-4.867836524599344E-22
220
-2.441548656398337E-19
230
1.0
 40
0.2424955705096263
 41
3.141592653589794
 42
6.283185307179585
  0
LINE
  5
347D7
330
1F
100
AcDbEntity
  8
AM_0
100
AcDbLine
 10
-84.84128396937661
 20
-2.9618285993256
 30
0.0
 11
-88.29539358638692
 21
-2.954941969845663
 31
0.0
  0
LINE
  5
347D8
330
1F
100
AcDbEntity
  8
AM_0
100
AcDbLine
 10
-89.04386477689775
 20
-2.63579418338793
 30
0.0
 11
-89.54298566842772
 21
-2.634799061337162
 31
0.0
  0
LINE
  5
347D9
330
1F
100
AcDbEntity
  8
AM_0
100
AcDbLine
 10
-89.35928369797932
 20
-1.603702629500958
 30
0.0
 11
-89.85840458950929
 21
-1.602707507450191
 31
0.0
  0
LINE
  5
347DA
330
1F
100
AcDbEntity
  8
AM_0
100
AcDbLine
 10
-89.97504546832602
 20
-0.0852423275388219
 30
0.0
 11
-89.85840458950929
 21
-1.602707507450191
 31
0.0
  0
LINE
  5
347DB
330
1F
100
AcDbEntity
  8
AM_0
100
AcDbLine
 10
-89.54298566842772
 20
-2.634799061337162
 30
0.0
 11
-88.65387507113439
 21
-2.924219561545328
 31
0.0
  0
LINE
  5
347DC
330
1F
100
AcDbEntity
  8
AM_0
100
AcDbLine
 10
-88.29555570919672
 20
-2.957849953037112
 30
0.0
 11
-87.71397712570217
 21
-2.99027351522227
 31
0.0
  0
LINE
  5
347DD
330
1F
100
AcDbEntity
  8
AM_0
100
AcDbLine
 10
-88.6538660486442
 20
-2.924114104912974
 30
0.0
 11
-88.29538014539969
 21
-2.95478486935076
 31
0.0
  0
LINE
  5
347DE
330
1F
100
AcDbEntity
  8
AM_0
100
AcDbLine
 10
-89.47592457679605
 20
-0.0862374495895892
 30
0.0
 11
-89.35928369797932
 21
-1.603702629500958
 31
0.0
  0
LINE
  5
347DF
330
1F
100
AcDbEntity
  8
AM_0
100
AcDbLine
 10
-84.83207883036198
 20
9.628767862964452
 30
0.0
 11
-87.50247805087474
 21
6.06193720748584
 31
0.0
  0
LINE
  5
347E0
330
1F
100
AcDbEntity
  8
AM_0
100
AcDbLine
 10
-85.58342963872383
 20
10.69530395721725
 30
0.0
 11
-79.47619144518262
 21
10.68312765384317
 31
0.0
  0
ARC
  5
347E1
330
1F
100
AcDbEntity
  8
AM_0
100
AcDbCircle
 10
-90.25456185649901
 20
6.264177605129305
 30
0.0
 40
2.536728278911081
100
AcDbArc
 50
303.8360815714013
 51
330.4813711898241
  0
LINE
  5
347E2
330
1F
100
AcDbEntity
  8
AM_0
100
AcDbLine
 10
-83.29281119442055
 20
6.053544186103096
 30
0.0
 11
-87.50247805087474
 21
6.06193720748584
 31
0.0
  0
LINE
  5
347E3
330
1F
100
AcDbEntity
  8
AM_0
100
AcDbLine
 10
-89.17906363093243
 20
3.908336575429416
 30
0.0
 11
-89.86225496399572
 21
1.518805094890922
 31
0.0
  0
LINE
  5
347E4
330
1F
100
AcDbEntity
  8
AM_0
100
AcDbLine
 10
-89.17860914343441
 20
3.907719766261266
 30
0.0
 11
-88.8414018112743
 21
4.156186430816433
 31
0.0
  0
LINE
  5
347E5
330
1F
100
AcDbEntity
  8
AM_0
100
AcDbLine
 10
-85.38795421560496
 20
4.150198264328651
 30
0.0
 11
-88.84206383214735
 21
4.157084893807564
 31
0.0
  0
LINE
  5
347E6
330
1F
100
AcDbEntity
  8
AM_0
100
AcDbLine
 10
-88.531435581918
 20
0.0050733566001782
 30
0.0
 11
-88.41479470310117
 21
-1.512391823311191
 31
0.0
  0
LINE
  5
347E7
330
1F
100
AcDbEntity
  8
AM_0
100
AcDbLine
 10
-89.47592457679605
 20
-0.0862374495895892
 30
0.0
 11
-89.97504546832602
 21
-0.0852423275388219
 31
0.0
  0
LINE
  5
347E8
330
1F
100
AcDbEntity
  8
AM_0
100
AcDbLine
 10
-89.36313407246587
 20
1.517809972839928
 30
0.0
 11
-89.86225496399572
 21
1.518805094890695
 31
0.0
  0
ELLIPSE
  5
347E9
330
1F
100
AcDbEntity
  8
AM_0
100
AcDbEllipse
 10
-93.69043997554422
 20
-1.976219141647903
 30
0.0
 11
-14.05511715156744
 21
0.1810191299062951
 31
-4.863622642046696E-18
210
-3.459818919846364E-19
220
4.455981431887833E-21
230
1.0
 40
0.0408040877683098
 41
3.924450633941522
 42
4.328135827163814
  0
ELLIPSE
  5
347EA
330
1F
100
AcDbEntity
  8
AM_0
100
AcDbEllipse
 10
-93.72185236262953
 20
-3.471570470607844
 30
0.0
 11
12.559683619139
 21
-0.3022694218704701
 31
2.523915219592632E-16
210
-2.008374002299887E-17
220
4.833482012634373E-19
230
1.0
 40
0.0812517080355699
 41
0.7874083433395668
 42
1.191093536561946
  0
ARC
  5
347EB
330
1F
100
AcDbEntity
  8
AM_0
100
AcDbCircle
 10
-83.33919989101756
 20
2.064914172453484
 30
0.0
 40
3.784323967738258
100
AcDbArc
 50
264.2012388031077
 51
300.5790863661939
  0
LINE
  5
347EC
330
1F
100
AcDbEntity
  8
AM_0
100
AcDbLine
 10
-84.84157706462258
 20
-2.966551849406073
 30
0.0
 11
-84.32636967669237
 21
-2.998522385170986
 31
0.0
  0
ELLIPSE
  5
347ED
330
1F
100
AcDbEntity
  8
AM_0
100
AcDbEllipse
 10
-94.64610793191889
 20
8.552735741447378
 30
0.0
 11
-12.19284963580009
 21
-3.238398270855592
 31
-2.560534700520778E-16
210
-1.961650281477878E-17
220
-5.210106799733777E-18
230
1.0
 40
0.6697707974507683
 41
1.835464432088093
 42
2.239149625310469
  0
ELLIPSE
  5
347EE
330
1F
100
AcDbEntity
  8
AM_0
100
AcDbEllipse
 10
-94.4120671280823
 20
7.411948094090604
 30
0.0
 11
13.7344319953583
 21
3.165142651957269
 31
1.462657870841901E-17
210
-1.011250789885611E-18
220
-2.330458957439345E-19
230
0.9999999999999999
 40
0.632706297265059
 41
5.005111927576788
 42
5.408797120799067
  0
ARC
  5
347EF
330
1F
100
AcDbEntity
  8
AM_0
100
AcDbCircle
 10
-68.751194044682
 20
-14.44871349714737
 30
0.0
 40
23.04812505382061
100
AcDbArc
 50
124.6414772496341
 51
131.6403753994927
  0
ARC
  5
347F0
330
1F
100
AcDbEntity
  8
AM_0
100
AcDbCircle
 10
-73.35618781524187
 20
-6.989183271677632
 30
0.0
 40
16.39662232649124
100
AcDbArc
 50
127.3020226785884
 51
137.205528611248
  0
LINE
  5
347F1
330
1F
100
AcDbEntity
  8
AM_0
100
AcDbLine
 10
-79.47619144518262
 20
10.68312765384317
 30
0.0
 11
-82.25335636973671
 21
6.973690910404713
 31
0.0
  0
LINE
  5
347F2
330
1F
100
AcDbEntity
  8
AM_0
100
AcDbLine
 10
-78.39293878066189
 20
8.610242292672552
 30
0.0
 11
-77.91130385919598
 21
9.253558164485781
 31
0.0
  0
LINE
  5
347F3
330
1F
100
AcDbEntity
  8
AM_0
100
AcDbLine
 10
-77.91130385919598
 20
9.253558164485781
 30
0.0
 11
-77.8617735941607
 21
8.60918328232313
 31
0.0
  0
LINE
  5
347F4
330
1F
100
AcDbEntity
  8
AM_0
100
AcDbLine
 10
-79.8898635972738
 20
0.318242347132923
 30
0.0
 11
-80.2498219480517
 21
-0.1625511126566153
 31
0.0
  0
LINE
  5
347F5
330
1F
100
AcDbEntity
  8
AM_0
100
AcDbLine
 10
-80.68846878375007
 20
5.544121421047322
 30
0.0
 11
-80.2498219480517
 21
-0.162551112656729
 31
0.0
  0
LINE
  5
347F6
330
1F
100
AcDbEntity
  8
AM_0
100
AcDbLine
 10
-80.68846878375007
 20
5.544121421047322
 30
0.0
 11
-80.3285104329733
 21
6.024914880835496
 31
0.0
  0
LINE
  5
347F7
330
1F
100
AcDbEntity
  8
AM_0
100
AcDbLine
 10
-79.65166086002182
 20
0.1127349753547833
 30
0.0
 11
-79.82867332197111
 21
-0.123699139377095
 31
0.0
  0
LINE
  5
347F8
330
1F
100
AcDbEntity
  8
AM_0
100
AcDbLine
 10
-80.53929549356349
 20
7.564800353820516
 30
0.0
 11
-80.24715351095165
 21
7.955012038773049
 31
0.0
  0
LINE
  5
347F9
330
1F
100
AcDbEntity
  8
AM_0
100
AcDbLine
 10
-79.76119432780638
 20
8.604103791960853
 30
0.0
 11
-79.46905234519454
 21
8.994315476913499
 31
0.0
  0
SPLINE
  5
347FA
330
1F
100
AcDbEntity
  8
AM_0
100
AcDbSpline
210
0.0
220
0.0
230
1.0
 70
     8
 71
     3
 72
    12
 73
     8
 74
     0
 42
0.0000000001
 43
0.0000000001
 40
2.466761295282202
 40
2.466761295282202
 40
2.466761295282202
 40
2.466761295282202
 40
3.025809340518748
 40
3.025809340518748
 40
3.530110897271872
 40
3.530110897271872
 40
4.034412454024997
 40
4.034412454024997
 40
4.034412454024997
 40
4.034412454024997
 10
-79.87028642311077
 20
-0.2118049826690367
 30
0.0
 10
-79.84538196084884
 20
-0.1786527252770611
 30
0.0
 10
-79.82781480601477
 20
-0.1350279983366818
 30
0.0
 10
-79.81237976274701
 20
-0.0318362651617008
 30
0.0
 10
-79.81279307577393
 20
0.0257135560129882
 30
0.0
 10
-79.83405037191994
 20
0.1584834804373259
 30
0.0
 10
-79.85479134213995
 20
0.2336837749577398
 30
0.0
 10
-79.8898635972738
 20
0.318242347132923
 30
0.0
  0
ARC
  5
347FB
330
1F
100
AcDbEntity
  8
AM_0
100
AcDbCircle
 10
-83.69106456549869
 20
6.349005625263715
 30
0.0
 40
3.378136336027994
100
AcDbArc
 50
354.4947054643511
 51
21.09411773163506
  0
ARC
  5
347FC
330
1F
100
AcDbEntity
  8
AM_0
100
AcDbCircle
 10
-79.60219851612072
 20
7.704922068978419
 30
0.0
 40
1.296249691710149
100
AcDbArc
 50
44.33472224740703
 51
84.10438246006473
  0
LINE
  5
347FD
330
1F
100
AcDbEntity
  8
AM_0
100
AcDbLine
 10
-85.35930647425369
 20
10.13637001001271
 30
0.0
 11
-84.84452274733042
 21
9.710744911535613
 31
0.0
  0
LINE
  5
347FE
330
1F
100
AcDbEntity
  8
AM_0
100
AcDbLine
 10
-84.84452274733042
 20
9.7107449115355
 30
0.0
 11
-84.83764958899212
 21
9.62132704568765
 31
0.0
  0
LINE
  5
347FF
330
1F
100
AcDbEntity
  8
AM_0
100
AcDbLine
 10
-84.32605487471801
 20
-2.993449329649252
 30
0.0
 11
-87.71377762334339
 21
-2.986695058958162
 31
0.0
  0
ARC
  5
34800
330
1F
100
AcDbEntity
  8
AM_0
100
AcDbCircle
 10
-88.93362788726498
 20
4.892358146968206
 30
0.0
 40
0.6248687206874876
100
AcDbArc
 50
269.2293634611895
 51
310.8302067496833
  0
LINE
  5
34801
330
1F
100
AcDbEntity
  8
AM_0
100
AcDbLine
 10
-88.62543933450672
 20
-2.928541409262493
 30
0.0
 11
-88.57083691268235
 21
-2.93089651441278
 31
0.0
  0
LINE
  5
34802
330
1F
100
AcDbEntity
  8
AM_0
100
AcDbLine
 10
-79.36353911788331
 20
10.75645653914833
 30
0.0
 11
-85.65308213469996
 21
10.76899631268103
 31
0.0
  0
ARC
  5
34803
330
1F
100
AcDbEntity
  8
AM_0
100
AcDbCircle
 10
-84.21598104623698
 20
1.317921159386231
 30
0.0
 40
4.312775410503582
100
AcDbArc
 50
268.5374961312871
 51
302.14903531084
  0
ARC
  5
34804
330
1F
100
AcDbEntity
  8
AM_0
100
AcDbCircle
 10
-84.88413154033779
 20
2.383817029362433
 30
0.0
 40
5.570772777743509
100
AcDbArc
 50
302.1337388422983
 51
321.8335484824395
  0
LINE
  5
34805
330
1F
100
AcDbEntity
  8
AM_0
100
AcDbLine
 10
-77.87094143744525
 20
9.37141881953724
 30
0.0
 11
-77.81234416677967
 21
8.609084732424691
 31
0.0
  0
LINE
  5
34806
330
1F
100
AcDbEntity
  8
AM_0
100
AcDbLine
 10
-79.87028642311077
 20
-0.2118049826690367
 30
0.0
 11
-80.5042849398626
 21
-1.058631677235098
 31
0.0
  0
ELLIPSE
  5
34807
330
1F
100
AcDbEntity
  8
AM_0
100
AcDbEllipse
 10
-89.51157328134241
 20
-1.139447732377334
 30
0.0
 11
-0.002990618374705914
 21
-1.49999701873095
 31
-3.662330263522783E-19
210
-4.867836524592345E-22
220
-2.441548656396582E-19
230
1.0
 40
0.2424955705096222
 41
5.026846073630304
 42
6.204943318726443
  0
ELLIPSE
  5
34808
330
1F
100
AcDbEntity
  8
AM_0
100
AcDbEllipse
 10
-88.94502282709584
 20
2.767548928072642
 30
0.0
 11
-0.002990618374705916
 21
-1.499997018730951
 31
-3.662330263522783E-19
210
-4.867836524592338E-22
220
-2.441548656396579E-19
230
1.0
 40
0.2424955705096223
 41
3.141592653589646
 42
3.848748828534137
  0
ELLIPSE
  5
34809
330
1F
100
AcDbEntity
  8
AM_0
100
AcDbEllipse
 10
-88.62246268404908
 20
-1.428868232585387
 30
0.0
 11
-0.002990618374705917
 21
-1.499997018730951
 31
-3.662330263522785E-19
210
-4.867836524592332E-22
220
-2.441548656396580E-19
230
1.0
 40
0.2424955705096223
 41
6.204943318726443
 42
6.283185307179592
  0
ELLIPSE
  5
3480A
330
1F
100
AcDbEntity
  8
AM_0
100
AcDbEllipse
 10
-85.31715412271603
 20
9.629734981608323
 30
0.0
 11
0.4985294329376094
 21
0.03831976637332116
 31
3.510530287816035E-19
210
-7.000410694780914E-19
220
-5.380908019023134E-20
230
0.9999999999999999
 40
0.3000683971382526
 41
6.026154357710109
 42
6.584659718348602
  0
ELLIPSE
  5
3480B
330
1F
100
AcDbEntity
  8
AM_0
100
AcDbEllipse
 10
-86.77139999137739
 20
-3.449183682020816
 30
0.0
 11
-0.0199374558314009
 21
-9.999980124872998
 31
-2.441553509018634E-18
210
-4.867836524606082E-22
220
-2.441548656400027E-19
230
1.0
 40
0.2424955705096304
 41
3.456049746835406
 42
3.703775028816535
  0
ELLIPSE
  5
3480C
330
1F
100
AcDbEntity
  8
AM_0
100
AcDbEllipse
 10
-89.62821416015913
 20
0.3780174475340346
 30
0.0
 11
-0.002990618374705914
 21
-1.49999701873095
 31
-3.662330263522783E-19
210
-4.867836524592345E-22
220
-2.441548656396582E-19
230
1.0
 40
0.2424955705096222
 41
3.848748828534251
 42
5.026846073630304
  0
ELLIPSE
  5
3480D
330
1F
100
AcDbEntity
  8
AM_0
100
AcDbEllipse
 10
-89.01245238981244
 20
-1.140442854428102
 30
0.0
 11
-0.002990618374708024
 21
-1.49999701873095
 31
-3.662330263525366E-19
210
-4.867836524599208E-22
220
-2.441548656398303E-19
230
1.0
 40
0.2424955705096263
 41
5.026846073630304
 42
6.204943318726443
  0
ELLIPSE
  5
3480E
330
1F
100
AcDbEntity
  8
AM_0
100
AcDbEllipse
 10
-89.01245238981244
 20
-1.140442854428102
 30
0.0
 11
1.49558829881283
 21
0.1149592991199636
 31
2.787421317359284E-18
210
-1.852815424935100E-18
220
-1.424177782202970E-19
230
0.9999999999999999
 40
0.3000683971382524
 41
4.455358030915187
 42
5.100307702249618
  0
ELLIPSE
  5
3480F
330
1F
100
AcDbEntity
  8
AM_0
100
AcDbEllipse
 10
-89.01245238981232
 20
-1.140442854427988
 30
0.0
 11
0.0846683893102673
 21
1.497608514883536
 31
1.036854475172599E-17
210
-3.901724371644615E-19
220
-6.901342625393507E-18
230
1.0
 40
0.4226448027111218
 41
3.225360033951196
 42
4.485363277444211
  0
ELLIPSE
  5
34810
330
1F
100
AcDbEntity
  8
AM_0
100
AcDbEllipse
 10
-84.80987158229198
 20
-1.466477270365317
 30
0.0
 11
0.1569299021267665
 21
1.491768415612318
 31
3.595561991027916E-18
210
-2.507783072634362E-19
220
-2.383887028707369E-18
230
0.9999999999999999
 40
0.7401682381327639
 41
3.254603407785144
 42
4.63335628690412
  0
ELLIPSE
  5
34811
330
1F
100
AcDbEntity
  8
AM_0
100
AcDbEllipse
 10
-93.83193013396408
 20
-0.1354717906307315
 30
0.0
 11
13.95882412225306
 21
1.072953458452993
 31
-1.098166196628766E-17
210
7.820973875379847E-19
220
6.011638870556138E-20
230
0.9999999999999997
 40
0.3000683971382525
 41
5.785302481212139
 42
6.026154357710081
  0
ELLIPSE
  5
34812
330
1F
100
AcDbEntity
  8
AM_0
100
AcDbEllipse
 10
-82.7445026497976
 20
-1.079796481026961
 30
0.0
 11
0.823450211312044
 21
-1.253766226012705
 31
3.235998232976345E-17
210
-1.184303746111014E-17
220
1.803193463085578E-17
230
1.0
 40
0.8381079047468411
 41
0.000000000000115
 42
0.9883422416003558
  0
ELLIPSE
  5
34813
330
1F
100
AcDbEntity
  8
AM_0
100
AcDbEllipse
 10
-79.36652973625803
 20
9.256459520417167
 30
0.0
 11
-0.002990618374708023
 21
-1.499997018730949
 31
-3.662330263525365E-19
210
-4.867836524599212E-22
220
-2.441548656398303E-19
230
1.0
 40
0.2424955705096263
 41
3.141592653589785
 42
3.456049746835265
  0
ELLIPSE
  5
34814
330
1F
100
AcDbEntity
  8
AM_0
100
AcDbEllipse
 10
-79.36652973625803
 20
9.256459520417167
 30
0.0
 11
1.49558829881283
 21
0.1149592991199636
 31
2.787421317359284E-18
210
-1.852815424935100E-18
220
-1.424177782202970E-19
230
0.9999999999999999
 40
0.3000683971382524
 41
6.026154357710086
 42
6.28318530717973
  0
ELLIPSE
  5
34815
330
1F
100
AcDbEntity
  8
AM_0
100
AcDbEllipse
 10
-89.12909326862916
 20
0.3770223254832672
 30
0.0
 11
1.495588298812829
 21
0.1149592991199636
 31
2.787421317359283E-18
210
-1.852815424935100E-18
220
-1.424177782202970E-19
230
0.9999999999999998
 40
0.3000683971382525
 41
4.455358030915187
 42
5.100307702249618
  0
ELLIPSE
  5
34816
330
1F
100
AcDbEntity
  8
AM_0
100
AcDbEllipse
 10
-89.12909326862916
 20
0.3770223254832672
 30
0.0
 11
-0.002990618374708024
 21
-1.49999701873095
 31
-3.662330263525366E-19
210
-4.867836524599208E-22
220
-2.441548656398303E-19
230
1.0
 40
0.2424955705096263
 41
3.848748828534251
 42
5.026846073630304
  0
ELLIPSE
  5
34817
330
1F
100
AcDbEntity
  8
AM_0
100
AcDbEllipse
 10
-89.12909326862928
 20
0.3770223254832672
 30
0.0
 11
0.6377889194687568
 21
-1.357654335315971
 31
-1.747434299608980E-17
210
4.953307705735840E-18
220
-1.054405223353164E-17
230
1.0
 40
0.2776340881302472
 41
1.165982312679893
 42
2.425985556172935
  0
ELLIPSE
  5
34818
330
1F
100
AcDbEntity
  8
AM_0
100
AcDbEllipse
 10
-85.15391341176883
 20
3.009410616969944
 30
0.0
 11
1.018119162872228
 21
-1.101559517317314
 31
2.870110662861250E-17
210
-1.298717629076867E-17
220
1.405154540634984E-17
230
1.0
 40
0.5373819451988144
 41
0.9187501785970792
 42
2.297503057716149
  0
ELLIPSE
  5
34819
330
1F
100
AcDbEntity
  8
AM_0
100
AcDbEllipse
 10
-94.38023867858703
 20
6.997868876499211
 30
0.0
 11
12.46323582344023
 21
0.9579941593330295
 31
-2.764318113176197E-17
210
2.204950306273424E-18
220
1.694848388455230E-19
230
1.0
 40
0.3000683971382525
 41
5.785302481212144
 42
6.026154357710094
  0
ELLIPSE
  5
3481A
330
1F
100
AcDbEntity
  8
AM_0
100
AcDbEllipse
 10
-94.27057696966244
 20
5.571200743073206
 30
0.0
 11
13.95882412225307
 21
1.072953458452993
 31
-1.098166196628767E-17
210
7.820973875379848E-19
220
6.011638870556141E-20
230
0.9999999999999997
 40
0.3000683971382525
 41
5.78530248121214
 42
6.026154357710081
  0
ELLIPSE
  5
3481B
330
1F
100
AcDbEntity
  8
AM_0
100
AcDbEllipse
 10
-83.18314948549596
 20
4.626876052677062
 30
0.0
 11
0.8234502113120462
 21
-1.253766226012707
 31
3.235998232976368E-17
210
-1.184303746111020E-17
220
1.803193463085587E-17
230
1.0
 40
0.8381079047468412
 41
0.9883422416003546
 42
2.559138568395223
  0
ELLIPSE
  5
3481C
330
1F
100
AcDbEntity
  8
AM_0
100
AcDbEllipse
 10
-82.14369466081212
 20
5.547022776978707
 30
0.0
 11
1.200762885251046
 21
-0.8989819205098542
 31
1.002153349165667E-17
210
-5.348215764480727E-18
220
4.004078855459262E-18
230
1.0
 40
0.9225805413740801
 41
0.6796812510186989
 42
2.250477577813614
  0
ELLIPSE
  5
3481D
330
1F
100
AcDbEntity
  8
AM_0
100
AcDbEllipse
 10
-79.36652973625803
 20
9.256459520417167
 30
0.0
 11
1.200762885251132
 21
-0.8989819205097388
 31
1.002153349165737E-17
210
-5.348215764481485E-18
220
4.004078855459029E-18
230
1.0
 40
0.9225805413740802
 41
0.6796812510185997
 42
2.250477577813514
  0
ELLIPSE
  5
3481E
330
1F
100
AcDbEntity
  8
AM_0
100
AcDbEllipse
 10
-81.70504782511375
 20
-0.1596497567253437
 30
0.0
 11
1.200762885251046
 21
-0.8989819205098542
 31
1.002153349165667E-17
210
-5.348215764480727E-18
220
4.004078855459262E-18
230
1.0
 40
0.9225805413740801
 41
0.0000000000000986
 42
0.6796812510187714
  0
ELLIPSE
  5
3481F
330
1F
100
AcDbEntity
  8
AM_0
100
AcDbEllipse
 10
-79.33364863333679
 20
4.207458962289252
 30
0.0
 11
0.008971855124123945
 21
4.499991056192849
 31
1.098699079057595E-18
210
-4.867836524599079E-22
220
-2.441548656398270E-19
230
1.0
 40
0.2424955705096263
 41
1.155525763814974
 42
2.614981076267541
  0
ELLIPSE
  5
34820
330
1F
100
AcDbEntity
  8
AM_0
100
AcDbEllipse
 10
-79.58750305357955
 20
4.51726593098158
 30
0.0
 11
-0.00897185512412407
 21
-4.499991056192849
 31
-1.098699079057609E-18
210
-4.867836524599201E-22
220
-2.441548656398302E-19
230
1.0
 40
0.2424955705096263
 41
2.714267958547244
 42
3.041055559697411
  0
ARC
  5
34821
330
1F
100
AcDbEntity
  8
AM_0
100
AcDbCircle
 10
-79.36652973625809
 20
9.256459520417195
 30
0.0
 40
1.5
100
AcDbArc
 50
4.395431800576031
 51
89.88576671698267
  0
ARC
  5
34822
330
1F
100
AcDbEntity
  8
AM_0
100
AcDbCircle
 10
-74.72846657410429
 20
0.0000000000000568
 30
0.0
 40
2.214510797200376
100
AcDbArc
 50
177.2219919318582
 51
82.38913119143597
  0
ARC
  5
34823
330
1F
100
AcDbEntity
  8
AM_0
100
AcDbCircle
 10
-74.72846657410429
 20
0.0000000000000568
 30
0.0
 40
3.75
100
AcDbArc
 50
178.3130803934065
 51
82.12025992558611
  0
ARC
  5
34824
330
1F
100
AcDbEntity
  8
AM_0
100
AcDbCircle
 10
-74.72846657410429
 20
0.0000000000000568
 30
0.0
 40
5.0
100
AcDbArc
 50
179.8835749923464
 51
84.05925209005603
  0
ARC
  5
34825
330
1F
100
AcDbEntity
  8
AM_0
100
AcDbCircle
 10
-74.72846657410429
 20
0.0000000000000568
 30
0.0
 40
2.0
100
AcDbArc
 50
176.9360472961236
 51
83.33092322140335
  0
DIMENSION
  5
35189
330
1F
100
AcDbEntity
  8
AM_5
100
AcDbDimension
  2
*D7
 10
0.5360672926079815
 20
0.760502891582405
 30
0.0
 11
-25.31925103007426
 21
-0.2300212154580913
 31
0.0
 70
    34
  1
35%%D
 71
     5
 42
0.6284634927891375
  3
AM_JIS$2
100
AcDb2LineAngularDimension
 13
0.5494269557381131
 23
-0.7653857176629799
 33
0.0
 14
13.60334182616714
 24
-4.881269266438494
 34
0.0
 15
13.51590356632471
 25
5.105587693023608
 35
0.0
 16
-28.59637287810795
 26
2.555321968725818
 36
0.0
1001
ACAD
1000
DSTYLE
1002
{
1070
   179
1070
     1
1070
   271
1070
     1
1002
}
  0
ENDSEC
  0
SECTION
  2
OBJECTS
  0
DICTIONARY
  5
C
330
0
100
AcDbDictionary
281
     1
  3
ACAD_COLOR
350
232CA
  3
ACAD_GROUP
350
D
  3
ACAD_LAYOUT
350
1A
  3
ACAD_MATERIAL
350
232C9
  3
ACAD_MLINESTYLE
350
17
  3
ACAD_PLOTSETTINGS
350
19
  3
ACAD_PLOTSTYLENAME
350
E
  3
ACAD_TABLESTYLE
350
232CB
  3
AcAmCatalogState
350
23332
  3
ACDBHEADERROUNDTRIPXREC
350
35382
  3
AcDbVariableDictionary
350
30
  3
ACDMSYSVARMGR
350
232E5
  3
ACGREF_MASTER
350
232DD
  3
ACGREFACAD_MASTER
350
23305
  3
AcmDictionary
350
4D
  3
ACME_BOM_MANAGER_NAME
350
36
  3
ACME_COMMAND_HISTORY
350
2F
  3
ACME_SCOPE_NAME
350
2E
  3
ACMESTATEMGR
350
3B
  3
AcmeSysVarManager
350
32
  3
AcmSystemVariableManager
350
6A
  3
AD_APPL
350
23310
  3
ADSYSVARMGR
350
2330F
  3
AmdtNamedDwgMgr
350
23300
  3
AMG
350
3F
  3
AMGSNAPSETTINGS
350
73
  3
AMI_MASTER
350
23308
  3
AUTOCAD_ASSEMBLIES_PROJECT
350
23318
  3
Designer_Assemblies_SysVars
350
23313
  3
DWGPROPS
350
35385
  3
FILENAME
350
217A
  3
GREFAM_MODULE
350
23309
  3
ZWKSIZE
350
217C
  0
DICTIONARY
  5
233EB
330
2
100
AcDbDictionary
280
     1
281
     1
  3
ACAD_LAYERSTATES
360
233EC
  0
DICTIONARY
  5
165
330
1F
100
AcDbDictionary
280
     1
281
     1
  0
DICTIONARY
  5
232CA
102
{ACAD_REACTORS
330
C
102
}
330
C
100
AcDbDictionary
281
     1
  0
DICTIONARY
  5
D
102
{ACAD_REACTORS
330
C
102
}
330
C
100
AcDbDictionary
281
     1
  0
DICTIONARY
  5
1A
102
{ACAD_REACTORS
330
C
102
}
330
C
100
AcDbDictionary
281
     1
  3
Model
350
22
  3
ﾚｲｱｳﾄ1
350
1E
  3
ﾚｲｱｳﾄ2
350
26
  0
DICTIONARY
  5
232C9
102
{ACAD_REACTORS
330
C
102
}
330
C
100
AcDbDictionary
281
     1
  0
DICTIONARY
  5
17
102
{ACAD_REACTORS
330
C
102
}
330
C
100
AcDbDictionary
281
     1
  3
Standard
350
18
  0
DICTIONARY
  5
19
102
{ACAD_REACTORS
330
C
102
}
330
C
100
AcDbDictionary
281
     1
  0
ACDBDICTIONARYWDFLT
  5
E
102
{ACAD_REACTORS
330
C
102
}
330
C
100
AcDbDictionary
281
     1
  3
Normal
350
F
100
AcDbDictionaryWithDefault
340
F
  0
DICTIONARY
  5
232CB
102
{ACAD_REACTORS
330
C
102
}
330
C
100
AcDbDictionary
281
     1
  3
Standard
350
232CC
  0
ACAD_PROXY_OBJECT
  5
23332
102
{ACAD_REACTORS
330
C
102
}
330
C
100
AcDbProxyObject
 90
      499
 91
      572
 95
       25
 70
     0
 93
      560
310
3FFFFFFFE00A028140296AE2E2C3B9A1818182E32AE482B415AC15141BA41A441C5C1AFAE20A1A0A226991818182E2A16A922AC656F596240082D0052001140160008AFF9EFF
  0
DICTIONARY
  5
35382
102
{ACAD_REACTORS
330
C
102
}
330
C
100
AcDbDictionary
281
     1
  3
COLORDICT
350
35383
  3
MATERIALDICT
350
35384
  0
DICTIONARY
  5
30
102
{ACAD_REACTORS
330
C
102
}
330
C
100
AcDbDictionary
281
     1
  3
CTABLESTYLE
350
233A5
  3
HIDETEXT
350
35381
  3
INDEXCTL
350
35380
  0
ACAD_PROXY_OBJECT
  5
232E5
102
{ACAD_REACTORS
330
C
102
}
330
C
100
AcDbProxyObject
 90
      499
 91
      507
 95
       25
 70
     0
 93
      240
310
4C51A47A0000000000000000000000000000000000000000000000000000
330
232E6
330
232E7
330
232E8
330
232E9
330
232EA
330
232EB
330
232EC
330
232ED
330
232EE
330
232EF
330
232F0
330
232F1
330
232F2
330
232F3
330
232F4
330
232F5
330
232F6
330
232F7
330
232F8
330
232F9
330
232FA
330
232FB
330
232FC
330
232FD
330
232FE
330
232FF
 94
        0
  0
ACAD_PROXY_OBJECT
  5
232DD
102
{ACAD_REACTORS
330
C
102
}
330
C
100
AcDbProxyObject
 90
      499
 91
      536
 95
       25
 70
     0
 93
       34
310
0400004280
  0
ACAD_PROXY_OBJECT
  5
23305
102
{ACAD_REACTORS
330
C
102
}
330
C
100
AcDbProxyObject
 90
      499
 91
      542
 95
       25
 70
     0
 93
      114
310
04000041C080000000000000000000
  0
DICTIONARY
  5
4D
102
{ACAD_REACTORS
330
C
102
}
330
C
100
AcDbDictionary
281
     1
  3
AcmBOMDATA
350
4E
  3
AcmStdDictionary
350
17E
  3
AMDTSECTSYM_ARROWCOLOR
350
23326
  0
ACAD_PROXY_OBJECT
  5
36
102
{ACAD_REACTORS
330
C
102
}
330
C
100
AcDbProxyObject
 90
      499
 91
      510
 95
       25
 70
     0
 93
       50
310
00010040400000
330
0
330
0
330
37
 94
        0
  0
ACAD_PROXY_OBJECT
  5
2F
102
{ACAD_REACTORS
330
C
102
}
330
C
100
AcDbProxyObject
 90
      499
 91
      505
 95
       25
 70
     0
 93
     4084
310
47805054552415345805054552415345805054552415345805054552415345805054552415345805054552415345805054552415345404052D4D5347202D205050413A2020206465736B746F702E6172782046696C6556657273696F6E3A20392E322E302E34014151549054D16014151549054D16014151549054D1601415
310
1549054D16014151549054D16014151549054D1601415454D05591501014B5354D1C80B481414104E88080819195CDADD1BDC0B985C9E08119A5B1955995C9CDA5BDB8E880E4B8C8B8C0B8D0050E414D4454524553455444424D4F4440805084E202D20554E444F014213880B4815539113C0504554E444F80504554E444F8
310
050545524153458050545524153458050C475249505F5354524554434880504554E444F80505584C494E4580506455854454E4440405184D5347202D20436F6D6D616E642043414E43454C4C45442E014151549054D1601415454D05591501014B5354D1C80B481414104E88080819195CDADD1BDC0B985C9E08119A5B1955
310
995C9CDA5BDB8E880E4B8C8B8C0B8D0050E414D4454524553455444424D4F4440805084E202D20554E444F014213880B4815539113C0504554E444F80504554E444F805055055524745805055153415645404052D4D5347202D205050413A2020206465736B746F702E6172782046696C6556657273696F6E3A20392E322E3
310
02E340
  0
ACAD_PROXY_OBJECT
  5
2E
102
{ACAD_REACTORS
330
C
102
}
330
C
100
AcDbProxyObject
 90
      499
 91
      504
 95
       25
 70
     0
 93
      586
310
09000046408000000000000000001344E200000000000000000000000000000000000000000000000000000000000000000000000000000000000000000000000000000000AAA406AA80
360
33
360
34
360
35
360
37
360
6B
360
6C
360
232DE
360
232DF
360
232E0
360
232E1
360
232E2
360
232E3
360
232E6
360
232E7
360
232E8
360
232E9
360
232EA
360
232EB
360
232EC
360
232ED
360
232EE
360
232EF
360
232F0
360
232F1
360
232F2
360
232F3
360
232F4
360
232F5
360
232F6
360
232F7
360
232F8
360
232F9
360
232FA
360
232FB
360
232FC
360
232FD
360
232FE
360
232FF
360
2330B
360
2330C
360
2330D
360
2330E
360
23314
360
23315
360
23316
360
23317
360
2331C
360
2331D
360
2331E
360
2331F
360
23320
360
23321
 94
        0
  0
ACAD_PROXY_OBJECT
  5
3B
102
{ACAD_REACTORS
330
C
102
}
330
C
100
AcDbProxyObject
 90
      499
 91
      515
 95
       25
 70
     0
 93
       50
310
09000042641280
  0
ACAD_PROXY_OBJECT
  5
32
102
{ACAD_REACTORS
330
C
102
}
330
C
100
AcDbProxyObject
 90
      499
 91
      507
 95
       25
 70
     0
 93
       48
310
903412000000
330
33
330
34
330
35
 94
        0
  0
ACAD_PROXY_OBJECT
  5
6A
102
{ACAD_REACTORS
330
C
102
}
330
C
100
AcDbProxyObject
 90
      499
 91
      507
 95
       25
 70
     0
 93
       40
310
90240E0000
330
6B
330
6C
 94
        0
  0
ACAD_PROXY_OBJECT
  5
23310
102
{ACAD_REACTORS
330
C
102
}
330
C
100
AcDbProxyObject
 90
      499
 91
      552
 95
       25
 70
     0
 93
       42
310
000900004040
330
2330B
 94
        0
  0
ACAD_PROXY_OBJECT
  5
2330F
102
{ACAD_REACTORS
330
C
102
}
330
C
100
AcDbProxyObject
 90
      499
 91
      507
 95
       25
 70
     0
 93
        8
310
AA
  0
ACAD_PROXY_OBJECT
  5
23300
102
{ACAD_REACTORS
330
C
102
}
330
C
100
AcDbProxyObject
 90
      499
 91
      541
 95
       25
 70
     0
 93
       42
310
000100005E80
330
232DE
 94
        0
  0
DICTIONARY
  5
3F
102
{ACAD_REACTORS
330
C
102
}
330
C
100
AcDbDictionary
281
     1
  3
AcMgSettings
350
40
  3
AMGLAYCFG
350
42
  0
DICTIONARY
  5
73
102
{ACAD_REACTORS
330
C
102
}
330
C
100
AcDbDictionary
281
     1
  3
DIMENSION
350
62F
  3
FEA
350
630
  3
HATCH (1)
350
631
  3
HATCH (2)
350
632
  3
SYMBOLS
350
633
  0
ACAD_PROXY_OBJECT
  5
23308
102
{ACAD_REACTORS
330
C
102
}
330
C
100
AcDbProxyObject
 90
      499
 91
      545
 95
       25
 70
     0
 93
       34
310
0500004280
  0
ACAD_PROXY_OBJECT
  5
23318
102
{ACAD_REACTORS
330
C
102
}
330
C
100
AcDbProxyObject
 90
      499
 91
      555
 95
       25
 70
     0
 93
       98
310
0900004E400000000000000000
330
2331F
330
0
330
23320
330
0
330
0
330
0
330
0
330
0
 94
        0
  0
ACAD_PROXY_OBJECT
  5
23313
102
{ACAD_REACTORS
330
C
102
}
330
C
100
AcDbProxyObject
 90
      499
 91
      507
 95
       25
 70
     0
 93
       56
310
90441600000000
330
23314
330
23315
330
23316
330
23317
 94
        0
  0
XRECORD
  5
35385
102
{ACAD_REACTORS
330
C
102
}
330
C
100
AcDbXrecord
280
     1
  1
DWGPROPS COOKIE
  2

  3

  4

  6

  7

  8
Administrator
  9

300
AmdtFileType=84
301
=
302
=
303
=
304
=
305
=
306
=
307
=
308
=
309
=
 40
0.0
 41
2451943.235431667
 42
2455477.383361181
  1

 90
        1
  0
DICTIONARY
  5
217A
102
{ACAD_REACTORS
330
C
102
}
330
C
100
AcDbDictionary
281
     1
  3
FILENAME
350
217B
  0
ACAD_PROXY_OBJECT
  5
23309
102
{ACAD_REACTORS
330
C
102
}
330
C
100
AcDbProxyObject
 90
      499
 91
      546
 95
       25
 70
     0
 93
        8
310
05
  0
DICTIONARY
  5
217C
102
{ACAD_REACTORS
330
C
102
}
330
C
100
AcDbDictionary
281
     1
  3
ZWKSIZE
350
217D
  0
DICTIONARY
  5
233EC
102
{ACAD_REACTORS
330
233EB
102
}
330
233EB
100
AcDbDictionary
281
     1
  0
LAYOUT
  5
22
102
{ACAD_REACTORS
330
1A
102
}
330
1A
100
AcDbPlotSettings
  1

  2
SII LP-2150 (D-SCAN C2)
  4
User120
  6
AM_VIEW1
 40
3.174999952316284
 41
3.174999952316284
 42
3.17498779296875
 43
3.17498779296875
 44
296.9259948730469
 45
419.9889831542969
 46
0.0
 47
0.0
 48
0.0
 49
0.0
140
420.0
141
297.0
142
1.0
143
1.022107788374329
 70
 11952
 72
     1
 73
     1
 74
     4
  7
sei_cad.ctb
 75
     0
147
0.9783703943695685
148
0.0
149
0.0
100
AcDbLayout
  1
Model
 70
     1
 71
     0
 10
0.0
 20
0.0
 11
12.0
 21
9.0
 12
0.0
 22
0.0
 32
0.0
 14
0.0
 24
0.0
 34
0.0
 15
0.0
 25
0.0
 35
0.0
146
0.0
 13
0.0
 23
0.0
 33
0.0
 16
1.0
 26
0.0
 36
0.0
 17
0.0
 27
1.0
 37
0.0
 76
     0
330
1F
1001
ACAD_PSEXT
1000
SII LP-2150 (D-SCAN C2)
1000
SII LP-2150 (D-SCAN C2)
1000
133.153.16.130#3000
1000

1070
     0
  0
LAYOUT
  5
1E
102
{ACAD_REACTORS
330
1A
102
}
330
1A
100
AcDbPlotSettings
  1

  2
Canon LASER SHOT LBP-2030
  4

  6

 40
0.0
 41
0.0
 42
0.0
 43
0.0
 44
0.0
 45
0.0
 46
0.0
 47
0.0
 48
0.0
 49
0.0
140
0.0
141
0.0
142
1.0
143
1.0
 70
   688
 72
     0
 73
     0
 74
     5
  7
sei_cad.ctb
 75
    16
147
1.0
148
0.0
149
0.0
100
AcDbLayout
  1
ﾚｲｱｳﾄ1
 70
     1
 71
     1
 10
0.0
 20
0.0
 11
420.0
 21
297.0
 12
0.0
 22
0.0
 32
0.0
 14
1.000000000000000E+20
 24
1.000000000000000E+20
 34
1.000000000000000E+20
 15
-1.000000000000000E+20
 25
-1.000000000000000E+20
 35
-1.000000000000000E+20
146
0.0
 13
0.0
 23
0.0
 33
0.0
 16
1.0
 26
0.0
 36
0.0
 17
0.0
 27
1.0
 37
0.0
 76
     0
330
1B
  0
LAYOUT
  5
26
102
{ACAD_REACTORS
330
1A
102
}
330
1A
100
AcDbPlotSettings
  1

  2
Canon LASER SHOT LBP-2030
  4

  6

 40
0.0
 41
0.0
 42
0.0
 43
0.0
 44
0.0
 45
0.0
 46
0.0
 47
0.0
 48
0.0
 49
0.0
140
0.0
141
0.0
142
1.0
143
1.0
 70
   688
 72
     0
 73
     0
 74
     5
  7
sei_cad.ctb
 75
    16
147
1.0
148
0.0
149
0.0
100
AcDbLayout
  1
ﾚｲｱｳﾄ2
 70
     1
 71
     2
 10
0.0
 20
0.0
 11
12.0
 21
9.0
 12
0.0
 22
0.0
 32
0.0
 14
0.0
 24
0.0
 34
0.0
 15
0.0
 25
0.0
 35
0.0
146
0.0
 13
0.0
 23
0.0
 33
0.0
 16
1.0
 26
0.0
 36
0.0
 17
0.0
 27
1.0
 37
0.0
 76
     0
330
23
  0
MLINESTYLE
  5
18
102
{ACAD_REACTORS
330
17
102
}
330
17
100
AcDbMlineStyle
  2
STANDARD
 70
     0
  3

 62
   256
 51
90.0
 52
90.0
 71
     2
 49
0.5
 62
   256
  6
BYLAYER
 49
-0.5
 62
   256
  6
BYLAYER
  0
ACDBPLACEHOLDER
  5
F
102
{ACAD_REACTORS
330
E
102
}
330
E
  0
TABLESTYLE
  5
232CC
102
{ACAD_REACTORS
330
232CB
102
}
330
232CB
100
AcDbTableStyle
  3
Standard
 70
     0
 71
     8
 40
1.5
 41
1.5
280
     0
281
     0
  7
STANDARD
140
4.5
170
     2
 62
     0
 63
     7
283
     0
274
    -2
284
     1
 64
     0
275
    -2
285
     1
 65
     0
276
    -2
286
     1
 66
     0
277
    -2
287
     1
 67
     0
278
    -2
288
     1
 68
     0
279
    -2
289
     1
 69
     0
  7
STANDARD
140
6.0
170
     5
 62
     0
 63
     7
283
     0
274
    -2
284
     1
 64
     0
275
    -2
285
     1
 65
     0
276
    -2
286
     1
 66
     0
277
    -2
287
     1
 67
     0
278
    -2
288
     1
 68
     0
279
    -2
289
     1
 69
     0
  7
STANDARD
140
4.5
170
     5
 62
     0
 63
     7
283
     0
274
    -2
284
     1
 64
     0
275
    -2
285
     1
 65
     0
276
    -2
286
     1
 66
     0
277
    -2
287
     1
 67
     0
278
    -2
288
     1
 68
     0
279
    -2
289
     1
 69
     0
  0
XRECORD
  5
35383
102
{ACAD_REACTORS
330
35382
102
}
330
35382
100
AcDbXrecord
280
     1
340
232CA
  0
XRECORD
  5
35384
102
{ACAD_REACTORS
330
35382
102
}
330
35382
100
AcDbXrecord
280
     1
340
232C9
  0
DICTIONARYVAR
  5
233A5
102
{ACAD_REACTORS
330
30
102
}
330
30
100
DictionaryVariables
280
     0
  1
STANDARD
  0
DICTIONARYVAR
  5
35381
102
{ACAD_REACTORS
330
30
102
}
330
30
100
DictionaryVariables
280
     0
  1
0
  0
DICTIONARYVAR
  5
35380
102
{ACAD_REACTORS
330
30
102
}
330
30
100
DictionaryVariables
280
     0
  1
1
  0
ACAD_PROXY_OBJECT
  5
4E
102
{ACAD_REACTORS
330
4D
102
}
330
4D
100
AcDbProxyObject
 90
      499
 91
      520
 95
       25
 70
     0
 93
      118
310
405010040CA904C415CD5B075DD288
350
4F
 94
        0
  0
DICTIONARY
  5
17E
102
{ACAD_REACTORS
330
4D
102
}
330
4D
100
AcDbDictionary
281
     1
  3
ISO
350
24424
  3
JIS
350
17F
  0
XRECORD
  5
23326
102
{ACAD_REACTORS
330
4D
102
}
330
4D
100
AcDbXrecord
280
     1
 90
-1023410169
  0
ACAD_PROXY_OBJECT
  5
33
330
2E
100
AcDbProxyObject
 90
      499
 91
      508
 95
       25
 70
     0
 93
      156
310
00010143D050D351505391D5531054925390D490
330
2E
 94
        0
  0
ACAD_PROXY_OBJECT
  5
34
330
2E
100
AcDbProxyObject
 90
      499
 91
      508
 95
       25
 70
     0
 93
      148
310
000101439050D351531253915054925390D490
330
2E
 94
        0
  0
ACAD_PROXY_OBJECT
  5
35
330
2E
100
AcDbProxyObject
 90
      499
 91
      509
 95
       25
 70
     0
 93
      156
310
000101439050D35154D6535093D314D256915080
330
2E
 94
        0
  0
ACAD_PROXY_OBJECT
  5
37
330
2E
100
AcDbProxyObject
 90
      499
 91
      511
 95
       25
 70
     0
 93
       88
310
000101411093D34C402B00
330
2E
330
0
330
0
 94
        0
  0
ACAD_PROXY_OBJECT
  5
6B
330
2E
100
AcDbProxyObject
 90
      499
 91
      509
 95
       25
 70
     0
 93
      108
310
00010142505351D153D35054D4E0
330
2E
 94
        0
  0
ACAD_PROXY_OBJECT
  5
6C
330
2E
100
AcDbProxyObject
 90
      499
 91
      522
 95
       25
 70
     0
 93
      140
310
00010142105350D55494D511005034A49530
330
2E
 94
        0
  0
ACAD_PROXY_OBJECT
  5
232DE
330
2E
100
AcDbProxyObject
 90
      499
 91
      537
 95
       25
 70
     0
 93
      358
310
0001014124FEA55D00507392E322E302E32014124FEA55D00507392E322E302E3240501000041505391D311658
330
2E
330
232DF
330
232E5
 94
        0
  0
ACAD_PROXY_OBJECT
  5
232DF
330
2E
100
AcDbProxyObject
 90
      499
 91
      538
 95
       25
 70
     0
 93
       56
310
000190240E0000
330
2E
330
232E0
330
232E2
 94
        0
  0
ACAD_PROXY_OBJECT
  5
232E0
330
2E
100
AcDbProxyObject
 90
      499
 91
      539
 95
       25
 70
     0
 93
       48
310
0001AA000000
330
2E
330
1E
330
232E1
330
0
 94
        0
  0
ACAD_PROXY_OBJECT
  5
232E1
330
2E
100
AcDbProxyObject
 90
      499
 91
      540
 95
       25
 70
     0
 93
       28
310
0001AAA0
330
2E
 94
        0
  0
ACAD_PROXY_OBJECT
  5
232E2
330
2E
100
AcDbProxyObject
 90
      499
 91
      539
 95
       25
 70
     0
 93
       48
310
0001AA000000
330
2E
330
26
330
232E3
330
0
 94
        0
  0
ACAD_PROXY_OBJECT
  5
232E3
330
2E
100
AcDbProxyObject
 90
      499
 91
      540
 95
       25
 70
     0
 93
       28
310
0001AAA0
330
2E
 94
        0
  0
ACAD_PROXY_OBJECT
  5
232E6
330
2E
100
AcDbProxyObject
 90
      499
 91
      509
 95
       25
 70
     0
 93
      108
310
000101421053521310D05310D010
330
2E
 94
        0
  0
ACAD_PROXY_OBJECT
  5
232E7
330
2E
100
AcDbProxyObject
 90
      499
 91
      509
 95
       25
 70
     0
 93
      124
310
00010142905354915554D15112535010
330
2E
 94
        0
  0
ACAD_PROXY_OBJECT
  5
232E8
330
2E
100
AcDbProxyObject
 90
      499
 91
      509
 95
       25
 70
     0
 93
      132
310
00010143105354D150D51253D391125360
330
2E
 94
        0
  0
ACAD_PROXY_OBJECT
  5
232E9
330
2E
100
AcDbProxyObject
 90
      499
 91
      509
 95
       25
 70
     0
 93
      124
310
00010142905355941093D49111549010
330
2E
 94
        0
  0
ACAD_PROXY_OBJECT
  5
232EA
330
2E
100
AcDbProxyObject
 90
      499
 91
      509
 95
       25
 70
     0
 93
      116
310
0001014290535115D1D0D3D313D4A0
330
2E
 94
        0
  0
ACAD_PROXY_OBJECT
  5
232EB
330
2E
100
AcDbProxyObject
 90
      499
 91
      509
 95
       25
 70
     0
 93
      148
310
00010143505355925155D49151949154D21010
330
2E
 94
        0
  0
ACAD_PROXY_OBJECT
  5
232EC
330
2E
100
AcDbProxyObject
 90
      499
 91
      509
 95
       25
 70
     0
 93
      172
310
00010144105350539393D51154149154D15495915010
330
2E
 94
        0
  0
ACAD_PROXY_OBJECT
  5
232ED
330
2E
100
AcDbProxyObject
 90
      499
 91
      509
 95
       25
 70
     0
 93
      172
310
00010144105350555513D11253505494905391D15010
330
2E
 94
        0
  0
ACAD_PROXY_OBJECT
  5
232EE
330
2E
100
AcDbProxyObject
 90
      499
 91
      509
 95
       25
 70
     0
 93
      124
310
00010142D05351561514915191125360
330
2E
 94
        0
  0
ACAD_PROXY_OBJECT
  5
232EF
330
2E
100
AcDbProxyObject
 90
      499
 91
      509
 95
       25
 70
     0
 93
      132
310
00010142D05355105410539393D5115010
330
2E
 94
        0
  0
ACAD_PROXY_OBJECT
  5
232F0
330
2E
100
AcDbProxyObject
 90
      499
 91
      509
 95
       25
 70
     0
 93
      108
310
00010142105350555513D0D31010
330
2E
 94
        0
  0
ACAD_PROXY_OBJECT
  5
232F1
330
2E
100
AcDbProxyObject
 90
      499
 91
      509
 95
       25
 70
     0
 93
      108
310
00010142105350D3119150551050
330
2E
 94
        0
  0
ACAD_PROXY_OBJECT
  5
232F2
330
2E
100
AcDbProxyObject
 90
      499
 91
      509
 95
       25
 70
     0
 93
      108
310
00010142105350D315925155D3F0
330
2E
 94
        0
  0
ACAD_PROXY_OBJECT
  5
232F3
330
2E
100
AcDbProxyObject
 90
      499
 91
      509
 95
       25
 70
     0
 93
      148
310
0001014350535212511156915493D112535010
330
2E
 94
        0
  0
ACAD_PROXY_OBJECT
  5
232F4
330
2E
100
AcDbProxyObject
 90
      499
 91
      509
 95
       25
 70
     0
 93
      124
310
00010142905352105510D21254D3D010
330
2E
 94
        0
  0
ACAD_PROXY_OBJECT
  5
232F5
330
2E
100
AcDbProxyObject
 90
      499
 91
      509
 95
       25
 70
     0
 93
      148
310
00010143905354D25391D31152105513105660
330
2E
 94
        0
  0
ACAD_PROXY_OBJECT
  5
232F6
330
2E
100
AcDbProxyObject
 90
      499
 91
      509
 95
       25
 70
     0
 93
      124
310
00010142D0535115D1D193111254D420
330
2E
 94
        0
  0
ACAD_PROXY_OBJECT
  5
232F7
330
2E
100
AcDbProxyObject
 90
      499
 91
      509
 95
       25
 70
     0
 93
      100
310
00010142105350555513D213A0
330
2E
 94
        0
  0
ACAD_PROXY_OBJECT
  5
232F8
330
2E
100
AcDbProxyObject
 90
      499
 91
      509
 95
       25
 70
     0
 93
      116
310
000101425053521390D3D553951010
330
2E
 94
        0
  0
ACAD_PROXY_OBJECT
  5
232F9
330
2E
100
AcDbProxyObject
 90
      499
 91
      509
 95
       25
 70
     0
 93
      108
310
0001014210535213941493D29010
330
2E
 94
        0
  0
ACAD_PROXY_OBJECT
  5
232FA
330
2E
100
AcDbProxyObject
 90
      499
 91
      509
 95
       25
 70
     0
 93
      108
310
0001014210535213951654115070
330
2E
 94
        0
  0
ACAD_PROXY_OBJECT
  5
232FB
330
2E
100
AcDbProxyObject
 90
      499
 91
      509
 95
       25
 70
     0
 93
      108
310
000101421053521395925155D0F0
330
2E
 94
        0
  0
ACAD_PROXY_OBJECT
  5
232FC
330
2E
100
AcDbProxyObject
 90
      499
 91
      509
 95
       25
 70
     0
 93
      140
310
00010143505354D150D51253D390D3D41660
330
2E
 94
        0
  0
ACAD_PROXY_OBJECT
  5
232FD
330
2E
100
AcDbProxyObject
 90
      499
 91
      509
 95
       25
 70
     0
 93
      108
310
00010142105350D3141493D29030
330
2E
 94
        0
  0
ACAD_PROXY_OBJECT
  5
232FE
330
2E
100
AcDbProxyObject
 90
      499
 91
      508
 95
       25
 70
     0
 93
      212
310
00010143905350555513D2105510D21493D500000000000002E400
330
2E
 94
        0
  0
ACAD_PROXY_OBJECT
  5
232FF
330
2E
100
AcDbProxyObject
 90
      499
 91
      509
 95
       25
 70
     0
 93
      156
310
00010143905350555513D2105510D21111551010
330
2E
 94
        0
  0
ACAD_PROXY_OBJECT
  5
2330B
330
2E
100
AcDbProxyObject
 90
      499
 91
      548
 95
       25
 70
     0
 93
      698
310
0001000000009AA6A9AA4051E576564204D61792033312030343A35373A303020323030362028555443290141CE4B8C8B8C0B8C80518546875204F63742030372031383A31323A303220323031300141CE4B8C8B8C0B8C80
330
2E
330
2330C
330
2330D
330
2330F
330
0
 94
        0
  0
ACAD_PROXY_OBJECT
  5
2330C
330
2E
100
AcDbProxyObject
 90
      499
 91
      549
 95
       25
 70
     0
 93
       70
310
0001AAA80820000000
330
2E
330
2330C
330
2330C
 94
        0
  0
ACAD_PROXY_OBJECT
  5
2330D
330
2E
100
AcDbProxyObject
 90
      499
 91
      550
 95
       25
 70
     0
 93
       48
310
000100000000
330
2E
330
0
330
2330E
330
0
330
0
 94
        0
  0
ACAD_PROXY_OBJECT
  5
2330E
330
2E
100
AcDbProxyObject
 90
      499
 91
      551
 95
       25
 70
     0
 93
       40
310
000100AAAA
330
2E
330
0
 94
        0
  0
ACAD_PROXY_OBJECT
  5
23314
330
2E
100
AcDbProxyObject
 90
      499
 91
      522
 95
       25
 70
     0
 93
      180
310
00010143105050D3D35411119390535140504434F4D500
330
2E
 94
        0
  0
ACAD_PROXY_OBJECT
  5
23315
330
2E
100
AcDbProxyObject
 90
      499
 91
      522
 95
       25
 70
     0
 93
      212
310
0001014390505193D311115491119390535140506466F6C6465720
330
2E
 94
        0
  0
ACAD_PROXY_OBJECT
  5
23316
330
2E
100
AcDbProxyObject
 90
      499
 91
      522
 95
       25
 70
     0
 93
      180
310
00010143105050539393D1119390535140504284156290
330
2E
 94
        0
  0
ACAD_PROXY_OBJECT
  5
23317
330
2E
100
AcDbProxyObject
 90
      499
 91
      522
 95
       25
 70
     0
 93
      436
310
00010143905050D3D35415925155D31254D50052295BD96CA0A90B396CA0A894591A496CA0A8DB691A496CA0A89BA96CA0A95E28F95310
330
2E
 94
        0
  0
ACAD_PROXY_OBJECT
  5
2331C
330
2E
100
AcDbProxyObject
 90
      499
 91
      556
 95
       25
 70
     0
 93
       32
310
00010000
330
2E
340
23319
330
2331E
330
23319
 94
        0
  0
ACAD_PROXY_OBJECT
  5
2331D
330
2E
100
AcDbProxyObject
 90
      499
 91
      557
 95
       25
 70
     0
 93
       18
310
000180
330
2E
 94
        0
  0
ACAD_PROXY_OBJECT
  5
2331E
330
2E
100
AcDbProxyObject
 90
      499
 91
      558
 95
       25
 70
     0
 93
      186
310
0001014310CD8B51159593938B520C4D9050055401550000
330
2E
330
2331C
330
2331D
 94
        0
  0
ACAD_PROXY_OBJECT
  5
2331F
330
2E
100
AcDbProxyObject
 90
      499
 91
      559
 95
       25
 70
     0
 93
      178
310
000100AAAAAA9195104E6175E692E824806FEAC2A092C0
330
2E
330
2331E
 94
        0
  0
ACAD_PROXY_OBJECT
  5
23320
330
2E
100
AcDbProxyObject
 90
      499
 91
      560
 95
       25
 70
     0
 93
      108
310
000190140A000000000000AAAAA0
330
2E
330
23321
330
23321
330
23321
330
23321
330
23321
330
0
 94
        0
  0
ACAD_PROXY_OBJECT
  5
23321
330
2E
100
AcDbProxyObject
 90
      499
 91
      561
 95
       25
 70
     0
 93
       51
310
00010000AAAA80
330
2E
330
23320
330
2331E
 94
        0
  0
DICTIONARY
  5
40
102
{ACAD_REACTORS
330
3F
102
}
330
3F
100
AcDbDictionary
281
     1
  3
DWGSETTINGS
350
41
  3
FEM
350
69
  3
Shaft
350
56
  3
TRANSSETTINGS
350
4C
  0
ACAD_PROXY_OBJECT
  5
42
102
{ACAD_REACTORS
330
3F
102
}
330
3F
100
AcDbProxyObject
 90
      499
 91
      519
 95
       25
 70
     0
 93
    23232
310
41502491013041105357CC201C00030C011E441013141105357CC603800030C011E441013241105357CCA01400030C011E441013341105357CCE01800030C010D9013441105357CD200C00030C010D9013541105357CD600C00030C010D9013641105357CDA00800030C011E9013741105357CDE01000030C010D901384110
310
5357CE200400030C011E9013941105357CE63F400030C0241102324141505357CC4C201C00030C011E902344141505357CC4C600C00030C010D902495041505357CC4CA01C00030C011E40902304E41505357CC13A01C00030C011E902314E41505357CC53A03800030C011E902324E41505357CC93A01400030C011E90233
310
4E41505357CCD3A01800030C010D902344E41505357CD13A00C00030C010D902354E41505357CD53A00C00030C010D902364E41505357CD93A00800030C011E902374E41505357CDD3A01000030C010D902384E41505357CE13A00400030C011E902394E41505357CE53A3F400030C024110332414E41905357CC4C13A01C0
310
0030C011E90334414E41905357CC4C53A00C00030C010D90349504E41905357CC4C93A01C00030C011E409044B4C494E41505357D0D3200400030C011E42504494E464F42105357D410549151A01000030C010D42D055241484D3541905357D093D4A01C00030C011E425045649455742105357D5925155D4E00400030C011
310
E42D06424548494E4441905357D25395A3F400030C0243505545241494C41505357D514A00C00030C010D4250348494441905357D21251201C00030C011E4250356495341905357D59254E01C00030C011E4250650415244494D42505357D41054911253600C00030C010D4250652454644494D42505357D49151911253601
310
000030C010D425774110531514901348070000C300479034110915312501348000000C0003FFFFFFFD034110921395901398000000C0003FFFFFFFE415092139594D06424548494E448000000C0003FFFFFFFE411093125110234418000000C0003FFFFFFFD03411093D05410234418000000C0003FFFFFFFD03411093D48C
310
9055241484D358010000C30047A411093D48CD055241484D358020000C30047A411093D48D5055241484D358000000C0003FFFFFFFE411093D48DD055241484D3581E0000C30047903411094105410234418000000C0003FFFFFFFD03411094115610234418000000C0003FFFFFFFD034110951112501358000000C0003FFF
310
FFFFD034110D0530C901348000000C0003FFFFFFFE4110D0530CD01348020000C30047A4110D0530D501348070000C30047A4110D0530DD013481E0000C30047A4110D15393901378000000C0003FFFFFFFE4110D15395D01378000000C0003FFFFFFFE4110D312539044B4C494E8000000C0003FFFFFFFE4110D3D38C5013
310
08000000C0003FFFFFFFD034110D3D38C901318000000C0003FFFFFFFD034110D3D38CD01328000000C0003FFFFFFFD034110D3D38D101328000000C0003FFFFFFFD034111115494101348000000C0003FFFFFFFD034111115510501348000000C0003FFFFFFFE4111125051D01358000000C0003FFFFFFFE4111125312501
310
358000000C0003FFFFFFFE411112535410650415244494D8000000C0003FFFFFFFE411112535490652454644494D8000000C0003FFFFFFFE411156135410234418000000C0003FFFFFFFD034111915353901388000000C0003FFFFFFFE415191535413901388030000C3004364151915354D410234418000000C0003FFFFFF
310
FE4151915354D510234418030000C300436415191535593901328000000C0003FFFFFFFE415191535595101328030000C3004364111931055101308000000C0003FFFFFFFD03411194905490234418000000C0003FFFFFFFD034111D49312501358000000C0003FFFFFFFD034111D5931250234418000000C0003FFFFFFFD0
310
34112105510D01388000000C0003FFFFFFFD014112125113901338000000C0003FFFFFFFD034112125115D01338000000C0003FFFFFFFD034112131253901348000000C0003FFFFFFFD01411213D0D3901378000000C0003FFFFFFFE411213D0D5D01378000000C0003FFFFFFFE4112539193D04494E464F8000000C0003FF
310
FFFFFE4113105112501348000000C0003FFFFFFFD034113115051101358000000C0003FFFFFFFE419397D0921395902394E8000000C0003FFFFFFFE419397D0D3D38C502304E8000000C0003FFFFFFFD03419397D0D3D38C902314E8000000C0003FFFFFFFD03419397D0D3D38CD02324E8000000C0003FFFFFFFD03419397
310
D0D3D38D102324E8000000C0003FFFFFFFD03419397D0D15393902374E8000000C0003FFFFFFFE419397D0D15395D02374E8000000C0003FFFFFFFE419397D1125312502354E8000000C0003FFFFFFFE419397D2105510D02384E8000000C0003FFFFFFFD01419397D2125113902334E8000000C0003FFFFFFFD03419397D2
310
125115D02334E8000000C0003FFFFFFFD03419397D3115051102354E8000000C0003FFFFFFFE419397D391D25410349504E8000000C0003FFFFFFFE419397D412105390334414E8000000C0003FFFFFFFE419397D510D3D3902304E8000000C0003FFFFFFFD03419397D5121312502344E8000000C0003FFFFFFFD01419397
310
D5131153902304E8000000C0003FFFFFFFD03419397D516150CD02364E8000000C0003FFFFFFFD03419397D594131250332414E8000000C0003FFFFFFFE411391D25410249508000000C0003FFFFFFFE411410530C9055241484D358010000C30047A411410530CD055241484D358020000C30047A411410530D5055241484
310
D358000000C0003FFFFFFFE411410530DD055241484D3581E0000C30047903411412105390234418000000C0003FFFFFFFE411413D4D3901368070000C30047A419413D4D49151901368050000C30047903411413D4D6101368000000C0003FFFFFFFD03411414D150D0234418000000C0003FFFFFFFD03411490D1D390137
310
8000000C0003FFFFFFFE411490D1D5D01378000000C0003FFFFFFFE4114919112501348000000C0003FFFFFFFD034114945514901348070000C30047903411494D093D01348000000C0003FFFFFFFD034114D09492D01348000000C0003FFFFFFFD014114D0D153901378000000C0003FFFFFFFD034114D150D51013480000
310
00C0003FFFFFFFD014114D15313901378000000C0003FFFFFFFD034114D15315D01378000000C0003FFFFFFFD034114D4D654D01308000000C0003FFFFFFFD034114D51312501348070000C300479034114D6508C501358000000C0003FFFFFFFD034114D6508C901358000000C0003FFFFFFFD034114D6508CD0135802000
310
0C30047A4114D6508D501358070000C300479034114D65353901378000000C0003FFFFFFFD034114D65355D01378000000C0003FFFFFFFD03411510D3D3901308000000C0003FFFFFFFD034115121312501348000000C0003FFFFFFFD01411512550C9055241484D358010000C30047A411512550CD055241484D358020000
310
C30047A411512550D5055241484D358000000C0003FFFFFFFE411512550DD055241484D3581E0000C300479034115131153901308000000C0003FFFFFFFD03415514905253105545241494C8000000C0003FFFFFFFE41151492D3901378000000C0003FFFFFFFD0341151492D5D01378000000C0003FFFFFFFD03411514931
310
2501348000000C0003FFFFFFFD01411516150C501368030000C300436411516150C901368030000C300436411516150CD01368000000C0003FFFFFFFE411516150D501368070000C30047A411516150DD013681E0000C30047A4115925155D04564945578000000C0003FFFFFFFE41159151121034849448000000C0003FFF
310
FFFFD0241159151159035649538000000C0003FFFFFFFD02411594131250232418000000C0003FFFFFFFE4116925690501348000000C0003FFFFFFFD01411354D653501358020000C30047AAAA3F400030C01013F90A4051E4091E40D0D4110D4151E4190D41D1E4391E4791E7F6
340
16
340
16
340
16
340
43
340
16
340
16
340
16
340
44
340
16
340
16
340
44
340
45
340
16
340
16
340
16
340
16
340
43
340
16
340
16
340
16
340
44
340
16
340
16
340
44
340
45
340
16
340
46
340
16
340
16
340
16
340
16
340
16
340
43
340
16
340
16
340
16
340
47
340
15
340
15
340
15
340
15
340
15
340
15
340
15
340
15
340
15
340
15
340
15
340
15
340
15
340
15
340
15
340
15
340
48
340
15
340
15
340
15
340
15
340
15
340
15
340
15
340
15
340
15
340
15
340
15
340
15
340
15
340
15
340
15
340
16
340
15
340
15
340
15
340
15
340
15
340
15
340
15
340
15
340
47
340
15
340
15
340
48
340
15
340
15
340
15
340
15
340
15
340
15
340
15
340
15
340
15
340
48
340
15
340
15
340
15
340
47
340
15
340
15
340
15
340
15
340
15
340
15
340
15
340
15
340
15
340
15
340
15
340
15
340
15
340
15
340
15
340
15
340
15
340
15
340
15
340
48
340
15
340
15
340
48
340
15
340
15
340
16
340
15
340
48
340
15
340
15
340
47
340
15
340
15
340
16
340
15
340
48
340
15
340
15
340
15
340
15
340
15
340
15
340
15
340
15
340
15
340
48
340
15
340
15
340
15
340
15
340
15
340
15
340
15
340
15
340
15
340
15
340
15
340
4B
340
16
 94
        0
  0
ACAD_PROXY_OBJECT
  5
62F
102
{ACAD_REACTORS
330
73
102
}
330
73
100
AcDbProxyObject
 90
      499
 91
      523
 95
       25
 70
     0
 93
      253
310
43D1444494D454E53494F4E2C414D44545F2A5F44494D404A9012A404A9012A0
  0
ACAD_PROXY_OBJECT
  5
630
102
{ACAD_REACTORS
330
73
102
}
330
73
100
AcDbProxyObject
 90
      499
 91
      523
 95
       25
 70
     0
 93
      181
310
43D012A42D05357D191504B505357CA9012A404A9012A8
  0
ACAD_PROXY_OBJECT
  5
631
102
{ACAD_REACTORS
330
73
102
}
330
73
100
AcDbProxyObject
 90
      499
 91
      523
 95
       25
 70
     0
 93
      133
310
43D054841544348404A9012A404A9012A8
  0
ACAD_PROXY_OBJECT
  5
632
102
{ACAD_REACTORS
330
73
102
}
330
73
100
AcDbProxyObject
 90
      499
 91
      523
 95
       25
 70
     0
 93
      549
310
43D044C494E4549CE0B0E138B0A8B4E0B0A8B4E138B105357CE0B105357CE138B0A8B505357CE0B0A8B505357CE139012A404A910494E534552542C5354445041525432448
  0
ACAD_PROXY_OBJECT
  5
633
102
{ACAD_REACTORS
330
73
102
}
330
73
100
AcDbProxyObject
 90
      499
 91
      523
 95
       25
 70
     0
 93
      909
310
43D6641434D46434652414D452C41434D444154554D5441524745542C41434D444154554D49442C41434D57454C4453594D2C41434D5355524653594D2C41434D4645415449442C41434D504152545245462C41434D42414C4C4F4F4E2C414D44544544474553594D404A9012A404A9012A8
  0
XRECORD
  5
217B
102
{ACAD_REACTORS
330
217A
102
}
330
217A
100
AcDbXrecord
280
     1
  1
21000753__00___
  0

  0
XRECORD
  5
217D
102
{ACAD_REACTORS
330
217C
102
}
330
217C
100
AcDbXrecord
280
     1
  1
3
  0

  0
ACAD_PROXY_OBJECT
  5
4F
102
{ACAD_REACTORS
330
4E
102
}
330
4E
100
AcDbProxyObject
 90
      499
 91
      521
 95
       25
 70
     0
 93
      157
310
057356C1D77406406AA8FFFFFFFF05DD01009010
330
1F
330
0
330
2331E
 94
        0
  0
ACAD_PROXY_OBJECT
  5
24424
102
{ACAD_REACTORS
330
17E
102
}
330
17E
100
AcDbProxyObject
 90
      499
 91
      578
 95
       25
 70
     0
 93
     2497
310
5DC0000000000000C408030000C30040D254D3D01640600800030C0200800030C000000000000000C40C88A2085A0B6B23A22B233B2A9BA3220480A1C82C6DAA6EAE4CCA8CAF0E8A6E8C88120284A0B1B6A321A329BA3220480A1A82C6DAAECAD8C8D2DCCEA6E8C8812028420B1B6A4B229BA3220480A1682C6DA88C2E8EAD
310
AA6E8C88120284A0B1B6A127A6A9BA3220480A2082DAC8E888CAE8C2D2D8A6F2DAA6E8C88120288A0B6B23A29B2B1BA34B7B729BCB6A9BA3220480A2282DAC8E886CADCE8CAE498D2DCCAA6E8C88120288A0B6B23A2A343932B0B22634B732A9BA3220480A1682DAC8E89CDEE8CAA6E8C88120285A0B1A0B6B3A630BCA9BA3
310
220480A1682C682DACE88D2DAA6E8C88120288A0B1A0B6B3A437B632A1B430B93A29BA3220480A1A82C682DACEA8D2E8D8CAA6E8C8812032048080
340
233E2
360
24425
360
24426
360
24427
360
24428
360
24429
360
2442A
360
2442B
360
2442C
360
2442D
360
2442E
360
2442F
360
24430
360
24436
360
24437
360
24438
360
24439
340
0
340
0
 94
        0
  0
ACAD_PROXY_OBJECT
  5
17F
102
{ACAD_REACTORS
330
17E
102
}
330
17E
100
AcDbProxyObject
 90
      499
 91
      526
 95
       25
 70
     0
 93
     2379
310
5DC33333333333309408000000C00040D29254D01640600800030C0200800030C003333333333330940C8121E8720B1B6A9BAB9332A32BC3A29BA3220480A1282C6DA8C868CA6E8C88120286A0B1B6ABB2B63234B733A9BA3220480A1082C6DA92C8A6E8C88120285A0B1B6A230BA3AB6A9BA3220480A1282C6DA849E9AA6E
310
8C88120286A0B1A0B6B3AA34BA3632A9BA3220480A2082DAC8E888CAE8C2D2D8A6F2DAA6E8C88120288A0B6B23A29B2B1BA34B7B729BCB6A9BA3220480A2282DAC8E886CADCE8CAE498D2DCCAA6E8C88120288A0B6B23A2A343932B0B22634B732A9BA3220480A1682DAC8E89CDEE8CAA6E8C88120285A0B1A0B6B3A630BCA
310
9BA3220480A1682C682DACE88D2DAA6E8C88120288A0B1A0B6B3A437B632A1B430B93A29BA3220480C812020
340
180
360
181
360
182
360
183
360
184
360
185
360
186
360
23323
360
23324
360
23325
360
23327
360
23328
360
23329
360
2332F
360
23330
360
23331
340
0
340
0
 94
        0
  0
ACAD_PROXY_OBJECT
  5
41
102
{ACAD_REACTORS
330
40
102
}
330
40
100
AcDbProxyObject
 90
      499
 91
      518
 95
       25
 70
     0
 93
     2954
310
4050B44574753455454494E4753A0E8482A68AA6A88882A069492A684A1A0A723A0A92920ACA0A811B9AA0C868A9C829C8E82A12686AF87260F862666A8321A2A72224A0A50602A2140ECC009A020E868A9C889282A682A106260F86460F8666083A1A2A72224A9AA250000000000000042020C868A9C988A9C94000000000
310
000048808321A2A727A323250000000000000122020E868A9C9E8C8C62940000000000000488083A1A2A727A32319250000000000000122021CC6D0C2DACCCAE4C8D2DADADEC8CA9FC84A1A624A720A92920ACA0A819898182108698929C8AA8B2A082A0AB098929C8A84A22BA3AAA9A1A0A622A50A0E9882A6A89E849482A
310
02608426A0A5A2AB24A2ABA7E8120CA0A68682988A0C00800010652455649534941501304154D0D0531150540CC4E8C5085354414E44415244415034A4953425512535154D5105354128177EF97C9E0ADCD050756455253494F4E4150531352E3030441ED115D1D4D15515125391D4D153911F40
  0
ACAD_PROXY_OBJECT
  5
69
102
{ACAD_REACTORS
330
40
102
}
330
40
100
AcDbProxyObject
 90
      499
 91
      518
 95
       25
 70
     0
 93
      411
310
4050346454D21092DCC6E486DECACC942842630BCA3B937BAB820A8320A6AFA322A0A20F688AE8EA68AA8A8929C8EA68A9C88FA0
  0
ACAD_PROXY_OBJECT
  5
56
102
{ACAD_REACTORS
330
40
102
}
330
40
100
AcDbProxyObject
 90
      499
 91
      518
 95
       25
 70
     0
 93
      583
310
40505536861667421292DCE8CAE4E4EAE0E89FA0484A634B3B43A2634B732A7F21A98D2CED0E898D2DCCAACD2CAEE9FC8229B4B232A7E80A20F688AE8EA68AA8A8929C8EA68A9C88FA
  0
ACAD_PROXY_OBJECT
  5
4C
102
{ACAD_REACTORS
330
40
102
}
330
40
100
AcDbProxyObject
 90
      499
 91
      518
 95
       25
 70
     0
 93
      852
310
4050D5452414E5353455454494E4753A2488A482AE929C8EA8A4829CA69882A8929E9C0C00800050D4F524947494E414C4C595F4F4E0600400028529A7AAA921A2A620A723A0A81A52827212AAA0A48AA68AA4AC8A0C0080001107B44574753455454494E4753454E447D0
  0
ACAD_PROXY_OBJECT
  5
24425
330
24424
100
AcDbProxyObject
 90
      499
 91
      579
 95
       25
 70
     0
 93
       13
310
5DD8
  0
ACAD_PROXY_OBJECT
  5
24426
330
24424
100
AcDbProxyObject
 90
      499
 91
      580
 95
       25
 70
     0
 93
       96
310
5DEA0E80A0280A0280A0280F
  0
ACAD_PROXY_OBJECT
  5
24427
330
24424
100
AcDbProxyObject
 90
      499
 91
      581
 95
       25
 70
     0
 93
      272
310
5DD0E4050140501405014050140501405014050140D01405012C0000000000000040
340
233E3
 94
        0
  0
ACAD_PROXY_OBJECT
  5
24428
330
24424
100
AcDbProxyObject
 90
      499
 91
      582
 95
       25
 70
     0
 93
      497
310
5DE8666666666667A67E199999999999E99FD22405014050140501405014050140501405014050140501405014050140501405014050140501405014050100
340
233DE
 94
        0
  0
ACAD_PROXY_OBJECT
  5
24429
330
24424
100
AcDbProxyObject
 90
      499
 91
      583
 95
       25
 70
     0
 93
       10
310
5DC0
  0
ACAD_PROXY_OBJECT
  5
2442A
330
24424
100
AcDbProxyObject
 90
      499
 91
      584
 95
       25
 70
     0
 93
      257
310
5DE290EA22A7D90F49F80000000000001081400000000000004204010000618000
340
1341A
340
233DF
 94
        0
  0
ACAD_PROXY_OBJECT
  5
2442B
330
24424
100
AcDbProxyObject
 90
      499
 91
      585
 95
       25
 70
     0
 93
    13013
310
5DD0E411255115350141236025B690140501406901000000000000091013347454E545241434F2C4A504E2C302C8D8096DA2C47454E54524154582C25732C2847454E4D53472067656E647767203232322940690120281A8AA2CA0282484A4BE52028120280A0320200000000000012202668E8A9CA8A482869E5894A09C58
310
605921292F94588E8A9CA8A482A8B0584AE658508E8A9C9AA68E40CECADCC8EECE406464665280D202405044E414D454050496BC914F4051C40640A80000000000004E404CD1D15395149050D3CB1294138B0C0B25AF2453CB11D15395149055160B095CCB0A11D1539354D1C819D95B991DD9C80C8C8D8A50192C3D494628
310
4953424C414E4B28504152543A4E414D45292C424C4F434B3A4E414D452C504152543A4E414D452940480A0A888AA686A480A09251B1DBE80A3A80C81D0000000000100A28099A3A2A72A2920A1A7962528271618164946C76F9623A2A72A2920AA2C1612B9961423A2A726A9A39033B2B7323BB39019189B94A0348090142
310
14D51053911054911014122D2E29A50147501904A000000000000125013347454E545241434F2C4A504E2C302C8B4B8A692C47454E54524154582C25732C2847454E4D53472067656E64776720323138294069012028426A0AA22A924A0A62028246EF4BDFA028EA0320B40000000000001CA02668E8A9CA8A482869E5894A
310
09C5860591BBD2F7E588E8A9CA8A482A8B0584AE658508E8A9C9AA68E40CECADCC8EECE406464625280D202405044E4F544540504928D8B4C4051D40641A80000000000003E404CD1D15395149050D3CB1294138B0C0B24A362D30B11D15395149055160B095CCB0A11D1539354D1C819D95B991DD9C80C8C8D4A501240480
310
A0CAC8A9C889EA480A1106F1072706BF02B680A3A80C83D00000000000007C809BA3A2A72A2920A1A79625282716181641BC41C9C1AFC0AD9623A2A72A2920AA2C1612B9961423A2A726A9A39033B2B7323BB39019191A14A0248090141911154D0D48C90141A43825AF880C90147501908A000000000020145013447454E5
310
45241434F2C4A504E2C302C90E096BE20322C47454E54524154582C25732C2847454E4D53472067656E6477672033362940490120284A9AA20A72220A922192028345A5C53490192028EA03213400000000000024A026A8E8A9CA8A482869E5894A09C586059169714D24064588E8A9CA8A482A8B0584AE658508E8A9C9AA6
310
8E40CECADCC8EECE4064646052809202405094D4154455249414C32405068DDE97BF20324051D40642A8713D0AD7A37045404D11D15395149050D3CB1294138B0C0B2377A5EFC80C8B11D15395149055160B095CCB0A11D1539354D1C819D95B991DD9C80D0C0A501240480A089A82A6A680A091D7F2F9480A3A80A0485A06
310
8100000000000007C809923A2A72A2920A1A796252827161816475FCBE51623A2A72A2920AA2C1612B9961423A2A726A9A39033B2B7323BB3901A1914A024809014154149250D150141226FE29A501475014090C409020000000000000F9013247454E545241434F2C4A504E2C302C89BF8A692C47454E54524154582C2573
310
2C2847454E4D53472067656E6477672034332940490120281A224A6A02824850CB202028EA028121A81A040000000000001F202648E8A9CA8A482869E5894A09C58605921432C80588E8A9CA8A482A8B0584AE658508E8A9C9AA68E40CECADCC8EECE406868528092024050E445020000000000000510201C00030C0001018
310
0000000000003E400000000000000F901073D3C4954454D3E4050180000000000003E400000000000000F901073D3C4954454D3E40501800000000000034400000000000000D101073D3C4954454D3E40501800000000000034400000000000000D101073D3C4954454D3E405029010000000000000F9000000000000003E4
310
041CF4F125511534F901418F4F1455164F9014060000000000000F9000000000000003E4041CF4F125511534F9014060000000000000D100000000000000344041CF4F125511534F901901000000000000000F9000000000000003E40A2200000000000008204018000618048220681A048120280C88214844882034852034
310
8452028521485214814000000000000F0BF0000000000003C2FD018020000C3008070000C3003373333333333B0FCCDCCCCCCCCCCEC3F000000000000031012034164050341105901A000000000000062040100006180401000061804008000618008098A02808
340
0
340
0
 94
        0
  0
ACAD_PROXY_OBJECT
  5
2442C
330
24424
100
AcDbProxyObject
 90
      499
 91
      586
 95
       25
 70
     0
 93
      898
310
5DC4000000000000144048CF4F11115510525317D3105091530F880A0F11115510525317D05094D4D0D053114F8A51141C9A9999999999B93F26A666666666724FC000000000000E03F400000000000000400000000000000510000000000000024408070000C300000000000000051000
340
16
340
233E2
 94
        0
  0
ACAD_PROXY_OBJECT
  5
2442D
330
24424
100
AcDbProxyObject
 90
      499
 91
      587
 95
       25
 70
     0
 93
      823
310
5DC0B00000000000002880959E9E29A2A1AA24A7A72FA620A122A62FA324A929AA1F169E29A2A1AA24A7A72FA620A122A62FA620A9AA1F000000000000048803FFFE01C00030C0088C0380006180000000000000048800000000000000A2000000000000002880
340
652
340
233E2
 94
        0
  0
ACAD_PROXY_OBJECT
  5
2442E
330
24424
100
AcDbProxyObject
 90
      499
 91
      588
 95
       25
 70
     0
 93
      152
310
5DE80000000000000840A3D0A5723F0BD1F200
  0
ACAD_PROXY_OBJECT
  5
2442F
330
24424
100
AcDbProxyObject
 90
      499
 91
      589
 95
       25
 70
     0
 93
       14
310
5DE0
340
0
 94
        0
  0
ACAD_PROXY_OBJECT
  5
24430
330
24424
100
AcDbProxyObject
 90
      499
 91
      590
 95
       25
 70
     0
 93
     8619
310
5DD084050BA4050AA405024050E836583938376838C815B836720314043A013D2525633C486F6C653A63746469613E2078203C486F6C653A637464657074683E20555C503C696628657175616C28486F6C653A7461707065642C223022292C22252563222C486F6C653A6E6F6D696E616C202220782022293E3C6966286571
310
75616C28486F6C653A7461707065642C223022292C486F6C653A6469612C486F6C653A706974636864657363293E3C696628657175616C28486F6C653A7461707065642C223122292C22207820222C2222293E3C696628657175616C28486F6C653A7461707065642C223122292C486F6C653A74617064657074682C222229
310
3E203C696628657175616C28486F6C653A7465726D696E6174696F6E2C223022292C22202F20222C2222293E3C696628657175616C28486F6C653A7465726D696E6174696F6E2C223022292C486F6C653A64657074682C2222293E406901405034050E836583938376838C815B836720314043B013D2525633C486F6C653A6
310
3746469613E2078203C486F6C653A6374616E676C653E2525645C503C696628657175616C28486F6C653A7461707065642C223022292C22252563222C486F6C653A6E6F6D696E616C202220782022293E3C696628657175616C28486F6C653A7461707065642C223022292C486F6C653A6469612C486F6C653A70697463686
310
4657363293E3C696628657175616C28486F6C653A7461707065642C223122292C22207820222C2222293E3C696628657175616C28486F6C653A7461707065642C223122292C486F6C653A74617064657074682C2222293E203C696628657175616C28486F6C653A7465726D696E6174696F6E2C223022292C22202F20222C2
310
222293E3C696628657175616C28486F6C653A7465726D696E6174696F6E2C223022292C486F6C653A64657074682C2222293E406901405014050E836583938376838C815B8367203140416013D3C696628657175616C28486F6C653A7461707065642C223022292C22252563222C486F6C653A6E6F6D696E616C2022207820
310
22293E3C696628657175616C28486F6C653A7461707065642C223022292C486F6C653A6469612C486F6C653A706974636864657363293E3C696628657175616C28486F6C653A7461707065642C223122292C22207820222C2222293E3C696628657175616C28486F6C653A7461707065642C223122292C486F6C653A746170
310
64657074682C2222293E203C696628657175616C28486F6C653A7465726D696E6174696F6E2C223022292C22202F20222C2222293E3C696628657175616C28486F6C653A7465726D696E6174696F6E2C223022292C486F6C653A64657074682C2222293E4069014051E4090E836583938376838C815B83672032405173D3C5
310
35444503A444553433E203C535444503A5354443E40690E836583938376838C815B836720314050C3D3C535444503A444553433E40690240515AAABBA120
360
24431
330
24431
360
24432
330
24432
360
24433
330
24433
360
24434
360
24435
330
24434
330
24435
 94
        0
  0
ACAD_PROXY_OBJECT
  5
24436
330
24424
100
AcDbProxyObject
 90
      499
 91
      569
 95
       25
 70
     0
 93
       26
310
5DD02A80
340
0
 94
        0
  0
ACAD_PROXY_OBJECT
  5
24437
330
24424
100
AcDbProxyObject
 90
      499
 91
      570
 95
       25
 70
     0
 93
      250
310
5DD020000000000000A1000000000000002440408F0F9023C3E409A0DCFFFF80
340
233E4
340
0
340
0
340
233E5
340
233E6
340
233E7
340
233E8
340
233E9
340
233EA
340
0
 94
        0
  0
ACAD_PROXY_OBJECT
  5
24438
330
24424
100
AcDbProxyObject
 90
      499
 91
      591
 95
       25
 70
     0
 93
    13889
310
5DD1D003FFFFFFFD030300030000000000000310200800030C01030300030000000000000310200800030C00050C8DC0955782CC838A83588367014ED1D15395149050D3CB1294138B0C0B23702555E0B320E2A0D620D9CB11D15395149055160B095CCB0A11D1539354D1C819D95B991A5B5E880CCC0A78000C0000000000
310
00000000000000000000010000000000000310200800030C010000000000000310200800030C020143CF4F111959985D5B1D151A5D1B194F8050A8C8A8365815B8375838B014E51D15395149050D3CB1294138B0C0B2322A0D96056E0DD60E2CB11D15395149055160B095CCB0A11D1539354D1C819D95B991A5B5E880CCC4
310
A78000C000000000000000000000000000000010000000000000310200800030C010000000000000310200800030C020143CF4F111959985D5B1D151A5D1B194F90D44111409034110541D0C4350F4050E44D03449074510F000141232D24D7C053247454E545241434F2C4A504E2C302C8CB4935F2C47454E54524154582C
310
25732C2847454E4D53472067656E64696D7A20312900010104002214000281464500A608E8A9CA8A482869E5894A09C5860591914588E8A9CA8A482A8B0584AE658508E8A9C9AA68E40CECADCC8D2DAF4406452029E9E9E27B934B3B4B71F1E24A31427A91424A9A12620A7259427B934B3B4B7149624A9A12620A7259424B
310
A32B6949496111116111711149F1E24BA32B69F00808200111A000140560052F47454E545241434F2C4A504E2C302C582C47454E54524154582C25732C2847454E4D53472067656E64696D7A20332900010100002054000280AC80A5E8E8A9CA8A482869E5894A09C586058B2588E8A9CA8A482A8B0584AE658508E8A9C9AA
310
68E40CECADCC8D2DAF4406852000202000040E800050152014BD1D15395149050D3CB1294138B0C0B148B11D15395149055160B095CCB0A11D1539354D1C819D95B991A5B5E880D8A400040400008250000A0507A6029823A2A72A2920A1A79625282716181641E99623A2A72A2920AA2C1612B9961423A2A726A9A39033B2
310
B73234B6BD101B948000808180105A000140A0F4C053047454E545241434F2C4A504E2C302C83D32C47454E54524154582C25732C2847454E4D53472067656E64696D7A203829000101010020F400028248704B5F00A668E8A9CA8A482869E5894A09C58605921C12D7C588E8A9CA8A482A8B0584AE658508E8A9C9AA68E40
310
CECADCC8D2DAF440646052000200080043280005048B4B8A69014CD1D15395149050D3CB1294138B0C0B22D2E29A4B11D15395149055160B095CCB0A11D1539354D1C819D95B991A5B5E880C8C4A4000400100086D0000A09196926BE029923A2A72A2920A1A796252827161816465A49AF9623A2A72A2920AA2C1612B9961
310
423A2A726A9A39033B2B73234B6BD10189480A02620202080043E80005048D8096DA014CD1D15395149050D3CB1294138B0C0B236025B68B11D15395149055160B095CCB0A11D1539354D1C819D95B991A5B5E880C4D0A4000404140280D0000A190687072706CD06C5069D06B0029DA3A2A72A2920A1A7962528271618164
310
1A1C1C9C1B341B141A741AC1623A2A72A2920AA2C1612B9961423A2A726A9A39033B2B73234B6BD10189A94800080828050EA000143A322A0D0E0E4E0D9A0D8A0D3A0D60053D47454E545241434F2C4A504E2C302C8C8A8343839383668362834E83582C47454E54524154582C25732C2847454E4D53472067656E64696D7A
310
2031372900010105002274000281464500A628E8A9CA8A482869E5894A09C5860591914588E8A9CA8A482A8B0584AE658508E8A9C9AA68E40CECADCC8D2DAF440626C52000202080044A8000504909497CA014CD1D15395149050D3CB1294138B0C0B242525F28B11D15395149055160B095CCB0A11D1539354D1C819D95B9
310
91A5B5E880C4E4A400040418008A521E000000000000001CA040C00000000000034408080000000000006881010000000000000D102040000000000001A204080000000000003440818000000000000728103000000000000125020600000000004028A040000000000000034408000000000000004881000000000000000D
310
102000000000000001A204000000000000003440818000000000000508143C0000000000000039408180000000000006881030000000000000D102060000000000001A2040C00000000000034408180000000000006881030000000000000E5020600000000000024A040C0000000000805140800000000000000688100000
310
00000000009102000000000000001A2040000000000000034408180000000000006881030000000000000A10284220000000878000002020000008380000020400000081800000208000000828000002028900000000
340
0
340
0
340
0
340
0
340
233E2
340
233E2
 94
        0
  0
ACAD_PROXY_OBJECT
  5
24439
330
24424
100
AcDbProxyObject
 90
      499
 91
      562
 95
       25
 70
     0
 93
     7018
310
5DD9740D254D3D0649534F5F4133429254D3D7D5125513115051349534F5F42525F5265766973696F6E6C69737446111413478342028323937783834316D6D2920421254D3D7D04D1E0D11141327835202835393478323130326D6D29421254D3D7D04C9E0D51141337837202834323078323038306D6D29421254D3D7D04C
310
DE0DD1141347839202832393778313839326D6D29421254D3D7D04D1E0E50E41312028353934783834316D6D29419254D3D7D04C51141327834202835393478313638326D6D29421254D3D7D04C9E0D11141347838202832393778313638326D6D29421254D3D7D04D1E0E10E41332028323937783432306D6D29419254D3D
310
7D04CD104130202838343078313138396D6D2920419254D3D7D04C11141347835202832393778313035316D6D29421254D3D7D04D1E0D51141347836202832393778313236316D6D29421254D3D7D04D1E0D91141347837202832393778313437316D6D29421254D3D7D04D1E0DD1141327833202835393478313236316D6D
310
29421254D3D7D04C9E0CD1141337834202834323078313138396D6D29421254D3D7D04CDE0D110413478332028323937783633306D6D29421254D3D7D04D1E0CD1141337835202834323078313438366D6D29421254D3D7D04CDE0D51141337836202834323078313738336D6D29421254D3D7D04CDE0D9104133783320283
310
43230783839316D6D29421254D3D7D04CDE0CD0E41322028343230783539346D6D29419254D3D7D04C9124130783220283131383978313638326D6D29421254D3D7D04C1E0C90E41342028323937783231306D6D29419254D3D7D04D1124130783320283131383978323532336D6D29421254D3D7D04C1E0CD114131783420
310
2838343178323337386D6D29421254D3D7D04C5E0D11141317833202838343178313738336D6D29421254D3D7D04C5E0CD02431254D3C82557247A25E4C81050A49534F5F5449544C4541431254D3C82557247A25E4C81090A49534F5F5449544C45424110E979A97F0838A835883675F42525F44D254D3D7D09497D4995D9
310
A5CDA5BDB9B1A5CDD10E979A97F0838A835883675F54525F44D254D3D7D51497D4995D9A5CDA5BDB9B1A5CDD10E979A97F0838A835883675F424C5F44D254D3D7D09317D4995D9A5CDA5BDB9B1A5CDD10E979A97F0838A835883675F544C5F44D254D3D7D51317D4995D9A5CDA5BDB9B1A5CDD00
  0
ACAD_PROXY_OBJECT
  5
181
330
17F
100
AcDbProxyObject
 90
      499
 91
      527
 95
       25
 70
     0
 93
       86
310
5DEA0C80A0280A0280A034
  0
ACAD_PROXY_OBJECT
  5
182
330
17F
100
AcDbProxyObject
 90
      499
 91
      528
 95
       25
 70
     0
 93
      282
310
5DD0E4050140501405014050140501405014050141101405014041000000000000001000
340
187
 94
        0
  0
ACAD_PROXY_OBJECT
  5
183
330
17F
100
AcDbProxyObject
 90
      499
 91
      529
 95
       25
 70
     0
 93
      323
310
5DCC199999999999E99F91740501405014050140501405014050140501405014050140501405014040
340
0
 94
        0
  0
ACAD_PROXY_OBJECT
  5
184
330
17F
100
AcDbProxyObject
 90
      499
 91
      530
 95
       25
 70
     0
 93
       10
310
5DC0
  0
ACAD_PROXY_OBJECT
  5
185
330
17F
100
AcDbProxyObject
 90
      499
 91
      531
 95
       25
 70
     0
 93
      257
310
5DE0C16A22A7D90F49F80000000000001081400000000000004204010000618000
340
188
340
189
 94
        0
  0
ACAD_PROXY_OBJECT
  5
186
330
17F
100
AcDbProxyObject
 90
      499
 91
      532
 95
       25
 70
     0
 93
     5277
310
5DD06411255115350141236025B6901405014069010000000000000910240690120281A8AA2CA0282484A4BE52028120280A032020000000000001220480D202405044E414D454050496BC914F4051C40640A80000000000004E4090193C3D3C4946284953424C414E4B28504152543A4E414D45292C424C4F434B3A4E414D
310
452C504152543A4E414D45293E3C41435F44455343524950544E3E40480A109A82A88AA492829880A091BBD2F7E80A3A80C81D0E27A15AF46E08A81203480901411393D5115014124A363B7D0147501904A0000000000000F902406428F4F1050D7D393D5114F901202832B22A72227A92028366EF6EE06F582028EA0320B4
310
0000000000001F20480C879E9E20A1AFAB27222FA620A122A61F20240506445020000000000000490201C00030C00010180000000000003E400000000000000F901073D3C4954454D3E4050180000000000003E400000000000000F901073D3C4954454D3E40501800000000000034400000000000000D101073D3C4954454
310
D3E40501800000000000034400000000000000D101073D3C4954454D3E405029010000000000000F9000000000000003E4041CF4F125511534F901418F4F1455164F9014060000000000000F9000000000000003E4041CF4F125511534F901800000000000034400000000000000D101073D3C4954454D3E40640400000000
310
0000003E400000000000000F90288800000000000020810000001800120881A068120480A032208521122080D21480D211480A1485214852050000000000003C2FC000000000000F0BF40600800030C0200400030C00CDCCCCCCCCCCEC3F3373333333333B0FC3333333333330940C80D069014090341504901A1999999999
310
9984A040100006180400800061804010000618008098A02808
340
0
340
0
 94
        0
  0
ACAD_PROXY_OBJECT
  5
23323
330
17F
100
AcDbProxyObject
 90
      499
 91
      562
 95
       25
 70
     0
 93
     3042
310
5DD9740D29254D064A49535F413342929254D7D512551311505134A49535F42525F5265766973696F6E6C6973744190F4134522028323937783231306D6D2941D29254D7D04D1490E41312028353934783834316D6D2941929254D7D04C50E41332028323937783432306D6D2941929254D7D04CD0F41344C2028323130783
310
239376D6D2941D29254D7D04D1310E41322028343230783539346D6D2941929254D7D04C90F4130202838343178313138396D6D2941929254D7D04C10243129254C82557247A25E4C81050A4A49535F5449544C454143129254C82557247A25E4C81090A4A49535F5449544C45424110E979A97F0838A835883675F42525F4
310
4D29254D7D09497D4995D9A5CDA5BDB9B1A5CDD10E979A97F0838A835883675F54525F44D29254D7D51497D4995D9A5CDA5BDB9B1A5CDD10E979A97F0838A835883675F424C5F44D29254D7D09317D4995D9A5CDA5BDB9B1A5CDD10E979A97F0838A835883675F544C5F44D29254D7D51317D4995D9A5CDA5BDB9B1A5CDD00
  0
ACAD_PROXY_OBJECT
  5
23324
330
17F
100
AcDbProxyObject
 90
      499
 91
      563
 95
       25
 70
     0
 93
      898
310
5DC4000000000000124048CF4F11115510525317D3105091530F880A0F11115510525317D05094D4D0D053114F8A50241C9A9999999999B93F26A666666666724FC000000000000E03F400000000000000400000000000000510000000000000024408070000C300000000000000049000
340
16
340
180
 94
        0
  0
ACAD_PROXY_OBJECT
  5
23325
330
17F
100
AcDbProxyObject
 90
      499
 91
      564
 95
       25
 70
     0
 93
      823
310
5DC0B00000000000002480959E9E29A2A1AA24A7A72FA620A122A62FA324A929AA1F169E29A2A1AA24A7A72FA620A122A62FA620A9AA1F000000000000048803FFFE01C00030C008140380006180000000000000048800000000000000A2000000000000002480
340
652
340
180
 94
        0
  0
ACAD_PROXY_OBJECT
  5
23327
330
17F
100
AcDbProxyObject
 90
      499
 91
      565
 95
       25
 70
     0
 93
      152
310
5DE8273108AC1C5A0640A3D0A5723F0BD1F200
  0
ACAD_PROXY_OBJECT
  5
23328
330
17F
100
AcDbProxyObject
 90
      499
 91
      566
 95
       25
 70
     0
 93
       14
310
5DE0
340
0
 94
        0
  0
ACAD_PROXY_OBJECT
  5
23329
330
17F
100
AcDbProxyObject
 90
      499
 91
      567
 95
       25
 70
     0
 93
     6059
310
5DD084050BA4050AA405024050E836583938376838C815B83672031405983D3C486F6C653A6469613E3C696628657175616C28486F6C653A7465726D696E6174696F6E2C223022292C2220905B82B320222C22208368838A838B22293E3C696628657175616C28486F6C653A7465726D696E6174696F6E2C223022292C486F
310
6C653A64657074682C2222293E2C203C486F6C653A63746469613E2082B482AE82E882CC905B82B3203C486F6C653A637464657074683E406901405034050E836583938376838C815B83672031405EF3D3C486F6C653A6374616E676C653E252564202525633C486F6C653A63746469613E208E4D8C8A2C203C69662865717
310
5616C28486F6C653A7461707065642C223022292C22252563222C486F6C653A6E6F6D696E616C202220782022293E3C696628657175616C28486F6C653A7461707065642C223022292C486F6C653A6469612C486F6C653A706974636864657363293E203C696628657175616C28486F6C653A7465726D696E6174696F6E2C2
310
23022292C22905B82B320222C222022293E3C696628657175616C28486F6C653A7465726D696E6174696F6E2C223022292C486F6C653A64657074682C2222293E406901405014050E836583938376838C815B83672031405C73D3C696628657175616C28486F6C653A7461707065642C223022292C22252563222C486F6C65
310
3A6E6F6D696E616C202220782022293E3C696628657175616C28486F6C653A7461707065642C223022292C486F6C653A6469612C486F6C653A706974636864657363293E203C696628657175616C28486F6C653A7465726D696E6174696F6E2C223022292C22905B82B320222C222022293E3C696628657175616C28486F6C
310
653A7465726D696E6174696F6E2C223022292C486F6C653A64657074682C2222293E4069014051E4090E836583938376838C815B83672032405173D3C535444503A444553433E203C535444503A5354443E40690E836583938376838C815B836720314050C3D3C535444503A444553433E40690240515AAABBA120
360
2332D
330
2332D
360
2332E
330
2332E
360
2332C
330
2332C
360
2332B
360
2332A
330
2332B
330
2332A
 94
        0
  0
ACAD_PROXY_OBJECT
  5
2332F
330
17F
100
AcDbProxyObject
 90
      499
 91
      569
 95
       25
 70
     0
 93
       26
310
5DD02A80
340
42
 94
        0
  0
ACAD_PROXY_OBJECT
  5
23330
330
17F
100
AcDbProxyObject
 90
      499
 91
      570
 95
       25
 70
     0
 93
      250
310
5DD020000000000000A1000000000000002440408F0F9023C3E409A0DCFFFF80
340
58
340
18A8
340
18A9
340
5F
340
60
340
61
340
62
340
63
340
68
340
0
 94
        0
  0
ACAD_PROXY_OBJECT
  5
23331
330
17F
100
AcDbProxyObject
 90
      499
 91
      571
 95
       25
 70
     0
 93
    13889
310
5DD1D003FFFFFFFD030300030CCCCCCCCCCCC250200800030C01030300030CCCCCCCCCCCC250200800030C00050C8DC0955782CC838A83588367014ED1D15395149050D3CB1294138B0C0B23702555E0B320E2A0D620D9CB11D15395149055160B095CCB0A11D1539354D1C819D95B991A5B5E880CCC0A78000C0000000000
310
00000000000000000000010CCCCCCCCCCCC250200800030C010CCCCCCCCCCCC250200800030C020143CF4F111959985D5B1D151A5D1B194F8050A8C8A8365815B8375838B014E51D15395149050D3CB1294138B0C0B2322A0D96056E0DD60E2CB11D15395149055160B095CCB0A11D1539354D1C819D95B991A5B5E880CCC4
310
A78000C000000000000000000000000000000010CCCCCCCCCCCC250200800030C010CCCCCCCCCCCC250200800030C020143CF4F111959985D5B1D151A5D1B194F90D44111409034110541D0C4350F4050E44D03449074510F000141232D24D7C053247454E545241434F2C4A504E2C302C8CB4935F2C47454E54524154582C
310
25732C2847454E4D53472067656E64696D7A20312900010104002214000281464500A608E8A9CA8A482869E5894A09C5860591914588E8A9CA8A482A8B0584AE658508E8A9C9AA68E40CECADCC8D2DAF4406452029E9E9E27B934B3B4B71F1E24A31427A91424A9A12620A7259427B934B3B4B7149624A9A12620A7259424B
310
A32B6949496111116111711149F1E24BA32B69F00808200111A000140560052F47454E545241434F2C4A504E2C302C582C47454E54524154582C25732C2847454E4D53472067656E64696D7A20332900010100002054000280AC80A5E8E8A9CA8A482869E5894A09C586058B2588E8A9CA8A482A8B0584AE658508E8A9C9AA
310
68E40CECADCC8D2DAF4406852000202000040E800050152014BD1D15395149050D3CB1294138B0C0B148B11D15395149055160B095CCB0A11D1539354D1C819D95B991A5B5E880D8A400040400008250000A0507A6029823A2A72A2920A1A79625282716181641E99623A2A72A2920AA2C1612B9961423A2A726A9A39033B2
310
B73234B6BD101B948000808180105A000140A0F4C053047454E545241434F2C4A504E2C302C83D32C47454E54524154582C25732C2847454E4D53472067656E64696D7A203829000101010020F400028248704B5F00A668E8A9CA8A482869E5894A09C58605921C12D7C588E8A9CA8A482A8B0584AE658508E8A9C9AA68E40
310
CECADCC8D2DAF440646052000200080043280005048B4B8A69014CD1D15395149050D3CB1294138B0C0B22D2E29A4B11D15395149055160B095CCB0A11D1539354D1C819D95B991A5B5E880C8C4A4000400100086D0000A09196926BE029923A2A72A2920A1A796252827161816465A49AF9623A2A72A2920AA2C1612B9961
310
423A2A726A9A39033B2B73234B6BD10189480A02620202080043E80005048D8096DA014CD1D15395149050D3CB1294138B0C0B236025B68B11D15395149055160B095CCB0A11D1539354D1C819D95B991A5B5E880C4D0A4000404140280D0000A190687072706CD06C5069D06B0029DA3A2A72A2920A1A7962528271618164
310
1A1C1C9C1B341B141A741AC1623A2A72A2920AA2C1612B9961423A2A726A9A39033B2B73234B6BD10189A94800080820050EA000143A322A0D0E0E4E0D9A0D8A0D3A0D60053D47454E545241434F2C4A504E2C302C8C8A8343839383668362834E83582C47454E54524154582C25732C2847454E4D53472067656E64696D7A
310
2031372900010105002274000281464500A628E8A9CA8A482869E5894A09C5860591914588E8A9CA8A482A8B0584AE658508E8A9C9AA68E40CECADCC8D2DAF440626C52000202080044A8000504909497CA014CD1D15395149050D3CB1294138B0C0B242525F28B11D15395149055160B095CCB0A11D1539354D1C819D95B9
310
91A5B5E880C4E4A400040418008A521E000000000000001CA040C00000000000034408080000000000006881010000000000000D102040000000000001A204080000000000003440818000000000000728103000000000000125020600000000004028A040000000000000034408000000000000004881000000000000000D
310
102000000000000001A204000000000000003440818000000000000508143C0000000000000039408180000000000006881030000000000000D102060000000000001A2040C00000000000034408180000000000006881030000000000000E5020600000000000024A040C0000000000805140800000000000000688100000
310
00000000009102000000000000001A2040000000000000034408180000000000006881030000000000000A10284220000000878000002020000008380000020400000081800000208000000828000002028900000000
340
0
340
0
340
0
340
0
340
180
340
180
 94
        0
  0
ACAD_PROXY_OBJECT
  5
24431
330
24430
100
AcDbProxyObject
 90
      499
 91
      568
 95
       25
 70
     0
 93
     2680
310
5DE0143A0D960E4E0DDA0E32056E0D9C80C4043A013D2525633C486F6C653A63746469613E2078203C486F6C653A637464657074683E20555C503C696628657175616C28486F6C653A7461707065642C223022292C22252563222C486F6C653A6E6F6D696E616C202220782022293E3C696628657175616C28486F6C653A74
310
61707065642C223022292C486F6C653A6469612C486F6C653A706974636864657363293E3C696628657175616C28486F6C653A7461707065642C223122292C22207820222C2222293E3C696628657175616C28486F6C653A7461707065642C223122292C486F6C653A74617064657074682C2222293E203C69662865717561
310
6C28486F6C653A7465726D696E6174696F6E2C223022292C22202F20222C2222293E3C696628657175616C28486F6C653A7465726D696E6174696F6E2C223022292C486F6C653A64657074682C2222293E
  0
ACAD_PROXY_OBJECT
  5
24432
330
24430
100
AcDbProxyObject
 90
      499
 91
      568
 95
       25
 70
     0
 93
     2688
310
5DE0143A0D960E4E0DDA0E32056E0D9C80C4043B013D2525633C486F6C653A63746469613E2078203C486F6C653A6374616E676C653E2525645C503C696628657175616C28486F6C653A7461707065642C223022292C22252563222C486F6C653A6E6F6D696E616C202220782022293E3C696628657175616C28486F6C653A
310
7461707065642C223022292C486F6C653A6469612C486F6C653A706974636864657363293E3C696628657175616C28486F6C653A7461707065642C223122292C22207820222C2222293E3C696628657175616C28486F6C653A7461707065642C223122292C486F6C653A74617064657074682C2222293E203C696628657175
310
616C28486F6C653A7465726D696E6174696F6E2C223022292C22202F20222C2222293E3C696628657175616C28486F6C653A7465726D696E6174696F6E2C223022292C486F6C653A64657074682C2222293E
  0
ACAD_PROXY_OBJECT
  5
24433
330
24430
100
AcDbProxyObject
 90
      499
 91
      568
 95
       25
 70
     0
 93
     2392
310
5DE0143A0D960E4E0DDA0E32056E0D9C80C40416013D3C696628657175616C28486F6C653A7461707065642C223022292C22252563222C486F6C653A6E6F6D696E616C202220782022293E3C696628657175616C28486F6C653A7461707065642C223022292C486F6C653A6469612C486F6C653A706974636864657363293E
310
3C696628657175616C28486F6C653A7461707065642C223122292C22207820222C2222293E3C696628657175616C28486F6C653A7461707065642C223122292C486F6C653A74617064657074682C2222293E203C696628657175616C28486F6C653A7465726D696E6174696F6E2C223022292C22202F20222C2222293E3C69
310
6628657175616C28486F6C653A7465726D696E6174696F6E2C223022292C486F6C653A64657074682C2222293E
  0
ACAD_PROXY_OBJECT
  5
24434
330
24430
100
AcDbProxyObject
 90
      499
 91
      568
 95
       25
 70
     0
 93
      344
310
5DE0143A0D960E4E0DDA0E32056E0D9C80C805173D3C535444503A444553433E203C535444503A5354443E
  0
ACAD_PROXY_OBJECT
  5
24435
330
24430
100
AcDbProxyObject
 90
      499
 91
      568
 95
       25
 70
     0
 93
      256
310
5DE0143A0D960E4E0DDA0E32056E0D9C80C4050C3D3C535444503A444553433E
  0
ACAD_PROXY_OBJECT
  5
2332D
330
23329
100
AcDbProxyObject
 90
      499
 91
      568
 95
       25
 70
     0
 93
     1376
310
5DE0143A0D960E4E0DDA0E32056E0D9C80C405983D3C486F6C653A6469613E3C696628657175616C28486F6C653A7465726D696E6174696F6E2C223022292C2220905B82B320222C22208368838A838B22293E3C696628657175616C28486F6C653A7465726D696E6174696F6E2C223022292C486F6C653A64657074682C22
310
22293E2C203C486F6C653A63746469613E2082B482AE82E882CC905B82B3203C486F6C653A637464657074683E
  0
ACAD_PROXY_OBJECT
  5
2332E
330
23329
100
AcDbProxyObject
 90
      499
 91
      568
 95
       25
 70
     0
 93
     2072
310
5DE0143A0D960E4E0DDA0E32056E0D9C80C405EF3D3C486F6C653A6374616E676C653E252564202525633C486F6C653A63746469613E208E4D8C8A2C203C696628657175616C28486F6C653A7461707065642C223022292C22252563222C486F6C653A6E6F6D696E616C202220782022293E3C696628657175616C28486F6C
310
653A7461707065642C223022292C486F6C653A6469612C486F6C653A706974636864657363293E203C696628657175616C28486F6C653A7465726D696E6174696F6E2C223022292C22905B82B320222C222022293E3C696628657175616C28486F6C653A7465726D696E6174696F6E2C223022292C486F6C653A6465707468
310
2C2222293E
  0
ACAD_PROXY_OBJECT
  5
2332C
330
23329
100
AcDbProxyObject
 90
      499
 91
      568
 95
       25
 70
     0
 93
     1752
310
5DE0143A0D960E4E0DDA0E32056E0D9C80C405C73D3C696628657175616C28486F6C653A7461707065642C223022292C22252563222C486F6C653A6E6F6D696E616C202220782022293E3C696628657175616C28486F6C653A7461707065642C223022292C486F6C653A6469612C486F6C653A706974636864657363293E20
310
3C696628657175616C28486F6C653A7465726D696E6174696F6E2C223022292C22905B82B320222C222022293E3C696628657175616C28486F6C653A7465726D696E6174696F6E2C223022292C486F6C653A64657074682C2222293E
  0
ACAD_PROXY_OBJECT
  5
2332B
330
23329
100
AcDbProxyObject
 90
      499
 91
      568
 95
       25
 70
     0
 93
      344
310
5DE0143A0D960E4E0DDA0E32056E0D9C80C805173D3C535444503A444553433E203C535444503A5354443E
  0
ACAD_PROXY_OBJECT
  5
2332A
330
23329
100
AcDbProxyObject
 90
      499
 91
      568
 95
       25
 70
     0
 93
      256
310
5DE0143A0D960E4E0DDA0E32056E0D9C80C4050C3D3C535444503A444553433E
  0
ENDSEC
  0
EOF
