  0
SECTION
  2
HEADER
  9
$ACADVER
  1
AC1014
  9
$ACADMAINTVER
 70
     0
  9
$DWGCODEPAGE
  3
ANSI_932
  9
$INSBASE
 10
0.0
 20
0.0
 30
0.0
  9
$EXTMIN
 10
-63.004716
 20
-77.16565
 30
0.0
  9
$EXTMAX
 10
102.777927
 20
21.669078
 30
30.0
  9
$LIMMIN
 10
-93.637999
 20
-97.891476
  9
$LIMMAX
 10
173.986154
 20
45.525355
  9
$ORTHOMODE
 70
     0
  9
$REGENMODE
 70
     1
  9
$FILLMODE
 70
     1
  9
$QTEXTMODE
 70
     0
  9
$MIRRTEXT
 70
     1
  9
$DRAGMODE
 70
     2
  9
$LTSCALE
 40
1.0
  9
$OSMODE
 70
    33
  9
$ATTMODE
 70
     1
  9
$TEXTSIZE
 40
0.2
  9
$TRACEWID
 40
0.05
  9
$TEXTSTYLE
  7
STANDARD
  9
$CLAYER
  8
寸法
  9
$CELTYPE
  6
CONTINUOUS
  9
$CECOLOR
 62
   256
  9
$CELTSCALE
 40
1.0
  9
$DELOBJ
 70
     1
  9
$DISPSILH
 70
     0
  9
$DIMSCALE
 40
1.0
  9
$DIMASZ
 40
2.0
  9
$DIMEXO
 40
1.0
  9
$DIMDLI
 40
10.0
  9
$DIMRND
 40
0.0
  9
$DIMDLE
 40
0.0
  9
$DIMEXE
 40
1.0
  9
$DIMTP
 40
0.0
  9
$DIMTM
 40
0.0
  9
$DIMTXT
 40
3.0
  9
$DIMCEN
 40
2.0
  9
$DIMTSZ
 40
0.0
  9
$DIMTOL
 70
     0
  9
$DIMLIM
 70
     0
  9
$DIMTIH
 70
     0
  9
$DIMTOH
 70
     0
  9
$DIMSE1
 70
     0
  9
$DIMSE2
 70
     0
  9
$DIMTAD
 70
     1
  9
$DIMZIN
 70
     8
  9
$DIMBLK
  1
OPEN30
  9
$DIMASO
 70
     1
  9
$DIMSHO
 70
     1
  9
$DIMPOST
  1

  9
$DIMAPOST
  1

  9
$DIMALT
 70
     0
  9
$DIMALTD
 70
     2
  9
$DIMALTF
 40
25.4
  9
$DIMLFAC
 40
1.0
  9
$DIMTOFL
 70
     1
  9
$DIMTVP
 40
0.0
  9
$DIMTIX
 70
     0
  9
$DIMSOXD
 70
     0
  9
$DIMSAH
 70
     0
  9
$DIMBLK1
  1

  9
$DIMBLK2
  1

  9
$DIMSTYLE
  2
STANDARD
  9
$DIMCLRD
 70
     1
  9
$DIMCLRE
 70
     1
  9
$DIMCLRT
 70
     1
  9
$DIMTFAC
 40
1.0
  9
$DIMGAP
 40
1.0
  9
$DIMJUST
 70
     0
  9
$DIMSD1
 70
     0
  9
$DIMSD2
 70
     0
  9
$DIMTOLJ
 70
     1
  9
$DIMTZIN
 70
     0
  9
$DIMALTZ
 70
     0
  9
$DIMALTTZ
 70
     0
  9
$DIMFIT
 70
     3
  9
$DIMUPT
 70
     0
  9
$DIMUNIT
 70
     2
  9
$DIMDEC
 70
     2
  9
$DIMTDEC
 70
     2
  9
$DIMALTU
 70
     2
  9
$DIMALTTD
 70
     2
  9
$DIMTXSTY
  7
STANDARD
  9
$DIMAUNIT
 70
     0
  9
$LUNITS
 70
     2
  9
$LUPREC
 70
     4
  9
$SKETCHINC
 40
0.1
  9
$FILLETRAD
 40
0.0
  9
$AUNITS
 70
     0
  9
$AUPREC
 70
     0
  9
$MENU
  1
acad
  9
$ELEVATION
 40
0.0
  9
$PELEVATION
 40
0.0
  9
$THICKNESS
 40
0.0
  9
$LIMCHECK
 70
     0
  9
$BLIPMODE
 70
     0
  9
$CHAMFERA
 40
0.0
  9
$CHAMFERB
 40
0.0
  9
$CHAMFERC
 40
0.0
  9
$CHAMFERD
 40
0.0
  9
$SKPOLY
 70
     0
  9
$TDCREATE
 40
2444972.375000000
  9
$TDUPDATE
 40
2451977.440995370
  9
$TDINDWG
 40
0.0608380787
  9
$TDUSRTIMER
 40
0.0608380787
  9
$USRTIMER
 70
     1
  9
$ANGBASE
 50
0.0
  9
$ANGDIR
 70
     0
  9
$PDMODE
 70
     0
  9
$PDSIZE
 40
0.0
  9
$PLINEWID
 40
0.0
  9
$COORDS
 70
     1
  9
$SPLFRAME
 70
     0
  9
$SPLINETYPE
 70
     6
  9
$SPLINESEGS
 70
     8
  9
$ATTDIA
 70
     0
  9
$ATTREQ
 70
     1
  9
$HANDLING
 70
     1
  9
$HANDSEED
  5
425
  9
$SURFTAB1
 70
     6
  9
$SURFTAB2
 70
     6
  9
$SURFTYPE
 70
     6
  9
$SURFU
 70
     6
  9
$SURFV
 70
     6
  9
$UCSNAME
  2

  9
$UCSORG
 10
0.0
 20
0.0
 30
0.0
  9
$UCSXDIR
 10
1.0
 20
0.0
 30
0.0
  9
$UCSYDIR
 10
0.0
 20
1.0
 30
0.0
  9
$PUCSNAME
  2

  9
$PUCSORG
 10
0.0
 20
0.0
 30
0.0
  9
$PUCSXDIR
 10
1.0
 20
0.0
 30
0.0
  9
$PUCSYDIR
 10
0.0
 20
1.0
 30
0.0
  9
$USERI1
 70
     0
  9
$USERI2
 70
     0
  9
$USERI3
 70
     0
  9
$USERI4
 70
     0
  9
$USERI5
 70
     0
  9
$USERR1
 40
0.0
  9
$USERR2
 40
0.0
  9
$USERR3
 40
0.0
  9
$USERR4
 40
0.0
  9
$USERR5
 40
0.0
  9
$WORLDVIEW
 70
     1
  9
$SHADEDGE
 70
     3
  9
$SHADEDIF
 70
    70
  9
$TILEMODE
 70
     1
  9
$MAXACTVP
 70
    48
  9
$PINSBASE
 10
0.0
 20
0.0
 30
0.0
  9
$PLIMCHECK
 70
     0
  9
$PEXTMIN
 10
1.000000E+20
 20
1.000000E+20
 30
1.000000E+20
  9
$PEXTMAX
 10
-1.000000E+20
 20
-1.000000E+20
 30
-1.000000E+20
  9
$PLIMMIN
 10
0.0
 20
0.0
  9
$PLIMMAX
 10
12.0
 20
9.0
  9
$UNITMODE
 70
     0
  9
$VISRETAIN
 70
     1
  9
$PLINEGEN
 70
     0
  9
$PSLTSCALE
 70
     1
  9
$TREEDEPTH
 70
  3020
  9
$PICKSTYLE
 70
     1
  9
$CMLSTYLE
  2
STANDARD
  9
$CMLJUST
 70
     0
  9
$CMLSCALE
 40
1.0
  9
$PROXYGRAPHICS
 70
     1
  9
$MEASUREMENT
 70
     0
  0
ENDSEC
  0
SECTION
  2
CLASSES
  0
CLASS
  1
ACDBDICTIONARYWDFLT
  2
AcDbDictionaryWithDefault
  3
AutoCAD 2000
 90
        0
280
     0
281
     0
  0
CLASS
  1
ACDBPLACEHOLDER
  2
AcDbPlaceHolder
  3
AutoCAD 2000
 90
        0
280
     0
281
     0
  0
CLASS
  1
LAYOUT
  2
AcDbLayout
  3
AutoCAD 2000
 90
        0
280
     0
281
     0
  0
CLASS
  1
LONG_TRANSACTION
  2
AcDbLongTransaction
  3
AutoCAD 2000
 90
        0
280
     0
281
     0
  0
CLASS
  1
LWPOLYLINE
  2
AcDbPolyline
  3
"AutoCAD"
 90
        0
280
     0
281
     1
  0
CLASS
  1
HATCH
  2
AcDbHatch
  3
"ACAD_SEDONA"
 90
        0
280
     0
281
     1
  0
CLASS
  1
XRECORD
  2
AcDbXrecord
  3
"<Built In>"
 90
        0
280
     0
281
     0
  0
CLASS
  1
LONG_TRANSACTION
  2
AcDbLongTransaction
  3
AutoCAD 2000
 90
        0
280
     0
281
     0
  0
CLASS
  1
LWPOLYLINE
  2
AcDbPolyline
  3
"AutoCAD"
 90
        0
280
     0
281
     1
  0
CLASS
  1
HATCH
  2
AcDbHatch
  3
"ACAD_SEDONA"
 90
        0
280
     0
281
     1
  0
CLASS
  1
XRECORD
  2
AcDbXrecord
  3
"<Built In>"
 90
        0
280
     0
281
     0
  0
ENDSEC
  0
SECTION
  2
TABLES
  0
TABLE
  2
VPORT
  5
8
100
AcDbSymbolTable
 70
     2
  0
VPORT
  5
424
100
AcDbSymbolTableRecord
100
AcDbViewportTableRecord
  2
*ACTIVE
 70
     0
 10
0.0
 20
0.0
 11
1.0
 21
1.0
 12
14.742327
 22
-30.973193
 13
0.0
 23
0.0
 14
10.0
 24
10.0
 15
10.0
 25
10.0
 16
0.0
 26
0.0
 36
1.0
 17
0.0
 27
0.0
 37
0.0
 40
163.915929
 41
1.710425
 42
50.0
 43
0.0
 44
0.0
 50
0.0
 51
0.0
 71
     0
 72
   100
 73
     1
 74
     1
 75
     0
 76
     0
 77
     0
 78
     0
  0
ENDTAB
  0
TABLE
  2
LTYPE
  5
5
100
AcDbSymbolTable
 70
     5
  0
LTYPE
  5
12
100
AcDbSymbolTableRecord
100
AcDbLinetypeTableRecord
  2
BYBLOCK
 70
     0
  3

 72
    65
 73
     0
 40
0.0
  0
LTYPE
  5
13
100
AcDbSymbolTableRecord
100
AcDbLinetypeTableRecord
  2
BYLAYER
 70
     0
  3

 72
    65
 73
     0
 40
0.0
  0
LTYPE
  5
14
100
AcDbSymbolTableRecord
100
AcDbLinetypeTableRecord
  2
CONTINUOUS
 70
     0
  3
Solid line
 72
    65
 73
     0
 40
0.0
  0
LTYPE
  5
1F
100
AcDbSymbolTableRecord
100
AcDbLinetypeTableRecord
  2
DASHED
 70
     0
  3
__ __ __ __ __ __ __ __ __ __ __ __ __ __ __
 72
    65
 73
     2
 40
3.5
 49
2.0
 74
     0
 49
-1.5
 74
     0
  0
LTYPE
  5
20
100
AcDbSymbolTableRecord
100
AcDbLinetypeTableRecord
  2
CENTER
 70
     0
  3
____ _ ____ _ ____ _ ____ _ ____ _ ____ _ ____
 72
    65
 73
     4
 40
17.5
 49
13.0
 74
     0
 49
-1.5
 74
     0
 49
1.5
 74
     0
 49
-1.5
 74
     0
  0
LTYPE
  5
21
100
AcDbSymbolTableRecord
100
AcDbLinetypeTableRecord
  2
PHANTOM
 70
     0
  3
_____ _ _ _____ _ _ _____ _ _ _____ _ _ ____  
 72
    65
 73
     6
 40
15.5
 49
8.0
 74
     0
 49
-1.5
 74
     0
 49
1.5
 74
     0
 49
-1.5
 74
     0
 49
1.5
 74
     0
 49
-1.5
 74
     0
  0
LTYPE
  5
22
100
AcDbSymbolTableRecord
100
AcDbLinetypeTableRecord
  2
DOT
 70
     0
  3
. . . . . . . . . . . . . . . . . . . . . . . .
 72
    65
 73
     2
 40
0.25
 49
0.0
 74
     0
 49
-0.25
 74
     0
  0
ENDTAB
  0
TABLE
  2
LAYER
  5
2
100
AcDbSymbolTable
 70
     3
  0
LAYER
  5
E
100
AcDbSymbolTableRecord
100
AcDbLayerTableRecord
  2
0
 70
     0
 62
     7
  6
CONTINUOUS
  0
LAYER
  5
148
100
AcDbSymbolTableRecord
100
AcDbLayerTableRecord
  2
寸法
 70
     0
 62
     1
  6
CONTINUOUS
  0
LAYER
  5
152
102
{ACAD_XDICTIONARY
360
3D2
102
}
100
AcDbSymbolTableRecord
100
AcDbLayerTableRecord
  2
DEFPOINTS
 70
     0
 62
     7
  6
CONTINUOUS
  0
ENDTAB
  0
TABLE
  2
STYLE
  5
3
100
AcDbSymbolTable
 70
     1
  0
STYLE
  5
F
100
AcDbSymbolTableRecord
100
AcDbTextStyleTableRecord
  2
STANDARD
 70
     0
 40
0.0
 41
1.0
 50
0.0
 71
     0
 42
0.2
  3
txt
  4
BIGFONT
  0
ENDTAB
  0
TABLE
  2
VIEW
  5
6
100
AcDbSymbolTable
 70
     0
  0
ENDTAB
  0
TABLE
  2
UCS
  5
7
100
AcDbSymbolTable
 70
     0
  0
ENDTAB
  0
TABLE
  2
APPID
  5
9
100
AcDbSymbolTable
 70
     1
  0
APPID
  5
10
100
AcDbSymbolTableRecord
100
AcDbRegAppTableRecord
  2
ACAD
 70
     0
  0
ENDTAB
  0
TABLE
  2
DIMSTYLE
  5
A
100
AcDbSymbolTable
 70
     1
  0
DIMSTYLE
105
13A
102
{ACAD_XDICTIONARY
360
3F9
102
}
102
{ACAD_REACTORS
330
170
330
17F
330
18E
330
19B
330
1A8
330
1B5
330
1C2
330
1CF
330
1EE
330
21A
330
257
330
267
330
27D
330
2F1
102
}
100
AcDbSymbolTableRecord
100
AcDbDimStyleTableRecord
  2
STANDARD
 70
     0
  3

  4

  5
OPEN30
  6

  7

 40
1.0
 41
2.0
 42
1.0
 43
10.0
 44
1.0
 45
0.0
 46
0.0
 47
0.0
 48
0.0
140
3.0
141
2.0
142
0.0
143
25.4
144
1.0
145
0.0
146
1.0
147
1.0
 71
     0
 72
     0
 73
     0
 74
     0
 75
     0
 76
     0
 77
     1
 78
     8
170
     0
171
     2
172
     1
173
     0
174
     0
175
     0
176
     1
177
     1
178
     1
270
     2
271
     2
272
     2
273
     2
274
     2
340
F
275
     0
280
     0
281
     0
282
     0
283
     1
284
     0
285
     0
286
     0
287
     3
288
     0
  0
ENDTAB
  0
TABLE
  2
BLOCK_RECORD
  5
1
100
AcDbSymbolTable
 70
    15
  0
BLOCK_RECORD
  5
18
102
{ACAD_XDICTIONARY
360
3A8
102
}
100
AcDbSymbolTableRecord
100
AcDbBlockTableRecord
  2
*MODEL_SPACE
  0
BLOCK_RECORD
  5
15
102
{ACAD_XDICTIONARY
360
3A6
102
}
100
AcDbSymbolTableRecord
100
AcDbBlockTableRecord
  2
*PAPER_SPACE
  0
BLOCK_RECORD
  5
149
102
{ACAD_XDICTIONARY
360
3D0
102
}
100
AcDbSymbolTableRecord
100
AcDbBlockTableRecord
  2
_OPEN30
  0
BLOCK_RECORD
  5
171
100
AcDbSymbolTableRecord
100
AcDbBlockTableRecord
  2
*D1
  0
BLOCK_RECORD
  5
180
100
AcDbSymbolTableRecord
100
AcDbBlockTableRecord
  2
*D2
  0
BLOCK_RECORD
  5
18F
100
AcDbSymbolTableRecord
100
AcDbBlockTableRecord
  2
*D3
  0
BLOCK_RECORD
  5
19C
100
AcDbSymbolTableRecord
100
AcDbBlockTableRecord
  2
*D4
  0
BLOCK_RECORD
  5
1A9
100
AcDbSymbolTableRecord
100
AcDbBlockTableRecord
  2
*D5
  0
BLOCK_RECORD
  5
1B6
100
AcDbSymbolTableRecord
100
AcDbBlockTableRecord
  2
*D6
  0
BLOCK_RECORD
  5
1C3
100
AcDbSymbolTableRecord
100
AcDbBlockTableRecord
  2
*D7
  0
BLOCK_RECORD
  5
1D0
100
AcDbSymbolTableRecord
100
AcDbBlockTableRecord
  2
*D8
  0
BLOCK_RECORD
  5
1EF
100
AcDbSymbolTableRecord
100
AcDbBlockTableRecord
  2
*D9
  0
BLOCK_RECORD
  5
21B
100
AcDbSymbolTableRecord
100
AcDbBlockTableRecord
  2
*D10
  0
BLOCK_RECORD
  5
258
100
AcDbSymbolTableRecord
100
AcDbBlockTableRecord
  2
*D11
  0
BLOCK_RECORD
  5
268
100
AcDbSymbolTableRecord
100
AcDbBlockTableRecord
  2
*D12
  0
BLOCK_RECORD
  5
27E
100
AcDbSymbolTableRecord
100
AcDbBlockTableRecord
  2
*D13
  0
BLOCK_RECORD
  5
2F2
100
AcDbSymbolTableRecord
100
AcDbBlockTableRecord
  2
*D14
  0
ENDTAB
  0
ENDSEC
  0
SECTION
  2
BLOCKS
  0
BLOCK
  5
19
100
AcDbEntity
  8
0
100
AcDbBlockBegin
  2
*MODEL_SPACE
 70
     0
 10
0.0
 20
0.0
 30
0.0
  3
*MODEL_SPACE
  1

  0
ENDBLK
  5
1A
100
AcDbEntity
  8
0
100
AcDbBlockEnd
  0
BLOCK
  5
16
100
AcDbEntity
 67
     1
  8
0
100
AcDbBlockBegin
  2
*PAPER_SPACE
 70
     0
 10
0.0
 20
0.0
 30
0.0
  3
*PAPER_SPACE
  1

  0
ENDBLK
  5
17
100
AcDbEntity
 67
     1
  8
0
100
AcDbBlockEnd
  0
BLOCK
  5
14D
100
AcDbEntity
  8
0
100
AcDbBlockBegin
  2
_OPEN30
 70
     0
 10
0.0
 20
0.0
 30
0.0
  3
_OPEN30
  1

  0
LINE
  5
14A
100
AcDbEntity
  8
0
  6
BYBLOCK
 62
     0
100
AcDbLine
 10
-1.0
 20
0.267949
 30
0.0
 11
0.0
 21
0.0
 31
0.0
1001
ACAD
1000
RTLwPs
1070
   158
  0
LINE
  5
14B
100
AcDbEntity
  8
0
  6
BYBLOCK
 62
     0
100
AcDbLine
 10
0.0
 20
0.0
 30
0.0
 11
-1.0
 21
-0.267949
 31
0.0
1001
ACAD
1000
RTLwPs
1070
   158
  0
LINE
  5
14C
100
AcDbEntity
  8
0
  6
BYBLOCK
 62
     0
100
AcDbLine
 10
0.0
 20
0.0
 30
0.0
 11
-1.0
 21
0.0
 31
0.0
1001
ACAD
1000
RTLwPs
1070
   158
  0
ENDBLK
  5
14E
100
AcDbEntity
  8
0
100
AcDbBlockEnd
  0
BLOCK
  5
17D
100
AcDbEntity
  8
0
100
AcDbBlockBegin
  2
*D1
 70
     1
 10
0.0
 20
0.0
 30
0.0
  3
*D1
  1

  0
LINE
  5
172
100
AcDbEntity
  8
寸法
  6
CONTINUOUS
 62
     1
100
AcDbLine
 10
86.984306
 20
-48.71526
 30
0.0
 11
91.0
 21
-48.71526
 31
0.0
1001
ACAD
1000
RTLwPs
1070
   158
  0
LINE
  5
173
100
AcDbEntity
  8
寸法
  6
CONTINUOUS
 62
     1
100
AcDbLine
 10
85.935726
 20
-54.365257
 30
0.0
 11
91.0
 21
-54.365257
 31
0.0
1001
ACAD
1000
RTLwPs
1070
   158
  0
LINE
  5
174
100
AcDbEntity
  8
寸法
  6
CONTINUOUS
 62
     1
100
AcDbLine
 10
90.0
 20
-46.71526
 30
0.0
 11
90.0
 21
-44.71526
 31
0.0
1001
ACAD
1000
RTLwPs
1070
   158
  0
LINE
  5
175
100
AcDbEntity
  8
寸法
  6
CONTINUOUS
 62
     1
100
AcDbLine
 10
90.0
 20
-56.365257
 30
0.0
 11
90.0
 21
-69.365257
 31
0.0
1001
ACAD
1000
RTLwPs
1070
   158
  0
LINE
  5
176
100
AcDbEntity
  8
寸法
  6
CONTINUOUS
 62
     1
100
AcDbLine
 10
90.0
 20
-48.71526
 30
0.0
 11
90.0
 21
-54.365257
 31
0.0
1001
ACAD
1000
RTLwPs
1070
   158
  0
INSERT
  5
177
100
AcDbEntity
  8
寸法
  6
CONTINUOUS
 62
     1
100
AcDbBlockReference
  2
_OPEN30
 10
90.0
 20
-48.71526
 30
0.0
 41
2.0
 42
2.0
 43
2.0
 50
270.0
1001
ACAD
1000
RTLwPs
1070
   158
  0
INSERT
  5
178
100
AcDbEntity
  8
寸法
  6
CONTINUOUS
 62
     1
100
AcDbBlockReference
  2
_OPEN30
 10
90.0
 20
-54.365257
 30
0.0
 41
2.0
 42
2.0
 43
2.0
 50
90.0
1001
ACAD
1000
RTLwPs
1070
   158
  0
MTEXT
  5
179
100
AcDbEntity
  8
寸法
  6
CONTINUOUS
 62
     1
100
AcDbMText
 10
87.5
 20
-63.865257
 30
0.0
 40
3.0
 41
0.0
 71
     5
 72
     1
  1
\A1;5.65
 11
0.0
 21
1.0
 31
0.0
1001
ACAD
1000
MTEXTBEGIN
1070
    73
1070
     1
1070
    44
1040
1.0
1070
    74
1070
     0
1000
MTEXTEND
1000
MTEXTBEGIN
1070
    73
1070
     1
1070
    44
1040
1.0
1070
    74
1070
     0
1000
MTEXTEND
  0
POINT
  5
17A
100
AcDbEntity
  8
DEFPOINTS
  6
CONTINUOUS
 62
     0
100
AcDbPoint
 10
85.984306
 20
-48.71526
 30
0.0
  0
POINT
  5
17B
100
AcDbEntity
  8
DEFPOINTS
  6
CONTINUOUS
 62
     0
100
AcDbPoint
 10
84.935726
 20
-54.365257
 30
0.0
  0
POINT
  5
17C
100
AcDbEntity
  8
DEFPOINTS
  6
CONTINUOUS
 62
     0
100
AcDbPoint
 10
90.0
 20
-54.365257
 30
0.0
  0
ENDBLK
  5
17E
100
AcDbEntity
  8
0
100
AcDbBlockEnd
  0
BLOCK
  5
18C
100
AcDbEntity
  8
0
100
AcDbBlockBegin
  2
*D2
 70
     1
 10
0.0
 20
0.0
 30
0.0
  3
*D2
  1

  0
LINE
  5
181
100
AcDbEntity
  8
寸法
  6
CONTINUOUS
 62
     1
100
AcDbLine
 10
22.0
 20
-53.573051
 30
0.0
 11
22.0
 21
-61.0
 31
0.0
1001
ACAD
1000
RTLwPs
1070
   158
  0
LINE
  5
182
100
AcDbEntity
  8
寸法
  6
CONTINUOUS
 62
     1
100
AcDbLine
 10
20.0
 20
-53.657467
 30
0.0
 11
20.0
 21
-61.0
 31
0.0
1001
ACAD
1000
RTLwPs
1070
   158
  0
LINE
  5
183
100
AcDbEntity
  8
寸法
  6
CONTINUOUS
 62
     1
100
AcDbLine
 10
24.0
 20
-60.0
 30
0.0
 11
26.0
 21
-60.0
 31
0.0
1001
ACAD
1000
RTLwPs
1070
   158
  0
LINE
  5
184
100
AcDbEntity
  8
寸法
  6
CONTINUOUS
 62
     1
100
AcDbLine
 10
18.0
 20
-60.0
 30
0.0
 11
12.0
 21
-60.0
 31
0.0
1001
ACAD
1000
RTLwPs
1070
   158
  0
LINE
  5
185
100
AcDbEntity
  8
寸法
  6
CONTINUOUS
 62
     1
100
AcDbLine
 10
22.0
 20
-60.0
 30
0.0
 11
20.0
 21
-60.0
 31
0.0
1001
ACAD
1000
RTLwPs
1070
   158
  0
INSERT
  5
186
100
AcDbEntity
  8
寸法
  6
CONTINUOUS
 62
     1
100
AcDbBlockReference
  2
_OPEN30
 10
22.0
 20
-60.0
 30
0.0
 41
2.0
 42
2.0
 43
2.0
 50
180.0
1001
ACAD
1000
RTLwPs
1070
   158
  0
INSERT
  5
187
100
AcDbEntity
  8
寸法
  6
CONTINUOUS
 62
     1
100
AcDbBlockReference
  2
_OPEN30
 10
20.0
 20
-60.0
 30
0.0
 41
2.0
 42
2.0
 43
2.0
1001
ACAD
1000
RTLwPs
1070
   158
  0
MTEXT
  5
188
100
AcDbEntity
  8
寸法
  6
CONTINUOUS
 62
     1
100
AcDbMText
 10
14.0
 20
-57.5
 30
0.0
 40
3.0
 41
0.0
 71
     5
 72
     1
  1
\A1;2
1001
ACAD
1000
MTEXTBEGIN
1070
    73
1070
     1
1070
    44
1040
1.0
1070
    74
1070
     0
1000
MTEXTEND
1000
MTEXTBEGIN
1070
    73
1070
     1
1070
    44
1040
1.0
1070
    74
1070
     0
1000
MTEXTEND
  0
POINT
  5
189
100
AcDbEntity
  8
DEFPOINTS
  6
CONTINUOUS
 62
     0
100
AcDbPoint
 10
22.0
 20
-52.573051
 30
0.0
  0
POINT
  5
18A
100
AcDbEntity
  8
DEFPOINTS
  6
CONTINUOUS
 62
     0
100
AcDbPoint
 10
20.0
 20
-52.657467
 30
0.0
  0
POINT
  5
18B
100
AcDbEntity
  8
DEFPOINTS
  6
CONTINUOUS
 62
     0
100
AcDbPoint
 10
20.0
 20
-60.0
 30
0.0
  0
ENDBLK
  5
18D
100
AcDbEntity
  8
0
100
AcDbBlockEnd
  0
BLOCK
  5
199
100
AcDbEntity
  8
0
100
AcDbBlockBegin
  2
*D3
 70
     1
 10
0.0
 20
0.0
 30
0.0
  3
*D3
  1

  0
LINE
  5
190
100
AcDbEntity
  8
寸法
  6
CONTINUOUS
 62
     1
100
AcDbLine
 10
40.0
 20
-45.865257
 30
0.0
 11
40.0
 21
-29.0
 31
0.0
1001
ACAD
1000
RTLwPs
1070
   158
  0
LINE
  5
191
100
AcDbEntity
  8
寸法
  6
CONTINUOUS
 62
     1
100
AcDbLine
 10
21.0
 20
-39.59407
 30
0.0
 11
21.0
 21
-29.0
 31
0.0
1001
ACAD
1000
RTLwPs
1070
   158
  0
LINE
  5
192
100
AcDbEntity
  8
寸法
  6
CONTINUOUS
 62
     1
100
AcDbLine
 10
38.0
 20
-30.0
 30
0.0
 11
23.0
 21
-30.0
 31
0.0
1001
ACAD
1000
RTLwPs
1070
   158
  0
INSERT
  5
193
100
AcDbEntity
  8
寸法
  6
CONTINUOUS
 62
     1
100
AcDbBlockReference
  2
_OPEN30
 10
40.0
 20
-30.0
 30
0.0
 41
2.0
 42
2.0
 43
2.0
1001
ACAD
1000
RTLwPs
1070
   158
  0
INSERT
  5
194
100
AcDbEntity
  8
寸法
  6
CONTINUOUS
 62
     1
100
AcDbBlockReference
  2
_OPEN30
 10
21.0
 20
-30.0
 30
0.0
 41
2.0
 42
2.0
 43
2.0
 50
180.0
1001
ACAD
1000
RTLwPs
1070
   158
  0
MTEXT
  5
195
100
AcDbEntity
  8
寸法
  6
CONTINUOUS
 62
     1
100
AcDbMText
 10
30.5
 20
-27.5
 30
0.0
 40
3.0
 41
0.0
 71
     5
 72
     1
  1
\A1;19
1001
ACAD
1000
MTEXTBEGIN
1070
    73
1070
     1
1070
    44
1040
1.0
1070
    74
1070
     0
1000
MTEXTEND
1000
MTEXTBEGIN
1070
    73
1070
     1
1070
    44
1040
1.0
1070
    74
1070
     0
1000
MTEXTEND
  0
POINT
  5
196
100
AcDbEntity
  8
DEFPOINTS
  6
CONTINUOUS
 62
     0
100
AcDbPoint
 10
40.0
 20
-46.865257
 30
0.0
  0
POINT
  5
197
100
AcDbEntity
  8
DEFPOINTS
  6
CONTINUOUS
 62
     0
100
AcDbPoint
 10
21.0
 20
-40.59407
 30
0.0
  0
POINT
  5
198
100
AcDbEntity
  8
DEFPOINTS
  6
CONTINUOUS
 62
     0
100
AcDbPoint
 10
21.0
 20
-30.0
 30
0.0
  0
ENDBLK
  5
19A
100
AcDbEntity
  8
0
100
AcDbBlockEnd
  0
BLOCK
  5
1A6
100
AcDbEntity
  8
0
100
AcDbBlockBegin
  2
*D4
 70
     1
 10
0.0
 20
0.0
 30
0.0
  3
*D4
  1

  0
LINE
  5
19D
100
AcDbEntity
  8
寸法
  6
CONTINUOUS
 62
     1
100
AcDbLine
 10
33.0
 20
-42.865257
 30
0.0
 11
51.0
 21
-42.865257
 31
0.0
1001
ACAD
1000
RTLwPs
1070
   158
  0
LINE
  5
19E
100
AcDbEntity
  8
寸法
  6
CONTINUOUS
 62
     1
100
AcDbLine
 10
33.0
 20
-54.365257
 30
0.0
 11
51.0
 21
-54.365257
 31
0.0
1001
ACAD
1000
RTLwPs
1070
   158
  0
LINE
  5
19F
100
AcDbEntity
  8
寸法
  6
CONTINUOUS
 62
     1
100
AcDbLine
 10
50.0
 20
-44.865257
 30
0.0
 11
50.0
 21
-52.365257
 31
0.0
1001
ACAD
1000
RTLwPs
1070
   158
  0
INSERT
  5
1A0
100
AcDbEntity
  8
寸法
  6
CONTINUOUS
 62
     1
100
AcDbBlockReference
  2
_OPEN30
 10
50.0
 20
-42.865257
 30
0.0
 41
2.0
 42
2.0
 43
2.0
 50
90.0
1001
ACAD
1000
RTLwPs
1070
   158
  0
INSERT
  5
1A1
100
AcDbEntity
  8
寸法
  6
CONTINUOUS
 62
     1
100
AcDbBlockReference
  2
_OPEN30
 10
50.0
 20
-54.365257
 30
0.0
 41
2.0
 42
2.0
 43
2.0
 50
270.0
1001
ACAD
1000
RTLwPs
1070
   158
  0
MTEXT
  5
1A2
100
AcDbEntity
  8
寸法
  6
CONTINUOUS
 62
     1
100
AcDbMText
 10
47.5
 20
-48.615257
 30
0.0
 40
3.0
 41
0.0
 71
     5
 72
     1
  1
\A1;11.5
 11
0.0
 21
1.0
 31
0.0
1001
ACAD
1000
MTEXTBEGIN
1070
    73
1070
     1
1070
    44
1040
1.0
1070
    74
1070
     0
1000
MTEXTEND
1000
MTEXTBEGIN
1070
    73
1070
     1
1070
    44
1040
1.0
1070
    74
1070
     0
1000
MTEXTEND
  0
POINT
  5
1A3
100
AcDbEntity
  8
DEFPOINTS
  6
CONTINUOUS
 62
     0
100
AcDbPoint
 10
32.0
 20
-42.865257
 30
0.0
  0
POINT
  5
1A4
100
AcDbEntity
  8
DEFPOINTS
  6
CONTINUOUS
 62
     0
100
AcDbPoint
 10
32.0
 20
-54.365257
 30
0.0
  0
POINT
  5
1A5
100
AcDbEntity
  8
DEFPOINTS
  6
CONTINUOUS
 62
     0
100
AcDbPoint
 10
50.0
 20
-54.365257
 30
0.0
  0
ENDBLK
  5
1A7
100
AcDbEntity
  8
0
100
AcDbBlockEnd
  0
BLOCK
  5
1B3
100
AcDbEntity
  8
0
100
AcDbBlockBegin
  2
*D5
 70
     1
 10
0.0
 20
0.0
 30
0.0
  3
*D5
  1

  0
LINE
  5
1AA
100
AcDbEntity
  8
寸法
  6
CONTINUOUS
 62
     1
100
AcDbLine
 10
-5.950273
 20
-44.365257
 30
0.0
 11
-11.0
 21
-44.365257
 31
0.0
1001
ACAD
1000
RTLwPs
1070
   158
  0
LINE
  5
1AB
100
AcDbEntity
  8
寸法
  6
CONTINUOUS
 62
     1
100
AcDbLine
 10
-2.238941
 20
-54.365257
 30
0.0
 11
-11.0
 21
-54.365257
 31
0.0
1001
ACAD
1000
RTLwPs
1070
   158
  0
LINE
  5
1AC
100
AcDbEntity
  8
寸法
  6
CONTINUOUS
 62
     1
100
AcDbLine
 10
-10.0
 20
-46.365257
 30
0.0
 11
-10.0
 21
-52.365257
 31
0.0
1001
ACAD
1000
RTLwPs
1070
   158
  0
INSERT
  5
1AD
100
AcDbEntity
  8
寸法
  6
CONTINUOUS
 62
     1
100
AcDbBlockReference
  2
_OPEN30
 10
-10.0
 20
-44.365257
 30
0.0
 41
2.0
 42
2.0
 43
2.0
 50
90.0
1001
ACAD
1000
RTLwPs
1070
   158
  0
INSERT
  5
1AE
100
AcDbEntity
  8
寸法
  6
CONTINUOUS
 62
     1
100
AcDbBlockReference
  2
_OPEN30
 10
-10.0
 20
-54.365257
 30
0.0
 41
2.0
 42
2.0
 43
2.0
 50
270.0
1001
ACAD
1000
RTLwPs
1070
   158
  0
MTEXT
  5
1AF
100
AcDbEntity
  8
寸法
  6
CONTINUOUS
 62
     1
100
AcDbMText
 10
-12.5
 20
-49.365257
 30
0.0
 40
3.0
 41
0.0
 71
     5
 72
     1
  1
\A1;10
 11
0.0
 21
1.0
 31
0.0
1001
ACAD
1000
MTEXTBEGIN
1070
    73
1070
     1
1070
    44
1040
1.0
1070
    74
1070
     0
1000
MTEXTEND
1000
MTEXTBEGIN
1070
    73
1070
     1
1070
    44
1040
1.0
1070
    74
1070
     0
1000
MTEXTEND
  0
POINT
  5
1B0
100
AcDbEntity
  8
DEFPOINTS
  6
CONTINUOUS
 62
     0
100
AcDbPoint
 10
-4.950273
 20
-44.365257
 30
0.0
  0
POINT
  5
1B1
100
AcDbEntity
  8
DEFPOINTS
  6
CONTINUOUS
 62
     0
100
AcDbPoint
 10
-1.238941
 20
-54.365257
 30
0.0
  0
POINT
  5
1B2
100
AcDbEntity
  8
DEFPOINTS
  6
CONTINUOUS
 62
     0
100
AcDbPoint
 10
-10.0
 20
-54.365257
 30
0.0
  0
ENDBLK
  5
1B4
100
AcDbEntity
  8
0
100
AcDbBlockEnd
  0
BLOCK
  5
1C0
100
AcDbEntity
  8
0
100
AcDbBlockBegin
  2
*D6
 70
     1
 10
0.0
 20
0.0
 30
0.0
  3
*D6
  1

  0
LINE
  5
1B7
100
AcDbEntity
  8
寸法
  6
CONTINUOUS
 62
     1
100
AcDbLine
 10
40.0
 20
10.253777
 30
0.0
 11
40.0
 21
-21.0
 31
0.0
1001
ACAD
1000
RTLwPs
1070
   158
  0
LINE
  5
1B8
100
AcDbEntity
  8
寸法
  6
CONTINUOUS
 62
     1
100
AcDbLine
 10
-4.950272
 20
10.535421
 30
0.0
 11
-4.950272
 21
-21.0
 31
0.0
1001
ACAD
1000
RTLwPs
1070
   158
  0
LINE
  5
1B9
100
AcDbEntity
  8
寸法
  6
CONTINUOUS
 62
     1
100
AcDbLine
 10
38.0
 20
-20.0
 30
0.0
 11
-2.950272
 21
-20.0
 31
0.0
1001
ACAD
1000
RTLwPs
1070
   158
  0
INSERT
  5
1BA
100
AcDbEntity
  8
寸法
  6
CONTINUOUS
 62
     1
100
AcDbBlockReference
  2
_OPEN30
 10
40.0
 20
-20.0
 30
0.0
 41
2.0
 42
2.0
 43
2.0
1001
ACAD
1000
RTLwPs
1070
   158
  0
INSERT
  5
1BB
100
AcDbEntity
  8
寸法
  6
CONTINUOUS
 62
     1
100
AcDbBlockReference
  2
_OPEN30
 10
-4.950272
 20
-20.0
 30
0.0
 41
2.0
 42
2.0
 43
2.0
 50
180.0
1001
ACAD
1000
RTLwPs
1070
   158
  0
MTEXT
  5
1BC
100
AcDbEntity
  8
寸法
  6
CONTINUOUS
 62
     1
100
AcDbMText
 10
17.524864
 20
-17.5
 30
0.0
 40
3.0
 41
0.0
 71
     5
 72
     1
  1
\A1;44.95
1001
ACAD
1000
MTEXTBEGIN
1070
    73
1070
     1
1070
    44
1040
1.0
1070
    74
1070
     0
1000
MTEXTEND
1000
MTEXTBEGIN
1070
    73
1070
     1
1070
    44
1040
1.0
1070
    74
1070
     0
1000
MTEXTEND
  0
POINT
  5
1BD
100
AcDbEntity
  8
DEFPOINTS
  6
CONTINUOUS
 62
     0
100
AcDbPoint
 10
40.0
 20
11.253777
 30
0.0
  0
POINT
  5
1BE
100
AcDbEntity
  8
DEFPOINTS
  6
CONTINUOUS
 62
     0
100
AcDbPoint
 10
-4.950272
 20
11.535421
 30
0.0
  0
POINT
  5
1BF
100
AcDbEntity
  8
DEFPOINTS
  6
CONTINUOUS
 62
     0
100
AcDbPoint
 10
-4.950272
 20
-20.0
 30
0.0
  0
ENDBLK
  5
1C1
100
AcDbEntity
  8
0
100
AcDbBlockEnd
  0
BLOCK
  5
1CD
100
AcDbEntity
  8
0
100
AcDbBlockBegin
  2
*D7
 70
     1
 10
0.0
 20
0.0
 30
0.0
  3
*D7
  1

  0
LINE
  5
3FD
100
AcDbEntity
  8
寸法
  6
CONTINUOUS
 62
     1
100
AcDbLine
 10
40.0
 20
10.253777
 30
0.0
 11
40.0
 21
-11.0
 31
0.0
  0
LINE
  5
3FE
100
AcDbEntity
  8
寸法
  6
CONTINUOUS
 62
     1
100
AcDbLine
 10
0.0
 20
5.253778
 30
0.0
 11
0.0
 21
-11.0
 31
0.0
  0
LINE
  5
3FF
100
AcDbEntity
  8
寸法
  6
CONTINUOUS
 62
     1
100
AcDbLine
 10
38.0
 20
-10.0
 30
0.0
 11
2.0
 21
-10.0
 31
0.0
  0
INSERT
  5
400
100
AcDbEntity
  8
寸法
  6
CONTINUOUS
 62
     1
100
AcDbBlockReference
  2
_OPEN30
 10
40.0
 20
-10.0
 30
0.0
 41
2.0
 42
2.0
 43
2.0
  0
INSERT
  5
401
100
AcDbEntity
  8
寸法
  6
CONTINUOUS
 62
     1
100
AcDbBlockReference
  2
_OPEN30
 10
0.0
 20
-10.0
 30
0.0
 41
2.0
 42
2.0
 43
2.0
 50
180.0
  0
MTEXT
  5
402
100
AcDbEntity
  8
寸法
  6
CONTINUOUS
 62
     1
100
AcDbMText
 10
20.0
 20
-7.5
 30
0.0
 40
3.0
 41
0.0
 71
     5
 72
     1
  1
\A1;40
  0
POINT
  5
403
100
AcDbEntity
  8
DEFPOINTS
  6
CONTINUOUS
 62
     0
100
AcDbPoint
 10
40.0
 20
11.253777
 30
0.0
  0
POINT
  5
404
100
AcDbEntity
  8
DEFPOINTS
  6
CONTINUOUS
 62
     0
100
AcDbPoint
 10
0.0
 20
6.253778
 30
0.0
  0
POINT
  5
405
100
AcDbEntity
  8
DEFPOINTS
  6
CONTINUOUS
 62
     0
100
AcDbPoint
 10
0.0
 20
-10.0
 30
0.0
  0
ENDBLK
  5
1CE
100
AcDbEntity
  8
0
100
AcDbBlockEnd
  0
BLOCK
  5
1DA
100
AcDbEntity
  8
0
100
AcDbBlockBegin
  2
*D8
 70
     1
 10
0.0
 20
0.0
 30
0.0
  3
*D8
  1

  0
LINE
  5
406
100
AcDbEntity
  8
寸法
  6
CONTINUOUS
 62
     1
100
AcDbLine
 10
40.0
 20
10.253777
 30
0.0
 11
40.0
 21
-1.0
 31
0.0
  0
LINE
  5
407
100
AcDbEntity
  8
寸法
  6
CONTINUOUS
 62
     1
100
AcDbLine
 10
32.0
 20
7.621378
 30
0.0
 11
32.0
 21
-1.0
 31
0.0
  0
LINE
  5
408
100
AcDbEntity
  8
寸法
  6
CONTINUOUS
 62
     1
100
AcDbLine
 10
38.0
 20
0.0
 30
0.0
 11
34.0
 21
0.0
 31
0.0
  0
INSERT
  5
409
100
AcDbEntity
  8
寸法
  6
CONTINUOUS
 62
     1
100
AcDbBlockReference
  2
_OPEN30
 10
40.0
 20
0.0
 30
0.0
 41
2.0
 42
2.0
 43
2.0
  0
INSERT
  5
40A
100
AcDbEntity
  8
寸法
  6
CONTINUOUS
 62
     1
100
AcDbBlockReference
  2
_OPEN30
 10
32.0
 20
0.0
 30
0.0
 41
2.0
 42
2.0
 43
2.0
 50
180.0
  0
MTEXT
  5
40B
100
AcDbEntity
  8
寸法
  6
CONTINUOUS
 62
     1
100
AcDbMText
 10
36.0
 20
2.5
 30
0.0
 40
3.0
 41
0.0
 71
     5
 72
     1
  1
\A1;8
  0
POINT
  5
40C
100
AcDbEntity
  8
DEFPOINTS
  6
CONTINUOUS
 62
     0
100
AcDbPoint
 10
40.0
 20
11.253777
 30
0.0
  0
POINT
  5
40D
100
AcDbEntity
  8
DEFPOINTS
  6
CONTINUOUS
 62
     0
100
AcDbPoint
 10
32.0
 20
8.621378
 30
0.0
  0
POINT
  5
40E
100
AcDbEntity
  8
DEFPOINTS
  6
CONTINUOUS
 62
     0
100
AcDbPoint
 10
32.0
 20
0.0
 30
0.0
  0
ENDBLK
  5
1DB
100
AcDbEntity
  8
0
100
AcDbBlockEnd
  0
BLOCK
  5
1FA
100
AcDbEntity
  8
0
100
AcDbBlockBegin
  2
*D9
 70
     1
 10
0.0
 20
0.0
 30
0.0
  3
*D9
  1

  0
LINE
  5
232
100
AcDbEntity
  8
寸法
  6
CONTINUOUS
 62
     1
100
AcDbLine
 10
33.0
 20
8.621378
 30
0.0
 11
51.0
 21
8.621378
 31
0.0
1001
ACAD
1000
RTLwPs
1070
   158
  0
LINE
  5
233
100
AcDbEntity
  8
寸法
  6
CONTINUOUS
 62
     1
100
AcDbLine
 10
33.0
 20
18.253778
 30
0.0
 11
51.0
 21
18.253778
 31
0.0
1001
ACAD
1000
RTLwPs
1070
   158
  0
LINE
  5
234
100
AcDbEntity
  8
寸法
  6
CONTINUOUS
 62
     1
100
AcDbLine
 10
50.0
 20
10.621378
 30
0.0
 11
50.0
 21
16.253778
 31
0.0
1001
ACAD
1000
RTLwPs
1070
   158
  0
INSERT
  5
235
100
AcDbEntity
  8
寸法
  6
CONTINUOUS
 62
     1
100
AcDbBlockReference
  2
_OPEN30
 10
50.0
 20
8.621378
 30
0.0
 41
2.0
 42
2.0
 43
2.0
 50
270.0
1001
ACAD
1000
RTLwPs
1070
   158
  0
INSERT
  5
236
100
AcDbEntity
  8
寸法
  6
CONTINUOUS
 62
     1
100
AcDbBlockReference
  2
_OPEN30
 10
50.0
 20
18.253778
 30
0.0
 41
2.0
 42
2.0
 43
2.0
 50
90.0
1001
ACAD
1000
RTLwPs
1070
   158
  0
MTEXT
  5
237
100
AcDbEntity
  8
寸法
  6
CONTINUOUS
 62
     1
100
AcDbMText
 10
47.5
 20
13.437578
 30
0.0
 40
3.0
 41
0.0
 71
     5
 72
     1
  1
\A1;10.8
 11
0.0
 21
1.0
 31
0.0
1001
ACAD
1000
MTEXTBEGIN
1070
    73
1070
     1
1070
    44
1040
1.0
1070
    74
1070
     0
1000
MTEXTEND
1000
MTEXTBEGIN
1070
    73
1070
     1
1070
    44
1040
1.0
1070
    74
1070
     0
1000
MTEXTEND
  0
POINT
  5
238
100
AcDbEntity
  8
DEFPOINTS
  6
CONTINUOUS
 62
     0
100
AcDbPoint
 10
32.0
 20
8.621378
 30
0.0
  0
POINT
  5
239
100
AcDbEntity
  8
DEFPOINTS
  6
CONTINUOUS
 62
     0
100
AcDbPoint
 10
32.0
 20
18.253778
 30
0.0
  0
POINT
  5
23A
100
AcDbEntity
  8
DEFPOINTS
  6
CONTINUOUS
 62
     0
100
AcDbPoint
 10
50.0
 20
18.253778
 30
0.0
  0
ENDBLK
  5
1FB
100
AcDbEntity
  8
0
100
AcDbBlockEnd
  0
BLOCK
  5
226
100
AcDbEntity
  8
0
100
AcDbBlockBegin
  2
*D10
 70
     1
 10
0.0
 20
0.0
 30
0.0
  3
*D10
  1

  0
LINE
  5
24E
100
AcDbEntity
  8
寸法
  6
CONTINUOUS
 62
     1
100
AcDbLine
 10
0.436714
 20
18.253778
 30
0.0
 11
-10.98448
 21
18.253778
 31
0.0
1001
ACAD
1000
RTLwPs
1070
   158
  0
LINE
  5
24F
100
AcDbEntity
  8
寸法
  6
CONTINUOUS
 62
     1
100
AcDbLine
 10
-5.950272
 20
11.866791
 30
0.0
 11
-10.98448
 21
11.866791
 31
0.0
1001
ACAD
1000
RTLwPs
1070
   158
  0
LINE
  5
250
100
AcDbEntity
  8
寸法
  6
CONTINUOUS
 62
     1
100
AcDbLine
 10
-9.98448
 20
16.253778
 30
0.0
 11
-9.98448
 21
13.866791
 31
0.0
1001
ACAD
1000
RTLwPs
1070
   158
  0
INSERT
  5
251
100
AcDbEntity
  8
寸法
  6
CONTINUOUS
 62
     1
100
AcDbBlockReference
  2
_OPEN30
 10
-9.98448
 20
18.253778
 30
0.0
 41
2.0
 42
2.0
 43
2.0
 50
90.0
1001
ACAD
1000
RTLwPs
1070
   158
  0
INSERT
  5
252
100
AcDbEntity
  8
寸法
  6
CONTINUOUS
 62
     1
100
AcDbBlockReference
  2
_OPEN30
 10
-9.98448
 20
11.866791
 30
0.0
 41
2.0
 42
2.0
 43
2.0
 50
270.0
1001
ACAD
1000
RTLwPs
1070
   158
  0
MTEXT
  5
253
100
AcDbEntity
  8
寸法
  6
CONTINUOUS
 62
     1
100
AcDbMText
 10
-12.48448
 20
15.060285
 30
0.0
 40
3.0
 41
0.0
 71
     5
 72
     1
  1
\A1;6.4
 11
0.0
 21
1.0
 31
0.0
1001
ACAD
1000
MTEXTBEGIN
1070
    73
1070
     1
1070
    44
1040
1.0
1070
    74
1070
     0
1000
MTEXTEND
1000
MTEXTBEGIN
1070
    73
1070
     1
1070
    44
1040
1.0
1070
    74
1070
     0
1000
MTEXTEND
  0
POINT
  5
254
100
AcDbEntity
  8
DEFPOINTS
  6
CONTINUOUS
 62
     0
100
AcDbPoint
 10
1.436714
 20
18.253778
 30
0.0
  0
POINT
  5
255
100
AcDbEntity
  8
DEFPOINTS
  6
CONTINUOUS
 62
     0
100
AcDbPoint
 10
-4.950272
 20
11.866791
 30
0.0
  0
POINT
  5
256
100
AcDbEntity
  8
DEFPOINTS
  6
CONTINUOUS
 62
     0
100
AcDbPoint
 10
-9.98448
 20
11.866791
 30
0.0
  0
ENDBLK
  5
227
100
AcDbEntity
  8
0
100
AcDbBlockEnd
  0
BLOCK
  5
262
100
AcDbEntity
  8
0
100
AcDbBlockBegin
  2
*D11
 70
     1
 10
0.0
 20
0.0
 30
0.0
  3
*D11
  1

  0
LINE
  5
259
100
AcDbEntity
  8
寸法
  6
CONTINUOUS
 62
     1
100
AcDbLine
 10
-32.98313
 20
18.253778
 30
0.0
 11
-19.0
 21
18.253778
 31
0.0
1001
ACAD
1000
RTLwPs
1070
   158
  0
LINE
  5
25A
100
AcDbEntity
  8
寸法
  6
CONTINUOUS
 62
     1
100
AcDbLine
 10
-34.48313
 20
6.253778
 30
0.0
 11
-19.0
 21
6.253778
 31
0.0
1001
ACAD
1000
RTLwPs
1070
   158
  0
LINE
  5
25B
100
AcDbEntity
  8
寸法
  6
CONTINUOUS
 62
     1
100
AcDbLine
 10
-20.0
 20
16.253778
 30
0.0
 11
-20.0
 21
8.253778
 31
0.0
1001
ACAD
1000
RTLwPs
1070
   158
  0
INSERT
  5
25C
100
AcDbEntity
  8
寸法
  6
CONTINUOUS
 62
     1
100
AcDbBlockReference
  2
_OPEN30
 10
-20.0
 20
18.253778
 30
0.0
 41
2.0
 42
2.0
 43
2.0
 50
90.0
1001
ACAD
1000
RTLwPs
1070
   158
  0
INSERT
  5
25D
100
AcDbEntity
  8
寸法
  6
CONTINUOUS
 62
     1
100
AcDbBlockReference
  2
_OPEN30
 10
-20.0
 20
6.253778
 30
0.0
 41
2.0
 42
2.0
 43
2.0
 50
270.0
1001
ACAD
1000
RTLwPs
1070
   158
  0
MTEXT
  5
25E
100
AcDbEntity
  8
寸法
  6
CONTINUOUS
 62
     1
100
AcDbMText
 10
-22.5
 20
12.253778
 30
0.0
 40
3.0
 41
0.0
 71
     5
 72
     1
  1
\A1;12
 11
0.0
 21
1.0
 31
0.0
1001
ACAD
1000
MTEXTBEGIN
1070
    73
1070
     1
1070
    44
1040
1.0
1070
    74
1070
     0
1000
MTEXTEND
1000
MTEXTBEGIN
1070
    73
1070
     1
1070
    44
1040
1.0
1070
    74
1070
     0
1000
MTEXTEND
  0
POINT
  5
25F
100
AcDbEntity
  8
DEFPOINTS
  6
CONTINUOUS
 62
     0
100
AcDbPoint
 10
-33.98313
 20
18.253778
 30
0.0
  0
POINT
  5
260
100
AcDbEntity
  8
DEFPOINTS
  6
CONTINUOUS
 62
     0
100
AcDbPoint
 10
-35.48313
 20
6.253778
 30
0.0
  0
POINT
  5
261
100
AcDbEntity
  8
DEFPOINTS
  6
CONTINUOUS
 62
     0
100
AcDbPoint
 10
-20.0
 20
6.253778
 30
0.0
  0
ENDBLK
  5
263
100
AcDbEntity
  8
0
100
AcDbBlockEnd
  0
BLOCK
  5
26F
100
AcDbEntity
  8
0
100
AcDbBlockBegin
  2
*D12
 70
     1
 10
0.0
 20
0.0
 30
0.0
  3
*D12
  1

  0
LINE
  5
271
100
AcDbEntity
  8
寸法
  6
CONTINUOUS
 62
     1
100
AcDbLine
 10
-63.004716
 20
13.850243
 30
0.0
 11
-51.899514
 21
16.837634
 31
0.0
1001
ACAD
1000
RTLwPs
1070
   158
  0
MTEXT
  5
272
100
AcDbEntity
  8
寸法
  6
CONTINUOUS
 62
     1
100
AcDbMText
 10
-59.067218
 20
17.49834
 30
0.0
 40
3.0
 41
0.0
 71
     5
 72
     1
  1
\A1;%%c30
 11
0.96567
 21
0.259773
 31
0.0
1001
ACAD
1000
MTEXTBEGIN
1070
    73
1070
     1
1070
    44
1040
1.0
1070
    74
1070
     0
1000
MTEXTEND
1000
MTEXTBEGIN
1070
    73
1070
     1
1070
    44
1040
1.0
1070
    74
1070
     0
1000
MTEXTEND
  0
LINE
  5
273
100
AcDbEntity
  8
寸法
  6
CONTINUOUS
 62
     1
100
AcDbLine
 10
-35.48313
 20
21.253778
 30
0.0
 11
-49.968175
 21
17.357181
 31
0.0
1001
ACAD
1000
RTLwPs
1070
   158
  0
INSERT
  5
274
100
AcDbEntity
  8
寸法
  6
CONTINUOUS
 62
     1
100
AcDbBlockReference
  2
_OPEN30
 10
-49.968175
 20
17.357181
 30
0.0
 41
2.0
 42
2.0
 43
2.0
 50
15.056602
1001
ACAD
1000
RTLwPs
1070
   158
  0
POINT
  5
275
100
AcDbEntity
  8
DEFPOINTS
  6
CONTINUOUS
 62
     0
100
AcDbPoint
 10
-49.968175
 20
17.357181
 30
0.0
  0
POINT
  5
276
100
AcDbEntity
  8
DEFPOINTS
  6
CONTINUOUS
 62
     0
100
AcDbPoint
 10
-35.48313
 20
21.253778
 30
0.0
  0
ENDBLK
  5
270
100
AcDbEntity
  8
0
100
AcDbBlockEnd
  0
BLOCK
  5
285
100
AcDbEntity
  8
0
100
AcDbBlockBegin
  2
*D13
 70
     1
 10
0.0
 20
0.0
 30
0.0
  3
*D13
  1

  0
LINE
  5
287
100
AcDbEntity
  8
寸法
  6
CONTINUOUS
 62
     1
100
AcDbLine
 10
-10.389035
 20
-72.551179
 30
0.0
 11
-1.37807
 21
-65.406075
 31
0.0
1001
ACAD
1000
RTLwPs
1070
   158
  0
MTEXT
  5
288
100
AcDbEntity
  8
寸法
  6
CONTINUOUS
 62
     1
100
AcDbMText
 10
-8.220398
 20
-67.641035
 30
0.0
 40
3.0
 41
0.0
 71
     5
 72
     1
  1
\A1;%%c50
 11
0.783562
 21
0.621313
 31
0.0
1001
ACAD
1000
MTEXTBEGIN
1070
    73
1070
     1
1070
    44
1040
1.0
1070
    74
1070
     0
1000
MTEXTEND
1000
MTEXTBEGIN
1070
    73
1070
     1
1070
    44
1040
1.0
1070
    74
1070
     0
1000
MTEXTEND
  0
LINE
  5
289
100
AcDbEntity
  8
寸法
  6
CONTINUOUS
 62
     1
100
AcDbLine
 10
20.0
 20
-48.454667
 30
0.0
 11
0.189054
 21
-64.163448
 31
0.0
1001
ACAD
1000
RTLwPs
1070
   158
  0
INSERT
  5
28A
100
AcDbEntity
  8
寸法
  6
CONTINUOUS
 62
     1
100
AcDbBlockReference
  2
_OPEN30
 10
0.189054
 20
-64.163448
 30
0.0
 41
2.0
 42
2.0
 43
2.0
 50
38.41211
1001
ACAD
1000
RTLwPs
1070
   158
  0
POINT
  5
28B
100
AcDbEntity
  8
DEFPOINTS
  6
CONTINUOUS
 62
     0
100
AcDbPoint
 10
0.189054
 20
-64.163448
 30
0.0
  0
POINT
  5
28C
100
AcDbEntity
  8
DEFPOINTS
  6
CONTINUOUS
 62
     0
100
AcDbPoint
 10
20.0
 20
-48.454667
 30
0.0
  0
ENDBLK
  5
286
100
AcDbEntity
  8
0
100
AcDbBlockEnd
  0
BLOCK
  5
300
100
AcDbEntity
  8
0
100
AcDbBlockBegin
  2
*D14
 70
     1
 10
0.0
 20
0.0
 30
0.0
  3
*D14
  1

  0
LINE
  5
40F
100
AcDbEntity
  8
寸法
  6
CONTINUOUS
 62
     1
100
AcDbLine
 10
0.0
 20
4.253778
 30
0.0
 11
0.0
 21
-8.054684
 31
0.0
  0
LINE
  5
410
100
AcDbEntity
  8
寸法
  6
CONTINUOUS
 62
     1
100
AcDbLine
 10
0.707107
 20
5.546671
 30
0.0
 11
10.11761
 21
-3.863832
 31
0.0
  0
ARC
  5
411
100
AcDbEntity
  8
寸法
  6
CONTINUOUS
 62
     1
100
AcDbCircle
 10
0.0
 20
6.253778
 30
0.0
 40
13.308462
100
AcDbArc
 50
278.618552
 51
306.381448
  0
INSERT
  5
412
100
AcDbEntity
  8
寸法
  6
CONTINUOUS
 62
     1
100
AcDbBlockReference
  2
_OPEN30
 10
0.0
 20
-7.054684
 30
0.0
 41
2.0
 42
2.0
 43
2.0
 50
184.309276
  0
INSERT
  5
413
100
AcDbEntity
  8
寸法
  6
CONTINUOUS
 62
     1
100
AcDbBlockReference
  2
_OPEN30
 10
9.410503
 20
-3.156725
 30
0.0
 41
2.0
 42
2.0
 43
2.0
 50
40.690724
  0
MTEXT
  5
414
100
AcDbEntity
  8
寸法
  6
CONTINUOUS
 62
     1
100
AcDbMText
 10
5.863206
 20
-2.826181
 30
0.0
 40
3.0
 41
0.0
 71
     5
 72
     1
  1
\A1;45°
 11
0.840079
 21
0.542464
 31
0.0
  0
POINT
  5
415
100
AcDbEntity
  8
DEFPOINTS
  6
CONTINUOUS
 62
     0
100
AcDbPoint
 10
3.444483
 20
-6.601209
 30
0.0
  0
POINT
  5
416
100
AcDbEntity
  8
DEFPOINTS
  6
CONTINUOUS
 62
     0
100
AcDbPoint
 10
0.0
 20
6.253778
 30
0.0
  0
POINT
  5
417
100
AcDbEntity
  8
DEFPOINTS
  6
CONTINUOUS
 62
     0
100
AcDbPoint
 10
-4.950272
 20
11.20405
 30
0.0
  0
POINT
  5
418
100
AcDbEntity
  8
DEFPOINTS
  6
CONTINUOUS
 62
     0
100
AcDbPoint
 10
-0.234315
 20
6.488093
 30
0.0
  0
POINT
  5
419
100
AcDbEntity
  8
DEFPOINTS
  6
CONTINUOUS
 62
     0
100
AcDbPoint
 10
0.0
 20
5.253778
 30
0.0
  0
ENDBLK
  5
301
100
AcDbEntity
  8
0
100
AcDbBlockEnd
  0
ENDSEC
  0
SECTION
  2
ENTITIES
  0
POINT
  5
24
100
AcDbEntity
  8
0
  6
CONTINUOUS
 62
     7
100
AcDbPoint
 10
78.417404
 20
-54.365257
 30
0.0
  0
POINT
  5
25
100
AcDbEntity
  8
0
  6
CONTINUOUS
 62
     7
100
AcDbPoint
 10
-35.48313
 20
6.253778
 30
0.0
  0
POINT
  5
26
100
AcDbEntity
  8
0
  6
CONTINUOUS
 62
     7
100
AcDbPoint
 10
0.0
 20
6.253778
 30
0.0
  0
POINT
  5
27
100
AcDbEntity
  8
0
  6
CONTINUOUS
 62
     7
100
AcDbPoint
 10
0.0
 20
-44.365257
 30
0.0
  0
LINE
  5
28
100
AcDbEntity
  8
0
  6
CONTINUOUS
 62
     7
100
AcDbLine
 10
32.0
 20
18.253778
 30
0.0
 11
32.0
 21
8.621378
 31
0.0
  0
LINE
  5
29
100
AcDbEntity
  8
0
  6
CONTINUOUS
 62
     7
100
AcDbLine
 10
1.436714
 20
18.253778
 30
0.0
 11
32.0
 21
18.253778
 31
0.0
  0
LINE
  5
2A
100
AcDbEntity
  8
0
  6
CENTER
 62
     1
 48
0.5
100
AcDbLine
 10
21.0
 20
21.669078
 30
0.0
 11
21.0
 21
4.837011
 31
0.0
  0
LINE
  5
2B
100
AcDbEntity
  8
0
  6
CONTINUOUS
 62
     7
100
AcDbLine
 10
-44.48313
 20
18.253778
 30
0.0
 11
-33.98313
 21
18.253778
 31
0.0
  0
LINE
  5
2C
100
AcDbEntity
  8
0
  6
CONTINUOUS
 62
     7
100
AcDbLine
 10
-45.48313
 20
17.253778
 30
0.0
 11
-45.48313
 21
11.006555
 31
0.0
  0
LINE
  5
2D
100
AcDbEntity
  8
0
  6
CONTINUOUS
 62
     7
100
AcDbLine
 10
-44.48313
 20
18.253779
 30
0.0
 11
-45.48313
 21
17.253779
 31
0.0
  0
LINE
  5
2E
100
AcDbEntity
  8
0
  6
CONTINUOUS
 62
     7
100
AcDbLine
 10
9.331371
 20
8.621378
 30
0.0
 11
15.7
 21
8.621378
 31
0.0
  0
LINE
  5
2F
100
AcDbEntity
  8
0
  6
CONTINUOUS
 62
     7
100
AcDbLine
 10
78.417404
 20
-54.365257
 30
0.0
 11
84.935726
 21
-54.365257
 31
0.0
  0
LINE
  5
30
100
AcDbEntity
  8
0
  6
CONTINUOUS
 62
     7
100
AcDbLine
 10
76.984306
 20
-42.865257
 30
0.0
 11
84.984306
 21
-42.865257
 31
0.0
  0
LINE
  5
31
100
AcDbEntity
  8
0
  6
CONTINUOUS
 62
     7
100
AcDbLine
 10
85.984306
 20
-43.865257
 30
0.0
 11
85.984306
 21
-53.316677
 31
0.0
  0
LINE
  5
32
100
AcDbEntity
  8
0
  6
CONTINUOUS
 62
     7
100
AcDbLine
 10
76.984306
 20
-42.865257
 30
0.0
 11
75.96505
 21
-50.117649
 31
0.0
  0
LINE
  5
33
100
AcDbEntity
  8
0
  6
CONTINUOUS
 62
     7
100
AcDbLine
 10
84.984314
 20
-42.865269
 30
0.0
 11
85.984314
 21
-43.865269
 31
0.0
  0
LINE
  5
34
100
AcDbEntity
  8
0
  6
CONTINUOUS
 62
     7
100
AcDbLine
 10
82.892448
 20
-43.938469
 30
0.0
 11
81.695557
 21
-52.454773
 31
0.0
  0
LINE
  5
35
100
AcDbEntity
  8
0
  6
CONTINUOUS
 62
     7
100
AcDbLine
 10
26.299999
 20
8.621378
 30
0.0
 11
32.0
 21
8.621378
 31
0.0
  0
LINE
  5
36
100
AcDbEntity
  8
0
  6
CONTINUOUS
 62
     7
100
AcDbLine
 10
32.0
 20
-42.865257
 30
0.0
 11
32.0
 21
-54.365257
 31
0.0
  0
LINE
  5
37
100
AcDbEntity
  8
0
  6
CONTINUOUS
 62
     7
100
AcDbLine
 10
-1.238941
 20
-54.365257
 30
0.0
 11
32.0
 21
-54.365257
 31
0.0
  0
LINE
  5
38
100
AcDbEntity
  8
0
  6
CONTINUOUS
 62
     7
100
AcDbLine
 10
9.831371
 20
-42.865257
 30
0.0
 11
32.0
 21
-42.865257
 31
0.0
  0
LINE
  5
39
100
AcDbEntity
  8
0
  6
CENTER
 62
     1
 48
0.5
100
AcDbLine
 10
20.0
 20
-41.599026
 30
0.0
 11
20.0
 21
-52.657467
 31
0.0
  0
LINE
  5
3A
100
AcDbEntity
  8
0
  6
CENTER
 62
     1
 48
0.5
100
AcDbLine
 10
22.0
 20
-41.430195
 30
0.0
 11
22.0
 21
-52.573051
 31
0.0
  0
LINE
  5
3B
100
AcDbEntity
  8
0
  6
CENTER
 62
     1
 48
0.5
100
AcDbLine
 10
21.0
 20
-40.59407
 30
0.0
 11
21.0
 21
-53.097069
 31
0.0
  0
LINE
  5
3C
100
AcDbEntity
  8
0
  6
CONTINUOUS
 62
     7
100
AcDbLine
 10
-4.950272
 20
-44.365257
 30
0.0
 11
0.912742
 21
-44.365257
 31
0.0
  0
LINE
  5
3D
100
AcDbEntity
  8
0
  6
CONTINUOUS
 62
     7
100
AcDbLine
 10
-4.487648
 20
-46.745255
 30
0.0
 11
0.912742
 21
-46.745255
 31
0.0
  0
LINE
  5
3E
100
AcDbEntity
  8
0
  6
CONTINUOUS
 62
     7
100
AcDbLine
 10
-37.863131
 20
6.716403
 30
0.0
 11
-35.48313
 21
6.253778
 31
0.0
  0
LINE
  5
3F
100
AcDbEntity
  8
0
  6
CONTINUOUS
 62
     7
100
AcDbLine
 10
-35.48313
 20
18.253778
 30
0.0
 11
-35.48313
 21
6.253778
 31
0.0
  0
LINE
  5
40
100
AcDbEntity
  8
0
  6
CONTINUOUS
 62
     7
100
AcDbLine
 10
-37.863131
 20
16.354438
 30
0.0
 11
-37.863131
 21
6.716403
 31
0.0
  0
LINE
  5
41
100
AcDbEntity
  8
0
  6
CONTINUOUS
 62
     7
100
AcDbLine
 10
-38.98313
 20
11.535421
 30
0.0
 11
-35.48313
 21
11.535421
 31
0.0
  0
LINE
  5
42
100
AcDbEntity
  8
0
  6
CONTINUOUS
 62
     7
100
AcDbLine
 10
-37.863131
 20
16.354438
 30
0.0
 11
-35.483132
 21
16.817063
 31
0.0
  0
LINE
  5
43
100
AcDbEntity
  8
0
  6
CONTINUOUS
 62
     7
100
AcDbLine
 10
-38.98313
 20
11.535421
 30
0.0
 11
-38.98313
 21
7.253778
 31
0.0
  0
LINE
  5
44
100
AcDbEntity
  8
0
  6
CONTINUOUS
 62
     7
100
AcDbLine
 10
-45.483134
 20
15.288198
 30
0.0
 11
-38.98313
 21
11.53542
 31
0.0
  0
LINE
  5
45
100
AcDbEntity
  8
0
  6
CONTINUOUS
 62
     7
100
AcDbLine
 10
-4.269941
 20
-47.865257
 30
0.0
 11
3.331371
 21
-47.865257
 31
0.0
  0
LINE
  5
46
100
AcDbEntity
  8
0
  6
CENTER
 62
     1
 48
0.5
100
AcDbLine
 10
0.193958
 20
-50.865257
 30
0.0
 11
7.806042
 21
-50.865257
 31
0.0
  0
LINE
  5
47
100
AcDbEntity
  8
0
  6
CENTER
 62
     1
 48
0.5
100
AcDbLine
 10
4.0
 20
-47.059216
 30
0.0
 11
4.0
 21
-54.671295
 31
0.0
  0
LINE
  5
48
100
AcDbEntity
  8
0
  6
CONTINUOUS
 62
     7
100
AcDbLine
 10
1.579899
 20
15.899907
 30
0.0
 11
3.933771
 21
18.253778
 31
0.0
  0
LINE
  5
49
100
AcDbEntity
  8
0
  6
CONTINUOUS
 62
     7
100
AcDbLine
 10
2.640559
 20
14.839246
 30
0.0
 11
6.055091
 21
18.253778
 31
0.0
  0
LINE
  5
4A
100
AcDbEntity
  8
0
  6
CONTINUOUS
 62
     7
100
AcDbLine
 10
1.662742
 20
-43.615257
 30
0.0
 11
9.831371
 21
-43.615257
 31
0.0
  0
LINE
  5
4B
100
AcDbEntity
  8
0
  6
CONTINUOUS
 62
     7
100
AcDbLine
 10
1.662742
 20
7.253778
 30
0.0
 11
3.331371
 21
7.253778
 31
0.0
  0
LINE
  5
4C
100
AcDbEntity
  8
0
  6
CENTER
 62
     1
 48
0.5
100
AcDbLine
 10
9.585847
 20
-38.12056
 30
0.0
 11
9.585847
 21
-47.405178
 31
0.0
  0
LINE
  5
4D
100
AcDbEntity
  8
0
  6
CONTINUOUS
 62
     7
100
AcDbLine
 10
-34.73313
 20
16.972955
 30
0.0
 11
-30.98313
 21
16.972955
 31
0.0
  0
LINE
  5
4E
100
AcDbEntity
  8
0
  6
CENTER
 62
     7
100
AcDbLine
 10
-40.374873
 20
13.572955
 30
0.0
 11
-28.374762
 21
13.572955
 31
0.0
  0
LINE
  5
4F
100
AcDbEntity
  8
0
  6
CONTINUOUS
 62
     7
100
AcDbLine
 10
9.831371
 20
17.253778
 30
0.0
 11
32.0
 21
17.253778
 31
0.0
  0
LINE
  5
50
100
AcDbEntity
  8
0
  6
CENTER
 62
     1
 48
0.5
100
AcDbLine
 10
27.91494
 20
-48.865257
 30
0.0
 11
41.522728
 21
-48.865257
 31
0.0
  0
LINE
  5
51
100
AcDbEntity
  8
0
  6
CONTINUOUS
 62
     7
100
AcDbLine
 10
40.0
 20
15.253778
 30
0.0
 11
40.0
 21
11.253778
 31
0.0
  0
LINE
  5
52
100
AcDbEntity
  8
0
  6
CENTER
 62
     1
 48
0.5
100
AcDbLine
 10
25.097403
 20
13.253778
 30
0.0
 11
41.930676
 21
13.253778
 31
0.0
  0
LINE
  5
53
100
AcDbEntity
  8
0
  6
CONTINUOUS
 62
     7
100
AcDbLine
 10
35.0
 20
17.253778
 30
0.0
 11
35.0
 21
9.253778
 31
0.0
  0
LINE
  5
54
100
AcDbEntity
  8
0
  6
CONTINUOUS
 62
     7
100
AcDbLine
 10
32.0
 20
10.753778
 30
0.0
 11
35.0
 21
10.753778
 31
0.0
  0
LINE
  5
55
100
AcDbEntity
  8
0
  6
CONTINUOUS
 62
     7
100
AcDbLine
 10
32.0
 20
15.753778
 30
0.0
 11
35.0
 21
15.753778
 31
0.0
  0
LINE
  5
56
100
AcDbEntity
  8
0
  6
CONTINUOUS
 62
     7
100
AcDbLine
 10
37.5
 20
17.753777
 30
0.0
 11
40.0
 21
15.253777
 31
0.0
  0
LINE
  5
57
100
AcDbEntity
  8
0
  6
CONTINUOUS
 62
     7
100
AcDbLine
 10
37.5
 20
8.753778
 30
0.0
 11
40.0
 21
11.253777
 31
0.0
  0
LINE
  5
58
100
AcDbEntity
  8
0
  6
CONTINUOUS
 62
     7
100
AcDbLine
 10
35.5
 20
8.753778
 30
0.0
 11
37.5
 21
8.753778
 31
0.0
  0
LINE
  5
59
100
AcDbEntity
  8
0
  6
CONTINUOUS
 62
     7
100
AcDbLine
 10
35.5
 20
17.753778
 30
0.0
 11
37.5
 21
17.753778
 31
0.0
  0
LINE
  5
5A
100
AcDbEntity
  8
0
  6
CONTINUOUS
 62
     7
100
AcDbLine
 10
35.499996
 20
17.753774
 30
0.0
 11
35.0
 21
17.253776
 31
0.0
  0
LINE
  5
5B
100
AcDbEntity
  8
0
  6
CONTINUOUS
 62
     7
100
AcDbLine
 10
35.000004
 20
9.25378
 30
0.0
 11
35.5
 21
8.75378
 31
0.0
  0
LINE
  5
5C
100
AcDbEntity
  8
0
  6
CONTINUOUS
 62
     7
100
AcDbLine
 10
35.5
 20
17.753778
 30
0.0
 11
35.5
 21
8.753777
 31
0.0
  0
LINE
  5
5D
100
AcDbEntity
  8
0
  6
CONTINUOUS
 62
     7
100
AcDbLine
 10
37.5
 20
17.753778
 30
0.0
 11
37.5
 21
8.753778
 31
0.0
  0
LINE
  5
5E
100
AcDbEntity
  8
0
  6
CONTINUOUS
 62
     7
100
AcDbLine
 10
32.0
 20
11.253778
 30
0.0
 11
35.0
 21
11.253778
 31
0.0
  0
LINE
  5
5F
100
AcDbEntity
  8
0
  6
CONTINUOUS
 62
     7
100
AcDbLine
 10
32.0
 20
15.253778
 30
0.0
 11
35.0
 21
15.253778
 31
0.0
  0
LINE
  5
60
100
AcDbEntity
  8
0
  6
CONTINUOUS
 62
     7
100
AcDbLine
 10
40.0
 20
-46.865257
 30
0.0
 11
40.0
 21
-50.865257
 31
0.0
  0
LINE
  5
61
100
AcDbEntity
  8
0
  6
CONTINUOUS
 62
     7
100
AcDbLine
 10
35.0
 20
-44.865257
 30
0.0
 11
35.0
 21
-52.865257
 31
0.0
  0
LINE
  5
62
100
AcDbEntity
  8
0
  6
CONTINUOUS
 62
     7
100
AcDbLine
 10
32.0
 20
-51.365257
 30
0.0
 11
35.0
 21
-51.365257
 31
0.0
  0
LINE
  5
63
100
AcDbEntity
  8
0
  6
CONTINUOUS
 62
     7
100
AcDbLine
 10
32.0
 20
-46.365257
 30
0.0
 11
35.0
 21
-46.365257
 31
0.0
  0
LINE
  5
64
100
AcDbEntity
  8
0
  6
CONTINUOUS
 62
     7
100
AcDbLine
 10
37.500004
 20
-44.365257
 30
0.0
 11
40.0
 21
-46.865257
 31
0.0
  0
LINE
  5
65
100
AcDbEntity
  8
0
  6
CONTINUOUS
 62
     7
100
AcDbLine
 10
37.5
 20
-53.365261
 30
0.0
 11
40.0
 21
-50.865261
 31
0.0
  0
LINE
  5
66
100
AcDbEntity
  8
0
  6
CONTINUOUS
 62
     7
100
AcDbLine
 10
35.5
 20
-53.365257
 30
0.0
 11
37.5
 21
-53.365257
 31
0.0
  0
LINE
  5
67
100
AcDbEntity
  8
0
  6
CONTINUOUS
 62
     7
100
AcDbLine
 10
35.5
 20
-44.365257
 30
0.0
 11
37.5
 21
-44.365257
 31
0.0
  0
LINE
  5
68
100
AcDbEntity
  8
0
  6
CONTINUOUS
 62
     7
100
AcDbLine
 10
35.499996
 20
-44.365261
 30
0.0
 11
35.0
 21
-44.865257
 31
0.0
  0
LINE
  5
69
100
AcDbEntity
  8
0
  6
CONTINUOUS
 62
     7
100
AcDbLine
 10
35.0
 20
-52.865253
 30
0.0
 11
35.500004
 21
-53.365253
 31
0.0
  0
LINE
  5
6A
100
AcDbEntity
  8
0
  6
CONTINUOUS
 62
     7
100
AcDbLine
 10
35.5
 20
-44.365257
 30
0.0
 11
35.5
 21
-53.365257
 31
0.0
  0
LINE
  5
6B
100
AcDbEntity
  8
0
  6
CONTINUOUS
 62
     7
100
AcDbLine
 10
37.5
 20
-44.365257
 30
0.0
 11
37.5
 21
-53.365257
 31
0.0
  0
LINE
  5
6C
100
AcDbEntity
  8
0
  6
CONTINUOUS
 62
     7
100
AcDbLine
 10
32.0
 20
-50.865257
 30
0.0
 11
35.0
 21
-50.865257
 31
0.0
  0
LINE
  5
6D
100
AcDbEntity
  8
0
  6
CONTINUOUS
 62
     7
100
AcDbLine
 10
32.0
 20
-46.865257
 30
0.0
 11
35.0
 21
-46.865257
 31
0.0
  0
LINE
  5
6E
100
AcDbEntity
  8
0
  6
CONTINUOUS
 62
     7
100
AcDbLine
 10
75.96505
 20
-50.117649
 30
0.0
 11
78.417404
 21
-54.365257
 31
0.0
  0
LINE
  5
70
100
AcDbEntity
  8
0
  6
CONTINUOUS
 62
     7
100
AcDbLine
 10
85.984306
 20
-53.316677
 30
0.0
 11
84.935726
 21
-54.365257
 31
0.0
  0
LINE
  5
71
100
AcDbEntity
  8
0
  6
CONTINUOUS
 62
     7
100
AcDbLine
 10
25.278809
 20
-50.117653
 30
0.0
 11
32.0
 21
-50.117653
 31
0.0
  0
LINE
  5
72
100
AcDbEntity
  8
0
  6
CONTINUOUS
 62
     7
100
AcDbLine
 10
9.331371
 20
-50.117653
 30
0.0
 11
16.721405
 21
-50.117653
 31
0.0
  0
LINE
  5
73
100
AcDbEntity
  8
0
  6
CONTINUOUS
 62
     7
100
AcDbLine
 10
-35.48313
 20
7.253778
 30
0.0
 11
-33.98313
 21
7.253778
 31
0.0
  0
LINE
  5
74
100
AcDbEntity
  8
0
  6
CONTINUOUS
 62
     7
100
AcDbLine
 10
-4.950272
 20
11.20405
 30
0.0
 11
-0.234315
 21
6.488093
 31
0.0
  0
LINE
  5
75
100
AcDbEntity
  8
0
  6
CONTINUOUS
 62
     7
100
AcDbLine
 10
0.897056
 20
6.488093
 30
0.0
 11
4.582134
 21
10.173171
 31
0.0
  0
LINE
  5
76
100
AcDbEntity
  8
0
  6
CONTINUOUS
 62
     7
100
AcDbLine
 10
1.436715
 20
18.253778
 30
0.0
 11
-4.950272
 21
11.866791
 31
0.0
  0
LINE
  5
77
100
AcDbEntity
  8
0
  6
CONTINUOUS
 62
     7
100
AcDbLine
 10
3.183424
 20
14.296381
 30
0.0
 11
0.897057
 21
16.582749
 31
0.0
  0
LINE
  5
78
100
AcDbEntity
  8
0
  6
CONTINUOUS
 62
     7
100
AcDbLine
 10
-4.269942
 20
-47.865257
 30
0.0
 11
-4.950273
 21
-44.365257
 31
0.0
  0
LINE
  5
79
100
AcDbEntity
  8
0
  6
CENTER
 62
     1
 48
0.5
100
AcDbLine
 10
73.848976
 20
-47.00975
 30
0.0
 11
88.108429
 21
-49.013786
 31
0.0
  0
LINE
  5
7A
100
AcDbEntity
  8
0
  6
CONTINUOUS
 62
     7
100
AcDbLine
 10
76.950836
 20
-43.103428
 30
0.0
 11
82.892448
 21
-43.938469
 31
0.0
  0
LINE
  5
7B
100
AcDbEntity
  8
0
  6
CONTINUOUS
 62
     7
100
AcDbLine
 10
76.927498
 20
-51.784668
 30
0.0
 11
81.695557
 21
-52.454773
 31
0.0
  0
LINE
  5
7C
100
AcDbEntity
  8
0
  6
CONTINUOUS
 62
     7
100
AcDbLine
 10
82.662811
 20
-45.572411
 30
0.0
 11
85.984306
 21
-46.039215
 31
0.0
  0
LINE
  5
7D
100
AcDbEntity
  8
0
  6
CONTINUOUS
 62
     7
100
AcDbLine
 10
81.925194
 20
-50.820831
 30
0.0
 11
85.984306
 21
-51.3913
 31
0.0
  0
LINE
  5
7E
100
AcDbEntity
  8
0
  6
CONTINUOUS
 62
     7
100
AcDbLine
 10
3.331371
 20
7.253778
 30
0.0
 11
9.331371
 21
7.77871
 31
0.0
  0
LINE
  5
7F
100
AcDbEntity
  8
0
  6
CONTINUOUS
 62
     7
100
AcDbLine
 10
9.331371
 20
9.253778
 30
0.0
 11
9.331371
 21
7.77871
 31
0.0
  0
LINE
  5
80
100
AcDbEntity
  8
0
  6
CONTINUOUS
 62
     7
100
AcDbLine
 10
9.831371
 20
18.253778
 30
0.0
 11
9.831371
 21
16.971872
 31
0.0
  0
LINE
  5
81
100
AcDbEntity
  8
0
  6
CONTINUOUS
 62
     7
100
AcDbLine
 10
9.831371
 20
10.174039
 30
0.0
 11
9.831371
 21
9.253778
 31
0.0
  0
LINE
  5
82
100
AcDbEntity
  8
0
  6
CONTINUOUS
 62
     7
100
AcDbLine
 10
20.040619
 20
-43.103428
 30
0.0
 11
22.0
 21
-43.103428
 31
0.0
  0
LINE
  5
83
100
AcDbEntity
  8
0
  6
CONTINUOUS
 62
     7
100
AcDbLine
 10
20.0
 20
-43.938469
 30
0.0
 11
22.0
 21
-43.938469
 31
0.0
  0
LINE
  5
84
100
AcDbEntity
  8
0
  6
CONTINUOUS
 62
     7
100
AcDbLine
 10
19.974211
 20
-45.572411
 30
0.0
 11
22.0
 21
-45.572411
 31
0.0
  0
LINE
  5
85
100
AcDbEntity
  8
0
  6
CONTINUOUS
 62
     7
100
AcDbLine
 10
19.974211
 20
-50.820831
 30
0.0
 11
22.0
 21
-50.820831
 31
0.0
  0
LINE
  5
86
100
AcDbEntity
  8
0
  6
CONTINUOUS
 62
     7
100
AcDbLine
 10
20.026043
 20
-46.039215
 30
0.0
 11
22.0
 21
-46.039215
 31
0.0
  0
LINE
  5
87
100
AcDbEntity
  8
0
  6
CONTINUOUS
 62
     7
100
AcDbLine
 10
9.831371
 20
-42.865257
 30
0.0
 11
9.831371
 21
-43.615257
 31
0.0
  0
LINE
  5
88
100
AcDbEntity
  8
0
  6
CONTINUOUS
 62
     7
100
AcDbLine
 10
9.331371
 20
-43.615257
 30
0.0
 11
9.331371
 21
-50.117653
 31
0.0
  0
LINE
  5
89
100
AcDbEntity
  8
0
  6
CONTINUOUS
 62
     7
100
AcDbLine
 10
-4.269943
 20
-47.865257
 30
0.0
 11
-1.238942
 21
-54.365257
 31
0.0
  0
LINE
  5
8A
100
AcDbEntity
  8
0
  6
CONTINUOUS
 62
     7
100
AcDbLine
 10
3.331371
 20
-43.615257
 30
0.0
 11
3.331371
 21
-47.865257
 31
0.0
  0
LINE
  5
8B
100
AcDbEntity
  8
0
  6
CONTINUOUS
 62
     7
100
AcDbLine
 10
3.331371
 20
-47.865257
 30
0.0
 11
9.33137
 21
-50.117653
 31
0.0
  0
LINE
  5
8C
100
AcDbEntity
  8
0
  6
CENTER
 62
     1
 48
0.5
100
AcDbLine
 10
8.863727
 20
18.52924
 30
0.0
 11
10.967257
 21
8.63291
 31
0.0
  0
LINE
  5
8D
100
AcDbEntity
  8
0
  6
CENTER
 62
     1
 48
0.5
100
AcDbLine
 10
-1.531887
 20
11.139373
 30
0.0
 11
16.193392
 21
14.906997
 31
0.0
  0
LINE
  5
8E
100
AcDbEntity
  8
0
  6
CENTER
 62
     7
100
AcDbLine
 10
12.896533
 20
16.871423
 30
0.0
 11
13.984318
 21
11.7538
 31
0.0
  0
LINE
  5
8F
100
AcDbEntity
  8
0
  6
CONTINUOUS
 62
     7
100
AcDbLine
 10
12.656821
 20
15.586553
 30
0.0
 11
13.147473
 21
15.690844
 31
0.0
  0
LINE
  5
90
100
AcDbEntity
  8
0
  6
CONTINUOUS
 62
     7
100
AcDbLine
 10
13.238974
 20
12.84774
 30
0.0
 11
13.729626
 21
12.952032
 31
0.0
  0
LINE
  5
91
100
AcDbEntity
  8
0
  6
CONTINUOUS
 62
     7
100
AcDbLine
 10
-0.14494
 20
12.814338
 30
0.0
 11
0.416421
 21
10.173339
 31
0.0
  0
LINE
  5
92
100
AcDbEntity
  8
0
  6
CONTINUOUS
 62
     7
100
AcDbLine
 10
0.416423
 20
10.173339
 30
0.0
 11
9.91708
 21
10.172955
 31
0.0
  0
LINE
  5
93
100
AcDbEntity
  8
0
  6
CONTINUOUS
 62
     7
100
AcDbLine
 10
-0.14494
 20
12.814337
 30
0.0
 11
8.534187
 21
16.678954
 31
0.0
  0
LINE
  5
94
100
AcDbEntity
  8
0
  6
CONTINUOUS
 62
     7
100
AcDbLine
 10
-0.144941
 20
-42.365257
 30
0.0
 11
-0.144941
 21
-44.365257
 31
0.0
  0
LINE
  5
95
100
AcDbEntity
  8
0
  6
CONTINUOUS
 62
     7
100
AcDbLine
 10
0.416423
 20
-42.365257
 30
0.0
 11
0.416423
 21
-44.365257
 31
0.0
  0
LINE
  5
96
100
AcDbEntity
  8
0
  6
CONTINUOUS
 62
     7
100
AcDbLine
 10
13.317218
 20
-39.865257
 30
0.0
 11
13.317218
 21
-42.865257
 31
0.0
  0
LINE
  5
97
100
AcDbEntity
  8
0
  6
CONTINUOUS
 62
     7
100
AcDbLine
 10
14.838549
 20
-41.865257
 30
0.0
 11
14.838549
 21
-42.865257
 31
0.0
  0
LINE
  5
98
100
AcDbEntity
  8
0
  6
CONTINUOUS
 62
     7
100
AcDbLine
 10
5.664535
 20
-39.865257
 30
0.0
 11
13.317218
 21
-39.865257
 31
0.0
  0
LINE
  5
99
100
AcDbEntity
  8
0
  6
CONTINUOUS
 62
     7
100
AcDbLine
 10
13.317218
 20
-41.865257
 30
0.0
 11
14.838549
 21
-41.865257
 31
0.0
  0
LINE
  5
9A
100
AcDbEntity
  8
0
  6
CONTINUOUS
 62
     7
100
AcDbLine
 10
-0.144941
 20
-42.365257
 30
0.0
 11
0.416423
 21
-42.365257
 31
0.0
  0
LINE
  5
9B
100
AcDbEntity
  8
0
  6
CONTINUOUS
 62
     7
100
AcDbLine
 10
-30.98313
 20
16.972955
 30
0.0
 11
-30.98313
 21
10.987344
 31
0.0
  0
LINE
  5
9C
100
AcDbEntity
  8
0
  6
CONTINUOUS
 62
     7
100
AcDbLine
 10
-38.98313
 20
7.253778
 30
0.0
 11
-37.863131
 21
7.253778
 31
0.0
  0
LINE
  5
9D
100
AcDbEntity
  8
0
  6
CONTINUOUS
 62
     7
100
AcDbLine
 10
-45.48313
 20
11.006554
 30
0.0
 11
-38.98313
 21
7.253778
 31
0.0
  0
LINE
  5
9E
100
AcDbEntity
  8
0
  6
CONTINUOUS
 62
     7
100
AcDbLine
 10
-33.98313
 20
18.253778
 30
0.0
 11
-33.98313
 21
16.972955
 31
0.0
  0
LINE
  5
9F
100
AcDbEntity
  8
0
  6
CONTINUOUS
 62
     7
100
AcDbLine
 10
-33.98313
 20
10.173339
 30
0.0
 11
-33.98313
 21
7.253778
 31
0.0
  0
LINE
  5
A0
100
AcDbEntity
  8
0
  6
CONTINUOUS
 62
     7
100
AcDbLine
 10
-35.48313
 20
10.173339
 30
0.0
 11
-33.48313
 21
10.173339
 31
0.0
  0
LINE
  5
A1
100
AcDbEntity
  8
0
  6
CONTINUOUS
 62
     7
100
AcDbLine
 10
-35.48313
 20
16.972955
 30
0.0
 11
-30.98313
 21
16.972955
 31
0.0
  0
LINE
  5
A2
100
AcDbEntity
  8
0
  6
CONTINUOUS
 62
     7
100
AcDbLine
 10
-35.48313
 20
12.814337
 30
0.0
 11
-33.48313
 21
12.814337
 31
0.0
  0
LINE
  5
A3
100
AcDbEntity
  8
0
  6
CONTINUOUS
 62
     7
100
AcDbLine
 10
-33.48313
 20
12.814337
 30
0.0
 11
-33.48313
 21
10.173339
 31
0.0
  0
LINE
  5
A4
100
AcDbEntity
  8
0
  6
CONTINUOUS
 62
     7
100
AcDbLine
 10
0.912742
 20
-44.365257
 30
0.0
 11
1.662742
 21
-43.615257
 31
0.0
  0
LINE
  5
A5
100
AcDbEntity
  8
0
  6
CONTINUOUS
 62
     7
100
AcDbLine
 10
0.912742
 20
-47.865257
 30
0.0
 11
0.912742
 21
-44.365257
 31
0.0
  0
LINE
  5
A6
100
AcDbEntity
  8
0
  6
CONTINUOUS
 62
     7
100
AcDbLine
 10
2.058868
 20
-54.365257
 30
0.0
 11
0.912742
 21
-47.865257
 31
0.0
  0
LINE
  5
A7
100
AcDbEntity
  8
0
  6
CONTINUOUS
 62
     7
100
AcDbLine
 10
-0.234315
 20
6.488093
 30
0.0
 11
0.0
 21
6.253778
 31
0.0
  0
LINE
  5
A8
100
AcDbEntity
  8
0
  6
CONTINUOUS
 62
     7
100
AcDbLine
 10
9.331371
 20
9.253778
 30
0.0
 11
32.0
 21
9.253778
 31
0.0
  0
LINE
  5
A9
100
AcDbEntity
  8
0
  6
CONTINUOUS
 62
     7
100
AcDbLine
 10
20.0
 20
9.220304
 30
0.0
 11
22.515497
 21
9.220304
 31
0.0
  0
LINE
  5
AA
100
AcDbEntity
  8
0
  6
CONTINUOUS
 62
     7
100
AcDbLine
 10
0.0
 20
-44.365257
 30
0.0
 11
0.0
 21
-46.745255
 31
0.0
  0
LINE
  5
AB
100
AcDbEntity
  8
0
  6
CONTINUOUS
 62
     7
100
AcDbLine
 10
20.0
 20
-51.621143
 30
0.0
 11
22.0
 21
-51.621143
 31
0.0
  0
LINE
  5
AC
100
AcDbEntity
  8
0
  6
CONTINUOUS
 62
     7
100
AcDbLine
 10
0.0
 20
6.253778
 30
0.0
 11
0.331371
 21
6.253778
 31
0.0
  0
CIRCLE
  5
AD
100
AcDbEntity
  8
0
  6
CONTINUOUS
 62
     7
100
AcDbCircle
 10
4.0
 20
-50.865257
 30
0.0
 40
2.0
  0
CIRCLE
  5
AE
100
AcDbEntity
  8
0
  6
CONTINUOUS
 62
     7
100
AcDbCircle
 10
4.0
 20
-50.865257
 30
0.0
 40
1.65
  0
ARC
  5
AF
100
AcDbEntity
  8
0
  6
CONTINUOUS
 62
     7
100
AcDbCircle
 10
0.331371
 20
7.053778
 30
0.0
 40
0.8
100
AcDbArc
 50
225.0
 51
315.0
  0
ARC
  5
B0
100
AcDbEntity
  8
0
  6
CONTINUOUS
 62
     7
100
AcDbCircle
 10
0.331371
 20
16.017064
 30
0.0
 40
0.8
100
AcDbArc
 50
45.000001
 51
135.0
  0
ARC
  5
B1
100
AcDbEntity
  8
0
  6
CONTINUOUS
 62
     7
100
AcDbCircle
 10
-4.150272
 20
11.535421
 30
0.0
 40
0.8
100
AcDbArc
 50
135.0
 51
225.0
  0
ARC
  5
B2
100
AcDbEntity
  8
0
  6
CONTINUOUS
 62
     7
100
AcDbCircle
 10
19.974211
 20
-48.196621
 30
0.0
 40
2.62421
100
AcDbArc
 50
90.000003
 51
270.0
  0
ARC
  5
B3
100
AcDbEntity
  8
0
  6
CONTINUOUS
 62
     7
100
AcDbCircle
 10
20.026043
 20
-48.71526
 30
0.0
 40
2.676043
100
AcDbArc
 50
90.000003
 51
174.41168
  0
ARC
  5
B4
100
AcDbEntity
  8
0
  6
CONTINUOUS
 62
     7
100
AcDbCircle
 10
21.973957
 20
-48.71526
 30
0.0
 40
2.676043
100
AcDbArc
 50
5.588313
 51
90.000003
  0
ARC
  5
B5
100
AcDbEntity
  8
0
  6
CONTINUOUS
 62
     7
100
AcDbCircle
 10
22.025789
 20
-48.196621
 30
0.0
 40
2.62421
100
AcDbArc
 50
270.0
 51
90.000003
  0
CIRCLE
  5
B6
100
AcDbEntity
  8
0
  6
CONTINUOUS
 62
     7
100
AcDbCircle
 10
9.917217
 20
13.572956
 30
0.0
 40
3.4
  0
ARC
  5
B7
100
AcDbEntity
  8
0
  6
CONTINUOUS
 62
     7
100
AcDbCircle
 10
13.438549
 20
14.321437
 30
0.0
 40
1.4
100
AcDbArc
 50
282.0
 51
102.0
  0
CIRCLE
  5
B8
100
AcDbEntity
  8
0
  6
CONTINUOUS
 62
     7
100
AcDbCircle
 10
9.917217
 20
13.572956
 30
0.0
 40
2.25
  0
CIRCLE
  5
B9
100
AcDbEntity
  8
0
  6
CONTINUOUS
 62
     7
100
AcDbCircle
 10
9.917217
 20
13.572956
 30
0.0
 40
2.75
  0
ARC
  5
BA
100
AcDbEntity
  8
0
  6
CONTINUOUS
 62
     7
100
AcDbCircle
 10
5.664535
 20
-47.865257
 30
0.0
 40
8.0
100
AcDbArc
 50
90.000003
 51
136.56746
  0
ARC
  5
BB
100
AcDbEntity
  8
0
  6
CONTINUOUS
 62
     7
100
AcDbCircle
 10
6.225898
 20
-47.865257
 30
0.0
 40
8.0
100
AcDbArc
 50
92.010646
 51
136.56746
  0
ARC
  5
BC
100
AcDbEntity
  8
0
  6
CONTINUOUS
 62
     7
100
AcDbCircle
 10
-35.691951
 20
16.972955
 30
0.0
 40
4.708821
100
AcDbArc
 50
297.9747
 51
0.0
  0
ARC
  5
BD
100
AcDbEntity
  8
0
  6
CONTINUOUS
 62
     7
100
AcDbCircle
 10
-33.48313
 20
14.419385
 30
0.0
 40
4.246047
100
AcDbArc
 50
270.0
 51
306.07069
  0
LWPOLYLINE
  5
BE
100
AcDbEntity
  8
0
  6
CONTINUOUS
 62
     7
100
AcDbPolyline
 90
       17
 70
     0
 43
0.0
 10
20.0
 20
9.220304
 42
0.002234
 10
19.724394
 20
9.219074
 42
0.002262
 10
19.448693
 20
9.215365
 42
0.00232
 10
19.172868
 20
9.209128
 42
0.002411
 10
18.896886
 20
9.200277
 42
0.002543
 10
18.620715
 20
9.188682
 42
0.002724
 10
18.344319
 20
9.174164
 42
0.002972
 10
18.067657
 20
9.156474
 42
0.003313
 10
17.790682
 20
9.135273
 42
0.003757
 10
17.515559
 20
9.110307
 42
0.00442
 10
17.24086
 20
9.08086
 42
0.005418
 10
16.966755
 20
9.046039
 42
0.007031
 10
16.69353
 20
9.004453
 42
0.009946
 10
16.421726
 20
8.953722
 42
0.016296
 10
16.152596
 20
8.889111
 42
0.036595
 10
15.890535
 20
8.798028
 42
0.250704
 10
15.700084
 20
8.618106
  0
LWPOLYLINE
  5
D1
100
AcDbEntity
  8
0
  6
CONTINUOUS
 62
     7
100
AcDbPolyline
 90
       17
 70
     0
 43
0.0
 10
22.0
 20
9.220304
 42
-0.002234
 10
22.275606
 20
9.219074
 42
-0.002262
 10
22.551307
 20
9.215365
 42
-0.00232
 10
22.827132
 20
9.209128
 42
-0.002411
 10
23.103114
 20
9.200277
 42
-0.002543
 10
23.379285
 20
9.188682
 42
-0.002724
 10
23.655681
 20
9.174164
 42
-0.002972
 10
23.932343
 20
9.156474
 42
-0.003313
 10
24.209317
 20
9.135273
 42
-0.003757
 10
24.48444
 20
9.110307
 42
-0.00442
 10
24.75914
 20
9.08086
 42
-0.005418
 10
25.033245
 20
9.046039
 42
-0.007031
 10
25.306469
 20
9.004453
 42
-0.009946
 10
25.578273
 20
8.953722
 42
-0.016296
 10
25.847403
 20
8.889112
 42
-0.036595
 10
26.109464
 20
8.798028
 42
-0.250704
 10
26.299915
 20
8.618106
  0
LWPOLYLINE
  5
E4
100
AcDbEntity
  8
0
  6
CONTINUOUS
 62
     7
100
AcDbPolyline
 90
       17
 70
     0
 43
0.0
 10
20.0
 20
-43.103428
 42
0.048381
 10
19.165955
 20
-43.184309
 42
0.048531
 10
18.362266
 20
-43.424421
 42
0.048725
 10
17.620043
 20
-43.815238
 42
0.04898
 10
16.96771
 20
-44.342651
 42
0.049268
 10
16.430668
 20
-44.98734
 42
0.049539
 10
16.030447
 20
-45.725029
 42
0.049741
 10
15.783481
 20
-46.527164
 42
0.04985
 10
15.7
 20
-47.362286
 42
0.04981
 10
15.783347
 20
-48.196744
 42
0.049694
 10
16.029876
 20
-48.998185
 42
0.049513
 10
16.429592
 20
-49.735644
 42
0.049255
 10
16.966178
 20
-50.380411
 42
0.04899
 10
17.618387
 20
-50.908242
 42
0.04875
 10
18.360829
 20
-51.299564
 42
0.048563
 10
19.164963
 20
-51.540068
 42
0.048439
 10
20.0
 20
-51.621143
  0
LWPOLYLINE
  5
F7
100
AcDbEntity
  8
0
  6
CONTINUOUS
 62
     7
100
AcDbPolyline
 90
       17
 70
     0
 43
0.0
 10
22.0
 20
-51.621143
 42
0.048381
 10
22.834045
 20
-51.540262
 42
0.048531
 10
23.637734
 20
-51.30015
 42
0.048725
 10
24.379956
 20
-50.909333
 42
0.04898
 10
25.03229
 20
-50.38192
 42
0.049268
 10
25.569331
 20
-49.737231
 42
0.049539
 10
25.969552
 20
-48.999542
 42
0.049741
 10
26.216518
 20
-48.197407
 42
0.04985
 10
26.299999
 20
-47.362286
 42
0.04981
 10
26.216652
 20
-46.527827
 42
0.049694
 10
25.970123
 20
-45.726387
 42
0.049513
 10
25.570407
 20
-44.988927
 42
0.049255
 10
25.033822
 20
-44.344161
 42
0.04899
 10
24.381613
 20
-43.816329
 42
0.04875
 10
23.639171
 20
-43.425008
 42
0.048563
 10
22.835037
 20
-43.184504
 42
0.048439
 10
22.0
 20
-43.103428
  0
LWPOLYLINE
  5
10A
100
AcDbEntity
  8
0
  6
CONTINUOUS
 62
     7
100
AcDbPolyline
 90
       17
 70
     0
 43
0.0
 10
26.283491
 20
-47.823858
 42
0.023423
 10
26.23018
 20
-47.432401
 42
0.023457
 10
26.140243
 20
-47.046724
 42
0.023451
 10
26.014428
 20
-46.670719
 42
0.023422
 10
25.853882
 20
-46.307936
 42
0.023363
 10
25.66021
 20
-45.961848
 42
0.023306
 10
25.435134
 20
-45.635318
 42
0.023245
 10
25.180675
 20
-45.331116
 42
0.023183
 10
24.899097
 20
-45.051801
 42
0.023122
 10
24.592881
 20
-44.799703
 42
0.023064
 10
24.264699
 20
-44.576905
 42
0.023009
 10
23.917391
 20
-44.385233
 42
0.022961
 10
23.553938
 20
-44.226242
 42
0.02292
 10
23.17744
 20
-44.101215
 42
0.022887
 10
22.79109
 20
-44.011151
 42
0.022863
 10
22.398152
 20
-43.956762
 42
0.022961
 10
22.0
 20
-43.938469
  0
LWPOLYLINE
  5
11D
100
AcDbEntity
  8
0
  6
CONTINUOUS
 62
     7
100
AcDbPolyline
 90
       17
 70
     0
 43
0.0
 10
20.0
 20
-43.938469
 42
0.022675
 10
19.606794
 20
-43.956309
 42
0.022688
 10
19.216776
 20
-44.009701
 42
0.022753
 10
18.832485
 20
-44.09843
 42
0.022758
 10
18.458291
 20
-44.22157
 42
0.022843
 10
18.096164
 20
-44.378575
 42
0.022891
 10
17.749902
 20
-44.567987
 42
0.022946
 10
17.422428
 20
-44.788297
 42
0.023006
 10
17.116541
 20
-45.037734
 42
0.023069
 10
16.834886
 20
-45.314269
 42
0.023133
 10
16.579927
 20
-45.615628
 42
0.023195
 10
16.353925
 20
-45.939301
 42
0.023253
 10
16.158906
 20
-46.282559
 42
0.023305
 10
15.996636
 20
-46.642475
 42
0.023348
 10
15.868599
 20
-47.015946
 42
0.023382
 10
15.775971
 20
-47.399727
 42
0.023404
 10
15.719606
 20
-47.790456
  0
LINE
  5
130
100
AcDbEntity
  8
0
  6
CONTINUOUS
 62
     7
100
AcDbLine
 10
84.826039
 20
-54.365257
 30
0.0
 11
85.984306
 21
-53.206987
 31
0.0
  0
LINE
  5
131
100
AcDbEntity
  8
0
  6
CONTINUOUS
 62
     7
100
AcDbLine
 10
82.580977
 20
-54.365257
 30
0.0
 11
85.607837
 21
-51.338391
 31
0.0
  0
LINE
  5
132
100
AcDbEntity
  8
0
  6
CONTINUOUS
 62
     7
100
AcDbLine
 10
80.335911
 20
-54.365261
 30
0.0
 11
83.639417
 21
-51.061749
 31
0.0
  0
LINE
  5
133
100
AcDbEntity
  8
0
  6
CONTINUOUS
 62
     7
100
AcDbLine
 10
78.297878
 20
-54.158232
 30
0.0
 11
80.210101
 21
-52.246005
 31
0.0
  0
LINE
  5
134
100
AcDbEntity
  8
0
  6
CONTINUOUS
 62
     7
100
AcDbLine
 10
77.476127
 20
-52.734918
 30
0.0
 11
78.241683
 21
-51.969361
 31
0.0
  0
LINE
  5
135
100
AcDbEntity
  8
0
  6
CONTINUOUS
 62
     7
100
AcDbLine
 10
84.395157
 20
-45.815875
 30
0.0
 11
85.984313
 21
-44.226716
 31
0.0
  0
LINE
  5
136
100
AcDbEntity
  8
0
  6
CONTINUOUS
 62
     7
100
AcDbLine
 10
82.706841
 20
-45.259128
 30
0.0
 11
85.042507
 21
-42.923458
 31
0.0
  0
LINE
  5
137
100
AcDbEntity
  8
0
  6
CONTINUOUS
 62
     7
100
AcDbLine
 10
81.919215
 20
-43.80169
 30
0.0
 11
82.855645
 21
-42.865257
 31
0.0
  0
LINE
  5
138
100
AcDbEntity
  8
0
  6
CONTINUOUS
 62
     7
100
AcDbLine
 10
79.950796
 20
-43.525046
 30
0.0
 11
80.610583
 21
-42.865257
 31
0.0
  0
LINE
  5
139
100
AcDbEntity
  8
0
  6
CONTINUOUS
 62
     7
100
AcDbLine
 10
77.982378
 20
-43.248402
 30
0.0
 11
78.365522
 21
-42.865257
 31
0.0
  0
TEXT
  5
13C
100
AcDbEntity
  8
0
  6
CONTINUOUS
100
AcDbText
 10
11.05179
 20
-77.16565
 30
0.0
 40
6.0
  1
CSSPR8CA
100
AcDbText
  0
LINE
  5
165
102
{ACAD_REACTORS
330
16F
102
}
100
AcDbEntity
  8
寸法
  6
CONTINUOUS
 62
     1
100
AcDbLine
 10
89.098697
 20
-49.152959
 30
0.0
 11
102.614492
 21
-51.052481
 31
0.0
  0
LINE
  5
166
102
{ACAD_REACTORS
330
16F
102
}
100
AcDbEntity
  8
寸法
  6
CONTINUOUS
 62
     1
100
AcDbLine
 10
85.984306
 20
-48.71526
 30
0.0
 11
102.777927
 21
-48.71526
 31
0.0
  0
ARC
  5
167
102
{ACAD_REACTORS
330
16F
102
}
100
AcDbEntity
  8
寸法
  6
CONTINUOUS
 62
     1
100
AcDbCircle
 10
85.984306
 20
-48.71526
 30
0.0
 40
15.793621
100
AcDbArc
 50
337.449812
 51
351.999998
  0
LINE
  5
168
102
{ACAD_REACTORS
330
16F
102
}
100
AcDbEntity
  8
寸法
  6
CONTINUOUS
 62
     1
100
AcDbLine
 10
100.570409
 20
-54.771996
 30
0.0
 11
97.272373
 21
-62.714474
 31
0.0
  0
ARC
  5
169
102
{ACAD_REACTORS
330
16F
102
}
100
AcDbEntity
  8
寸法
  6
CONTINUOUS
 62
     1
100
AcDbCircle
 10
85.984306
 20
-48.71526
 30
0.0
 40
15.793621
100
AcDbArc
 50
337.479165
 51
344.739581
  0
ARC
  5
16A
100
AcDbEntity
  8
寸法
  6
CONTINUOUS
 62
     1
100
AcDbCircle
 10
85.984306
 20
-48.71526
 30
0.0
 40
15.793621
100
AcDbArc
 50
7.260416
 51
14.520833
  0
ARC
  5
16B
102
{ACAD_REACTORS
330
16F
102
}
100
AcDbEntity
  8
寸法
  6
CONTINUOUS
 62
     1
100
AcDbCircle
 10
85.984306
 20
-48.71526
 30
0.0
 40
15.793621
100
AcDbArc
 50
351.999998
 51
0.0
  0
INSERT
  5
16C
102
{ACAD_REACTORS
330
16F
102
}
100
AcDbEntity
  8
寸法
  6
CONTINUOUS
 62
     1
100
AcDbBlockReference
  2
_OPEN30
 10
101.624224
 20
-50.913308
 30
0.0
 41
2.0
 42
2.0
 43
2.0
 50
78.36979
  0
INSERT
  5
16D
102
{ACAD_REACTORS
330
16F
102
}
100
AcDbEntity
  8
寸法
  6
CONTINUOUS
 62
     1
100
AcDbBlockReference
  2
_OPEN30
 10
101.777927
 20
-48.71526
 30
0.0
 41
2.0
 42
2.0
 43
2.0
 50
273.630208
  0
MTEXT
  5
16E
102
{ACAD_REACTORS
330
16F
102
}
100
AcDbEntity
  8
寸法
  6
CONTINUOUS
 62
     1
100
AcDbMText
 10
96.612531
 20
-57.784504
 30
0.0
 40
3.0
 41
0.0
 71
     5
 72
     1
  1
\A1;8°
 11
0.383493
 21
0.923544
 31
0.0
1001
ACAD
1000
MTEXTBEGIN
1070
    73
1070
     1
1070
    44
1040
1.0
1070
    74
1070
     0
1000
MTEXTEND
1000
MTEXTBEGIN
1070
    73
1070
     1
1070
    44
1040
1.0
1070
    74
1070
     0
1000
MTEXTEND
  0
DIMENSION
  5
170
100
AcDbEntity
  8
寸法
  6
CONTINUOUS
100
AcDbDimension
  2
*D1
 10
90.0
 20
-54.365257
 30
0.0
 11
87.5
 21
-63.865257
 31
0.0
 70
    32
  3
STANDARD
100
AcDbAlignedDimension
 13
85.984306
 23
-48.71526
 33
0.0
 14
84.935726
 24
-54.365257
 34
0.0
 50
90.0
100
AcDbRotatedDimension
  0
DIMENSION
  5
17F
100
AcDbEntity
  8
寸法
  6
CONTINUOUS
100
AcDbDimension
  2
*D2
 10
20.0
 20
-60.0
 30
0.0
 11
14.0
 21
-57.5
 31
0.0
 70
    32
  3
STANDARD
100
AcDbAlignedDimension
 13
22.0
 23
-52.573051
 33
0.0
 14
20.0
 24
-52.657467
 34
0.0
100
AcDbRotatedDimension
  0
DIMENSION
  5
18E
100
AcDbEntity
  8
寸法
  6
CONTINUOUS
100
AcDbDimension
  2
*D3
 10
21.0
 20
-30.0
 30
0.0
 11
30.5
 21
-27.5
 31
0.0
 70
    32
  3
STANDARD
100
AcDbAlignedDimension
 13
40.0
 23
-46.865257
 33
0.0
 14
21.0
 24
-40.59407
 34
0.0
100
AcDbRotatedDimension
  0
DIMENSION
  5
19B
100
AcDbEntity
  8
寸法
  6
CONTINUOUS
100
AcDbDimension
  2
*D4
 10
50.0
 20
-54.365257
 30
0.0
 11
47.5
 21
-48.615257
 31
0.0
 70
    32
  3
STANDARD
100
AcDbAlignedDimension
 13
32.0
 23
-42.865257
 33
0.0
 14
32.0
 24
-54.365257
 34
0.0
 50
90.0
100
AcDbRotatedDimension
  0
DIMENSION
  5
1A8
100
AcDbEntity
  8
寸法
  6
CONTINUOUS
100
AcDbDimension
  2
*D5
 10
-10.0
 20
-54.365257
 30
0.0
 11
-12.5
 21
-49.365257
 31
0.0
 70
    32
  3
STANDARD
100
AcDbAlignedDimension
 13
-4.950273
 23
-44.365257
 33
0.0
 14
-1.238941
 24
-54.365257
 34
0.0
 50
90.0
100
AcDbRotatedDimension
  0
DIMENSION
  5
1B5
100
AcDbEntity
  8
寸法
  6
CONTINUOUS
100
AcDbDimension
  2
*D6
 10
-4.950272
 20
-20.0
 30
0.0
 11
17.524864
 21
-17.5
 31
0.0
 70
    32
  3
STANDARD
100
AcDbAlignedDimension
 13
40.0
 23
11.253777
 33
0.0
 14
-4.950272
 24
11.535421
 34
0.0
100
AcDbRotatedDimension
  0
DIMENSION
  5
1C2
100
AcDbEntity
  8
寸法
  6
CONTINUOUS
100
AcDbDimension
  2
*D7
 10
0.0
 20
-10.0
 30
0.0
 11
20.0
 21
-7.5
 31
0.0
 70
    32
  3
STANDARD
100
AcDbAlignedDimension
 13
40.0
 23
11.253777
 33
0.0
 14
0.0
 24
6.253778
 34
0.0
100
AcDbRotatedDimension
1001
ACAD
1000
DSTYLE
1002
{
1070
   287
1070
     4
1070
   287
1070
     4
1070
   279
1070
     1
1002
}
  0
DIMENSION
  5
1CF
100
AcDbEntity
  8
寸法
  6
CONTINUOUS
100
AcDbDimension
  2
*D8
 10
32.0
 20
0.0
 30
0.0
 11
36.0
 21
2.5
 31
0.0
 70
    32
  3
STANDARD
100
AcDbAlignedDimension
 13
40.0
 23
11.253777
 33
0.0
 14
32.0
 24
8.621378
 34
0.0
100
AcDbRotatedDimension
1001
ACAD
1000
DSTYLE
1002
{
1070
   287
1070
     4
1070
   287
1070
     4
1070
   279
1070
     1
1002
}
  0
DIMENSION
  5
1EE
100
AcDbEntity
  8
寸法
  6
CONTINUOUS
100
AcDbDimension
  2
*D9
 10
50.0
 20
18.253778
 30
0.0
 11
47.5
 21
13.437578
 31
0.0
 70
    32
  1
10.8
  3
STANDARD
100
AcDbAlignedDimension
 13
32.0
 23
8.621378
 33
0.0
 14
32.0
 24
18.253778
 34
0.0
 50
90.0
100
AcDbRotatedDimension
  0
LINE
  5
1FC
100
AcDbEntity
  8
0
  6
CONTINUOUS
100
AcDbLine
 10
-4.950272
 20
11.535421
 30
0.0
 11
-4.950272
 21
11.20405
 31
0.0
  0
LINE
  5
219
100
AcDbEntity
  8
0
  6
CONTINUOUS
 62
     7
100
AcDbLine
 10
-4.950272
 20
11.20405
 30
0.0
 11
-4.950272
 21
11.866791
 31
0.0
  0
DIMENSION
  5
21A
100
AcDbEntity
  8
寸法
  6
CONTINUOUS
100
AcDbDimension
  2
*D10
 10
-9.98448
 20
11.866791
 30
0.0
 11
-9.98448
 21
15.060285
 31
0.0
 70
   160
  1
6.4
  3
STANDARD
100
AcDbAlignedDimension
 13
1.436714
 23
18.253778
 33
0.0
 14
-4.950272
 24
11.866791
 34
0.0
 50
90.0
100
AcDbRotatedDimension
  0
DIMENSION
  5
257
100
AcDbEntity
  8
寸法
  6
CONTINUOUS
100
AcDbDimension
  2
*D11
 10
-20.0
 20
6.253778
 30
0.0
 11
-22.5
 21
12.253778
 31
0.0
 70
    32
  3
STANDARD
100
AcDbAlignedDimension
 13
-33.98313
 23
18.253778
 33
0.0
 14
-35.48313
 24
6.253778
 34
0.0
 50
90.0
100
AcDbRotatedDimension
  0
LINE
  5
264
100
AcDbEntity
  8
0
  6
CONTINUOUS
100
AcDbLine
 10
-35.48313
 20
6.253778
 30
0.0
 11
-35.48313
 21
16.972955
 31
0.0
  0
ARC
  5
266
100
AcDbEntity
  8
0
  6
CENTER
 62
     1
 48
0.5
100
AcDbCircle
 10
-35.48313
 20
21.253778
 30
0.0
 40
15.0
100
AcDbArc
 50
180.0
 51
270.0
  0
DIMENSION
  5
267
100
AcDbEntity
  8
寸法
  6
CONTINUOUS
100
AcDbDimension
  2
*D12
 10
-35.48313
 20
21.253778
 30
0.0
 11
-59.067218
 21
17.49834
 31
0.0
 70
    36
  1
%%c30
  3
STANDARD
100
AcDbRadialDimension
 15
-49.968175
 25
17.357181
 35
0.0
 40
0.0
1001
ACAD
1000
DSTYLE
1002
{
1070
   288
1070
     1
1002
}
  0
ARC
  5
27A
100
AcDbEntity
  8
0
  6
CENTER
 62
     1
 48
0.5
100
AcDbCircle
 10
20.0
 20
-48.454667
 30
0.0
 40
25.283184
100
AcDbArc
 50
170.691846
 51
239.989921
  0
DIMENSION
  5
27D
100
AcDbEntity
  8
寸法
  6
CONTINUOUS
100
AcDbDimension
  2
*D13
 10
20.0
 20
-48.454667
 30
0.0
 11
-8.220398
 21
-67.641035
 31
0.0
 70
    36
  1
%%c50
  3
STANDARD
100
AcDbRadialDimension
 15
0.189054
 25
-64.163448
 35
0.0
 40
0.0
1001
ACAD
1000
DSTYLE
1002
{
1070
   288
1070
     1
1002
}
  0
LINE
  5
29B
100
AcDbEntity
  8
寸法
  6
CONTINUOUS
100
AcDbLine
 10
-45.48313
 20
-44.365257
 30
0.0
 11
-44.068916
 21
-46.814747
 31
30.0
  0
LINE
  5
29C
100
AcDbEntity
  8
寸法
  6
CONTINUOUS
100
AcDbLine
 10
-45.48313
 20
-44.365257
 30
0.0
 11
-46.897344
 21
-46.814747
 31
30.0
  0
LINE
  5
29D
100
AcDbEntity
  8
寸法
  6
CONTINUOUS
100
AcDbLine
 10
-35.48313
 20
-54.365257
 30
0.0
 11
-37.93262
 21
-55.779471
 31
30.0
  0
LINE
  5
29E
100
AcDbEntity
  8
寸法
  6
CONTINUOUS
100
AcDbLine
 10
-35.48313
 20
-54.365257
 30
0.0
 11
-37.93262
 21
-52.951043
 31
30.0
  0
LINE
  5
29F
100
AcDbEntity
  8
寸法
  6
CONTINUOUS
100
AcDbLine
 10
-45.48313
 20
-54.365257
 30
0.0
 11
-45.48313
 21
-44.365257
 31
0.0
  0
LINE
  5
2A0
100
AcDbEntity
  8
寸法
  6
CONTINUOUS
100
AcDbLine
 10
-45.48313
 20
-54.365257
 30
0.0
 11
-35.48313
 21
-54.365257
 31
0.0
  0
MTEXT
  5
2A1
100
AcDbEntity
  8
寸法
  6
CONTINUOUS
 62
     1
100
AcDbMText
 10
-30.643532
 20
-54.052931
 30
0.0
 40
3.0
 41
0.0
 71
     5
 72
     1
  1
0%%d
1001
ACAD
1000
MTEXTBEGIN
1070
    73
1070
     1
1070
    44
1040
1.0
1070
    74
1070
     0
1000
MTEXTEND
1000
MTEXTBEGIN
1070
    73
1070
     1
1070
    44
1040
1.0
1070
    74
1070
     0
1000
MTEXTEND
1000
MTEXTBEGIN
1070
    73
1070
     1
1070
    44
1040
1.0
1070
    74
1070
     0
1000
MTEXTEND
1000
MTEXTBEGIN
1070
    73
1070
     1
1070
    44
1040
1.0
1070
    74
1070
     0
1000
MTEXTEND
1000
MTEXTBEGIN
1070
    73
1070
     1
1070
    44
1040
1.0
1070
    74
1070
     0
1000
MTEXTEND
1000
MTEXTBEGIN
1070
    73
1070
     1
1070
    44
1040
1.0
1070
    74
1070
     0
1000
MTEXTEND
  0
MTEXT
  5
2A2
100
AcDbEntity
  8
寸法
  6
CONTINUOUS
 62
     1
100
AcDbMText
 10
-45.074027
 20
-41.865257
 30
0.0
 40
3.0
 41
0.0
 71
     5
 72
     1
  1
0%%d
1001
ACAD
1000
MTEXTBEGIN
1070
    73
1070
     1
1070
    44
1040
1.0
1070
    74
1070
     0
1000
MTEXTEND
1000
MTEXTBEGIN
1070
    73
1070
     1
1070
    44
1040
1.0
1070
    74
1070
     0
1000
MTEXTEND
1000
MTEXTBEGIN
1070
    73
1070
     1
1070
    44
1040
1.0
1070
    74
1070
     0
1000
MTEXTEND
1000
MTEXTBEGIN
1070
    73
1070
     1
1070
    44
1040
1.0
1070
    74
1070
     0
1000
MTEXTEND
1000
MTEXTBEGIN
1070
    73
1070
     1
1070
    44
1040
1.0
1070
    74
1070
     0
1000
MTEXTEND
1000
MTEXTBEGIN
1070
    73
1070
     1
1070
    44
1040
1.0
1070
    74
1070
     0
1000
MTEXTEND
  0
DIMENSION
  5
2F1
100
AcDbEntity
  8
寸法
  6
CONTINUOUS
100
AcDbDimension
  2
*D14
 10
0.0
 20
5.253778
 30
0.0
 11
7.219367
 21
-4.926378
 31
0.0
 70
   162
  3
STANDARD
100
AcDb2LineAngularDimension
 13
-4.950272
 23
11.20405
 33
0.0
 14
-0.234315
 24
6.488093
 34
0.0
 15
0.0
 25
6.253778
 35
0.0
 16
3.444483
 26
-6.601209
 36
0.0
1001
ACAD
1000
DSTYLE
1002
{
1070
   271
1070
     0
1070
   271
1070
     0
1002
}
  0
LINE
  5
41E
100
AcDbEntity
  8
0
  6
CENTER
 62
     1
 48
0.5
100
AcDbLine
 10
-35.48313
 20
16.972955
 30
0.0
 11
-35.48313
 21
21.253778
 31
0.0
  0
ENDSEC
  0
SECTION
  2
OBJECTS
  0
DICTIONARY
  5
C
100
AcDbDictionary
  3
ACAD_GROUP
350
D
  3
ACAD_LAYOUT
350
141
  3
ACAD_MLINESTYLE
350
1B
  3
ACAD_PLOTSETTINGS
350
142
  3
ACAD_PLOTSTYLENAME
350
13F
  3
ACDBHEADERROUNDTRIPXREC
350
3D6
  0
DICTIONARY
  5
3D2
100
AcDbDictionary
280
     1
  3
ACAD_XREC_ROUNDTRIP
360
3D3
  0
DICTIONARY
  5
3F9
100
AcDbDictionary
280
     1
  3
ACAD_XREC_ROUNDTRIP
360
3FA
  0
DICTIONARY
  5
3A8
100
AcDbDictionary
280
     1
  3
ACAD_LAYOUTSELFREF
360
3F8
  0
DICTIONARY
  5
3A6
100
AcDbDictionary
280
     1
  3
ACAD_LAYOUTSELFREF
360
3F7
  0
DICTIONARY
  5
3D0
100
AcDbDictionary
280
     1
  3
ACAD_XREC_ROUNDTRIP
360
3D1
  0
DICTIONARY
  5
D
102
{ACAD_REACTORS
330
C
102
}
100
AcDbDictionary
  3
*A1
350
16F
  0
DICTIONARY
  5
141
102
{ACAD_XDICTIONARY
360
3FB
102
}
102
{ACAD_REACTORS
330
C
102
}
100
AcDbDictionary
  3
MODEL
350
143
  3
ﾚｲｱｳﾄ1
350
144
  0
DICTIONARY
  5
1B
102
{ACAD_REACTORS
330
C
102
}
100
AcDbDictionary
  3
STANDARD
350
1C
  0
DICTIONARY
  5
142
102
{ACAD_REACTORS
330
C
102
}
100
AcDbDictionary
  0
ACAD_PROXY_OBJECT
  5
13F
102
{ACAD_REACTORS
330
C
102
}
100
AcDbProxyObject
 90
      499
 91
      500
 93
       86
310
405010041939BDC9B585B3
350
140
340
140
 94
        0
  0
DICTIONARY
  5
3D6
102
{ACAD_REACTORS
330
C
102
}
100
AcDbDictionary
  3
CEPSNTYPE
350
3E0
  3
DIMSTYLEDATA
350
3E4
  3
FINGERPRINTGUID
350
3E1
  3
HYPERLINKBASE
350
3D9
  3
INSUNITS
350
3DF
  3
LAYOUTDICT
350
3DB
  3
LWETCUNION
350
3DE
  3
PLOTSETDICT
350
3DC
  3
PLOTSTYLNAMDICT
350
3DD
  3
PSVPSCALE
350
3E3
  3
PUCSBASE
350
3E7
  3
PUCSORGBACK
350
3ED
  3
PUCSORGBOTTOM
350
3E9
  3
PUCSORGFRONT
350
3EC
  3
PUCSORGLEFT
350
3EA
  3
PUCSORGRIGHT
350
3EB
  3
PUCSORGTOP
350
3E8
  3
PUCSORTHOREF
350
3E5
  3
PUCSORTHOVIEW
350
3E6
  3
STYLESHEET
350
3DA
  3
TSTACKALIGN
350
3D7
  3
TSTACKSIZE
350
3D8
  3
UCSBASE
350
3F0
  3
UCSORGBACK
350
3F6
  3
UCSORGBOTTOM
350
3F2
  3
UCSORGFRONT
350
3F5
  3
UCSORGLEFT
350
3F3
  3
UCSORGRIGHT
350
3F4
  3
UCSORGTOP
350
3F1
  3
UCSORTHOREF
350
3EE
  3
UCSORTHOVIEW
350
3EF
  3
VERSIONGUID
350
3E2
  0
XRECORD
  5
3D3
102
{ACAD_REACTORS
330
3D2
102
}
100
AcDbXrecord
102
EXTNAMES
  1
DEFPOINTS
  2
Defpoints
102
PLOTBIT
280
     0
  0
XRECORD
  5
3FA
102
{ACAD_REACTORS
330
3F9
102
}
100
AcDbXrecord
102
ACADR14ROUNDTRIP
1000
DSTYLE
1002
{
1070
   341
340
149
1070
   342
340
149
1002
}
  0
XRECORD
  5
3F8
102
{ACAD_REACTORS
330
3A8
102
}
100
AcDbXrecord
340
18
  0
XRECORD
  5
3F7
102
{ACAD_REACTORS
330
3A6
102
}
100
AcDbXrecord
340
15
  0
XRECORD
  5
3D1
102
{ACAD_REACTORS
330
3D0
102
}
100
AcDbXrecord
102
EXTNAMES
  1
_OPEN30
  2
_Open30
  0
GROUP
  5
16F
102
{ACAD_REACTORS
330
D
102
}
100
AcDbGroup
300

 70
     1
 71
     1
340
166
340
16C
340
167
340
16E
340
168
340
169
340
165
340
16D
340
16B
  0
DICTIONARY
  5
3FB
100
AcDbDictionary
280
     1
  3
ACAD_XREC_ROUNDTRIP
360
3FC
  0
ACAD_PROXY_OBJECT
  5
143
102
{ACAD_REACTORS
330
141
102
}
100
AcDbProxyObject
 90
      499
 91
      502
 93
      548
310
90E4550534F4E20504D2D32303030432C01AAAAAAAAA5A69054D6F64656C901A800000000000000000000000000000000000000000000A1000000000000008902A6A6AAAA6
330
18
330
0
340
0
340
0
 94
        0
  0
ACAD_PROXY_OBJECT
  5
144
102
{ACAD_REACTORS
330
141
102
}
100
AcDbProxyObject
 90
      499
 91
      502
 93
      964
310
90E4550534F4E20504D2D32303030432C00AAAAAA416AA59106906DAB2B1B3C43140501A800000000000000000000000000000000000000000000A1000000000000008902A6A6A10232D5E076BC5510408CB5781DAF154410232D5E076BC5510408CB5781DAF15C410232D5E076BC5710408CB5781DAF15C44
330
15
330
0
340
0
340
0
 94
        0
  0
MLINESTYLE
  5
1C
102
{ACAD_REACTORS
330
1B
102
}
100
AcDbMlineStyle
  2
STANDARD
 70
     0
  3

 62
   256
 51
90.0
 52
90.0
 71
     2
 49
0.5
 62
   256
  6
BYLAYER
 49
-0.5
 62
   256
  6
BYLAYER
  0
ACAD_PROXY_OBJECT
  5
140
102
{ACAD_REACTORS
330
13F
102
}
100
AcDbProxyObject
 90
      499
 91
      501
 93
        0
 94
        0
  0
XRECORD
  5
3E0
102
{ACAD_REACTORS
330
3D6
102
}
100
AcDbXrecord
 90
        0
  0
XRECORD
  5
3E4
102
{ACAD_REACTORS
330
3D6
102
}
100
AcDbXrecord
1000
DSTYLE
1002
{
1070
   341
340
149
1070
   342
340
149
1002
}
  0
XRECORD
  5
3E1
102
{ACAD_REACTORS
330
3D6
102
}
100
AcDbXrecord
  1
{8CFAD72C-16FF-4652-B566-CD315785E967}
  0
XRECORD
  5
3D9
102
{ACAD_REACTORS
330
3D6
102
}
100
AcDbXrecord
  1

  0
XRECORD
  5
3DF
102
{ACAD_REACTORS
330
3D6
102
}
100
AcDbXrecord
 90
        0
  0
XRECORD
  5
3DB
102
{ACAD_REACTORS
330
3D6
102
}
100
AcDbXrecord
340
141
  0
XRECORD
  5
3DE
102
{ACAD_REACTORS
330
3D6
102
}
100
AcDbXrecord
 90
    14877
  0
XRECORD
  5
3DC
102
{ACAD_REACTORS
330
3D6
102
}
100
AcDbXrecord
340
142
  0
XRECORD
  5
3DD
102
{ACAD_REACTORS
330
3D6
102
}
100
AcDbXrecord
340
13F
  0
XRECORD
  5
3E3
102
{ACAD_REACTORS
330
3D6
102
}
100
AcDbXrecord
 40
0.0
  0
XRECORD
  5
3E7
102
{ACAD_REACTORS
330
3D6
102
}
100
AcDbXrecord
340
0
  0
XRECORD
  5
3ED
102
{ACAD_REACTORS
330
3D6
102
}
100
AcDbXrecord
 10
0.0
 20
0.0
 30
0.0
  0
XRECORD
  5
3E9
102
{ACAD_REACTORS
330
3D6
102
}
100
AcDbXrecord
 10
0.0
 20
0.0
 30
0.0
  0
XRECORD
  5
3EC
102
{ACAD_REACTORS
330
3D6
102
}
100
AcDbXrecord
 10
0.0
 20
0.0
 30
0.0
  0
XRECORD
  5
3EA
102
{ACAD_REACTORS
330
3D6
102
}
100
AcDbXrecord
 10
0.0
 20
0.0
 30
0.0
  0
XRECORD
  5
3EB
102
{ACAD_REACTORS
330
3D6
102
}
100
AcDbXrecord
 10
0.0
 20
0.0
 30
0.0
  0
XRECORD
  5
3E8
102
{ACAD_REACTORS
330
3D6
102
}
100
AcDbXrecord
 10
0.0
 20
0.0
 30
0.0
  0
XRECORD
  5
3E5
102
{ACAD_REACTORS
330
3D6
102
}
100
AcDbXrecord
340
0
  0
XRECORD
  5
3E6
102
{ACAD_REACTORS
330
3D6
102
}
100
AcDbXrecord
 70
     0
  0
XRECORD
  5
3DA
102
{ACAD_REACTORS
330
3D6
102
}
100
AcDbXrecord
  1

  0
XRECORD
  5
3D7
102
{ACAD_REACTORS
330
3D6
102
}
100
AcDbXrecord
 90
        1
  0
XRECORD
  5
3D8
102
{ACAD_REACTORS
330
3D6
102
}
100
AcDbXrecord
 90
       70
  0
XRECORD
  5
3F0
102
{ACAD_REACTORS
330
3D6
102
}
100
AcDbXrecord
340
0
  0
XRECORD
  5
3F6
102
{ACAD_REACTORS
330
3D6
102
}
100
AcDbXrecord
 10
0.0
 20
0.0
 30
0.0
  0
XRECORD
  5
3F2
102
{ACAD_REACTORS
330
3D6
102
}
100
AcDbXrecord
 10
0.0
 20
0.0
 30
0.0
  0
XRECORD
  5
3F5
102
{ACAD_REACTORS
330
3D6
102
}
100
AcDbXrecord
 10
0.0
 20
0.0
 30
0.0
  0
XRECORD
  5
3F3
102
{ACAD_REACTORS
330
3D6
102
}
100
AcDbXrecord
 10
0.0
 20
0.0
 30
0.0
  0
XRECORD
  5
3F4
102
{ACAD_REACTORS
330
3D6
102
}
100
AcDbXrecord
 10
0.0
 20
0.0
 30
0.0
  0
XRECORD
  5
3F1
102
{ACAD_REACTORS
330
3D6
102
}
100
AcDbXrecord
 10
0.0
 20
0.0
 30
0.0
  0
XRECORD
  5
3EE
102
{ACAD_REACTORS
330
3D6
102
}
100
AcDbXrecord
340
0
  0
XRECORD
  5
3EF
102
{ACAD_REACTORS
330
3D6
102
}
100
AcDbXrecord
 70
     0
  0
XRECORD
  5
3E2
102
{ACAD_REACTORS
330
3D6
102
}
100
AcDbXrecord
  1
{D4BC1DB6-F9EC-46C4-A84A-E26F6531BA4E}
  0
XRECORD
  5
3FC
102
{ACAD_REACTORS
330
3FB
102
}
100
AcDbXrecord
102
EXTNAMES
  1
MODEL
  2
Model
  0
ENDSEC
  0
EOF
