  0
SECTION
  2
HEADER
  9
$ACADVER
  1
AC1014
  9
$ACADMAINTVER
 70
     0
  9
$DWGCODEPAGE
  3
ANSI_932
  9
$INSBASE
 10
0.0
 20
0.0
 30
0.0
  9
$EXTMIN
 10
-60.982071
 20
-76.165529
 30
0.0
  9
$EXTMAX
 10
111.958655
 20
18.999997
 30
30.0
  9
$LIMMIN
 10
-83.999539
 20
-93.460761
  9
$LIMMAX
 10
155.941281
 20
57.044413
  9
$ORTHOMODE
 70
     0
  9
$REGENMODE
 70
     1
  9
$FILLMODE
 70
     1
  9
$QTEXTMODE
 70
     0
  9
$MIRRTEXT
 70
     1
  9
$DRAGMODE
 70
     2
  9
$LTSCALE
 40
1.0
  9
$OSMODE
 70
    33
  9
$ATTMODE
 70
     1
  9
$TEXTSIZE
 40
0.2
  9
$TRACEWID
 40
0.05
  9
$TEXTSTYLE
  7
STANDARD
  9
$CLAYER
  8
0
  9
$CELTYPE
  6
CONTINUOUS
  9
$CECOLOR
 62
   256
  9
$CELTSCALE
 40
1.0
  9
$DELOBJ
 70
     1
  9
$DISPSILH
 70
     0
  9
$DIMSCALE
 40
1.0
  9
$DIMASZ
 40
2.0
  9
$DIMEXO
 40
1.0
  9
$DIMDLI
 40
10.0
  9
$DIMRND
 40
0.0
  9
$DIMDLE
 40
0.0
  9
$DIMEXE
 40
1.0
  9
$DIMTP
 40
0.0
  9
$DIMTM
 40
0.0
  9
$DIMTXT
 40
3.0
  9
$DIMCEN
 40
2.0
  9
$DIMTSZ
 40
0.0
  9
$DIMTOL
 70
     0
  9
$DIMLIM
 70
     0
  9
$DIMTIH
 70
     0
  9
$DIMTOH
 70
     0
  9
$DIMSE1
 70
     0
  9
$DIMSE2
 70
     0
  9
$DIMTAD
 70
     1
  9
$DIMZIN
 70
     8
  9
$DIMBLK
  1
OPEN30
  9
$DIMASO
 70
     1
  9
$DIMSHO
 70
     1
  9
$DIMPOST
  1

  9
$DIMAPOST
  1

  9
$DIMALT
 70
     0
  9
$DIMALTD
 70
     2
  9
$DIMALTF
 40
25.4
  9
$DIMLFAC
 40
1.0
  9
$DIMTOFL
 70
     1
  9
$DIMTVP
 40
0.0
  9
$DIMTIX
 70
     0
  9
$DIMSOXD
 70
     0
  9
$DIMSAH
 70
     0
  9
$DIMBLK1
  1

  9
$DIMBLK2
  1

  9
$DIMSTYLE
  2
STANDARD
  9
$DIMCLRD
 70
     1
  9
$DIMCLRE
 70
     1
  9
$DIMCLRT
 70
     1
  9
$DIMTFAC
 40
1.0
  9
$DIMGAP
 40
1.0
  9
$DIMJUST
 70
     0
  9
$DIMSD1
 70
     0
  9
$DIMSD2
 70
     0
  9
$DIMTOLJ
 70
     1
  9
$DIMTZIN
 70
     0
  9
$DIMALTZ
 70
     0
  9
$DIMALTTZ
 70
     0
  9
$DIMFIT
 70
     3
  9
$DIMUPT
 70
     0
  9
$DIMUNIT
 70
     2
  9
$DIMDEC
 70
     2
  9
$DIMTDEC
 70
     2
  9
$DIMALTU
 70
     2
  9
$DIMALTTD
 70
     2
  9
$DIMTXSTY
  7
STANDARD
  9
$DIMAUNIT
 70
     0
  9
$LUNITS
 70
     2
  9
$LUPREC
 70
     4
  9
$SKETCHINC
 40
0.1
  9
$FILLETRAD
 40
0.0
  9
$AUNITS
 70
     0
  9
$AUPREC
 70
     0
  9
$MENU
  1
acad
  9
$ELEVATION
 40
0.0
  9
$PELEVATION
 40
0.0
  9
$THICKNESS
 40
0.0
  9
$LIMCHECK
 70
     0
  9
$BLIPMODE
 70
     0
  9
$CHAMFERA
 40
0.0
  9
$CHAMFERB
 40
0.0
  9
$CHAMFERC
 40
0.0
  9
$CHAMFERD
 40
0.0
  9
$SKPOLY
 70
     0
  9
$TDCREATE
 40
2444972.375000000
  9
$TDUPDATE
 40
2451977.474189814
  9
$TDINDWG
 40
0.0061591435
  9
$TDUSRTIMER
 40
0.0061591435
  9
$USRTIMER
 70
     1
  9
$ANGBASE
 50
0.0
  9
$ANGDIR
 70
     0
  9
$PDMODE
 70
     0
  9
$PDSIZE
 40
0.0
  9
$PLINEWID
 40
0.0
  9
$COORDS
 70
     1
  9
$SPLFRAME
 70
     0
  9
$SPLINETYPE
 70
     6
  9
$SPLINESEGS
 70
     8
  9
$ATTDIA
 70
     0
  9
$ATTREQ
 70
     1
  9
$HANDLING
 70
     1
  9
$HANDSEED
  5
32C
  9
$SURFTAB1
 70
     6
  9
$SURFTAB2
 70
     6
  9
$SURFTYPE
 70
     6
  9
$SURFU
 70
     6
  9
$SURFV
 70
     6
  9
$UCSNAME
  2

  9
$UCSORG
 10
0.0
 20
0.0
 30
0.0
  9
$UCSXDIR
 10
1.0
 20
0.0
 30
0.0
  9
$UCSYDIR
 10
0.0
 20
1.0
 30
0.0
  9
$PUCSNAME
  2

  9
$PUCSORG
 10
0.0
 20
0.0
 30
0.0
  9
$PUCSXDIR
 10
1.0
 20
0.0
 30
0.0
  9
$PUCSYDIR
 10
0.0
 20
1.0
 30
0.0
  9
$USERI1
 70
     0
  9
$USERI2
 70
     0
  9
$USERI3
 70
     0
  9
$USERI4
 70
     0
  9
$USERI5
 70
     0
  9
$USERR1
 40
0.0
  9
$USERR2
 40
0.0
  9
$USERR3
 40
0.0
  9
$USERR4
 40
0.0
  9
$USERR5
 40
0.0
  9
$WORLDVIEW
 70
     1
  9
$SHADEDGE
 70
     3
  9
$SHADEDIF
 70
    70
  9
$TILEMODE
 70
     1
  9
$MAXACTVP
 70
    48
  9
$PINSBASE
 10
0.0
 20
0.0
 30
0.0
  9
$PLIMCHECK
 70
     0
  9
$PEXTMIN
 10
1.000000E+20
 20
1.000000E+20
 30
1.000000E+20
  9
$PEXTMAX
 10
-1.000000E+20
 20
-1.000000E+20
 30
-1.000000E+20
  9
$PLIMMIN
 10
0.0
 20
0.0
  9
$PLIMMAX
 10
12.0
 20
9.0
  9
$UNITMODE
 70
     0
  9
$VISRETAIN
 70
     1
  9
$PLINEGEN
 70
     0
  9
$PSLTSCALE
 70
     1
  9
$TREEDEPTH
 70
  3020
  9
$PICKSTYLE
 70
     1
  9
$CMLSTYLE
  2
STANDARD
  9
$CMLJUST
 70
     0
  9
$CMLSCALE
 40
1.0
  9
$PROXYGRAPHICS
 70
     1
  9
$MEASUREMENT
 70
     0
  0
ENDSEC
  0
SECTION
  2
CLASSES
  0
CLASS
  1
ACDBDICTIONARYWDFLT
  2
AcDbDictionaryWithDefault
  3
AutoCAD 2000
 90
        0
280
     0
281
     0
  0
CLASS
  1
ACDBPLACEHOLDER
  2
AcDbPlaceHolder
  3
AutoCAD 2000
 90
        0
280
     0
281
     0
  0
CLASS
  1
LAYOUT
  2
AcDbLayout
  3
AutoCAD 2000
 90
        0
280
     0
281
     0
  0
CLASS
  1
LONG_TRANSACTION
  2
AcDbLongTransaction
  3
AutoCAD 2000
 90
        0
280
     0
281
     0
  0
CLASS
  1
LWPOLYLINE
  2
AcDbPolyline
  3
"AutoCAD"
 90
        0
280
     0
281
     1
  0
CLASS
  1
HATCH
  2
AcDbHatch
  3
"ACAD_SEDONA"
 90
        0
280
     0
281
     1
  0
CLASS
  1
XRECORD
  2
AcDbXrecord
  3
"<Built In>"
 90
        0
280
     0
281
     0
  0
CLASS
  1
LONG_TRANSACTION
  2
AcDbLongTransaction
  3
AutoCAD 2000
 90
        0
280
     0
281
     0
  0
CLASS
  1
LWPOLYLINE
  2
AcDbPolyline
  3
"AutoCAD"
 90
        0
280
     0
281
     1
  0
CLASS
  1
HATCH
  2
AcDbHatch
  3
"ACAD_SEDONA"
 90
        0
280
     0
281
     1
  0
CLASS
  1
XRECORD
  2
AcDbXrecord
  3
"<Built In>"
 90
        0
280
     0
281
     0
  0
ENDSEC
  0
SECTION
  2
TABLES
  0
TABLE
  2
VPORT
  5
8
100
AcDbSymbolTable
 70
     2
  0
VPORT
  5
32B
100
AcDbSymbolTableRecord
100
AcDbViewportTableRecord
  2
*ACTIVE
 70
     0
 10
0.0
 20
0.0
 11
1.0
 21
1.0
 12
60.730422
 22
-35.309544
 13
0.0
 23
0.0
 14
10.0
 24
10.0
 15
10.0
 25
10.0
 16
0.0
 26
0.0
 36
1.0
 17
0.0
 27
0.0
 37
0.0
 40
173.273038
 41
1.710425
 42
50.0
 43
0.0
 44
0.0
 50
0.0
 51
0.0
 71
     0
 72
   100
 73
     1
 74
     1
 75
     0
 76
     0
 77
     0
 78
     0
  0
ENDTAB
  0
TABLE
  2
LTYPE
  5
5
100
AcDbSymbolTable
 70
     5
  0
LTYPE
  5
12
100
AcDbSymbolTableRecord
100
AcDbLinetypeTableRecord
  2
BYBLOCK
 70
     0
  3

 72
    65
 73
     0
 40
0.0
  0
LTYPE
  5
13
100
AcDbSymbolTableRecord
100
AcDbLinetypeTableRecord
  2
BYLAYER
 70
     0
  3

 72
    65
 73
     0
 40
0.0
  0
LTYPE
  5
14
100
AcDbSymbolTableRecord
100
AcDbLinetypeTableRecord
  2
CONTINUOUS
 70
     0
  3
Solid line
 72
    65
 73
     0
 40
0.0
  0
LTYPE
  5
1F
100
AcDbSymbolTableRecord
100
AcDbLinetypeTableRecord
  2
DASHED
 70
     0
  3
__ __ __ __ __ __ __ __ __ __ __ __ __ __ __
 72
    65
 73
     2
 40
3.5
 49
2.0
 74
     0
 49
-1.5
 74
     0
  0
LTYPE
  5
20
100
AcDbSymbolTableRecord
100
AcDbLinetypeTableRecord
  2
CENTER
 70
     0
  3
____ _ ____ _ ____ _ ____ _ ____ _ ____ _ ____
 72
    65
 73
     4
 40
17.5
 49
13.0
 74
     0
 49
-1.5
 74
     0
 49
1.5
 74
     0
 49
-1.5
 74
     0
  0
LTYPE
  5
21
100
AcDbSymbolTableRecord
100
AcDbLinetypeTableRecord
  2
PHANTOM
 70
     0
  3
_____ _ _ _____ _ _ _____ _ _ _____ _ _ ____  
 72
    65
 73
     6
 40
15.5
 49
8.0
 74
     0
 49
-1.5
 74
     0
 49
1.5
 74
     0
 49
-1.5
 74
     0
 49
1.5
 74
     0
 49
-1.5
 74
     0
  0
LTYPE
  5
22
100
AcDbSymbolTableRecord
100
AcDbLinetypeTableRecord
  2
DOT
 70
     0
  3
. . . . . . . . . . . . . . . . . . . . . . . .
 72
    65
 73
     2
 40
0.25
 49
0.0
 74
     0
 49
-0.25
 74
     0
  0
ENDTAB
  0
TABLE
  2
LAYER
  5
2
100
AcDbSymbolTable
 70
     3
  0
LAYER
  5
E
100
AcDbSymbolTableRecord
100
AcDbLayerTableRecord
  2
0
 70
     0
 62
     7
  6
CONTINUOUS
  0
LAYER
  5
1AF
100
AcDbSymbolTableRecord
100
AcDbLayerTableRecord
  2
寸法
 70
     0
 62
     1
  6
CONTINUOUS
  0
LAYER
  5
1B9
102
{ACAD_XDICTIONARY
360
2E2
102
}
100
AcDbSymbolTableRecord
100
AcDbLayerTableRecord
  2
DEFPOINTS
 70
     0
 62
     7
  6
CONTINUOUS
  0
ENDTAB
  0
TABLE
  2
STYLE
  5
3
100
AcDbSymbolTable
 70
     1
  0
STYLE
  5
F
100
AcDbSymbolTableRecord
100
AcDbTextStyleTableRecord
  2
STANDARD
 70
     0
 40
0.0
 41
1.0
 50
0.0
 71
     0
 42
0.2
  3
txt
  4
BIGFONT
  0
ENDTAB
  0
TABLE
  2
VIEW
  5
6
100
AcDbSymbolTable
 70
     0
  0
ENDTAB
  0
TABLE
  2
UCS
  5
7
100
AcDbSymbolTable
 70
     0
  0
ENDTAB
  0
TABLE
  2
APPID
  5
9
100
AcDbSymbolTable
 70
     1
  0
APPID
  5
10
100
AcDbSymbolTableRecord
100
AcDbRegAppTableRecord
  2
ACAD
 70
     0
  0
ENDTAB
  0
TABLE
  2
DIMSTYLE
  5
A
100
AcDbSymbolTable
 70
     1
  0
DIMSTYLE
105
1A1
102
{ACAD_XDICTIONARY
360
309
102
}
102
{ACAD_REACTORS
330
1D3
330
1E2
330
1EF
330
1FC
330
20B
330
218
330
225
330
232
330
23F
330
255
330
272
102
}
100
AcDbSymbolTableRecord
100
AcDbDimStyleTableRecord
  2
STANDARD
 70
     0
  3

  4

  5
OPEN30
  6

  7

 40
1.0
 41
2.0
 42
1.0
 43
10.0
 44
1.0
 45
0.0
 46
0.0
 47
0.0
 48
0.0
140
3.0
141
2.0
142
0.0
143
25.4
144
1.0
145
0.0
146
1.0
147
1.0
 71
     0
 72
     0
 73
     0
 74
     0
 75
     0
 76
     0
 77
     1
 78
     8
170
     0
171
     2
172
     1
173
     0
174
     0
175
     0
176
     1
177
     1
178
     1
270
     2
271
     2
272
     2
273
     2
274
     2
340
F
275
     0
280
     0
281
     0
282
     0
283
     1
284
     0
285
     0
286
     0
287
     3
288
     0
  0
ENDTAB
  0
TABLE
  2
BLOCK_RECORD
  5
1
100
AcDbSymbolTable
 70
    12
  0
BLOCK_RECORD
  5
18
102
{ACAD_XDICTIONARY
360
2C2
102
}
100
AcDbSymbolTableRecord
100
AcDbBlockTableRecord
  2
*MODEL_SPACE
  0
BLOCK_RECORD
  5
15
102
{ACAD_XDICTIONARY
360
2C0
102
}
100
AcDbSymbolTableRecord
100
AcDbBlockTableRecord
  2
*PAPER_SPACE
  0
BLOCK_RECORD
  5
1B0
102
{ACAD_XDICTIONARY
360
2E0
102
}
100
AcDbSymbolTableRecord
100
AcDbBlockTableRecord
  2
_OPEN30
  0
BLOCK_RECORD
  5
1D4
100
AcDbSymbolTableRecord
100
AcDbBlockTableRecord
  2
*D1
  0
BLOCK_RECORD
  5
1E3
100
AcDbSymbolTableRecord
100
AcDbBlockTableRecord
  2
*D2
  0
BLOCK_RECORD
  5
1F0
100
AcDbSymbolTableRecord
100
AcDbBlockTableRecord
  2
*D3
  0
BLOCK_RECORD
  5
1FD
100
AcDbSymbolTableRecord
100
AcDbBlockTableRecord
  2
*D4
  0
BLOCK_RECORD
  5
20C
100
AcDbSymbolTableRecord
100
AcDbBlockTableRecord
  2
*D5
  0
BLOCK_RECORD
  5
219
100
AcDbSymbolTableRecord
100
AcDbBlockTableRecord
  2
*D6
  0
BLOCK_RECORD
  5
226
100
AcDbSymbolTableRecord
100
AcDbBlockTableRecord
  2
*D7
  0
BLOCK_RECORD
  5
233
100
AcDbSymbolTableRecord
100
AcDbBlockTableRecord
  2
*D8
  0
BLOCK_RECORD
  5
240
100
AcDbSymbolTableRecord
100
AcDbBlockTableRecord
  2
*D9
  0
BLOCK_RECORD
  5
256
100
AcDbSymbolTableRecord
100
AcDbBlockTableRecord
  2
*D10
  0
BLOCK_RECORD
  5
273
100
AcDbSymbolTableRecord
100
AcDbBlockTableRecord
  2
*D11
  0
ENDTAB
  0
ENDSEC
  0
SECTION
  2
BLOCKS
  0
BLOCK
  5
19
100
AcDbEntity
  8
0
100
AcDbBlockBegin
  2
*MODEL_SPACE
 70
     0
 10
0.0
 20
0.0
 30
0.0
  3
*MODEL_SPACE
  1

  0
ENDBLK
  5
1A
100
AcDbEntity
  8
0
100
AcDbBlockEnd
  0
BLOCK
  5
16
100
AcDbEntity
 67
     1
  8
0
100
AcDbBlockBegin
  2
*PAPER_SPACE
 70
     0
 10
0.0
 20
0.0
 30
0.0
  3
*PAPER_SPACE
  1

  0
ENDBLK
  5
17
100
AcDbEntity
 67
     1
  8
0
100
AcDbBlockEnd
  0
BLOCK
  5
1B4
100
AcDbEntity
  8
0
100
AcDbBlockBegin
  2
_OPEN30
 70
     0
 10
0.0
 20
0.0
 30
0.0
  3
_OPEN30
  1

  0
LINE
  5
1B1
100
AcDbEntity
  8
0
  6
BYBLOCK
 62
     0
100
AcDbLine
 10
-1.0
 20
0.267949
 30
0.0
 11
0.0
 21
0.0
 31
0.0
1001
ACAD
1000
RTLwPs
1070
   158
  0
LINE
  5
1B2
100
AcDbEntity
  8
0
  6
BYBLOCK
 62
     0
100
AcDbLine
 10
0.0
 20
0.0
 30
0.0
 11
-1.0
 21
-0.267949
 31
0.0
1001
ACAD
1000
RTLwPs
1070
   158
  0
LINE
  5
1B3
100
AcDbEntity
  8
0
  6
BYBLOCK
 62
     0
100
AcDbLine
 10
0.0
 20
0.0
 30
0.0
 11
-1.0
 21
0.0
 31
0.0
1001
ACAD
1000
RTLwPs
1070
   158
  0
ENDBLK
  5
1B5
100
AcDbEntity
  8
0
100
AcDbBlockEnd
  0
BLOCK
  5
1E0
100
AcDbEntity
  8
0
100
AcDbBlockBegin
  2
*D1
 70
     1
 10
0.0
 20
0.0
 30
0.0
  3
*D1
  1

  0
LINE
  5
1D5
100
AcDbEntity
  8
寸法
  6
CONTINUOUS
 62
     1
100
AcDbLine
 10
94.783014
 20
-45.0
 30
0.0
 11
101.0
 21
-45.0
 31
0.0
1001
ACAD
1000
RTLwPs
1070
   158
  0
LINE
  5
1D6
100
AcDbEntity
  8
寸法
  6
CONTINUOUS
 62
     1
100
AcDbLine
 10
93.783002
 20
-50.0
 30
0.0
 11
101.0
 21
-50.0
 31
0.0
1001
ACAD
1000
RTLwPs
1070
   158
  0
LINE
  5
1D7
100
AcDbEntity
  8
寸法
  6
CONTINUOUS
 62
     1
100
AcDbLine
 10
100.0
 20
-43.0
 30
0.0
 11
100.0
 21
-41.0
 31
0.0
1001
ACAD
1000
RTLwPs
1070
   158
  0
LINE
  5
1D8
100
AcDbEntity
  8
寸法
  6
CONTINUOUS
 62
     1
100
AcDbLine
 10
100.0
 20
-52.0
 30
0.0
 11
100.0
 21
-54.0
 31
0.0
1001
ACAD
1000
RTLwPs
1070
   158
  0
LINE
  5
1D9
100
AcDbEntity
  8
寸法
  6
CONTINUOUS
 62
     1
100
AcDbLine
 10
100.0
 20
-45.0
 30
0.0
 11
100.0
 21
-50.0
 31
0.0
1001
ACAD
1000
RTLwPs
1070
   158
  0
INSERT
  5
1DA
100
AcDbEntity
  8
寸法
  6
CONTINUOUS
 62
     1
100
AcDbBlockReference
  2
_OPEN30
 10
100.0
 20
-45.0
 30
0.0
 41
2.0
 42
2.0
 43
2.0
 50
270.0
1001
ACAD
1000
RTLwPs
1070
   158
  0
INSERT
  5
1DB
100
AcDbEntity
  8
寸法
  6
CONTINUOUS
 62
     1
100
AcDbBlockReference
  2
_OPEN30
 10
100.0
 20
-50.0
 30
0.0
 41
2.0
 42
2.0
 43
2.0
 50
90.0
1001
ACAD
1000
RTLwPs
1070
   158
  0
MTEXT
  5
1DC
100
AcDbEntity
  8
寸法
  6
CONTINUOUS
 62
     1
100
AcDbMText
 10
97.5
 20
-47.5
 30
0.0
 40
3.0
 41
0.0
 71
     5
 72
     1
  1
\A1;5
 11
0.0
 21
1.0
 31
0.0
1001
ACAD
1000
MTEXTBEGIN
1070
    73
1070
     1
1070
    44
1040
1.0
1070
    74
1070
     0
1000
MTEXTEND
1000
MTEXTBEGIN
1070
    73
1070
     1
1070
    44
1040
1.0
1070
    74
1070
     0
1000
MTEXTEND
  0
POINT
  5
1DD
100
AcDbEntity
  8
DEFPOINTS
  6
CONTINUOUS
 62
     0
100
AcDbPoint
 10
93.783014
 20
-45.0
 30
0.0
  0
POINT
  5
1DE
100
AcDbEntity
  8
DEFPOINTS
  6
CONTINUOUS
 62
     0
100
AcDbPoint
 10
92.783002
 20
-50.0
 30
0.0
  0
POINT
  5
1DF
100
AcDbEntity
  8
DEFPOINTS
  6
CONTINUOUS
 62
     0
100
AcDbPoint
 10
100.0
 20
-50.0
 30
0.0
  0
ENDBLK
  5
1E1
100
AcDbEntity
  8
0
100
AcDbBlockEnd
  0
BLOCK
  5
1ED
100
AcDbEntity
  8
0
100
AcDbBlockBegin
  2
*D2
 70
     1
 10
0.0
 20
0.0
 30
0.0
  3
*D2
  1

  0
LINE
  5
1E4
100
AcDbEntity
  8
寸法
  6
CONTINUOUS
 62
     1
100
AcDbLine
 10
43.0
 20
-37.5
 30
0.0
 11
61.0
 21
-37.5
 31
0.0
1001
ACAD
1000
RTLwPs
1070
   158
  0
LINE
  5
1E5
100
AcDbEntity
  8
寸法
  6
CONTINUOUS
 62
     1
100
AcDbLine
 10
43.0
 20
-50.0
 30
0.0
 11
61.0
 21
-50.0
 31
0.0
1001
ACAD
1000
RTLwPs
1070
   158
  0
LINE
  5
1E6
100
AcDbEntity
  8
寸法
  6
CONTINUOUS
 62
     1
100
AcDbLine
 10
60.0
 20
-39.5
 30
0.0
 11
60.0
 21
-48.0
 31
0.0
1001
ACAD
1000
RTLwPs
1070
   158
  0
INSERT
  5
1E7
100
AcDbEntity
  8
寸法
  6
CONTINUOUS
 62
     1
100
AcDbBlockReference
  2
_OPEN30
 10
60.0
 20
-37.5
 30
0.0
 41
2.0
 42
2.0
 43
2.0
 50
90.0
1001
ACAD
1000
RTLwPs
1070
   158
  0
INSERT
  5
1E8
100
AcDbEntity
  8
寸法
  6
CONTINUOUS
 62
     1
100
AcDbBlockReference
  2
_OPEN30
 10
60.0
 20
-50.0
 30
0.0
 41
2.0
 42
2.0
 43
2.0
 50
270.0
1001
ACAD
1000
RTLwPs
1070
   158
  0
MTEXT
  5
1E9
100
AcDbEntity
  8
寸法
  6
CONTINUOUS
 62
     1
100
AcDbMText
 10
57.5
 20
-43.75
 30
0.0
 40
3.0
 41
0.0
 71
     5
 72
     1
  1
\A1;12.5
 11
0.0
 21
1.0
 31
0.0
1001
ACAD
1000
MTEXTBEGIN
1070
    73
1070
     1
1070
    44
1040
1.0
1070
    74
1070
     0
1000
MTEXTEND
1000
MTEXTBEGIN
1070
    73
1070
     1
1070
    44
1040
1.0
1070
    74
1070
     0
1000
MTEXTEND
  0
POINT
  5
1EA
100
AcDbEntity
  8
DEFPOINTS
  6
CONTINUOUS
 62
     0
100
AcDbPoint
 10
42.0
 20
-37.5
 30
0.0
  0
POINT
  5
1EB
100
AcDbEntity
  8
DEFPOINTS
  6
CONTINUOUS
 62
     0
100
AcDbPoint
 10
42.0
 20
-50.0
 30
0.0
  0
POINT
  5
1EC
100
AcDbEntity
  8
DEFPOINTS
  6
CONTINUOUS
 62
     0
100
AcDbPoint
 10
60.0
 20
-50.0
 30
0.0
  0
ENDBLK
  5
1EE
100
AcDbEntity
  8
0
100
AcDbBlockEnd
  0
BLOCK
  5
1FA
100
AcDbEntity
  8
0
100
AcDbBlockBegin
  2
*D3
 70
     1
 10
0.0
 20
0.0
 30
0.0
  3
*D3
  1

  0
LINE
  5
1F1
100
AcDbEntity
  8
寸法
  6
CONTINUOUS
 62
     1
100
AcDbLine
 10
-1.000001
 20
-40.0
 30
0.0
 11
-11.0
 21
-40.0
 31
0.0
1001
ACAD
1000
RTLwPs
1070
   158
  0
LINE
  5
1F2
100
AcDbEntity
  8
寸法
  6
CONTINUOUS
 62
     1
100
AcDbLine
 10
0.103594
 20
-50.0
 30
0.0
 11
-11.0
 21
-50.0
 31
0.0
1001
ACAD
1000
RTLwPs
1070
   158
  0
LINE
  5
1F3
100
AcDbEntity
  8
寸法
  6
CONTINUOUS
 62
     1
100
AcDbLine
 10
-10.0
 20
-42.0
 30
0.0
 11
-10.0
 21
-48.0
 31
0.0
1001
ACAD
1000
RTLwPs
1070
   158
  0
INSERT
  5
1F4
100
AcDbEntity
  8
寸法
  6
CONTINUOUS
 62
     1
100
AcDbBlockReference
  2
_OPEN30
 10
-10.0
 20
-40.0
 30
0.0
 41
2.0
 42
2.0
 43
2.0
 50
90.0
1001
ACAD
1000
RTLwPs
1070
   158
  0
INSERT
  5
1F5
100
AcDbEntity
  8
寸法
  6
CONTINUOUS
 62
     1
100
AcDbBlockReference
  2
_OPEN30
 10
-10.0
 20
-50.0
 30
0.0
 41
2.0
 42
2.0
 43
2.0
 50
270.0
1001
ACAD
1000
RTLwPs
1070
   158
  0
MTEXT
  5
1F6
100
AcDbEntity
  8
寸法
  6
CONTINUOUS
 62
     1
100
AcDbMText
 10
-12.5
 20
-45.0
 30
0.0
 40
3.0
 41
0.0
 71
     5
 72
     1
  1
\A1;10
 11
0.0
 21
1.0
 31
0.0
1001
ACAD
1000
MTEXTBEGIN
1070
    73
1070
     1
1070
    44
1040
1.0
1070
    74
1070
     0
1000
MTEXTEND
1000
MTEXTBEGIN
1070
    73
1070
     1
1070
    44
1040
1.0
1070
    74
1070
     0
1000
MTEXTEND
  0
POINT
  5
1F7
100
AcDbEntity
  8
DEFPOINTS
  6
CONTINUOUS
 62
     0
100
AcDbPoint
 10
-0.000001
 20
-40.0
 30
0.0
  0
POINT
  5
1F8
100
AcDbEntity
  8
DEFPOINTS
  6
CONTINUOUS
 62
     0
100
AcDbPoint
 10
1.103594
 20
-50.0
 30
0.0
  0
POINT
  5
1F9
100
AcDbEntity
  8
DEFPOINTS
  6
CONTINUOUS
 62
     0
100
AcDbPoint
 10
-10.0
 20
-50.0
 30
0.0
  0
ENDBLK
  5
1FB
100
AcDbEntity
  8
0
100
AcDbBlockEnd
  0
BLOCK
  5
209
100
AcDbEntity
  8
0
100
AcDbBlockBegin
  2
*D4
 70
     1
 10
0.0
 20
0.0
 30
0.0
  3
*D4
  1

  0
LINE
  5
1FE
100
AcDbEntity
  8
寸法
  6
CONTINUOUS
 62
     1
100
AcDbLine
 10
31.0
 20
-48.522079
 30
0.0
 11
31.0
 21
-61.0
 31
0.0
1001
ACAD
1000
RTLwPs
1070
   158
  0
LINE
  5
1FF
100
AcDbEntity
  8
寸法
  6
CONTINUOUS
 62
     1
100
AcDbLine
 10
29.0
 20
-48.255402
 30
0.0
 11
29.0
 21
-61.0
 31
0.0
1001
ACAD
1000
RTLwPs
1070
   158
  0
LINE
  5
200
100
AcDbEntity
  8
寸法
  6
CONTINUOUS
 62
     1
100
AcDbLine
 10
33.0
 20
-60.0
 30
0.0
 11
35.0
 21
-60.0
 31
0.0
1001
ACAD
1000
RTLwPs
1070
   158
  0
LINE
  5
201
100
AcDbEntity
  8
寸法
  6
CONTINUOUS
 62
     1
100
AcDbLine
 10
27.0
 20
-60.0
 30
0.0
 11
21.0
 21
-60.0
 31
0.0
1001
ACAD
1000
RTLwPs
1070
   158
  0
LINE
  5
202
100
AcDbEntity
  8
寸法
  6
CONTINUOUS
 62
     1
100
AcDbLine
 10
31.0
 20
-60.0
 30
0.0
 11
29.0
 21
-60.0
 31
0.0
1001
ACAD
1000
RTLwPs
1070
   158
  0
INSERT
  5
203
100
AcDbEntity
  8
寸法
  6
CONTINUOUS
 62
     1
100
AcDbBlockReference
  2
_OPEN30
 10
31.0
 20
-60.0
 30
0.0
 41
2.0
 42
2.0
 43
2.0
 50
180.0
1001
ACAD
1000
RTLwPs
1070
   158
  0
INSERT
  5
204
100
AcDbEntity
  8
寸法
  6
CONTINUOUS
 62
     1
100
AcDbBlockReference
  2
_OPEN30
 10
29.0
 20
-60.0
 30
0.0
 41
2.0
 42
2.0
 43
2.0
1001
ACAD
1000
RTLwPs
1070
   158
  0
MTEXT
  5
205
100
AcDbEntity
  8
寸法
  6
CONTINUOUS
 62
     1
100
AcDbMText
 10
23.0
 20
-57.5
 30
0.0
 40
3.0
 41
0.0
 71
     5
 72
     1
  1
\A1;2
1001
ACAD
1000
MTEXTBEGIN
1070
    73
1070
     1
1070
    44
1040
1.0
1070
    74
1070
     0
1000
MTEXTEND
1000
MTEXTBEGIN
1070
    73
1070
     1
1070
    44
1040
1.0
1070
    74
1070
     0
1000
MTEXTEND
  0
POINT
  5
206
100
AcDbEntity
  8
DEFPOINTS
  6
CONTINUOUS
 62
     0
100
AcDbPoint
 10
31.0
 20
-47.522079
 30
0.0
  0
POINT
  5
207
100
AcDbEntity
  8
DEFPOINTS
  6
CONTINUOUS
 62
     0
100
AcDbPoint
 10
29.0
 20
-47.255402
 30
0.0
  0
POINT
  5
208
100
AcDbEntity
  8
DEFPOINTS
  6
CONTINUOUS
 62
     0
100
AcDbPoint
 10
29.0
 20
-60.0
 30
0.0
  0
ENDBLK
  5
20A
100
AcDbEntity
  8
0
100
AcDbBlockEnd
  0
BLOCK
  5
216
100
AcDbEntity
  8
0
100
AcDbBlockBegin
  2
*D5
 70
     1
 10
0.0
 20
0.0
 30
0.0
  3
*D5
  1

  0
LINE
  5
20D
100
AcDbEntity
  8
寸法
  6
CONTINUOUS
 62
     1
100
AcDbLine
 10
49.999996
 20
-40.999996
 30
0.0
 11
49.999996
 21
-29.0
 31
0.0
1001
ACAD
1000
RTLwPs
1070
   158
  0
LINE
  5
20E
100
AcDbEntity
  8
寸法
  6
CONTINUOUS
 62
     1
100
AcDbLine
 10
30.0
 20
-34.588745
 30
0.0
 11
30.0
 21
-29.0
 31
0.0
1001
ACAD
1000
RTLwPs
1070
   158
  0
LINE
  5
20F
100
AcDbEntity
  8
寸法
  6
CONTINUOUS
 62
     1
100
AcDbLine
 10
47.999996
 20
-30.0
 30
0.0
 11
32.0
 21
-30.0
 31
0.0
1001
ACAD
1000
RTLwPs
1070
   158
  0
INSERT
  5
210
100
AcDbEntity
  8
寸法
  6
CONTINUOUS
 62
     1
100
AcDbBlockReference
  2
_OPEN30
 10
49.999996
 20
-30.0
 30
0.0
 41
2.0
 42
2.0
 43
2.0
1001
ACAD
1000
RTLwPs
1070
   158
  0
INSERT
  5
211
100
AcDbEntity
  8
寸法
  6
CONTINUOUS
 62
     1
100
AcDbBlockReference
  2
_OPEN30
 10
30.0
 20
-30.0
 30
0.0
 41
2.0
 42
2.0
 43
2.0
 50
180.0
1001
ACAD
1000
RTLwPs
1070
   158
  0
MTEXT
  5
212
100
AcDbEntity
  8
寸法
  6
CONTINUOUS
 62
     1
100
AcDbMText
 10
39.999998
 20
-27.5
 30
0.0
 40
3.0
 41
0.0
 71
     5
 72
     1
  1
\A1;20
1001
ACAD
1000
MTEXTBEGIN
1070
    73
1070
     1
1070
    44
1040
1.0
1070
    74
1070
     0
1000
MTEXTEND
1000
MTEXTBEGIN
1070
    73
1070
     1
1070
    44
1040
1.0
1070
    74
1070
     0
1000
MTEXTEND
  0
POINT
  5
213
100
AcDbEntity
  8
DEFPOINTS
  6
CONTINUOUS
 62
     0
100
AcDbPoint
 10
49.999996
 20
-41.999996
 30
0.0
  0
POINT
  5
214
100
AcDbEntity
  8
DEFPOINTS
  6
CONTINUOUS
 62
     0
100
AcDbPoint
 10
30.0
 20
-35.588745
 30
0.0
  0
POINT
  5
215
100
AcDbEntity
  8
DEFPOINTS
  6
CONTINUOUS
 62
     0
100
AcDbPoint
 10
30.0
 20
-30.0
 30
0.0
  0
ENDBLK
  5
217
100
AcDbEntity
  8
0
100
AcDbBlockEnd
  0
BLOCK
  5
223
100
AcDbEntity
  8
0
100
AcDbBlockBegin
  2
*D6
 70
     1
 10
0.0
 20
0.0
 30
0.0
  3
*D6
  1

  0
LINE
  5
21A
100
AcDbEntity
  8
寸法
  6
CONTINUOUS
 62
     1
100
AcDbLine
 10
43.0
 20
14.0
 30
0.0
 11
61.0
 21
14.0
 31
0.0
1001
ACAD
1000
RTLwPs
1070
   158
  0
LINE
  5
21B
100
AcDbEntity
  8
寸法
  6
CONTINUOUS
 62
     1
100
AcDbLine
 10
43.0
 20
3.0
 30
0.0
 11
61.0
 21
3.0
 31
0.0
1001
ACAD
1000
RTLwPs
1070
   158
  0
LINE
  5
21C
100
AcDbEntity
  8
寸法
  6
CONTINUOUS
 62
     1
100
AcDbLine
 10
60.0
 20
12.0
 30
0.0
 11
60.0
 21
5.0
 31
0.0
1001
ACAD
1000
RTLwPs
1070
   158
  0
INSERT
  5
21D
100
AcDbEntity
  8
寸法
  6
CONTINUOUS
 62
     1
100
AcDbBlockReference
  2
_OPEN30
 10
60.0
 20
14.0
 30
0.0
 41
2.0
 42
2.0
 43
2.0
 50
90.0
1001
ACAD
1000
RTLwPs
1070
   158
  0
INSERT
  5
21E
100
AcDbEntity
  8
寸法
  6
CONTINUOUS
 62
     1
100
AcDbBlockReference
  2
_OPEN30
 10
60.0
 20
3.0
 30
0.0
 41
2.0
 42
2.0
 43
2.0
 50
270.0
1001
ACAD
1000
RTLwPs
1070
   158
  0
MTEXT
  5
21F
100
AcDbEntity
  8
寸法
  6
CONTINUOUS
 62
     1
100
AcDbMText
 10
57.5
 20
8.5
 30
0.0
 40
3.0
 41
0.0
 71
     5
 72
     1
  1
\A1;11
 11
0.0
 21
1.0
 31
0.0
1001
ACAD
1000
MTEXTBEGIN
1070
    73
1070
     1
1070
    44
1040
1.0
1070
    74
1070
     0
1000
MTEXTEND
1000
MTEXTBEGIN
1070
    73
1070
     1
1070
    44
1040
1.0
1070
    74
1070
     0
1000
MTEXTEND
  0
POINT
  5
220
100
AcDbEntity
  8
DEFPOINTS
  6
CONTINUOUS
 62
     0
100
AcDbPoint
 10
42.0
 20
14.0
 30
0.0
  0
POINT
  5
221
100
AcDbEntity
  8
DEFPOINTS
  6
CONTINUOUS
 62
     0
100
AcDbPoint
 10
42.0
 20
3.0
 30
0.0
  0
POINT
  5
222
100
AcDbEntity
  8
DEFPOINTS
  6
CONTINUOUS
 62
     0
100
AcDbPoint
 10
60.0
 20
3.0
 30
0.0
  0
ENDBLK
  5
224
100
AcDbEntity
  8
0
100
AcDbBlockEnd
  0
BLOCK
  5
230
100
AcDbEntity
  8
0
100
AcDbBlockBegin
  2
*D7
 70
     1
 10
0.0
 20
0.0
 30
0.0
  3
*D7
  1

  0
LINE
  5
227
100
AcDbEntity
  8
寸法
  6
CONTINUOUS
 62
     1
100
AcDbLine
 10
-1.000001
 20
14.0
 30
0.0
 11
-11.0
 21
14.0
 31
0.0
1001
ACAD
1000
RTLwPs
1070
   158
  0
LINE
  5
228
100
AcDbEntity
  8
寸法
  6
CONTINUOUS
 62
     1
100
AcDbLine
 10
-1.0
 20
-0.000011
 30
0.0
 11
-11.0
 21
-0.000011
 31
0.0
1001
ACAD
1000
RTLwPs
1070
   158
  0
LINE
  5
229
100
AcDbEntity
  8
寸法
  6
CONTINUOUS
 62
     1
100
AcDbLine
 10
-10.0
 20
12.0
 30
0.0
 11
-10.0
 21
1.999989
 31
0.0
1001
ACAD
1000
RTLwPs
1070
   158
  0
INSERT
  5
22A
100
AcDbEntity
  8
寸法
  6
CONTINUOUS
 62
     1
100
AcDbBlockReference
  2
_OPEN30
 10
-10.0
 20
14.0
 30
0.0
 41
2.0
 42
2.0
 43
2.0
 50
90.0
1001
ACAD
1000
RTLwPs
1070
   158
  0
INSERT
  5
22B
100
AcDbEntity
  8
寸法
  6
CONTINUOUS
 62
     1
100
AcDbBlockReference
  2
_OPEN30
 10
-10.0
 20
-0.000011
 30
0.0
 41
2.0
 42
2.0
 43
2.0
 50
270.0
1001
ACAD
1000
RTLwPs
1070
   158
  0
MTEXT
  5
22C
100
AcDbEntity
  8
寸法
  6
CONTINUOUS
 62
     1
100
AcDbMText
 10
-12.5
 20
6.999994
 30
0.0
 40
3.0
 41
0.0
 71
     5
 72
     1
  1
\A1;14
 11
0.0
 21
1.0
 31
0.0
1001
ACAD
1000
MTEXTBEGIN
1070
    73
1070
     1
1070
    44
1040
1.0
1070
    74
1070
     0
1000
MTEXTEND
1000
MTEXTBEGIN
1070
    73
1070
     1
1070
    44
1040
1.0
1070
    74
1070
     0
1000
MTEXTEND
  0
POINT
  5
22D
100
AcDbEntity
  8
DEFPOINTS
  6
CONTINUOUS
 62
     0
100
AcDbPoint
 10
-0.000001
 20
14.0
 30
0.0
  0
POINT
  5
22E
100
AcDbEntity
  8
DEFPOINTS
  6
CONTINUOUS
 62
     0
100
AcDbPoint
 10
0.0
 20
-0.000011
 30
0.0
  0
POINT
  5
22F
100
AcDbEntity
  8
DEFPOINTS
  6
CONTINUOUS
 62
     0
100
AcDbPoint
 10
-10.0
 20
-0.000011
 30
0.0
  0
ENDBLK
  5
231
100
AcDbEntity
  8
0
100
AcDbBlockEnd
  0
BLOCK
  5
23D
100
AcDbEntity
  8
0
100
AcDbBlockBegin
  2
*D8
 70
     1
 10
0.0
 20
0.0
 30
0.0
  3
*D8
  1

  0
LINE
  5
234
100
AcDbEntity
  8
寸法
  6
CONTINUOUS
 62
     1
100
AcDbLine
 10
50.0
 20
5.5
 30
0.0
 11
50.0
 21
-21.0
 31
0.0
1001
ACAD
1000
RTLwPs
1070
   158
  0
LINE
  5
235
100
AcDbEntity
  8
寸法
  6
CONTINUOUS
 62
     1
100
AcDbLine
 10
0.0
 20
-1.000011
 30
0.0
 11
0.0
 21
-21.0
 31
0.0
1001
ACAD
1000
RTLwPs
1070
   158
  0
LINE
  5
236
100
AcDbEntity
  8
寸法
  6
CONTINUOUS
 62
     1
100
AcDbLine
 10
48.0
 20
-20.0
 30
0.0
 11
2.0
 21
-20.0
 31
0.0
1001
ACAD
1000
RTLwPs
1070
   158
  0
INSERT
  5
237
100
AcDbEntity
  8
寸法
  6
CONTINUOUS
 62
     1
100
AcDbBlockReference
  2
_OPEN30
 10
50.0
 20
-20.0
 30
0.0
 41
2.0
 42
2.0
 43
2.0
1001
ACAD
1000
RTLwPs
1070
   158
  0
INSERT
  5
238
100
AcDbEntity
  8
寸法
  6
CONTINUOUS
 62
     1
100
AcDbBlockReference
  2
_OPEN30
 10
0.0
 20
-20.0
 30
0.0
 41
2.0
 42
2.0
 43
2.0
 50
180.0
1001
ACAD
1000
RTLwPs
1070
   158
  0
MTEXT
  5
239
100
AcDbEntity
  8
寸法
  6
CONTINUOUS
 62
     1
100
AcDbMText
 10
25.0
 20
-17.5
 30
0.0
 40
3.0
 41
0.0
 71
     5
 72
     1
  1
\A1;50
1001
ACAD
1000
MTEXTBEGIN
1070
    73
1070
     1
1070
    44
1040
1.0
1070
    74
1070
     0
1000
MTEXTEND
1000
MTEXTBEGIN
1070
    73
1070
     1
1070
    44
1040
1.0
1070
    74
1070
     0
1000
MTEXTEND
  0
POINT
  5
23A
100
AcDbEntity
  8
DEFPOINTS
  6
CONTINUOUS
 62
     0
100
AcDbPoint
 10
50.0
 20
6.5
 30
0.0
  0
POINT
  5
23B
100
AcDbEntity
  8
DEFPOINTS
  6
CONTINUOUS
 62
     0
100
AcDbPoint
 10
0.0
 20
-0.000011
 30
0.0
  0
POINT
  5
23C
100
AcDbEntity
  8
DEFPOINTS
  6
CONTINUOUS
 62
     0
100
AcDbPoint
 10
0.0
 20
-20.0
 30
0.0
  0
ENDBLK
  5
23E
100
AcDbEntity
  8
0
100
AcDbBlockEnd
  0
BLOCK
  5
24A
100
AcDbEntity
  8
0
100
AcDbBlockBegin
  2
*D9
 70
     1
 10
0.0
 20
0.0
 30
0.0
  3
*D9
  1

  0
LINE
  5
30D
100
AcDbEntity
  8
寸法
  6
CONTINUOUS
 62
     1
100
AcDbLine
 10
50.0
 20
5.5
 30
0.0
 11
50.0
 21
-11.0
 31
0.0
  0
LINE
  5
30E
100
AcDbEntity
  8
寸法
  6
CONTINUOUS
 62
     1
100
AcDbLine
 10
42.0
 20
2.0
 30
0.0
 11
42.0
 21
-11.0
 31
0.0
  0
LINE
  5
30F
100
AcDbEntity
  8
寸法
  6
CONTINUOUS
 62
     1
100
AcDbLine
 10
48.0
 20
-10.0
 30
0.0
 11
44.0
 21
-10.0
 31
0.0
  0
INSERT
  5
310
100
AcDbEntity
  8
寸法
  6
CONTINUOUS
 62
     1
100
AcDbBlockReference
  2
_OPEN30
 10
50.0
 20
-10.0
 30
0.0
 41
2.0
 42
2.0
 43
2.0
  0
INSERT
  5
311
100
AcDbEntity
  8
寸法
  6
CONTINUOUS
 62
     1
100
AcDbBlockReference
  2
_OPEN30
 10
42.0
 20
-10.0
 30
0.0
 41
2.0
 42
2.0
 43
2.0
 50
180.0
  0
MTEXT
  5
312
100
AcDbEntity
  8
寸法
  6
CONTINUOUS
 62
     1
100
AcDbMText
 10
46.0
 20
-7.5
 30
0.0
 40
3.0
 41
0.0
 71
     5
 72
     1
  1
\A1;8
  0
POINT
  5
313
100
AcDbEntity
  8
DEFPOINTS
  6
CONTINUOUS
 62
     0
100
AcDbPoint
 10
50.0
 20
6.5
 30
0.0
  0
POINT
  5
314
100
AcDbEntity
  8
DEFPOINTS
  6
CONTINUOUS
 62
     0
100
AcDbPoint
 10
42.0
 20
3.0
 30
0.0
  0
POINT
  5
315
100
AcDbEntity
  8
DEFPOINTS
  6
CONTINUOUS
 62
     0
100
AcDbPoint
 10
42.0
 20
-10.0
 30
0.0
  0
ENDBLK
  5
24B
100
AcDbEntity
  8
0
100
AcDbBlockEnd
  0
BLOCK
  5
263
100
AcDbEntity
  8
0
100
AcDbBlockBegin
  2
*D10
 70
     1
 10
0.0
 20
0.0
 30
0.0
  3
*D10
  1

  0
LINE
  5
316
100
AcDbEntity
  8
寸法
  6
CONTINUOUS
 62
     1
100
AcDbLine
 10
-1.0
 20
-0.000011
 30
0.0
 11
-6.491287
 21
-0.000011
 31
0.0
  0
ARC
  5
317
100
AcDbEntity
  8
寸法
  6
CONTINUOUS
 62
     1
100
AcDbCircle
 10
0.0
 20
-0.000011
 30
0.0
 40
5.491287
100
AcDbArc
 50
110.984988
 51
159.015018
  0
INSERT
  5
318
100
AcDbEntity
  8
寸法
  6
CONTINUOUS
 62
     1
100
AcDbBlockReference
  2
_OPEN30
 10
-0.000001
 20
5.491276
 30
0.0
 41
2.0
 42
2.0
 43
2.0
 50
10.492497
  0
INSERT
  5
319
100
AcDbEntity
  8
寸法
  6
CONTINUOUS
 62
     1
100
AcDbBlockReference
  2
_OPEN30
 10
-5.491287
 20
-0.000011
 30
0.0
 41
2.0
 42
2.0
 43
2.0
 50
259.507509
  0
MTEXT
  5
31A
100
AcDbEntity
  8
寸法
  6
CONTINUOUS
 62
     1
100
AcDbMText
 10
-3.657432
 20
7.105189
 30
0.0
 40
3.0
 41
0.0
 71
     5
 72
     1
  1
\A1;90°
 11
0.889118
 21
0.457677
 31
0.0
  0
POINT
  5
31B
100
AcDbEntity
  8
DEFPOINTS
  6
CONTINUOUS
 62
     0
100
AcDbPoint
 10
-4.755594
 20
2.745632
 30
0.0
  0
POINT
  5
31C
100
AcDbEntity
  8
DEFPOINTS
  6
CONTINUOUS
 62
     0
100
AcDbPoint
 10
0.0
 20
-0.000011
 30
0.0
  0
POINT
  5
31D
100
AcDbEntity
  8
DEFPOINTS
  6
CONTINUOUS
 62
     0
100
AcDbPoint
 10
-0.000001
 20
13.999999
 30
0.0
  0
POINT
  5
31E
100
AcDbEntity
  8
DEFPOINTS
  6
CONTINUOUS
 62
     0
100
AcDbPoint
 10
0.0
 20
0.4
 30
0.0
  0
POINT
  5
31F
100
AcDbEntity
  8
DEFPOINTS
  6
CONTINUOUS
 62
     0
100
AcDbPoint
 10
0.4
 20
-0.000011
 30
0.0
  0
ENDBLK
  5
264
100
AcDbEntity
  8
0
100
AcDbBlockEnd
  0
BLOCK
  5
27A
100
AcDbEntity
  8
0
100
AcDbBlockBegin
  2
*D11
 70
     1
 10
0.0
 20
0.0
 30
0.0
  3
*D11
  1

  0
LINE
  5
27C
100
AcDbEntity
  8
寸法
  6
CONTINUOUS
 62
     1
100
AcDbLine
 10
-60.852437
 20
7.289877
 30
0.0
 11
-49.633368
 21
11.548103
 31
0.0
1001
ACAD
1000
RTLwPs
1070
   158
  0
MTEXT
  5
27D
100
AcDbEntity
  8
寸法
  6
CONTINUOUS
 62
     1
100
AcDbMText
 10
-57.064956
 20
11.401443
 30
0.0
 40
3.0
 41
0.0
 71
     5
 72
     1
  1
\A1;%%c38
 11
0.934922
 21
0.354852
 31
0.0
1001
ACAD
1000
MTEXTBEGIN
1070
    73
1070
     1
1070
    44
1040
1.0
1070
    74
1070
     0
1000
MTEXTEND
1000
MTEXTBEGIN
1070
    73
1070
     1
1070
    44
1040
1.0
1070
    74
1070
     0
1000
MTEXTEND
  0
LINE
  5
27E
100
AcDbEntity
  8
寸法
  6
CONTINUOUS
 62
     1
100
AcDbLine
 10
-30.0
 20
18.999997
 30
0.0
 11
-47.763523
 21
12.257807
 31
0.0
1001
ACAD
1000
RTLwPs
1070
   158
  0
INSERT
  5
27F
100
AcDbEntity
  8
寸法
  6
CONTINUOUS
 62
     1
100
AcDbBlockReference
  2
_OPEN30
 10
-47.763523
 20
12.257807
 30
0.0
 41
2.0
 42
2.0
 43
2.0
 50
20.784384
1001
ACAD
1000
RTLwPs
1070
   158
  0
POINT
  5
280
100
AcDbEntity
  8
DEFPOINTS
  6
CONTINUOUS
 62
     0
100
AcDbPoint
 10
-47.763523
 20
12.257807
 30
0.0
  0
POINT
  5
281
100
AcDbEntity
  8
DEFPOINTS
  6
CONTINUOUS
 62
     0
100
AcDbPoint
 10
-30.0
 20
18.999997
 30
0.0
  0
ENDBLK
  5
27B
100
AcDbEntity
  8
0
100
AcDbBlockEnd
  0
ENDSEC
  0
SECTION
  2
ENTITIES
  0
POINT
  5
24
100
AcDbEntity
  8
0
  6
CONTINUOUS
 62
     7
100
AcDbPoint
 10
-0.000001
 20
-40.0
 30
0.0
  0
POINT
  5
25
100
AcDbEntity
  8
0
  6
CONTINUOUS
 62
     7
100
AcDbPoint
 10
0.0
 20
-0.000011
 30
0.0
  0
POINT
  5
26
100
AcDbEntity
  8
0
  6
CONTINUOUS
 62
     7
100
AcDbPoint
 10
-30.0
 20
-0.000001
 30
0.0
  0
POINT
  5
27
100
AcDbEntity
  8
0
  6
CONTINUOUS
 62
     7
100
AcDbPoint
 10
82.783014
 20
-50.0
 30
0.0
  0
LINE
  5
28
100
AcDbEntity
  8
0
  6
CONTINUOUS
 62
     7
100
AcDbLine
 10
2.23923
 20
1.0
 30
0.0
 11
7.0
 21
1.0
 31
0.0
  0
LINE
  5
29
100
AcDbEntity
  8
0
  6
CONTINUOUS
 62
     7
100
AcDbLine
 10
4.724957
 20
7.977746
 30
0.0
 11
0.600001
 21
10.35929
 31
0.0
  0
LINE
  5
2A
100
AcDbEntity
  8
0
  6
CONTINUOUS
 62
     7
100
AcDbLine
 10
-0.000001
 20
14.0
 30
0.0
 11
42.0
 21
14.0
 31
0.0
  0
LINE
  5
2B
100
AcDbEntity
  8
0
  6
CONTINUOUS
 62
     7
100
AcDbLine
 10
42.0
 20
14.0
 30
0.0
 11
42.0
 21
3.0
 31
0.0
  0
LINE
  5
2C
100
AcDbEntity
  8
0
  6
CONTINUOUS
 62
     7
100
AcDbLine
 10
12.0
 20
3.0
 30
0.0
 11
42.0
 21
3.0
 31
0.0
  0
LINE
  5
2D
100
AcDbEntity
  8
0
  6
CENTER
 62
     1
 48
0.5
100
AcDbLine
 10
39.757568
 20
-44.0
 30
0.0
 11
51.581161
 21
-44.0
 31
0.0
  0
LINE
  5
2E
100
AcDbEntity
  8
0
  6
CONTINUOUS
 62
     7
100
AcDbLine
 10
7.0
 20
1.0
 30
0.0
 11
11.049864
 21
1.354317
 31
0.0
  0
LINE
  5
2F
100
AcDbEntity
  8
0
  6
CONTINUOUS
 62
     7
100
AcDbLine
 10
50.0
 20
-42.0
 30
0.0
 11
50.0
 21
-46.0
 31
0.0
  0
LINE
  5
30
100
AcDbEntity
  8
0
  6
CONTINUOUS
 62
     7
100
AcDbLine
 10
45.0
 20
-40.0
 30
0.0
 11
45.0
 21
-48.0
 31
0.0
  0
LINE
  5
31
100
AcDbEntity
  8
0
  6
CONTINUOUS
 62
     7
100
AcDbLine
 10
47.499996
 20
-48.5
 30
0.0
 11
49.999996
 21
-46.0
 31
0.0
  0
LINE
  5
32
100
AcDbEntity
  8
0
  6
CONTINUOUS
 62
     7
100
AcDbLine
 10
47.499992
 20
-39.499992
 30
0.0
 11
49.999996
 21
-41.999996
 31
0.0
  0
LINE
  5
33
100
AcDbEntity
  8
0
  6
CONTINUOUS
 62
     7
100
AcDbLine
 10
45.5
 20
-39.5
 30
0.0
 11
47.5
 21
-39.5
 31
0.0
  0
LINE
  5
34
100
AcDbEntity
  8
0
  6
CONTINUOUS
 62
     7
100
AcDbLine
 10
45.5
 20
-48.5
 30
0.0
 11
47.5
 21
-48.5
 31
0.0
  0
LINE
  5
35
100
AcDbEntity
  8
0
  6
CONTINUOUS
 62
     7
100
AcDbLine
 10
44.999996
 20
-47.999996
 30
0.0
 11
45.499996
 21
-48.499996
 31
0.0
  0
LINE
  5
36
100
AcDbEntity
  8
0
  6
CONTINUOUS
 62
     7
100
AcDbLine
 10
44.999992
 20
-39.999992
 30
0.0
 11
45.499992
 21
-39.499992
 31
0.0
  0
LINE
  5
37
100
AcDbEntity
  8
0
  6
CONTINUOUS
 62
     7
100
AcDbLine
 10
45.5
 20
-48.5
 30
0.0
 11
45.5
 21
-39.5
 31
0.0
  0
LINE
  5
38
100
AcDbEntity
  8
0
  6
CONTINUOUS
 62
     7
100
AcDbLine
 10
47.5
 20
-39.5
 30
0.0
 11
47.5
 21
-48.5
 31
0.0
  0
LINE
  5
39
100
AcDbEntity
  8
0
  6
CONTINUOUS
 62
     7
100
AcDbLine
 10
42.0
 20
-41.5
 30
0.0
 11
45.0
 21
-41.5
 31
0.0
  0
LINE
  5
3A
100
AcDbEntity
  8
0
  6
CONTINUOUS
 62
     7
100
AcDbLine
 10
42.0
 20
-46.5
 30
0.0
 11
45.0
 21
-46.5
 31
0.0
  0
LINE
  5
3B
100
AcDbEntity
  8
0
  6
CONTINUOUS
 62
     7
100
AcDbLine
 10
43.5
 20
-41.75
 30
0.0
 11
43.5
 21
-46.25
 31
0.0
  0
LINE
  5
3C
100
AcDbEntity
  8
0
  6
CONTINUOUS
 62
     7
100
AcDbLine
 10
42.0
 20
-46.25
 30
0.0
 11
43.5
 21
-46.25
 31
0.0
  0
LINE
  5
3D
100
AcDbEntity
  8
0
  6
CONTINUOUS
 62
     7
100
AcDbLine
 10
42.0
 20
-41.75
 30
0.0
 11
43.5
 21
-41.75
 31
0.0
  0
LINE
  5
3E
100
AcDbEntity
  8
0
  6
CONTINUOUS
 62
     7
100
AcDbLine
 10
43.499996
 20
-41.749996
 30
0.0
 11
43.93301
 21
-41.499996
 31
0.0
  0
LINE
  5
3F
100
AcDbEntity
  8
0
  6
CONTINUOUS
 62
     7
100
AcDbLine
 10
43.500004
 20
-46.249992
 30
0.0
 11
43.933018
 21
-46.499992
 31
0.0
  0
LINE
  5
40
100
AcDbEntity
  8
0
  6
CONTINUOUS
 62
     7
100
AcDbLine
 10
-40.0
 20
13.0
 30
0.0
 11
-40.0
 21
3.797846
 31
0.0
  0
LINE
  5
41
100
AcDbEntity
  8
0
  6
CONTINUOUS
 62
     7
100
AcDbLine
 10
-27.5
 20
12.999999
 30
0.0
 11
-27.5
 21
12.375805
 31
0.0
  0
LINE
  5
42
100
AcDbEntity
  8
0
  6
CENTER
 62
     1
 48
0.5
100
AcDbLine
 10
39.757568
 20
8.5
 30
0.0
 11
51.581161
 21
8.5
 31
0.0
  0
LINE
  5
43
100
AcDbEntity
  8
0
  6
CONTINUOUS
 62
     7
100
AcDbLine
 10
50.0
 20
10.5
 30
0.0
 11
50.0
 21
6.5
 31
0.0
  0
LINE
  5
44
100
AcDbEntity
  8
0
  6
CONTINUOUS
 62
     7
100
AcDbLine
 10
45.0
 20
12.5
 30
0.0
 11
45.0
 21
4.5
 31
0.0
  0
LINE
  5
45
100
AcDbEntity
  8
0
  6
CONTINUOUS
 62
     7
100
AcDbLine
 10
47.499996
 20
4.000004
 30
0.0
 11
49.999989
 21
6.499996
 31
0.0
  0
LINE
  5
46
100
AcDbEntity
  8
0
  6
CONTINUOUS
 62
     7
100
AcDbLine
 10
47.499985
 20
13.000003
 30
0.0
 11
49.999989
 21
10.500001
 31
0.0
  0
LINE
  5
47
100
AcDbEntity
  8
0
  6
CONTINUOUS
 62
     7
100
AcDbLine
 10
45.5
 20
13.0
 30
0.0
 11
47.5
 21
13.0
 31
0.0
  0
LINE
  5
48
100
AcDbEntity
  8
0
  6
CONTINUOUS
 62
     7
100
AcDbLine
 10
45.5
 20
4.0
 30
0.0
 11
47.5
 21
4.0
 31
0.0
  0
LINE
  5
49
100
AcDbEntity
  8
0
  6
CONTINUOUS
 62
     7
100
AcDbLine
 10
44.999996
 20
4.500007
 30
0.0
 11
45.499996
 21
4.000006
 31
0.0
  0
LINE
  5
4A
100
AcDbEntity
  8
0
  6
CONTINUOUS
 62
     7
100
AcDbLine
 10
44.999985
 20
12.500001
 30
0.0
 11
45.499985
 21
13.000001
 31
0.0
  0
LINE
  5
4B
100
AcDbEntity
  8
0
  6
CONTINUOUS
 62
     7
100
AcDbLine
 10
45.5
 20
4.0
 30
0.0
 11
45.5
 21
13.0
 31
0.0
  0
LINE
  5
4C
100
AcDbEntity
  8
0
  6
CONTINUOUS
 62
     7
100
AcDbLine
 10
47.5
 20
13.0
 30
0.0
 11
47.5
 21
4.0
 31
0.0
  0
LINE
  5
4D
100
AcDbEntity
  8
0
  6
CONTINUOUS
 62
     7
100
AcDbLine
 10
42.0
 20
11.0
 30
0.0
 11
45.0
 21
11.0
 31
0.0
  0
LINE
  5
4E
100
AcDbEntity
  8
0
  6
CONTINUOUS
 62
     7
100
AcDbLine
 10
42.0
 20
6.0
 30
0.0
 11
45.0
 21
6.0
 31
0.0
  0
LINE
  5
4F
100
AcDbEntity
  8
0
  6
CONTINUOUS
 62
     7
100
AcDbLine
 10
43.5
 20
10.75
 30
0.0
 11
43.5
 21
6.25
 31
0.0
  0
LINE
  5
50
100
AcDbEntity
  8
0
  6
CONTINUOUS
 62
     7
100
AcDbLine
 10
42.0
 20
6.25
 30
0.0
 11
43.5
 21
6.25
 31
0.0
  0
LINE
  5
51
100
AcDbEntity
  8
0
  6
CONTINUOUS
 62
     7
100
AcDbLine
 10
42.0
 20
10.75
 30
0.0
 11
43.5
 21
10.75
 31
0.0
  0
LINE
  5
52
100
AcDbEntity
  8
0
  6
CONTINUOUS
 62
     7
100
AcDbLine
 10
43.5
 20
10.75
 30
0.0
 11
43.93301
 21
11.0
 31
0.0
  0
LINE
  5
53
100
AcDbEntity
  8
0
  6
CONTINUOUS
 62
     7
100
AcDbLine
 10
43.5
 20
6.25
 30
0.0
 11
43.93301
 21
6.0
 31
0.0
  0
LINE
  5
54
100
AcDbEntity
  8
0
  6
CONTINUOUS
 62
     7
100
AcDbLine
 10
42.0
 20
-37.5
 30
0.0
 11
42.0
 21
-50.0
 31
0.0
  0
LINE
  5
55
100
AcDbEntity
  8
0
  6
CENTER
 62
     1
 48
0.5
100
AcDbLine
 10
30.0
 20
10.811255
 30
0.0
 11
30.0
 21
0.877922
 31
0.0
  0
LINE
  5
56
100
AcDbEntity
  8
0
  6
CENTER
 62
     1
 48
0.5
100
AcDbLine
 10
29.0
 20
-36.855408
 30
0.0
 11
29.0
 21
-47.255402
 31
0.0
  0
LINE
  5
57
100
AcDbEntity
  8
0
  6
CENTER
 62
     1
 48
0.5
100
AcDbLine
 10
30.0
 20
-35.588745
 30
0.0
 11
30.0
 21
-51.788742
 31
0.0
  0
LINE
  5
58
100
AcDbEntity
  8
0
  6
CENTER
 62
     1
 48
0.5
100
AcDbLine
 10
31.0
 20
-36.922073
 30
0.0
 11
31.0
 21
-47.522079
 31
0.0
  0
LINE
  5
59
100
AcDbEntity
  8
0
  6
CONTINUOUS
 62
     7
100
AcDbLine
 10
1.103594
 20
-50.0
 30
0.0
 11
42.0
 21
-50.0
 31
0.0
  0
LINE
  5
5A
100
AcDbEntity
  8
0
  6
CONTINUOUS
 62
     7
100
AcDbLine
 10
20.431147
 20
-37.5
 30
0.0
 11
42.0
 21
-37.5
 31
0.0
  0
LINE
  5
5B
100
AcDbEntity
  8
0
  6
CENTER
 62
     1
 48
0.5
100
AcDbLine
 10
2.842532
 20
-46.5
 30
0.0
 11
9.109199
 21
-46.5
 31
0.0
  0
LINE
  5
5C
100
AcDbEntity
  8
0
  6
CENTER
 62
     1
 48
0.5
100
AcDbLine
 10
6.0
 20
-43.588745
 30
0.0
 11
6.0
 21
-49.322067
 31
0.0
  0
LINE
  5
5D
100
AcDbEntity
  8
0
  6
CONTINUOUS
 62
     7
100
AcDbLine
 10
7.0
 20
-40.235718
 30
0.0
 11
7.0
 21
-44.0
 31
0.0
  0
LINE
  5
5E
100
AcDbEntity
  8
0
  6
CONTINUOUS
 62
     7
100
AcDbLine
 10
-34.0
 20
1.0
 30
0.0
 11
-33.179993
 21
1.0
 31
0.0
  0
LINE
  5
5F
100
AcDbEntity
  8
0
  6
CONTINUOUS
 62
     7
100
AcDbLine
 10
-39.0
 20
14.0
 30
0.0
 11
-28.5
 21
14.0
 31
0.0
  0
LINE
  5
60
100
AcDbEntity
  8
0
  6
CONTINUOUS
 62
     7
100
AcDbLine
 10
-39.999989
 20
13.000005
 30
0.0
 11
-38.999989
 21
14.000006
 31
0.0
  0
LINE
  5
61
100
AcDbEntity
  8
0
  6
CONTINUOUS
 62
     7
100
AcDbLine
 10
-28.499996
 20
13.999996
 30
0.0
 11
-27.499996
 21
12.999995
 31
0.0
  0
LINE
  5
62
100
AcDbEntity
  8
0
  6
CONTINUOUS
 62
     7
100
AcDbLine
 10
-40.0
 20
3.797845
 30
0.0
 11
-33.999992
 21
0.999997
 31
0.0
  0
LINE
  5
63
100
AcDbEntity
  8
0
  6
CONTINUOUS
 62
     7
100
AcDbLine
 10
-30.0
 20
14.0
 30
0.0
 11
-30.0
 21
0.0
 31
0.0
  0
LINE
  5
64
100
AcDbEntity
  8
0
  6
CONTINUOUS
 62
     7
100
AcDbLine
 10
-33.179993
 20
9.794753
 30
0.0
 11
-33.179993
 21
0.618129
 31
0.0
  0
LINE
  5
65
100
AcDbEntity
  8
0
  6
CONTINUOUS
 62
     7
100
AcDbLine
 10
0.6
 20
0.05359
 30
0.0
 11
6.709314
 21
3.580804
 31
0.0
  0
LINE
  5
66
100
AcDbEntity
  8
0
  6
CONTINUOUS
 62
     7
100
AcDbLine
 10
-33.179989
 20
0.618126
 30
0.0
 11
-29.999992
 21
-0.000003
 31
0.0
  0
LINE
  5
67
100
AcDbEntity
  8
0
  6
CONTINUOUS
 62
     7
100
AcDbLine
 10
20.431147
 20
13.0
 30
0.0
 11
42.0
 21
13.0
 31
0.0
  0
LINE
  5
68
100
AcDbEntity
  8
0
  6
CONTINUOUS
 62
     7
100
AcDbLine
 10
-0.000001
 20
13.999999
 30
0.0
 11
0.0
 21
0.4
 31
0.0
  0
LINE
  5
69
100
AcDbEntity
  8
0
  6
CONTINUOUS
 62
     7
100
AcDbLine
 10
11.049863
 20
1.354316
 30
0.0
 11
11.999999
 21
3.000001
 31
0.0
  0
LINE
  5
6A
100
AcDbEntity
  8
0
  6
CONTINUOUS
 62
     7
100
AcDbLine
 10
3.019999
 20
14.0
 30
0.0
 11
3.019999
 21
8.962104
 31
0.0
  0
LINE
  5
6B
100
AcDbEntity
  8
0
  6
CONTINUOUS
 62
     7
100
AcDbLine
 10
3.519999
 20
14.0
 30
0.0
 11
3.519999
 21
8.673429
 31
0.0
  0
LINE
  5
6C
100
AcDbEntity
  8
0
  6
CONTINUOUS
 62
     7
100
AcDbLine
 10
82.783014
 20
-37.5
 30
0.0
 11
82.783014
 21
-50.0
 31
0.0
  0
LINE
  5
6D
100
AcDbEntity
  8
0
  6
CONTINUOUS
 62
     7
100
AcDbLine
 10
93.783014
 20
-38.5
 30
0.0
 11
93.783014
 21
-49.0
 31
0.0
  0
LINE
  5
6E
100
AcDbEntity
  8
0
  6
CONTINUOUS
 62
     7
100
AcDbLine
 10
82.783014
 20
-50.0
 30
0.0
 11
92.783002
 21
-50.0
 31
0.0
  0
LINE
  5
6F
100
AcDbEntity
  8
0
  6
CENTER
 62
     1
 48
0.5
100
AcDbLine
 10
80.958353
 20
-40.332207
 30
0.0
 11
96.495874
 21
-45.9874
 31
0.0
  0
LINE
  5
70
100
AcDbEntity
  8
0
  6
CONTINUOUS
 62
     7
100
AcDbLine
 10
90.474138
 20
-40.071045
 30
0.0
 11
93.783006
 21
-41.275375
 31
0.0
  0
LINE
  5
71
100
AcDbEntity
  8
0
  6
CONTINUOUS
 62
     7
100
AcDbLine
 10
88.079996
 20
-46.648884
 30
0.0
 11
93.783006
 21
-48.724609
 31
0.0
  0
LINE
  5
72
100
AcDbEntity
  8
0
  6
CONTINUOUS
 62
     7
100
AcDbLine
 10
82.783014
 20
-37.5
 30
0.0
 11
92.783014
 21
-37.5
 31
0.0
  0
LINE
  5
73
100
AcDbEntity
  8
0
  6
CONTINUOUS
 62
     7
100
AcDbLine
 10
92.783006
 20
-37.5
 30
0.0
 11
93.783006
 21
-38.5
 31
0.0
  0
LINE
  5
74
100
AcDbEntity
  8
0
  6
CONTINUOUS
 62
     7
100
AcDbLine
 10
88.526888
 20
-37.499992
 30
0.0
 11
91.072672
 21
-38.426582
 31
0.0
  0
LINE
  5
75
100
AcDbEntity
  8
0
  6
CONTINUOUS
 62
     7
100
AcDbLine
 10
82.783006
 20
-46.583233
 30
0.0
 11
87.481462
 21
-48.293335
 31
0.0
  0
LINE
  5
76
100
AcDbEntity
  8
0
  6
CONTINUOUS
 62
     7
100
AcDbLine
 10
91.072672
 20
-38.426582
 30
0.0
 11
87.481462
 21
-48.293335
 31
0.0
  0
LINE
  5
77
100
AcDbEntity
  8
0
  6
CONTINUOUS
 62
     7
100
AcDbLine
 10
93.783006
 20
-49.0
 30
0.0
 11
92.783002
 21
-50.0
 31
0.0
  0
LINE
  5
79
100
AcDbEntity
  8
0
  6
CONTINUOUS
 62
     7
100
AcDbLine
 10
29.0
 20
-41.275379
 30
0.0
 11
31.0
 21
-41.275379
 31
0.0
  0
LINE
  5
7A
100
AcDbEntity
  8
0
  6
CONTINUOUS
 62
     7
100
AcDbLine
 10
29.0
 20
-40.071045
 30
0.0
 11
31.0
 21
-40.071045
 31
0.0
  0
LINE
  5
7B
100
AcDbEntity
  8
0
  6
CONTINUOUS
 62
     7
100
AcDbLine
 10
29.0
 20
-38.426582
 30
0.0
 11
31.0
 21
-38.426582
 31
0.0
  0
LINE
  5
7C
100
AcDbEntity
  8
0
  6
CONTINUOUS
 62
     7
100
AcDbLine
 10
29.0
 20
8.743893
 30
0.0
 11
31.0
 21
8.743893
 31
0.0
  0
LINE
  5
7D
100
AcDbEntity
  8
0
  6
CONTINUOUS
 62
     7
100
AcDbLine
 10
29.0
 20
8.296986
 30
0.0
 11
31.0
 21
8.296986
 31
0.0
  0
LINE
  5
7E
100
AcDbEntity
  8
0
  6
CONTINUOUS
 62
     7
100
AcDbLine
 10
20.431147
 20
4.0
 30
0.0
 11
23.830069
 21
4.0
 31
0.0
  0
LINE
  5
7F
100
AcDbEntity
  8
0
  6
CONTINUOUS
 62
     7
100
AcDbLine
 10
36.169933
 20
4.0
 30
0.0
 11
42.0
 21
4.0
 31
0.0
  0
LINE
  5
80
100
AcDbEntity
  8
0
  6
CENTER
 62
     1
 48
0.5
100
AcDbLine
 10
11.963496
 20
13.748951
 30
0.0
 11
15.213834
 21
1.618523
 31
0.0
  0
LINE
  5
81
100
AcDbEntity
  8
0
  6
CENTER
 62
     1
 48
0.5
100
AcDbLine
 10
17.907145
 20
11.271831
 30
0.0
 11
19.11269
 21
6.772673
 31
0.0
  0
LINE
  5
82
100
AcDbEntity
  8
0
  6
CENTER
 62
     1
 48
0.5
100
AcDbLine
 10
-0.59961
 20
4.195037
 30
0.0
 11
21.289295
 21
10.060151
 31
0.0
  0
LINE
  5
83
100
AcDbEntity
  8
0
  6
CONTINUOUS
 62
     7
100
AcDbLine
 10
17.901947
 20
7.703127
 30
0.0
 11
18.798973
 21
7.943484
 31
0.0
  0
LINE
  5
84
100
AcDbEntity
  8
0
  6
CONTINUOUS
 62
     7
100
AcDbLine
 10
17.177254
 20
10.40772
 30
0.0
 11
18.07428
 21
10.648077
 31
0.0
  0
LINE
  5
85
100
AcDbEntity
  8
0
  6
CONTINUOUS
 62
     7
100
AcDbLine
 10
2.47111
 20
6.674274
 30
0.0
 11
3.29933
 21
3.583313
 31
0.0
  0
LINE
  5
86
100
AcDbEntity
  8
0
  6
CONTINUOUS
 62
     7
100
AcDbLine
 10
2.471111
 20
6.674276
 30
0.0
 11
11.307604
 21
11.784697
 31
0.0
  0
LINE
  5
87
100
AcDbEntity
  8
0
  6
CONTINUOUS
 62
     7
100
AcDbLine
 10
3.29933
 20
3.583312
 30
0.0
 11
13.507168
 21
3.575805
 31
0.0
  0
LINE
  5
88
100
AcDbEntity
  8
0
  6
CONTINUOUS
 62
     7
100
AcDbLine
 10
-0.000001
 20
-40.0
 30
0.0
 11
2.187252
 21
-40.229889
 31
0.0
  0
LINE
  5
89
100
AcDbEntity
  8
0
  6
CONTINUOUS
 62
     7
100
AcDbLine
 10
0.282342
 20
-43.227192
 30
0.0
 11
1.854852
 21
-43.392471
 31
0.0
  0
LINE
  5
8A
100
AcDbEntity
  8
0
  6
CONTINUOUS
 62
     7
100
AcDbLine
 10
-0.000001
 20
-40.0
 30
0.0
 11
0.282342
 21
-43.227192
 31
0.0
  0
LINE
  5
8B
100
AcDbEntity
  8
0
  6
CONTINUOUS
 62
     7
100
AcDbLine
 10
20.0
 20
14.0
 30
0.0
 11
20.0
 21
3.0
 31
0.0
  0
LINE
  5
8C
100
AcDbEntity
  8
0
  6
CONTINUOUS
 62
     7
100
AcDbLine
 10
1.103594
 20
-50.0
 30
0.0
 11
0.392965
 21
-43.238819
 31
0.0
  0
LINE
  5
8D
100
AcDbEntity
  8
0
  6
CONTINUOUS
 62
     7
100
AcDbLine
 10
2.23923
 20
-39.735352
 30
0.0
 11
1.854852
 21
-43.392471
 31
0.0
  0
LINE
  5
8E
100
AcDbEntity
  8
0
  6
CONTINUOUS
 62
     7
100
AcDbLine
 10
0.472968
 20
-44.0
 30
0.0
 11
7.0
 21
-44.0
 31
0.0
  0
LINE
  5
8F
100
AcDbEntity
  8
0
  6
CONTINUOUS
 62
     7
100
AcDbLine
 10
20.104527
 20
-40.607563
 30
0.0
 11
20.431145
 21
-37.5
 31
0.0
  0
LINE
  5
90
100
AcDbEntity
  8
0
  6
CONTINUOUS
 62
     7
100
AcDbLine
 10
20.431147
 20
13.0
 30
0.0
 11
20.431147
 21
4.0
 31
0.0
  0
LINE
  5
91
100
AcDbEntity
  8
0
  6
CONTINUOUS
 62
     7
100
AcDbLine
 10
20.431145
 20
4.000001
 30
0.0
 11
19.999998
 21
3.000001
 31
0.0
  0
LINE
  5
92
100
AcDbEntity
  8
0
  6
CONTINUOUS
 62
     7
100
AcDbLine
 10
20.431145
 20
13.0
 30
0.0
 11
19.999998
 21
14.0
 31
0.0
  0
LINE
  5
93
100
AcDbEntity
  8
0
  6
CONTINUOUS
 62
     7
100
AcDbLine
 10
11.049863
 20
-40.661388
 30
0.0
 11
11.049863
 21
-46.338188
 31
0.0
  0
LINE
  5
94
100
AcDbEntity
  8
0
  6
CONTINUOUS
 62
     7
100
AcDbLine
 10
11.999999
 20
-40.76125
 30
0.0
 11
11.999999
 21
-50.0
 31
0.0
  0
LINE
  5
95
100
AcDbEntity
  8
0
  6
CONTINUOUS
 62
     7
100
AcDbLine
 10
7.0
 20
-44.0
 30
0.0
 11
11.049862
 21
-46.338188
 31
0.0
  0
LINE
  5
96
100
AcDbEntity
  8
0
  6
CONTINUOUS
 62
     7
100
AcDbLine
 10
11.049863
 20
-46.338192
 30
0.0
 11
11.999999
 21
-50.0
 31
0.0
  0
LINE
  5
97
100
AcDbEntity
  8
0
  6
CONTINUOUS
 62
     7
100
AcDbLine
 10
29.0
 20
-46.583233
 30
0.0
 11
31.0
 21
-46.583233
 31
0.0
  0
LINE
  5
98
100
AcDbEntity
  8
0
  6
CONTINUOUS
 62
     7
100
AcDbLine
 10
-33.179993
 20
9.794753
 30
0.0
 11
-29.959019
 21
10.420847
 31
0.0
  0
LINE
  5
99
100
AcDbEntity
  8
0
  6
CONTINUOUS
 62
     7
100
AcDbLine
 10
11.222892
 20
-35.649277
 30
0.0
 11
17.910406
 21
-36.352165
 31
0.0
  0
LINE
  5
9A
100
AcDbEntity
  8
0
  6
CONTINUOUS
 62
     7
100
AcDbLine
 10
2.47111
 20
-38.248707
 30
0.0
 11
3.29933
 21
-38.335758
 31
0.0
  0
LINE
  5
9B
100
AcDbEntity
  8
0
  6
CONTINUOUS
 62
     7
100
AcDbLine
 10
17.701349
 20
-38.341206
 30
0.0
 11
19.836626
 21
-38.565636
 31
0.0
  0
LINE
  5
9C
100
AcDbEntity
  8
0
  6
CONTINUOUS
 62
     7
100
AcDbLine
 10
17.910406
 20
-36.352165
 30
0.0
 11
17.387478
 21
-41.327496
 31
0.0
  0
LINE
  5
9D
100
AcDbEntity
  8
0
  6
CONTINUOUS
 62
     7
100
AcDbLine
 10
19.836626
 20
-38.565636
 30
0.0
 11
19.538008
 21
-41.406811
 31
0.0
  0
LINE
  5
9E
100
AcDbEntity
  8
0
  6
CONTINUOUS
 62
     7
100
AcDbLine
 10
3.29933
 20
-38.335758
 30
0.0
 11
3.142252
 21
-39.830265
 31
0.0
  0
LINE
  5
9F
100
AcDbEntity
  8
0
  6
CONTINUOUS
 62
     7
100
AcDbLine
 10
2.47111
 20
-38.248707
 30
0.0
 11
2.314031
 21
-39.743214
 31
0.0
  0
LINE
  5
A0
100
AcDbEntity
  8
0
  6
CONTINUOUS
 62
     7
100
AcDbLine
 10
-30.0
 20
3.583312
 30
0.0
 11
-28.0
 21
3.583312
 31
0.0
  0
LINE
  5
A1
100
AcDbEntity
  8
0
  6
CONTINUOUS
 62
     7
100
AcDbLine
 10
-30.0
 20
6.674274
 30
0.0
 11
-28.0
 21
6.674274
 31
0.0
  0
LINE
  5
A2
100
AcDbEntity
  8
0
  6
CONTINUOUS
 62
     7
100
AcDbLine
 10
-30.0
 20
12.375805
 30
0.0
 11
-25.507446
 21
12.375805
 31
0.0
  0
LINE
  5
A3
100
AcDbEntity
  8
0
  6
CONTINUOUS
 62
     7
100
AcDbLine
 10
-28.0
 20
6.674274
 30
0.0
 11
-28.0
 21
3.583312
 31
0.0
  0
LINE
  5
A4
100
AcDbEntity
  8
0
  6
CONTINUOUS
 62
     7
100
AcDbLine
 10
-25.507446
 20
12.375805
 30
0.0
 11
-25.507446
 21
7.909131
 31
0.0
  0
LINE
  5
A5
100
AcDbEntity
  8
0
  6
CONTINUOUS
 62
     7
100
AcDbLine
 10
2.23923
 20
-39.735352
 30
0.0
 11
19.005476
 21
-41.497555
 31
0.0
  0
LINE
  5
A6
100
AcDbEntity
  8
0
  6
CONTINUOUS
 62
     7
100
AcDbLine
 10
0.0
 20
-0.000011
 30
0.0
 11
0.4
 21
-0.000011
 31
0.0
  0
LINE
  5
A7
100
AcDbEntity
  8
0
  6
CONTINUOUS
 62
     7
100
AcDbLine
 10
0.0
 20
0.4
 30
0.0
 11
0.0
 21
-0.000011
 31
0.0
  0
CIRCLE
  5
A8
100
AcDbEntity
  8
0
  6
CONTINUOUS
 62
     7
100
AcDbCircle
 10
6.0
 20
-46.5
 30
0.0
 40
2.0
  0
ARC
  5
A9
100
AcDbEntity
  8
0
  6
CONTINUOUS
 62
     7
100
AcDbCircle
 10
0.4
 20
0.4
 30
0.0
 40
0.4
100
AcDbArc
 50
179.99996
 51
299.99994
  0
ARC
  5
AA
100
AcDbEntity
  8
0
  6
CONTINUOUS
 62
     7
100
AcDbCircle
 10
0.4
 20
10.012881
 30
0.0
 40
0.4
100
AcDbArc
 50
59.999988
 51
179.99996
  0
ARC
  5
AB
100
AcDbEntity
  8
0
  6
CONTINUOUS
 62
     7
100
AcDbCircle
 10
18.436626
 20
9.295781
 30
0.0
 40
1.4
100
AcDbArc
 50
284.99999
 51
105.0
  0
CIRCLE
  5
AC
100
AcDbEntity
  8
0
  6
CONTINUOUS
 62
     7
100
AcDbCircle
 10
6.0
 20
-46.5
 30
0.0
 40
1.65
  0
ARC
  5
AD
100
AcDbEntity
  8
0
  6
CONTINUOUS
 62
     7
100
AcDbCircle
 10
19.110006
 20
-40.503033
 30
0.0
 40
1.0
100
AcDbArc
 50
264.0
 51
354.0
  0
ARC
  5
AE
100
AcDbEntity
  8
0
  6
CONTINUOUS
 62
     7
100
AcDbCircle
 10
10.177608
 20
-45.594498
 30
0.0
 40
10.0
100
AcDbArc
 50
84.000002
 51
133.4584
  0
ARC
  5
AF
100
AcDbEntity
  8
0
  6
CONTINUOUS
 62
     7
100
AcDbCircle
 10
9.349387
 20
-45.507446
 30
0.0
 40
10.0
100
AcDbArc
 50
84.000002
 51
133.4584
  0
ARC
  5
B0
100
AcDbEntity
  8
0
  6
CONTINUOUS
 62
     7
100
AcDbCircle
 10
-30.507446
 20
11.000093
 30
0.0
 40
5.0
100
AcDbArc
 50
300.09859
 51
0.0
  0
ARC
  5
B1
100
AcDbEntity
  8
0
  6
CONTINUOUS
 62
     7
100
AcDbCircle
 10
-30.507446
 20
7.909131
 30
0.0
 40
5.0
100
AcDbArc
 50
300.09859
 51
0.0
  0
LWPOLYLINE
  5
B2
100
AcDbEntity
  8
0
  6
CONTINUOUS
 62
     7
100
AcDbPolyline
 90
       17
 70
     0
 43
0.0
 10
29.0
 20
-41.275379
 42
0.019782
 10
28.705735
 20
-41.287024
 42
0.019874
 10
28.412684
 20
-41.322015
 42
0.019958
 10
28.123539
 20
-41.380171
 42
0.020133
 10
27.839561
 20
-41.461413
 42
0.020323
 10
27.56309
 20
-41.56533
 42
0.020557
 10
27.29603
 20
-41.691472
 42
0.020829
 10
27.040303
 20
-41.83926
 42
0.021135
 10
26.79785
 20
-42.007968
 42
0.021467
 10
26.570617
 20
-42.196705
 42
0.021818
 10
26.360536
 20
-42.404391
 42
0.022176
 10
26.169504
 20
-42.629745
 42
0.022532
 10
25.999346
 20
-42.871267
 42
0.022872
 10
25.851785
 20
-43.127231
 42
0.023183
 10
25.728391
 20
-43.395684
 42
0.023452
 10
25.630536
 20
-43.674456
 42
0.023667
 10
25.559351
 20
-43.961184
  0
LWPOLYLINE
  5
C5
100
AcDbEntity
  8
0
  6
CONTINUOUS
 62
     7
100
AcDbPolyline
 90
       17
 70
     0
 43
0.0
 10
29.0
 20
-40.071045
 42
0.039748
 10
28.411472
 20
-40.117875
 42
0.040204
 10
27.836996
 20
-40.257927
 42
0.040965
 10
27.292774
 20
-40.488846
 42
0.042059
 10
26.79412
 20
-40.806477
 42
0.043396
 10
26.356611
 20
-41.204301
 42
0.044836
 10
25.995614
 20
-41.672791
 42
0.046194
 10
25.725347
 20
-42.198905
 42
0.047258
 10
25.557552
 20
-42.765987
 42
0.047844
 10
25.500005
 20
-43.354424
 42
0.047792
 10
25.555311
 20
-43.942361
 42
0.047205
 10
25.720642
 20
-44.50924
 42
0.046181
 10
25.988552
 20
-45.035988
 42
0.044844
 10
26.347466
 20
-45.505689
 42
0.043417
 10
26.783274
 20
-45.905148
 42
0.042094
 10
27.280775
 20
-46.224758
 42
0.041005
 10
27.824389
 20
-46.457807
  0
LWPOLYLINE
  5
D8
100
AcDbEntity
  8
0
  6
CONTINUOUS
 62
     7
100
AcDbPolyline
 90
       17
 70
     0
 43
0.0
 10
31.0
 20
-40.071045
 42
-0.039748
 10
31.588528
 20
-40.117875
 42
-0.040204
 10
32.163004
 20
-40.257927
 42
-0.040965
 10
32.707226
 20
-40.488846
 42
-0.042059
 10
33.20588
 20
-40.806477
 42
-0.043396
 10
33.643389
 20
-41.204301
 42
-0.044836
 10
34.004386
 20
-41.672791
 42
-0.046194
 10
34.274653
 20
-42.198905
 42
-0.047258
 10
34.442448
 20
-42.765987
 42
-0.047844
 10
34.499995
 20
-43.354424
 42
-0.047792
 10
34.444689
 20
-43.942361
 42
-0.047205
 10
34.279358
 20
-44.50924
 42
-0.046181
 10
34.011448
 20
-45.035988
 42
-0.044844
 10
33.652534
 20
-45.505689
 42
-0.043417
 10
33.216726
 20
-45.905148
 42
-0.042094
 10
32.719225
 20
-46.224758
 42
-0.041005
 10
32.175611
 20
-46.457807
  0
LWPOLYLINE
  5
EB
100
AcDbEntity
  8
0
  6
CONTINUOUS
 62
     7
100
AcDbPolyline
 90
       17
 70
     0
 43
0.0
 10
31.0
 20
-41.275379
 42
-0.019782
 10
31.294265
 20
-41.287024
 42
-0.019874
 10
31.587316
 20
-41.322015
 42
-0.019958
 10
31.876461
 20
-41.380171
 42
-0.020133
 10
32.160439
 20
-41.461413
 42
-0.020323
 10
32.43691
 20
-41.56533
 42
-0.020557
 10
32.70397
 20
-41.691472
 42
-0.020829
 10
32.959697
 20
-41.83926
 42
-0.021135
 10
33.20215
 20
-42.007968
 42
-0.021467
 10
33.429383
 20
-42.196705
 42
-0.021818
 10
33.639464
 20
-42.404391
 42
-0.022176
 10
33.830496
 20
-42.629745
 42
-0.022532
 10
34.000654
 20
-42.871267
 42
-0.022872
 10
34.148215
 20
-43.127231
 42
-0.023183
 10
34.271609
 20
-43.395684
 42
-0.023452
 10
34.369464
 20
-43.674456
 42
-0.023667
 10
34.440649
 20
-43.961184
  0
LWPOLYLINE
  5
FE
100
AcDbEntity
  8
0
  6
CONTINUOUS
 62
     7
100
AcDbPolyline
 90
       17
 70
     0
 43
0.0
 10
31.0
 20
8.743893
 42
-0.02806
 10
31.537807
 20
8.713676
 42
-0.027915
 10
32.06938
 20
8.623473
 42
-0.027598
 10
32.587966
 20
8.474843
 42
-0.02708
 10
33.086248
 20
8.270906
 42
-0.026558
 10
33.56061
 20
8.01437
 42
-0.025943
 10
34.00578
 20
7.709326
 42
-0.025281
 10
34.417452
 20
7.360341
 42
-0.024617
 10
34.792314
 20
6.972087
 42
-0.023982
 10
35.127754
 20
6.549282
 42
-0.023395
 10
35.421719
 20
6.096619
 42
-0.022872
 10
35.672635
 20
5.6187
 42
-0.022425
 10
35.879318
 20
5.120011
 42
-0.02206
 10
36.040901
 20
4.604906
 42
-0.021782
 10
36.156777
 20
4.077624
 42
-0.021594
 10
36.226548
 20
3.542304
 42
-0.021499
 10
36.249999
 20
3.002997
  0
LWPOLYLINE
  5
111
100
AcDbEntity
  8
0
  6
CONTINUOUS
 62
     7
100
AcDbPolyline
 90
       17
 70
     0
 43
0.0
 10
32.69247
 20
8.446248
 42
-0.003539
 10
32.589373
 20
8.427529
 42
-0.003417
 10
32.485149
 20
8.410098
 42
-0.003307
 10
32.37994
 20
8.393954
 42
-0.003207
 10
32.273886
 20
8.37909
 42
-0.003118
 10
32.167125
 20
8.365502
 42
-0.003038
 10
32.05979
 20
8.353182
 42
-0.002937
 10
31.953055
 20
8.34222
 42
-0.002843
 10
31.84718
 20
8.332582
 42
-0.002785
 10
31.741203
 20
8.324136
 42
-0.002736
 10
31.635138
 20
8.316861
 42
-0.002696
 10
31.528999
 20
8.310738
 42
-0.002686
 10
31.421861
 20
8.305713
 42
-0.002676
 10
31.313986
 20
8.301812
 42
-0.002647
 10
31.206488
 20
8.299071
 42
-0.002621
 10
31.099475
 20
8.297469
 42
-0.002601
 10
30.993026
 20
8.296988
  0
LWPOLYLINE
  5
124
100
AcDbEntity
  8
0
  6
CONTINUOUS
 62
     7
100
AcDbPolyline
 90
       17
 70
     0
 43
0.0
 10
29.0
 20
8.743893
 42
0.02806
 10
28.462193
 20
8.713676
 42
0.027915
 10
27.93062
 20
8.623473
 42
0.027598
 10
27.412034
 20
8.474843
 42
0.02708
 10
26.913752
 20
8.270906
 42
0.026558
 10
26.43939
 20
8.01437
 42
0.025943
 10
25.99422
 20
7.709326
 42
0.025281
 10
25.582548
 20
7.360341
 42
0.024617
 10
25.207686
 20
6.972087
 42
0.023982
 10
24.872246
 20
6.549282
 42
0.023395
 10
24.578281
 20
6.096619
 42
0.022872
 10
24.327365
 20
5.6187
 42
0.022425
 10
24.120682
 20
5.120011
 42
0.02206
 10
23.959099
 20
4.604906
 42
0.021782
 10
23.843223
 20
4.077624
 42
0.021594
 10
23.773452
 20
3.542304
 42
0.021499
 10
23.750001
 20
3.002997
  0
LWPOLYLINE
  5
137
100
AcDbEntity
  8
0
  6
CONTINUOUS
 62
     7
100
AcDbPolyline
 90
       17
 70
     0
 43
0.0
 10
27.30753
 20
8.446248
 42
0.003539
 10
27.410627
 20
8.427529
 42
0.003417
 10
27.514851
 20
8.410098
 42
0.003307
 10
27.62006
 20
8.393954
 42
0.003207
 10
27.726114
 20
8.37909
 42
0.003118
 10
27.832875
 20
8.365502
 42
0.003038
 10
27.94021
 20
8.353182
 42
0.002937
 10
28.046945
 20
8.34222
 42
0.002843
 10
28.15282
 20
8.332582
 42
0.002785
 10
28.258797
 20
8.324136
 42
0.002736
 10
28.364862
 20
8.316861
 42
0.002696
 10
28.471001
 20
8.310738
 42
0.002686
 10
28.578139
 20
8.305713
 42
0.002676
 10
28.686014
 20
8.301812
 42
0.002647
 10
28.793512
 20
8.299071
 42
0.002621
 10
28.900525
 20
8.297469
 42
0.002601
 10
29.006974
 20
8.296988
  0
LWPOLYLINE
  5
14A
100
AcDbEntity
  8
0
  6
CONTINUOUS
 62
     7
100
AcDbPolyline
 90
       17
 70
     0
 43
0.0
 10
26.161378
 20
-37.499792
 42
0.038903
 10
25.500222
 20
-37.972549
 42
0.040063
 10
24.921483
 20
-38.543443
 42
0.041272
 10
24.442718
 20
-39.200582
 42
0.042396
 10
24.080033
 20
-39.928293
 42
0.043283
 10
23.846754
 20
-40.707091
 42
0.043798
 10
23.751983
 20
-41.514271
 42
0.043828
 10
23.799352
 20
-42.324706
 42
0.043473
 10
23.986912
 20
-43.115126
 42
0.042669
 10
24.307024
 20
-43.861323
 42
0.041646
 10
24.748175
 20
-44.543811
 42
0.040455
 10
25.294907
 20
-45.14505
 42
0.039278
 10
25.930206
 20
-45.651975
 42
0.038226
 10
26.636249
 20
-46.05491
 42
0.037377
 10
27.395033
 20
-46.347049
 42
0.036783
 10
28.188676
 20
-46.523968
 42
0.036494
 10
29.0
 20
-46.583233
  0
LWPOLYLINE
  5
15D
100
AcDbEntity
  8
0
  6
CONTINUOUS
 62
     7
100
AcDbPolyline
 90
       17
 70
     0
 43
0.0
 10
29.0
 20
-38.426582
 42
0.016087
 10
28.565984
 20
-38.440542
 42
0.016216
 10
28.133835
 20
-38.482471
 42
0.016482
 10
27.705362
 20
-38.55253
 42
0.01689
 10
27.282484
 20
-38.650997
 42
0.01745
 10
26.867301
 20
-38.77825
 42
0.018174
 10
26.462148
 20
-38.934745
 42
0.019076
 10
26.069675
 20
-39.120978
 42
0.020171
 10
25.692924
 20
-39.337434
 42
0.021471
 10
25.335404
 20
-39.584502
 42
0.022983
 10
25.001173
 20
-39.862351
 42
0.024698
 10
24.694882
 20
-40.170756
 42
0.026581
 10
24.421768
 20
-40.508866
 42
0.028558
 10
24.187545
 20
-40.874916
 42
0.030501
 10
23.998133
 20
-41.265922
 42
0.032231
 10
23.859197
 20
-41.677441
 42
0.033532
 10
23.775492
 20
-42.1035
  0
LWPOLYLINE
  5
170
100
AcDbEntity
  8
0
  6
CONTINUOUS
 62
     7
100
AcDbPolyline
 90
       17
 70
     0
 43
0.0
 10
31.0
 20
-38.426582
 42
-0.016087
 10
31.434016
 20
-38.440542
 42
-0.016216
 10
31.866165
 20
-38.482471
 42
-0.016482
 10
32.294638
 20
-38.55253
 42
-0.01689
 10
32.717516
 20
-38.650997
 42
-0.01745
 10
33.132699
 20
-38.77825
 42
-0.018174
 10
33.537852
 20
-38.934745
 42
-0.019076
 10
33.930325
 20
-39.120978
 42
-0.020171
 10
34.307076
 20
-39.337434
 42
-0.021471
 10
34.664596
 20
-39.584502
 42
-0.022983
 10
34.998827
 20
-39.862351
 42
-0.024698
 10
35.305118
 20
-40.170756
 42
-0.026581
 10
35.578232
 20
-40.508866
 42
-0.028558
 10
35.812455
 20
-40.874916
 42
-0.030501
 10
36.001867
 20
-41.265922
 42
-0.032231
 10
36.140803
 20
-41.677441
 42
-0.033532
 10
36.224508
 20
-42.1035
  0
LWPOLYLINE
  5
183
100
AcDbEntity
  8
0
  6
CONTINUOUS
 62
     7
100
AcDbPolyline
 90
       17
 70
     0
 43
0.0
 10
33.838622
 20
-37.499792
 42
-0.038903
 10
34.499778
 20
-37.972549
 42
-0.040063
 10
35.078517
 20
-38.543443
 42
-0.041272
 10
35.557282
 20
-39.200582
 42
-0.042396
 10
35.919967
 20
-39.928293
 42
-0.043283
 10
36.153246
 20
-40.707091
 42
-0.043798
 10
36.248017
 20
-41.514271
 42
-0.043828
 10
36.200648
 20
-42.324706
 42
-0.043473
 10
36.013088
 20
-43.115126
 42
-0.042669
 10
35.692976
 20
-43.861323
 42
-0.041646
 10
35.251825
 20
-44.543811
 42
-0.040455
 10
34.705093
 20
-45.14505
 42
-0.039278
 10
34.069794
 20
-45.651975
 42
-0.038226
 10
33.363751
 20
-46.05491
 42
-0.037377
 10
32.604967
 20
-46.347049
 42
-0.036783
 10
31.811324
 20
-46.523968
 42
-0.036494
 10
31.0
 20
-46.583233
  0
LINE
  5
196
100
AcDbEntity
  8
0
  6
CONTINUOUS
 62
     7
100
AcDbLine
 10
93.356519
 20
-41.120144
 30
0.0
 11
93.783014
 21
-40.693648
 31
0.0
  0
LINE
  5
197
100
AcDbEntity
  8
0
  6
CONTINUOUS
 62
     7
100
AcDbLine
 10
91.710543
 20
-40.521057
 30
0.0
 11
93.757305
 21
-38.474291
 31
0.0
  0
LINE
  5
198
100
AcDbEntity
  8
0
  6
CONTINUOUS
 62
     7
100
AcDbLine
 10
90.793828
 20
-39.192708
 30
0.0
 11
92.486532
 21
-37.5
 31
0.0
  0
LINE
  5
199
100
AcDbEntity
  8
0
  6
CONTINUOUS
 62
     7
100
AcDbLine
 10
89.783948
 20
-37.957524
 30
0.0
 11
90.241471
 21
-37.5
 31
0.0
  0
LINE
  5
19A
100
AcDbEntity
  8
0
  6
CONTINUOUS
 62
     7
100
AcDbLine
 10
91.974301
 20
-50.0
 30
0.0
 11
93.392002
 21
-48.582297
 31
0.0
  0
LINE
  5
19B
100
AcDbEntity
  8
0
  6
CONTINUOUS
 62
     7
100
AcDbLine
 10
89.729239
 20
-50.0
 30
0.0
 11
91.746025
 21
-47.983211
 31
0.0
  0
LINE
  5
19C
100
AcDbEntity
  8
0
  6
CONTINUOUS
 62
     7
100
AcDbLine
 10
87.484177
 20
-50.0
 30
0.0
 11
90.100047
 21
-47.384125
 31
0.0
  0
LINE
  5
19D
100
AcDbEntity
  8
0
  6
CONTINUOUS
 62
     7
100
AcDbLine
 10
85.243131
 20
-49.995985
 30
0.0
 11
87.088725
 21
-48.150387
 31
0.0
  0
LINE
  5
19E
100
AcDbEntity
  8
0
  6
CONTINUOUS
 62
     7
100
AcDbLine
 10
87.788019
 20
-47.451091
 30
0.0
 11
88.45407
 21
-46.785039
 31
0.0
  0
LINE
  5
19F
100
AcDbEntity
  8
0
  6
CONTINUOUS
 62
     7
100
AcDbLine
 10
82.994054
 20
-50.0
 30
0.0
 11
85.442748
 21
-47.551301
 31
0.0
  0
LINE
  5
1A0
100
AcDbEntity
  8
0
  6
CONTINUOUS
 62
     7
100
AcDbLine
 10
82.783014
 20
-47.965974
 30
0.0
 11
83.796772
 21
-46.952214
 31
0.0
  0
TEXT
  5
1A3
100
AcDbEntity
  8
0
  6
CONTINUOUS
100
AcDbText
 10
12.66629
 20
-76.165529
 30
0.0
 40
6.0
  1
CTFPR10CA
100
AcDbText
  0
LINE
  5
1CA
102
{ACAD_REACTORS
330
1D2
102
}
100
AcDbEntity
  8
寸法
  6
CONTINUOUS
 62
     1
100
AcDbLine
 10
97.435567
 20
-46.32942
 30
0.0
 11
110.862531
 21
-51.216433
 31
0.0
  0
LINE
  5
1CB
102
{ACAD_REACTORS
330
1D2
102
}
100
AcDbEntity
  8
寸法
  6
CONTINUOUS
 62
     1
100
AcDbLine
 10
93.783014
 20
-45.0
 30
0.0
 11
111.958655
 21
-45.0
 31
0.0
  0
ARC
  5
1CC
102
{ACAD_REACTORS
330
1D2
102
}
100
AcDbEntity
  8
寸法
  6
CONTINUOUS
 62
     1
100
AcDbCircle
 10
93.783014
 20
-45.0
 30
0.0
 40
17.175641
100
AcDbArc
 50
333.324484
 51
340.000007
  0
LINE
  5
1CD
102
{ACAD_REACTORS
330
1D2
102
}
100
AcDbEntity
  8
寸法
  6
CONTINUOUS
 62
     1
100
AcDbLine
 10
109.130537
 20
-52.710785
 30
0.0
 11
104.147334
 21
-62.629337
 31
0.0
  0
ARC
  5
1CE
102
{ACAD_REACTORS
330
1D2
102
}
100
AcDbEntity
  8
寸法
  6
CONTINUOUS
 62
     1
100
AcDbCircle
 10
93.783014
 20
-45.0
 30
0.0
 40
17.175641
100
AcDbArc
 50
346.675531
 51
353.324476
  0
INSERT
  5
1CF
102
{ACAD_REACTORS
330
1D2
102
}
100
AcDbEntity
  8
寸法
  6
CONTINUOUS
 62
     1
100
AcDbBlockReference
  2
_OPEN30
 10
109.922838
 20
-50.874413
 30
0.0
 41
2.0
 42
2.0
 43
2.0
 50
253.337769
  0
INSERT
  5
1D0
102
{ACAD_REACTORS
330
1D2
102
}
100
AcDbEntity
  8
寸法
  6
CONTINUOUS
 62
     1
100
AcDbBlockReference
  2
_OPEN30
 10
110.958655
 20
-45.0
 30
0.0
 41
2.0
 42
2.0
 43
2.0
 50
86.662238
  0
MTEXT
  5
1D1
102
{ACAD_REACTORS
330
1D2
102
}
100
AcDbEntity
  8
寸法
  6
CONTINUOUS
 62
     1
100
AcDbMText
 10
104.405027
 20
-56.547718
 30
0.0
 40
3.0
 41
0.0
 71
     5
 72
     1
  1
\A1;20°
 11
0.448937
 21
0.893563
 31
0.0
1001
ACAD
1000
MTEXTBEGIN
1070
    73
1070
     1
1070
    44
1040
1.0
1070
    74
1070
     0
1000
MTEXTEND
1000
MTEXTBEGIN
1070
    73
1070
     1
1070
    44
1040
1.0
1070
    74
1070
     0
1000
MTEXTEND
  0
DIMENSION
  5
1D3
100
AcDbEntity
  8
寸法
  6
CONTINUOUS
100
AcDbDimension
  2
*D1
 10
100.0
 20
-50.0
 30
0.0
 11
97.5
 21
-47.5
 31
0.0
 70
    32
  3
STANDARD
100
AcDbAlignedDimension
 13
93.783014
 23
-45.0
 33
0.0
 14
92.783002
 24
-50.0
 34
0.0
 50
90.0
100
AcDbRotatedDimension
  0
DIMENSION
  5
1E2
100
AcDbEntity
  8
寸法
  6
CONTINUOUS
100
AcDbDimension
  2
*D2
 10
60.0
 20
-50.0
 30
0.0
 11
57.5
 21
-43.75
 31
0.0
 70
    32
  3
STANDARD
100
AcDbAlignedDimension
 13
42.0
 23
-37.5
 33
0.0
 14
42.0
 24
-50.0
 34
0.0
 50
90.0
100
AcDbRotatedDimension
  0
DIMENSION
  5
1EF
100
AcDbEntity
  8
寸法
  6
CONTINUOUS
100
AcDbDimension
  2
*D3
 10
-10.0
 20
-50.0
 30
0.0
 11
-12.5
 21
-45.0
 31
0.0
 70
    32
  3
STANDARD
100
AcDbAlignedDimension
 13
-0.000001
 23
-40.0
 33
0.0
 14
1.103594
 24
-50.0
 34
0.0
 50
90.0
100
AcDbRotatedDimension
  0
DIMENSION
  5
1FC
100
AcDbEntity
  8
寸法
  6
CONTINUOUS
100
AcDbDimension
  2
*D4
 10
29.0
 20
-60.0
 30
0.0
 11
23.0
 21
-57.5
 31
0.0
 70
    32
  3
STANDARD
100
AcDbAlignedDimension
 13
31.0
 23
-47.522079
 33
0.0
 14
29.0
 24
-47.255402
 34
0.0
100
AcDbRotatedDimension
  0
DIMENSION
  5
20B
100
AcDbEntity
  8
寸法
  6
CONTINUOUS
100
AcDbDimension
  2
*D5
 10
30.0
 20
-30.0
 30
0.0
 11
39.999998
 21
-27.5
 31
0.0
 70
    32
  3
STANDARD
100
AcDbAlignedDimension
 13
49.999996
 23
-41.999996
 33
0.0
 14
30.0
 24
-35.588745
 34
0.0
100
AcDbRotatedDimension
  0
DIMENSION
  5
218
100
AcDbEntity
  8
寸法
  6
CONTINUOUS
100
AcDbDimension
  2
*D6
 10
60.0
 20
3.0
 30
0.0
 11
57.5
 21
8.5
 31
0.0
 70
    32
  3
STANDARD
100
AcDbAlignedDimension
 13
42.0
 23
14.0
 33
0.0
 14
42.0
 24
3.0
 34
0.0
 50
90.0
100
AcDbRotatedDimension
  0
DIMENSION
  5
225
100
AcDbEntity
  8
寸法
  6
CONTINUOUS
100
AcDbDimension
  2
*D7
 10
-10.0
 20
-0.000011
 30
0.0
 11
-12.5
 21
6.999994
 31
0.0
 70
    32
  3
STANDARD
100
AcDbAlignedDimension
 13
-0.000001
 23
14.0
 33
0.0
 14
0.0
 24
-0.000011
 34
0.0
 50
90.0
100
AcDbRotatedDimension
  0
DIMENSION
  5
232
100
AcDbEntity
  8
寸法
  6
CONTINUOUS
100
AcDbDimension
  2
*D8
 10
0.0
 20
-20.0
 30
0.0
 11
25.0
 21
-17.5
 31
0.0
 70
    32
  3
STANDARD
100
AcDbAlignedDimension
 13
50.0
 23
6.5
 33
0.0
 14
0.0
 24
-0.000011
 34
0.0
100
AcDbRotatedDimension
  0
DIMENSION
  5
23F
100
AcDbEntity
  8
寸法
  6
CONTINUOUS
100
AcDbDimension
  2
*D9
 10
42.0
 20
-10.0
 30
0.0
 11
46.0
 21
-7.5
 31
0.0
 70
    32
  3
STANDARD
100
AcDbAlignedDimension
 13
50.0
 23
6.5
 33
0.0
 14
42.0
 24
3.0
 34
0.0
100
AcDbRotatedDimension
1001
ACAD
1000
DSTYLE
1002
{
1070
   287
1070
     4
1070
   287
1070
     4
1070
   279
1070
     1
1002
}
  0
DIMENSION
  5
255
100
AcDbEntity
  8
寸法
  6
CONTINUOUS
100
AcDbDimension
  2
*D10
 10
0.4
 20
-0.000011
 30
0.0
 11
-2.513238
 21
4.882393
 31
0.0
 70
   162
  3
STANDARD
100
AcDb2LineAngularDimension
 13
-0.000001
 23
13.999999
 33
0.0
 14
0.0
 24
0.4
 34
0.0
 15
0.0
 25
-0.000011
 35
0.0
 16
-4.755594
 26
2.745632
 36
0.0
1001
ACAD
1000
DSTYLE
1002
{
1070
   271
1070
     0
1070
   271
1070
     0
1002
}
  0
LINE
  5
26F
100
AcDbEntity
  8
0
  6
CONTINUOUS
100
AcDbLine
 10
-30.0
 20
0.0
 30
0.0
 11
-30.0
 21
12.375805
 31
0.0
  0
ARC
  5
271
100
AcDbEntity
  8
0
  6
CENTER
 62
     1
 48
0.5
100
AcDbCircle
 10
-30.0
 20
18.999997
 30
0.0
 40
18.999997
100
AcDbArc
 50
180.0
 51
270.0
  0
DIMENSION
  5
272
100
AcDbEntity
  8
寸法
  6
CONTINUOUS
100
AcDbDimension
  2
*D11
 10
-30.0
 20
18.999997
 30
0.0
 11
-57.064956
 21
11.401443
 31
0.0
 70
    36
  1
%%c38
  3
STANDARD
100
AcDbRadialDimension
 15
-47.763523
 25
12.257807
 35
0.0
 40
0.0
1001
ACAD
1000
DSTYLE
1002
{
1070
   288
1070
     1
1002
}
  0
MTEXT
  5
290
100
AcDbEntity
  8
寸法
  6
CONTINUOUS
 62
     1
100
AcDbMText
 10
-39.590897
 20
-37.5
 30
0.0
 40
3.0
 41
0.0
 71
     5
 72
     1
  1
0%%d
1001
ACAD
1000
MTEXTBEGIN
1070
    73
1070
     1
1070
    44
1040
1.0
1070
    74
1070
     0
1000
MTEXTEND
1000
MTEXTBEGIN
1070
    73
1070
     1
1070
    44
1040
1.0
1070
    74
1070
     0
1000
MTEXTEND
1000
MTEXTBEGIN
1070
    73
1070
     1
1070
    44
1040
1.0
1070
    74
1070
     0
1000
MTEXTEND
1000
MTEXTBEGIN
1070
    73
1070
     1
1070
    44
1040
1.0
1070
    74
1070
     0
1000
MTEXTEND
1000
MTEXTBEGIN
1070
    73
1070
     1
1070
    44
1040
1.0
1070
    74
1070
     0
1000
MTEXTEND
1000
MTEXTBEGIN
1070
    73
1070
     1
1070
    44
1040
1.0
1070
    74
1070
     0
1000
MTEXTEND
1000
MTEXTBEGIN
1070
    73
1070
     1
1070
    44
1040
1.0
1070
    74
1070
     0
1000
MTEXTEND
1000
MTEXTBEGIN
1070
    73
1070
     1
1070
    44
1040
1.0
1070
    74
1070
     0
1000
MTEXTEND
  0
MTEXT
  5
291
100
AcDbEntity
  8
寸法
  6
CONTINUOUS
 62
     1
100
AcDbMText
 10
-25.160402
 20
-49.687674
 30
0.0
 40
3.0
 41
0.0
 71
     5
 72
     1
  1
+6%%d
1001
ACAD
1000
MTEXTBEGIN
1070
    73
1070
     1
1070
    44
1040
1.0
1070
    74
1070
     0
1000
MTEXTEND
1000
MTEXTBEGIN
1070
    73
1070
     1
1070
    44
1040
1.0
1070
    74
1070
     0
1000
MTEXTEND
1000
MTEXTBEGIN
1070
    73
1070
     1
1070
    44
1040
1.0
1070
    74
1070
     0
1000
MTEXTEND
1000
MTEXTBEGIN
1070
    73
1070
     1
1070
    44
1040
1.0
1070
    74
1070
     0
1000
MTEXTEND
1000
MTEXTBEGIN
1070
    73
1070
     1
1070
    44
1040
1.0
1070
    74
1070
     0
1000
MTEXTEND
1000
MTEXTBEGIN
1070
    73
1070
     1
1070
    44
1040
1.0
1070
    74
1070
     0
1000
MTEXTEND
1000
MTEXTBEGIN
1070
    73
1070
     1
1070
    44
1040
1.0
1070
    74
1070
     0
1000
MTEXTEND
1000
MTEXTBEGIN
1070
    73
1070
     1
1070
    44
1040
1.0
1070
    74
1070
     0
1000
MTEXTEND
  0
LINE
  5
292
100
AcDbEntity
  8
寸法
  6
CONTINUOUS
100
AcDbLine
 10
-40.0
 20
-40.0
 30
0.0
 11
-38.585786
 21
-42.44949
 31
30.0
  0
LINE
  5
293
100
AcDbEntity
  8
寸法
  6
CONTINUOUS
100
AcDbLine
 10
-40.0
 20
-40.0
 30
0.0
 11
-41.414214
 21
-42.44949
 31
30.0
  0
LINE
  5
294
100
AcDbEntity
  8
寸法
  6
CONTINUOUS
100
AcDbLine
 10
-30.0
 20
-50.0
 30
0.0
 11
-32.44949
 21
-51.414214
 31
30.0
  0
LINE
  5
295
100
AcDbEntity
  8
寸法
  6
CONTINUOUS
100
AcDbLine
 10
-30.0
 20
-50.0
 30
0.0
 11
-32.44949
 21
-48.585786
 31
30.0
  0
LINE
  5
296
100
AcDbEntity
  8
寸法
  6
CONTINUOUS
100
AcDbLine
 10
-40.0
 20
-50.0
 30
0.0
 11
-40.0
 21
-40.0
 31
0.0
  0
LINE
  5
297
100
AcDbEntity
  8
寸法
  6
CONTINUOUS
100
AcDbLine
 10
-40.0
 20
-50.0
 30
0.0
 11
-30.0
 21
-50.0
 31
0.0
  0
LINE
  5
324
100
AcDbEntity
  8
0
  6
CENTER
 62
     1
 48
0.5
100
AcDbLine
 10
-30.0
 20
12.375805
 30
0.0
 11
-30.0
 21
18.999997
 31
0.0
  0
CIRCLE
  5
325
100
AcDbEntity
  8
0
  6
CONTINUOUS
100
AcDbCircle
 10
13.510406
 20
7.975804
 30
0.0
 40
4.4
  0
ENDSEC
  0
SECTION
  2
OBJECTS
  0
DICTIONARY
  5
C
100
AcDbDictionary
  3
ACAD_GROUP
350
D
  3
ACAD_LAYOUT
350
1A8
  3
ACAD_MLINESTYLE
350
1B
  3
ACAD_PLOTSETTINGS
350
1A9
  3
ACAD_PLOTSTYLENAME
350
1A6
  3
ACDBHEADERROUNDTRIPXREC
350
2E6
  0
DICTIONARY
  5
2E2
100
AcDbDictionary
280
     1
  3
ACAD_XREC_ROUNDTRIP
360
2E3
  0
DICTIONARY
  5
309
100
AcDbDictionary
280
     1
  3
ACAD_XREC_ROUNDTRIP
360
30A
  0
DICTIONARY
  5
2C2
100
AcDbDictionary
280
     1
  3
ACAD_LAYOUTSELFREF
360
308
  0
DICTIONARY
  5
2C0
100
AcDbDictionary
280
     1
  3
ACAD_LAYOUTSELFREF
360
307
  0
DICTIONARY
  5
2E0
100
AcDbDictionary
280
     1
  3
ACAD_XREC_ROUNDTRIP
360
2E1
  0
DICTIONARY
  5
D
102
{ACAD_REACTORS
330
C
102
}
100
AcDbDictionary
  3
*A1
350
1D2
  0
DICTIONARY
  5
1A8
102
{ACAD_XDICTIONARY
360
30B
102
}
102
{ACAD_REACTORS
330
C
102
}
100
AcDbDictionary
  3
MODEL
350
1AA
  3
ﾚｲｱｳﾄ1
350
1AB
  0
DICTIONARY
  5
1B
102
{ACAD_REACTORS
330
C
102
}
100
AcDbDictionary
  3
STANDARD
350
1C
  0
DICTIONARY
  5
1A9
102
{ACAD_REACTORS
330
C
102
}
100
AcDbDictionary
  0
ACAD_PROXY_OBJECT
  5
1A6
102
{ACAD_REACTORS
330
C
102
}
100
AcDbProxyObject
 90
      499
 91
      500
 93
       86
310
405010041939BDC9B585B0
350
1A7
340
1A7
 94
        0
  0
DICTIONARY
  5
2E6
102
{ACAD_REACTORS
330
C
102
}
100
AcDbDictionary
  3
CEPSNTYPE
350
2F0
  3
DIMSTYLEDATA
350
2F4
  3
FINGERPRINTGUID
350
2F1
  3
HYPERLINKBASE
350
2E9
  3
INSUNITS
350
2EF
  3
LAYOUTDICT
350
2EB
  3
LWETCUNION
350
2EE
  3
PLOTSETDICT
350
2EC
  3
PLOTSTYLNAMDICT
350
2ED
  3
PSVPSCALE
350
2F3
  3
PUCSBASE
350
2F7
  3
PUCSORGBACK
350
2FD
  3
PUCSORGBOTTOM
350
2F9
  3
PUCSORGFRONT
350
2FC
  3
PUCSORGLEFT
350
2FA
  3
PUCSORGRIGHT
350
2FB
  3
PUCSORGTOP
350
2F8
  3
PUCSORTHOREF
350
2F5
  3
PUCSORTHOVIEW
350
2F6
  3
STYLESHEET
350
2EA
  3
TSTACKALIGN
350
2E7
  3
TSTACKSIZE
350
2E8
  3
UCSBASE
350
300
  3
UCSORGBACK
350
306
  3
UCSORGBOTTOM
350
302
  3
UCSORGFRONT
350
305
  3
UCSORGLEFT
350
303
  3
UCSORGRIGHT
350
304
  3
UCSORGTOP
350
301
  3
UCSORTHOREF
350
2FE
  3
UCSORTHOVIEW
350
2FF
  3
VERSIONGUID
350
2F2
  0
XRECORD
  5
2E3
102
{ACAD_REACTORS
330
2E2
102
}
100
AcDbXrecord
102
EXTNAMES
  1
DEFPOINTS
  2
Defpoints
102
PLOTBIT
280
     0
  0
XRECORD
  5
30A
102
{ACAD_REACTORS
330
309
102
}
100
AcDbXrecord
102
ACADR14ROUNDTRIP
1000
DSTYLE
1002
{
1070
   341
340
1B0
1070
   342
340
1B0
1002
}
  0
XRECORD
  5
308
102
{ACAD_REACTORS
330
2C2
102
}
100
AcDbXrecord
340
18
  0
XRECORD
  5
307
102
{ACAD_REACTORS
330
2C0
102
}
100
AcDbXrecord
340
15
  0
XRECORD
  5
2E1
102
{ACAD_REACTORS
330
2E0
102
}
100
AcDbXrecord
102
EXTNAMES
  1
_OPEN30
  2
_Open30
  0
GROUP
  5
1D2
102
{ACAD_REACTORS
330
D
102
}
100
AcDbGroup
300

 70
     1
 71
     1
340
1CB
340
1D0
340
1CF
340
1CA
340
1CD
340
1D1
340
1CC
340
1CE
  0
DICTIONARY
  5
30B
100
AcDbDictionary
280
     1
  3
ACAD_XREC_ROUNDTRIP
360
30C
  0
ACAD_PROXY_OBJECT
  5
1AA
102
{ACAD_REACTORS
330
1A8
102
}
100
AcDbProxyObject
 90
      499
 91
      502
 93
      548
310
90E4550534F4E20504D2D32303030432C01AAAAAAAAA5A69054D6F64656C901A800000000000000000000000000000000000000000000A1000000000000008902A6A6AAAA8
330
18
330
0
340
0
340
0
 94
        0
  0
ACAD_PROXY_OBJECT
  5
1AB
102
{ACAD_REACTORS
330
1A8
102
}
100
AcDbProxyObject
 90
      499
 91
      502
 93
      964
310
90E4550534F4E20504D2D32303030432C00AAAAAA416AA59106906DAB2B1B3C43140501A800000000000000000000000000000000000000000000A1000000000000008902A6A6A10232D5E076BC5510408CB5781DAF154410232D5E076BC5510408CB5781DAF15C410232D5E076BC5710408CB5781DAF15C45
330
15
330
0
340
0
340
0
 94
        0
  0
MLINESTYLE
  5
1C
102
{ACAD_REACTORS
330
1B
102
}
100
AcDbMlineStyle
  2
STANDARD
 70
     0
  3

 62
   256
 51
90.0
 52
90.0
 71
     2
 49
0.5
 62
   256
  6
BYLAYER
 49
-0.5
 62
   256
  6
BYLAYER
  0
ACAD_PROXY_OBJECT
  5
1A7
102
{ACAD_REACTORS
330
1A6
102
}
100
AcDbProxyObject
 90
      499
 91
      501
 93
        0
 94
        0
  0
XRECORD
  5
2F0
102
{ACAD_REACTORS
330
2E6
102
}
100
AcDbXrecord
 90
        0
  0
XRECORD
  5
2F4
102
{ACAD_REACTORS
330
2E6
102
}
100
AcDbXrecord
1000
DSTYLE
1002
{
1070
   341
340
1B0
1070
   342
340
1B0
1002
}
  0
XRECORD
  5
2F1
102
{ACAD_REACTORS
330
2E6
102
}
100
AcDbXrecord
  1
{3E197DEA-7CFE-4029-B4F1-0C452E8512B3}
  0
XRECORD
  5
2E9
102
{ACAD_REACTORS
330
2E6
102
}
100
AcDbXrecord
  1

  0
XRECORD
  5
2EF
102
{ACAD_REACTORS
330
2E6
102
}
100
AcDbXrecord
 90
        0
  0
XRECORD
  5
2EB
102
{ACAD_REACTORS
330
2E6
102
}
100
AcDbXrecord
340
1A8
  0
XRECORD
  5
2EE
102
{ACAD_REACTORS
330
2E6
102
}
100
AcDbXrecord
 90
    14877
  0
XRECORD
  5
2EC
102
{ACAD_REACTORS
330
2E6
102
}
100
AcDbXrecord
340
1A9
  0
XRECORD
  5
2ED
102
{ACAD_REACTORS
330
2E6
102
}
100
AcDbXrecord
340
1A6
  0
XRECORD
  5
2F3
102
{ACAD_REACTORS
330
2E6
102
}
100
AcDbXrecord
 40
0.0
  0
XRECORD
  5
2F7
102
{ACAD_REACTORS
330
2E6
102
}
100
AcDbXrecord
340
0
  0
XRECORD
  5
2FD
102
{ACAD_REACTORS
330
2E6
102
}
100
AcDbXrecord
 10
0.0
 20
0.0
 30
0.0
  0
XRECORD
  5
2F9
102
{ACAD_REACTORS
330
2E6
102
}
100
AcDbXrecord
 10
0.0
 20
0.0
 30
0.0
  0
XRECORD
  5
2FC
102
{ACAD_REACTORS
330
2E6
102
}
100
AcDbXrecord
 10
0.0
 20
0.0
 30
0.0
  0
XRECORD
  5
2FA
102
{ACAD_REACTORS
330
2E6
102
}
100
AcDbXrecord
 10
0.0
 20
0.0
 30
0.0
  0
XRECORD
  5
2FB
102
{ACAD_REACTORS
330
2E6
102
}
100
AcDbXrecord
 10
0.0
 20
0.0
 30
0.0
  0
XRECORD
  5
2F8
102
{ACAD_REACTORS
330
2E6
102
}
100
AcDbXrecord
 10
0.0
 20
0.0
 30
0.0
  0
XRECORD
  5
2F5
102
{ACAD_REACTORS
330
2E6
102
}
100
AcDbXrecord
340
0
  0
XRECORD
  5
2F6
102
{ACAD_REACTORS
330
2E6
102
}
100
AcDbXrecord
 70
     0
  0
XRECORD
  5
2EA
102
{ACAD_REACTORS
330
2E6
102
}
100
AcDbXrecord
  1

  0
XRECORD
  5
2E7
102
{ACAD_REACTORS
330
2E6
102
}
100
AcDbXrecord
 90
        1
  0
XRECORD
  5
2E8
102
{ACAD_REACTORS
330
2E6
102
}
100
AcDbXrecord
 90
       70
  0
XRECORD
  5
300
102
{ACAD_REACTORS
330
2E6
102
}
100
AcDbXrecord
340
0
  0
XRECORD
  5
306
102
{ACAD_REACTORS
330
2E6
102
}
100
AcDbXrecord
 10
0.0
 20
0.0
 30
0.0
  0
XRECORD
  5
302
102
{ACAD_REACTORS
330
2E6
102
}
100
AcDbXrecord
 10
0.0
 20
0.0
 30
0.0
  0
XRECORD
  5
305
102
{ACAD_REACTORS
330
2E6
102
}
100
AcDbXrecord
 10
0.0
 20
0.0
 30
0.0
  0
XRECORD
  5
303
102
{ACAD_REACTORS
330
2E6
102
}
100
AcDbXrecord
 10
0.0
 20
0.0
 30
0.0
  0
XRECORD
  5
304
102
{ACAD_REACTORS
330
2E6
102
}
100
AcDbXrecord
 10
0.0
 20
0.0
 30
0.0
  0
XRECORD
  5
301
102
{ACAD_REACTORS
330
2E6
102
}
100
AcDbXrecord
 10
0.0
 20
0.0
 30
0.0
  0
XRECORD
  5
2FE
102
{ACAD_REACTORS
330
2E6
102
}
100
AcDbXrecord
340
0
  0
XRECORD
  5
2FF
102
{ACAD_REACTORS
330
2E6
102
}
100
AcDbXrecord
 70
     0
  0
XRECORD
  5
2F2
102
{ACAD_REACTORS
330
2E6
102
}
100
AcDbXrecord
  1
{F899CACB-4B0C-47A8-A935-9E5859D99777}
  0
XRECORD
  5
30C
102
{ACAD_REACTORS
330
30B
102
}
100
AcDbXrecord
102
EXTNAMES
  1
MODEL
  2
Model
  0
ENDSEC
  0
EOF
