  0
SECTION
  2
HEADER
  9
$ACADVER
  1
AC1014
  9
$ACADMAINTVER
 70
     0
  9
$DWGCODEPAGE
  3
ANSI_932
  9
$INSBASE
 10
0.0
 20
0.0
 30
0.0
  9
$EXTMIN
 10
-68.292125
 20
-65.725056
 30
0.0
  9
$EXTMAX
 10
123.567435
 20
32.255842
 30
30.0
  9
$LIMMIN
 10
-80.796359
 20
-91.914194
  9
$LIMMAX
 10
164.027453
 20
66.106576
  9
$ORTHOMODE
 70
     0
  9
$REGENMODE
 70
     1
  9
$FILLMODE
 70
     1
  9
$QTEXTMODE
 70
     0
  9
$MIRRTEXT
 70
     1
  9
$DRAGMODE
 70
     2
  9
$LTSCALE
 40
1.0
  9
$OSMODE
 70
    33
  9
$ATTMODE
 70
     1
  9
$TEXTSIZE
 40
0.2
  9
$TRACEWID
 40
0.05
  9
$TEXTSTYLE
  7
STANDARD
  9
$CLAYER
  8
0
  9
$CELTYPE
  6
CONTINUOUS
  9
$CECOLOR
 62
   256
  9
$CELTSCALE
 40
1.0
  9
$DELOBJ
 70
     1
  9
$DISPSILH
 70
     0
  9
$DIMSCALE
 40
1.0
  9
$DIMASZ
 40
2.0
  9
$DIMEXO
 40
1.0
  9
$DIMDLI
 40
10.0
  9
$DIMRND
 40
0.0
  9
$DIMDLE
 40
0.0
  9
$DIMEXE
 40
1.0
  9
$DIMTP
 40
0.0
  9
$DIMTM
 40
0.0
  9
$DIMTXT
 40
3.0
  9
$DIMCEN
 40
2.0
  9
$DIMTSZ
 40
0.0
  9
$DIMTOL
 70
     0
  9
$DIMLIM
 70
     0
  9
$DIMTIH
 70
     0
  9
$DIMTOH
 70
     0
  9
$DIMSE1
 70
     0
  9
$DIMSE2
 70
     0
  9
$DIMTAD
 70
     1
  9
$DIMZIN
 70
     8
  9
$DIMBLK
  1
OPEN30
  9
$DIMASO
 70
     1
  9
$DIMSHO
 70
     1
  9
$DIMPOST
  1

  9
$DIMAPOST
  1

  9
$DIMALT
 70
     0
  9
$DIMALTD
 70
     2
  9
$DIMALTF
 40
25.4
  9
$DIMLFAC
 40
1.0
  9
$DIMTOFL
 70
     1
  9
$DIMTVP
 40
0.0
  9
$DIMTIX
 70
     0
  9
$DIMSOXD
 70
     0
  9
$DIMSAH
 70
     0
  9
$DIMBLK1
  1

  9
$DIMBLK2
  1

  9
$DIMSTYLE
  2
STANDARD
  9
$DIMCLRD
 70
     1
  9
$DIMCLRE
 70
     1
  9
$DIMCLRT
 70
     1
  9
$DIMTFAC
 40
1.0
  9
$DIMGAP
 40
1.0
  9
$DIMJUST
 70
     0
  9
$DIMSD1
 70
     0
  9
$DIMSD2
 70
     0
  9
$DIMTOLJ
 70
     1
  9
$DIMTZIN
 70
     0
  9
$DIMALTZ
 70
     0
  9
$DIMALTTZ
 70
     0
  9
$DIMFIT
 70
     3
  9
$DIMUPT
 70
     0
  9
$DIMUNIT
 70
     2
  9
$DIMDEC
 70
     2
  9
$DIMTDEC
 70
     2
  9
$DIMALTU
 70
     2
  9
$DIMALTTD
 70
     2
  9
$DIMTXSTY
  7
STANDARD
  9
$DIMAUNIT
 70
     0
  9
$LUNITS
 70
     2
  9
$LUPREC
 70
     4
  9
$SKETCHINC
 40
0.1
  9
$FILLETRAD
 40
0.0
  9
$AUNITS
 70
     0
  9
$AUPREC
 70
     0
  9
$MENU
  1
acad
  9
$ELEVATION
 40
0.0
  9
$PELEVATION
 40
0.0
  9
$THICKNESS
 40
0.0
  9
$LIMCHECK
 70
     0
  9
$BLIPMODE
 70
     0
  9
$CHAMFERA
 40
0.0
  9
$CHAMFERB
 40
0.0
  9
$CHAMFERC
 40
0.0
  9
$CHAMFERD
 40
0.0
  9
$SKPOLY
 70
     0
  9
$TDCREATE
 40
2444972.375000000
  9
$TDUPDATE
 40
2451977.474432870
  9
$TDINDWG
 40
0.0076184028
  9
$TDUSRTIMER
 40
0.0076184028
  9
$USRTIMER
 70
     1
  9
$ANGBASE
 50
0.0
  9
$ANGDIR
 70
     0
  9
$PDMODE
 70
     0
  9
$PDSIZE
 40
0.0
  9
$PLINEWID
 40
0.0
  9
$COORDS
 70
     1
  9
$SPLFRAME
 70
     0
  9
$SPLINETYPE
 70
     6
  9
$SPLINESEGS
 70
     8
  9
$ATTDIA
 70
     0
  9
$ATTREQ
 70
     1
  9
$HANDLING
 70
     1
  9
$HANDSEED
  5
315
  9
$SURFTAB1
 70
     6
  9
$SURFTAB2
 70
     6
  9
$SURFTYPE
 70
     6
  9
$SURFU
 70
     6
  9
$SURFV
 70
     6
  9
$UCSNAME
  2

  9
$UCSORG
 10
0.0
 20
0.0
 30
0.0
  9
$UCSXDIR
 10
1.0
 20
0.0
 30
0.0
  9
$UCSYDIR
 10
0.0
 20
1.0
 30
0.0
  9
$PUCSNAME
  2

  9
$PUCSORG
 10
0.0
 20
0.0
 30
0.0
  9
$PUCSXDIR
 10
1.0
 20
0.0
 30
0.0
  9
$PUCSYDIR
 10
0.0
 20
1.0
 30
0.0
  9
$USERI1
 70
     0
  9
$USERI2
 70
     0
  9
$USERI3
 70
     0
  9
$USERI4
 70
     0
  9
$USERI5
 70
     0
  9
$USERR1
 40
0.0
  9
$USERR2
 40
0.0
  9
$USERR3
 40
0.0
  9
$USERR4
 40
0.0
  9
$USERR5
 40
0.0
  9
$WORLDVIEW
 70
     1
  9
$SHADEDGE
 70
     3
  9
$SHADEDIF
 70
    70
  9
$TILEMODE
 70
     1
  9
$MAXACTVP
 70
    48
  9
$PINSBASE
 10
0.0
 20
0.0
 30
0.0
  9
$PLIMCHECK
 70
     0
  9
$PEXTMIN
 10
1.000000E+20
 20
1.000000E+20
 30
1.000000E+20
  9
$PEXTMAX
 10
-1.000000E+20
 20
-1.000000E+20
 30
-1.000000E+20
  9
$PLIMMIN
 10
0.0
 20
0.0
  9
$PLIMMAX
 10
12.0
 20
9.0
  9
$UNITMODE
 70
     0
  9
$VISRETAIN
 70
     1
  9
$PLINEGEN
 70
     0
  9
$PSLTSCALE
 70
     1
  9
$TREEDEPTH
 70
  3020
  9
$PICKSTYLE
 70
     1
  9
$CMLSTYLE
  2
STANDARD
  9
$CMLJUST
 70
     0
  9
$CMLSCALE
 40
1.0
  9
$PROXYGRAPHICS
 70
     1
  9
$MEASUREMENT
 70
     0
  0
ENDSEC
  0
SECTION
  2
CLASSES
  0
CLASS
  1
ACDBDICTIONARYWDFLT
  2
AcDbDictionaryWithDefault
  3
AutoCAD 2000
 90
        0
280
     0
281
     0
  0
CLASS
  1
ACDBPLACEHOLDER
  2
AcDbPlaceHolder
  3
AutoCAD 2000
 90
        0
280
     0
281
     0
  0
CLASS
  1
LAYOUT
  2
AcDbLayout
  3
AutoCAD 2000
 90
        0
280
     0
281
     0
  0
CLASS
  1
LONG_TRANSACTION
  2
AcDbLongTransaction
  3
AutoCAD 2000
 90
        0
280
     0
281
     0
  0
CLASS
  1
LWPOLYLINE
  2
AcDbPolyline
  3
"AutoCAD"
 90
        0
280
     0
281
     1
  0
CLASS
  1
HATCH
  2
AcDbHatch
  3
"ACAD_SEDONA"
 90
        0
280
     0
281
     1
  0
CLASS
  1
XRECORD
  2
AcDbXrecord
  3
"<Built In>"
 90
        0
280
     0
281
     0
  0
CLASS
  1
LONG_TRANSACTION
  2
AcDbLongTransaction
  3
AutoCAD 2000
 90
        0
280
     0
281
     0
  0
CLASS
  1
LWPOLYLINE
  2
AcDbPolyline
  3
"AutoCAD"
 90
        0
280
     0
281
     1
  0
CLASS
  1
HATCH
  2
AcDbHatch
  3
"ACAD_SEDONA"
 90
        0
280
     0
281
     1
  0
CLASS
  1
XRECORD
  2
AcDbXrecord
  3
"<Built In>"
 90
        0
280
     0
281
     0
  0
ENDSEC
  0
SECTION
  2
TABLES
  0
TABLE
  2
VPORT
  5
8
100
AcDbSymbolTable
 70
     2
  0
VPORT
  5
314
100
AcDbSymbolTableRecord
100
AcDbViewportTableRecord
  2
*ACTIVE
 70
     0
 10
0.0
 20
0.0
 11
1.0
 21
1.0
 12
11.53218
 22
-13.074931
 13
0.0
 23
0.0
 14
10.0
 24
10.0
 15
10.0
 25
10.0
 16
0.0
 26
0.0
 36
1.0
 17
0.0
 27
0.0
 37
0.0
 40
152.922937
 41
1.710425
 42
50.0
 43
0.0
 44
0.0
 50
0.0
 51
0.0
 71
     0
 72
   100
 73
     1
 74
     1
 75
     0
 76
     0
 77
     0
 78
     0
  0
ENDTAB
  0
TABLE
  2
LTYPE
  5
5
100
AcDbSymbolTable
 70
     5
  0
LTYPE
  5
12
100
AcDbSymbolTableRecord
100
AcDbLinetypeTableRecord
  2
BYBLOCK
 70
     0
  3

 72
    65
 73
     0
 40
0.0
  0
LTYPE
  5
13
100
AcDbSymbolTableRecord
100
AcDbLinetypeTableRecord
  2
BYLAYER
 70
     0
  3

 72
    65
 73
     0
 40
0.0
  0
LTYPE
  5
14
100
AcDbSymbolTableRecord
100
AcDbLinetypeTableRecord
  2
CONTINUOUS
 70
     0
  3
Solid line
 72
    65
 73
     0
 40
0.0
  0
LTYPE
  5
1F
100
AcDbSymbolTableRecord
100
AcDbLinetypeTableRecord
  2
DASHED
 70
     0
  3
__ __ __ __ __ __ __ __ __ __ __ __ __ __ __
 72
    65
 73
     2
 40
3.5
 49
2.0
 74
     0
 49
-1.5
 74
     0
  0
LTYPE
  5
20
100
AcDbSymbolTableRecord
100
AcDbLinetypeTableRecord
  2
CENTER
 70
     0
  3
____ _ ____ _ ____ _ ____ _ ____ _ ____ _ ____
 72
    65
 73
     4
 40
17.5
 49
13.0
 74
     0
 49
-1.5
 74
     0
 49
1.5
 74
     0
 49
-1.5
 74
     0
  0
LTYPE
  5
21
100
AcDbSymbolTableRecord
100
AcDbLinetypeTableRecord
  2
PHANTOM
 70
     0
  3
_____ _ _ _____ _ _ _____ _ _ _____ _ _ ____  
 72
    65
 73
     6
 40
15.5
 49
8.0
 74
     0
 49
-1.5
 74
     0
 49
1.5
 74
     0
 49
-1.5
 74
     0
 49
1.5
 74
     0
 49
-1.5
 74
     0
  0
LTYPE
  5
22
100
AcDbSymbolTableRecord
100
AcDbLinetypeTableRecord
  2
DOT
 70
     0
  3
. . . . . . . . . . . . . . . . . . . . . . . .
 72
    65
 73
     2
 40
0.25
 49
0.0
 74
     0
 49
-0.25
 74
     0
  0
ENDTAB
  0
TABLE
  2
LAYER
  5
2
100
AcDbSymbolTable
 70
     3
  0
LAYER
  5
E
100
AcDbSymbolTableRecord
100
AcDbLayerTableRecord
  2
0
 70
     0
 62
     7
  6
CONTINUOUS
  0
LAYER
  5
176
100
AcDbSymbolTableRecord
100
AcDbLayerTableRecord
  2
寸法
 70
     0
 62
     1
  6
CONTINUOUS
  0
LAYER
  5
180
102
{ACAD_XDICTIONARY
360
2CB
102
}
100
AcDbSymbolTableRecord
100
AcDbLayerTableRecord
  2
DEFPOINTS
 70
     0
 62
     7
  6
CONTINUOUS
  0
ENDTAB
  0
TABLE
  2
STYLE
  5
3
100
AcDbSymbolTable
 70
     1
  0
STYLE
  5
F
100
AcDbSymbolTableRecord
100
AcDbTextStyleTableRecord
  2
STANDARD
 70
     0
 40
0.0
 41
1.0
 50
0.0
 71
     0
 42
0.2
  3
txt
  4
BIGFONT
  0
ENDTAB
  0
TABLE
  2
VIEW
  5
6
100
AcDbSymbolTable
 70
     0
  0
ENDTAB
  0
TABLE
  2
UCS
  5
7
100
AcDbSymbolTable
 70
     0
  0
ENDTAB
  0
TABLE
  2
APPID
  5
9
100
AcDbSymbolTable
 70
     1
  0
APPID
  5
10
100
AcDbSymbolTableRecord
100
AcDbRegAppTableRecord
  2
ACAD
 70
     0
  0
ENDTAB
  0
TABLE
  2
DIMSTYLE
  5
A
100
AcDbSymbolTable
 70
     1
  0
DIMSTYLE
105
168
102
{ACAD_XDICTIONARY
360
2F2
102
}
102
{ACAD_REACTORS
330
19A
330
1B9
330
1C6
330
1D3
330
1E2
330
1EF
330
1FC
330
209
330
216
330
22C
330
25B
102
}
100
AcDbSymbolTableRecord
100
AcDbDimStyleTableRecord
  2
STANDARD
 70
     0
  3

  4

  5
OPEN30
  6

  7

 40
1.0
 41
2.0
 42
1.0
 43
10.0
 44
1.0
 45
0.0
 46
0.0
 47
0.0
 48
0.0
140
3.0
141
2.0
142
0.0
143
25.4
144
1.0
145
0.0
146
1.0
147
1.0
 71
     0
 72
     0
 73
     0
 74
     0
 75
     0
 76
     0
 77
     1
 78
     8
170
     0
171
     2
172
     1
173
     0
174
     0
175
     0
176
     1
177
     1
178
     1
270
     2
271
     2
272
     2
273
     2
274
     2
340
F
275
     0
280
     0
281
     0
282
     0
283
     1
284
     0
285
     0
286
     0
287
     3
288
     0
  0
ENDTAB
  0
TABLE
  2
BLOCK_RECORD
  5
1
100
AcDbSymbolTable
 70
    12
  0
BLOCK_RECORD
  5
18
102
{ACAD_XDICTIONARY
360
2AB
102
}
100
AcDbSymbolTableRecord
100
AcDbBlockTableRecord
  2
*MODEL_SPACE
  0
BLOCK_RECORD
  5
15
102
{ACAD_XDICTIONARY
360
2A9
102
}
100
AcDbSymbolTableRecord
100
AcDbBlockTableRecord
  2
*PAPER_SPACE
  0
BLOCK_RECORD
  5
177
102
{ACAD_XDICTIONARY
360
2C9
102
}
100
AcDbSymbolTableRecord
100
AcDbBlockTableRecord
  2
_OPEN30
  0
BLOCK_RECORD
  5
19B
100
AcDbSymbolTableRecord
100
AcDbBlockTableRecord
  2
*D1
  0
BLOCK_RECORD
  5
1BA
100
AcDbSymbolTableRecord
100
AcDbBlockTableRecord
  2
*D2
  0
BLOCK_RECORD
  5
1C7
100
AcDbSymbolTableRecord
100
AcDbBlockTableRecord
  2
*D3
  0
BLOCK_RECORD
  5
1D4
100
AcDbSymbolTableRecord
100
AcDbBlockTableRecord
  2
*D4
  0
BLOCK_RECORD
  5
1E3
100
AcDbSymbolTableRecord
100
AcDbBlockTableRecord
  2
*D5
  0
BLOCK_RECORD
  5
1F0
100
AcDbSymbolTableRecord
100
AcDbBlockTableRecord
  2
*D6
  0
BLOCK_RECORD
  5
1FD
100
AcDbSymbolTableRecord
100
AcDbBlockTableRecord
  2
*D7
  0
BLOCK_RECORD
  5
20A
100
AcDbSymbolTableRecord
100
AcDbBlockTableRecord
  2
*D8
  0
BLOCK_RECORD
  5
217
100
AcDbSymbolTableRecord
100
AcDbBlockTableRecord
  2
*D9
  0
BLOCK_RECORD
  5
22D
100
AcDbSymbolTableRecord
100
AcDbBlockTableRecord
  2
*D10
  0
BLOCK_RECORD
  5
25C
100
AcDbSymbolTableRecord
100
AcDbBlockTableRecord
  2
*D11
  0
ENDTAB
  0
ENDSEC
  0
SECTION
  2
BLOCKS
  0
BLOCK
  5
19
100
AcDbEntity
  8
0
100
AcDbBlockBegin
  2
*MODEL_SPACE
 70
     0
 10
0.0
 20
0.0
 30
0.0
  3
*MODEL_SPACE
  1

  0
ENDBLK
  5
1A
100
AcDbEntity
  8
0
100
AcDbBlockEnd
  0
BLOCK
  5
16
100
AcDbEntity
 67
     1
  8
0
100
AcDbBlockBegin
  2
*PAPER_SPACE
 70
     0
 10
0.0
 20
0.0
 30
0.0
  3
*PAPER_SPACE
  1

  0
ENDBLK
  5
17
100
AcDbEntity
 67
     1
  8
0
100
AcDbBlockEnd
  0
BLOCK
  5
17B
100
AcDbEntity
  8
0
100
AcDbBlockBegin
  2
_OPEN30
 70
     0
 10
0.0
 20
0.0
 30
0.0
  3
_OPEN30
  1

  0
LINE
  5
178
100
AcDbEntity
  8
0
  6
BYBLOCK
 62
     0
100
AcDbLine
 10
-1.0
 20
0.267949
 30
0.0
 11
0.0
 21
0.0
 31
0.0
1001
ACAD
1000
RTLwPs
1070
   158
  0
LINE
  5
179
100
AcDbEntity
  8
0
  6
BYBLOCK
 62
     0
100
AcDbLine
 10
0.0
 20
0.0
 30
0.0
 11
-1.0
 21
-0.267949
 31
0.0
1001
ACAD
1000
RTLwPs
1070
   158
  0
LINE
  5
17A
100
AcDbEntity
  8
0
  6
BYBLOCK
 62
     0
100
AcDbLine
 10
0.0
 20
0.0
 30
0.0
 11
-1.0
 21
0.0
 31
0.0
1001
ACAD
1000
RTLwPs
1070
   158
  0
ENDBLK
  5
17C
100
AcDbEntity
  8
0
100
AcDbBlockEnd
  0
BLOCK
  5
1A5
100
AcDbEntity
  8
0
100
AcDbBlockBegin
  2
*D1
 70
     1
 10
0.0
 20
0.0
 30
0.0
  3
*D1
  1

  0
LINE
  5
1B0
100
AcDbEntity
  8
寸法
  6
CONTINUOUS
 62
     1
100
AcDbLine
 10
106.403846
 20
-37.126038
 30
0.0
 11
111.0
 21
-37.126038
 31
0.0
1001
ACAD
1000
RTLwPs
1070
   158
  0
LINE
  5
1B1
100
AcDbEntity
  8
寸法
  6
CONTINUOUS
 62
     1
100
AcDbLine
 10
105.403827
 20
-43.126039
 30
0.0
 11
111.0
 21
-43.126039
 31
0.0
1001
ACAD
1000
RTLwPs
1070
   158
  0
LINE
  5
1B2
100
AcDbEntity
  8
寸法
  6
CONTINUOUS
 62
     1
100
AcDbLine
 10
110.0
 20
-39.126038
 30
0.0
 11
110.0
 21
-41.126039
 31
0.0
1001
ACAD
1000
RTLwPs
1070
   158
  0
INSERT
  5
1B3
100
AcDbEntity
  8
寸法
  6
CONTINUOUS
 62
     1
100
AcDbBlockReference
  2
_OPEN30
 10
110.0
 20
-37.126038
 30
0.0
 41
2.0
 42
2.0
 43
2.0
 50
90.0
1001
ACAD
1000
RTLwPs
1070
   158
  0
INSERT
  5
1B4
100
AcDbEntity
  8
寸法
  6
CONTINUOUS
 62
     1
100
AcDbBlockReference
  2
_OPEN30
 10
110.0
 20
-43.126039
 30
0.0
 41
2.0
 42
2.0
 43
2.0
 50
270.0
1001
ACAD
1000
RTLwPs
1070
   158
  0
MTEXT
  5
1B5
100
AcDbEntity
  8
寸法
  6
CONTINUOUS
 62
     1
100
AcDbMText
 10
107.5
 20
-40.126039
 30
0.0
 40
3.0
 41
0.0
 71
     5
 72
     1
  1
\A1;6
 11
0.0
 21
1.0
 31
0.0
1001
ACAD
1000
MTEXTBEGIN
1070
    73
1070
     1
1070
    44
1040
1.0
1070
    74
1070
     0
1000
MTEXTEND
1000
MTEXTBEGIN
1070
    73
1070
     1
1070
    44
1040
1.0
1070
    74
1070
     0
1000
MTEXTEND
  0
POINT
  5
1B6
100
AcDbEntity
  8
DEFPOINTS
  6
CONTINUOUS
 62
     0
100
AcDbPoint
 10
105.403846
 20
-37.126038
 30
0.0
  0
POINT
  5
1B7
100
AcDbEntity
  8
DEFPOINTS
  6
CONTINUOUS
 62
     0
100
AcDbPoint
 10
104.403827
 20
-43.126039
 30
0.0
  0
POINT
  5
1B8
100
AcDbEntity
  8
DEFPOINTS
  6
CONTINUOUS
 62
     0
100
AcDbPoint
 10
110.0
 20
-43.126039
 30
0.0
  0
ENDBLK
  5
1A6
100
AcDbEntity
  8
0
100
AcDbBlockEnd
  0
BLOCK
  5
1C4
100
AcDbEntity
  8
0
100
AcDbBlockBegin
  2
*D2
 70
     1
 10
0.0
 20
0.0
 30
0.0
  3
*D2
  1

  0
LINE
  5
1BB
100
AcDbEntity
  8
寸法
  6
CONTINUOUS
 62
     1
100
AcDbLine
 10
48.0
 20
-27.626039
 30
0.0
 11
71.0
 21
-27.626039
 31
0.0
1001
ACAD
1000
RTLwPs
1070
   158
  0
LINE
  5
1BC
100
AcDbEntity
  8
寸法
  6
CONTINUOUS
 62
     1
100
AcDbLine
 10
48.0
 20
-43.126039
 30
0.0
 11
71.0
 21
-43.126039
 31
0.0
1001
ACAD
1000
RTLwPs
1070
   158
  0
LINE
  5
1BD
100
AcDbEntity
  8
寸法
  6
CONTINUOUS
 62
     1
100
AcDbLine
 10
70.0
 20
-29.626039
 30
0.0
 11
70.0
 21
-41.126039
 31
0.0
1001
ACAD
1000
RTLwPs
1070
   158
  0
INSERT
  5
1BE
100
AcDbEntity
  8
寸法
  6
CONTINUOUS
 62
     1
100
AcDbBlockReference
  2
_OPEN30
 10
70.0
 20
-27.626039
 30
0.0
 41
2.0
 42
2.0
 43
2.0
 50
90.0
1001
ACAD
1000
RTLwPs
1070
   158
  0
INSERT
  5
1BF
100
AcDbEntity
  8
寸法
  6
CONTINUOUS
 62
     1
100
AcDbBlockReference
  2
_OPEN30
 10
70.0
 20
-43.126039
 30
0.0
 41
2.0
 42
2.0
 43
2.0
 50
270.0
1001
ACAD
1000
RTLwPs
1070
   158
  0
MTEXT
  5
1C0
100
AcDbEntity
  8
寸法
  6
CONTINUOUS
 62
     1
100
AcDbMText
 10
67.5
 20
-35.376039
 30
0.0
 40
3.0
 41
0.0
 71
     5
 72
     1
  1
\A1;15.5
 11
0.0
 21
1.0
 31
0.0
1001
ACAD
1000
MTEXTBEGIN
1070
    73
1070
     1
1070
    44
1040
1.0
1070
    74
1070
     0
1000
MTEXTEND
1000
MTEXTBEGIN
1070
    73
1070
     1
1070
    44
1040
1.0
1070
    74
1070
     0
1000
MTEXTEND
  0
POINT
  5
1C1
100
AcDbEntity
  8
DEFPOINTS
  6
CONTINUOUS
 62
     0
100
AcDbPoint
 10
47.0
 20
-27.626039
 30
0.0
  0
POINT
  5
1C2
100
AcDbEntity
  8
DEFPOINTS
  6
CONTINUOUS
 62
     0
100
AcDbPoint
 10
47.0
 20
-43.126039
 30
0.0
  0
POINT
  5
1C3
100
AcDbEntity
  8
DEFPOINTS
  6
CONTINUOUS
 62
     0
100
AcDbPoint
 10
70.0
 20
-43.126039
 30
0.0
  0
ENDBLK
  5
1C5
100
AcDbEntity
  8
0
100
AcDbBlockEnd
  0
BLOCK
  5
1D1
100
AcDbEntity
  8
0
100
AcDbBlockBegin
  2
*D3
 70
     1
 10
0.0
 20
0.0
 30
0.0
  3
*D3
  1

  0
LINE
  5
1C8
100
AcDbEntity
  8
寸法
  6
CONTINUOUS
 62
     1
100
AcDbLine
 10
-1.0
 20
-31.126039
 30
0.0
 11
-11.0
 21
-31.126039
 31
0.0
1001
ACAD
1000
RTLwPs
1070
   158
  0
LINE
  5
1C9
100
AcDbEntity
  8
寸法
  6
CONTINUOUS
 62
     1
100
AcDbLine
 10
0.313803
 20
-43.126039
 30
0.0
 11
-11.0
 21
-43.126039
 31
0.0
1001
ACAD
1000
RTLwPs
1070
   158
  0
LINE
  5
1CA
100
AcDbEntity
  8
寸法
  6
CONTINUOUS
 62
     1
100
AcDbLine
 10
-10.0
 20
-33.126039
 30
0.0
 11
-10.0
 21
-41.126039
 31
0.0
1001
ACAD
1000
RTLwPs
1070
   158
  0
INSERT
  5
1CB
100
AcDbEntity
  8
寸法
  6
CONTINUOUS
 62
     1
100
AcDbBlockReference
  2
_OPEN30
 10
-10.0
 20
-31.126039
 30
0.0
 41
2.0
 42
2.0
 43
2.0
 50
90.0
1001
ACAD
1000
RTLwPs
1070
   158
  0
INSERT
  5
1CC
100
AcDbEntity
  8
寸法
  6
CONTINUOUS
 62
     1
100
AcDbBlockReference
  2
_OPEN30
 10
-10.0
 20
-43.126039
 30
0.0
 41
2.0
 42
2.0
 43
2.0
 50
270.0
1001
ACAD
1000
RTLwPs
1070
   158
  0
MTEXT
  5
1CD
100
AcDbEntity
  8
寸法
  6
CONTINUOUS
 62
     1
100
AcDbMText
 10
-12.5
 20
-37.126039
 30
0.0
 40
3.0
 41
0.0
 71
     5
 72
     1
  1
\A1;12
 11
0.0
 21
1.0
 31
0.0
1001
ACAD
1000
MTEXTBEGIN
1070
    73
1070
     1
1070
    44
1040
1.0
1070
    74
1070
     0
1000
MTEXTEND
1000
MTEXTBEGIN
1070
    73
1070
     1
1070
    44
1040
1.0
1070
    74
1070
     0
1000
MTEXTEND
  0
POINT
  5
1CE
100
AcDbEntity
  8
DEFPOINTS
  6
CONTINUOUS
 62
     0
100
AcDbPoint
 10
0.0
 20
-31.126039
 30
0.0
  0
POINT
  5
1CF
100
AcDbEntity
  8
DEFPOINTS
  6
CONTINUOUS
 62
     0
100
AcDbPoint
 10
1.313803
 20
-43.126039
 30
0.0
  0
POINT
  5
1D0
100
AcDbEntity
  8
DEFPOINTS
  6
CONTINUOUS
 62
     0
100
AcDbPoint
 10
-10.0
 20
-43.126039
 30
0.0
  0
ENDBLK
  5
1D2
100
AcDbEntity
  8
0
100
AcDbBlockEnd
  0
BLOCK
  5
1E0
100
AcDbEntity
  8
0
100
AcDbBlockBegin
  2
*D4
 70
     1
 10
0.0
 20
0.0
 30
0.0
  3
*D4
  1

  0
LINE
  5
1D5
100
AcDbEntity
  8
寸法
  6
CONTINUOUS
 62
     1
100
AcDbLine
 10
36.0
 20
-38.596879
 30
0.0
 11
36.0
 21
-51.0
 31
0.0
1001
ACAD
1000
RTLwPs
1070
   158
  0
LINE
  5
1D6
100
AcDbEntity
  8
寸法
  6
CONTINUOUS
 62
     1
100
AcDbLine
 10
34.0
 20
-38.863542
 30
0.0
 11
34.0
 21
-51.0
 31
0.0
1001
ACAD
1000
RTLwPs
1070
   158
  0
LINE
  5
1D7
100
AcDbEntity
  8
寸法
  6
CONTINUOUS
 62
     1
100
AcDbLine
 10
38.0
 20
-50.0
 30
0.0
 11
40.0
 21
-50.0
 31
0.0
1001
ACAD
1000
RTLwPs
1070
   158
  0
LINE
  5
1D8
100
AcDbEntity
  8
寸法
  6
CONTINUOUS
 62
     1
100
AcDbLine
 10
32.0
 20
-50.0
 30
0.0
 11
26.0
 21
-50.0
 31
0.0
1001
ACAD
1000
RTLwPs
1070
   158
  0
LINE
  5
1D9
100
AcDbEntity
  8
寸法
  6
CONTINUOUS
 62
     1
100
AcDbLine
 10
36.0
 20
-50.0
 30
0.0
 11
34.0
 21
-50.0
 31
0.0
1001
ACAD
1000
RTLwPs
1070
   158
  0
INSERT
  5
1DA
100
AcDbEntity
  8
寸法
  6
CONTINUOUS
 62
     1
100
AcDbBlockReference
  2
_OPEN30
 10
36.0
 20
-50.0
 30
0.0
 41
2.0
 42
2.0
 43
2.0
 50
180.0
1001
ACAD
1000
RTLwPs
1070
   158
  0
INSERT
  5
1DB
100
AcDbEntity
  8
寸法
  6
CONTINUOUS
 62
     1
100
AcDbBlockReference
  2
_OPEN30
 10
34.0
 20
-50.0
 30
0.0
 41
2.0
 42
2.0
 43
2.0
1001
ACAD
1000
RTLwPs
1070
   158
  0
MTEXT
  5
1DC
100
AcDbEntity
  8
寸法
  6
CONTINUOUS
 62
     1
100
AcDbMText
 10
28.0
 20
-47.5
 30
0.0
 40
3.0
 41
0.0
 71
     5
 72
     1
  1
\A1;2
1001
ACAD
1000
MTEXTBEGIN
1070
    73
1070
     1
1070
    44
1040
1.0
1070
    74
1070
     0
1000
MTEXTEND
1000
MTEXTBEGIN
1070
    73
1070
     1
1070
    44
1040
1.0
1070
    74
1070
     0
1000
MTEXTEND
  0
POINT
  5
1DD
100
AcDbEntity
  8
DEFPOINTS
  6
CONTINUOUS
 62
     0
100
AcDbPoint
 10
36.0
 20
-37.596879
 30
0.0
  0
POINT
  5
1DE
100
AcDbEntity
  8
DEFPOINTS
  6
CONTINUOUS
 62
     0
100
AcDbPoint
 10
34.0
 20
-37.863542
 30
0.0
  0
POINT
  5
1DF
100
AcDbEntity
  8
DEFPOINTS
  6
CONTINUOUS
 62
     0
100
AcDbPoint
 10
34.0
 20
-50.0
 30
0.0
  0
ENDBLK
  5
1E1
100
AcDbEntity
  8
0
100
AcDbBlockEnd
  0
BLOCK
  5
1ED
100
AcDbEntity
  8
0
100
AcDbBlockBegin
  2
*D5
 70
     1
 10
0.0
 20
0.0
 30
0.0
  3
*D5
  1

  0
LINE
  5
1E4
100
AcDbEntity
  8
寸法
  6
CONTINUOUS
 62
     1
100
AcDbLine
 10
55.0
 20
-32.626039
 30
0.0
 11
55.0
 21
-19.0
 31
0.0
1001
ACAD
1000
RTLwPs
1070
   158
  0
LINE
  5
1E5
100
AcDbEntity
  8
寸法
  6
CONTINUOUS
 62
     1
100
AcDbLine
 10
35.0
 20
-22.214784
 30
0.0
 11
35.0
 21
-19.0
 31
0.0
1001
ACAD
1000
RTLwPs
1070
   158
  0
LINE
  5
1E6
100
AcDbEntity
  8
寸法
  6
CONTINUOUS
 62
     1
100
AcDbLine
 10
53.0
 20
-20.0
 30
0.0
 11
37.0
 21
-20.0
 31
0.0
1001
ACAD
1000
RTLwPs
1070
   158
  0
INSERT
  5
1E7
100
AcDbEntity
  8
寸法
  6
CONTINUOUS
 62
     1
100
AcDbBlockReference
  2
_OPEN30
 10
55.0
 20
-20.0
 30
0.0
 41
2.0
 42
2.0
 43
2.0
1001
ACAD
1000
RTLwPs
1070
   158
  0
INSERT
  5
1E8
100
AcDbEntity
  8
寸法
  6
CONTINUOUS
 62
     1
100
AcDbBlockReference
  2
_OPEN30
 10
35.0
 20
-20.0
 30
0.0
 41
2.0
 42
2.0
 43
2.0
 50
180.0
1001
ACAD
1000
RTLwPs
1070
   158
  0
MTEXT
  5
1E9
100
AcDbEntity
  8
寸法
  6
CONTINUOUS
 62
     1
100
AcDbMText
 10
45.0
 20
-17.5
 30
0.0
 40
3.0
 41
0.0
 71
     5
 72
     1
  1
\A1;20
1001
ACAD
1000
MTEXTBEGIN
1070
    73
1070
     1
1070
    44
1040
1.0
1070
    74
1070
     0
1000
MTEXTEND
1000
MTEXTBEGIN
1070
    73
1070
     1
1070
    44
1040
1.0
1070
    74
1070
     0
1000
MTEXTEND
  0
POINT
  5
1EA
100
AcDbEntity
  8
DEFPOINTS
  6
CONTINUOUS
 62
     0
100
AcDbPoint
 10
55.0
 20
-33.626039
 30
0.0
  0
POINT
  5
1EB
100
AcDbEntity
  8
DEFPOINTS
  6
CONTINUOUS
 62
     0
100
AcDbPoint
 10
35.0
 20
-23.214784
 30
0.0
  0
POINT
  5
1EC
100
AcDbEntity
  8
DEFPOINTS
  6
CONTINUOUS
 62
     0
100
AcDbPoint
 10
35.0
 20
-20.0
 30
0.0
  0
ENDBLK
  5
1EE
100
AcDbEntity
  8
0
100
AcDbBlockEnd
  0
BLOCK
  5
1FA
100
AcDbEntity
  8
0
100
AcDbBlockBegin
  2
*D6
 70
     1
 10
0.0
 20
0.0
 30
0.0
  3
*D6
  1

  0
LINE
  5
1F1
100
AcDbEntity
  8
寸法
  6
CONTINUOUS
 62
     1
100
AcDbLine
 10
48.0
 20
27.255847
 30
0.0
 11
71.0
 21
27.255847
 31
0.0
1001
ACAD
1000
RTLwPs
1070
   158
  0
LINE
  5
1F2
100
AcDbEntity
  8
寸法
  6
CONTINUOUS
 62
     1
100
AcDbLine
 10
48.0
 20
11.255847
 30
0.0
 11
71.0
 21
11.255847
 31
0.0
1001
ACAD
1000
RTLwPs
1070
   158
  0
LINE
  5
1F3
100
AcDbEntity
  8
寸法
  6
CONTINUOUS
 62
     1
100
AcDbLine
 10
70.0
 20
25.255847
 30
0.0
 11
70.0
 21
13.255847
 31
0.0
1001
ACAD
1000
RTLwPs
1070
   158
  0
INSERT
  5
1F4
100
AcDbEntity
  8
寸法
  6
CONTINUOUS
 62
     1
100
AcDbBlockReference
  2
_OPEN30
 10
70.0
 20
27.255847
 30
0.0
 41
2.0
 42
2.0
 43
2.0
 50
90.0
1001
ACAD
1000
RTLwPs
1070
   158
  0
INSERT
  5
1F5
100
AcDbEntity
  8
寸法
  6
CONTINUOUS
 62
     1
100
AcDbBlockReference
  2
_OPEN30
 10
70.0
 20
11.255847
 30
0.0
 41
2.0
 42
2.0
 43
2.0
 50
270.0
1001
ACAD
1000
RTLwPs
1070
   158
  0
MTEXT
  5
1F6
100
AcDbEntity
  8
寸法
  6
CONTINUOUS
 62
     1
100
AcDbMText
 10
67.5
 20
19.255847
 30
0.0
 40
3.0
 41
0.0
 71
     5
 72
     1
  1
\A1;16
 11
0.0
 21
1.0
 31
0.0
1001
ACAD
1000
MTEXTBEGIN
1070
    73
1070
     1
1070
    44
1040
1.0
1070
    74
1070
     0
1000
MTEXTEND
1000
MTEXTBEGIN
1070
    73
1070
     1
1070
    44
1040
1.0
1070
    74
1070
     0
1000
MTEXTEND
  0
POINT
  5
1F7
100
AcDbEntity
  8
DEFPOINTS
  6
CONTINUOUS
 62
     0
100
AcDbPoint
 10
47.0
 20
27.255847
 30
0.0
  0
POINT
  5
1F8
100
AcDbEntity
  8
DEFPOINTS
  6
CONTINUOUS
 62
     0
100
AcDbPoint
 10
47.0
 20
11.255847
 30
0.0
  0
POINT
  5
1F9
100
AcDbEntity
  8
DEFPOINTS
  6
CONTINUOUS
 62
     0
100
AcDbPoint
 10
70.0
 20
11.255847
 30
0.0
  0
ENDBLK
  5
1FB
100
AcDbEntity
  8
0
100
AcDbBlockEnd
  0
BLOCK
  5
207
100
AcDbEntity
  8
0
100
AcDbBlockBegin
  2
*D7
 70
     1
 10
0.0
 20
0.0
 30
0.0
  3
*D7
  1

  0
LINE
  5
1FE
100
AcDbEntity
  8
寸法
  6
CONTINUOUS
 62
     1
100
AcDbLine
 10
-1.000001
 20
27.255847
 30
0.0
 11
-11.0
 21
27.255847
 31
0.0
1001
ACAD
1000
RTLwPs
1070
   158
  0
LINE
  5
1FF
100
AcDbEntity
  8
寸法
  6
CONTINUOUS
 62
     1
100
AcDbLine
 10
-1.0
 20
7.255847
 30
0.0
 11
-11.0
 21
7.255847
 31
0.0
1001
ACAD
1000
RTLwPs
1070
   158
  0
LINE
  5
200
100
AcDbEntity
  8
寸法
  6
CONTINUOUS
 62
     1
100
AcDbLine
 10
-10.0
 20
25.255847
 30
0.0
 11
-10.0
 21
9.255847
 31
0.0
1001
ACAD
1000
RTLwPs
1070
   158
  0
INSERT
  5
201
100
AcDbEntity
  8
寸法
  6
CONTINUOUS
 62
     1
100
AcDbBlockReference
  2
_OPEN30
 10
-10.0
 20
27.255847
 30
0.0
 41
2.0
 42
2.0
 43
2.0
 50
90.0
1001
ACAD
1000
RTLwPs
1070
   158
  0
INSERT
  5
202
100
AcDbEntity
  8
寸法
  6
CONTINUOUS
 62
     1
100
AcDbBlockReference
  2
_OPEN30
 10
-10.0
 20
7.255847
 30
0.0
 41
2.0
 42
2.0
 43
2.0
 50
270.0
1001
ACAD
1000
RTLwPs
1070
   158
  0
MTEXT
  5
203
100
AcDbEntity
  8
寸法
  6
CONTINUOUS
 62
     1
100
AcDbMText
 10
-12.5
 20
17.255847
 30
0.0
 40
3.0
 41
0.0
 71
     5
 72
     1
  1
\A1;20
 11
0.0
 21
1.0
 31
0.0
1001
ACAD
1000
MTEXTBEGIN
1070
    73
1070
     1
1070
    44
1040
1.0
1070
    74
1070
     0
1000
MTEXTEND
1000
MTEXTBEGIN
1070
    73
1070
     1
1070
    44
1040
1.0
1070
    74
1070
     0
1000
MTEXTEND
  0
POINT
  5
204
100
AcDbEntity
  8
DEFPOINTS
  6
CONTINUOUS
 62
     0
100
AcDbPoint
 10
-0.000001
 20
27.255847
 30
0.0
  0
POINT
  5
205
100
AcDbEntity
  8
DEFPOINTS
  6
CONTINUOUS
 62
     0
100
AcDbPoint
 10
0.0
 20
7.255847
 30
0.0
  0
POINT
  5
206
100
AcDbEntity
  8
DEFPOINTS
  6
CONTINUOUS
 62
     0
100
AcDbPoint
 10
-10.0
 20
7.255847
 30
0.0
  0
ENDBLK
  5
208
100
AcDbEntity
  8
0
100
AcDbBlockEnd
  0
BLOCK
  5
214
100
AcDbEntity
  8
0
100
AcDbBlockBegin
  2
*D8
 70
     1
 10
0.0
 20
0.0
 30
0.0
  3
*D8
  1

  0
LINE
  5
20B
100
AcDbEntity
  8
寸法
  6
CONTINUOUS
 62
     1
100
AcDbLine
 10
55.0
 20
16.255847
 30
0.0
 11
55.0
 21
-11.0
 31
0.0
1001
ACAD
1000
RTLwPs
1070
   158
  0
LINE
  5
20C
100
AcDbEntity
  8
寸法
  6
CONTINUOUS
 62
     1
100
AcDbLine
 10
0.0
 20
6.255847
 30
0.0
 11
0.0
 21
-11.0
 31
0.0
1001
ACAD
1000
RTLwPs
1070
   158
  0
LINE
  5
20D
100
AcDbEntity
  8
寸法
  6
CONTINUOUS
 62
     1
100
AcDbLine
 10
53.0
 20
-10.0
 30
0.0
 11
2.0
 21
-10.0
 31
0.0
1001
ACAD
1000
RTLwPs
1070
   158
  0
INSERT
  5
20E
100
AcDbEntity
  8
寸法
  6
CONTINUOUS
 62
     1
100
AcDbBlockReference
  2
_OPEN30
 10
55.0
 20
-10.0
 30
0.0
 41
2.0
 42
2.0
 43
2.0
1001
ACAD
1000
RTLwPs
1070
   158
  0
INSERT
  5
20F
100
AcDbEntity
  8
寸法
  6
CONTINUOUS
 62
     1
100
AcDbBlockReference
  2
_OPEN30
 10
0.0
 20
-10.0
 30
0.0
 41
2.0
 42
2.0
 43
2.0
 50
180.0
1001
ACAD
1000
RTLwPs
1070
   158
  0
MTEXT
  5
210
100
AcDbEntity
  8
寸法
  6
CONTINUOUS
 62
     1
100
AcDbMText
 10
27.5
 20
-7.5
 30
0.0
 40
3.0
 41
0.0
 71
     5
 72
     1
  1
\A1;55
1001
ACAD
1000
MTEXTBEGIN
1070
    73
1070
     1
1070
    44
1040
1.0
1070
    74
1070
     0
1000
MTEXTEND
1000
MTEXTBEGIN
1070
    73
1070
     1
1070
    44
1040
1.0
1070
    74
1070
     0
1000
MTEXTEND
  0
POINT
  5
211
100
AcDbEntity
  8
DEFPOINTS
  6
CONTINUOUS
 62
     0
100
AcDbPoint
 10
55.0
 20
17.255847
 30
0.0
  0
POINT
  5
212
100
AcDbEntity
  8
DEFPOINTS
  6
CONTINUOUS
 62
     0
100
AcDbPoint
 10
0.0
 20
7.255847
 30
0.0
  0
POINT
  5
213
100
AcDbEntity
  8
DEFPOINTS
  6
CONTINUOUS
 62
     0
100
AcDbPoint
 10
0.0
 20
-10.0
 30
0.0
  0
ENDBLK
  5
215
100
AcDbEntity
  8
0
100
AcDbBlockEnd
  0
BLOCK
  5
221
100
AcDbEntity
  8
0
100
AcDbBlockBegin
  2
*D9
 70
     1
 10
0.0
 20
0.0
 30
0.0
  3
*D9
  1

  0
LINE
  5
2F6
100
AcDbEntity
  8
寸法
  6
CONTINUOUS
 62
     1
100
AcDbLine
 10
55.0
 20
16.255847
 30
0.0
 11
55.0
 21
-1.0
 31
0.0
  0
LINE
  5
2F7
100
AcDbEntity
  8
寸法
  6
CONTINUOUS
 62
     1
100
AcDbLine
 10
47.0
 20
10.255847
 30
0.0
 11
47.0
 21
-1.0
 31
0.0
  0
LINE
  5
2F8
100
AcDbEntity
  8
寸法
  6
CONTINUOUS
 62
     1
100
AcDbLine
 10
53.0
 20
0.0
 30
0.0
 11
49.0
 21
0.0
 31
0.0
  0
INSERT
  5
2F9
100
AcDbEntity
  8
寸法
  6
CONTINUOUS
 62
     1
100
AcDbBlockReference
  2
_OPEN30
 10
55.0
 20
0.0
 30
0.0
 41
2.0
 42
2.0
 43
2.0
  0
INSERT
  5
2FA
100
AcDbEntity
  8
寸法
  6
CONTINUOUS
 62
     1
100
AcDbBlockReference
  2
_OPEN30
 10
47.0
 20
0.0
 30
0.0
 41
2.0
 42
2.0
 43
2.0
 50
180.0
  0
MTEXT
  5
2FB
100
AcDbEntity
  8
寸法
  6
CONTINUOUS
 62
     1
100
AcDbMText
 10
51.0
 20
2.5
 30
0.0
 40
3.0
 41
0.0
 71
     5
 72
     1
  1
\A1;8
  0
POINT
  5
2FC
100
AcDbEntity
  8
DEFPOINTS
  6
CONTINUOUS
 62
     0
100
AcDbPoint
 10
55.0
 20
17.255847
 30
0.0
  0
POINT
  5
2FD
100
AcDbEntity
  8
DEFPOINTS
  6
CONTINUOUS
 62
     0
100
AcDbPoint
 10
47.0
 20
11.255847
 30
0.0
  0
POINT
  5
2FE
100
AcDbEntity
  8
DEFPOINTS
  6
CONTINUOUS
 62
     0
100
AcDbPoint
 10
47.0
 20
0.0
 30
0.0
  0
ENDBLK
  5
222
100
AcDbEntity
  8
0
100
AcDbBlockEnd
  0
BLOCK
  5
23A
100
AcDbEntity
  8
0
100
AcDbBlockBegin
  2
*D10
 70
     1
 10
0.0
 20
0.0
 30
0.0
  3
*D10
  1

  0
LINE
  5
2FF
100
AcDbEntity
  8
寸法
  6
CONTINUOUS
 62
     1
100
AcDbLine
 10
-1.0
 20
7.255847
 30
0.0
 11
-6.26085
 21
7.255847
 31
0.0
  0
ARC
  5
300
100
AcDbEntity
  8
寸法
  6
CONTINUOUS
 62
     1
100
AcDbCircle
 10
0.0
 20
7.255847
 30
0.0
 40
5.26085
100
AcDbArc
 50
111.915301
 51
158.084702
  0
INSERT
  5
301
100
AcDbEntity
  8
寸法
  6
CONTINUOUS
 62
     1
100
AcDbBlockReference
  2
_OPEN30
 10
0.0
 20
12.516697
 30
0.0
 41
2.0
 42
2.0
 43
2.0
 50
10.957652
  0
INSERT
  5
302
100
AcDbEntity
  8
寸法
  6
CONTINUOUS
 62
     1
100
AcDbBlockReference
  2
_OPEN30
 10
-5.26085
 20
7.255847
 30
0.0
 41
2.0
 42
2.0
 43
2.0
 50
259.042351
  0
MTEXT
  5
303
100
AcDbEntity
  8
寸法
  6
CONTINUOUS
 62
     1
100
AcDbMText
 10
-3.78174
 20
14.032958
 30
0.0
 40
3.0
 41
0.0
 71
     5
 72
     1
  1
\A1;90°
 11
0.873243
 21
0.487284
 31
0.0
  0
POINT
  5
304
100
AcDbEntity
  8
DEFPOINTS
  6
CONTINUOUS
 62
     0
100
AcDbPoint
 10
-4.55603
 20
9.886272
 30
0.0
  0
POINT
  5
305
100
AcDbEntity
  8
DEFPOINTS
  6
CONTINUOUS
 62
     0
100
AcDbPoint
 10
0.0
 20
7.255847
 30
0.0
  0
POINT
  5
306
100
AcDbEntity
  8
DEFPOINTS
  6
CONTINUOUS
 62
     0
100
AcDbPoint
 10
-0.000001
 20
27.255832
 30
0.0
  0
POINT
  5
307
100
AcDbEntity
  8
DEFPOINTS
  6
CONTINUOUS
 62
     0
100
AcDbPoint
 10
0.0
 20
8.055847
 30
0.0
  0
POINT
  5
308
100
AcDbEntity
  8
DEFPOINTS
  6
CONTINUOUS
 62
     0
100
AcDbPoint
 10
0.8
 20
7.255847
 30
0.0
  0
ENDBLK
  5
23B
100
AcDbEntity
  8
0
100
AcDbBlockEnd
  0
BLOCK
  5
263
100
AcDbEntity
  8
0
100
AcDbBlockBegin
  2
*D11
 70
     1
 10
0.0
 20
0.0
 30
0.0
  3
*D11
  1

  0
LINE
  5
265
100
AcDbEntity
  8
寸法
  6
CONTINUOUS
 62
     1
100
AcDbLine
 10
-67.915
 20
15.812176
 30
0.0
 11
-57.516694
 21
20.72392
 31
0.0
1001
ACAD
1000
RTLwPs
1070
   158
  0
MTEXT
  5
266
100
AcDbEntity
  8
寸法
  6
CONTINUOUS
 62
     1
100
AcDbMText
 10
-64.687819
 20
20.101441
 30
0.0
 40
3.0
 41
0.0
 71
     5
 72
     1
  1
\A1;%%c50
 11
0.904201
 21
0.427108
 31
0.0
1001
ACAD
1000
MTEXTBEGIN
1070
    73
1070
     1
1070
    44
1040
1.0
1070
    74
1070
     0
1000
MTEXTEND
1000
MTEXTBEGIN
1070
    73
1070
     1
1070
    44
1040
1.0
1070
    74
1070
     0
1000
MTEXTEND
  0
LINE
  5
267
100
AcDbEntity
  8
寸法
  6
CONTINUOUS
 62
     1
100
AcDbLine
 10
-33.103281
 20
32.255842
 30
0.0
 11
-55.708293
 21
21.578137
 31
0.0
1001
ACAD
1000
RTLwPs
1070
   158
  0
INSERT
  5
268
100
AcDbEntity
  8
寸法
  6
CONTINUOUS
 62
     1
100
AcDbBlockReference
  2
_OPEN30
 10
-55.708293
 20
21.578137
 30
0.0
 41
2.0
 42
2.0
 43
2.0
 50
25.28418
1001
ACAD
1000
RTLwPs
1070
   158
  0
POINT
  5
269
100
AcDbEntity
  8
DEFPOINTS
  6
CONTINUOUS
 62
     0
100
AcDbPoint
 10
-55.708293
 20
21.578137
 30
0.0
  0
POINT
  5
26A
100
AcDbEntity
  8
DEFPOINTS
  6
CONTINUOUS
 62
     0
100
AcDbPoint
 10
-33.103281
 20
32.255842
 30
0.0
  0
ENDBLK
  5
264
100
AcDbEntity
  8
0
100
AcDbBlockEnd
  0
ENDSEC
  0
SECTION
  2
ENTITIES
  0
POINT
  5
24
100
AcDbEntity
  8
0
  6
CONTINUOUS
 62
     7
100
AcDbPoint
 10
-33.103281
 20
7.255847
 30
0.0
  0
POINT
  5
25
100
AcDbEntity
  8
0
  6
CONTINUOUS
 62
     7
100
AcDbPoint
 10
0.0
 20
-31.126039
 30
0.0
  0
POINT
  5
26
100
AcDbEntity
  8
0
  6
CONTINUOUS
 62
     7
100
AcDbPoint
 10
0.0
 20
7.255847
 30
0.0
  0
POINT
  5
27
100
AcDbEntity
  8
0
  6
CONTINUOUS
 62
     7
100
AcDbPoint
 10
89.403846
 20
-43.126039
 30
0.0
  0
LINE
  5
28
100
AcDbEntity
  8
0
  6
CONTINUOUS
 62
     7
100
AcDbLine
 10
-0.000001
 20
27.255832
 30
0.0
 11
0.0
 21
8.055847
 31
0.0
  0
LINE
  5
29
100
AcDbEntity
  8
0
  6
CONTINUOUS
 62
     7
100
AcDbLine
 10
47.0
 20
27.255847
 30
0.0
 11
47.0
 21
11.255847
 31
0.0
  0
LINE
  5
2A
100
AcDbEntity
  8
0
  6
CENTER
 62
     1
 48
0.5
100
AcDbLine
 10
44.757568
 20
-35.626039
 30
0.0
 11
56.581161
 21
-35.626039
 31
0.0
  0
LINE
  5
2B
100
AcDbEntity
  8
0
  6
CONTINUOUS
 62
     7
100
AcDbLine
 10
55.0
 20
-33.626039
 30
0.0
 11
55.0
 21
-37.626039
 31
0.0
  0
LINE
  5
2C
100
AcDbEntity
  8
0
  6
CONTINUOUS
 62
     7
100
AcDbLine
 10
50.0
 20
-31.626039
 30
0.0
 11
50.0
 21
-39.626039
 31
0.0
  0
LINE
  5
2D
100
AcDbEntity
  8
0
  6
CONTINUOUS
 62
     7
100
AcDbLine
 10
52.500004
 20
-40.126047
 30
0.0
 11
55.000004
 21
-37.626043
 31
0.0
  0
LINE
  5
2E
100
AcDbEntity
  8
0
  6
CONTINUOUS
 62
     7
100
AcDbLine
 10
52.5
 20
-31.126039
 30
0.0
 11
55.000004
 21
-33.626043
 31
0.0
  0
LINE
  5
2F
100
AcDbEntity
  8
0
  6
CONTINUOUS
 62
     7
100
AcDbLine
 10
50.5
 20
-31.126039
 30
0.0
 11
52.5
 21
-31.126039
 31
0.0
  0
LINE
  5
30
100
AcDbEntity
  8
0
  6
CONTINUOUS
 62
     7
100
AcDbLine
 10
50.5
 20
-40.126039
 30
0.0
 11
52.5
 21
-40.126039
 31
0.0
  0
LINE
  5
31
100
AcDbEntity
  8
0
  6
CONTINUOUS
 62
     7
100
AcDbLine
 10
50.000004
 20
-39.626043
 30
0.0
 11
50.499992
 21
-40.126031
 31
0.0
  0
LINE
  5
32
100
AcDbEntity
  8
0
  6
CONTINUOUS
 62
     7
100
AcDbLine
 10
50.0
 20
-31.626039
 30
0.0
 11
50.5
 21
-31.126039
 31
0.0
  0
LINE
  5
33
100
AcDbEntity
  8
0
  6
CONTINUOUS
 62
     7
100
AcDbLine
 10
50.5
 20
-40.126039
 30
0.0
 11
50.5
 21
-31.126039
 31
0.0
  0
LINE
  5
34
100
AcDbEntity
  8
0
  6
CONTINUOUS
 62
     7
100
AcDbLine
 10
52.5
 20
-31.126039
 30
0.0
 11
52.5
 21
-40.126039
 31
0.0
  0
LINE
  5
35
100
AcDbEntity
  8
0
  6
CONTINUOUS
 62
     7
100
AcDbLine
 10
47.0
 20
-33.126039
 30
0.0
 11
50.0
 21
-33.126039
 31
0.0
  0
LINE
  5
36
100
AcDbEntity
  8
0
  6
CONTINUOUS
 62
     7
100
AcDbLine
 10
47.0
 20
-38.126039
 30
0.0
 11
50.0
 21
-38.126039
 31
0.0
  0
LINE
  5
37
100
AcDbEntity
  8
0
  6
CONTINUOUS
 62
     7
100
AcDbLine
 10
48.5
 20
-33.376039
 30
0.0
 11
48.5
 21
-37.876039
 31
0.0
  0
LINE
  5
38
100
AcDbEntity
  8
0
  6
CONTINUOUS
 62
     7
100
AcDbLine
 10
47.0
 20
-37.876039
 30
0.0
 11
48.5
 21
-37.876039
 31
0.0
  0
LINE
  5
39
100
AcDbEntity
  8
0
  6
CONTINUOUS
 62
     7
100
AcDbLine
 10
47.0
 20
-33.376039
 30
0.0
 11
48.5
 21
-33.376039
 31
0.0
  0
LINE
  5
3A
100
AcDbEntity
  8
0
  6
CONTINUOUS
 62
     7
100
AcDbLine
 10
48.499992
 20
-33.376031
 30
0.0
 11
48.933006
 21
-33.126031
 31
0.0
  0
LINE
  5
3B
100
AcDbEntity
  8
0
  6
CONTINUOUS
 62
     7
100
AcDbLine
 10
48.499996
 20
-37.876039
 30
0.0
 11
48.93301
 21
-38.126039
 31
0.0
  0
LINE
  5
3C
100
AcDbEntity
  8
0
  6
CONTINUOUS
 62
     7
100
AcDbLine
 10
-45.103281
 20
26.255847
 30
0.0
 11
-45.103281
 21
11.520001
 31
0.0
  0
LINE
  5
3D
100
AcDbEntity
  8
0
  6
CENTER
 62
     1
 48
0.5
100
AcDbLine
 10
44.757568
 20
19.255847
 30
0.0
 11
56.581161
 21
19.255847
 31
0.0
  0
LINE
  5
3E
100
AcDbEntity
  8
0
  6
CONTINUOUS
 62
     7
100
AcDbLine
 10
55.0
 20
21.255847
 30
0.0
 11
55.0
 21
17.255847
 31
0.0
  0
LINE
  5
3F
100
AcDbEntity
  8
0
  6
CONTINUOUS
 62
     7
100
AcDbLine
 10
50.0
 20
23.255847
 30
0.0
 11
50.0
 21
15.255847
 31
0.0
  0
LINE
  5
40
100
AcDbEntity
  8
0
  6
CONTINUOUS
 62
     7
100
AcDbLine
 10
52.499992
 20
14.755855
 30
0.0
 11
54.999985
 21
17.255847
 31
0.0
  0
LINE
  5
41
100
AcDbEntity
  8
0
  6
CONTINUOUS
 62
     7
100
AcDbLine
 10
52.499992
 20
23.755843
 30
0.0
 11
54.999985
 21
21.255852
 31
0.0
  0
LINE
  5
42
100
AcDbEntity
  8
0
  6
CONTINUOUS
 62
     7
100
AcDbLine
 10
50.5
 20
23.755847
 30
0.0
 11
52.5
 21
23.755847
 31
0.0
  0
LINE
  5
43
100
AcDbEntity
  8
0
  6
CONTINUOUS
 62
     7
100
AcDbLine
 10
50.5
 20
14.755847
 30
0.0
 11
52.5
 21
14.755847
 31
0.0
  0
LINE
  5
44
100
AcDbEntity
  8
0
  6
CONTINUOUS
 62
     7
100
AcDbLine
 10
50.0
 20
15.255847
 30
0.0
 11
50.5
 21
14.755847
 31
0.0
  0
LINE
  5
45
100
AcDbEntity
  8
0
  6
CONTINUOUS
 62
     7
100
AcDbLine
 10
49.999989
 20
23.25584
 30
0.0
 11
50.499989
 21
23.755841
 31
0.0
  0
LINE
  5
46
100
AcDbEntity
  8
0
  6
CONTINUOUS
 62
     7
100
AcDbLine
 10
50.5
 20
14.755847
 30
0.0
 11
50.5
 21
23.755847
 31
0.0
  0
LINE
  5
47
100
AcDbEntity
  8
0
  6
CONTINUOUS
 62
     7
100
AcDbLine
 10
52.5
 20
23.755847
 30
0.0
 11
52.5
 21
14.755847
 31
0.0
  0
LINE
  5
48
100
AcDbEntity
  8
0
  6
CONTINUOUS
 62
     7
100
AcDbLine
 10
47.0
 20
21.755847
 30
0.0
 11
50.0
 21
21.755847
 31
0.0
  0
LINE
  5
49
100
AcDbEntity
  8
0
  6
CONTINUOUS
 62
     7
100
AcDbLine
 10
47.0
 20
16.755847
 30
0.0
 11
50.0
 21
16.755847
 31
0.0
  0
LINE
  5
4A
100
AcDbEntity
  8
0
  6
CONTINUOUS
 62
     7
100
AcDbLine
 10
48.5
 20
21.505847
 30
0.0
 11
48.5
 21
17.005847
 31
0.0
  0
LINE
  5
4B
100
AcDbEntity
  8
0
  6
CONTINUOUS
 62
     7
100
AcDbLine
 10
47.0
 20
17.005847
 30
0.0
 11
48.5
 21
17.005847
 31
0.0
  0
LINE
  5
4C
100
AcDbEntity
  8
0
  6
CONTINUOUS
 62
     7
100
AcDbLine
 10
47.0
 20
21.505847
 30
0.0
 11
48.5
 21
21.505847
 31
0.0
  0
LINE
  5
4D
100
AcDbEntity
  8
0
  6
CONTINUOUS
 62
     7
100
AcDbLine
 10
48.499996
 20
21.505845
 30
0.0
 11
48.93301
 21
21.755845
 31
0.0
  0
LINE
  5
4E
100
AcDbEntity
  8
0
  6
CONTINUOUS
 62
     7
100
AcDbLine
 10
48.499992
 20
17.005843
 30
0.0
 11
48.933006
 21
16.755843
 31
0.0
  0
LINE
  5
4F
100
AcDbEntity
  8
0
  6
CONTINUOUS
 62
     7
100
AcDbLine
 10
47.0
 20
-27.626039
 30
0.0
 11
47.0
 21
-43.126039
 31
0.0
  0
LINE
  5
50
100
AcDbEntity
  8
0
  6
CENTER
 62
     1
 48
0.5
100
AcDbLine
 10
35.0
 20
30.341407
 30
0.0
 11
35.0
 21
8.133769
 31
0.0
  0
LINE
  5
51
100
AcDbEntity
  8
0
  6
CENTER
 62
     1
 48
0.5
100
AcDbLine
 10
34.0
 20
-24.481447
 30
0.0
 11
34.0
 21
-37.863542
 31
0.0
  0
LINE
  5
52
100
AcDbEntity
  8
0
  6
CENTER
 62
     1
 48
0.5
100
AcDbLine
 10
35.0
 20
-23.214784
 30
0.0
 11
35.0
 21
-38.996873
 31
0.0
  0
LINE
  5
53
100
AcDbEntity
  8
0
  6
CENTER
 62
     1
 48
0.5
100
AcDbLine
 10
36.0
 20
-24.548112
 30
0.0
 11
36.0
 21
-37.596879
 31
0.0
  0
LINE
  5
54
100
AcDbEntity
  8
0
  6
CONTINUOUS
 62
     7
100
AcDbLine
 10
89.403846
 20
-28.626039
 30
0.0
 11
89.403846
 21
-43.126039
 31
0.0
  0
LINE
  5
55
100
AcDbEntity
  8
0
  6
CONTINUOUS
 62
     7
100
AcDbLine
 10
89.403846
 20
-43.126039
 30
0.0
 11
104.403827
 21
-43.126039
 31
0.0
  0
LINE
  5
56
100
AcDbEntity
  8
0
  6
CENTER
 62
     1
 48
0.5
100
AcDbLine
 10
87.579208
 20
-30.638402
 30
0.0
 11
109.500206
 21
-38.616991
 31
0.0
  0
LINE
  5
57
100
AcDbEntity
  8
0
  6
CONTINUOUS
 62
     7
100
AcDbLine
 10
97.094985
 20
-30.377237
 30
0.0
 11
105.403846
 21
-33.401414
 31
0.0
  0
LINE
  5
58
100
AcDbEntity
  8
0
  6
CONTINUOUS
 62
     7
100
AcDbLine
 10
94.700843
 20
-36.955087
 30
0.0
 11
105.403846
 21
-40.85066
 31
0.0
  0
LINE
  5
59
100
AcDbEntity
  8
0
  6
CONTINUOUS
 62
     7
100
AcDbLine
 10
94.652786
 20
-27.626039
 30
0.0
 11
97.693526
 21
-28.732778
 31
0.0
  0
LINE
  5
5A
100
AcDbEntity
  8
0
  6
CONTINUOUS
 62
     7
100
AcDbLine
 10
89.403846
 20
-36.889448
 30
0.0
 11
94.102309
 21
-38.59955
 31
0.0
  0
LINE
  5
5B
100
AcDbEntity
  8
0
  6
CONTINUOUS
 62
     7
100
AcDbLine
 10
97.693526
 20
-28.732778
 30
0.0
 11
94.102309
 21
-38.59955
 31
0.0
  0
LINE
  5
5C
100
AcDbEntity
  8
0
  6
CONTINUOUS
 62
     7
100
AcDbLine
 10
1.313803
 20
-43.126039
 30
0.0
 11
47.0
 21
-43.126039
 31
0.0
  0
LINE
  5
5D
100
AcDbEntity
  8
0
  6
CONTINUOUS
 62
     7
100
AcDbLine
 10
1.199999
 20
7.363027
 30
0.0
 11
10.369641
 21
12.657122
 31
0.0
  0
LINE
  5
5E
100
AcDbEntity
  8
0
  6
CONTINUOUS
 62
     7
100
AcDbLine
 10
7.260522
 20
18.976127
 30
0.0
 11
1.200002
 21
22.47517
 31
0.0
  0
LINE
  5
5F
100
AcDbEntity
  8
0
  6
CONTINUOUS
 62
     7
100
AcDbLine
 10
-0.000001
 20
27.255847
 30
0.0
 11
47.0
 21
27.255847
 31
0.0
  0
LINE
  5
60
100
AcDbEntity
  8
0
  6
CONTINUOUS
 62
     7
100
AcDbLine
 10
17.0
 20
11.255847
 30
0.0
 11
47.0
 21
11.255847
 31
0.0
  0
LINE
  5
61
100
AcDbEntity
  8
0
  6
CONTINUOUS
 62
     7
100
AcDbLine
 10
26.097008
 20
26.255847
 30
0.0
 11
47.0
 21
26.255847
 31
0.0
  0
LINE
  5
62
100
AcDbEntity
  8
0
  6
CONTINUOUS
 62
     7
100
AcDbLine
 10
26.097008
 20
12.255847
 30
0.0
 11
30.126385
 21
12.255847
 31
0.0
  0
LINE
  5
63
100
AcDbEntity
  8
0
  6
CONTINUOUS
 62
     7
100
AcDbLine
 10
15.654594
 20
8.925536
 30
0.0
 11
17.0
 21
11.255847
 31
0.0
  0
LINE
  5
64
100
AcDbEntity
  8
0
  6
CONTINUOUS
 62
     7
100
AcDbLine
 10
26.097008
 20
-27.626039
 30
0.0
 11
47.0
 21
-27.626039
 31
0.0
  0
LINE
  5
65
100
AcDbEntity
  8
0
  6
CONTINUOUS
 62
     7
100
AcDbLine
 10
105.403846
 20
-28.626039
 30
0.0
 11
105.403846
 21
-42.126039
 31
0.0
  0
LINE
  5
66
100
AcDbEntity
  8
0
  6
CONTINUOUS
 62
     7
100
AcDbLine
 10
104.403827
 20
-43.126039
 30
0.0
 11
105.403836
 21
-42.126035
 31
0.0
  0
LINE
  5
67
100
AcDbEntity
  8
0
  6
CONTINUOUS
 62
     7
100
AcDbLine
 10
90.403838
 20
-27.626039
 30
0.0
 11
104.403846
 21
-27.626039
 31
0.0
  0
LINE
  5
68
100
AcDbEntity
  8
0
  6
CONTINUOUS
 62
     7
100
AcDbLine
 10
105.403846
 20
-28.626039
 30
0.0
 11
104.403846
 21
-27.626039
 31
0.0
  0
LINE
  5
69
100
AcDbEntity
  8
0
  6
CONTINUOUS
 62
     7
100
AcDbLine
 10
25.991905
 20
-28.626039
 30
0.0
 11
30.126385
 21
-28.626039
 31
0.0
  0
LINE
  5
6A
100
AcDbEntity
  8
0
  6
CONTINUOUS
 62
     7
100
AcDbLine
 10
39.873615
 20
-28.626039
 30
0.0
 11
47.0
 21
-28.626039
 31
0.0
  0
LINE
  5
6B
100
AcDbEntity
  8
0
  6
CONTINUOUS
 62
     7
100
AcDbLine
 10
39.873615
 20
12.255847
 30
0.0
 11
47.0
 21
12.255847
 31
0.0
  0
LINE
  5
6C
100
AcDbEntity
  8
0
  6
CENTER
 62
     1
 48
0.5
100
AcDbLine
 10
8.5
 20
-34.50937
 30
0.0
 11
8.5
 21
-44.309373
 31
0.0
  0
LINE
  5
6D
100
AcDbEntity
  8
0
  6
CENTER
 62
     1
 48
0.5
100
AcDbLine
 10
3.408854
 20
-39.126039
 30
0.0
 11
13.942188
 21
-39.126039
 31
0.0
  0
LINE
  5
6E
100
AcDbEntity
  8
0
  6
CONTINUOUS
 62
     7
100
AcDbLine
 10
17.0
 20
-32.412813
 30
0.0
 11
17.0
 21
-43.126039
 31
0.0
  0
LINE
  5
6F
100
AcDbEntity
  8
0
  6
CONTINUOUS
 62
     7
100
AcDbLine
 10
-44.103281
 20
27.255847
 30
0.0
 11
-30.603281
 21
27.255847
 31
0.0
  0
LINE
  5
70
100
AcDbEntity
  8
0
  6
CONTINUOUS
 62
     7
100
AcDbLine
 10
-29.603281
 20
12.652388
 30
0.0
 11
-29.603281
 21
12.255847
 31
0.0
  0
LINE
  5
71
100
AcDbEntity
  8
0
  6
CONTINUOUS
 62
     7
100
AcDbLine
 10
-29.603277
 20
26.255843
 30
0.0
 11
-30.603279
 21
27.255845
 31
0.0
  0
LINE
  5
72
100
AcDbEntity
  8
0
  6
CONTINUOUS
 62
     7
100
AcDbLine
 10
-44.103281
 20
27.255845
 30
0.0
 11
-45.103281
 21
26.255845
 31
0.0
  0
LINE
  5
73
100
AcDbEntity
  8
0
  6
CONTINUOUS
 62
     7
100
AcDbLine
 10
-33.103281
 20
11.255847
 30
0.0
 11
-30.603281
 21
11.255847
 31
0.0
  0
LINE
  5
74
100
AcDbEntity
  8
0
  6
CONTINUOUS
 62
     7
100
AcDbLine
 10
-30.603281
 20
11.255846
 30
0.0
 11
-29.603281
 21
12.255846
 31
0.0
  0
LINE
  5
75
100
AcDbEntity
  8
0
  6
CONTINUOUS
 62
     7
100
AcDbLine
 10
-33.103281
 20
27.255847
 30
0.0
 11
-33.103281
 21
7.255847
 31
0.0
  0
LINE
  5
76
100
AcDbEntity
  8
0
  6
CONTINUOUS
 62
     7
100
AcDbLine
 10
-36.283274
 20
21.964222
 30
0.0
 11
-36.283274
 21
7.873976
 31
0.0
  0
LINE
  5
77
100
AcDbEntity
  8
0
  6
CONTINUOUS
 62
     7
100
AcDbLine
 10
-36.283253
 20
7.873971
 30
0.0
 11
-33.103254
 21
7.255842
 31
0.0
  0
LINE
  5
78
100
AcDbEntity
  8
0
  6
CONTINUOUS
 62
     7
100
AcDbLine
 10
2.746409
 20
8.255847
 30
0.0
 11
8.000004
 21
8.255847
 31
0.0
  0
LINE
  5
79
100
AcDbEntity
  8
0
  6
CONTINUOUS
 62
     7
100
AcDbLine
 10
8.000004
 20
8.255847
 30
0.0
 11
15.654594
 21
8.925537
 31
0.0
  0
LINE
  5
7A
100
AcDbEntity
  8
0
  6
CONTINUOUS
 62
     7
100
AcDbLine
 10
8.000004
 20
-31.466859
 30
0.0
 11
8.000004
 21
-36.126039
 31
0.0
  0
LINE
  5
7B
100
AcDbEntity
  8
0
  6
CONTINUOUS
 62
     7
100
AcDbLine
 10
3.453486
 20
27.255847
 30
0.0
 11
3.453486
 21
21.17412
 31
0.0
  0
LINE
  5
7C
100
AcDbEntity
  8
0
  6
CONTINUOUS
 62
     7
100
AcDbLine
 10
3.999999
 20
27.255847
 30
0.0
 11
3.999999
 21
20.85859
 31
0.0
  0
LINE
  5
7D
100
AcDbEntity
  8
0
  6
CONTINUOUS
 62
     7
100
AcDbLine
 10
-29.603281
 20
26.255847
 30
0.0
 11
-29.603281
 21
25.008735
 31
0.0
  0
LINE
  5
7E
100
AcDbEntity
  8
0
  6
CONTINUOUS
 62
     7
100
AcDbLine
 10
-36.283274
 20
21.964221
 30
0.0
 11
-33.103281
 21
22.582349
 31
0.0
  0
LINE
  5
80
100
AcDbEntity
  8
0
  6
CONTINUOUS
 62
     7
100
AcDbLine
 10
89.403846
 20
-28.626039
 30
0.0
 11
90.403838
 21
-27.626039
 31
0.0
  0
LINE
  5
81
100
AcDbEntity
  8
0
  6
CENTER
 62
     1
 48
0.5
100
AcDbLine
 10
16.232544
 20
28.136008
 30
0.0
 11
21.550682
 21
8.288443
 31
0.0
  0
LINE
  5
82
100
AcDbEntity
  8
0
  6
CENTER
 62
     1
 48
0.5
100
AcDbLine
 10
2.387023
 20
14.282592
 30
0.0
 11
32.574974
 21
22.371429
 31
0.0
  0
LINE
  5
83
100
AcDbEntity
  8
0
  6
CONTINUOUS
 62
     7
100
AcDbLine
 10
5.698599
 20
17.221086
 30
0.0
 11
6.724179
 21
13.393569
 31
0.0
  0
LINE
  5
84
100
AcDbEntity
  8
0
  6
CONTINUOUS
 62
     7
100
AcDbLine
 10
6.166056
 20
18.346812
 30
0.0
 11
15.777613
 21
23.873422
 31
0.0
  0
LINE
  5
85
100
AcDbEntity
  8
0
  6
CONTINUOUS
 62
     7
100
AcDbLine
 10
7.691874
 20
12.65239
 30
0.0
 11
18.77903
 21
12.671984
 31
0.0
  0
LINE
  5
86
100
AcDbEntity
  8
0
  6
CONTINUOUS
 62
     7
100
AcDbLine
 10
23.773968
 20
21.98023
 30
0.0
 11
24.168816
 21
22.08603
 31
0.0
  0
LINE
  5
87
100
AcDbEntity
  8
0
  6
CONTINUOUS
 62
     7
100
AcDbLine
 10
24.757479
 20
18.309712
 30
0.0
 11
25.152328
 21
18.415512
 31
0.0
  0
LINE
  5
88
100
AcDbEntity
  8
0
  6
CENTER
 62
     1
 48
0.5
100
AcDbLine
 10
24.013523
 20
22.665586
 30
0.0
 11
25.307619
 21
17.835957
 31
0.0
  0
LINE
  5
89
100
AcDbEntity
  8
0
  6
CONTINUOUS
 62
     7
100
AcDbLine
 10
0.578073
 20
-36.126039
 30
0.0
 11
8.000004
 21
-36.126039
 31
0.0
  0
LINE
  5
8A
100
AcDbEntity
  8
0
  6
CONTINUOUS
 62
     7
100
AcDbLine
 10
1.313803
 20
-43.126039
 30
0.0
 11
0.392966
 21
-34.364858
 31
0.0
  0
LINE
  5
8B
100
AcDbEntity
  8
0
  6
CONTINUOUS
 62
     7
100
AcDbLine
 10
2.746409
 20
-30.914697
 30
0.0
 11
24.505478
 21
-33.201669
 31
0.0
  0
LINE
  5
8C
100
AcDbEntity
  8
0
  6
CONTINUOUS
 62
     7
100
AcDbLine
 10
0.0
 20
-31.126039
 30
0.0
 11
2.694431
 21
-31.409234
 31
0.0
  0
LINE
  5
8D
100
AcDbEntity
  8
0
  6
CONTINUOUS
 62
     7
100
AcDbLine
 10
2.746409
 20
-30.914697
 30
0.0
 11
2.36203
 21
-34.571813
 31
0.0
  0
LINE
  5
8E
100
AcDbEntity
  8
0
  6
CONTINUOUS
 62
     7
100
AcDbLine
 10
0.282343
 20
-34.353231
 30
0.0
 11
2.36203
 21
-34.571813
 31
0.0
  0
LINE
  5
8F
100
AcDbEntity
  8
0
  6
CONTINUOUS
 62
     7
100
AcDbLine
 10
0.0
 20
-31.126039
 30
0.0
 11
0.282343
 21
-34.353231
 31
0.0
  0
LINE
  5
90
100
AcDbEntity
  8
0
  6
CONTINUOUS
 62
     7
100
AcDbLine
 10
25.5
 20
27.255847
 30
0.0
 11
25.5
 21
21.955283
 31
0.0
  0
LINE
  5
91
100
AcDbEntity
  8
0
  6
CONTINUOUS
 62
     7
100
AcDbLine
 10
25.604528
 20
-32.311674
 30
0.0
 11
26.097008
 21
-27.626039
 31
0.0
  0
LINE
  5
92
100
AcDbEntity
  8
0
  6
CONTINUOUS
 62
     7
100
AcDbLine
 10
26.097008
 20
26.255847
 30
0.0
 11
26.097008
 21
21.494415
 31
0.0
  0
LINE
  5
93
100
AcDbEntity
  8
0
  6
CONTINUOUS
 62
     7
100
AcDbLine
 10
25.5
 20
18.54626
 30
0.0
 11
25.5
 21
11.255847
 31
0.0
  0
LINE
  5
94
100
AcDbEntity
  8
0
  6
CONTINUOUS
 62
     7
100
AcDbLine
 10
26.097008
 20
19.007128
 30
0.0
 11
26.097008
 21
12.255847
 31
0.0
  0
LINE
  5
95
100
AcDbEntity
  8
0
  6
CONTINUOUS
 62
     7
100
AcDbLine
 10
26.09701
 20
12.255848
 30
0.0
 11
25.5
 21
11.255846
 31
0.0
  0
LINE
  5
96
100
AcDbEntity
  8
0
  6
CONTINUOUS
 62
     7
100
AcDbLine
 10
26.097008
 20
26.255847
 30
0.0
 11
25.5
 21
27.255847
 31
0.0
  0
LINE
  5
97
100
AcDbEntity
  8
0
  6
CONTINUOUS
 62
     7
100
AcDbLine
 10
34.0
 20
-28.732778
 30
0.0
 11
36.0
 21
-28.732778
 31
0.0
  0
LINE
  5
98
100
AcDbEntity
  8
0
  6
CONTINUOUS
 62
     7
100
AcDbLine
 10
34.0
 20
-30.377237
 30
0.0
 11
36.0
 21
-30.377237
 31
0.0
  0
LINE
  5
99
100
AcDbEntity
  8
0
  6
CONTINUOUS
 62
     7
100
AcDbLine
 10
34.0
 20
-33.401414
 30
0.0
 11
36.0
 21
-33.401414
 31
0.0
  0
LINE
  5
9A
100
AcDbEntity
  8
0
  6
CONTINUOUS
 62
     7
100
AcDbLine
 10
34.0
 20
-36.889448
 30
0.0
 11
36.0
 21
-36.889448
 31
0.0
  0
LINE
  5
9B
100
AcDbEntity
  8
0
  6
CONTINUOUS
 62
     7
100
AcDbLine
 10
15.654594
 20
-32.271402
 30
0.0
 11
15.654594
 21
-40.545419
 31
0.0
  0
LINE
  5
9C
100
AcDbEntity
  8
0
  6
CONTINUOUS
 62
     7
100
AcDbLine
 10
8.000005
 20
-36.126039
 30
0.0
 11
8.056975
 21
-36.158933
 31
0.0
  0
LINE
  5
9D
100
AcDbEntity
  8
0
  6
CONTINUOUS
 62
     7
100
AcDbLine
 10
11.291101
 20
-38.026155
 30
0.0
 11
15.654595
 21
-40.545419
 31
0.0
  0
LINE
  5
9E
100
AcDbEntity
  8
0
  6
CONTINUOUS
 62
     7
100
AcDbLine
 10
15.654596
 20
-40.545419
 30
0.0
 11
17.0
 21
-43.126039
 31
0.0
  0
LINE
  5
9F
100
AcDbEntity
  8
0
  6
CONTINUOUS
 62
     7
100
AcDbLine
 10
30.266249
 20
16.504788
 30
0.0
 11
39.733749
 21
16.504788
 31
0.0
  0
LINE
  5
A0
100
AcDbEntity
  8
0
  6
CONTINUOUS
 62
     7
100
AcDbLine
 10
-38.103281
 20
8.255847
 30
0.0
 11
-36.283274
 21
8.255847
 31
0.0
  0
LINE
  5
A1
100
AcDbEntity
  8
0
  6
CONTINUOUS
 62
     7
100
AcDbLine
 10
-45.103281
 20
11.520001
 30
0.0
 11
-38.103281
 21
8.255847
 31
0.0
  0
LINE
  5
A2
100
AcDbEntity
  8
0
  6
CONTINUOUS
 62
     7
100
AcDbLine
 10
12.354842
 20
-25.386026
 30
0.0
 11
24.768425
 21
-26.690748
 31
0.0
  0
LINE
  5
A3
100
AcDbEntity
  8
0
  6
CONTINUOUS
 62
     7
100
AcDbLine
 10
5.664525
 20
-27.889715
 30
0.0
 11
6.923141
 21
-28.022001
 31
0.0
  0
LINE
  5
A4
100
AcDbEntity
  8
0
  6
CONTINUOUS
 62
     7
100
AcDbLine
 10
24.559368
 20
-28.679792
 30
0.0
 11
25.970663
 21
-28.828123
 31
0.0
  0
LINE
  5
A5
100
AcDbEntity
  8
0
  6
CONTINUOUS
 62
     7
100
AcDbLine
 10
24.768425
 20
-26.690748
 30
0.0
 11
24.088703
 21
-33.157865
 31
0.0
  0
LINE
  5
A6
100
AcDbEntity
  8
0
  6
CONTINUOUS
 62
     7
100
AcDbLine
 10
5.664525
 20
-27.889715
 30
0.0
 11
5.318176
 21
-31.185003
 31
0.0
  0
LINE
  5
A7
100
AcDbEntity
  8
0
  6
CONTINUOUS
 62
     7
100
AcDbLine
 10
6.923141
 20
-28.022001
 30
0.0
 11
6.576793
 21
-31.317289
 31
0.0
  0
LINE
  5
A8
100
AcDbEntity
  8
0
  6
CONTINUOUS
 62
     7
100
AcDbLine
 10
-27.319445
 20
24.671975
 30
0.0
 11
-27.319445
 21
16.100841
 31
0.0
  0
LINE
  5
A9
100
AcDbEntity
  8
0
  6
CONTINUOUS
 62
     7
100
AcDbLine
 10
-33.103281
 20
12.652388
 30
0.0
 11
-29.292582
 21
12.652388
 31
0.0
  0
LINE
  5
AA
100
AcDbEntity
  8
0
  6
CONTINUOUS
 62
     7
100
AcDbLine
 10
-29.292582
 20
17.963624
 30
0.0
 11
-29.292582
 21
12.652388
 31
0.0
  0
LINE
  5
AB
100
AcDbEntity
  8
0
  6
CONTINUOUS
 62
     7
100
AcDbLine
 10
-33.103281
 20
17.963624
 30
0.0
 11
-29.292582
 21
17.963624
 31
0.0
  0
LINE
  5
AC
100
AcDbEntity
  8
0
  6
CONTINUOUS
 62
     7
100
AcDbLine
 10
-33.103281
 20
24.671975
 30
0.0
 11
-27.319445
 21
24.671975
 31
0.0
  0
LINE
  5
AD
100
AcDbEntity
  8
0
  6
CONTINUOUS
 62
     7
100
AcDbLine
 10
0.0
 20
8.055847
 30
0.0
 11
0.0
 21
7.255847
 31
0.0
  0
LINE
  5
AE
100
AcDbEntity
  8
0
  6
CONTINUOUS
 62
     7
100
AcDbLine
 10
0.0
 20
7.255847
 30
0.0
 11
0.8
 21
7.255847
 31
0.0
  0
ARC
  5
AF
100
AcDbEntity
  8
0
  6
CONTINUOUS
 62
     7
100
AcDbCircle
 10
0.8
 20
8.055847
 30
0.0
 40
0.8
100
AcDbArc
 50
179.99996
 51
299.99994
  0
ARC
  5
B0
100
AcDbEntity
  8
0
  6
CONTINUOUS
 62
     7
100
AcDbCircle
 10
0.799999
 20
21.78235
 30
0.0
 40
0.8
100
AcDbArc
 50
59.999988
 51
179.99996
  0
CIRCLE
  5
B1
100
AcDbEntity
  8
0
  6
CONTINUOUS
 62
     7
100
AcDbCircle
 10
8.5
 20
-39.126039
 30
0.0
 40
3.0
  0
ARC
  5
B2
100
AcDbEntity
  8
0
  6
CONTINUOUS
 62
     7
100
AcDbCircle
 10
24.660572
 20
20.250772
 30
0.0
 40
1.9
100
AcDbArc
 50
284.99999
 51
105.0
  0
ARC
  5
B3
100
AcDbEntity
  8
0
  6
CONTINUOUS
 62
     7
100
AcDbCircle
 10
6.664525
 20
17.479904
 30
0.0
 40
1.0
100
AcDbArc
 50
119.89874
 51
195.0
  0
ARC
  5
B4
100
AcDbEntity
  8
0
  6
CONTINUOUS
 62
     7
100
AcDbCircle
 10
7.690105
 20
13.652388
 30
0.0
 40
1.0
100
AcDbArc
 50
194.99999
 51
270.10125
  0
CIRCLE
  5
B5
100
AcDbEntity
  8
0
  6
CONTINUOUS
 62
     7
100
AcDbCircle
 10
8.5
 20
-39.126039
 30
0.0
 40
2.5
  0
ARC
  5
B6
100
AcDbEntity
  8
0
  6
CONTINUOUS
 62
     7
100
AcDbCircle
 10
24.610006
 20
-32.207147
 30
0.0
 40
1.0
100
AcDbArc
 50
264.0
 51
354.0
  0
ARC
  5
B7
100
AcDbEntity
  8
0
  6
CONTINUOUS
 62
     7
100
AcDbCircle
 10
32.78553
 20
15.291379
 30
0.0
 40
4.035532
100
AcDbArc
 50
186.49001
 51
270.0
  0
ARC
  5
B8
100
AcDbEntity
  8
0
  6
CONTINUOUS
 62
     7
100
AcDbCircle
 10
37.21447
 20
15.291379
 30
0.0
 40
4.035532
100
AcDbArc
 50
270.0
 51
353.50998
  0
ARC
  5
B9
100
AcDbEntity
  8
0
  6
CONTINUOUS
 62
     7
100
AcDbCircle
 10
30.266249
 20
15.004788
 30
0.0
 40
1.5
100
AcDbArc
 50
90.000003
 51
186.49001
  0
ARC
  5
BA
100
AcDbEntity
  8
0
  6
CONTINUOUS
 62
     7
100
AcDbCircle
 10
39.733749
 20
15.004788
 30
0.0
 40
1.5
100
AcDbArc
 50
353.50998
 51
90.000003
  0
ARC
  5
BB
100
AcDbEntity
  8
0
  6
CONTINUOUS
 62
     7
100
AcDbCircle
 10
12.777231
 20
-33.474489
 30
0.0
 40
8.0
100
AcDbArc
 50
84.000002
 51
137.03425
  0
ARC
  5
BC
100
AcDbEntity
  8
0
  6
CONTINUOUS
 62
     7
100
AcDbCircle
 10
11.518615
 20
-33.342203
 30
0.0
 40
8.0
100
AcDbArc
 50
84.000002
 51
137.03425
  0
ARC
  5
BD
100
AcDbEntity
  8
0
  6
CONTINUOUS
 62
     7
100
AcDbCircle
 10
-31.319445
 20
21.412076
 30
0.0
 40
4.0
100
AcDbArc
 50
300.44532
 51
0.0
  0
ARC
  5
BE
100
AcDbEntity
  8
0
  6
CONTINUOUS
 62
     7
100
AcDbCircle
 10
-31.319445
 20
16.100841
 30
0.0
 40
4.0
100
AcDbArc
 50
300.44532
 51
0.0
  0
LWPOLYLINE
  5
BF
100
AcDbEntity
  8
0
  6
CONTINUOUS
 62
     7
100
AcDbPolyline
 90
       17
 70
     0
 43
0.0
 10
31.481861
 20
-27.627202
 42
0.039531
 10
30.770788
 20
-28.066293
 42
0.040699
 10
30.138828
 20
-28.613365
 42
0.041973
 10
29.60537
 20
-29.257047
 42
0.043212
 10
29.188678
 20
-29.981887
 42
0.044252
 10
28.904478
 20
-30.76812
 42
0.04493
 10
28.764309
 20
-31.592078
 42
0.045066
 10
28.773895
 20
-32.426218
 42
0.044835
 10
28.932695
 20
-33.24619
 42
0.044057
 10
29.233742
 20
-34.024516
 42
0.043087
 10
29.666195
 20
-34.740573
 42
0.041793
 10
30.212771
 20
-35.372643
 42
0.040539
 10
30.855585
 20
-35.906702
 42
0.039407
 10
31.57533
 20
-36.33179
 42
0.03849
 10
32.352431
 20
-36.640221
 42
0.037847
 10
33.167426
 20
-36.827017
 42
0.037461
 10
34.0
 20
-36.889448
  0
LWPOLYLINE
  5
D2
100
AcDbEntity
  8
0
  6
CONTINUOUS
 62
     7
100
AcDbPolyline
 90
       17
 70
     0
 43
0.0
 10
34.0
 20
-28.732778
 42
0.016167
 10
33.563812
 20
-28.746878
 42
0.016299
 10
33.12952
 20
-28.789229
 42
0.016568
 10
32.698959
 20
-28.859994
 42
0.016983
 10
32.27408
 20
-28.959459
 42
0.017552
 10
31.857018
 20
-29.088008
 42
0.018288
 10
31.450149
 20
-29.246104
 42
0.019204
 10
31.056175
 20
-29.434253
 42
0.020317
 10
30.678195
 20
-29.652945
 42
0.021639
 10
30.319793
 20
-29.902569
 42
0.023176
 10
29.985114
 20
-30.183283
 42
0.024918
 10
29.678908
 20
-30.494835
 42
0.026828
 10
29.40652
 20
-30.836318
 42
0.028826
 10
29.173772
 20
-31.205877
 42
0.030781
 10
28.986673
 20
-31.600396
 42
0.032504
 10
28.850931
 20
-32.015258
 42
0.033777
 10
28.771279
 20
-32.444294
  0
LWPOLYLINE
  5
E5
100
AcDbEntity
  8
0
  6
CONTINUOUS
 62
     7
100
AcDbPolyline
 90
       17
 70
     0
 43
0.0
 10
34.0
 20
-30.377237
 42
0.039748
 10
33.411471
 20
-30.424067
 42
0.040204
 10
32.836996
 20
-30.564119
 42
0.040965
 10
32.292773
 20
-30.795039
 42
0.042059
 10
31.794119
 20
-31.11267
 42
0.043396
 10
31.356611
 20
-31.510495
 42
0.044836
 10
30.995613
 20
-31.978985
 42
0.046194
 10
30.725347
 20
-32.5051
 42
0.047258
 10
30.557552
 20
-33.072183
 42
0.047844
 10
30.500005
 20
-33.66062
 42
0.047792
 10
30.555311
 20
-34.248557
 42
0.047205
 10
30.720641
 20
-34.815436
 42
0.046181
 10
30.988552
 20
-35.342185
 42
0.044844
 10
31.347466
 20
-35.811887
 42
0.043417
 10
31.783274
 20
-36.211347
 42
0.042094
 10
32.280775
 20
-36.530956
 42
0.041005
 10
32.824389
 20
-36.764006
  0
LWPOLYLINE
  5
F8
100
AcDbEntity
  8
0
  6
CONTINUOUS
 62
     7
100
AcDbPolyline
 90
       17
 70
     0
 43
0.0
 10
34.0
 20
-33.401414
 42
0.008376
 10
33.769399
 20
-33.405275
 42
0.008458
 10
33.539037
 20
-33.416892
 42
0.008627
 10
33.309159
 20
-33.436371
 42
0.00889
 10
33.080032
 20
-33.463893
 42
0.00926
 10
32.851962
 20
-33.49972
 42
0.009756
 10
32.625305
 20
-33.544207
 42
0.010405
 10
32.400495
 20
-33.597815
 42
0.011247
 10
32.178072
 20
-33.661134
 42
0.012337
 10
31.958725
 20
-33.734903
 42
0.013756
 10
31.743367
 20
-33.820052
 42
0.015624
 10
31.533227
 20
-33.917739
 42
0.018116
 10
31.330015
 20
-34.029398
 42
0.021491
 10
31.136174
 20
-34.156779
 42
0.026117
 10
30.955272
 20
-34.301935
 42
0.03247
 10
30.792598
 20
-34.46705
 42
0.040944
 10
30.655916
 20
-34.653827
  0
LWPOLYLINE
  5
10B
100
AcDbEntity
  8
0
  6
CONTINUOUS
 62
     7
100
AcDbPolyline
 90
       17
 70
     0
 43
0.0
 10
38.518139
 20
-27.627202
 42
-0.039531
 10
39.229212
 20
-28.066293
 42
-0.040699
 10
39.861172
 20
-28.613365
 42
-0.041973
 10
40.39463
 20
-29.257047
 42
-0.043212
 10
40.811322
 20
-29.981887
 42
-0.044252
 10
41.095522
 20
-30.76812
 42
-0.04493
 10
41.235691
 20
-31.592078
 42
-0.045066
 10
41.226105
 20
-32.426218
 42
-0.044835
 10
41.067305
 20
-33.24619
 42
-0.044057
 10
40.766258
 20
-34.024516
 42
-0.043087
 10
40.333805
 20
-34.740573
 42
-0.041793
 10
39.787229
 20
-35.372643
 42
-0.040539
 10
39.144415
 20
-35.906702
 42
-0.039407
 10
38.42467
 20
-36.33179
 42
-0.03849
 10
37.647569
 20
-36.640221
 42
-0.037847
 10
36.832574
 20
-36.827017
 42
-0.037461
 10
36.0
 20
-36.889448
  0
LWPOLYLINE
  5
11E
100
AcDbEntity
  8
0
  6
CONTINUOUS
 62
     7
100
AcDbPolyline
 90
       17
 70
     0
 43
0.0
 10
36.0
 20
-30.377237
 42
-0.039748
 10
36.588529
 20
-30.424067
 42
-0.040204
 10
37.163004
 20
-30.564119
 42
-0.040965
 10
37.707227
 20
-30.795039
 42
-0.042059
 10
38.205881
 20
-31.11267
 42
-0.043396
 10
38.643389
 20
-31.510495
 42
-0.044836
 10
39.004387
 20
-31.978985
 42
-0.046194
 10
39.274653
 20
-32.5051
 42
-0.047258
 10
39.442448
 20
-33.072183
 42
-0.047844
 10
39.499995
 20
-33.66062
 42
-0.047792
 10
39.444689
 20
-34.248557
 42
-0.047205
 10
39.279359
 20
-34.815436
 42
-0.046181
 10
39.011448
 20
-35.342185
 42
-0.044844
 10
38.652534
 20
-35.811887
 42
-0.043417
 10
38.216726
 20
-36.211347
 42
-0.042094
 10
37.719225
 20
-36.530956
 42
-0.041005
 10
37.175611
 20
-36.764006
  0
LWPOLYLINE
  5
131
100
AcDbEntity
  8
0
  6
CONTINUOUS
 62
     7
100
AcDbPolyline
 90
       17
 70
     0
 43
0.0
 10
36.0
 20
-33.401414
 42
-0.008376
 10
36.230601
 20
-33.405275
 42
-0.008458
 10
36.460963
 20
-33.416892
 42
-0.008627
 10
36.690841
 20
-33.436371
 42
-0.00889
 10
36.919968
 20
-33.463893
 42
-0.00926
 10
37.148038
 20
-33.49972
 42
-0.009756
 10
37.374695
 20
-33.544207
 42
-0.010405
 10
37.599505
 20
-33.597815
 42
-0.011247
 10
37.821928
 20
-33.661134
 42
-0.012337
 10
38.041275
 20
-33.734903
 42
-0.013756
 10
38.256633
 20
-33.820052
 42
-0.015624
 10
38.466773
 20
-33.917739
 42
-0.018116
 10
38.669985
 20
-34.029398
 42
-0.021491
 10
38.863826
 20
-34.156779
 42
-0.026117
 10
39.044728
 20
-34.301935
 42
-0.03247
 10
39.207402
 20
-34.46705
 42
-0.040944
 10
39.344084
 20
-34.653827
  0
LWPOLYLINE
  5
144
100
AcDbEntity
  8
0
  6
CONTINUOUS
 62
     7
100
AcDbPolyline
 90
       17
 70
     0
 43
0.0
 10
36.0
 20
-28.732778
 42
-0.016167
 10
36.436188
 20
-28.746878
 42
-0.016299
 10
36.87048
 20
-28.789229
 42
-0.016568
 10
37.301041
 20
-28.859994
 42
-0.016983
 10
37.72592
 20
-28.959459
 42
-0.017552
 10
38.142982
 20
-29.088008
 42
-0.018288
 10
38.549851
 20
-29.246104
 42
-0.019204
 10
38.943825
 20
-29.434253
 42
-0.020317
 10
39.321805
 20
-29.652945
 42
-0.021639
 10
39.680207
 20
-29.902569
 42
-0.023176
 10
40.014886
 20
-30.183283
 42
-0.024918
 10
40.321092
 20
-30.494835
 42
-0.026828
 10
40.59348
 20
-30.836318
 42
-0.028826
 10
40.826228
 20
-31.205877
 42
-0.030781
 10
41.013327
 20
-31.600396
 42
-0.032504
 10
41.149069
 20
-32.015258
 42
-0.033777
 10
41.228721
 20
-32.444294
  0
LINE
  5
157
100
AcDbEntity
  8
0
  6
CONTINUOUS
 62
     7
100
AcDbLine
 10
102.575383
 20
-43.126039
 30
0.0
 11
104.998356
 21
-40.703062
 31
0.0
  0
LINE
  5
158
100
AcDbEntity
  8
0
  6
CONTINUOUS
 62
     7
100
AcDbLine
 10
100.330321
 20
-43.126039
 30
0.0
 11
103.352378
 21
-40.103976
 31
0.0
  0
LINE
  5
159
100
AcDbEntity
  8
0
  6
CONTINUOUS
 62
     7
100
AcDbLine
 10
98.085259
 20
-43.126039
 30
0.0
 11
101.706401
 21
-39.50489
 31
0.0
  0
LINE
  5
15A
100
AcDbEntity
  8
0
  6
CONTINUOUS
 62
     7
100
AcDbLine
 10
95.840197
 20
-43.126039
 30
0.0
 11
100.060424
 21
-38.905805
 31
0.0
  0
LINE
  5
15B
100
AcDbEntity
  8
0
  6
CONTINUOUS
 62
     7
100
AcDbLine
 10
93.595136
 20
-43.126039
 30
0.0
 11
98.414447
 21
-38.306719
 31
0.0
  0
LINE
  5
15C
100
AcDbEntity
  8
0
  6
CONTINUOUS
 62
     7
100
AcDbLine
 10
91.350074
 20
-43.126039
 30
0.0
 11
96.76847
 21
-37.707633
 31
0.0
  0
LINE
  5
15D
100
AcDbEntity
  8
0
  6
CONTINUOUS
 62
     7
100
AcDbLine
 10
89.403846
 20
-42.827204
 30
0.0
 11
93.757137
 21
-38.473905
 31
0.0
  0
LINE
  5
15E
100
AcDbEntity
  8
0
  6
CONTINUOUS
 62
     7
100
AcDbLine
 10
94.371722
 20
-37.859319
 30
0.0
 11
95.122492
 21
-37.108547
 31
0.0
  0
LINE
  5
15F
100
AcDbEntity
  8
0
  6
CONTINUOUS
 62
     7
100
AcDbLine
 10
89.403846
 20
-40.582138
 30
0.0
 11
92.111161
 21
-37.874818
 31
0.0
  0
LINE
  5
160
100
AcDbEntity
  8
0
  6
CONTINUOUS
 62
     7
100
AcDbLine
 10
89.403846
 20
-38.337072
 30
0.0
 11
90.465184
 21
-37.275732
 31
0.0
  0
LINE
  5
161
100
AcDbEntity
  8
0
  6
CONTINUOUS
 62
     7
100
AcDbLine
 10
103.875877
 20
-32.845278
 30
0.0
 11
105.403846
 21
-31.317306
 31
0.0
  0
LINE
  5
162
100
AcDbEntity
  8
0
  6
CONTINUOUS
 62
     7
100
AcDbLine
 10
102.229901
 20
-32.246191
 30
0.0
 11
105.403846
 21
-29.07224
 31
0.0
  0
LINE
  5
163
100
AcDbEntity
  8
0
  6
CONTINUOUS
 62
     7
100
AcDbLine
 10
100.583925
 20
-31.647104
 30
0.0
 11
104.504406
 21
-27.726614
 31
0.0
  0
LINE
  5
164
100
AcDbEntity
  8
0
  6
CONTINUOUS
 62
     7
100
AcDbLine
 10
98.937949
 20
-31.048017
 30
0.0
 11
102.359921
 21
-27.626039
 31
0.0
  0
LINE
  5
165
100
AcDbEntity
  8
0
  6
CONTINUOUS
 62
     7
100
AcDbLine
 10
97.291973
 20
-30.44893
 30
0.0
 11
100.114859
 21
-27.626039
 31
0.0
  0
LINE
  5
166
100
AcDbEntity
  8
0
  6
CONTINUOUS
 62
     7
100
AcDbLine
 10
97.011351
 20
-28.484486
 30
0.0
 11
97.869797
 21
-27.626039
 31
0.0
  0
LINE
  5
167
100
AcDbEntity
  8
0
  6
CONTINUOUS
 62
     7
100
AcDbLine
 10
95.365373
 20
-27.885401
 30
0.0
 11
95.624735
 21
-27.626039
 31
0.0
  0
TEXT
  5
16A
100
AcDbEntity
  8
0
  6
CONTINUOUS
100
AcDbText
 10
16.491231
 20
-65.725056
 30
0.0
 40
6.0
  1
CTFPR12CA
100
AcDbText
  0
LINE
  5
191
102
{ACAD_REACTORS
330
199
102
}
100
AcDbEntity
  8
寸法
  6
CONTINUOUS
 62
     1
100
AcDbLine
 10
110.439899
 20
-38.959011
 30
0.0
 11
122.472037
 21
-43.338351
 31
0.0
  0
LINE
  5
192
102
{ACAD_REACTORS
330
199
102
}
100
AcDbEntity
  8
寸法
  6
CONTINUOUS
 62
     1
100
AcDbLine
 10
105.403846
 20
-37.126038
 30
0.0
 11
123.567435
 21
-37.126038
 31
0.0
  0
ARC
  5
193
102
{ACAD_REACTORS
330
199
102
}
100
AcDbEntity
  8
寸法
  6
CONTINUOUS
 62
     1
100
AcDbCircle
 10
105.403846
 20
-37.126038
 30
0.0
 40
17.163589
100
AcDbArc
 50
333.319788
 51
340.000004
  0
LINE
  5
194
102
{ACAD_REACTORS
330
199
102
}
100
AcDbEntity
  8
寸法
  6
CONTINUOUS
 62
     1
100
AcDbLine
 10
120.739968
 20
-44.832669
 30
0.0
 11
115.755952
 21
-54.750813
 31
0.0
  0
ARC
  5
195
102
{ACAD_REACTORS
330
199
102
}
100
AcDbEntity
  8
寸法
  6
CONTINUOUS
 62
     1
100
AcDbCircle
 10
105.403846
 20
-37.126038
 30
0.0
 40
17.163589
100
AcDbArc
 50
346.680221
 51
353.319784
  0
INSERT
  5
196
102
{ACAD_REACTORS
330
199
102
}
100
AcDbEntity
  8
寸法
  6
CONTINUOUS
 62
     1
100
AcDbBlockReference
  2
_OPEN30
 10
121.532345
 20
-42.99633
 30
0.0
 41
2.0
 42
2.0
 43
2.0
 50
253.340112
  0
INSERT
  5
197
102
{ACAD_REACTORS
330
199
102
}
100
AcDbEntity
  8
寸法
  6
CONTINUOUS
 62
     1
100
AcDbBlockReference
  2
_OPEN30
 10
122.567435
 20
-37.126038
 30
0.0
 41
2.0
 42
2.0
 43
2.0
 50
86.659892
  0
MTEXT
  5
198
102
{ACAD_REACTORS
330
199
102
}
100
AcDbEntity
  8
寸法
  6
CONTINUOUS
 62
     1
100
AcDbMText
 10
116.014144
 20
-48.669215
 30
0.0
 40
3.0
 41
0.0
 71
     5
 72
     1
  1
\A1;20°
 11
0.44901
 21
0.893527
 31
0.0
1001
ACAD
1000
MTEXTBEGIN
1070
    73
1070
     1
1070
    44
1040
1.0
1070
    74
1070
     0
1000
MTEXTEND
1000
MTEXTBEGIN
1070
    73
1070
     1
1070
    44
1040
1.0
1070
    74
1070
     0
1000
MTEXTEND
  0
DIMENSION
  5
19A
100
AcDbEntity
  8
寸法
  6
CONTINUOUS
100
AcDbDimension
  2
*D1
 10
110.0
 20
-43.126039
 30
0.0
 11
107.5
 21
-40.126039
 31
0.0
 70
    32
  3
STANDARD
100
AcDbAlignedDimension
 13
105.403846
 23
-37.126038
 33
0.0
 14
104.403827
 24
-43.126039
 34
0.0
 50
90.0
100
AcDbRotatedDimension
  0
DIMENSION
  5
1B9
100
AcDbEntity
  8
寸法
  6
CONTINUOUS
100
AcDbDimension
  2
*D2
 10
70.0
 20
-43.126039
 30
0.0
 11
67.5
 21
-35.376039
 31
0.0
 70
    32
  3
STANDARD
100
AcDbAlignedDimension
 13
47.0
 23
-27.626039
 33
0.0
 14
47.0
 24
-43.126039
 34
0.0
 50
90.0
100
AcDbRotatedDimension
  0
DIMENSION
  5
1C6
100
AcDbEntity
  8
寸法
  6
CONTINUOUS
100
AcDbDimension
  2
*D3
 10
-10.0
 20
-43.126039
 30
0.0
 11
-12.5
 21
-37.126039
 31
0.0
 70
    32
  3
STANDARD
100
AcDbAlignedDimension
 13
0.0
 23
-31.126039
 33
0.0
 14
1.313803
 24
-43.126039
 34
0.0
 50
90.0
100
AcDbRotatedDimension
  0
DIMENSION
  5
1D3
100
AcDbEntity
  8
寸法
  6
CONTINUOUS
100
AcDbDimension
  2
*D4
 10
34.0
 20
-50.0
 30
0.0
 11
28.0
 21
-47.5
 31
0.0
 70
    32
  3
STANDARD
100
AcDbAlignedDimension
 13
36.0
 23
-37.596879
 33
0.0
 14
34.0
 24
-37.863542
 34
0.0
100
AcDbRotatedDimension
  0
DIMENSION
  5
1E2
100
AcDbEntity
  8
寸法
  6
CONTINUOUS
100
AcDbDimension
  2
*D5
 10
35.0
 20
-20.0
 30
0.0
 11
45.0
 21
-17.5
 31
0.0
 70
    32
  3
STANDARD
100
AcDbAlignedDimension
 13
55.0
 23
-33.626039
 33
0.0
 14
35.0
 24
-23.214784
 34
0.0
100
AcDbRotatedDimension
  0
DIMENSION
  5
1EF
100
AcDbEntity
  8
寸法
  6
CONTINUOUS
100
AcDbDimension
  2
*D6
 10
70.0
 20
11.255847
 30
0.0
 11
67.5
 21
19.255847
 31
0.0
 70
    32
  3
STANDARD
100
AcDbAlignedDimension
 13
47.0
 23
27.255847
 33
0.0
 14
47.0
 24
11.255847
 34
0.0
 50
90.0
100
AcDbRotatedDimension
  0
DIMENSION
  5
1FC
100
AcDbEntity
  8
寸法
  6
CONTINUOUS
100
AcDbDimension
  2
*D7
 10
-10.0
 20
7.255847
 30
0.0
 11
-12.5
 21
17.255847
 31
0.0
 70
    32
  3
STANDARD
100
AcDbAlignedDimension
 13
-0.000001
 23
27.255847
 33
0.0
 14
0.0
 24
7.255847
 34
0.0
 50
90.0
100
AcDbRotatedDimension
  0
DIMENSION
  5
209
100
AcDbEntity
  8
寸法
  6
CONTINUOUS
100
AcDbDimension
  2
*D8
 10
0.0
 20
-10.0
 30
0.0
 11
27.5
 21
-7.5
 31
0.0
 70
    32
  3
STANDARD
100
AcDbAlignedDimension
 13
55.0
 23
17.255847
 33
0.0
 14
0.0
 24
7.255847
 34
0.0
100
AcDbRotatedDimension
  0
DIMENSION
  5
216
100
AcDbEntity
  8
寸法
  6
CONTINUOUS
100
AcDbDimension
  2
*D9
 10
47.0
 20
0.0
 30
0.0
 11
51.0
 21
2.5
 31
0.0
 70
    32
  3
STANDARD
100
AcDbAlignedDimension
 13
55.0
 23
17.255847
 33
0.0
 14
47.0
 24
11.255847
 34
0.0
100
AcDbRotatedDimension
1001
ACAD
1000
DSTYLE
1002
{
1070
   287
1070
     4
1070
   287
1070
     4
1070
   279
1070
     1
1002
}
  0
DIMENSION
  5
22C
100
AcDbEntity
  8
寸法
  6
CONTINUOUS
100
AcDbDimension
  2
*D10
 10
0.8
 20
7.255847
 30
0.0
 11
-2.563529
 21
11.849849
 31
0.0
 70
   162
  3
STANDARD
100
AcDb2LineAngularDimension
 13
-0.000001
 23
27.255832
 33
0.0
 14
0.0
 24
8.055847
 34
0.0
 15
0.0
 25
7.255847
 35
0.0
 16
-4.55603
 26
9.886272
 36
0.0
1001
ACAD
1000
DSTYLE
1002
{
1070
   271
1070
     0
1070
   271
1070
     0
1002
}
  0
LINE
  5
246
100
AcDbEntity
  8
0
  6
CONTINUOUS
100
AcDbLine
 10
-33.103281
 20
7.255848
 30
0.0
 11
-33.103281
 21
24.671975
 31
0.0
  0
ARC
  5
25A
100
AcDbEntity
  8
0
  6
CENTER
 62
     1
 48
0.5
100
AcDbCircle
 10
-33.103281
 20
32.255842
 30
0.0
 40
25.0
100
AcDbArc
 50
180.0
 51
270.000062
  0
DIMENSION
  5
25B
100
AcDbEntity
  8
寸法
  6
CONTINUOUS
100
AcDbDimension
  2
*D11
 10
-33.103281
 20
32.255842
 30
0.0
 11
-64.687819
 21
20.101441
 31
0.0
 70
    36
  1
%%c50
  3
STANDARD
100
AcDbRadialDimension
 15
-55.708293
 25
21.578137
 35
0.0
 40
0.0
1001
ACAD
1000
DSTYLE
1002
{
1070
   288
1070
     1
1002
}
  0
MTEXT
  5
279
100
AcDbEntity
  8
寸法
  6
CONTINUOUS
 62
     1
100
AcDbMText
 10
-44.694178
 20
-30.626039
 30
0.0
 40
3.0
 41
0.0
 71
     5
 72
     1
  1
0%%d
1001
ACAD
1000
MTEXTBEGIN
1070
    73
1070
     1
1070
    44
1040
1.0
1070
    74
1070
     0
1000
MTEXTEND
1000
MTEXTBEGIN
1070
    73
1070
     1
1070
    44
1040
1.0
1070
    74
1070
     0
1000
MTEXTEND
1000
MTEXTBEGIN
1070
    73
1070
     1
1070
    44
1040
1.0
1070
    74
1070
     0
1000
MTEXTEND
1000
MTEXTBEGIN
1070
    73
1070
     1
1070
    44
1040
1.0
1070
    74
1070
     0
1000
MTEXTEND
1000
MTEXTBEGIN
1070
    73
1070
     1
1070
    44
1040
1.0
1070
    74
1070
     0
1000
MTEXTEND
1000
MTEXTBEGIN
1070
    73
1070
     1
1070
    44
1040
1.0
1070
    74
1070
     0
1000
MTEXTEND
1000
MTEXTBEGIN
1070
    73
1070
     1
1070
    44
1040
1.0
1070
    74
1070
     0
1000
MTEXTEND
1000
MTEXTBEGIN
1070
    73
1070
     1
1070
    44
1040
1.0
1070
    74
1070
     0
1000
MTEXTEND
  0
MTEXT
  5
27A
100
AcDbEntity
  8
寸法
  6
CONTINUOUS
 62
     1
100
AcDbMText
 10
-30.263683
 20
-42.813714
 30
0.0
 40
3.0
 41
0.0
 71
     5
 72
     1
  1
+6%%d
1001
ACAD
1000
MTEXTBEGIN
1070
    73
1070
     1
1070
    44
1040
1.0
1070
    74
1070
     0
1000
MTEXTEND
1000
MTEXTBEGIN
1070
    73
1070
     1
1070
    44
1040
1.0
1070
    74
1070
     0
1000
MTEXTEND
1000
MTEXTBEGIN
1070
    73
1070
     1
1070
    44
1040
1.0
1070
    74
1070
     0
1000
MTEXTEND
1000
MTEXTBEGIN
1070
    73
1070
     1
1070
    44
1040
1.0
1070
    74
1070
     0
1000
MTEXTEND
1000
MTEXTBEGIN
1070
    73
1070
     1
1070
    44
1040
1.0
1070
    74
1070
     0
1000
MTEXTEND
1000
MTEXTBEGIN
1070
    73
1070
     1
1070
    44
1040
1.0
1070
    74
1070
     0
1000
MTEXTEND
1000
MTEXTBEGIN
1070
    73
1070
     1
1070
    44
1040
1.0
1070
    74
1070
     0
1000
MTEXTEND
1000
MTEXTBEGIN
1070
    73
1070
     1
1070
    44
1040
1.0
1070
    74
1070
     0
1000
MTEXTEND
  0
LINE
  5
27B
100
AcDbEntity
  8
寸法
  6
CONTINUOUS
100
AcDbLine
 10
-45.103281
 20
-33.126039
 30
0.0
 11
-43.689067
 21
-35.575529
 31
30.0
  0
LINE
  5
27C
100
AcDbEntity
  8
寸法
  6
CONTINUOUS
100
AcDbLine
 10
-45.103281
 20
-33.126039
 30
0.0
 11
-46.517494
 21
-35.575529
 31
30.0
  0
LINE
  5
27D
100
AcDbEntity
  8
寸法
  6
CONTINUOUS
100
AcDbLine
 10
-35.103281
 20
-43.126039
 30
0.0
 11
-37.55277
 21
-44.540253
 31
30.0
  0
LINE
  5
27E
100
AcDbEntity
  8
寸法
  6
CONTINUOUS
100
AcDbLine
 10
-35.103281
 20
-43.126039
 30
0.0
 11
-37.55277
 21
-41.711826
 31
30.0
  0
LINE
  5
27F
100
AcDbEntity
  8
寸法
  6
CONTINUOUS
100
AcDbLine
 10
-45.103281
 20
-43.126039
 30
0.0
 11
-45.103281
 21
-33.126039
 31
0.0
  0
LINE
  5
280
100
AcDbEntity
  8
寸法
  6
CONTINUOUS
100
AcDbLine
 10
-45.103281
 20
-43.126039
 30
0.0
 11
-35.103281
 21
-43.126039
 31
0.0
  0
LINE
  5
30D
100
AcDbEntity
  8
0
  6
CENTER
 62
     1
 48
0.5
100
AcDbLine
 10
-33.103281
 20
24.671975
 30
0.0
 11
-33.103281
 21
32.255842
 31
0.0
  0
CIRCLE
  5
30E
100
AcDbEntity
  8
0
  6
CONTINUOUS
100
AcDbCircle
 10
18.768423
 20
18.671975
 30
0.0
 40
6.0
  0
ENDSEC
  0
SECTION
  2
OBJECTS
  0
DICTIONARY
  5
C
100
AcDbDictionary
  3
ACAD_GROUP
350
D
  3
ACAD_LAYOUT
350
16F
  3
ACAD_MLINESTYLE
350
1B
  3
ACAD_PLOTSETTINGS
350
170
  3
ACAD_PLOTSTYLENAME
350
16D
  3
ACDBHEADERROUNDTRIPXREC
350
2CF
  0
DICTIONARY
  5
2CB
100
AcDbDictionary
280
     1
  3
ACAD_XREC_ROUNDTRIP
360
2CC
  0
DICTIONARY
  5
2F2
100
AcDbDictionary
280
     1
  3
ACAD_XREC_ROUNDTRIP
360
2F3
  0
DICTIONARY
  5
2AB
100
AcDbDictionary
280
     1
  3
ACAD_LAYOUTSELFREF
360
2F1
  0
DICTIONARY
  5
2A9
100
AcDbDictionary
280
     1
  3
ACAD_LAYOUTSELFREF
360
2F0
  0
DICTIONARY
  5
2C9
100
AcDbDictionary
280
     1
  3
ACAD_XREC_ROUNDTRIP
360
2CA
  0
DICTIONARY
  5
D
102
{ACAD_REACTORS
330
C
102
}
100
AcDbDictionary
  3
*A1
350
199
  0
DICTIONARY
  5
16F
102
{ACAD_XDICTIONARY
360
2F4
102
}
102
{ACAD_REACTORS
330
C
102
}
100
AcDbDictionary
  3
MODEL
350
171
  3
ﾚｲｱｳﾄ1
350
172
  0
DICTIONARY
  5
1B
102
{ACAD_REACTORS
330
C
102
}
100
AcDbDictionary
  3
STANDARD
350
1C
  0
DICTIONARY
  5
170
102
{ACAD_REACTORS
330
C
102
}
100
AcDbDictionary
  0
ACAD_PROXY_OBJECT
  5
16D
102
{ACAD_REACTORS
330
C
102
}
100
AcDbProxyObject
 90
      499
 91
      500
 93
       86
310
405010041939BDC9B585B0
350
16E
340
16E
 94
        0
  0
DICTIONARY
  5
2CF
102
{ACAD_REACTORS
330
C
102
}
100
AcDbDictionary
  3
CEPSNTYPE
350
2D9
  3
DIMSTYLEDATA
350
2DD
  3
FINGERPRINTGUID
350
2DA
  3
HYPERLINKBASE
350
2D2
  3
INSUNITS
350
2D8
  3
LAYOUTDICT
350
2D4
  3
LWETCUNION
350
2D7
  3
PLOTSETDICT
350
2D5
  3
PLOTSTYLNAMDICT
350
2D6
  3
PSVPSCALE
350
2DC
  3
PUCSBASE
350
2E0
  3
PUCSORGBACK
350
2E6
  3
PUCSORGBOTTOM
350
2E2
  3
PUCSORGFRONT
350
2E5
  3
PUCSORGLEFT
350
2E3
  3
PUCSORGRIGHT
350
2E4
  3
PUCSORGTOP
350
2E1
  3
PUCSORTHOREF
350
2DE
  3
PUCSORTHOVIEW
350
2DF
  3
STYLESHEET
350
2D3
  3
TSTACKALIGN
350
2D0
  3
TSTACKSIZE
350
2D1
  3
UCSBASE
350
2E9
  3
UCSORGBACK
350
2EF
  3
UCSORGBOTTOM
350
2EB
  3
UCSORGFRONT
350
2EE
  3
UCSORGLEFT
350
2EC
  3
UCSORGRIGHT
350
2ED
  3
UCSORGTOP
350
2EA
  3
UCSORTHOREF
350
2E7
  3
UCSORTHOVIEW
350
2E8
  3
VERSIONGUID
350
2DB
  0
XRECORD
  5
2CC
102
{ACAD_REACTORS
330
2CB
102
}
100
AcDbXrecord
102
EXTNAMES
  1
DEFPOINTS
  2
Defpoints
102
PLOTBIT
280
     0
  0
XRECORD
  5
2F3
102
{ACAD_REACTORS
330
2F2
102
}
100
AcDbXrecord
102
ACADR14ROUNDTRIP
1000
DSTYLE
1002
{
1070
   341
340
177
1070
   342
340
177
1002
}
  0
XRECORD
  5
2F1
102
{ACAD_REACTORS
330
2AB
102
}
100
AcDbXrecord
340
18
  0
XRECORD
  5
2F0
102
{ACAD_REACTORS
330
2A9
102
}
100
AcDbXrecord
340
15
  0
XRECORD
  5
2CA
102
{ACAD_REACTORS
330
2C9
102
}
100
AcDbXrecord
102
EXTNAMES
  1
_OPEN30
  2
_Open30
  0
GROUP
  5
199
102
{ACAD_REACTORS
330
D
102
}
100
AcDbGroup
300

 70
     1
 71
     1
340
192
340
196
340
195
340
191
340
198
340
194
340
193
340
197
  0
DICTIONARY
  5
2F4
100
AcDbDictionary
280
     1
  3
ACAD_XREC_ROUNDTRIP
360
2F5
  0
ACAD_PROXY_OBJECT
  5
171
102
{ACAD_REACTORS
330
16F
102
}
100
AcDbProxyObject
 90
      499
 91
      502
 93
      548
310
90E4550534F4E20504D2D32303030432C01AAAAAAAAA5A69054D6F64656C901A800000000000000000000000000000000000000000000A1000000000000008902A6A6AAAA8
330
18
330
0
340
0
340
0
 94
        0
  0
ACAD_PROXY_OBJECT
  5
172
102
{ACAD_REACTORS
330
16F
102
}
100
AcDbProxyObject
 90
      499
 91
      502
 93
      964
310
90E4550534F4E20504D2D32303030432C00AAAAAA416AA59106906DAB2B1B3C43140501A800000000000000000000000000000000000000000000A1000000000000008902A6A6A10232D5E076BC5510408CB5781DAF154410232D5E076BC5510408CB5781DAF15C410232D5E076BC5710408CB5781DAF15C46
330
15
330
0
340
0
340
0
 94
        0
  0
MLINESTYLE
  5
1C
102
{ACAD_REACTORS
330
1B
102
}
100
AcDbMlineStyle
  2
STANDARD
 70
     0
  3

 62
   256
 51
90.0
 52
90.0
 71
     2
 49
0.5
 62
   256
  6
BYLAYER
 49
-0.5
 62
   256
  6
BYLAYER
  0
ACAD_PROXY_OBJECT
  5
16E
102
{ACAD_REACTORS
330
16D
102
}
100
AcDbProxyObject
 90
      499
 91
      501
 93
        0
 94
        0
  0
XRECORD
  5
2D9
102
{ACAD_REACTORS
330
2CF
102
}
100
AcDbXrecord
 90
        0
  0
XRECORD
  5
2DD
102
{ACAD_REACTORS
330
2CF
102
}
100
AcDbXrecord
1000
DSTYLE
1002
{
1070
   341
340
177
1070
   342
340
177
1002
}
  0
XRECORD
  5
2DA
102
{ACAD_REACTORS
330
2CF
102
}
100
AcDbXrecord
  1
{B45C381B-7EFA-4466-B6E6-B787EC478821}
  0
XRECORD
  5
2D2
102
{ACAD_REACTORS
330
2CF
102
}
100
AcDbXrecord
  1

  0
XRECORD
  5
2D8
102
{ACAD_REACTORS
330
2CF
102
}
100
AcDbXrecord
 90
        0
  0
XRECORD
  5
2D4
102
{ACAD_REACTORS
330
2CF
102
}
100
AcDbXrecord
340
16F
  0
XRECORD
  5
2D7
102
{ACAD_REACTORS
330
2CF
102
}
100
AcDbXrecord
 90
    14877
  0
XRECORD
  5
2D5
102
{ACAD_REACTORS
330
2CF
102
}
100
AcDbXrecord
340
170
  0
XRECORD
  5
2D6
102
{ACAD_REACTORS
330
2CF
102
}
100
AcDbXrecord
340
16D
  0
XRECORD
  5
2DC
102
{ACAD_REACTORS
330
2CF
102
}
100
AcDbXrecord
 40
0.0
  0
XRECORD
  5
2E0
102
{ACAD_REACTORS
330
2CF
102
}
100
AcDbXrecord
340
0
  0
XRECORD
  5
2E6
102
{ACAD_REACTORS
330
2CF
102
}
100
AcDbXrecord
 10
0.0
 20
0.0
 30
0.0
  0
XRECORD
  5
2E2
102
{ACAD_REACTORS
330
2CF
102
}
100
AcDbXrecord
 10
0.0
 20
0.0
 30
0.0
  0
XRECORD
  5
2E5
102
{ACAD_REACTORS
330
2CF
102
}
100
AcDbXrecord
 10
0.0
 20
0.0
 30
0.0
  0
XRECORD
  5
2E3
102
{ACAD_REACTORS
330
2CF
102
}
100
AcDbXrecord
 10
0.0
 20
0.0
 30
0.0
  0
XRECORD
  5
2E4
102
{ACAD_REACTORS
330
2CF
102
}
100
AcDbXrecord
 10
0.0
 20
0.0
 30
0.0
  0
XRECORD
  5
2E1
102
{ACAD_REACTORS
330
2CF
102
}
100
AcDbXrecord
 10
0.0
 20
0.0
 30
0.0
  0
XRECORD
  5
2DE
102
{ACAD_REACTORS
330
2CF
102
}
100
AcDbXrecord
340
0
  0
XRECORD
  5
2DF
102
{ACAD_REACTORS
330
2CF
102
}
100
AcDbXrecord
 70
     0
  0
XRECORD
  5
2D3
102
{ACAD_REACTORS
330
2CF
102
}
100
AcDbXrecord
  1

  0
XRECORD
  5
2D0
102
{ACAD_REACTORS
330
2CF
102
}
100
AcDbXrecord
 90
        1
  0
XRECORD
  5
2D1
102
{ACAD_REACTORS
330
2CF
102
}
100
AcDbXrecord
 90
       70
  0
XRECORD
  5
2E9
102
{ACAD_REACTORS
330
2CF
102
}
100
AcDbXrecord
340
0
  0
XRECORD
  5
2EF
102
{ACAD_REACTORS
330
2CF
102
}
100
AcDbXrecord
 10
0.0
 20
0.0
 30
0.0
  0
XRECORD
  5
2EB
102
{ACAD_REACTORS
330
2CF
102
}
100
AcDbXrecord
 10
0.0
 20
0.0
 30
0.0
  0
XRECORD
  5
2EE
102
{ACAD_REACTORS
330
2CF
102
}
100
AcDbXrecord
 10
0.0
 20
0.0
 30
0.0
  0
XRECORD
  5
2EC
102
{ACAD_REACTORS
330
2CF
102
}
100
AcDbXrecord
 10
0.0
 20
0.0
 30
0.0
  0
XRECORD
  5
2ED
102
{ACAD_REACTORS
330
2CF
102
}
100
AcDbXrecord
 10
0.0
 20
0.0
 30
0.0
  0
XRECORD
  5
2EA
102
{ACAD_REACTORS
330
2CF
102
}
100
AcDbXrecord
 10
0.0
 20
0.0
 30
0.0
  0
XRECORD
  5
2E7
102
{ACAD_REACTORS
330
2CF
102
}
100
AcDbXrecord
340
0
  0
XRECORD
  5
2E8
102
{ACAD_REACTORS
330
2CF
102
}
100
AcDbXrecord
 70
     0
  0
XRECORD
  5
2DB
102
{ACAD_REACTORS
330
2CF
102
}
100
AcDbXrecord
  1
{D1B72434-7858-4AE3-A75F-836C9FD1C5F0}
  0
XRECORD
  5
2F5
102
{ACAD_REACTORS
330
2F4
102
}
100
AcDbXrecord
102
EXTNAMES
  1
MODEL
  2
Model
  0
ENDSEC
  0
EOF
