  0
SECTION
  2
HEADER
  9
$ACADVER
  1
AC1014
  9
$ACADMAINTVER
 70
     0
  9
$DWGCODEPAGE
  3
ANSI_932
  9
$INSBASE
 10
0.0
 20
0.0
 30
0.0
  9
$EXTMIN
 10
-77.968963
 20
-77.976693
 30
0.0
  9
$EXTMAX
 10
121.485253
 20
31.637035
 30
30.0
  9
$LIMMIN
 10
-108.743338
 20
-112.367029
  9
$LIMMAX
 10
201.514401
 20
86.528534
  9
$ORTHOMODE
 70
     0
  9
$REGENMODE
 70
     1
  9
$FILLMODE
 70
     1
  9
$QTEXTMODE
 70
     0
  9
$MIRRTEXT
 70
     1
  9
$DRAGMODE
 70
     2
  9
$LTSCALE
 40
1.0
  9
$OSMODE
 70
    33
  9
$ATTMODE
 70
     1
  9
$TEXTSIZE
 40
0.2
  9
$TRACEWID
 40
0.05
  9
$TEXTSTYLE
  7
STANDARD
  9
$CLAYER
  8
0
  9
$CELTYPE
  6
CONTINUOUS
  9
$CECOLOR
 62
   256
  9
$CELTSCALE
 40
1.0
  9
$DELOBJ
 70
     1
  9
$DISPSILH
 70
     0
  9
$DIMSCALE
 40
1.0
  9
$DIMASZ
 40
2.0
  9
$DIMEXO
 40
1.0
  9
$DIMDLI
 40
10.0
  9
$DIMRND
 40
0.0
  9
$DIMDLE
 40
0.0
  9
$DIMEXE
 40
1.0
  9
$DIMTP
 40
0.0
  9
$DIMTM
 40
0.0
  9
$DIMTXT
 40
3.0
  9
$DIMCEN
 40
2.0
  9
$DIMTSZ
 40
0.0
  9
$DIMTOL
 70
     0
  9
$DIMLIM
 70
     0
  9
$DIMTIH
 70
     0
  9
$DIMTOH
 70
     0
  9
$DIMSE1
 70
     0
  9
$DIMSE2
 70
     0
  9
$DIMTAD
 70
     1
  9
$DIMZIN
 70
     8
  9
$DIMBLK
  1
OPEN30
  9
$DIMASO
 70
     1
  9
$DIMSHO
 70
     1
  9
$DIMPOST
  1

  9
$DIMAPOST
  1

  9
$DIMALT
 70
     0
  9
$DIMALTD
 70
     2
  9
$DIMALTF
 40
25.4
  9
$DIMLFAC
 40
1.0
  9
$DIMTOFL
 70
     1
  9
$DIMTVP
 40
0.0
  9
$DIMTIX
 70
     0
  9
$DIMSOXD
 70
     0
  9
$DIMSAH
 70
     0
  9
$DIMBLK1
  1

  9
$DIMBLK2
  1

  9
$DIMSTYLE
  2
STANDARD
  9
$DIMCLRD
 70
     1
  9
$DIMCLRE
 70
     1
  9
$DIMCLRT
 70
     1
  9
$DIMTFAC
 40
1.0
  9
$DIMGAP
 40
1.0
  9
$DIMJUST
 70
     0
  9
$DIMSD1
 70
     0
  9
$DIMSD2
 70
     0
  9
$DIMTOLJ
 70
     1
  9
$DIMTZIN
 70
     0
  9
$DIMALTZ
 70
     0
  9
$DIMALTTZ
 70
     0
  9
$DIMFIT
 70
     3
  9
$DIMUPT
 70
     0
  9
$DIMUNIT
 70
     2
  9
$DIMDEC
 70
     2
  9
$DIMTDEC
 70
     2
  9
$DIMALTU
 70
     2
  9
$DIMALTTD
 70
     2
  9
$DIMTXSTY
  7
STANDARD
  9
$DIMAUNIT
 70
     0
  9
$LUNITS
 70
     2
  9
$LUPREC
 70
     4
  9
$SKETCHINC
 40
0.1
  9
$FILLETRAD
 40
0.0
  9
$AUNITS
 70
     0
  9
$AUPREC
 70
     0
  9
$MENU
  1
acad
  9
$ELEVATION
 40
0.0
  9
$PELEVATION
 40
0.0
  9
$THICKNESS
 40
0.0
  9
$LIMCHECK
 70
     0
  9
$BLIPMODE
 70
     0
  9
$CHAMFERA
 40
0.0
  9
$CHAMFERB
 40
0.0
  9
$CHAMFERC
 40
0.0
  9
$CHAMFERD
 40
0.0
  9
$SKPOLY
 70
     0
  9
$TDCREATE
 40
2444972.375000000
  9
$TDUPDATE
 40
2451977.476076388
  9
$TDINDWG
 40
0.0088924769
  9
$TDUSRTIMER
 40
0.0088924769
  9
$USRTIMER
 70
     1
  9
$ANGBASE
 50
0.0
  9
$ANGDIR
 70
     0
  9
$PDMODE
 70
     0
  9
$PDSIZE
 40
0.0
  9
$PLINEWID
 40
0.0
  9
$COORDS
 70
     1
  9
$SPLFRAME
 70
     0
  9
$SPLINETYPE
 70
     6
  9
$SPLINESEGS
 70
     8
  9
$ATTDIA
 70
     0
  9
$ATTREQ
 70
     1
  9
$HANDLING
 70
     1
  9
$HANDSEED
  5
350
  9
$SURFTAB1
 70
     6
  9
$SURFTAB2
 70
     6
  9
$SURFTYPE
 70
     6
  9
$SURFU
 70
     6
  9
$SURFV
 70
     6
  9
$UCSNAME
  2

  9
$UCSORG
 10
0.0
 20
0.0
 30
0.0
  9
$UCSXDIR
 10
1.0
 20
0.0
 30
0.0
  9
$UCSYDIR
 10
0.0
 20
1.0
 30
0.0
  9
$PUCSNAME
  2

  9
$PUCSORG
 10
0.0
 20
0.0
 30
0.0
  9
$PUCSXDIR
 10
1.0
 20
0.0
 30
0.0
  9
$PUCSYDIR
 10
0.0
 20
1.0
 30
0.0
  9
$USERI1
 70
     0
  9
$USERI2
 70
     0
  9
$USERI3
 70
     0
  9
$USERI4
 70
     0
  9
$USERI5
 70
     0
  9
$USERR1
 40
0.0
  9
$USERR2
 40
0.0
  9
$USERR3
 40
0.0
  9
$USERR4
 40
0.0
  9
$USERR5
 40
0.0
  9
$WORLDVIEW
 70
     1
  9
$SHADEDGE
 70
     3
  9
$SHADEDIF
 70
    70
  9
$TILEMODE
 70
     1
  9
$MAXACTVP
 70
    48
  9
$PINSBASE
 10
0.0
 20
0.0
 30
0.0
  9
$PLIMCHECK
 70
     0
  9
$PEXTMIN
 10
1.000000E+20
 20
1.000000E+20
 30
1.000000E+20
  9
$PEXTMAX
 10
-1.000000E+20
 20
-1.000000E+20
 30
-1.000000E+20
  9
$PLIMMIN
 10
0.0
 20
0.0
  9
$PLIMMAX
 10
12.0
 20
9.0
  9
$UNITMODE
 70
     0
  9
$VISRETAIN
 70
     1
  9
$PLINEGEN
 70
     0
  9
$PSLTSCALE
 70
     1
  9
$TREEDEPTH
 70
  3020
  9
$PICKSTYLE
 70
     1
  9
$CMLSTYLE
  2
STANDARD
  9
$CMLJUST
 70
     0
  9
$CMLSCALE
 40
1.0
  9
$PROXYGRAPHICS
 70
     1
  9
$MEASUREMENT
 70
     0
  0
ENDSEC
  0
SECTION
  2
CLASSES
  0
CLASS
  1
ACDBDICTIONARYWDFLT
  2
AcDbDictionaryWithDefault
  3
AutoCAD 2000
 90
        0
280
     0
281
     0
  0
CLASS
  1
ACDBPLACEHOLDER
  2
AcDbPlaceHolder
  3
AutoCAD 2000
 90
        0
280
     0
281
     0
  0
CLASS
  1
LAYOUT
  2
AcDbLayout
  3
AutoCAD 2000
 90
        0
280
     0
281
     0
  0
CLASS
  1
LONG_TRANSACTION
  2
AcDbLongTransaction
  3
AutoCAD 2000
 90
        0
280
     0
281
     0
  0
CLASS
  1
LWPOLYLINE
  2
AcDbPolyline
  3
"AutoCAD"
 90
        0
280
     0
281
     1
  0
CLASS
  1
HATCH
  2
AcDbHatch
  3
"ACAD_SEDONA"
 90
        0
280
     0
281
     1
  0
CLASS
  1
XRECORD
  2
AcDbXrecord
  3
"<Built In>"
 90
        0
280
     0
281
     0
  0
CLASS
  1
LONG_TRANSACTION
  2
AcDbLongTransaction
  3
AutoCAD 2000
 90
        0
280
     0
281
     0
  0
CLASS
  1
LWPOLYLINE
  2
AcDbPolyline
  3
"AutoCAD"
 90
        0
280
     0
281
     1
  0
CLASS
  1
HATCH
  2
AcDbHatch
  3
"ACAD_SEDONA"
 90
        0
280
     0
281
     1
  0
CLASS
  1
XRECORD
  2
AcDbXrecord
  3
"<Built In>"
 90
        0
280
     0
281
     0
  0
ENDSEC
  0
SECTION
  2
TABLES
  0
TABLE
  2
VPORT
  5
8
100
AcDbSymbolTable
 70
     2
  0
VPORT
  5
34F
100
AcDbSymbolTableRecord
100
AcDbViewportTableRecord
  2
*ACTIVE
 70
     0
 10
0.0
 20
0.0
 11
1.0
 21
1.0
 12
33.401758
 22
-19.738644
 13
0.0
 23
0.0
 14
10.0
 24
10.0
 15
10.0
 25
10.0
 16
0.0
 26
0.0
 36
1.0
 17
0.0
 27
0.0
 37
0.0
 40
155.815025
 41
1.710425
 42
50.0
 43
0.0
 44
0.0
 50
0.0
 51
0.0
 71
     0
 72
   100
 73
     1
 74
     1
 75
     0
 76
     0
 77
     0
 78
     0
  0
ENDTAB
  0
TABLE
  2
LTYPE
  5
5
100
AcDbSymbolTable
 70
     5
  0
LTYPE
  5
12
100
AcDbSymbolTableRecord
100
AcDbLinetypeTableRecord
  2
BYBLOCK
 70
     0
  3

 72
    65
 73
     0
 40
0.0
  0
LTYPE
  5
13
100
AcDbSymbolTableRecord
100
AcDbLinetypeTableRecord
  2
BYLAYER
 70
     0
  3

 72
    65
 73
     0
 40
0.0
  0
LTYPE
  5
14
100
AcDbSymbolTableRecord
100
AcDbLinetypeTableRecord
  2
CONTINUOUS
 70
     0
  3
Solid line
 72
    65
 73
     0
 40
0.0
  0
LTYPE
  5
1F
100
AcDbSymbolTableRecord
100
AcDbLinetypeTableRecord
  2
DASHED
 70
     0
  3
__ __ __ __ __ __ __ __ __ __ __ __ __ __ __
 72
    65
 73
     2
 40
3.5
 49
2.0
 74
     0
 49
-1.5
 74
     0
  0
LTYPE
  5
20
100
AcDbSymbolTableRecord
100
AcDbLinetypeTableRecord
  2
CENTER
 70
     0
  3
____ _ ____ _ ____ _ ____ _ ____ _ ____ _ ____
 72
    65
 73
     4
 40
17.5
 49
13.0
 74
     0
 49
-1.5
 74
     0
 49
1.5
 74
     0
 49
-1.5
 74
     0
  0
LTYPE
  5
21
100
AcDbSymbolTableRecord
100
AcDbLinetypeTableRecord
  2
PHANTOM
 70
     0
  3
_____ _ _ _____ _ _ _____ _ _ _____ _ _ ____  
 72
    65
 73
     6
 40
15.5
 49
8.0
 74
     0
 49
-1.5
 74
     0
 49
1.5
 74
     0
 49
-1.5
 74
     0
 49
1.5
 74
     0
 49
-1.5
 74
     0
  0
LTYPE
  5
22
100
AcDbSymbolTableRecord
100
AcDbLinetypeTableRecord
  2
DOT
 70
     0
  3
. . . . . . . . . . . . . . . . . . . . . . . .
 72
    65
 73
     2
 40
0.25
 49
0.0
 74
     0
 49
-0.25
 74
     0
  0
ENDTAB
  0
TABLE
  2
LAYER
  5
2
100
AcDbSymbolTable
 70
     3
  0
LAYER
  5
E
100
AcDbSymbolTableRecord
100
AcDbLayerTableRecord
  2
0
 70
     0
 62
     7
  6
CONTINUOUS
  0
LAYER
  5
186
100
AcDbSymbolTableRecord
100
AcDbLayerTableRecord
  2
寸法
 70
     0
 62
     1
  6
CONTINUOUS
  0
LAYER
  5
190
102
{ACAD_XDICTIONARY
360
306
102
}
100
AcDbSymbolTableRecord
100
AcDbLayerTableRecord
  2
DEFPOINTS
 70
     0
 62
     7
  6
CONTINUOUS
  0
ENDTAB
  0
TABLE
  2
STYLE
  5
3
100
AcDbSymbolTable
 70
     1
  0
STYLE
  5
F
100
AcDbSymbolTableRecord
100
AcDbTextStyleTableRecord
  2
STANDARD
 70
     0
 40
0.0
 41
1.0
 50
0.0
 71
     0
 42
0.2
  3
txt
  4
BIGFONT
  0
ENDTAB
  0
TABLE
  2
VIEW
  5
6
100
AcDbSymbolTable
 70
     0
  0
ENDTAB
  0
TABLE
  2
UCS
  5
7
100
AcDbSymbolTable
 70
     0
  0
ENDTAB
  0
TABLE
  2
APPID
  5
9
100
AcDbSymbolTable
 70
     1
  0
APPID
  5
10
100
AcDbSymbolTableRecord
100
AcDbRegAppTableRecord
  2
ACAD
 70
     0
  0
ENDTAB
  0
TABLE
  2
DIMSTYLE
  5
A
100
AcDbSymbolTable
 70
     1
  0
DIMSTYLE
105
178
102
{ACAD_XDICTIONARY
360
32D
102
}
102
{ACAD_REACTORS
330
1B7
330
1F8
330
205
330
212
330
221
330
22E
330
23B
330
248
330
255
330
26B
330
27C
330
28F
102
}
100
AcDbSymbolTableRecord
100
AcDbDimStyleTableRecord
  2
STANDARD
 70
     0
  3

  4

  5
OPEN30
  6

  7

 40
1.0
 41
2.0
 42
1.0
 43
10.0
 44
1.0
 45
0.0
 46
0.0
 47
0.0
 48
0.0
140
3.0
141
2.0
142
0.0
143
25.4
144
1.0
145
0.0
146
1.0
147
1.0
 71
     0
 72
     0
 73
     0
 74
     0
 75
     0
 76
     0
 77
     1
 78
     8
170
     0
171
     2
172
     1
173
     0
174
     0
175
     0
176
     1
177
     1
178
     1
270
     2
271
     2
272
     2
273
     2
274
     2
340
F
275
     0
280
     0
281
     0
282
     0
283
     1
284
     0
285
     0
286
     0
287
     3
288
     0
  0
ENDTAB
  0
TABLE
  2
BLOCK_RECORD
  5
1
100
AcDbSymbolTable
 70
    13
  0
BLOCK_RECORD
  5
18
102
{ACAD_XDICTIONARY
360
2E6
102
}
100
AcDbSymbolTableRecord
100
AcDbBlockTableRecord
  2
*MODEL_SPACE
  0
BLOCK_RECORD
  5
15
102
{ACAD_XDICTIONARY
360
2E4
102
}
100
AcDbSymbolTableRecord
100
AcDbBlockTableRecord
  2
*PAPER_SPACE
  0
BLOCK_RECORD
  5
187
102
{ACAD_XDICTIONARY
360
304
102
}
100
AcDbSymbolTableRecord
100
AcDbBlockTableRecord
  2
_OPEN30
  0
BLOCK_RECORD
  5
1B8
100
AcDbSymbolTableRecord
100
AcDbBlockTableRecord
  2
*D1
  0
BLOCK_RECORD
  5
1F9
100
AcDbSymbolTableRecord
100
AcDbBlockTableRecord
  2
*D2
  0
BLOCK_RECORD
  5
206
100
AcDbSymbolTableRecord
100
AcDbBlockTableRecord
  2
*D3
  0
BLOCK_RECORD
  5
213
100
AcDbSymbolTableRecord
100
AcDbBlockTableRecord
  2
*D4
  0
BLOCK_RECORD
  5
222
100
AcDbSymbolTableRecord
100
AcDbBlockTableRecord
  2
*D5
  0
BLOCK_RECORD
  5
22F
100
AcDbSymbolTableRecord
100
AcDbBlockTableRecord
  2
*D6
  0
BLOCK_RECORD
  5
23C
100
AcDbSymbolTableRecord
100
AcDbBlockTableRecord
  2
*D7
  0
BLOCK_RECORD
  5
249
100
AcDbSymbolTableRecord
100
AcDbBlockTableRecord
  2
*D8
  0
BLOCK_RECORD
  5
256
100
AcDbSymbolTableRecord
100
AcDbBlockTableRecord
  2
*D9
  0
BLOCK_RECORD
  5
26C
100
AcDbSymbolTableRecord
100
AcDbBlockTableRecord
  2
*D10
  0
BLOCK_RECORD
  5
27D
100
AcDbSymbolTableRecord
100
AcDbBlockTableRecord
  2
*D11
  0
BLOCK_RECORD
  5
290
100
AcDbSymbolTableRecord
100
AcDbBlockTableRecord
  2
*D12
  0
ENDTAB
  0
ENDSEC
  0
SECTION
  2
BLOCKS
  0
BLOCK
  5
19
100
AcDbEntity
  8
0
100
AcDbBlockBegin
  2
*MODEL_SPACE
 70
     0
 10
0.0
 20
0.0
 30
0.0
  3
*MODEL_SPACE
  1

  0
ENDBLK
  5
1A
100
AcDbEntity
  8
0
100
AcDbBlockEnd
  0
BLOCK
  5
16
100
AcDbEntity
 67
     1
  8
0
100
AcDbBlockBegin
  2
*PAPER_SPACE
 70
     0
 10
0.0
 20
0.0
 30
0.0
  3
*PAPER_SPACE
  1

  0
ENDBLK
  5
17
100
AcDbEntity
 67
     1
  8
0
100
AcDbBlockEnd
  0
BLOCK
  5
18B
100
AcDbEntity
  8
0
100
AcDbBlockBegin
  2
_OPEN30
 70
     0
 10
0.0
 20
0.0
 30
0.0
  3
_OPEN30
  1

  0
LINE
  5
188
100
AcDbEntity
  8
0
  6
BYBLOCK
 62
     0
100
AcDbLine
 10
-1.0
 20
0.267949
 30
0.0
 11
0.0
 21
0.0
 31
0.0
1001
ACAD
1000
RTLwPs
1070
   158
  0
LINE
  5
189
100
AcDbEntity
  8
0
  6
BYBLOCK
 62
     0
100
AcDbLine
 10
0.0
 20
0.0
 30
0.0
 11
-1.0
 21
-0.267949
 31
0.0
1001
ACAD
1000
RTLwPs
1070
   158
  0
LINE
  5
18A
100
AcDbEntity
  8
0
  6
BYBLOCK
 62
     0
100
AcDbLine
 10
0.0
 20
0.0
 30
0.0
 11
-1.0
 21
0.0
 31
0.0
1001
ACAD
1000
RTLwPs
1070
   158
  0
ENDBLK
  5
18C
100
AcDbEntity
  8
0
100
AcDbBlockEnd
  0
BLOCK
  5
1C3
100
AcDbEntity
  8
0
100
AcDbBlockBegin
  2
*D1
 70
     1
 10
0.0
 20
0.0
 30
0.0
  3
*D1
  1

  0
LINE
  5
1C5
100
AcDbEntity
  8
寸法
  6
CONTINUOUS
 62
     1
100
AcDbLine
 10
104.793768
 20
-43.999999
 30
0.0
 11
112.261653
 21
-43.999999
 31
0.0
1001
ACAD
1000
RTLwPs
1070
   158
  0
LINE
  5
1C6
100
AcDbEntity
  8
寸法
  6
CONTINUOUS
 62
     1
100
AcDbLine
 10
103.793749
 20
-50.0
 30
0.0
 11
112.261653
 21
-50.0
 31
0.0
1001
ACAD
1000
RTLwPs
1070
   158
  0
LINE
  5
1C7
100
AcDbEntity
  8
寸法
  6
CONTINUOUS
 62
     1
100
AcDbLine
 10
111.261653
 20
-45.999999
 30
0.0
 11
111.261653
 21
-48.0
 31
0.0
1001
ACAD
1000
RTLwPs
1070
   158
  0
INSERT
  5
1C8
100
AcDbEntity
  8
寸法
  6
CONTINUOUS
 62
     1
100
AcDbBlockReference
  2
_OPEN30
 10
111.261653
 20
-43.999999
 30
0.0
 41
2.0
 42
2.0
 43
2.0
 50
90.0
1001
ACAD
1000
RTLwPs
1070
   158
  0
INSERT
  5
1C9
100
AcDbEntity
  8
寸法
  6
CONTINUOUS
 62
     1
100
AcDbBlockReference
  2
_OPEN30
 10
111.261653
 20
-50.0
 30
0.0
 41
2.0
 42
2.0
 43
2.0
 50
270.0
1001
ACAD
1000
RTLwPs
1070
   158
  0
MTEXT
  5
1CA
100
AcDbEntity
  8
寸法
  6
CONTINUOUS
 62
     1
100
AcDbMText
 10
108.761653
 20
-47.0
 30
0.0
 40
3.0
 41
0.0
 71
     5
 72
     1
  1
\A1;6
 11
0.0
 21
1.0
 31
0.0
1001
ACAD
1000
MTEXTBEGIN
1070
    73
1070
     1
1070
    44
1040
1.0
1070
    74
1070
     0
1000
MTEXTEND
1000
MTEXTBEGIN
1070
    73
1070
     1
1070
    44
1040
1.0
1070
    74
1070
     0
1000
MTEXTEND
  0
POINT
  5
1CB
100
AcDbEntity
  8
DEFPOINTS
  6
CONTINUOUS
 62
     0
100
AcDbPoint
 10
103.793768
 20
-43.999999
 30
0.0
  0
POINT
  5
1CC
100
AcDbEntity
  8
DEFPOINTS
  6
CONTINUOUS
 62
     0
100
AcDbPoint
 10
102.793749
 20
-50.0
 30
0.0
  0
POINT
  5
1CD
100
AcDbEntity
  8
DEFPOINTS
  6
CONTINUOUS
 62
     0
100
AcDbPoint
 10
111.261653
 20
-50.0
 30
0.0
  0
ENDBLK
  5
1C4
100
AcDbEntity
  8
0
100
AcDbBlockEnd
  0
BLOCK
  5
203
100
AcDbEntity
  8
0
100
AcDbBlockBegin
  2
*D2
 70
     1
 10
0.0
 20
0.0
 30
0.0
  3
*D2
  1

  0
LINE
  5
1FA
100
AcDbEntity
  8
寸法
  6
CONTINUOUS
 62
     1
100
AcDbLine
 10
42.780173
 20
-34.5
 30
0.0
 11
61.0
 21
-34.5
 31
0.0
1001
ACAD
1000
RTLwPs
1070
   158
  0
LINE
  5
1FB
100
AcDbEntity
  8
寸法
  6
CONTINUOUS
 62
     1
100
AcDbLine
 10
42.780173
 20
-50.0
 30
0.0
 11
61.0
 21
-50.0
 31
0.0
1001
ACAD
1000
RTLwPs
1070
   158
  0
LINE
  5
1FC
100
AcDbEntity
  8
寸法
  6
CONTINUOUS
 62
     1
100
AcDbLine
 10
60.0
 20
-36.5
 30
0.0
 11
60.0
 21
-48.0
 31
0.0
1001
ACAD
1000
RTLwPs
1070
   158
  0
INSERT
  5
1FD
100
AcDbEntity
  8
寸法
  6
CONTINUOUS
 62
     1
100
AcDbBlockReference
  2
_OPEN30
 10
60.0
 20
-34.5
 30
0.0
 41
2.0
 42
2.0
 43
2.0
 50
90.0
1001
ACAD
1000
RTLwPs
1070
   158
  0
INSERT
  5
1FE
100
AcDbEntity
  8
寸法
  6
CONTINUOUS
 62
     1
100
AcDbBlockReference
  2
_OPEN30
 10
60.0
 20
-50.0
 30
0.0
 41
2.0
 42
2.0
 43
2.0
 50
270.0
1001
ACAD
1000
RTLwPs
1070
   158
  0
MTEXT
  5
1FF
100
AcDbEntity
  8
寸法
  6
CONTINUOUS
 62
     1
100
AcDbMText
 10
57.5
 20
-42.25
 30
0.0
 40
3.0
 41
0.0
 71
     5
 72
     1
  1
\A1;15.5
 11
0.0
 21
1.0
 31
0.0
1001
ACAD
1000
MTEXTBEGIN
1070
    73
1070
     1
1070
    44
1040
1.0
1070
    74
1070
     0
1000
MTEXTEND
1000
MTEXTBEGIN
1070
    73
1070
     1
1070
    44
1040
1.0
1070
    74
1070
     0
1000
MTEXTEND
  0
POINT
  5
200
100
AcDbEntity
  8
DEFPOINTS
  6
CONTINUOUS
 62
     0
100
AcDbPoint
 10
41.780173
 20
-34.5
 30
0.0
  0
POINT
  5
201
100
AcDbEntity
  8
DEFPOINTS
  6
CONTINUOUS
 62
     0
100
AcDbPoint
 10
41.780173
 20
-50.0
 30
0.0
  0
POINT
  5
202
100
AcDbEntity
  8
DEFPOINTS
  6
CONTINUOUS
 62
     0
100
AcDbPoint
 10
60.0
 20
-50.0
 30
0.0
  0
ENDBLK
  5
204
100
AcDbEntity
  8
0
100
AcDbBlockEnd
  0
BLOCK
  5
210
100
AcDbEntity
  8
0
100
AcDbBlockBegin
  2
*D3
 70
     1
 10
0.0
 20
0.0
 30
0.0
  3
*D3
  1

  0
LINE
  5
207
100
AcDbEntity
  8
寸法
  6
CONTINUOUS
 62
     1
100
AcDbLine
 10
-6.219827
 20
-38.0
 30
0.0
 11
-21.0
 21
-38.0
 31
0.0
1001
ACAD
1000
RTLwPs
1070
   158
  0
LINE
  5
208
100
AcDbEntity
  8
寸法
  6
CONTINUOUS
 62
     1
100
AcDbLine
 10
-3.731932
 20
-49.999992
 30
0.0
 11
-21.0
 21
-49.999992
 31
0.0
1001
ACAD
1000
RTLwPs
1070
   158
  0
LINE
  5
209
100
AcDbEntity
  8
寸法
  6
CONTINUOUS
 62
     1
100
AcDbLine
 10
-20.0
 20
-40.0
 30
0.0
 11
-20.0
 21
-47.999992
 31
0.0
1001
ACAD
1000
RTLwPs
1070
   158
  0
INSERT
  5
20A
100
AcDbEntity
  8
寸法
  6
CONTINUOUS
 62
     1
100
AcDbBlockReference
  2
_OPEN30
 10
-20.0
 20
-38.0
 30
0.0
 41
2.0
 42
2.0
 43
2.0
 50
90.0
1001
ACAD
1000
RTLwPs
1070
   158
  0
INSERT
  5
20B
100
AcDbEntity
  8
寸法
  6
CONTINUOUS
 62
     1
100
AcDbBlockReference
  2
_OPEN30
 10
-20.0
 20
-49.999992
 30
0.0
 41
2.0
 42
2.0
 43
2.0
 50
270.0
1001
ACAD
1000
RTLwPs
1070
   158
  0
MTEXT
  5
20C
100
AcDbEntity
  8
寸法
  6
CONTINUOUS
 62
     1
100
AcDbMText
 10
-22.5
 20
-43.999996
 30
0.0
 40
3.0
 41
0.0
 71
     5
 72
     1
  1
\A1;12
 11
0.0
 21
1.0
 31
0.0
1001
ACAD
1000
MTEXTBEGIN
1070
    73
1070
     1
1070
    44
1040
1.0
1070
    74
1070
     0
1000
MTEXTEND
1000
MTEXTBEGIN
1070
    73
1070
     1
1070
    44
1040
1.0
1070
    74
1070
     0
1000
MTEXTEND
  0
POINT
  5
20D
100
AcDbEntity
  8
DEFPOINTS
  6
CONTINUOUS
 62
     0
100
AcDbPoint
 10
-5.219827
 20
-38.0
 30
0.0
  0
POINT
  5
20E
100
AcDbEntity
  8
DEFPOINTS
  6
CONTINUOUS
 62
     0
100
AcDbPoint
 10
-2.731932
 20
-49.999992
 30
0.0
  0
POINT
  5
20F
100
AcDbEntity
  8
DEFPOINTS
  6
CONTINUOUS
 62
     0
100
AcDbPoint
 10
-20.0
 20
-49.999992
 30
0.0
  0
ENDBLK
  5
211
100
AcDbEntity
  8
0
100
AcDbBlockEnd
  0
BLOCK
  5
21F
100
AcDbEntity
  8
0
100
AcDbBlockBegin
  2
*D4
 70
     1
 10
0.0
 20
0.0
 30
0.0
  3
*D4
  1

  0
LINE
  5
214
100
AcDbEntity
  8
寸法
  6
CONTINUOUS
 62
     1
100
AcDbLine
 10
30.780173
 20
-45.47084
 30
0.0
 11
30.780173
 21
-61.0
 31
0.0
1001
ACAD
1000
RTLwPs
1070
   158
  0
LINE
  5
215
100
AcDbEntity
  8
寸法
  6
CONTINUOUS
 62
     1
100
AcDbLine
 10
28.780173
 20
-45.737503
 30
0.0
 11
28.780173
 21
-61.0
 31
0.0
1001
ACAD
1000
RTLwPs
1070
   158
  0
LINE
  5
216
100
AcDbEntity
  8
寸法
  6
CONTINUOUS
 62
     1
100
AcDbLine
 10
32.780173
 20
-60.0
 30
0.0
 11
34.780173
 21
-60.0
 31
0.0
1001
ACAD
1000
RTLwPs
1070
   158
  0
LINE
  5
217
100
AcDbEntity
  8
寸法
  6
CONTINUOUS
 62
     1
100
AcDbLine
 10
26.780173
 20
-60.0
 30
0.0
 11
20.780173
 21
-60.0
 31
0.0
1001
ACAD
1000
RTLwPs
1070
   158
  0
LINE
  5
218
100
AcDbEntity
  8
寸法
  6
CONTINUOUS
 62
     1
100
AcDbLine
 10
30.780173
 20
-60.0
 30
0.0
 11
28.780173
 21
-60.0
 31
0.0
1001
ACAD
1000
RTLwPs
1070
   158
  0
INSERT
  5
219
100
AcDbEntity
  8
寸法
  6
CONTINUOUS
 62
     1
100
AcDbBlockReference
  2
_OPEN30
 10
30.780173
 20
-60.0
 30
0.0
 41
2.0
 42
2.0
 43
2.0
 50
180.0
1001
ACAD
1000
RTLwPs
1070
   158
  0
INSERT
  5
21A
100
AcDbEntity
  8
寸法
  6
CONTINUOUS
 62
     1
100
AcDbBlockReference
  2
_OPEN30
 10
28.780173
 20
-60.0
 30
0.0
 41
2.0
 42
2.0
 43
2.0
1001
ACAD
1000
RTLwPs
1070
   158
  0
MTEXT
  5
21B
100
AcDbEntity
  8
寸法
  6
CONTINUOUS
 62
     1
100
AcDbMText
 10
22.780173
 20
-57.5
 30
0.0
 40
3.0
 41
0.0
 71
     5
 72
     1
  1
\A1;2
1001
ACAD
1000
MTEXTBEGIN
1070
    73
1070
     1
1070
    44
1040
1.0
1070
    74
1070
     0
1000
MTEXTEND
1000
MTEXTBEGIN
1070
    73
1070
     1
1070
    44
1040
1.0
1070
    74
1070
     0
1000
MTEXTEND
  0
POINT
  5
21C
100
AcDbEntity
  8
DEFPOINTS
  6
CONTINUOUS
 62
     0
100
AcDbPoint
 10
30.780173
 20
-44.47084
 30
0.0
  0
POINT
  5
21D
100
AcDbEntity
  8
DEFPOINTS
  6
CONTINUOUS
 62
     0
100
AcDbPoint
 10
28.780173
 20
-44.737503
 30
0.0
  0
POINT
  5
21E
100
AcDbEntity
  8
DEFPOINTS
  6
CONTINUOUS
 62
     0
100
AcDbPoint
 10
28.780173
 20
-60.0
 30
0.0
  0
ENDBLK
  5
220
100
AcDbEntity
  8
0
100
AcDbBlockEnd
  0
BLOCK
  5
22C
100
AcDbEntity
  8
0
100
AcDbBlockBegin
  2
*D5
 70
     1
 10
0.0
 20
0.0
 30
0.0
  3
*D5
  1

  0
LINE
  5
223
100
AcDbEntity
  8
寸法
  6
CONTINUOUS
 62
     1
100
AcDbLine
 10
49.780173
 20
-39.5
 30
0.0
 11
49.780173
 21
-19.0
 31
0.0
1001
ACAD
1000
RTLwPs
1070
   158
  0
LINE
  5
224
100
AcDbEntity
  8
寸法
  6
CONTINUOUS
 62
     1
100
AcDbLine
 10
29.780173
 20
-29.088745
 30
0.0
 11
29.780173
 21
-19.0
 31
0.0
1001
ACAD
1000
RTLwPs
1070
   158
  0
LINE
  5
225
100
AcDbEntity
  8
寸法
  6
CONTINUOUS
 62
     1
100
AcDbLine
 10
47.780173
 20
-20.0
 30
0.0
 11
31.780173
 21
-20.0
 31
0.0
1001
ACAD
1000
RTLwPs
1070
   158
  0
INSERT
  5
226
100
AcDbEntity
  8
寸法
  6
CONTINUOUS
 62
     1
100
AcDbBlockReference
  2
_OPEN30
 10
49.780173
 20
-20.0
 30
0.0
 41
2.0
 42
2.0
 43
2.0
1001
ACAD
1000
RTLwPs
1070
   158
  0
INSERT
  5
227
100
AcDbEntity
  8
寸法
  6
CONTINUOUS
 62
     1
100
AcDbBlockReference
  2
_OPEN30
 10
29.780173
 20
-20.0
 30
0.0
 41
2.0
 42
2.0
 43
2.0
 50
180.0
1001
ACAD
1000
RTLwPs
1070
   158
  0
MTEXT
  5
228
100
AcDbEntity
  8
寸法
  6
CONTINUOUS
 62
     1
100
AcDbMText
 10
39.780173
 20
-17.5
 30
0.0
 40
3.0
 41
0.0
 71
     5
 72
     1
  1
\A1;20
1001
ACAD
1000
MTEXTBEGIN
1070
    73
1070
     1
1070
    44
1040
1.0
1070
    74
1070
     0
1000
MTEXTEND
1000
MTEXTBEGIN
1070
    73
1070
     1
1070
    44
1040
1.0
1070
    74
1070
     0
1000
MTEXTEND
  0
POINT
  5
229
100
AcDbEntity
  8
DEFPOINTS
  6
CONTINUOUS
 62
     0
100
AcDbPoint
 10
49.780173
 20
-40.5
 30
0.0
  0
POINT
  5
22A
100
AcDbEntity
  8
DEFPOINTS
  6
CONTINUOUS
 62
     0
100
AcDbPoint
 10
29.780173
 20
-30.088745
 30
0.0
  0
POINT
  5
22B
100
AcDbEntity
  8
DEFPOINTS
  6
CONTINUOUS
 62
     0
100
AcDbPoint
 10
29.780173
 20
-20.0
 30
0.0
  0
ENDBLK
  5
22D
100
AcDbEntity
  8
0
100
AcDbBlockEnd
  0
BLOCK
  5
239
100
AcDbEntity
  8
0
100
AcDbBlockBegin
  2
*D6
 70
     1
 10
0.0
 20
0.0
 30
0.0
  3
*D6
  1

  0
LINE
  5
230
100
AcDbEntity
  8
寸法
  6
CONTINUOUS
 62
     1
100
AcDbLine
 10
42.780173
 20
26.637035
 30
0.0
 11
61.0
 21
26.637035
 31
0.0
1001
ACAD
1000
RTLwPs
1070
   158
  0
LINE
  5
231
100
AcDbEntity
  8
寸法
  6
CONTINUOUS
 62
     1
100
AcDbLine
 10
42.780173
 20
10.637035
 30
0.0
 11
61.0
 21
10.637035
 31
0.0
1001
ACAD
1000
RTLwPs
1070
   158
  0
LINE
  5
232
100
AcDbEntity
  8
寸法
  6
CONTINUOUS
 62
     1
100
AcDbLine
 10
60.0
 20
24.637035
 30
0.0
 11
60.0
 21
12.637035
 31
0.0
1001
ACAD
1000
RTLwPs
1070
   158
  0
INSERT
  5
233
100
AcDbEntity
  8
寸法
  6
CONTINUOUS
 62
     1
100
AcDbBlockReference
  2
_OPEN30
 10
60.0
 20
26.637035
 30
0.0
 41
2.0
 42
2.0
 43
2.0
 50
90.0
1001
ACAD
1000
RTLwPs
1070
   158
  0
INSERT
  5
234
100
AcDbEntity
  8
寸法
  6
CONTINUOUS
 62
     1
100
AcDbBlockReference
  2
_OPEN30
 10
60.0
 20
10.637035
 30
0.0
 41
2.0
 42
2.0
 43
2.0
 50
270.0
1001
ACAD
1000
RTLwPs
1070
   158
  0
MTEXT
  5
235
100
AcDbEntity
  8
寸法
  6
CONTINUOUS
 62
     1
100
AcDbMText
 10
57.5
 20
18.637035
 30
0.0
 40
3.0
 41
0.0
 71
     5
 72
     1
  1
\A1;16
 11
0.0
 21
1.0
 31
0.0
1001
ACAD
1000
MTEXTBEGIN
1070
    73
1070
     1
1070
    44
1040
1.0
1070
    74
1070
     0
1000
MTEXTEND
1000
MTEXTBEGIN
1070
    73
1070
     1
1070
    44
1040
1.0
1070
    74
1070
     0
1000
MTEXTEND
  0
POINT
  5
236
100
AcDbEntity
  8
DEFPOINTS
  6
CONTINUOUS
 62
     0
100
AcDbPoint
 10
41.780173
 20
26.637035
 30
0.0
  0
POINT
  5
237
100
AcDbEntity
  8
DEFPOINTS
  6
CONTINUOUS
 62
     0
100
AcDbPoint
 10
41.780173
 20
10.637035
 30
0.0
  0
POINT
  5
238
100
AcDbEntity
  8
DEFPOINTS
  6
CONTINUOUS
 62
     0
100
AcDbPoint
 10
60.0
 20
10.637035
 30
0.0
  0
ENDBLK
  5
23A
100
AcDbEntity
  8
0
100
AcDbBlockEnd
  0
BLOCK
  5
246
100
AcDbEntity
  8
0
100
AcDbBlockBegin
  2
*D7
 70
     1
 10
0.0
 20
0.0
 30
0.0
  3
*D7
  1

  0
LINE
  5
23D
100
AcDbEntity
  8
寸法
  6
CONTINUOUS
 62
     1
100
AcDbLine
 10
-5.219827
 20
26.637035
 30
0.0
 11
-21.0
 21
26.637035
 31
0.0
1001
ACAD
1000
RTLwPs
1070
   158
  0
LINE
  5
23E
100
AcDbEntity
  8
寸法
  6
CONTINUOUS
 62
     1
100
AcDbLine
 10
-6.219827
 20
6.637035
 30
0.0
 11
-21.0
 21
6.637035
 31
0.0
1001
ACAD
1000
RTLwPs
1070
   158
  0
LINE
  5
23F
100
AcDbEntity
  8
寸法
  6
CONTINUOUS
 62
     1
100
AcDbLine
 10
-20.0
 20
24.637035
 30
0.0
 11
-20.0
 21
8.637035
 31
0.0
1001
ACAD
1000
RTLwPs
1070
   158
  0
INSERT
  5
240
100
AcDbEntity
  8
寸法
  6
CONTINUOUS
 62
     1
100
AcDbBlockReference
  2
_OPEN30
 10
-20.0
 20
26.637035
 30
0.0
 41
2.0
 42
2.0
 43
2.0
 50
90.0
1001
ACAD
1000
RTLwPs
1070
   158
  0
INSERT
  5
241
100
AcDbEntity
  8
寸法
  6
CONTINUOUS
 62
     1
100
AcDbBlockReference
  2
_OPEN30
 10
-20.0
 20
6.637035
 30
0.0
 41
2.0
 42
2.0
 43
2.0
 50
270.0
1001
ACAD
1000
RTLwPs
1070
   158
  0
MTEXT
  5
242
100
AcDbEntity
  8
寸法
  6
CONTINUOUS
 62
     1
100
AcDbMText
 10
-22.5
 20
16.637035
 30
0.0
 40
3.0
 41
0.0
 71
     5
 72
     1
  1
\A1;20
 11
0.0
 21
1.0
 31
0.0
1001
ACAD
1000
MTEXTBEGIN
1070
    73
1070
     1
1070
    44
1040
1.0
1070
    74
1070
     0
1000
MTEXTEND
1000
MTEXTBEGIN
1070
    73
1070
     1
1070
    44
1040
1.0
1070
    74
1070
     0
1000
MTEXTEND
  0
POINT
  5
243
100
AcDbEntity
  8
DEFPOINTS
  6
CONTINUOUS
 62
     0
100
AcDbPoint
 10
-4.219827
 20
26.637035
 30
0.0
  0
POINT
  5
244
100
AcDbEntity
  8
DEFPOINTS
  6
CONTINUOUS
 62
     0
100
AcDbPoint
 10
-5.219827
 20
6.637035
 30
0.0
  0
POINT
  5
245
100
AcDbEntity
  8
DEFPOINTS
  6
CONTINUOUS
 62
     0
100
AcDbPoint
 10
-20.0
 20
6.637035
 30
0.0
  0
ENDBLK
  5
247
100
AcDbEntity
  8
0
100
AcDbBlockEnd
  0
BLOCK
  5
253
100
AcDbEntity
  8
0
100
AcDbBlockBegin
  2
*D8
 70
     1
 10
0.0
 20
0.0
 30
0.0
  3
*D8
  1

  0
LINE
  5
24A
100
AcDbEntity
  8
寸法
  6
CONTINUOUS
 62
     1
100
AcDbLine
 10
49.780173
 20
15.637035
 30
0.0
 11
49.780173
 21
-11.0
 31
0.0
1001
ACAD
1000
RTLwPs
1070
   158
  0
LINE
  5
24B
100
AcDbEntity
  8
寸法
  6
CONTINUOUS
 62
     1
100
AcDbLine
 10
-5.219827
 20
5.637035
 30
0.0
 11
-5.219827
 21
-11.0
 31
0.0
1001
ACAD
1000
RTLwPs
1070
   158
  0
LINE
  5
24C
100
AcDbEntity
  8
寸法
  6
CONTINUOUS
 62
     1
100
AcDbLine
 10
47.780173
 20
-10.0
 30
0.0
 11
-3.219827
 21
-10.0
 31
0.0
1001
ACAD
1000
RTLwPs
1070
   158
  0
INSERT
  5
24D
100
AcDbEntity
  8
寸法
  6
CONTINUOUS
 62
     1
100
AcDbBlockReference
  2
_OPEN30
 10
49.780173
 20
-10.0
 30
0.0
 41
2.0
 42
2.0
 43
2.0
1001
ACAD
1000
RTLwPs
1070
   158
  0
INSERT
  5
24E
100
AcDbEntity
  8
寸法
  6
CONTINUOUS
 62
     1
100
AcDbBlockReference
  2
_OPEN30
 10
-5.219827
 20
-10.0
 30
0.0
 41
2.0
 42
2.0
 43
2.0
 50
180.0
1001
ACAD
1000
RTLwPs
1070
   158
  0
MTEXT
  5
24F
100
AcDbEntity
  8
寸法
  6
CONTINUOUS
 62
     1
100
AcDbMText
 10
22.280173
 20
-7.5
 30
0.0
 40
3.0
 41
0.0
 71
     5
 72
     1
  1
\A1;55
1001
ACAD
1000
MTEXTBEGIN
1070
    73
1070
     1
1070
    44
1040
1.0
1070
    74
1070
     0
1000
MTEXTEND
1000
MTEXTBEGIN
1070
    73
1070
     1
1070
    44
1040
1.0
1070
    74
1070
     0
1000
MTEXTEND
  0
POINT
  5
250
100
AcDbEntity
  8
DEFPOINTS
  6
CONTINUOUS
 62
     0
100
AcDbPoint
 10
49.780173
 20
16.637035
 30
0.0
  0
POINT
  5
251
100
AcDbEntity
  8
DEFPOINTS
  6
CONTINUOUS
 62
     0
100
AcDbPoint
 10
-5.219827
 20
6.637035
 30
0.0
  0
POINT
  5
252
100
AcDbEntity
  8
DEFPOINTS
  6
CONTINUOUS
 62
     0
100
AcDbPoint
 10
-5.219827
 20
-10.0
 30
0.0
  0
ENDBLK
  5
254
100
AcDbEntity
  8
0
100
AcDbBlockEnd
  0
BLOCK
  5
260
100
AcDbEntity
  8
0
100
AcDbBlockBegin
  2
*D9
 70
     1
 10
0.0
 20
0.0
 30
0.0
  3
*D9
  1

  0
LINE
  5
331
100
AcDbEntity
  8
寸法
  6
CONTINUOUS
 62
     1
100
AcDbLine
 10
49.780173
 20
15.637035
 30
0.0
 11
49.780173
 21
-1.0
 31
0.0
  0
LINE
  5
332
100
AcDbEntity
  8
寸法
  6
CONTINUOUS
 62
     1
100
AcDbLine
 10
41.780173
 20
9.637035
 30
0.0
 11
41.780173
 21
-1.0
 31
0.0
  0
LINE
  5
333
100
AcDbEntity
  8
寸法
  6
CONTINUOUS
 62
     1
100
AcDbLine
 10
47.780173
 20
0.0
 30
0.0
 11
43.780173
 21
0.0
 31
0.0
  0
INSERT
  5
334
100
AcDbEntity
  8
寸法
  6
CONTINUOUS
 62
     1
100
AcDbBlockReference
  2
_OPEN30
 10
49.780173
 20
0.0
 30
0.0
 41
2.0
 42
2.0
 43
2.0
  0
INSERT
  5
335
100
AcDbEntity
  8
寸法
  6
CONTINUOUS
 62
     1
100
AcDbBlockReference
  2
_OPEN30
 10
41.780173
 20
0.0
 30
0.0
 41
2.0
 42
2.0
 43
2.0
 50
180.0
  0
MTEXT
  5
336
100
AcDbEntity
  8
寸法
  6
CONTINUOUS
 62
     1
100
AcDbMText
 10
45.780173
 20
2.5
 30
0.0
 40
3.0
 41
0.0
 71
     5
 72
     1
  1
\A1;8
  0
POINT
  5
337
100
AcDbEntity
  8
DEFPOINTS
  6
CONTINUOUS
 62
     0
100
AcDbPoint
 10
49.780173
 20
16.637035
 30
0.0
  0
POINT
  5
338
100
AcDbEntity
  8
DEFPOINTS
  6
CONTINUOUS
 62
     0
100
AcDbPoint
 10
41.780173
 20
10.637035
 30
0.0
  0
POINT
  5
339
100
AcDbEntity
  8
DEFPOINTS
  6
CONTINUOUS
 62
     0
100
AcDbPoint
 10
41.780173
 20
0.0
 30
0.0
  0
ENDBLK
  5
261
100
AcDbEntity
  8
0
100
AcDbBlockEnd
  0
BLOCK
  5
277
100
AcDbEntity
  8
0
100
AcDbBlockBegin
  2
*D10
 70
     1
 10
0.0
 20
0.0
 30
0.0
  3
*D10
  1

  0
LINE
  5
33A
100
AcDbEntity
  8
寸法
  6
CONTINUOUS
 62
     1
100
AcDbLine
 10
-5.219827
 20
5.637035
 30
0.0
 11
-5.219827
 21
-6.764651
 31
0.0
  0
ARC
  5
33B
100
AcDbEntity
  8
寸法
  6
CONTINUOUS
 62
     1
100
AcDbCircle
 10
-5.219827
 20
6.637035
 30
0.0
 40
12.401686
100
AcDbArc
 50
279.250041
 51
350.749957
  0
INSERT
  5
33C
100
AcDbEntity
  8
寸法
  6
CONTINUOUS
 62
     1
100
AcDbBlockReference
  2
_OPEN30
 10
-5.219827
 20
-5.764651
 30
0.0
 41
2.0
 42
2.0
 43
2.0
 50
184.62502
  0
INSERT
  5
33D
100
AcDbEntity
  8
寸法
  6
CONTINUOUS
 62
     1
100
AcDbBlockReference
  2
_OPEN30
 10
7.181859
 20
6.637034
 30
0.0
 41
2.0
 42
2.0
 43
2.0
 50
85.374977
  0
MTEXT
  5
33E
100
AcDbEntity
  8
寸法
  6
CONTINUOUS
 62
     1
100
AcDbMText
 10
1.781722
 20
-0.364514
 30
0.0
 40
3.0
 41
0.0
 71
     5
 72
     1
  1
\A1;90°
 11
0.707107
 21
0.707107
 31
0.0
  0
POINT
  5
33F
100
AcDbEntity
  8
DEFPOINTS
  6
CONTINUOUS
 62
     0
100
AcDbPoint
 10
0.981016
 20
-4.10314
 30
0.0
  0
POINT
  5
340
100
AcDbEntity
  8
DEFPOINTS
  6
CONTINUOUS
 62
     0
100
AcDbPoint
 10
-5.219827
 20
7.437035
 30
0.0
  0
POINT
  5
341
100
AcDbEntity
  8
DEFPOINTS
  6
CONTINUOUS
 62
     0
100
AcDbPoint
 10
9.306674
 20
6.637034
 30
0.0
  0
POINT
  5
342
100
AcDbEntity
  8
DEFPOINTS
  6
CONTINUOUS
 62
     0
100
AcDbPoint
 10
-4.419827
 20
6.637035
 30
0.0
  0
POINT
  5
343
100
AcDbEntity
  8
DEFPOINTS
  6
CONTINUOUS
 62
     0
100
AcDbPoint
 10
-5.219827
 20
6.637035
 30
0.0
  0
ENDBLK
  5
278
100
AcDbEntity
  8
0
100
AcDbBlockEnd
  0
BLOCK
  5
284
100
AcDbEntity
  8
0
100
AcDbBlockBegin
  2
*D11
 70
     1
 10
0.0
 20
0.0
 30
0.0
  3
*D11
  1

  0
LINE
  5
2B6
100
AcDbEntity
  8
寸法
  6
CONTINUOUS
 62
     1
100
AcDbLine
 10
-77.864794
 20
18.265716
 30
0.0
 11
-67.080652
 21
22.259747
 31
0.0
1001
ACAD
1000
RTLwPs
1070
   158
  0
MTEXT
  5
2B7
100
AcDbEntity
  8
寸法
  6
CONTINUOUS
 62
     1
100
AcDbMText
 10
-74.278742
 20
22.259803
 30
0.0
 40
3.0
 41
0.0
 71
     5
 72
     1
  1
\A1;%%c50
 11
0.937751
 21
0.347307
 31
0.0
1001
ACAD
1000
MTEXTBEGIN
1070
    73
1070
     1
1070
    44
1040
1.0
1070
    74
1070
     0
1000
MTEXTEND
1000
MTEXTBEGIN
1070
    73
1070
     1
1070
    44
1040
1.0
1070
    74
1070
     0
1000
MTEXTEND
  0
LINE
  5
2B8
100
AcDbEntity
  8
寸法
  6
CONTINUOUS
 62
     1
100
AcDbLine
 10
-41.761361
 20
31.637035
 30
0.0
 11
-65.205149
 21
22.954361
 31
0.0
1001
ACAD
1000
RTLwPs
1070
   158
  0
INSERT
  5
2B9
100
AcDbEntity
  8
寸法
  6
CONTINUOUS
 62
     1
100
AcDbBlockReference
  2
_OPEN30
 10
-65.205149
 20
22.954361
 30
0.0
 41
2.0
 42
2.0
 43
2.0
 50
20.322687
1001
ACAD
1000
RTLwPs
1070
   158
  0
POINT
  5
2BA
100
AcDbEntity
  8
DEFPOINTS
  6
CONTINUOUS
 62
     0
100
AcDbPoint
 10
-65.205149
 20
22.954361
 30
0.0
  0
POINT
  5
2BB
100
AcDbEntity
  8
DEFPOINTS
  6
CONTINUOUS
 62
     0
100
AcDbPoint
 10
-41.761361
 20
31.637035
 30
0.0
  0
ENDBLK
  5
285
100
AcDbEntity
  8
0
100
AcDbBlockEnd
  0
BLOCK
  5
297
100
AcDbEntity
  8
0
100
AcDbBlockBegin
  2
*D12
 70
     1
 10
0.0
 20
0.0
 30
0.0
  3
*D12
  1

  0
LINE
  5
29A
100
AcDbEntity
  8
寸法
  6
CONTINUOUS
 62
     1
100
AcDbLine
 10
-11.595288
 20
-64.966534
 30
0.0
 11
-1.371879
 21
-58.68307
 31
0.0
1001
ACAD
1000
RTLwPs
1070
   158
  0
MTEXT
  5
29B
100
AcDbEntity
  8
寸法
  6
CONTINUOUS
 62
     1
100
AcDbMText
 10
-8.644589
 20
-60.218547
 30
0.0
 40
3.0
 41
0.0
 71
     5
 72
     1
  1
\A1;%%c75
 11
0.851951
 21
0.523622
 31
0.0
1001
ACAD
1000
MTEXTBEGIN
1070
    73
1070
     1
1070
    44
1040
1.0
1070
    74
1070
     0
1000
MTEXTEND
1000
MTEXTBEGIN
1070
    73
1070
     1
1070
    44
1040
1.0
1070
    74
1070
     0
1000
MTEXTEND
  0
LINE
  5
29C
100
AcDbEntity
  8
寸法
  6
CONTINUOUS
 62
     1
100
AcDbLine
 10
32.280173
 20
-38.0
 30
0.0
 11
0.332022
 21
-57.635826
 31
0.0
1001
ACAD
1000
RTLwPs
1070
   158
  0
INSERT
  5
29D
100
AcDbEntity
  8
寸法
  6
CONTINUOUS
 62
     1
100
AcDbBlockReference
  2
_OPEN30
 10
0.332022
 20
-57.635826
 30
0.0
 41
2.0
 42
2.0
 43
2.0
 50
31.575524
1001
ACAD
1000
RTLwPs
1070
   158
  0
POINT
  5
29E
100
AcDbEntity
  8
DEFPOINTS
  6
CONTINUOUS
 62
     0
100
AcDbPoint
 10
0.332022
 20
-57.635826
 30
0.0
  0
POINT
  5
29F
100
AcDbEntity
  8
DEFPOINTS
  6
CONTINUOUS
 62
     0
100
AcDbPoint
 10
32.280173
 20
-38.0
 30
0.0
  0
ENDBLK
  5
298
100
AcDbEntity
  8
0
100
AcDbBlockEnd
  0
ENDSEC
  0
SECTION
  2
ENTITIES
  0
POINT
  5
24
100
AcDbEntity
  8
0
  6
CONTINUOUS
 62
     7
100
AcDbPoint
 10
-41.761361
 20
6.637035
 30
0.0
  0
POINT
  5
25
100
AcDbEntity
  8
0
  6
CONTINUOUS
 62
     7
100
AcDbPoint
 10
-5.219827
 20
6.637035
 30
0.0
  0
POINT
  5
26
100
AcDbEntity
  8
0
  6
CONTINUOUS
 62
     7
100
AcDbPoint
 10
-5.219827
 20
-38.0
 30
0.0
  0
POINT
  5
27
100
AcDbEntity
  8
0
  6
CONTINUOUS
 62
     7
100
AcDbPoint
 10
87.793768
 20
-50.0
 30
0.0
  0
LINE
  5
28
100
AcDbEntity
  8
0
  6
CONTINUOUS
 62
     7
100
AcDbLine
 10
9.306674
 20
6.637034
 30
0.0
 11
-4.419827
 21
6.637035
 31
0.0
  0
LINE
  5
29
100
AcDbEntity
  8
0
  6
CONTINUOUS
 62
     7
100
AcDbLine
 10
41.780173
 20
26.637035
 30
0.0
 11
41.780173
 21
10.637035
 31
0.0
  0
LINE
  5
2A
100
AcDbEntity
  8
0
  6
CENTER
 62
     1
 48
0.5
100
AcDbLine
 10
39.537741
 20
-42.5
 30
0.0
 11
51.361334
 21
-42.5
 31
0.0
  0
LINE
  5
2B
100
AcDbEntity
  8
0
  6
CONTINUOUS
 62
     7
100
AcDbLine
 10
49.780173
 20
-40.5
 30
0.0
 11
49.780173
 21
-44.5
 31
0.0
  0
LINE
  5
2C
100
AcDbEntity
  8
0
  6
CONTINUOUS
 62
     7
100
AcDbLine
 10
44.780173
 20
-38.5
 30
0.0
 11
44.780173
 21
-46.5
 31
0.0
  0
LINE
  5
2D
100
AcDbEntity
  8
0
  6
CONTINUOUS
 62
     7
100
AcDbLine
 10
47.280177
 20
-47.000008
 30
0.0
 11
49.780177
 21
-44.500004
 31
0.0
  0
LINE
  5
2E
100
AcDbEntity
  8
0
  6
CONTINUOUS
 62
     7
100
AcDbLine
 10
47.280173
 20
-38.0
 30
0.0
 11
49.780177
 21
-40.500004
 31
0.0
  0
LINE
  5
2F
100
AcDbEntity
  8
0
  6
CONTINUOUS
 62
     7
100
AcDbLine
 10
45.280173
 20
-38.0
 30
0.0
 11
47.280173
 21
-38.0
 31
0.0
  0
LINE
  5
30
100
AcDbEntity
  8
0
  6
CONTINUOUS
 62
     7
100
AcDbLine
 10
45.280173
 20
-47.0
 30
0.0
 11
47.280173
 21
-47.0
 31
0.0
  0
LINE
  5
31
100
AcDbEntity
  8
0
  6
CONTINUOUS
 62
     7
100
AcDbLine
 10
44.780177
 20
-46.500004
 30
0.0
 11
45.280165
 21
-46.999992
 31
0.0
  0
LINE
  5
32
100
AcDbEntity
  8
0
  6
CONTINUOUS
 62
     7
100
AcDbLine
 10
44.780173
 20
-38.5
 30
0.0
 11
45.280173
 21
-38.0
 31
0.0
  0
LINE
  5
33
100
AcDbEntity
  8
0
  6
CONTINUOUS
 62
     7
100
AcDbLine
 10
45.280173
 20
-47.0
 30
0.0
 11
45.280173
 21
-38.0
 31
0.0
  0
LINE
  5
34
100
AcDbEntity
  8
0
  6
CONTINUOUS
 62
     7
100
AcDbLine
 10
47.280173
 20
-38.0
 30
0.0
 11
47.280173
 21
-47.0
 31
0.0
  0
LINE
  5
35
100
AcDbEntity
  8
0
  6
CONTINUOUS
 62
     7
100
AcDbLine
 10
41.780173
 20
-40.0
 30
0.0
 11
44.780173
 21
-40.0
 31
0.0
  0
LINE
  5
36
100
AcDbEntity
  8
0
  6
CONTINUOUS
 62
     7
100
AcDbLine
 10
41.780173
 20
-45.0
 30
0.0
 11
44.780173
 21
-45.0
 31
0.0
  0
LINE
  5
37
100
AcDbEntity
  8
0
  6
CONTINUOUS
 62
     7
100
AcDbLine
 10
43.280173
 20
-40.25
 30
0.0
 11
43.280173
 21
-44.75
 31
0.0
  0
LINE
  5
38
100
AcDbEntity
  8
0
  6
CONTINUOUS
 62
     7
100
AcDbLine
 10
41.780173
 20
-44.75
 30
0.0
 11
43.280173
 21
-44.75
 31
0.0
  0
LINE
  5
39
100
AcDbEntity
  8
0
  6
CONTINUOUS
 62
     7
100
AcDbLine
 10
41.780173
 20
-40.25
 30
0.0
 11
43.280173
 21
-40.25
 31
0.0
  0
LINE
  5
3A
100
AcDbEntity
  8
0
  6
CONTINUOUS
 62
     7
100
AcDbLine
 10
43.280165
 20
-40.249992
 30
0.0
 11
43.713179
 21
-39.999992
 31
0.0
  0
LINE
  5
3B
100
AcDbEntity
  8
0
  6
CONTINUOUS
 62
     7
100
AcDbLine
 10
43.280169
 20
-44.75
 30
0.0
 11
43.713183
 21
-45.0
 31
0.0
  0
LINE
  5
3C
100
AcDbEntity
  8
0
  6
CONTINUOUS
 62
     7
100
AcDbLine
 10
-53.761361
 20
25.637035
 30
0.0
 11
-53.761361
 21
10.701189
 31
0.0
  0
LINE
  5
3D
100
AcDbEntity
  8
0
  6
CENTER
 62
     1
 48
0.5
100
AcDbLine
 10
39.537741
 20
18.637035
 30
0.0
 11
51.361334
 21
18.637035
 31
0.0
  0
LINE
  5
3E
100
AcDbEntity
  8
0
  6
CONTINUOUS
 62
     7
100
AcDbLine
 10
49.780173
 20
20.637035
 30
0.0
 11
49.780173
 21
16.637035
 31
0.0
  0
LINE
  5
3F
100
AcDbEntity
  8
0
  6
CONTINUOUS
 62
     7
100
AcDbLine
 10
44.780173
 20
22.637035
 30
0.0
 11
44.780173
 21
14.637035
 31
0.0
  0
LINE
  5
40
100
AcDbEntity
  8
0
  6
CONTINUOUS
 62
     7
100
AcDbLine
 10
47.280165
 20
14.137043
 30
0.0
 11
49.780158
 21
16.637035
 31
0.0
  0
LINE
  5
41
100
AcDbEntity
  8
0
  6
CONTINUOUS
 62
     7
100
AcDbLine
 10
47.280165
 20
23.137031
 30
0.0
 11
49.780158
 21
20.63704
 31
0.0
  0
LINE
  5
42
100
AcDbEntity
  8
0
  6
CONTINUOUS
 62
     7
100
AcDbLine
 10
45.280173
 20
23.137035
 30
0.0
 11
47.280173
 21
23.137035
 31
0.0
  0
LINE
  5
43
100
AcDbEntity
  8
0
  6
CONTINUOUS
 62
     7
100
AcDbLine
 10
45.280173
 20
14.137035
 30
0.0
 11
47.280173
 21
14.137035
 31
0.0
  0
LINE
  5
44
100
AcDbEntity
  8
0
  6
CONTINUOUS
 62
     7
100
AcDbLine
 10
44.780173
 20
14.637035
 30
0.0
 11
45.280173
 21
14.137034
 31
0.0
  0
LINE
  5
45
100
AcDbEntity
  8
0
  6
CONTINUOUS
 62
     7
100
AcDbLine
 10
44.780162
 20
22.637028
 30
0.0
 11
45.280162
 21
23.137029
 31
0.0
  0
LINE
  5
46
100
AcDbEntity
  8
0
  6
CONTINUOUS
 62
     7
100
AcDbLine
 10
45.280173
 20
14.137035
 30
0.0
 11
45.280173
 21
23.137035
 31
0.0
  0
LINE
  5
47
100
AcDbEntity
  8
0
  6
CONTINUOUS
 62
     7
100
AcDbLine
 10
47.280173
 20
23.137035
 30
0.0
 11
47.280173
 21
14.137035
 31
0.0
  0
LINE
  5
48
100
AcDbEntity
  8
0
  6
CONTINUOUS
 62
     7
100
AcDbLine
 10
41.780173
 20
21.137035
 30
0.0
 11
44.780173
 21
21.137035
 31
0.0
  0
LINE
  5
49
100
AcDbEntity
  8
0
  6
CONTINUOUS
 62
     7
100
AcDbLine
 10
41.780173
 20
16.137035
 30
0.0
 11
44.780173
 21
16.137035
 31
0.0
  0
LINE
  5
4A
100
AcDbEntity
  8
0
  6
CONTINUOUS
 62
     7
100
AcDbLine
 10
43.280173
 20
20.887035
 30
0.0
 11
43.280173
 21
16.387035
 31
0.0
  0
LINE
  5
4B
100
AcDbEntity
  8
0
  6
CONTINUOUS
 62
     7
100
AcDbLine
 10
41.780173
 20
16.387035
 30
0.0
 11
43.280173
 21
16.387035
 31
0.0
  0
LINE
  5
4C
100
AcDbEntity
  8
0
  6
CONTINUOUS
 62
     7
100
AcDbLine
 10
41.780173
 20
20.887035
 30
0.0
 11
43.280173
 21
20.887035
 31
0.0
  0
LINE
  5
4D
100
AcDbEntity
  8
0
  6
CONTINUOUS
 62
     7
100
AcDbLine
 10
43.280169
 20
20.887033
 30
0.0
 11
43.713183
 21
21.137033
 31
0.0
  0
LINE
  5
4E
100
AcDbEntity
  8
0
  6
CONTINUOUS
 62
     7
100
AcDbLine
 10
43.280165
 20
16.387031
 30
0.0
 11
43.713179
 21
16.137031
 31
0.0
  0
LINE
  5
4F
100
AcDbEntity
  8
0
  6
CONTINUOUS
 62
     7
100
AcDbLine
 10
41.780173
 20
-34.5
 30
0.0
 11
41.780173
 21
-50.0
 31
0.0
  0
LINE
  5
50
100
AcDbEntity
  8
0
  6
CENTER
 62
     1
 48
0.5
100
AcDbLine
 10
29.780173
 20
17.44829
 30
0.0
 11
29.780173
 21
7.514957
 31
0.0
  0
LINE
  5
51
100
AcDbEntity
  8
0
  6
CENTER
 62
     1
 48
0.5
100
AcDbLine
 10
28.780173
 20
-31.355408
 30
0.0
 11
28.780173
 21
-44.737503
 31
0.0
  0
LINE
  5
52
100
AcDbEntity
  8
0
  6
CENTER
 62
     1
 48
0.5
100
AcDbLine
 10
29.780173
 20
-30.088745
 30
0.0
 11
29.780173
 21
-45.870834
 31
0.0
  0
LINE
  5
53
100
AcDbEntity
  8
0
  6
CENTER
 62
     1
 48
0.5
100
AcDbLine
 10
30.780173
 20
-31.422073
 30
0.0
 11
30.780173
 21
-44.47084
 31
0.0
  0
LINE
  5
54
100
AcDbEntity
  8
0
  6
CONTINUOUS
 62
     7
100
AcDbLine
 10
87.793768
 20
-35.5
 30
0.0
 11
87.793768
 21
-50.0
 31
0.0
  0
LINE
  5
55
100
AcDbEntity
  8
0
  6
CONTINUOUS
 62
     7
100
AcDbLine
 10
87.793768
 20
-50.0
 30
0.0
 11
102.793749
 21
-50.0
 31
0.0
  0
LINE
  5
56
100
AcDbEntity
  8
0
  6
CENTER
 62
     1
 48
0.5
100
AcDbLine
 10
85.96913
 20
-37.512363
 30
0.0
 11
107.890128
 21
-45.490952
 31
0.0
  0
LINE
  5
57
100
AcDbEntity
  8
0
  6
CONTINUOUS
 62
     7
100
AcDbLine
 10
95.484907
 20
-37.251198
 30
0.0
 11
103.793768
 21
-40.275375
 31
0.0
  0
LINE
  5
58
100
AcDbEntity
  8
0
  6
CONTINUOUS
 62
     7
100
AcDbLine
 10
93.090765
 20
-43.829048
 30
0.0
 11
103.793768
 21
-47.724621
 31
0.0
  0
LINE
  5
59
100
AcDbEntity
  8
0
  6
CONTINUOUS
 62
     7
100
AcDbLine
 10
93.042708
 20
-34.5
 30
0.0
 11
96.083448
 21
-35.606739
 31
0.0
  0
LINE
  5
5A
100
AcDbEntity
  8
0
  6
CONTINUOUS
 62
     7
100
AcDbLine
 10
87.793768
 20
-43.763409
 30
0.0
 11
92.492231
 21
-45.473511
 31
0.0
  0
LINE
  5
5B
100
AcDbEntity
  8
0
  6
CONTINUOUS
 62
     7
100
AcDbLine
 10
96.083448
 20
-35.606739
 30
0.0
 11
92.492231
 21
-45.473511
 31
0.0
  0
LINE
  5
5C
100
AcDbEntity
  8
0
  6
CONTINUOUS
 62
     7
100
AcDbLine
 10
-2.731932
 20
-50.0
 30
0.0
 11
41.780173
 21
-50.0
 31
0.0
  0
LINE
  5
5D
100
AcDbEntity
  8
0
  6
CONTINUOUS
 62
     7
100
AcDbLine
 10
-5.112648
 20
7.837032
 30
0.0
 11
1.750604
 21
19.724533
 31
0.0
  0
LINE
  5
5E
100
AcDbEntity
  8
0
  6
CONTINUOUS
 62
     7
100
AcDbLine
 10
3.136245
 20
19.724533
 30
0.0
 11
4.292783
 21
17.72135
 31
0.0
  0
LINE
  5
5F
100
AcDbEntity
  8
0
  6
CONTINUOUS
 62
     7
100
AcDbLine
 10
-4.219827
 20
26.637035
 30
0.0
 11
41.780173
 21
26.637035
 31
0.0
  0
LINE
  5
60
100
AcDbEntity
  8
0
  6
CONTINUOUS
 62
     7
100
AcDbLine
 10
15.280173
 20
10.637035
 30
0.0
 11
41.780173
 21
10.637035
 31
0.0
  0
LINE
  5
61
100
AcDbEntity
  8
0
  6
CONTINUOUS
 62
     7
100
AcDbLine
 10
21.112197
 20
25.637035
 30
0.0
 11
41.780173
 21
25.637035
 31
0.0
  0
LINE
  5
62
100
AcDbEntity
  8
0
  6
CONTINUOUS
 62
     7
100
AcDbLine
 10
21.112197
 20
11.637035
 30
0.0
 11
25.382842
 21
11.637035
 31
0.0
  0
LINE
  5
63
100
AcDbEntity
  8
0
  6
CONTINUOUS
 62
     7
100
AcDbLine
 10
21.112197
 20
-34.5
 30
0.0
 11
41.780173
 21
-34.5
 31
0.0
  0
LINE
  5
64
100
AcDbEntity
  8
0
  6
CONTINUOUS
 62
     7
100
AcDbLine
 10
103.793768
 20
-35.5
 30
0.0
 11
103.793768
 21
-49.0
 31
0.0
  0
LINE
  5
65
100
AcDbEntity
  8
0
  6
CONTINUOUS
 62
     7
100
AcDbLine
 10
102.793749
 20
-50.0
 30
0.0
 11
103.793758
 21
-48.999996
 31
0.0
  0
LINE
  5
66
100
AcDbEntity
  8
0
  6
CONTINUOUS
 62
     7
100
AcDbLine
 10
88.79376
 20
-34.5
 30
0.0
 11
102.793768
 21
-34.5
 31
0.0
  0
LINE
  5
67
100
AcDbEntity
  8
0
  6
CONTINUOUS
 62
     7
100
AcDbLine
 10
103.793768
 20
-35.5
 30
0.0
 11
102.793768
 21
-34.5
 31
0.0
  0
LINE
  5
68
100
AcDbEntity
  8
0
  6
CONTINUOUS
 62
     7
100
AcDbLine
 10
21.042271
 20
-35.5
 30
0.0
 11
24.906558
 21
-35.5
 31
0.0
  0
LINE
  5
69
100
AcDbEntity
  8
0
  6
CONTINUOUS
 62
     7
100
AcDbLine
 10
34.653788
 20
-35.5
 30
0.0
 11
41.780173
 21
-35.5
 31
0.0
  0
LINE
  5
6A
100
AcDbEntity
  8
0
  6
CONTINUOUS
 62
     7
100
AcDbLine
 10
25.955352
 20
15.637035
 30
0.0
 11
33.606112
 21
15.637035
 31
0.0
  0
LINE
  5
6B
100
AcDbEntity
  8
0
  6
CONTINUOUS
 62
     7
100
AcDbLine
 10
34.179061
 20
11.637035
 30
0.0
 11
41.780173
 21
11.637035
 31
0.0
  0
LINE
  5
6C
100
AcDbEntity
  8
0
  6
CENTER
 62
     1
 48
0.5
100
AcDbLine
 10
3.780173
 20
-41.383331
 30
0.0
 11
3.780173
 21
-51.183334
 31
0.0
  0
LINE
  5
6D
100
AcDbEntity
  8
0
  6
CENTER
 62
     1
 48
0.5
100
AcDbLine
 10
-1.310972
 20
-46.0
 30
0.0
 11
9.222361
 21
-46.0
 31
0.0
  0
LINE
  5
6E
100
AcDbEntity
  8
0
  6
CONTINUOUS
 62
     7
100
AcDbLine
 10
-52.761361
 20
26.637035
 30
0.0
 11
-39.261361
 21
26.637035
 31
0.0
  0
LINE
  5
6F
100
AcDbEntity
  8
0
  6
CONTINUOUS
 62
     7
100
AcDbLine
 10
-38.261357
 20
25.637031
 30
0.0
 11
-39.261359
 21
26.637033
 31
0.0
  0
LINE
  5
70
100
AcDbEntity
  8
0
  6
CONTINUOUS
 62
     7
100
AcDbLine
 10
-52.761361
 20
26.637033
 30
0.0
 11
-53.761361
 21
25.637033
 31
0.0
  0
LINE
  5
71
100
AcDbEntity
  8
0
  6
CONTINUOUS
 62
     7
100
AcDbLine
 10
-41.761361
 20
26.637035
 30
0.0
 11
-41.761361
 21
6.637035
 31
0.0
  0
LINE
  5
72
100
AcDbEntity
  8
0
  6
CONTINUOUS
 62
     7
100
AcDbLine
 10
-44.941354
 20
9.383443
 30
0.0
 11
-44.941354
 21
7.255164
 31
0.0
  0
LINE
  5
73
100
AcDbEntity
  8
0
  6
CONTINUOUS
 62
     7
100
AcDbLine
 10
-44.941333
 20
7.255159
 30
0.0
 11
-41.761334
 21
6.63703
 31
0.0
  0
LINE
  5
74
100
AcDbEntity
  8
0
  6
CONTINUOUS
 62
     7
100
AcDbLine
 10
-38.261361
 20
25.637035
 30
0.0
 11
-38.261361
 21
24.856029
 31
0.0
  0
LINE
  5
75
100
AcDbEntity
  8
0
  6
CONTINUOUS
 62
     7
100
AcDbLine
 10
-4.219827
 20
26.637035
 30
0.0
 11
-4.219827
 21
9.383443
 31
0.0
  0
LINE
  5
76
100
AcDbEntity
  8
0
  6
CONTINUOUS
 62
     7
100
AcDbLine
 10
8.332266
 20
10.72476
 30
0.0
 11
9.999494
 21
7.837036
 31
0.0
  0
LINE
  5
77
100
AcDbEntity
  8
0
  6
CONTINUOUS
 62
     7
100
AcDbLine
 10
13.432652
 20
7.437035
 30
0.0
 11
15.280171
 21
10.637034
 31
0.0
  0
LINE
  5
78
100
AcDbEntity
  8
0
  6
CONTINUOUS
 62
     7
100
AcDbLine
 10
10.106674
 20
7.437035
 30
0.0
 11
13.432652
 21
7.437035
 31
0.0
  0
LINE
  5
79
100
AcDbEntity
  8
0
  6
CONTINUOUS
 62
     7
100
AcDbLine
 10
-4.219827
 20
-43.0
 30
0.0
 11
13.432652
 21
-43.0
 31
0.0
  0
LINE
  5
7A
100
AcDbEntity
  8
0
  6
CONTINUOUS
 62
     7
100
AcDbLine
 10
-4.219827
 20
-41.25769
 30
0.0
 11
-4.219827
 21
-43.0
 31
0.0
  0
LINE
  5
7B
100
AcDbEntity
  8
0
  6
CONTINUOUS
 62
     7
100
AcDbLine
 10
-2.731932
 20
-49.999992
 30
0.0
 11
-4.219828
 21
-42.999992
 31
0.0
  0
LINE
  5
7C
100
AcDbEntity
  8
0
  6
CONTINUOUS
 62
     7
100
AcDbLine
 10
-46.761361
 20
26.637035
 30
0.0
 11
-46.761361
 21
7.437035
 31
0.0
  0
LINE
  5
7E
100
AcDbEntity
  8
0
  6
CONTINUOUS
 62
     7
100
AcDbLine
 10
87.793768
 20
-35.5
 30
0.0
 11
88.79376
 21
-34.5
 31
0.0
  0
LINE
  5
7F
100
AcDbEntity
  8
0
  6
CENTER
 62
     1
 48
0.5
100
AcDbLine
 10
7.472562
 20
26.881988
 30
0.0
 11
19.258246
 21
10.050288
 31
0.0
  0
LINE
  5
80
100
AcDbEntity
  8
0
  6
CENTER
 62
     1
 48
0.5
100
AcDbLine
 10
-0.799823
 20
9.128588
 30
0.0
 11
20.973202
 21
24.374225
 31
0.0
  0
LINE
  5
81
100
AcDbEntity
  8
0
  6
CONTINUOUS
 62
     7
100
AcDbLine
 10
1.307015
 20
13.022493
 30
0.0
 11
3.579833
 21
9.776573
 31
0.0
  0
LINE
  5
82
100
AcDbEntity
  8
0
  6
CONTINUOUS
 62
     7
100
AcDbLine
 10
1.36126
 20
14.240211
 30
0.0
 11
8.502957
 21
22.720871
 31
0.0
  0
LINE
  5
83
100
AcDbEntity
  8
0
  6
CONTINUOUS
 62
     7
100
AcDbLine
 10
4.742668
 20
9.411065
 30
0.0
 11
15.154484
 21
13.221508
 31
0.0
  0
LINE
  5
84
100
AcDbEntity
  8
0
  6
CONTINUOUS
 62
     7
100
AcDbLine
 10
16.664584
 20
23.676769
 30
0.0
 11
16.999434
 21
23.911234
 31
0.0
  0
LINE
  5
85
100
AcDbEntity
  8
0
  6
CONTINUOUS
 62
     7
100
AcDbLine
 10
18.844174
 20
20.56399
 30
0.0
 11
19.179024
 21
20.798455
 31
0.0
  0
LINE
  5
86
100
AcDbEntity
  8
0
  6
CENTER
 62
     1
 48
0.5
100
AcDbLine
 10
16.655287
 20
24.402725
 30
0.0
 11
19.523169
 21
20.306965
 31
0.0
  0
LINE
  5
87
100
AcDbEntity
  8
0
  6
CONTINUOUS
 62
     7
100
AcDbLine
 10
-5.219827
 20
-38.0
 30
0.0
 11
10.106676
 21
-39.071732
 31
0.0
  0
LINE
  5
88
100
AcDbEntity
  8
0
  6
CONTINUOUS
 62
     7
100
AcDbLine
 10
-5.219827
 20
-38.0
 30
0.0
 11
-4.825029
 21
-41.21537
 31
0.0
  0
LINE
  5
89
100
AcDbEntity
  8
0
  6
CONTINUOUS
 62
     7
100
AcDbLine
 10
-4.825028
 20
-41.21537
 30
0.0
 11
9.268226
 21
-42.200867
 31
0.0
  0
LINE
  5
8A
100
AcDbEntity
  8
0
  6
CONTINUOUS
 62
     7
100
AcDbLine
 10
9.268224
 20
-42.200871
 30
0.0
 11
10.106674
 21
-39.071732
 31
0.0
  0
LINE
  5
8B
100
AcDbEntity
  8
0
  6
CONTINUOUS
 62
     7
100
AcDbLine
 10
-4.219827
 20
-37.5
 30
0.0
 11
0.956559
 21
-37.861965
 31
0.0
  0
LINE
  5
8C
100
AcDbEntity
  8
0
  6
CONTINUOUS
 62
     7
100
AcDbLine
 10
20.849929
 20
-38.250603
 30
0.0
 11
21.112197
 21
-34.5
 31
0.0
  0
LINE
  5
8D
100
AcDbEntity
  8
0
  6
CONTINUOUS
 62
     7
100
AcDbLine
 10
13.432652
 20
-38.734383
 30
0.0
 11
13.432652
 21
-43.0
 31
0.0
  0
LINE
  5
8E
100
AcDbEntity
  8
0
  6
CONTINUOUS
 62
     7
100
AcDbLine
 10
15.280173
 20
-38.863571
 30
0.0
 11
15.280173
 21
-50.0
 31
0.0
  0
LINE
  5
8F
100
AcDbEntity
  8
0
  6
CONTINUOUS
 62
     7
100
AcDbLine
 10
15.280171
 20
-50.0
 30
0.0
 11
13.432652
 21
-43.0
 31
0.0
  0
LINE
  5
90
100
AcDbEntity
  8
0
  6
CONTINUOUS
 62
     7
100
AcDbLine
 10
20.780173
 20
26.637035
 30
0.0
 11
20.780173
 21
10.637035
 31
0.0
  0
LINE
  5
91
100
AcDbEntity
  8
0
  6
CONTINUOUS
 62
     7
100
AcDbLine
 10
21.112197
 20
25.637035
 30
0.0
 11
21.112197
 21
11.637035
 31
0.0
  0
LINE
  5
92
100
AcDbEntity
  8
0
  6
CONTINUOUS
 62
     7
100
AcDbLine
 10
20.780173
 20
10.637035
 30
0.0
 11
21.112199
 21
11.637035
 31
0.0
  0
LINE
  5
93
100
AcDbEntity
  8
0
  6
CONTINUOUS
 62
     7
100
AcDbLine
 10
21.112199
 20
25.637035
 30
0.0
 11
20.780173
 21
26.637035
 31
0.0
  0
LINE
  5
94
100
AcDbEntity
  8
0
  6
CONTINUOUS
 62
     7
100
AcDbLine
 10
28.780173
 20
-43.763409
 30
0.0
 11
30.780173
 21
-43.763409
 31
0.0
  0
LINE
  5
95
100
AcDbEntity
  8
0
  6
CONTINUOUS
 62
     7
100
AcDbLine
 10
28.780173
 20
-35.606739
 30
0.0
 11
30.780173
 21
-35.606739
 31
0.0
  0
LINE
  5
96
100
AcDbEntity
  8
0
  6
CONTINUOUS
 62
     7
100
AcDbLine
 10
28.780173
 20
-37.251198
 30
0.0
 11
30.780173
 21
-37.251198
 31
0.0
  0
LINE
  5
97
100
AcDbEntity
  8
0
  6
CONTINUOUS
 62
     7
100
AcDbLine
 10
28.780173
 20
-40.275375
 30
0.0
 11
30.780173
 21
-40.275375
 31
0.0
  0
LINE
  5
98
100
AcDbEntity
  8
0
  6
CONTINUOUS
 62
     7
100
AcDbLine
 10
-46.761361
 20
7.437035
 30
0.0
 11
-44.941354
 21
7.437035
 31
0.0
  0
LINE
  5
99
100
AcDbEntity
  8
0
  6
CONTINUOUS
 62
     7
100
AcDbLine
 10
-53.761361
 20
10.701189
 30
0.0
 11
-46.761361
 21
7.437035
 31
0.0
  0
LINE
  5
9A
100
AcDbEntity
  8
0
  6
CONTINUOUS
 62
     7
100
AcDbLine
 10
-41.761361
 20
9.35015
 30
0.0
 11
-38.761361
 21
9.35015
 31
0.0
  0
LINE
  5
9B
100
AcDbEntity
  8
0
  6
CONTINUOUS
 62
     7
100
AcDbLine
 10
-41.761361
 20
13.652202
 30
0.0
 11
-38.761361
 21
13.652202
 31
0.0
  0
LINE
  5
9C
100
AcDbEntity
  8
0
  6
CONTINUOUS
 62
     7
100
AcDbLine
 10
-41.761361
 20
24.856029
 30
0.0
 11
-35.671332
 21
24.856029
 31
0.0
  0
LINE
  5
9D
100
AcDbEntity
  8
0
  6
CONTINUOUS
 62
     7
100
AcDbLine
 10
-44.941354
 20
9.383443
 30
0.0
 11
-41.761361
 21
9.383443
 31
0.0
  0
LINE
  5
9E
100
AcDbEntity
  8
0
  6
CONTINUOUS
 62
     7
100
AcDbLine
 10
10.106674
 20
-38.501804
 30
0.0
 11
10.106674
 21
-39.071732
 31
0.0
  0
LINE
  5
9F
100
AcDbEntity
  8
0
  6
CONTINUOUS
 62
     7
100
AcDbLine
 10
10.106673
 20
-38.501804
 30
0.0
 11
19.782609
 21
-39.178413
 31
0.0
  0
LINE
  5
A0
100
AcDbEntity
  8
0
  6
CONTINUOUS
 62
     7
100
AcDbLine
 10
-4.219827
 20
-37.5
 30
0.0
 11
-4.219827
 21
-38.069927
 31
0.0
  0
LINE
  5
A1
100
AcDbEntity
  8
0
  6
CONTINUOUS
 62
     7
100
AcDbLine
 10
1.126168
 20
-35.436428
 30
0.0
 11
4.02076
 21
-35.638836
 31
0.0
  0
LINE
  5
A2
100
AcDbEntity
  8
0
  6
CONTINUOUS
 62
     7
100
AcDbLine
 10
18.952887
 20
-34.678108
 30
0.0
 11
19.989228
 21
-34.750576
 31
0.0
  0
LINE
  5
A3
100
AcDbEntity
  8
0
  6
CONTINUOUS
 62
     7
100
AcDbLine
 10
8.316519
 20
-31.929459
 30
0.0
 11
19.0924
 21
-32.68298
 31
0.0
  0
LINE
  5
A4
100
AcDbEntity
  8
0
  6
CONTINUOUS
 62
     7
100
AcDbLine
 10
1.126168
 20
-35.436428
 30
0.0
 11
0.916899
 21
-38.429119
 31
0.0
  0
LINE
  5
A5
100
AcDbEntity
  8
0
  6
CONTINUOUS
 62
     7
100
AcDbLine
 10
4.02076
 20
-35.638836
 30
0.0
 11
3.811491
 21
-38.631531
 31
0.0
  0
LINE
  5
A6
100
AcDbEntity
  8
0
  6
CONTINUOUS
 62
     7
100
AcDbLine
 10
-35.671332
 20
24.856029
 30
0.0
 11
-35.671332
 21
13.245269
 31
0.0
  0
LINE
  5
A7
100
AcDbEntity
  8
0
  6
CONTINUOUS
 62
     7
100
AcDbLine
 10
-38.761361
 20
13.652202
 30
0.0
 11
-38.761361
 21
9.35015
 31
0.0
  0
LINE
  5
A8
100
AcDbEntity
  8
0
  6
CONTINUOUS
 62
     7
100
AcDbLine
 10
19.0924
 20
-32.68298
 30
0.0
 11
18.643763
 21
-39.098774
 31
0.0
  0
LINE
  5
A9
100
AcDbEntity
  8
0
  6
CONTINUOUS
 62
     7
100
AcDbLine
 10
19.989228
 20
-34.750576
 30
0.0
 11
19.680106
 21
-39.171246
 31
0.0
  0
LINE
  5
AA
100
AcDbEntity
  8
0
  6
CONTINUOUS
 62
     7
100
AcDbLine
 10
-5.219827
 20
6.637035
 30
0.0
 11
-4.419827
 21
6.637035
 31
0.0
  0
LINE
  5
AB
100
AcDbEntity
  8
0
  6
CONTINUOUS
 62
     7
100
AcDbLine
 10
-5.219827
 20
7.437035
 30
0.0
 11
-5.219827
 21
6.637035
 31
0.0
  0
ARC
  5
AC
100
AcDbEntity
  8
0
  6
CONTINUOUS
 62
     7
100
AcDbCircle
 10
-4.419827
 20
7.437035
 30
0.0
 40
0.8
100
AcDbArc
 50
150.00002
 51
270.0
  0
ARC
  5
AD
100
AcDbEntity
  8
0
  6
CONTINUOUS
 62
     7
100
AcDbCircle
 10
9.306675
 20
7.437034
 30
0.0
 40
0.8
100
AcDbArc
 50
270.00007
 51
30.000011
  0
CIRCLE
  5
AE
100
AcDbEntity
  8
0
  6
CONTINUOUS
 62
     7
100
AcDbCircle
 10
3.780173
 20
-46.0
 30
0.0
 40
3.0
  0
ARC
  5
AF
100
AcDbEntity
  8
0
  6
CONTINUOUS
 62
     7
100
AcDbCircle
 10
2.443424
 20
19.324533
 30
0.0
 40
0.8
100
AcDbArc
 50
29.999994
 51
149.99997
  0
ARC
  5
B0
100
AcDbEntity
  8
0
  6
CONTINUOUS
 62
     7
100
AcDbCircle
 10
1.280173
 20
19.637035
 30
0.0
 40
2.0
100
AcDbArc
 50
355.64703
 51
250.47621
  0
ARC
  5
B1
100
AcDbEntity
  8
0
  6
CONTINUOUS
 62
     7
100
AcDbCircle
 10
18.089228
 20
22.354845
 30
0.0
 40
1.9
100
AcDbArc
 50
305.0
 51
125.0
  0
ARC
  5
B2
100
AcDbEntity
  8
0
  6
CONTINUOUS
 62
     7
100
AcDbCircle
 10
2.126168
 20
13.59607
 30
0.0
 40
1.0
100
AcDbArc
 50
139.89875
 51
215.00001
  0
ARC
  5
B3
100
AcDbEntity
  8
0
  6
CONTINUOUS
 62
     7
100
AcDbCircle
 10
4.398986
 20
10.35015
 30
0.0
 40
1.0
100
AcDbArc
 50
215.0
 51
290.10124
  0
CIRCLE
  5
B4
100
AcDbEntity
  8
0
  6
CONTINUOUS
 62
     7
100
AcDbCircle
 10
3.780173
 20
-46.0
 30
0.0
 40
2.5
  0
ARC
  5
B5
100
AcDbEntity
  8
0
  6
CONTINUOUS
 62
     7
100
AcDbCircle
 10
19.852366
 20
-38.180851
 30
0.0
 40
1.0
100
AcDbArc
 50
266.0
 51
356.0
  0
ARC
  5
B6
100
AcDbEntity
  8
0
  6
CONTINUOUS
 62
     7
100
AcDbCircle
 10
25.955352
 20
13.636789
 30
0.0
 40
2.0
100
AcDbArc
 50
90.000003
 51
233.31956
  0
ARC
  5
B7
100
AcDbEntity
  8
0
  6
CONTINUOUS
 62
     7
100
AcDbCircle
 10
33.606112
 20
13.637624
 30
0.0
 40
2.0
100
AcDbArc
 50
306.71022
 51
90.000003
  0
ARC
  5
B8
100
AcDbEntity
  8
0
  6
CONTINUOUS
 62
     7
100
AcDbCircle
 10
10.653061
 20
-40.112381
 30
0.0
 40
8.0
100
AcDbArc
 50
86.000005
 51
146.00001
  0
ARC
  5
B9
100
AcDbEntity
  8
0
  6
CONTINUOUS
 62
     7
100
AcDbCircle
 10
7.758468
 20
-39.909969
 30
0.0
 40
8.0
100
AcDbArc
 50
86.000005
 51
146.00001
  0
ARC
  5
BA
100
AcDbEntity
  8
0
  6
CONTINUOUS
 62
     7
100
AcDbCircle
 10
-39.671332
 20
17.547321
 30
0.0
 40
4.0
100
AcDbArc
 50
283.14951
 51
0.0
  0
ARC
  5
BB
100
AcDbEntity
  8
0
  6
CONTINUOUS
 62
     7
100
AcDbCircle
 10
-39.671332
 20
13.245269
 30
0.0
 40
4.0
100
AcDbArc
 50
283.14951
 51
0.0
  0
LWPOLYLINE
  5
BC
100
AcDbEntity
  8
0
  6
CONTINUOUS
 62
     7
100
AcDbPolyline
 90
       17
 70
     0
 43
0.0
 10
24.760474
 20
12.03296
 42
0.031577
 10
25.314859
 20
11.674118
 42
0.025513
 10
25.906448
 20
11.38032
 42
0.021512
 10
26.523511
 20
11.142892
 42
0.01881
 10
27.158024
 20
10.955656
 42
0.016976
 10
27.804297
 20
10.814148
 42
0.015767
 10
28.458499
 20
10.715132
 42
0.015029
 10
29.117593
 20
10.656495
 42
0.014704
 10
29.780173
 20
10.637035
 42
0.014655
 10
30.440571
 20
10.656367
 42
0.015008
 10
31.098865
 20
10.714776
 42
0.015754
 10
31.752778
 20
10.813546
 42
0.016979
 10
32.399491
 20
10.954934
 42
0.018837
 10
33.035239
 20
11.142353
 42
0.021551
 10
33.653576
 20
11.38018
 42
0.025552
 10
34.246017
 20
11.674417
 42
0.031636
 10
34.801144
 20
12.033908
  0
LWPOLYLINE
  5
CF
100
AcDbEntity
  8
0
  6
CONTINUOUS
 62
     7
100
AcDbPolyline
 90
       17
 70
     0
 43
0.0
 10
26.262034
 20
-34.501163
 42
0.039531
 10
25.550961
 20
-34.940254
 42
0.040699
 10
24.919001
 20
-35.487326
 42
0.041973
 10
24.385543
 20
-36.131008
 42
0.043212
 10
23.968851
 20
-36.855848
 42
0.044252
 10
23.684651
 20
-37.642081
 42
0.04493
 10
23.544482
 20
-38.466039
 42
0.045066
 10
23.554068
 20
-39.300179
 42
0.044835
 10
23.712868
 20
-40.120151
 42
0.044057
 10
24.013915
 20
-40.898477
 42
0.043087
 10
24.446368
 20
-41.614534
 42
0.041793
 10
24.992944
 20
-42.246604
 42
0.040539
 10
25.635758
 20
-42.780663
 42
0.039407
 10
26.355503
 20
-43.205751
 42
0.03849
 10
27.132604
 20
-43.514182
 42
0.037847
 10
27.947599
 20
-43.700978
 42
0.037461
 10
28.780173
 20
-43.763409
  0
LWPOLYLINE
  5
E2
100
AcDbEntity
  8
0
  6
CONTINUOUS
 62
     7
100
AcDbPolyline
 90
       17
 70
     0
 43
0.0
 10
28.780173
 20
-35.606739
 42
0.016167
 10
28.343985
 20
-35.620839
 42
0.016299
 10
27.909693
 20
-35.66319
 42
0.016568
 10
27.479132
 20
-35.733955
 42
0.016983
 10
27.054254
 20
-35.83342
 42
0.017552
 10
26.637191
 20
-35.961969
 42
0.018288
 10
26.230322
 20
-36.120065
 42
0.019204
 10
25.836348
 20
-36.308214
 42
0.020317
 10
25.458368
 20
-36.526906
 42
0.021639
 10
25.099966
 20
-36.77653
 42
0.023176
 10
24.765287
 20
-37.057244
 42
0.024918
 10
24.459081
 20
-37.368796
 42
0.026828
 10
24.186693
 20
-37.710279
 42
0.028826
 10
23.953945
 20
-38.079838
 42
0.030781
 10
23.766847
 20
-38.474357
 42
0.032504
 10
23.631104
 20
-38.889219
 42
0.033777
 10
23.551452
 20
-39.318255
  0
LWPOLYLINE
  5
F5
100
AcDbEntity
  8
0
  6
CONTINUOUS
 62
     7
100
AcDbPolyline
 90
       17
 70
     0
 43
0.0
 10
28.780173
 20
-37.251198
 42
0.039748
 10
28.191644
 20
-37.298028
 42
0.040204
 10
27.617169
 20
-37.43808
 42
0.040965
 10
27.072946
 20
-37.668999
 42
0.042059
 10
26.574292
 20
-37.986631
 42
0.043396
 10
26.136784
 20
-38.384456
 42
0.044836
 10
25.775786
 20
-38.852946
 42
0.046194
 10
25.50552
 20
-39.379061
 42
0.047258
 10
25.337725
 20
-39.946144
 42
0.047844
 10
25.280178
 20
-40.534581
 42
0.047792
 10
25.335484
 20
-41.122518
 42
0.047205
 10
25.500814
 20
-41.689398
 42
0.046181
 10
25.768725
 20
-42.216147
 42
0.044844
 10
26.127639
 20
-42.685848
 42
0.043417
 10
26.563447
 20
-43.085308
 42
0.042094
 10
27.060948
 20
-43.404917
 42
0.041005
 10
27.604562
 20
-43.637967
  0
LWPOLYLINE
  5
108
100
AcDbEntity
  8
0
  6
CONTINUOUS
 62
     7
100
AcDbPolyline
 90
       17
 70
     0
 43
0.0
 10
28.780173
 20
-40.275375
 42
0.008376
 10
28.549572
 20
-40.279236
 42
0.008458
 10
28.31921
 20
-40.290853
 42
0.008627
 10
28.089332
 20
-40.310332
 42
0.00889
 10
27.860205
 20
-40.337854
 42
0.00926
 10
27.632135
 20
-40.373681
 42
0.009756
 10
27.405478
 20
-40.418168
 42
0.010405
 10
27.180668
 20
-40.471776
 42
0.011247
 10
26.958245
 20
-40.535094
 42
0.012337
 10
26.738898
 20
-40.608864
 42
0.013756
 10
26.52354
 20
-40.694013
 42
0.015624
 10
26.3134
 20
-40.7917
 42
0.018116
 10
26.110188
 20
-40.903359
 42
0.021491
 10
25.916347
 20
-41.03074
 42
0.026117
 10
25.735445
 20
-41.175896
 42
0.03247
 10
25.572771
 20
-41.341011
 42
0.040944
 10
25.436089
 20
-41.527788
  0
LWPOLYLINE
  5
11B
100
AcDbEntity
  8
0
  6
CONTINUOUS
 62
     7
100
AcDbPolyline
 90
       17
 70
     0
 43
0.0
 10
30.780173
 20
-37.251198
 42
-0.039748
 10
31.368702
 20
-37.298028
 42
-0.040204
 10
31.943177
 20
-37.43808
 42
-0.040965
 10
32.4874
 20
-37.668999
 42
-0.042059
 10
32.986054
 20
-37.986631
 42
-0.043396
 10
33.423562
 20
-38.384456
 42
-0.044836
 10
33.78456
 20
-38.852946
 42
-0.046194
 10
34.054826
 20
-39.379061
 42
-0.047258
 10
34.222621
 20
-39.946144
 42
-0.047844
 10
34.280168
 20
-40.534581
 42
-0.047792
 10
34.224862
 20
-41.122518
 42
-0.047205
 10
34.059532
 20
-41.689398
 42
-0.046181
 10
33.791621
 20
-42.216147
 42
-0.044844
 10
33.432707
 20
-42.685848
 42
-0.043417
 10
32.996899
 20
-43.085308
 42
-0.042094
 10
32.499398
 20
-43.404917
 42
-0.041005
 10
31.955784
 20
-43.637967
  0
LWPOLYLINE
  5
12E
100
AcDbEntity
  8
0
  6
CONTINUOUS
 62
     7
100
AcDbPolyline
 90
       17
 70
     0
 43
0.0
 10
33.298312
 20
-34.501163
 42
-0.039531
 10
34.009385
 20
-34.940254
 42
-0.040699
 10
34.641345
 20
-35.487326
 42
-0.041973
 10
35.174803
 20
-36.131008
 42
-0.043212
 10
35.591495
 20
-36.855848
 42
-0.044252
 10
35.875695
 20
-37.642081
 42
-0.04493
 10
36.015864
 20
-38.466039
 42
-0.045066
 10
36.006278
 20
-39.300179
 42
-0.044835
 10
35.847478
 20
-40.120151
 42
-0.044057
 10
35.546431
 20
-40.898477
 42
-0.043087
 10
35.113978
 20
-41.614534
 42
-0.041793
 10
34.567402
 20
-42.246604
 42
-0.040539
 10
33.924588
 20
-42.780663
 42
-0.039407
 10
33.204843
 20
-43.205751
 42
-0.03849
 10
32.427742
 20
-43.514182
 42
-0.037847
 10
31.612747
 20
-43.700978
 42
-0.037461
 10
30.780173
 20
-43.763409
  0
LWPOLYLINE
  5
141
100
AcDbEntity
  8
0
  6
CONTINUOUS
 62
     7
100
AcDbPolyline
 90
       17
 70
     0
 43
0.0
 10
30.780173
 20
-40.275375
 42
-0.008376
 10
31.010774
 20
-40.279236
 42
-0.008458
 10
31.241136
 20
-40.290853
 42
-0.008627
 10
31.471014
 20
-40.310332
 42
-0.00889
 10
31.700141
 20
-40.337854
 42
-0.00926
 10
31.928211
 20
-40.373681
 42
-0.009756
 10
32.154868
 20
-40.418168
 42
-0.010405
 10
32.379678
 20
-40.471776
 42
-0.011247
 10
32.602101
 20
-40.535094
 42
-0.012337
 10
32.821448
 20
-40.608864
 42
-0.013756
 10
33.036806
 20
-40.694013
 42
-0.015624
 10
33.246946
 20
-40.7917
 42
-0.018116
 10
33.450158
 20
-40.903359
 42
-0.021491
 10
33.643999
 20
-41.03074
 42
-0.026117
 10
33.824901
 20
-41.175896
 42
-0.03247
 10
33.987575
 20
-41.341011
 42
-0.040944
 10
34.124257
 20
-41.527788
  0
LWPOLYLINE
  5
154
100
AcDbEntity
  8
0
  6
CONTINUOUS
 62
     7
100
AcDbPolyline
 90
       17
 70
     0
 43
0.0
 10
30.780173
 20
-35.606739
 42
-0.016167
 10
31.216361
 20
-35.620839
 42
-0.016299
 10
31.650653
 20
-35.66319
 42
-0.016568
 10
32.081214
 20
-35.733955
 42
-0.016983
 10
32.506092
 20
-35.83342
 42
-0.017552
 10
32.923155
 20
-35.961969
 42
-0.018288
 10
33.330024
 20
-36.120065
 42
-0.019204
 10
33.723998
 20
-36.308214
 42
-0.020317
 10
34.101978
 20
-36.526906
 42
-0.021639
 10
34.46038
 20
-36.77653
 42
-0.023176
 10
34.795059
 20
-37.057244
 42
-0.024918
 10
35.101265
 20
-37.368796
 42
-0.026828
 10
35.373653
 20
-37.710279
 42
-0.028826
 10
35.606401
 20
-38.079838
 42
-0.030781
 10
35.793499
 20
-38.474357
 42
-0.032504
 10
35.929242
 20
-38.889219
 42
-0.033777
 10
36.008894
 20
-39.318255
  0
LINE
  5
167
100
AcDbEntity
  8
0
  6
CONTINUOUS
 62
     7
100
AcDbLine
 10
102.265799
 20
-39.719239
 30
0.0
 11
103.793768
 21
-38.191267
 31
0.0
  0
LINE
  5
168
100
AcDbEntity
  8
0
  6
CONTINUOUS
 62
     7
100
AcDbLine
 10
100.619823
 20
-39.120152
 30
0.0
 11
103.793768
 21
-35.946201
 31
0.0
  0
LINE
  5
169
100
AcDbEntity
  8
0
  6
CONTINUOUS
 62
     7
100
AcDbLine
 10
98.973847
 20
-38.521065
 30
0.0
 11
102.894328
 21
-34.600575
 31
0.0
  0
LINE
  5
16A
100
AcDbEntity
  8
0
  6
CONTINUOUS
 62
     7
100
AcDbLine
 10
97.327871
 20
-37.921978
 30
0.0
 11
100.749843
 21
-34.5
 31
0.0
  0
LINE
  5
16B
100
AcDbEntity
  8
0
  6
CONTINUOUS
 62
     7
100
AcDbLine
 10
95.681895
 20
-37.322891
 30
0.0
 11
98.504781
 21
-34.5
 31
0.0
  0
LINE
  5
16C
100
AcDbEntity
  8
0
  6
CONTINUOUS
 62
     7
100
AcDbLine
 10
95.401273
 20
-35.358447
 30
0.0
 11
96.259719
 21
-34.5
 31
0.0
  0
LINE
  5
16D
100
AcDbEntity
  8
0
  6
CONTINUOUS
 62
     7
100
AcDbLine
 10
93.755295
 20
-34.759362
 30
0.0
 11
94.014657
 21
-34.5
 31
0.0
  0
LINE
  5
16E
100
AcDbEntity
  8
0
  6
CONTINUOUS
 62
     7
100
AcDbLine
 10
100.965302
 20
-50.0
 30
0.0
 11
103.388268
 21
-47.577031
 31
0.0
  0
LINE
  5
16F
100
AcDbEntity
  8
0
  6
CONTINUOUS
 62
     7
100
AcDbLine
 10
98.720241
 20
-50.0
 30
0.0
 11
101.74229
 21
-46.977944
 31
0.0
  0
LINE
  5
170
100
AcDbEntity
  8
0
  6
CONTINUOUS
 62
     7
100
AcDbLine
 10
96.475179
 20
-50.0
 30
0.0
 11
100.096313
 21
-46.378858
 31
0.0
  0
LINE
  5
171
100
AcDbEntity
  8
0
  6
CONTINUOUS
 62
     7
100
AcDbLine
 10
94.230117
 20
-50.0
 30
0.0
 11
98.450337
 21
-45.779772
 31
0.0
  0
LINE
  5
172
100
AcDbEntity
  8
0
  6
CONTINUOUS
 62
     7
100
AcDbLine
 10
92.004347
 20
-49.980708
 30
0.0
 11
96.80436
 21
-45.180686
 31
0.0
  0
LINE
  5
173
100
AcDbEntity
  8
0
  6
CONTINUOUS
 62
     7
100
AcDbLine
 10
89.739993
 20
-50.0
 30
0.0
 11
95.158383
 21
-44.581599
 31
0.0
  0
LINE
  5
174
100
AcDbEntity
  8
0
  6
CONTINUOUS
 62
     7
100
AcDbLine
 10
87.793768
 20
-49.701163
 30
0.0
 11
92.147048
 21
-45.347874
 31
0.0
  0
LINE
  5
175
100
AcDbEntity
  8
0
  6
CONTINUOUS
 62
     7
100
AcDbLine
 10
92.761659
 20
-44.733262
 30
0.0
 11
93.512407
 21
-43.982513
 31
0.0
  0
LINE
  5
176
100
AcDbEntity
  8
0
  6
CONTINUOUS
 62
     7
100
AcDbLine
 10
87.793768
 20
-47.456097
 30
0.0
 11
90.501072
 21
-44.748787
 31
0.0
  0
LINE
  5
177
100
AcDbEntity
  8
0
  6
CONTINUOUS
 62
     7
100
AcDbLine
 10
87.793768
 20
-45.211031
 30
0.0
 11
88.855096
 21
-44.149701
 31
0.0
  0
TEXT
  5
17A
100
AcDbEntity
  8
0
  6
CONTINUOUS
100
AcDbText
 10
8.554075
 20
-77.976693
 30
0.0
 40
6.0
  1
CTGPR12CA
100
AcDbText
  0
DIMENSION
  5
1B7
100
AcDbEntity
  8
寸法
  6
CONTINUOUS
100
AcDbDimension
  2
*D1
 10
111.261653
 20
-50.0
 30
0.0
 11
108.761653
 21
-47.0
 31
0.0
 70
    32
  3
STANDARD
100
AcDbAlignedDimension
 13
103.793768
 23
-43.999999
 33
0.0
 14
102.793749
 24
-50.0
 34
0.0
 50
90.0
100
AcDbRotatedDimension
  0
LINE
  5
1EF
102
{ACAD_REACTORS
330
1F7
102
}
100
AcDbEntity
  8
寸法
  6
CONTINUOUS
 62
     1
100
AcDbLine
 10
108.829821
 20
-45.832972
 30
0.0
 11
120.418326
 21
-50.050842
 31
0.0
  0
LINE
  5
1F0
102
{ACAD_REACTORS
330
1F7
102
}
100
AcDbEntity
  8
寸法
  6
CONTINUOUS
 62
     1
100
AcDbLine
 10
103.793768
 20
-43.999999
 30
0.0
 11
121.485253
 21
-43.999999
 31
0.0
  0
ARC
  5
1F1
102
{ACAD_REACTORS
330
1F7
102
}
100
AcDbEntity
  8
寸法
  6
CONTINUOUS
 62
     1
100
AcDbCircle
 10
103.793768
 20
-43.999999
 30
0.0
 40
16.691485
100
AcDbArc
 50
333.13062
 51
340.000004
  0
LINE
  5
1F2
102
{ACAD_REACTORS
330
1F7
102
}
100
AcDbEntity
  8
寸法
  6
CONTINUOUS
 62
     1
100
AcDbLine
 10
118.683227
 20
-51.54385
 30
0.0
 11
113.666492
 21
-61.445485
 31
0.0
  0
ARC
  5
1F3
102
{ACAD_REACTORS
330
1F7
102
}
100
AcDbEntity
  8
寸法
  6
CONTINUOUS
 62
     1
100
AcDbCircle
 10
103.793768
 20
-43.999999
 30
0.0
 40
16.691485
100
AcDbArc
 50
346.869388
 51
353.130616
  0
INSERT
  5
1F4
102
{ACAD_REACTORS
330
1F7
102
}
100
AcDbEntity
  8
寸法
  6
CONTINUOUS
 62
     1
100
AcDbBlockReference
  2
_OPEN30
 10
119.478633
 20
-49.708822
 30
0.0
 41
2.0
 42
2.0
 43
2.0
 50
253.434696
  0
INSERT
  5
1F5
102
{ACAD_REACTORS
330
1F7
102
}
100
AcDbEntity
  8
寸法
  6
CONTINUOUS
 62
     1
100
AcDbBlockReference
  2
_OPEN30
 10
120.485253
 20
-43.999999
 30
0.0
 41
2.0
 42
2.0
 43
2.0
 50
86.565308
  0
MTEXT
  5
1F6
102
{ACAD_REACTORS
330
1F7
102
}
100
AcDbEntity
  8
寸法
  6
CONTINUOUS
 62
     1
100
AcDbMText
 10
113.944761
 20
-55.364772
 30
0.0
 40
3.0
 41
0.0
 71
     5
 72
     1
  1
\A1;20°
 11
0.451958
 21
0.892039
 31
0.0
1001
ACAD
1000
MTEXTBEGIN
1070
    73
1070
     1
1070
    44
1040
1.0
1070
    74
1070
     0
1000
MTEXTEND
1000
MTEXTBEGIN
1070
    73
1070
     1
1070
    44
1040
1.0
1070
    74
1070
     0
1000
MTEXTEND
  0
DIMENSION
  5
1F8
100
AcDbEntity
  8
寸法
  6
CONTINUOUS
100
AcDbDimension
  2
*D2
 10
60.0
 20
-50.0
 30
0.0
 11
57.5
 21
-42.25
 31
0.0
 70
    32
  3
STANDARD
100
AcDbAlignedDimension
 13
41.780173
 23
-34.5
 33
0.0
 14
41.780173
 24
-50.0
 34
0.0
 50
90.0
100
AcDbRotatedDimension
  0
DIMENSION
  5
205
100
AcDbEntity
  8
寸法
  6
CONTINUOUS
100
AcDbDimension
  2
*D3
 10
-20.0
 20
-49.999992
 30
0.0
 11
-22.5
 21
-43.999996
 31
0.0
 70
    32
  3
STANDARD
100
AcDbAlignedDimension
 13
-5.219827
 23
-38.0
 33
0.0
 14
-2.731932
 24
-49.999992
 34
0.0
 50
90.0
100
AcDbRotatedDimension
  0
DIMENSION
  5
212
100
AcDbEntity
  8
寸法
  6
CONTINUOUS
100
AcDbDimension
  2
*D4
 10
28.780173
 20
-60.0
 30
0.0
 11
22.780173
 21
-57.5
 31
0.0
 70
    32
  3
STANDARD
100
AcDbAlignedDimension
 13
30.780173
 23
-44.47084
 33
0.0
 14
28.780173
 24
-44.737503
 34
0.0
100
AcDbRotatedDimension
  0
DIMENSION
  5
221
100
AcDbEntity
  8
寸法
  6
CONTINUOUS
100
AcDbDimension
  2
*D5
 10
29.780173
 20
-20.0
 30
0.0
 11
39.780173
 21
-17.5
 31
0.0
 70
    32
  3
STANDARD
100
AcDbAlignedDimension
 13
49.780173
 23
-40.5
 33
0.0
 14
29.780173
 24
-30.088745
 34
0.0
100
AcDbRotatedDimension
  0
DIMENSION
  5
22E
100
AcDbEntity
  8
寸法
  6
CONTINUOUS
100
AcDbDimension
  2
*D6
 10
60.0
 20
10.637035
 30
0.0
 11
57.5
 21
18.637035
 31
0.0
 70
    32
  3
STANDARD
100
AcDbAlignedDimension
 13
41.780173
 23
26.637035
 33
0.0
 14
41.780173
 24
10.637035
 34
0.0
 50
90.0
100
AcDbRotatedDimension
  0
DIMENSION
  5
23B
100
AcDbEntity
  8
寸法
  6
CONTINUOUS
100
AcDbDimension
  2
*D7
 10
-20.0
 20
6.637035
 30
0.0
 11
-22.5
 21
16.637035
 31
0.0
 70
    32
  3
STANDARD
100
AcDbAlignedDimension
 13
-4.219827
 23
26.637035
 33
0.0
 14
-5.219827
 24
6.637035
 34
0.0
 50
90.0
100
AcDbRotatedDimension
  0
DIMENSION
  5
248
100
AcDbEntity
  8
寸法
  6
CONTINUOUS
100
AcDbDimension
  2
*D8
 10
-5.219827
 20
-10.0
 30
0.0
 11
22.280173
 21
-7.5
 31
0.0
 70
    32
  3
STANDARD
100
AcDbAlignedDimension
 13
49.780173
 23
16.637035
 33
0.0
 14
-5.219827
 24
6.637035
 34
0.0
100
AcDbRotatedDimension
  0
DIMENSION
  5
255
100
AcDbEntity
  8
寸法
  6
CONTINUOUS
100
AcDbDimension
  2
*D9
 10
41.780173
 20
0.0
 30
0.0
 11
45.780173
 21
2.5
 31
0.0
 70
    32
  3
STANDARD
100
AcDbAlignedDimension
 13
49.780173
 23
16.637035
 33
0.0
 14
41.780173
 24
10.637035
 34
0.0
100
AcDbRotatedDimension
1001
ACAD
1000
DSTYLE
1002
{
1070
   287
1070
     4
1070
   287
1070
     4
1070
   279
1070
     1
1002
}
  0
DIMENSION
  5
26B
100
AcDbEntity
  8
寸法
  6
CONTINUOUS
100
AcDbDimension
  2
*D10
 10
-5.219827
 20
6.637035
 30
0.0
 11
1.781722
 21
-0.364514
 31
0.0
 70
    34
  3
STANDARD
100
AcDb2LineAngularDimension
 13
9.306674
 23
6.637034
 33
0.0
 14
-4.419827
 24
6.637035
 34
0.0
 15
-5.219827
 25
7.437035
 35
0.0
 16
0.981016
 26
-4.10314
 36
0.0
1001
ACAD
1000
DSTYLE
1002
{
1070
   271
1070
     0
1070
   271
1070
     0
1002
}
  0
LINE
  5
279
100
AcDbEntity
  8
0
  6
CONTINUOUS
100
AcDbLine
 10
-41.761334
 20
6.63703
 30
0.0
 11
-41.761354
 21
24.856029
 31
0.0
  0
ARC
  5
27B
100
AcDbEntity
  8
0
  6
CENTER
 62
     1
 48
0.5
100
AcDbCircle
 10
-41.761361
 20
31.637035
 30
0.0
 40
25.0
100
AcDbArc
 50
180.0
 51
270.000062
  0
DIMENSION
  5
27C
100
AcDbEntity
  8
寸法
  6
CONTINUOUS
100
AcDbDimension
  2
*D11
 10
-41.761361
 20
31.637035
 30
0.0
 11
-74.278742
 21
22.259803
 31
0.0
 70
    36
  1
%%c50
  3
STANDARD
100
AcDbRadialDimension
 15
-65.205149
 25
22.954361
 35
0.0
 40
0.0
1001
ACAD
1000
DSTYLE
1002
{
1070
   288
1070
     1
1002
}
  0
ARC
  5
28E
100
AcDbEntity
  8
0
  6
PHANTOM
100
AcDbCircle
 10
32.280173
 20
-38.0
 30
0.0
 40
37.5
100
AcDbArc
 50
180.0
 51
231.836839
  0
DIMENSION
  5
28F
100
AcDbEntity
  8
寸法
  6
CONTINUOUS
100
AcDbDimension
  2
*D12
 10
32.280173
 20
-38.0
 30
0.0
 11
-8.644589
 21
-60.218547
 31
0.0
 70
    36
  1
%%c75
  3
STANDARD
100
AcDbRadialDimension
 15
0.332022
 25
-57.635826
 35
0.0
 40
0.0
1001
ACAD
1000
DSTYLE
1002
{
1070
   288
1070
     1
1002
}
  0
MTEXT
  5
2AE
100
AcDbEntity
  8
寸法
  6
CONTINUOUS
 62
     1
100
AcDbMText
 10
-38.921764
 20
-49.687674
 30
0.0
 40
3.0
 41
0.0
 71
     5
 72
     1
  1
+4%%d
1001
ACAD
1000
MTEXTBEGIN
1070
    73
1070
     1
1070
    44
1040
1.0
1070
    74
1070
     0
1000
MTEXTEND
1000
MTEXTBEGIN
1070
    73
1070
     1
1070
    44
1040
1.0
1070
    74
1070
     0
1000
MTEXTEND
1000
MTEXTBEGIN
1070
    73
1070
     1
1070
    44
1040
1.0
1070
    74
1070
     0
1000
MTEXTEND
1000
MTEXTBEGIN
1070
    73
1070
     1
1070
    44
1040
1.0
1070
    74
1070
     0
1000
MTEXTEND
1000
MTEXTBEGIN
1070
    73
1070
     1
1070
    44
1040
1.0
1070
    74
1070
     0
1000
MTEXTEND
1000
MTEXTBEGIN
1070
    73
1070
     1
1070
    44
1040
1.0
1070
    74
1070
     0
1000
MTEXTEND
1000
MTEXTBEGIN
1070
    73
1070
     1
1070
    44
1040
1.0
1070
    74
1070
     0
1000
MTEXTEND
1000
MTEXTBEGIN
1070
    73
1070
     1
1070
    44
1040
1.0
1070
    74
1070
     0
1000
MTEXTEND
1000
MTEXTBEGIN
1070
    73
1070
     1
1070
    44
1040
1.0
1070
    74
1070
     0
1000
MTEXTEND
  0
MTEXT
  5
2AF
100
AcDbEntity
  8
寸法
  6
CONTINUOUS
 62
     1
100
AcDbMText
 10
-53.352259
 20
-37.5
 30
0.0
 40
3.0
 41
0.0
 71
     5
 72
     1
  1
0%%d
1001
ACAD
1000
MTEXTBEGIN
1070
    73
1070
     1
1070
    44
1040
1.0
1070
    74
1070
     0
1000
MTEXTEND
1000
MTEXTBEGIN
1070
    73
1070
     1
1070
    44
1040
1.0
1070
    74
1070
     0
1000
MTEXTEND
1000
MTEXTBEGIN
1070
    73
1070
     1
1070
    44
1040
1.0
1070
    74
1070
     0
1000
MTEXTEND
1000
MTEXTBEGIN
1070
    73
1070
     1
1070
    44
1040
1.0
1070
    74
1070
     0
1000
MTEXTEND
1000
MTEXTBEGIN
1070
    73
1070
     1
1070
    44
1040
1.0
1070
    74
1070
     0
1000
MTEXTEND
1000
MTEXTBEGIN
1070
    73
1070
     1
1070
    44
1040
1.0
1070
    74
1070
     0
1000
MTEXTEND
1000
MTEXTBEGIN
1070
    73
1070
     1
1070
    44
1040
1.0
1070
    74
1070
     0
1000
MTEXTEND
1000
MTEXTBEGIN
1070
    73
1070
     1
1070
    44
1040
1.0
1070
    74
1070
     0
1000
MTEXTEND
1000
MTEXTBEGIN
1070
    73
1070
     1
1070
    44
1040
1.0
1070
    74
1070
     0
1000
MTEXTEND
  0
LINE
  5
2B0
100
AcDbEntity
  8
寸法
  6
CONTINUOUS
100
AcDbLine
 10
-53.761361
 20
-40.0
 30
0.0
 11
-55.175575
 21
-42.44949
 31
30.0
  0
LINE
  5
2B1
100
AcDbEntity
  8
寸法
  6
CONTINUOUS
100
AcDbLine
 10
-53.761361
 20
-40.0
 30
0.0
 11
-52.347148
 21
-42.44949
 31
30.0
  0
LINE
  5
2B2
100
AcDbEntity
  8
寸法
  6
CONTINUOUS
100
AcDbLine
 10
-43.761361
 20
-50.0
 30
0.0
 11
-46.210851
 21
-48.585786
 31
30.0
  0
LINE
  5
2B3
100
AcDbEntity
  8
寸法
  6
CONTINUOUS
100
AcDbLine
 10
-43.761361
 20
-50.0
 30
0.0
 11
-46.210851
 21
-51.414214
 31
30.0
  0
LINE
  5
2B4
100
AcDbEntity
  8
寸法
  6
CONTINUOUS
100
AcDbLine
 10
-53.761361
 20
-50.0
 30
0.0
 11
-43.761361
 21
-50.0
 31
0.0
  0
LINE
  5
2B5
100
AcDbEntity
  8
寸法
  6
CONTINUOUS
100
AcDbLine
 10
-53.761361
 20
-50.0
 30
0.0
 11
-53.761361
 21
-40.0
 31
0.0
  0
LINE
  5
348
100
AcDbEntity
  8
0
  6
CENTER
 62
     1
 48
0.5
100
AcDbLine
 10
-41.761354
 20
24.856029
 30
0.0
 11
-41.761361
 21
31.637035
 31
0.0
  0
CIRCLE
  5
349
100
AcDbEntity
  8
0
  6
CONTINUOUS
100
AcDbCircle
 10
13.0924
 20
18.856028
 30
0.0
 40
6.0
  0
ENDSEC
  0
SECTION
  2
OBJECTS
  0
DICTIONARY
  5
C
100
AcDbDictionary
  3
ACAD_GROUP
350
D
  3
ACAD_LAYOUT
350
17F
  3
ACAD_MLINESTYLE
350
1B
  3
ACAD_PLOTSETTINGS
350
180
  3
ACAD_PLOTSTYLENAME
350
17D
  3
ACDBHEADERROUNDTRIPXREC
350
30A
  0
DICTIONARY
  5
306
100
AcDbDictionary
280
     1
  3
ACAD_XREC_ROUNDTRIP
360
307
  0
DICTIONARY
  5
32D
100
AcDbDictionary
280
     1
  3
ACAD_XREC_ROUNDTRIP
360
32E
  0
DICTIONARY
  5
2E6
100
AcDbDictionary
280
     1
  3
ACAD_LAYOUTSELFREF
360
32C
  0
DICTIONARY
  5
2E4
100
AcDbDictionary
280
     1
  3
ACAD_LAYOUTSELFREF
360
32B
  0
DICTIONARY
  5
304
100
AcDbDictionary
280
     1
  3
ACAD_XREC_ROUNDTRIP
360
305
  0
DICTIONARY
  5
D
102
{ACAD_REACTORS
330
C
102
}
100
AcDbDictionary
  3
*A1
350
1B6
  3
*A2
350
1F7
  0
DICTIONARY
  5
17F
102
{ACAD_XDICTIONARY
360
32F
102
}
102
{ACAD_REACTORS
330
C
102
}
100
AcDbDictionary
  3
MODEL
350
181
  3
ﾚｲｱｳﾄ1
350
182
  0
DICTIONARY
  5
1B
102
{ACAD_REACTORS
330
C
102
}
100
AcDbDictionary
  3
STANDARD
350
1C
  0
DICTIONARY
  5
180
102
{ACAD_REACTORS
330
C
102
}
100
AcDbDictionary
  0
ACAD_PROXY_OBJECT
  5
17D
102
{ACAD_REACTORS
330
C
102
}
100
AcDbProxyObject
 90
      499
 91
      500
 93
       86
310
405010041939BDC9B585B0
350
17E
340
17E
 94
        0
  0
DICTIONARY
  5
30A
102
{ACAD_REACTORS
330
C
102
}
100
AcDbDictionary
  3
CEPSNTYPE
350
314
  3
DIMSTYLEDATA
350
318
  3
FINGERPRINTGUID
350
315
  3
HYPERLINKBASE
350
30D
  3
INSUNITS
350
313
  3
LAYOUTDICT
350
30F
  3
LWETCUNION
350
312
  3
PLOTSETDICT
350
310
  3
PLOTSTYLNAMDICT
350
311
  3
PSVPSCALE
350
317
  3
PUCSBASE
350
31B
  3
PUCSORGBACK
350
321
  3
PUCSORGBOTTOM
350
31D
  3
PUCSORGFRONT
350
320
  3
PUCSORGLEFT
350
31E
  3
PUCSORGRIGHT
350
31F
  3
PUCSORGTOP
350
31C
  3
PUCSORTHOREF
350
319
  3
PUCSORTHOVIEW
350
31A
  3
STYLESHEET
350
30E
  3
TSTACKALIGN
350
30B
  3
TSTACKSIZE
350
30C
  3
UCSBASE
350
324
  3
UCSORGBACK
350
32A
  3
UCSORGBOTTOM
350
326
  3
UCSORGFRONT
350
329
  3
UCSORGLEFT
350
327
  3
UCSORGRIGHT
350
328
  3
UCSORGTOP
350
325
  3
UCSORTHOREF
350
322
  3
UCSORTHOVIEW
350
323
  3
VERSIONGUID
350
316
  0
XRECORD
  5
307
102
{ACAD_REACTORS
330
306
102
}
100
AcDbXrecord
102
EXTNAMES
  1
DEFPOINTS
  2
Defpoints
102
PLOTBIT
280
     0
  0
XRECORD
  5
32E
102
{ACAD_REACTORS
330
32D
102
}
100
AcDbXrecord
102
ACADR14ROUNDTRIP
1000
DSTYLE
1002
{
1070
   341
340
187
1070
   342
340
187
1002
}
  0
XRECORD
  5
32C
102
{ACAD_REACTORS
330
2E6
102
}
100
AcDbXrecord
340
18
  0
XRECORD
  5
32B
102
{ACAD_REACTORS
330
2E4
102
}
100
AcDbXrecord
340
15
  0
XRECORD
  5
305
102
{ACAD_REACTORS
330
304
102
}
100
AcDbXrecord
102
EXTNAMES
  1
_OPEN30
  2
_Open30
  0
GROUP
  5
1B6
102
{ACAD_REACTORS
330
D
102
}
100
AcDbGroup
300

 70
     1
 71
     1
  0
GROUP
  5
1F7
102
{ACAD_REACTORS
330
D
102
}
100
AcDbGroup
300

 70
     1
 71
     1
340
1F0
340
1F4
340
1EF
340
1F6
340
1F2
340
1F1
340
1F5
340
1F3
  0
DICTIONARY
  5
32F
100
AcDbDictionary
280
     1
  3
ACAD_XREC_ROUNDTRIP
360
330
  0
ACAD_PROXY_OBJECT
  5
181
102
{ACAD_REACTORS
330
17F
102
}
100
AcDbProxyObject
 90
      499
 91
      502
 93
      548
310
90E4550534F4E20504D2D32303030432C01AAAAAAAAA5A69054D6F64656C901A800000000000000000000000000000000000000000000A1000000000000008902A6A6AAAAA
330
18
330
0
340
0
340
0
 94
        0
  0
ACAD_PROXY_OBJECT
  5
182
102
{ACAD_REACTORS
330
17F
102
}
100
AcDbProxyObject
 90
      499
 91
      502
 93
      964
310
90E4550534F4E20504D2D32303030432C00AAAAAA416AA59106906DAB2B1B3C43140501A800000000000000000000000000000000000000000000A1000000000000008902A6A6A10232D5E076BC5510408CB5781DAF154410232D5E076BC5510408CB5781DAF15C410232D5E076BC5710408CB5781DAF15C43
330
15
330
0
340
0
340
0
 94
        0
  0
MLINESTYLE
  5
1C
102
{ACAD_REACTORS
330
1B
102
}
100
AcDbMlineStyle
  2
STANDARD
 70
     0
  3

 62
   256
 51
90.0
 52
90.0
 71
     2
 49
0.5
 62
   256
  6
BYLAYER
 49
-0.5
 62
   256
  6
BYLAYER
  0
ACAD_PROXY_OBJECT
  5
17E
102
{ACAD_REACTORS
330
17D
102
}
100
AcDbProxyObject
 90
      499
 91
      501
 93
        0
 94
        0
  0
XRECORD
  5
314
102
{ACAD_REACTORS
330
30A
102
}
100
AcDbXrecord
 90
        0
  0
XRECORD
  5
318
102
{ACAD_REACTORS
330
30A
102
}
100
AcDbXrecord
1000
DSTYLE
1002
{
1070
   341
340
187
1070
   342
340
187
1002
}
  0
XRECORD
  5
315
102
{ACAD_REACTORS
330
30A
102
}
100
AcDbXrecord
  1
{32DE403C-64FC-4520-A470-8DA64491C208}
  0
XRECORD
  5
30D
102
{ACAD_REACTORS
330
30A
102
}
100
AcDbXrecord
  1

  0
XRECORD
  5
313
102
{ACAD_REACTORS
330
30A
102
}
100
AcDbXrecord
 90
        0
  0
XRECORD
  5
30F
102
{ACAD_REACTORS
330
30A
102
}
100
AcDbXrecord
340
17F
  0
XRECORD
  5
312
102
{ACAD_REACTORS
330
30A
102
}
100
AcDbXrecord
 90
    14877
  0
XRECORD
  5
310
102
{ACAD_REACTORS
330
30A
102
}
100
AcDbXrecord
340
180
  0
XRECORD
  5
311
102
{ACAD_REACTORS
330
30A
102
}
100
AcDbXrecord
340
17D
  0
XRECORD
  5
317
102
{ACAD_REACTORS
330
30A
102
}
100
AcDbXrecord
 40
0.0
  0
XRECORD
  5
31B
102
{ACAD_REACTORS
330
30A
102
}
100
AcDbXrecord
340
0
  0
XRECORD
  5
321
102
{ACAD_REACTORS
330
30A
102
}
100
AcDbXrecord
 10
0.0
 20
0.0
 30
0.0
  0
XRECORD
  5
31D
102
{ACAD_REACTORS
330
30A
102
}
100
AcDbXrecord
 10
0.0
 20
0.0
 30
0.0
  0
XRECORD
  5
320
102
{ACAD_REACTORS
330
30A
102
}
100
AcDbXrecord
 10
0.0
 20
0.0
 30
0.0
  0
XRECORD
  5
31E
102
{ACAD_REACTORS
330
30A
102
}
100
AcDbXrecord
 10
0.0
 20
0.0
 30
0.0
  0
XRECORD
  5
31F
102
{ACAD_REACTORS
330
30A
102
}
100
AcDbXrecord
 10
0.0
 20
0.0
 30
0.0
  0
XRECORD
  5
31C
102
{ACAD_REACTORS
330
30A
102
}
100
AcDbXrecord
 10
0.0
 20
0.0
 30
0.0
  0
XRECORD
  5
319
102
{ACAD_REACTORS
330
30A
102
}
100
AcDbXrecord
340
0
  0
XRECORD
  5
31A
102
{ACAD_REACTORS
330
30A
102
}
100
AcDbXrecord
 70
     0
  0
XRECORD
  5
30E
102
{ACAD_REACTORS
330
30A
102
}
100
AcDbXrecord
  1

  0
XRECORD
  5
30B
102
{ACAD_REACTORS
330
30A
102
}
100
AcDbXrecord
 90
        1
  0
XRECORD
  5
30C
102
{ACAD_REACTORS
330
30A
102
}
100
AcDbXrecord
 90
       70
  0
XRECORD
  5
324
102
{ACAD_REACTORS
330
30A
102
}
100
AcDbXrecord
340
0
  0
XRECORD
  5
32A
102
{ACAD_REACTORS
330
30A
102
}
100
AcDbXrecord
 10
0.0
 20
0.0
 30
0.0
  0
XRECORD
  5
326
102
{ACAD_REACTORS
330
30A
102
}
100
AcDbXrecord
 10
0.0
 20
0.0
 30
0.0
  0
XRECORD
  5
329
102
{ACAD_REACTORS
330
30A
102
}
100
AcDbXrecord
 10
0.0
 20
0.0
 30
0.0
  0
XRECORD
  5
327
102
{ACAD_REACTORS
330
30A
102
}
100
AcDbXrecord
 10
0.0
 20
0.0
 30
0.0
  0
XRECORD
  5
328
102
{ACAD_REACTORS
330
30A
102
}
100
AcDbXrecord
 10
0.0
 20
0.0
 30
0.0
  0
XRECORD
  5
325
102
{ACAD_REACTORS
330
30A
102
}
100
AcDbXrecord
 10
0.0
 20
0.0
 30
0.0
  0
XRECORD
  5
322
102
{ACAD_REACTORS
330
30A
102
}
100
AcDbXrecord
340
0
  0
XRECORD
  5
323
102
{ACAD_REACTORS
330
30A
102
}
100
AcDbXrecord
 70
     0
  0
XRECORD
  5
316
102
{ACAD_REACTORS
330
30A
102
}
100
AcDbXrecord
  1
{B8B701DC-B19D-4D86-9446-5E5272122491}
  0
XRECORD
  5
330
102
{ACAD_REACTORS
330
32F
102
}
100
AcDbXrecord
102
EXTNAMES
  1
MODEL
  2
Model
  0
ENDSEC
  0
EOF
