  0
SECTION
  2
HEADER
  9
$ACADVER
  1
AC1014
  9
$ACADMAINTVER
 70
     0
  9
$DWGCODEPAGE
  3
ANSI_932
  9
$INSBASE
 10
0.0
 20
0.0
 30
0.0
  9
$EXTMIN
 10
-51.274107
 20
-93.790258
 30
0.0
  9
$EXTMAX
 10
104.353309
 20
25.99483
 30
0.0
  9
$LIMMIN
 10
-81.87462
 20
-122.587276
  9
$LIMMAX
 10
152.75949
 20
40.64291
  9
$ORTHOMODE
 70
     0
  9
$REGENMODE
 70
     1
  9
$FILLMODE
 70
     1
  9
$QTEXTMODE
 70
     0
  9
$MIRRTEXT
 70
     1
  9
$DRAGMODE
 70
     2
  9
$LTSCALE
 40
1.0
  9
$OSMODE
 70
    37
  9
$ATTMODE
 70
     1
  9
$TEXTSIZE
 40
3.0
  9
$TRACEWID
 40
0.05
  9
$TEXTSTYLE
  7
STANDARD
  9
$CLAYER
  8
寸法
  9
$CELTYPE
  6
CONTINUOUS
  9
$CECOLOR
 62
   256
  9
$CELTSCALE
 40
1.0
  9
$DELOBJ
 70
     1
  9
$DISPSILH
 70
     0
  9
$DIMSCALE
 40
1.0
  9
$DIMASZ
 40
2.0
  9
$DIMEXO
 40
1.0
  9
$DIMDLI
 40
10.0
  9
$DIMRND
 40
0.0
  9
$DIMDLE
 40
0.0
  9
$DIMEXE
 40
1.0
  9
$DIMTP
 40
0.0
  9
$DIMTM
 40
0.0
  9
$DIMTXT
 40
3.0
  9
$DIMCEN
 40
2.0
  9
$DIMTSZ
 40
0.0
  9
$DIMTOL
 70
     0
  9
$DIMLIM
 70
     0
  9
$DIMTIH
 70
     0
  9
$DIMTOH
 70
     0
  9
$DIMSE1
 70
     0
  9
$DIMSE2
 70
     0
  9
$DIMTAD
 70
     1
  9
$DIMZIN
 70
     8
  9
$DIMBLK
  1

  9
$DIMASO
 70
     1
  9
$DIMSHO
 70
     1
  9
$DIMPOST
  1

  9
$DIMAPOST
  1

  9
$DIMALT
 70
     0
  9
$DIMALTD
 70
     2
  9
$DIMALTF
 40
25.4
  9
$DIMLFAC
 40
1.0
  9
$DIMTOFL
 70
     1
  9
$DIMTVP
 40
0.0
  9
$DIMTIX
 70
     0
  9
$DIMSOXD
 70
     0
  9
$DIMSAH
 70
     1
  9
$DIMBLK1
  1
_OPEN30
  9
$DIMBLK2
  1
_OPEN30
  9
$DIMSTYLE
  2
STANDARD
  9
$DIMCLRD
 70
     1
  9
$DIMCLRE
 70
     1
  9
$DIMCLRT
 70
     1
  9
$DIMTFAC
 40
1.0
  9
$DIMGAP
 40
1.0
  9
$DIMJUST
 70
     0
  9
$DIMSD1
 70
     0
  9
$DIMSD2
 70
     0
  9
$DIMTOLJ
 70
     1
  9
$DIMTZIN
 70
     0
  9
$DIMALTZ
 70
     0
  9
$DIMALTTZ
 70
     0
  9
$DIMFIT
 70
     3
  9
$DIMUPT
 70
     0
  9
$DIMUNIT
 70
     2
  9
$DIMDEC
 70
     2
  9
$DIMTDEC
 70
     4
  9
$DIMALTU
 70
     2
  9
$DIMALTTD
 70
     2
  9
$DIMTXSTY
  7
STANDARD
  9
$DIMAUNIT
 70
     0
  9
$LUNITS
 70
     2
  9
$LUPREC
 70
     4
  9
$SKETCHINC
 40
0.1
  9
$FILLETRAD
 40
0.0
  9
$AUNITS
 70
     0
  9
$AUPREC
 70
     0
  9
$MENU
  1
acad
  9
$ELEVATION
 40
0.0
  9
$PELEVATION
 40
0.0
  9
$THICKNESS
 40
0.0
  9
$LIMCHECK
 70
     0
  9
$BLIPMODE
 70
     0
  9
$CHAMFERA
 40
0.0
  9
$CHAMFERB
 40
0.0
  9
$CHAMFERC
 40
0.0
  9
$CHAMFERD
 40
0.0
  9
$SKPOLY
 70
     0
  9
$TDCREATE
 40
2451934.760995370
  9
$TDUPDATE
 40
2451977.476932870
  9
$TDINDWG
 40
0.0289089120
  9
$TDUSRTIMER
 40
0.0289089120
  9
$USRTIMER
 70
     1
  9
$ANGBASE
 50
0.0
  9
$ANGDIR
 70
     0
  9
$PDMODE
 70
     0
  9
$PDSIZE
 40
0.0
  9
$PLINEWID
 40
0.0
  9
$COORDS
 70
     1
  9
$SPLFRAME
 70
     0
  9
$SPLINETYPE
 70
     6
  9
$SPLINESEGS
 70
     8
  9
$ATTDIA
 70
     0
  9
$ATTREQ
 70
     1
  9
$HANDLING
 70
     1
  9
$HANDSEED
  5
3CF
  9
$SURFTAB1
 70
     6
  9
$SURFTAB2
 70
     6
  9
$SURFTYPE
 70
     6
  9
$SURFU
 70
     6
  9
$SURFV
 70
     6
  9
$UCSNAME
  2

  9
$UCSORG
 10
0.0
 20
0.0
 30
0.0
  9
$UCSXDIR
 10
1.0
 20
0.0
 30
0.0
  9
$UCSYDIR
 10
0.0
 20
1.0
 30
0.0
  9
$PUCSNAME
  2

  9
$PUCSORG
 10
0.0
 20
0.0
 30
0.0
  9
$PUCSXDIR
 10
1.0
 20
0.0
 30
0.0
  9
$PUCSYDIR
 10
0.0
 20
1.0
 30
0.0
  9
$USERI1
 70
     0
  9
$USERI2
 70
     0
  9
$USERI3
 70
     0
  9
$USERI4
 70
     0
  9
$USERI5
 70
     0
  9
$USERR1
 40
0.0
  9
$USERR2
 40
0.0
  9
$USERR3
 40
0.0
  9
$USERR4
 40
0.0
  9
$USERR5
 40
0.0
  9
$WORLDVIEW
 70
     1
  9
$SHADEDGE
 70
     3
  9
$SHADEDIF
 70
    70
  9
$TILEMODE
 70
     1
  9
$MAXACTVP
 70
    48
  9
$PINSBASE
 10
0.0
 20
0.0
 30
0.0
  9
$PLIMCHECK
 70
     0
  9
$PEXTMIN
 10
1.000000E+20
 20
1.000000E+20
 30
1.000000E+20
  9
$PEXTMAX
 10
-1.000000E+20
 20
-1.000000E+20
 30
-1.000000E+20
  9
$PLIMMIN
 10
0.0
 20
0.0
  9
$PLIMMAX
 10
12.0
 20
9.0
  9
$UNITMODE
 70
     0
  9
$VISRETAIN
 70
     1
  9
$PLINEGEN
 70
     0
  9
$PSLTSCALE
 70
     1
  9
$TREEDEPTH
 70
  3020
  9
$PICKSTYLE
 70
     1
  9
$CMLSTYLE
  2
STANDARD
  9
$CMLJUST
 70
     0
  9
$CMLSCALE
 40
1.0
  9
$PROXYGRAPHICS
 70
     1
  9
$MEASUREMENT
 70
     0
  0
ENDSEC
  0
SECTION
  2
CLASSES
  0
CLASS
  1
LWPOLYLINE
  2
AcDbPolyline
  3
"AutoCAD"
 90
        0
280
     0
281
     1
  0
ENDSEC
  0
SECTION
  2
TABLES
  0
TABLE
  2
VPORT
  5
8
100
AcDbSymbolTable
 70
     2
  0
VPORT
  5
3CE
100
AcDbSymbolTableRecord
100
AcDbViewportTableRecord
  2
*ACTIVE
 70
     0
 10
0.0
 20
0.0
 11
1.0
 21
1.0
 12
20.354994
 22
-13.425486
 13
0.0
 23
0.0
 14
0.2
 24
0.2
 15
10.0
 25
10.0
 16
0.0
 26
0.0
 36
1.0
 17
0.0
 27
0.0
 37
0.0
 40
181.809006
 41
1.710425
 42
50.0
 43
0.0
 44
0.0
 50
0.0
 51
0.0
 71
     0
 72
   100
 73
     1
 74
     1
 75
     0
 76
     0
 77
     0
 78
     0
  0
ENDTAB
  0
TABLE
  2
LTYPE
  5
5
100
AcDbSymbolTable
 70
     5
  0
LTYPE
  5
12
100
AcDbSymbolTableRecord
100
AcDbLinetypeTableRecord
  2
BYBLOCK
 70
     0
  3

 72
    65
 73
     0
 40
0.0
  0
LTYPE
  5
13
100
AcDbSymbolTableRecord
100
AcDbLinetypeTableRecord
  2
BYLAYER
 70
     0
  3

 72
    65
 73
     0
 40
0.0
  0
LTYPE
  5
14
100
AcDbSymbolTableRecord
100
AcDbLinetypeTableRecord
  2
CONTINUOUS
 70
     0
  3
Solid line
 72
    65
 73
     0
 40
0.0
  0
LTYPE
  5
1F
100
AcDbSymbolTableRecord
100
AcDbLinetypeTableRecord
  2
DASHED
 70
     0
  3
__ __ __ __ __ __ __ __ __ __ __ __ __ __ __
 72
    65
 73
     2
 40
3.5
 49
2.0
 74
     0
 49
-1.5
 74
     0
  0
LTYPE
  5
20
100
AcDbSymbolTableRecord
100
AcDbLinetypeTableRecord
  2
CENTER
 70
     0
  3
____ _ ____ _ ____ _ ____ _ ____ _ ____ _ ____
 72
    65
 73
     4
 40
17.5
 49
13.0
 74
     0
 49
-1.5
 74
     0
 49
1.5
 74
     0
 49
-1.5
 74
     0
  0
LTYPE
  5
21
100
AcDbSymbolTableRecord
100
AcDbLinetypeTableRecord
  2
PHANTOM
 70
     0
  3
_____ _ _ _____ _ _ _____ _ _ _____ _ _ ____  
 72
    65
 73
     6
 40
15.5
 49
8.0
 74
     0
 49
-1.5
 74
     0
 49
1.5
 74
     0
 49
-1.5
 74
     0
 49
1.5
 74
     0
 49
-1.5
 74
     0
  0
LTYPE
  5
22
100
AcDbSymbolTableRecord
100
AcDbLinetypeTableRecord
  2
DOT
 70
     0
  3
. . . . . . . . . . . . . . . . . . . . . . . .
 72
    65
 73
     2
 40
0.25
 49
0.0
 74
     0
 49
-0.25
 74
     0
  0
ENDTAB
  0
TABLE
  2
LAYER
  5
2
100
AcDbSymbolTable
 70
     3
  0
LAYER
  5
E
100
AcDbSymbolTableRecord
100
AcDbLayerTableRecord
  2
0
 70
     0
 62
     7
  6
CONTINUOUS
  0
LAYER
  5
1AF
100
AcDbSymbolTableRecord
100
AcDbLayerTableRecord
  2
寸法
 70
     0
 62
     1
  6
CONTINUOUS
  0
LAYER
  5
1B9
100
AcDbSymbolTableRecord
100
AcDbLayerTableRecord
  2
DEFPOINTS
 70
     0
 62
     7
  6
CONTINUOUS
  0
ENDTAB
  0
TABLE
  2
STYLE
  5
3
100
AcDbSymbolTable
 70
     1
  0
STYLE
  5
F
100
AcDbSymbolTableRecord
100
AcDbTextStyleTableRecord
  2
STANDARD
 70
     0
 40
0.0
 41
1.0
 50
0.0
 71
     0
 42
3.0
  3
txt
  4
BIGFONT
  0
ENDTAB
  0
TABLE
  2
VIEW
  5
6
100
AcDbSymbolTable
 70
     0
  0
ENDTAB
  0
TABLE
  2
UCS
  5
7
100
AcDbSymbolTable
 70
     0
  0
ENDTAB
  0
TABLE
  2
APPID
  5
9
100
AcDbSymbolTable
 70
     3
  0
APPID
  5
10
100
AcDbSymbolTableRecord
100
AcDbRegAppTableRecord
  2
ACAD
 70
     0
  0
APPID
  5
1AD
100
AcDbSymbolTableRecord
100
AcDbRegAppTableRecord
  2
CONTENTTABDATA
 70
     0
  0
APPID
  5
1AE
100
AcDbSymbolTableRecord
100
AcDbRegAppTableRecord
  2
CONTENTCURRENTTAB
 70
     0
  0
ENDTAB
  0
TABLE
  2
DIMSTYLE
  5
A
100
AcDbSymbolTable
 70
     1
  0
DIMSTYLE
105
19E
102
{ACAD_REACTORS
330
209
330
216
330
223
330
230
330
23F
330
24C
330
259
330
266
330
27F
330
2F4
330
303
330
377
330
3C3
102
}
100
AcDbSymbolTableRecord
100
AcDbDimStyleTableRecord
  2
STANDARD
 70
     0
  3

  4

  5

  6
_OPEN30
  7
_OPEN30
 40
1.0
 41
2.0
 42
1.0
 43
10.0
 44
1.0
 45
0.0
 46
0.0
 47
0.0
 48
0.0
140
3.0
141
2.0
142
0.0
143
25.4
144
1.0
145
0.0
146
1.0
147
1.0
 71
     0
 72
     0
 73
     0
 74
     0
 75
     0
 76
     0
 77
     1
 78
     8
170
     0
171
     2
172
     1
173
     1
174
     0
175
     0
176
     1
177
     1
178
     1
270
     2
271
     2
272
     4
273
     2
274
     2
340
F
275
     0
280
     0
281
     0
282
     0
283
     1
284
     0
285
     0
286
     0
287
     3
288
     0
  0
ENDTAB
  0
TABLE
  2
BLOCK_RECORD
  5
1
100
AcDbSymbolTable
 70
    14
  0
BLOCK_RECORD
  5
18
100
AcDbSymbolTableRecord
100
AcDbBlockTableRecord
  2
*MODEL_SPACE
  0
BLOCK_RECORD
  5
15
100
AcDbSymbolTableRecord
100
AcDbBlockTableRecord
  2
*PAPER_SPACE
  0
BLOCK_RECORD
  5
1A6
100
AcDbSymbolTableRecord
100
AcDbBlockTableRecord
  2
_OPEN30
  0
BLOCK_RECORD
  5
1F7
100
AcDbSymbolTableRecord
100
AcDbBlockTableRecord
  2
*D1
  0
BLOCK_RECORD
  5
20A
100
AcDbSymbolTableRecord
100
AcDbBlockTableRecord
  2
*D2
  0
BLOCK_RECORD
  5
217
100
AcDbSymbolTableRecord
100
AcDbBlockTableRecord
  2
*D3
  0
BLOCK_RECORD
  5
224
100
AcDbSymbolTableRecord
100
AcDbBlockTableRecord
  2
*D4
  0
BLOCK_RECORD
  5
231
100
AcDbSymbolTableRecord
100
AcDbBlockTableRecord
  2
*D5
  0
BLOCK_RECORD
  5
240
100
AcDbSymbolTableRecord
100
AcDbBlockTableRecord
  2
*D6
  0
BLOCK_RECORD
  5
24D
100
AcDbSymbolTableRecord
100
AcDbBlockTableRecord
  2
*D7
  0
BLOCK_RECORD
  5
25A
100
AcDbSymbolTableRecord
100
AcDbBlockTableRecord
  2
*D8
  0
BLOCK_RECORD
  5
273
100
AcDbSymbolTableRecord
100
AcDbBlockTableRecord
  2
*D9
  0
BLOCK_RECORD
  5
2E4
100
AcDbSymbolTableRecord
100
AcDbBlockTableRecord
  2
*D10
  0
BLOCK_RECORD
  5
2F5
100
AcDbSymbolTableRecord
100
AcDbBlockTableRecord
  2
*D11
  0
BLOCK_RECORD
  5
36F
100
AcDbSymbolTableRecord
100
AcDbBlockTableRecord
  2
*D12
  0
BLOCK_RECORD
  5
3BB
100
AcDbSymbolTableRecord
100
AcDbBlockTableRecord
  2
*D13
  0
ENDTAB
  0
ENDSEC
  0
SECTION
  2
BLOCKS
  0
BLOCK
  5
19
100
AcDbEntity
  8
0
100
AcDbBlockBegin
  2
*MODEL_SPACE
 70
     0
 10
0.0
 20
0.0
 30
0.0
  3
*MODEL_SPACE
  1

  0
ENDBLK
  5
1A
100
AcDbEntity
  8
0
100
AcDbBlockEnd
  0
BLOCK
  5
16
100
AcDbEntity
 67
     1
  8
0
100
AcDbBlockBegin
  2
*PAPER_SPACE
 70
     0
 10
0.0
 20
0.0
 30
0.0
  3
*PAPER_SPACE
  1

  0
ENDBLK
  5
17
100
AcDbEntity
 67
     1
  8
0
100
AcDbBlockEnd
  0
BLOCK
  5
1A7
100
AcDbEntity
  8
0
100
AcDbBlockBegin
  2
_OPEN30
 70
     0
 10
0.0
 20
0.0
 30
0.0
  3
_OPEN30
  1

  0
LINE
  5
1A8
100
AcDbEntity
  8
0
  6
BYBLOCK
 62
     0
100
AcDbLine
 10
-1.0
 20
0.267949
 30
0.0
 11
0.0
 21
0.0
 31
0.0
  0
LINE
  5
1A9
100
AcDbEntity
  8
0
  6
BYBLOCK
 62
     0
100
AcDbLine
 10
0.0
 20
0.0
 30
0.0
 11
-1.0
 21
-0.267949
 31
0.0
  0
LINE
  5
1AA
100
AcDbEntity
  8
0
  6
BYBLOCK
 62
     0
100
AcDbLine
 10
0.0
 20
0.0
 30
0.0
 11
-1.0
 21
0.0
 31
0.0
  0
ENDBLK
  5
1AB
100
AcDbEntity
  8
0
100
AcDbBlockEnd
  0
BLOCK
  5
322
100
AcDbEntity
  8
0
100
AcDbBlockBegin
  2
*D1
 70
     1
 10
0.0
 20
0.0
 30
0.0
  3
*D1
  1

  0
LINE
  5
323
100
AcDbEntity
  8
0
  6
BYBLOCK
 62
     1
100
AcDbLine
 10
-1.0
 20
0.0
 30
0.0
 11
-10.420989
 21
0.0
 31
0.0
  0
LINE
  5
324
100
AcDbEntity
  8
0
  6
BYBLOCK
 62
     1
100
AcDbLine
 10
-0.578604
 20
-0.087156
 30
0.0
 11
-10.379745
 21
-0.944644
 31
0.0
  0
ARC
  5
325
100
AcDbEntity
  8
0
  6
BYBLOCK
 62
     1
100
AcDbCircle
 10
0.417591
 20
0.0
 30
0.0
 40
9.838579
100
AcDbArc
 50
156.665374
 51
168.332687
  0
ARC
  5
326
100
AcDbEntity
  8
0
  6
BYBLOCK
 62
     1
100
AcDbCircle
 10
0.417591
 20
0.0
 30
0.0
 40
9.838579
100
AcDbArc
 50
196.667311
 51
208.334624
  0
ARC
  5
327
100
AcDbEntity
  8
0
  6
BYBLOCK
 62
     1
100
AcDbCircle
 10
0.417591
 20
0.0
 30
0.0
 40
9.838579
100
AcDbArc
 50
180.0
 51
184.999998
  0
INSERT
  5
328
100
AcDbEntity
  8
0
  6
BYBLOCK
 62
     1
100
AcDbBlockReference
  2
_OPEN30
 10
-9.420989
 20
0.0
 30
0.0
 41
2.0
 42
2.0
 43
2.0
 50
264.166343
  0
INSERT
  5
329
100
AcDbEntity
  8
0
  6
BYBLOCK
 62
     1
100
AcDbBlockReference
  2
_OPEN30
 10
-9.38355
 20
-0.857488
 30
0.0
 41
2.0
 42
2.0
 43
2.0
 50
100.833654
  0
MTEXT
  5
32A
100
AcDbEntity
  8
0
  6
BYBLOCK
 62
     1
100
AcDbMText
 10
-5.046329
 20
-4.899013
 30
0.0
 40
3.0
 41
0.0
 71
     5
 72
     1
  1
\A1;5°
 11
0.66757
 21
-0.744547
 31
0.0
  0
POINT
  5
32B
100
AcDbEntity
  8
DEFPOINTS
  6
BYBLOCK
 62
     0
100
AcDbPoint
 10
-9.416826
 20
-0.286152
 30
0.0
  0
POINT
  5
32C
100
AcDbEntity
  8
DEFPOINTS
  6
BYBLOCK
 62
     0
100
AcDbPoint
 10
0.434862
 20
0.001511
 30
0.0
  0
POINT
  5
32D
100
AcDbEntity
  8
DEFPOINTS
  6
BYBLOCK
 62
     0
100
AcDbPoint
 10
0.0
 20
0.0
 30
0.0
  0
POINT
  5
32E
100
AcDbEntity
  8
DEFPOINTS
  6
BYBLOCK
 62
     0
100
AcDbPoint
 10
0.4
 20
0.0
 30
0.0
  0
POINT
  5
32F
100
AcDbEntity
  8
DEFPOINTS
  6
BYBLOCK
 62
     0
100
AcDbPoint
 10
10.011161
 20
0.839328
 30
0.0
  0
ENDBLK
  5
330
100
AcDbEntity
  8
0
100
AcDbBlockEnd
  0
BLOCK
  5
20B
100
AcDbEntity
  8
0
100
AcDbBlockBegin
  2
*D2
 70
     1
 10
0.0
 20
0.0
 30
0.0
  3
*D2
  1

  0
LINE
  5
20C
100
AcDbEntity
  8
0
  6
BYBLOCK
 62
     1
100
AcDbLine
 10
49.999989
 20
5.499996
 30
0.0
 11
49.999989
 21
-10.920409
 31
0.0
  0
LINE
  5
20D
100
AcDbEntity
  8
0
  6
BYBLOCK
 62
     1
100
AcDbLine
 10
42.0
 20
2.0
 30
0.0
 11
42.0
 21
-10.920409
 31
0.0
  0
LINE
  5
20E
100
AcDbEntity
  8
0
  6
BYBLOCK
 62
     1
100
AcDbLine
 10
47.999989
 20
-9.920409
 30
0.0
 11
44.0
 21
-9.920409
 31
0.0
  0
INSERT
  5
20F
100
AcDbEntity
  8
0
  6
BYBLOCK
 62
     1
100
AcDbBlockReference
  2
_OPEN30
 10
49.999989
 20
-9.920409
 30
0.0
 41
2.0
 42
2.0
 43
2.0
  0
INSERT
  5
210
100
AcDbEntity
  8
0
  6
BYBLOCK
 62
     1
100
AcDbBlockReference
  2
_OPEN30
 10
42.0
 20
-9.920409
 30
0.0
 41
2.0
 42
2.0
 43
2.0
 50
180.0
  0
MTEXT
  5
211
100
AcDbEntity
  8
0
  6
BYBLOCK
 62
     1
100
AcDbMText
 10
45.999995
 20
-7.420409
 30
0.0
 40
3.0
 41
0.0
 71
     5
 72
     1
  1
\A1;8
  0
POINT
  5
212
100
AcDbEntity
  8
DEFPOINTS
  6
BYBLOCK
 62
     0
100
AcDbPoint
 10
49.999989
 20
6.499996
 30
0.0
  0
POINT
  5
213
100
AcDbEntity
  8
DEFPOINTS
  6
BYBLOCK
 62
     0
100
AcDbPoint
 10
42.0
 20
3.0
 30
0.0
  0
POINT
  5
214
100
AcDbEntity
  8
DEFPOINTS
  6
BYBLOCK
 62
     0
100
AcDbPoint
 10
42.0
 20
-9.920409
 30
0.0
  0
ENDBLK
  5
215
100
AcDbEntity
  8
0
100
AcDbBlockEnd
  0
BLOCK
  5
218
100
AcDbEntity
  8
0
100
AcDbBlockBegin
  2
*D3
 70
     1
 10
0.0
 20
0.0
 30
0.0
  3
*D3
  1

  0
LINE
  5
219
100
AcDbEntity
  8
0
  6
BYBLOCK
 62
     1
100
AcDbLine
 10
0.0
 20
-1.0
 30
0.0
 11
0.0
 21
-20.938936
 31
0.0
  0
LINE
  5
21A
100
AcDbEntity
  8
0
  6
BYBLOCK
 62
     1
100
AcDbLine
 10
49.999989
 20
5.499996
 30
0.0
 11
49.999989
 21
-20.938936
 31
0.0
  0
LINE
  5
21B
100
AcDbEntity
  8
0
  6
BYBLOCK
 62
     1
100
AcDbLine
 10
2.0
 20
-19.938936
 30
0.0
 11
47.999989
 21
-19.938936
 31
0.0
  0
INSERT
  5
21C
100
AcDbEntity
  8
0
  6
BYBLOCK
 62
     1
100
AcDbBlockReference
  2
_OPEN30
 10
0.0
 20
-19.938936
 30
0.0
 41
2.0
 42
2.0
 43
2.0
 50
180.0
  0
INSERT
  5
21D
100
AcDbEntity
  8
0
  6
BYBLOCK
 62
     1
100
AcDbBlockReference
  2
_OPEN30
 10
49.999989
 20
-19.938936
 30
0.0
 41
2.0
 42
2.0
 43
2.0
  0
MTEXT
  5
21E
100
AcDbEntity
  8
0
  6
BYBLOCK
 62
     1
100
AcDbMText
 10
24.999995
 20
-17.438936
 30
0.0
 40
3.0
 41
0.0
 71
     5
 72
     1
  1
\A1;50
  0
POINT
  5
21F
100
AcDbEntity
  8
DEFPOINTS
  6
BYBLOCK
 62
     0
100
AcDbPoint
 10
0.0
 20
0.0
 30
0.0
  0
POINT
  5
220
100
AcDbEntity
  8
DEFPOINTS
  6
BYBLOCK
 62
     0
100
AcDbPoint
 10
49.999989
 20
6.499996
 30
0.0
  0
POINT
  5
221
100
AcDbEntity
  8
DEFPOINTS
  6
BYBLOCK
 62
     0
100
AcDbPoint
 10
49.999989
 20
-19.938936
 30
0.0
  0
ENDBLK
  5
222
100
AcDbEntity
  8
0
100
AcDbBlockEnd
  0
BLOCK
  5
225
100
AcDbEntity
  8
0
100
AcDbBlockBegin
  2
*D4
 70
     1
 10
0.0
 20
0.0
 30
0.0
  3
*D4
  1

  0
LINE
  5
226
100
AcDbEntity
  8
0
  6
BYBLOCK
 62
     1
100
AcDbLine
 10
43.0
 20
14.0
 30
0.0
 11
61.363964
 21
14.0
 31
0.0
  0
LINE
  5
227
100
AcDbEntity
  8
0
  6
BYBLOCK
 62
     1
100
AcDbLine
 10
43.0
 20
3.0
 30
0.0
 11
61.363964
 21
3.0
 31
0.0
  0
LINE
  5
228
100
AcDbEntity
  8
0
  6
BYBLOCK
 62
     1
100
AcDbLine
 10
60.363964
 20
12.0
 30
0.0
 11
60.363964
 21
5.0
 31
0.0
  0
INSERT
  5
229
100
AcDbEntity
  8
0
  6
BYBLOCK
 62
     1
100
AcDbBlockReference
  2
_OPEN30
 10
60.363964
 20
14.0
 30
0.0
 41
2.0
 42
2.0
 43
2.0
 50
90.0
  0
INSERT
  5
22A
100
AcDbEntity
  8
0
  6
BYBLOCK
 62
     1
100
AcDbBlockReference
  2
_OPEN30
 10
60.363964
 20
3.0
 30
0.0
 41
2.0
 42
2.0
 43
2.0
 50
270.0
  0
MTEXT
  5
22B
100
AcDbEntity
  8
0
  6
BYBLOCK
 62
     1
100
AcDbMText
 10
57.863964
 20
8.5
 30
0.0
 40
3.0
 41
0.0
 71
     5
 72
     1
  1
\A1;11
 11
0.0
 21
1.0
 31
0.0
  0
POINT
  5
22C
100
AcDbEntity
  8
DEFPOINTS
  6
BYBLOCK
 62
     0
100
AcDbPoint
 10
42.0
 20
14.0
 30
0.0
  0
POINT
  5
22D
100
AcDbEntity
  8
DEFPOINTS
  6
BYBLOCK
 62
     0
100
AcDbPoint
 10
42.0
 20
3.0
 30
0.0
  0
POINT
  5
22E
100
AcDbEntity
  8
DEFPOINTS
  6
BYBLOCK
 62
     0
100
AcDbPoint
 10
60.363964
 20
3.0
 30
0.0
  0
ENDBLK
  5
22F
100
AcDbEntity
  8
0
100
AcDbBlockEnd
  0
BLOCK
  5
232
100
AcDbEntity
  8
0
100
AcDbBlockBegin
  2
*D5
 70
     1
 10
0.0
 20
0.0
 30
0.0
  3
*D5
  1

  0
LINE
  5
233
100
AcDbEntity
  8
0
  6
BYBLOCK
 62
     1
100
AcDbLine
 10
31.0
 20
-60.635869
 30
0.0
 11
31.0
 21
-49.049698
 31
0.0
  0
LINE
  5
234
100
AcDbEntity
  8
0
  6
BYBLOCK
 62
     1
100
AcDbLine
 10
29.0
 20
-60.569204
 30
0.0
 11
29.0
 21
-49.049698
 31
0.0
  0
LINE
  5
235
100
AcDbEntity
  8
0
  6
BYBLOCK
 62
     1
100
AcDbLine
 10
33.0
 20
-50.049698
 30
0.0
 11
35.0
 21
-50.049698
 31
0.0
  0
LINE
  5
236
100
AcDbEntity
  8
0
  6
BYBLOCK
 62
     1
100
AcDbLine
 10
27.0
 20
-50.049698
 30
0.0
 11
21.0
 21
-50.049698
 31
0.0
  0
LINE
  5
237
100
AcDbEntity
  8
0
  6
BYBLOCK
 62
     1
100
AcDbLine
 10
31.0
 20
-50.049698
 30
0.0
 11
29.0
 21
-50.049698
 31
0.0
  0
INSERT
  5
238
100
AcDbEntity
  8
0
  6
BYBLOCK
 62
     1
100
AcDbBlockReference
  2
_OPEN30
 10
31.0
 20
-50.049698
 30
0.0
 41
2.0
 42
2.0
 43
2.0
 50
180.0
  0
INSERT
  5
239
100
AcDbEntity
  8
0
  6
BYBLOCK
 62
     1
100
AcDbBlockReference
  2
_OPEN30
 10
29.0
 20
-50.049698
 30
0.0
 41
2.0
 42
2.0
 43
2.0
  0
MTEXT
  5
23A
100
AcDbEntity
  8
0
  6
BYBLOCK
 62
     1
100
AcDbMText
 10
23.0
 20
-47.549698
 30
0.0
 40
3.0
 41
0.0
 71
     5
 72
     1
  1
\A1;2
  0
POINT
  5
23B
100
AcDbEntity
  8
DEFPOINTS
  6
BYBLOCK
 62
     0
100
AcDbPoint
 10
31.0
 20
-61.635869
 30
0.0
  0
POINT
  5
23C
100
AcDbEntity
  8
DEFPOINTS
  6
BYBLOCK
 62
     0
100
AcDbPoint
 10
29.0
 20
-61.569204
 30
0.0
  0
POINT
  5
23D
100
AcDbEntity
  8
DEFPOINTS
  6
BYBLOCK
 62
     0
100
AcDbPoint
 10
29.0
 20
-50.049698
 30
0.0
  0
ENDBLK
  5
23E
100
AcDbEntity
  8
0
100
AcDbBlockEnd
  0
BLOCK
  5
241
100
AcDbEntity
  8
0
100
AcDbBlockBegin
  2
*D6
 70
     1
 10
0.0
 20
0.0
 30
0.0
  3
*D6
  1

  0
LINE
  5
242
100
AcDbEntity
  8
0
  6
BYBLOCK
 62
     1
100
AcDbLine
 10
30.0
 20
-59.302541
 30
0.0
 11
30.0
 21
-39.616666
 31
0.0
  0
LINE
  5
243
100
AcDbEntity
  8
0
  6
BYBLOCK
 62
     1
100
AcDbLine
 10
50.0
 20
-65.713796
 30
0.0
 11
50.0
 21
-39.616666
 31
0.0
  0
LINE
  5
244
100
AcDbEntity
  8
0
  6
BYBLOCK
 62
     1
100
AcDbLine
 10
32.0
 20
-40.616666
 30
0.0
 11
48.0
 21
-40.616666
 31
0.0
  0
INSERT
  5
245
100
AcDbEntity
  8
0
  6
BYBLOCK
 62
     1
100
AcDbBlockReference
  2
_OPEN30
 10
30.0
 20
-40.616666
 30
0.0
 41
2.0
 42
2.0
 43
2.0
 50
180.0
  0
INSERT
  5
246
100
AcDbEntity
  8
0
  6
BYBLOCK
 62
     1
100
AcDbBlockReference
  2
_OPEN30
 10
50.0
 20
-40.616666
 30
0.0
 41
2.0
 42
2.0
 43
2.0
  0
MTEXT
  5
247
100
AcDbEntity
  8
0
  6
BYBLOCK
 62
     1
100
AcDbMText
 10
40.0
 20
-38.116666
 30
0.0
 40
3.0
 41
0.0
 71
     5
 72
     1
  1
\A1;20
  0
POINT
  5
248
100
AcDbEntity
  8
DEFPOINTS
  6
BYBLOCK
 62
     0
100
AcDbPoint
 10
30.0
 20
-60.302541
 30
0.0
  0
POINT
  5
249
100
AcDbEntity
  8
DEFPOINTS
  6
BYBLOCK
 62
     0
100
AcDbPoint
 10
50.0
 20
-66.713796
 30
0.0
  0
POINT
  5
24A
100
AcDbEntity
  8
DEFPOINTS
  6
BYBLOCK
 62
     0
100
AcDbPoint
 10
50.0
 20
-40.616666
 30
0.0
  0
ENDBLK
  5
24B
100
AcDbEntity
  8
0
100
AcDbBlockEnd
  0
BLOCK
  5
348
100
AcDbEntity
  8
0
100
AcDbBlockBegin
  2
*D7
 70
     1
 10
0.0
 20
0.0
 30
0.0
  3
*D7
  1

  0
LINE
  5
349
100
AcDbEntity
  8
0
  6
BYBLOCK
 62
     1
100
AcDbLine
 10
-1.000003
 20
-54.396715
 30
0.0
 11
-10.035216
 21
-54.396715
 31
0.0
  0
LINE
  5
34A
100
AcDbEntity
  8
0
  6
BYBLOCK
 62
     1
100
AcDbLine
 10
2.183815
 20
-64.396711
 30
0.0
 11
-10.035216
 21
-64.396711
 31
0.0
  0
LINE
  5
34B
100
AcDbEntity
  8
0
  6
BYBLOCK
 62
     1
100
AcDbLine
 10
-9.035216
 20
-56.396715
 30
0.0
 11
-9.035216
 21
-62.396711
 31
0.0
  0
INSERT
  5
34C
100
AcDbEntity
  8
0
  6
BYBLOCK
 62
     1
100
AcDbBlockReference
  2
_OPEN30
 10
-9.035216
 20
-54.396715
 30
0.0
 41
2.0
 42
2.0
 43
2.0
 50
90.0
  0
INSERT
  5
34D
100
AcDbEntity
  8
0
  6
BYBLOCK
 62
     1
100
AcDbBlockReference
  2
_OPEN30
 10
-9.035216
 20
-64.396711
 30
0.0
 41
2.0
 42
2.0
 43
2.0
 50
270.0
  0
MTEXT
  5
34E
100
AcDbEntity
  8
0
  6
BYBLOCK
 62
     1
100
AcDbMText
 10
-11.535216
 20
-59.396713
 30
0.0
 40
3.0
 41
0.0
 71
     5
 72
     1
  1
\A1;10
 11
0.0
 21
1.0
 31
0.0
  0
POINT
  5
34F
100
AcDbEntity
  8
DEFPOINTS
  6
BYBLOCK
 62
     0
100
AcDbPoint
 10
-0.000003
 20
-54.396715
 30
0.0
  0
POINT
  5
350
100
AcDbEntity
  8
DEFPOINTS
  6
BYBLOCK
 62
     0
100
AcDbPoint
 10
3.183815
 20
-64.396711
 30
0.0
  0
POINT
  5
351
100
AcDbEntity
  8
DEFPOINTS
  6
BYBLOCK
 62
     0
100
AcDbPoint
 10
-9.035216
 20
-64.396711
 30
0.0
  0
ENDBLK
  5
352
100
AcDbEntity
  8
0
100
AcDbBlockEnd
  0
BLOCK
  5
25B
100
AcDbEntity
  8
0
100
AcDbBlockBegin
  2
*D8
 70
     1
 10
0.0
 20
0.0
 30
0.0
  3
*D8
  1

  0
LINE
  5
25C
100
AcDbEntity
  8
0
  6
BYBLOCK
 62
     1
100
AcDbLine
 10
0.0
 20
14.0
 30
0.0
 11
-18.533956
 21
14.0
 31
0.0
  0
LINE
  5
25D
100
AcDbEntity
  8
0
  6
BYBLOCK
 62
     1
100
AcDbLine
 10
-1.0
 20
0.0
 30
0.0
 11
-18.533956
 21
0.0
 31
0.0
  0
LINE
  5
25E
100
AcDbEntity
  8
0
  6
BYBLOCK
 62
     1
100
AcDbLine
 10
-17.533956
 20
12.0
 30
0.0
 11
-17.533956
 21
2.0
 31
0.0
  0
INSERT
  5
25F
100
AcDbEntity
  8
0
  6
BYBLOCK
 62
     1
100
AcDbBlockReference
  2
_OPEN30
 10
-17.533956
 20
14.0
 30
0.0
 41
2.0
 42
2.0
 43
2.0
 50
90.0
  0
INSERT
  5
260
100
AcDbEntity
  8
0
  6
BYBLOCK
 62
     1
100
AcDbBlockReference
  2
_OPEN30
 10
-17.533956
 20
0.0
 30
0.0
 41
2.0
 42
2.0
 43
2.0
 50
270.0
  0
MTEXT
  5
261
100
AcDbEntity
  8
0
  6
BYBLOCK
 62
     1
100
AcDbMText
 10
-20.033956
 20
7.0
 30
0.0
 40
3.0
 41
0.0
 71
     5
 72
     1
  1
\A1;14
 11
0.0
 21
1.0
 31
0.0
  0
POINT
  5
262
100
AcDbEntity
  8
DEFPOINTS
  6
BYBLOCK
 62
     0
100
AcDbPoint
 10
1.0
 20
14.0
 30
0.0
  0
POINT
  5
263
100
AcDbEntity
  8
DEFPOINTS
  6
BYBLOCK
 62
     0
100
AcDbPoint
 10
0.0
 20
0.0
 30
0.0
  0
POINT
  5
264
100
AcDbEntity
  8
DEFPOINTS
  6
BYBLOCK
 62
     0
100
AcDbPoint
 10
-17.533956
 20
0.0
 30
0.0
  0
ENDBLK
  5
265
100
AcDbEntity
  8
0
100
AcDbBlockEnd
  0
BLOCK
  5
274
100
AcDbEntity
  8
0
100
AcDbBlockBegin
  2
*D9
 70
     1
 10
0.0
 20
0.0
 30
0.0
  3
*D9
  1

  0
LINE
  5
275
100
AcDbEntity
  8
0
  6
BYBLOCK
 62
     1
100
AcDbLine
 10
43.0
 20
-62.213796
 30
0.0
 11
61.327549
 21
-62.213796
 31
0.0
  0
LINE
  5
276
100
AcDbEntity
  8
0
  6
BYBLOCK
 62
     1
100
AcDbLine
 10
43.0
 20
-74.713796
 30
0.0
 11
61.327549
 21
-74.713796
 31
0.0
  0
LINE
  5
277
100
AcDbEntity
  8
0
  6
BYBLOCK
 62
     1
100
AcDbLine
 10
60.327549
 20
-64.213796
 30
0.0
 11
60.327549
 21
-72.713796
 31
0.0
  0
INSERT
  5
278
100
AcDbEntity
  8
0
  6
BYBLOCK
 62
     1
100
AcDbBlockReference
  2
_OPEN30
 10
60.327549
 20
-62.213796
 30
0.0
 41
2.0
 42
2.0
 43
2.0
 50
90.0
  0
INSERT
  5
279
100
AcDbEntity
  8
0
  6
BYBLOCK
 62
     1
100
AcDbBlockReference
  2
_OPEN30
 10
60.327549
 20
-74.713796
 30
0.0
 41
2.0
 42
2.0
 43
2.0
 50
270.0
  0
MTEXT
  5
27A
100
AcDbEntity
  8
0
  6
BYBLOCK
 62
     1
100
AcDbMText
 10
57.827549
 20
-68.463796
 30
0.0
 40
3.0
 41
0.0
 71
     5
 72
     1
  1
\A1;12.5
 11
0.0
 21
1.0
 31
0.0
  0
POINT
  5
27B
100
AcDbEntity
  8
DEFPOINTS
  6
BYBLOCK
 62
     0
100
AcDbPoint
 10
42.0
 20
-62.213796
 30
0.0
  0
POINT
  5
27C
100
AcDbEntity
  8
DEFPOINTS
  6
BYBLOCK
 62
     0
100
AcDbPoint
 10
42.0
 20
-74.713796
 30
0.0
  0
POINT
  5
27D
100
AcDbEntity
  8
DEFPOINTS
  6
BYBLOCK
 62
     0
100
AcDbPoint
 10
60.327549
 20
-74.713796
 30
0.0
  0
ENDBLK
  5
27E
100
AcDbEntity
  8
0
100
AcDbBlockEnd
  0
BLOCK
  5
313
100
AcDbEntity
  8
0
100
AcDbBlockBegin
  2
*D10
 70
     1
 10
0.0
 20
0.0
 30
0.0
  3
*D10
  1

  0
LINE
  5
314
100
AcDbEntity
  8
0
  6
BYBLOCK
 62
     1
100
AcDbLine
 10
94.652568
 20
-71.043224
 30
0.0
 11
101.678274
 21
-73.600371
 31
0.0
  0
LINE
  5
315
100
AcDbEntity
  8
0
  6
BYBLOCK
 62
     1
100
AcDbLine
 10
92.194676
 20
-69.713799
 30
0.0
 11
102.363581
 21
-69.713799
 31
0.0
  0
ARC
  5
316
100
AcDbEntity
  8
0
  6
BYBLOCK
 62
     1
100
AcDbCircle
 10
91.0
 20
-69.713799
 30
0.0
 40
10.363581
100
AcDbArc
 50
317.851264
 51
328.925634
  0
ARC
  5
317
100
AcDbEntity
  8
0
  6
BYBLOCK
 62
     1
100
AcDbCircle
 10
91.0
 20
-69.713799
 30
0.0
 40
10.363581
100
AcDbArc
 50
11.07437
 51
22.14874
  0
ARC
  5
318
100
AcDbEntity
  8
0
  6
BYBLOCK
 62
     1
100
AcDbCircle
 10
91.0
 20
-69.713799
 30
0.0
 40
10.363581
100
AcDbArc
 50
340.000004
 51
360.0
  0
INSERT
  5
319
100
AcDbEntity
  8
0
  6
BYBLOCK
 62
     1
100
AcDbBlockReference
  2
_OPEN30
 10
100.738581
 20
-73.258351
 30
0.0
 41
2.0
 42
2.0
 43
2.0
 50
64.462819
  0
INSERT
  5
31A
100
AcDbEntity
  8
0
  6
BYBLOCK
 62
     1
100
AcDbBlockReference
  2
_OPEN30
 10
101.363581
 20
-69.713799
 30
0.0
 41
2.0
 42
2.0
 43
2.0
 50
275.537185
  0
MTEXT
  5
31B
100
AcDbEntity
  8
0
  6
BYBLOCK
 62
     1
100
AcDbMText
 10
103.635627
 20
-67.302856
 30
0.0
 40
3.0
 41
0.0
 71
     5
 72
     1
  1
\A1;20°
 11
0.187424
 21
-0.982279
 31
0.0
  0
POINT
  5
31C
100
AcDbEntity
  8
DEFPOINTS
  6
BYBLOCK
 62
     0
100
AcDbPoint
 10
101.084229
 20
-72.103804
 30
0.0
  0
POINT
  5
31D
100
AcDbEntity
  8
DEFPOINTS
  6
BYBLOCK
 62
     0
100
AcDbPoint
 10
78.175354
 20
-65.04601
 30
0.0
  0
POINT
  5
31E
100
AcDbEntity
  8
DEFPOINTS
  6
BYBLOCK
 62
     0
100
AcDbPoint
 10
91.0
 20
-69.713799
 30
0.0
  0
POINT
  5
31F
100
AcDbEntity
  8
DEFPOINTS
  6
BYBLOCK
 62
     0
100
AcDbPoint
 10
91.194676
 20
-69.713799
 30
0.0
  0
POINT
  5
320
100
AcDbEntity
  8
DEFPOINTS
  6
BYBLOCK
 62
     0
100
AcDbPoint
 10
93.712875
 20
-70.701204
 30
0.0
  0
ENDBLK
  5
321
100
AcDbEntity
  8
0
100
AcDbBlockEnd
  0
BLOCK
  5
2F6
100
AcDbEntity
  8
0
100
AcDbBlockBegin
  2
*D11
 70
     1
 10
0.0
 20
0.0
 30
0.0
  3
*D11
  1

  0
LINE
  5
2F7
100
AcDbEntity
  8
0
  6
BYBLOCK
 62
     1
100
AcDbLine
 10
92.0
 20
-69.713799
 30
0.0
 11
114.56442
 21
-69.713799
 31
0.0
  0
LINE
  5
2F8
100
AcDbEntity
  8
0
  6
BYBLOCK
 62
     1
100
AcDbLine
 10
81.0
 20
-74.713796
 30
0.0
 11
114.56442
 21
-74.713796
 31
0.0
  0
LINE
  5
2F9
100
AcDbEntity
  8
0
  6
BYBLOCK
 62
     1
100
AcDbLine
 10
113.56442
 20
-67.713799
 30
0.0
 11
113.56442
 21
-65.713799
 31
0.0
  0
LINE
  5
2FA
100
AcDbEntity
  8
0
  6
BYBLOCK
 62
     1
100
AcDbLine
 10
113.56442
 20
-76.713796
 30
0.0
 11
113.56442
 21
-78.713796
 31
0.0
  0
LINE
  5
2FB
100
AcDbEntity
  8
0
  6
BYBLOCK
 62
     1
100
AcDbLine
 10
113.56442
 20
-69.713799
 30
0.0
 11
113.56442
 21
-74.713796
 31
0.0
  0
INSERT
  5
2FC
100
AcDbEntity
  8
0
  6
BYBLOCK
 62
     1
100
AcDbBlockReference
  2
_OPEN30
 10
113.56442
 20
-69.713799
 30
0.0
 41
2.0
 42
2.0
 43
2.0
 50
270.0
  0
INSERT
  5
2FD
100
AcDbEntity
  8
0
  6
BYBLOCK
 62
     1
100
AcDbBlockReference
  2
_OPEN30
 10
113.56442
 20
-74.713796
 30
0.0
 41
2.0
 42
2.0
 43
2.0
 50
90.0
  0
MTEXT
  5
2FE
100
AcDbEntity
  8
0
  6
BYBLOCK
 62
     1
100
AcDbMText
 10
111.06442
 20
-72.213797
 30
0.0
 40
3.0
 41
0.0
 71
     5
 72
     1
  1
\A1;5
 11
0.0
 21
1.0
 31
0.0
  0
POINT
  5
2FF
100
AcDbEntity
  8
DEFPOINTS
  6
BYBLOCK
 62
     0
100
AcDbPoint
 10
91.0
 20
-69.713799
 30
0.0
  0
POINT
  5
300
100
AcDbEntity
  8
DEFPOINTS
  6
BYBLOCK
 62
     0
100
AcDbPoint
 10
80.0
 20
-74.713796
 30
0.0
  0
POINT
  5
301
100
AcDbEntity
  8
DEFPOINTS
  6
BYBLOCK
 62
     0
100
AcDbPoint
 10
113.56442
 20
-74.713796
 30
0.0
  0
ENDBLK
  5
302
100
AcDbEntity
  8
0
100
AcDbBlockEnd
  0
BLOCK
  5
370
100
AcDbEntity
  8
0
100
AcDbBlockBegin
  2
*D12
 70
     1
 10
0.0
 20
0.0
 30
0.0
  3
*D12
  1

  0
LINE
  5
371
100
AcDbEntity
  8
0
  6
BYBLOCK
 62
     1
100
AcDbLine
 10
-34.648824
 20
17.159255
 30
0.0
 11
-45.806026
 21
12.741468
 31
0.0
  0
MTEXT
  5
372
100
AcDbEntity
  8
0
  6
BYBLOCK
 62
     1
100
AcDbMText
 10
-40.218031
 20
17.642928
 30
0.0
 40
3.0
 41
0.0
 71
     5
 72
     1
  1
\A1;\U+220538
 11
0.929767
 21
0.368149
 31
0.0
  0
INSERT
  5
373
100
AcDbEntity
  8
0
  6
BYBLOCK
 62
     1
100
AcDbBlockReference
  2
_OPEN30
 10
-47.66556
 20
12.00517
 30
0.0
 41
2.0
 42
2.0
 43
2.0
 50
201.601502
  0
POINT
  5
374
100
AcDbEntity
  8
DEFPOINTS
  6
BYBLOCK
 62
     0
100
AcDbPoint
 10
-47.66556
 20
12.00517
 30
0.0
  0
POINT
  5
375
100
AcDbEntity
  8
DEFPOINTS
  6
BYBLOCK
 62
     0
100
AcDbPoint
 10
-12.33442
 20
25.99483
 30
0.0
  0
ENDBLK
  5
376
100
AcDbEntity
  8
0
100
AcDbBlockEnd
  0
BLOCK
  5
3BC
100
AcDbEntity
  8
0
100
AcDbBlockBegin
  2
*D13
 70
     1
 10
0.0
 20
0.0
 30
0.0
  3
*D13
  1

  0
LINE
  5
3BD
100
AcDbEntity
  8
0
  6
BYBLOCK
 62
     1
100
AcDbLine
 10
20.119697
 20
-67.68263
 30
0.0
 11
13.233462
 21
-76.892937
 31
0.0
  0
MTEXT
  5
3BE
100
AcDbEntity
  8
0
  6
BYBLOCK
 62
     1
100
AcDbMText
 10
15.273142
 20
-69.98988
 30
0.0
 40
3.0
 41
0.0
 71
     5
 72
     1
  1
\A1;\U+220560
 11
0.598803
 21
0.800896
 31
0.0
  0
INSERT
  5
3BF
100
AcDbEntity
  8
0
  6
BYBLOCK
 62
     1
100
AcDbBlockReference
  2
_OPEN30
 10
12.035856
 20
-78.49473
 30
0.0
 41
2.0
 42
2.0
 43
2.0
 50
233.215779
  0
POINT
  5
3C0
100
AcDbEntity
  8
DEFPOINTS
  6
BYBLOCK
 62
     0
100
AcDbPoint
 10
12.035856
 20
-78.49473
 30
0.0
  0
POINT
  5
3C1
100
AcDbEntity
  8
DEFPOINTS
  6
BYBLOCK
 62
     0
100
AcDbPoint
 10
47.964144
 20
-30.440812
 30
0.0
  0
ENDBLK
  5
3C2
100
AcDbEntity
  8
0
100
AcDbBlockEnd
  0
ENDSEC
  0
SECTION
  2
ENTITIES
  0
POINT
  5
24
100
AcDbEntity
  8
0
  6
CONTINUOUS
 62
     7
100
AcDbPoint
 10
-0.000003
 20
-54.396715
 30
0.0
  0
POINT
  5
25
100
AcDbEntity
  8
0
  6
CONTINUOUS
 62
     7
100
AcDbPoint
 10
0.0
 20
0.0
 30
0.0
  0
POINT
  5
26
100
AcDbEntity
  8
0
  6
CONTINUOUS
 62
     7
100
AcDbPoint
 10
-29.99999
 20
0.0
 30
0.0
  0
POINT
  5
27
100
AcDbEntity
  8
0
  6
CONTINUOUS
 62
     7
100
AcDbPoint
 10
69.788889
 20
-64.396726
 30
0.0
  0
LINE
  5
28
100
AcDbEntity
  8
0
  6
CONTINUOUS
 62
     7
100
AcDbLine
 10
10.303961
 20
1.467237
 30
0.0
 11
9.313311
 21
2.882032
 31
0.0
  0
LINE
  5
29
100
AcDbEntity
  8
0
  6
CONTINUOUS
 62
     7
100
AcDbLine
 10
1.0
 20
14.0
 30
0.0
 11
42.0
 21
14.0
 31
0.0
  0
LINE
  5
2A
100
AcDbEntity
  8
0
  6
CONTINUOUS
 62
     7
100
AcDbLine
 10
42.0
 20
14.0
 30
0.0
 11
42.0
 21
3.0
 31
0.0
  0
LINE
  5
2B
100
AcDbEntity
  8
0
  6
CONTINUOUS
 62
     7
100
AcDbLine
 10
14.999999
 20
3.0
 30
0.0
 11
42.0
 21
3.0
 31
0.0
  0
LINE
  5
2C
100
AcDbEntity
  8
0
  6
CENTER
 62
     7
100
AcDbLine
 10
39.757568
 20
-58.396726
 30
0.0
 11
51.581161
 21
-58.396726
 31
0.0
  0
LINE
  5
2D
100
AcDbEntity
  8
0
  6
CONTINUOUS
 62
     7
100
AcDbLine
 10
50.0
 20
-56.396726
 30
0.0
 11
50.0
 21
-60.396726
 31
0.0
  0
LINE
  5
2E
100
AcDbEntity
  8
0
  6
CONTINUOUS
 62
     7
100
AcDbLine
 10
45.0
 20
-54.396726
 30
0.0
 11
45.0
 21
-62.396726
 31
0.0
  0
LINE
  5
2F
100
AcDbEntity
  8
0
  6
CONTINUOUS
 62
     7
100
AcDbLine
 10
47.499996
 20
-62.896726
 30
0.0
 11
49.999996
 21
-60.396726
 31
0.0
  0
LINE
  5
30
100
AcDbEntity
  8
0
  6
CONTINUOUS
 62
     7
100
AcDbLine
 10
47.499992
 20
-53.896718
 30
0.0
 11
49.999996
 21
-56.396722
 31
0.0
  0
LINE
  5
31
100
AcDbEntity
  8
0
  6
CONTINUOUS
 62
     7
100
AcDbLine
 10
45.5
 20
-53.896726
 30
0.0
 11
47.5
 21
-53.896726
 31
0.0
  0
LINE
  5
32
100
AcDbEntity
  8
0
  6
CONTINUOUS
 62
     7
100
AcDbLine
 10
45.5
 20
-62.896726
 30
0.0
 11
47.5
 21
-62.896726
 31
0.0
  0
LINE
  5
33
100
AcDbEntity
  8
0
  6
CONTINUOUS
 62
     7
100
AcDbLine
 10
44.999996
 20
-62.396722
 30
0.0
 11
45.499996
 21
-62.896722
 31
0.0
  0
LINE
  5
34
100
AcDbEntity
  8
0
  6
CONTINUOUS
 62
     7
100
AcDbLine
 10
44.999992
 20
-54.396718
 30
0.0
 11
45.499992
 21
-53.896718
 31
0.0
  0
LINE
  5
35
100
AcDbEntity
  8
0
  6
CONTINUOUS
 62
     7
100
AcDbLine
 10
45.5
 20
-62.896726
 30
0.0
 11
45.5
 21
-53.896726
 31
0.0
  0
LINE
  5
36
100
AcDbEntity
  8
0
  6
CONTINUOUS
 62
     7
100
AcDbLine
 10
47.5
 20
-53.896726
 30
0.0
 11
47.5
 21
-62.896726
 31
0.0
  0
LINE
  5
37
100
AcDbEntity
  8
0
  6
CONTINUOUS
 62
     7
100
AcDbLine
 10
42.0
 20
-55.896726
 30
0.0
 11
45.0
 21
-55.896726
 31
0.0
  0
LINE
  5
38
100
AcDbEntity
  8
0
  6
CONTINUOUS
 62
     7
100
AcDbLine
 10
42.0
 20
-60.896726
 30
0.0
 11
45.0
 21
-60.896726
 31
0.0
  0
LINE
  5
39
100
AcDbEntity
  8
0
  6
CONTINUOUS
 62
     7
100
AcDbLine
 10
43.5
 20
-56.146726
 30
0.0
 11
43.5
 21
-60.646726
 31
0.0
  0
LINE
  5
3A
100
AcDbEntity
  8
0
  6
CONTINUOUS
 62
     7
100
AcDbLine
 10
42.0
 20
-60.646726
 30
0.0
 11
43.5
 21
-60.646726
 31
0.0
  0
LINE
  5
3B
100
AcDbEntity
  8
0
  6
CONTINUOUS
 62
     7
100
AcDbLine
 10
42.0
 20
-56.146726
 30
0.0
 11
43.5
 21
-56.146726
 31
0.0
  0
LINE
  5
3C
100
AcDbEntity
  8
0
  6
CONTINUOUS
 62
     7
100
AcDbLine
 10
43.499996
 20
-56.146722
 30
0.0
 11
43.93301
 21
-55.896722
 31
0.0
  0
LINE
  5
3D
100
AcDbEntity
  8
0
  6
CONTINUOUS
 62
     7
100
AcDbLine
 10
43.500004
 20
-60.646718
 30
0.0
 11
43.933018
 21
-60.896718
 31
0.0
  0
LINE
  5
3E
100
AcDbEntity
  8
0
  6
CONTINUOUS
 62
     7
100
AcDbLine
 10
-40.0
 20
13.0
 30
0.0
 11
-40.0
 21
3.797846
 31
0.0
  0
LINE
  5
3F
100
AcDbEntity
  8
0
  6
CENTER
 62
     7
100
AcDbLine
 10
39.757568
 20
8.5
 30
0.0
 11
51.581161
 21
8.5
 31
0.0
  0
LINE
  5
40
100
AcDbEntity
  8
0
  6
CONTINUOUS
 62
     7
100
AcDbLine
 10
50.0
 20
10.5
 30
0.0
 11
50.0
 21
6.5
 31
0.0
  0
LINE
  5
41
100
AcDbEntity
  8
0
  6
CONTINUOUS
 62
     7
100
AcDbLine
 10
45.0
 20
12.5
 30
0.0
 11
45.0
 21
4.5
 31
0.0
  0
LINE
  5
42
100
AcDbEntity
  8
0
  6
CONTINUOUS
 62
     7
100
AcDbLine
 10
47.499996
 20
4.000004
 30
0.0
 11
49.999989
 21
6.499996
 31
0.0
  0
LINE
  5
43
100
AcDbEntity
  8
0
  6
CONTINUOUS
 62
     7
100
AcDbLine
 10
47.499985
 20
13.000003
 30
0.0
 11
49.999989
 21
10.500001
 31
0.0
  0
LINE
  5
44
100
AcDbEntity
  8
0
  6
CONTINUOUS
 62
     7
100
AcDbLine
 10
45.5
 20
13.0
 30
0.0
 11
47.5
 21
13.0
 31
0.0
  0
LINE
  5
45
100
AcDbEntity
  8
0
  6
CONTINUOUS
 62
     7
100
AcDbLine
 10
45.5
 20
4.0
 30
0.0
 11
47.5
 21
4.0
 31
0.0
  0
LINE
  5
46
100
AcDbEntity
  8
0
  6
CONTINUOUS
 62
     7
100
AcDbLine
 10
44.999996
 20
4.500007
 30
0.0
 11
45.499996
 21
4.000006
 31
0.0
  0
LINE
  5
47
100
AcDbEntity
  8
0
  6
CONTINUOUS
 62
     7
100
AcDbLine
 10
44.999985
 20
12.500001
 30
0.0
 11
45.499985
 21
13.000001
 31
0.0
  0
LINE
  5
48
100
AcDbEntity
  8
0
  6
CONTINUOUS
 62
     7
100
AcDbLine
 10
45.5
 20
4.0
 30
0.0
 11
45.5
 21
13.0
 31
0.0
  0
LINE
  5
49
100
AcDbEntity
  8
0
  6
CONTINUOUS
 62
     7
100
AcDbLine
 10
47.5
 20
13.0
 30
0.0
 11
47.5
 21
4.0
 31
0.0
  0
LINE
  5
4A
100
AcDbEntity
  8
0
  6
CONTINUOUS
 62
     7
100
AcDbLine
 10
42.0
 20
11.0
 30
0.0
 11
45.0
 21
11.0
 31
0.0
  0
LINE
  5
4B
100
AcDbEntity
  8
0
  6
CONTINUOUS
 62
     7
100
AcDbLine
 10
42.0
 20
6.0
 30
0.0
 11
45.0
 21
6.0
 31
0.0
  0
LINE
  5
4C
100
AcDbEntity
  8
0
  6
CONTINUOUS
 62
     7
100
AcDbLine
 10
43.5
 20
10.75
 30
0.0
 11
43.5
 21
6.25
 31
0.0
  0
LINE
  5
4D
100
AcDbEntity
  8
0
  6
CONTINUOUS
 62
     7
100
AcDbLine
 10
42.0
 20
6.25
 30
0.0
 11
43.5
 21
6.25
 31
0.0
  0
LINE
  5
4E
100
AcDbEntity
  8
0
  6
CONTINUOUS
 62
     7
100
AcDbLine
 10
42.0
 20
10.75
 30
0.0
 11
43.5
 21
10.75
 31
0.0
  0
LINE
  5
4F
100
AcDbEntity
  8
0
  6
CONTINUOUS
 62
     7
100
AcDbLine
 10
43.5
 20
10.75
 30
0.0
 11
43.93301
 21
11.0
 31
0.0
  0
LINE
  5
50
100
AcDbEntity
  8
0
  6
CONTINUOUS
 62
     7
100
AcDbLine
 10
43.5
 20
6.25
 30
0.0
 11
43.93301
 21
6.0
 31
0.0
  0
LINE
  5
51
100
AcDbEntity
  8
0
  6
CONTINUOUS
 62
     7
100
AcDbLine
 10
42.0
 20
-51.896726
 30
0.0
 11
42.0
 21
-64.396726
 31
0.0
  0
LINE
  5
52
100
AcDbEntity
  8
0
  6
CENTER
 62
     7
100
AcDbLine
 10
30.0
 20
10.811255
 30
0.0
 11
30.0
 21
0.877922
 31
0.0
  0
LINE
  5
53
100
AcDbEntity
  8
0
  6
CENTER
 62
     7
100
AcDbLine
 10
29.0
 20
-51.252134
 30
0.0
 11
29.0
 21
-61.652128
 31
0.0
  0
LINE
  5
54
100
AcDbEntity
  8
0
  6
CENTER
 62
     7
100
AcDbLine
 10
30.0
 20
-49.985471
 30
0.0
 11
30.0
 21
-62.444139
 31
0.0
  0
LINE
  5
55
100
AcDbEntity
  8
0
  6
CENTER
 62
     7
100
AcDbLine
 10
31.0
 20
-51.318799
 30
0.0
 11
31.0
 21
-61.918805
 31
0.0
  0
LINE
  5
56
100
AcDbEntity
  8
0
  6
CONTINUOUS
 62
     7
100
AcDbLine
 10
69.788889
 20
-51.896726
 30
0.0
 11
69.788889
 21
-64.396726
 31
0.0
  0
LINE
  5
57
100
AcDbEntity
  8
0
  6
CONTINUOUS
 62
     7
100
AcDbLine
 10
80.788889
 20
-52.896726
 30
0.0
 11
80.788889
 21
-63.396726
 31
0.0
  0
LINE
  5
58
100
AcDbEntity
  8
0
  6
CONTINUOUS
 62
     7
100
AcDbLine
 10
69.788889
 20
-64.396726
 30
0.0
 11
71.788889
 21
-64.396726
 31
0.0
  0
LINE
  5
59
100
AcDbEntity
  8
0
  6
CENTER
 62
     7
100
AcDbLine
 10
67.964243
 20
-54.72894
 30
0.0
 11
83.501764
 21
-60.384134
 31
0.0
  0
LINE
  5
5A
100
AcDbEntity
  8
0
  6
CONTINUOUS
 62
     7
100
AcDbLine
 10
77.480021
 20
-54.467775
 30
0.0
 11
80.788897
 21
-55.672105
 31
0.0
  0
LINE
  5
5B
100
AcDbEntity
  8
0
  6
CONTINUOUS
 62
     7
100
AcDbLine
 10
75.085886
 20
-61.045625
 30
0.0
 11
80.788889
 21
-63.121351
 31
0.0
  0
LINE
  5
5C
100
AcDbEntity
  8
0
  6
CONTINUOUS
 62
     7
100
AcDbLine
 10
69.788889
 20
-51.896726
 30
0.0
 11
79.788889
 21
-51.896726
 31
0.0
  0
LINE
  5
5D
100
AcDbEntity
  8
0
  6
CONTINUOUS
 62
     7
100
AcDbLine
 10
79.788889
 20
-51.896726
 30
0.0
 11
80.788889
 21
-52.89673
 31
0.0
  0
LINE
  5
5E
100
AcDbEntity
  8
0
  6
CONTINUOUS
 62
     7
100
AcDbLine
 10
75.532778
 20
-51.896722
 30
0.0
 11
78.078562
 21
-52.823312
 31
0.0
  0
LINE
  5
5F
100
AcDbEntity
  8
0
  6
CONTINUOUS
 62
     7
100
AcDbLine
 10
69.788889
 20
-60.979974
 30
0.0
 11
74.487352
 21
-62.690076
 31
0.0
  0
LINE
  5
60
100
AcDbEntity
  8
0
  6
CONTINUOUS
 62
     7
100
AcDbLine
 10
78.078562
 20
-52.823312
 30
0.0
 11
74.487352
 21
-62.690076
 31
0.0
  0
LINE
  5
61
100
AcDbEntity
  8
0
  6
CONTINUOUS
 62
     7
100
AcDbLine
 10
80.788889
 20
-63.39673
 30
0.0
 11
79.859324
 21
-64.326295
 31
0.0
  0
LINE
  5
62
100
AcDbEntity
  8
0
  6
CONTINUOUS
 62
     7
100
AcDbLine
 10
3.183819
 20
-64.396726
 30
0.0
 11
42.0
 21
-64.396726
 31
0.0
  0
LINE
  5
63
100
AcDbEntity
  8
0
  6
CONTINUOUS
 62
     7
100
AcDbLine
 10
16.341187
 20
-51.896726
 30
0.0
 11
42.0
 21
-51.896726
 31
0.0
  0
LINE
  5
64
100
AcDbEntity
  8
0
  6
CENTER
 62
     7
100
AcDbLine
 10
1.842532
 20
-61.896726
 30
0.0
 11
8.1092
 21
-61.896726
 31
0.0
  0
LINE
  5
65
100
AcDbEntity
  8
0
  6
CENTER
 62
     7
100
AcDbLine
 10
5.0
 20
-58.985471
 30
0.0
 11
5.0
 21
-64.718793
 31
0.0
  0
LINE
  5
66
100
AcDbEntity
  8
0
  6
CONTINUOUS
 62
     7
100
AcDbLine
 10
-34.0
 20
1.0
 30
0.0
 11
-33.224655
 21
1.0
 31
0.0
  0
LINE
  5
67
100
AcDbEntity
  8
0
  6
CONTINUOUS
 62
     7
100
AcDbLine
 10
-39.0
 20
14.0
 30
0.0
 11
-28.5
 21
14.0
 31
0.0
  0
LINE
  5
68
100
AcDbEntity
  8
0
  6
CONTINUOUS
 62
     7
100
AcDbLine
 10
-39.999989
 20
13.000005
 30
0.0
 11
-38.999989
 21
14.000006
 31
0.0
  0
LINE
  5
69
100
AcDbEntity
  8
0
  6
CONTINUOUS
 62
     7
100
AcDbLine
 10
-39.999996
 20
3.797844
 30
0.0
 11
-33.999992
 21
0.999997
 31
0.0
  0
LINE
  5
6A
100
AcDbEntity
  8
0
  6
CONTINUOUS
 62
     7
100
AcDbLine
 10
0.434862
 20
0.001511
 30
0.0
 11
10.011161
 21
0.839328
 31
0.0
  0
LINE
  5
6B
100
AcDbEntity
  8
0
  6
CONTINUOUS
 62
     7
100
AcDbLine
 10
16.341187
 20
13.0
 30
0.0
 11
42.0
 21
13.0
 31
0.0
  0
LINE
  5
6C
100
AcDbEntity
  8
0
  6
CONTINUOUS
 62
     7
100
AcDbLine
 10
4.100055
 20
9.281265
 30
0.0
 11
0.037477
 21
0.569036
 31
0.0
  0
LINE
  5
6D
100
AcDbEntity
  8
0
  6
CONTINUOUS
 62
     7
100
AcDbLine
 10
6.173367
 20
7.366337
 30
0.0
 11
4.79024
 21
9.341647
 31
0.0
  0
LINE
  5
6E
100
AcDbEntity
  8
0
  6
CONTINUOUS
 62
     7
100
AcDbLine
 10
1.0
 20
14.0
 30
0.0
 11
1.0
 21
2.669697
 31
0.0
  0
LINE
  5
6F
100
AcDbEntity
  8
0
  6
CONTINUOUS
 62
     7
100
AcDbLine
 10
12.999999
 20
1.0
 30
0.0
 11
14.999999
 21
3.0
 31
0.0
  0
LINE
  5
70
100
AcDbEntity
  8
0
  6
CONTINUOUS
 62
     7
100
AcDbLine
 10
-0.000003
 20
-54.396715
 30
0.0
 11
15.003801
 21
-55.709379
 31
0.0
  0
LINE
  5
71
100
AcDbEntity
  8
0
  6
CONTINUOUS
 62
     7
100
AcDbLine
 10
1.0
 20
-57.676343
 30
0.0
 11
1.0
 21
-58.396726
 31
0.0
  0
LINE
  5
72
100
AcDbEntity
  8
0
  6
CONTINUOUS
 62
     7
100
AcDbLine
 10
1.0
 20
-58.396726
 30
0.0
 11
9.234002
 21
-58.396726
 31
0.0
  0
LINE
  5
73
100
AcDbEntity
  8
0
  6
CONTINUOUS
 62
     7
100
AcDbLine
 10
3.183815
 20
-64.396711
 30
0.0
 11
0.999998
 21
-58.396722
 31
0.0
  0
LINE
  5
74
100
AcDbEntity
  8
0
  6
CONTINUOUS
 62
     7
100
AcDbLine
 10
0.338618
 20
-57.618482
 30
0.0
 11
9.405005
 21
-58.411687
 31
0.0
  0
LINE
  5
75
100
AcDbEntity
  8
0
  6
CONTINUOUS
 62
     7
100
AcDbLine
 10
-34.0
 20
14.0
 30
0.0
 11
-34.0
 21
1.0
 31
0.0
  0
LINE
  5
76
100
AcDbEntity
  8
0
  6
CONTINUOUS
 62
     7
100
AcDbLine
 10
71.788889
 20
-64.396726
 30
0.0
 11
79.859316
 21
-64.326295
 31
0.0
  0
LINE
  5
77
100
AcDbEntity
  8
0
  6
CONTINUOUS
 62
     7
100
AcDbLine
 10
29.0
 20
8.743893
 30
0.0
 11
31.0
 21
8.743893
 31
0.0
  0
LINE
  5
78
100
AcDbEntity
  8
0
  6
CONTINUOUS
 62
     7
100
AcDbLine
 10
29.0
 20
8.296985
 30
0.0
 11
31.0
 21
8.296985
 31
0.0
  0
LINE
  5
79
100
AcDbEntity
  8
0
  6
CONTINUOUS
 62
     7
100
AcDbLine
 10
29.0
 20
-54.467771
 30
0.0
 11
31.0
 21
-54.467771
 31
0.0
  0
LINE
  5
7A
100
AcDbEntity
  8
0
  6
CONTINUOUS
 62
     7
100
AcDbLine
 10
29.0
 20
-52.823308
 30
0.0
 11
31.0
 21
-52.823308
 31
0.0
  0
LINE
  5
7B
100
AcDbEntity
  8
0
  6
CONTINUOUS
 62
     7
100
AcDbLine
 10
29.0
 20
-55.672105
 30
0.0
 11
31.0
 21
-55.672105
 31
0.0
  0
LINE
  5
7C
100
AcDbEntity
  8
0
  6
CONTINUOUS
 62
     7
100
AcDbLine
 10
29.0
 20
-60.979963
 30
0.0
 11
31.0
 21
-60.979963
 31
0.0
  0
LINE
  5
7D
100
AcDbEntity
  8
0
  6
CONTINUOUS
 62
     7
100
AcDbLine
 10
0.338618
 20
-57.618482
 30
0.0
 11
-0.000003
 21
-54.396715
 31
0.0
  0
LINE
  5
7E
100
AcDbEntity
  8
0
  6
CONTINUOUS
 62
     7
100
AcDbLine
 10
9.409294
 20
-58.396726
 30
0.0
 11
12.999999
 21
-58.396726
 31
0.0
  0
LINE
  5
7F
100
AcDbEntity
  8
0
  6
CONTINUOUS
 62
     7
100
AcDbLine
 10
12.999999
 20
-55.534067
 30
0.0
 11
12.999999
 21
-58.396726
 31
0.0
  0
LINE
  5
80
100
AcDbEntity
  8
0
  6
CONTINUOUS
 62
     7
100
AcDbLine
 10
16.087152
 20
-54.80034
 30
0.0
 11
16.341185
 21
-51.896722
 31
0.0
  0
LINE
  5
81
100
AcDbEntity
  8
0
  6
CONTINUOUS
 62
     7
100
AcDbLine
 10
14.999997
 20
-55.709039
 30
0.0
 11
14.999997
 21
-64.396726
 31
0.0
  0
LINE
  5
82
100
AcDbEntity
  8
0
  6
CONTINUOUS
 62
     7
100
AcDbLine
 10
16.341187
 20
13.0
 30
0.0
 11
16.341187
 21
12.030329
 31
0.0
  0
LINE
  5
83
100
AcDbEntity
  8
0
  6
CONTINUOUS
 62
     7
100
AcDbLine
 10
15.999997
 20
14.0
 30
0.0
 11
15.999997
 21
12.27541
 31
0.0
  0
LINE
  5
84
100
AcDbEntity
  8
0
  6
CONTINUOUS
 62
     7
100
AcDbLine
 10
16.341187
 20
5.136347
 30
0.0
 11
16.341187
 21
3.0
 31
0.0
  0
LINE
  5
85
100
AcDbEntity
  8
0
  6
CONTINUOUS
 62
     7
100
AcDbLine
 10
15.999997
 20
4.891265
 30
0.0
 11
15.999997
 21
3.0
 31
0.0
  0
LINE
  5
86
100
AcDbEntity
  8
0
  6
CONTINUOUS
 62
     7
100
AcDbLine
 10
16.341187
 20
13.0
 30
0.0
 11
15.999997
 21
14.0
 31
0.0
  0
LINE
  5
87
100
AcDbEntity
  8
0
  6
CONTINUOUS
 62
     7
100
AcDbLine
 10
10.297935
 20
1.0
 30
0.0
 11
12.999999
 21
1.0
 31
0.0
  0
LINE
  5
88
100
AcDbEntity
  8
0
  6
CONTINUOUS
 62
     7
100
AcDbLine
 10
-29.99999
 20
0.0
 30
0.0
 11
-30.567926
 21
14.0
 31
0.0
  0
LINE
  5
89
100
AcDbEntity
  8
0
  6
CONTINUOUS
 62
     7
100
AcDbLine
 10
-33.203926
 20
0.488953
 30
0.0
 11
-33.287159
 21
2.54074
 31
0.0
  0
LINE
  5
8A
100
AcDbEntity
  8
0
  6
CONTINUOUS
 62
     7
100
AcDbLine
 10
-27.5
 20
13.0
 30
0.0
 11
-27.5
 21
12.909917
 31
0.0
  0
LINE
  5
8B
100
AcDbEntity
  8
0
  6
CONTINUOUS
 62
     7
100
AcDbLine
 10
-27.5
 20
13.0
 30
0.0
 11
-28.5
 21
14.0
 31
0.0
  0
LINE
  5
8C
100
AcDbEntity
  8
0
  6
CONTINUOUS
 62
     7
100
AcDbLine
 10
-28.068678
 20
1.733722
 30
0.0
 11
-28.181099
 21
4.505002
 31
0.0
  0
LINE
  5
8D
100
AcDbEntity
  8
0
  6
CONTINUOUS
 62
     7
100
AcDbLine
 10
3.280266
 20
-52.676061
 30
0.0
 11
4.880554
 21
-52.816068
 31
0.0
  0
LINE
  5
8E
100
AcDbEntity
  8
0
  6
CONTINUOUS
 62
     7
100
AcDbLine
 10
11.156023
 20
-49.851732
 30
0.0
 11
18.006548
 21
-50.451074
 31
0.0
  0
LINE
  5
8F
100
AcDbEntity
  8
0
  6
CONTINUOUS
 62
     7
100
AcDbLine
 10
-30.067034
 20
1.652655
 30
0.0
 11
-28.068678
 21
1.733722
 31
0.0
  0
LINE
  5
90
100
AcDbEntity
  8
0
  6
CONTINUOUS
 62
     7
100
AcDbLine
 10
-30.179455
 20
4.423935
 30
0.0
 11
-28.181099
 21
4.505002
 31
0.0
  0
LINE
  5
91
100
AcDbEntity
  8
0
  6
CENTER
 62
     7
100
AcDbLine
 10
10.843489
 20
13.369097
 30
0.0
 11
17.052984
 21
2.613935
 31
0.0
  0
LINE
  5
92
100
AcDbEntity
  8
0
  6
CENTER
 62
     7
100
AcDbLine
 10
16.733501
 20
13.367292
 30
0.0
 11
19.77026
 21
8.107471
 31
0.0
  0
LINE
  5
93
100
AcDbEntity
  8
0
  6
CENTER
 62
     7
100
AcDbLine
 10
0.955853
 20
1.279456
 30
0.0
 11
20.339378
 21
12.47054
 31
0.0
  0
LINE
  5
94
100
AcDbEntity
  8
0
  6
CONTINUOUS
 62
     7
100
AcDbLine
 10
17.919025
 20
9.456567
 30
0.0
 11
18.723276
 21
9.920901
 31
0.0
  0
LINE
  5
95
100
AcDbEntity
  8
0
  6
CONTINUOUS
 62
     7
100
AcDbLine
 10
16.519026
 20
11.881438
 30
0.0
 11
17.323277
 21
12.345773
 31
0.0
  0
LINE
  5
96
100
AcDbEntity
  8
0
  6
CONTINUOUS
 62
     7
100
AcDbLine
 10
3.280267
 20
4.468976
 30
0.0
 11
4.880266
 21
1.697696
 31
0.0
  0
LINE
  5
97
100
AcDbEntity
  8
0
  6
CONTINUOUS
 62
     7
100
AcDbLine
 10
3.280268
 20
4.468978
 30
0.0
 11
10.49299
 21
11.692318
 31
0.0
  0
LINE
  5
98
100
AcDbEntity
  8
0
  6
CONTINUOUS
 62
     7
100
AcDbLine
 10
4.880266
 20
1.697695
 30
0.0
 11
14.742224
 21
4.332426
 31
0.0
  0
LINE
  5
99
100
AcDbEntity
  8
0
  6
CONTINUOUS
 62
     7
100
AcDbLine
 10
-25.421062
 20
6.350638
 30
0.0
 11
-25.69013
 21
12.983338
 31
0.0
  0
LINE
  5
9A
100
AcDbEntity
  8
0
  6
CONTINUOUS
 62
     7
100
AcDbLine
 10
-30.518736
 20
12.787457
 30
0.0
 11
-25.69013
 21
12.983338
 31
0.0
  0
LINE
  5
9B
100
AcDbEntity
  8
0
  6
CONTINUOUS
 62
     7
100
AcDbLine
 10
-29.99999
 20
0.0
 30
0.0
 11
-33.203926
 21
0.488953
 31
0.0
  0
LINE
  5
9C
100
AcDbEntity
  8
0
  6
CONTINUOUS
 62
     7
100
AcDbLine
 10
18.006548
 20
-50.451074
 30
0.0
 11
17.88007
 21
-51.896726
 31
0.0
  0
LINE
  5
9D
100
AcDbEntity
  8
0
  6
CONTINUOUS
 62
     7
100
AcDbLine
 10
3.280266
 20
-52.676061
 30
0.0
 11
3.105955
 21
-54.668451
 31
0.0
  0
LINE
  5
9E
100
AcDbEntity
  8
0
  6
CONTINUOUS
 62
     7
100
AcDbLine
 10
4.880554
 20
-52.816068
 30
0.0
 11
4.706242
 21
-54.808458
 31
0.0
  0
LINE
  5
9F
100
AcDbEntity
  8
0
  6
CONTINUOUS
 62
     7
100
AcDbLine
 10
-33.287159
 20
2.54074
 30
0.0
 11
-30.108292
 21
2.669697
 31
0.0
  0
LINE
  5
A0
100
AcDbEntity
  8
0
  6
CONTINUOUS
 62
     7
100
AcDbLine
 10
9.405006
 20
-58.411687
 30
0.0
 11
10.297935
 21
-55.29767
 31
0.0
  0
LINE
  5
A1
100
AcDbEntity
  8
0
  6
CONTINUOUS
 62
     7
100
AcDbLine
 10
0.0
 20
0.399989
 30
0.0
 11
0.0
 21
0.0
 31
0.0
  0
LINE
  5
A2
100
AcDbEntity
  8
0
  6
CONTINUOUS
 62
     7
100
AcDbLine
 10
0.0
 20
0.0
 30
0.0
 11
0.4
 21
0.0
 31
0.0
  0
CIRCLE
  5
A3
100
AcDbEntity
  8
0
  6
CONTINUOUS
 62
     7
100
AcDbCircle
 10
5.0
 20
-61.896726
 30
0.0
 40
2.0
  0
ARC
  5
A4
100
AcDbEntity
  8
0
  6
CONTINUOUS
 62
     7
100
AcDbCircle
 10
0.4
 20
0.399989
 30
0.0
 40
0.4
100
AcDbArc
 50
154.99994
 51
274.99992
  0
ARC
  5
A5
100
AcDbEntity
  8
0
  6
CONTINUOUS
 62
     7
100
AcDbCircle
 10
4.462579
 20
9.112218
 30
0.0
 40
0.4
100
AcDbArc
 50
34.999986
 51
154.99994
  0
ARC
  5
A6
100
AcDbEntity
  8
0
  6
CONTINUOUS
 62
     7
100
AcDbCircle
 10
9.9763
 20
1.237806
 30
0.0
 40
0.4
100
AcDbArc
 50
274.99994
 51
35.000007
  0
ARC
  5
A7
100
AcDbEntity
  8
0
  6
CONTINUOUS
 62
     7
100
AcDbCircle
 10
4.5
 20
9.0
 30
0.0
 40
2.0
100
AcDbArc
 50
318.13995
 51
230.61784
  0
CIRCLE
  5
A8
100
AcDbEntity
  8
0
  6
CONTINUOUS
 62
     7
100
AcDbCircle
 10
5.0
 20
-61.896726
 30
0.0
 40
1.65
  0
ARC
  5
A9
100
AcDbEntity
  8
0
  6
CONTINUOUS
 62
     7
100
AcDbCircle
 10
15.090958
 20
-54.713182
 30
0.0
 40
1.0
100
AcDbArc
 50
265.00001
 51
355.0
  0
ARC
  5
AA
100
AcDbEntity
  8
0
  6
CONTINUOUS
 62
     7
100
AcDbCircle
 10
10.284466
 20
-59.81368
 30
0.0
 40
10.0
100
AcDbArc
 50
85.000004
 51
134.45947
  0
ARC
  5
AB
100
AcDbEntity
  8
0
  6
CONTINUOUS
 62
     7
100
AcDbCircle
 10
11.884465
 20
-59.95366
 30
0.0
 40
10.0
100
AcDbArc
 50
85.000004
 51
134.45841
  0
ARC
  5
AC
100
AcDbEntity
  8
0
  6
CONTINUOUS
 62
     7
100
AcDbCircle
 10
18.023275
 20
11.133337
 30
0.0
 40
1.4
100
AcDbArc
 50
300.0
 51
120.0
  0
ARC
  5
AD
100
AcDbEntity
  8
0
  6
CONTINUOUS
 62
     7
100
AcDbCircle
 10
-30.416954
 20
6.147971
 30
0.0
 40
5.0
100
AcDbArc
 50
298.01193
 51
2.323032
  0
ARC
  5
AE
100
AcDbEntity
  8
0
  6
CONTINUOUS
 62
     7
100
AcDbCircle
 10
-30.416954
 20
8.977244
 30
0.0
 40
5.0
100
AcDbArc
 50
296.56232
 51
350.02798
  0
POLYLINE
  5
AF
100
AcDbEntity
  8
0
  6
CONTINUOUS
 62
     7
100
AcDb2dPolyline
 66
     1
 10
0.0
 20
0.0
 30
0.0
  0
VERTEX
  5
B0
100
AcDbEntity
  8
0
  6
CONTINUOUS
 62
     7
100
AcDbVertex
100
AcDb2dVertex
 10
29.0
 20
8.743893
 30
0.0
 42
0.02806
  0
VERTEX
  5
B1
100
AcDbEntity
  8
0
  6
CONTINUOUS
 62
     7
100
AcDbVertex
100
AcDb2dVertex
 10
28.462193
 20
8.713676
 30
0.0
 42
0.027915
  0
VERTEX
  5
B2
100
AcDbEntity
  8
0
  6
CONTINUOUS
 62
     7
100
AcDbVertex
100
AcDb2dVertex
 10
27.93062
 20
8.623473
 30
0.0
 42
0.027598
  0
VERTEX
  5
B3
100
AcDbEntity
  8
0
  6
CONTINUOUS
 62
     7
100
AcDbVertex
100
AcDb2dVertex
 10
27.412034
 20
8.474843
 30
0.0
 42
0.02708
  0
VERTEX
  5
B4
100
AcDbEntity
  8
0
  6
CONTINUOUS
 62
     7
100
AcDbVertex
100
AcDb2dVertex
 10
26.913752
 20
8.270906
 30
0.0
 42
0.026558
  0
VERTEX
  5
B5
100
AcDbEntity
  8
0
  6
CONTINUOUS
 62
     7
100
AcDbVertex
100
AcDb2dVertex
 10
26.43939
 20
8.01437
 30
0.0
 42
0.025943
  0
VERTEX
  5
B6
100
AcDbEntity
  8
0
  6
CONTINUOUS
 62
     7
100
AcDbVertex
100
AcDb2dVertex
 10
25.99422
 20
7.709326
 30
0.0
 42
0.025281
  0
VERTEX
  5
B7
100
AcDbEntity
  8
0
  6
CONTINUOUS
 62
     7
100
AcDbVertex
100
AcDb2dVertex
 10
25.582548
 20
7.360341
 30
0.0
 42
0.024617
  0
VERTEX
  5
B8
100
AcDbEntity
  8
0
  6
CONTINUOUS
 62
     7
100
AcDbVertex
100
AcDb2dVertex
 10
25.207686
 20
6.972087
 30
0.0
 42
0.023982
  0
VERTEX
  5
B9
100
AcDbEntity
  8
0
  6
CONTINUOUS
 62
     7
100
AcDbVertex
100
AcDb2dVertex
 10
24.872246
 20
6.549282
 30
0.0
 42
0.023395
  0
VERTEX
  5
BA
100
AcDbEntity
  8
0
  6
CONTINUOUS
 62
     7
100
AcDbVertex
100
AcDb2dVertex
 10
24.578281
 20
6.096619
 30
0.0
 42
0.022872
  0
VERTEX
  5
BB
100
AcDbEntity
  8
0
  6
CONTINUOUS
 62
     7
100
AcDbVertex
100
AcDb2dVertex
 10
24.327365
 20
5.6187
 30
0.0
 42
0.022425
  0
VERTEX
  5
BC
100
AcDbEntity
  8
0
  6
CONTINUOUS
 62
     7
100
AcDbVertex
100
AcDb2dVertex
 10
24.120682
 20
5.120011
 30
0.0
 42
0.02206
  0
VERTEX
  5
BD
100
AcDbEntity
  8
0
  6
CONTINUOUS
 62
     7
100
AcDbVertex
100
AcDb2dVertex
 10
23.959099
 20
4.604906
 30
0.0
 42
0.021782
  0
VERTEX
  5
BE
100
AcDbEntity
  8
0
  6
CONTINUOUS
 62
     7
100
AcDbVertex
100
AcDb2dVertex
 10
23.843223
 20
4.077624
 30
0.0
 42
0.021594
  0
VERTEX
  5
BF
100
AcDbEntity
  8
0
  6
CONTINUOUS
 62
     7
100
AcDbVertex
100
AcDb2dVertex
 10
23.773452
 20
3.542304
 30
0.0
 42
0.021499
  0
VERTEX
  5
C0
100
AcDbEntity
  8
0
  6
CONTINUOUS
 62
     7
100
AcDbVertex
100
AcDb2dVertex
 10
23.750001
 20
3.002997
 30
0.0
  0
SEQEND
  5
C1
100
AcDbEntity
  8
0
 62
     7
  0
POLYLINE
  5
C2
100
AcDbEntity
  8
0
  6
CONTINUOUS
 62
     7
100
AcDb2dPolyline
 66
     1
 10
0.0
 20
0.0
 30
0.0
  0
VERTEX
  5
C3
100
AcDbEntity
  8
0
  6
CONTINUOUS
 62
     7
100
AcDbVertex
100
AcDb2dVertex
 10
27.30753
 20
8.446248
 30
0.0
 42
0.003539
  0
VERTEX
  5
C4
100
AcDbEntity
  8
0
  6
CONTINUOUS
 62
     7
100
AcDbVertex
100
AcDb2dVertex
 10
27.410627
 20
8.427528
 30
0.0
 42
0.003417
  0
VERTEX
  5
C5
100
AcDbEntity
  8
0
  6
CONTINUOUS
 62
     7
100
AcDbVertex
100
AcDb2dVertex
 10
27.514851
 20
8.410098
 30
0.0
 42
0.003307
  0
VERTEX
  5
C6
100
AcDbEntity
  8
0
  6
CONTINUOUS
 62
     7
100
AcDbVertex
100
AcDb2dVertex
 10
27.62006
 20
8.393953
 30
0.0
 42
0.003207
  0
VERTEX
  5
C7
100
AcDbEntity
  8
0
  6
CONTINUOUS
 62
     7
100
AcDbVertex
100
AcDb2dVertex
 10
27.726114
 20
8.37909
 30
0.0
 42
0.003118
  0
VERTEX
  5
C8
100
AcDbEntity
  8
0
  6
CONTINUOUS
 62
     7
100
AcDbVertex
100
AcDb2dVertex
 10
27.832875
 20
8.365502
 30
0.0
 42
0.003038
  0
VERTEX
  5
C9
100
AcDbEntity
  8
0
  6
CONTINUOUS
 62
     7
100
AcDbVertex
100
AcDb2dVertex
 10
27.94021
 20
8.353181
 30
0.0
 42
0.002937
  0
VERTEX
  5
CA
100
AcDbEntity
  8
0
  6
CONTINUOUS
 62
     7
100
AcDbVertex
100
AcDb2dVertex
 10
28.046945
 20
8.34222
 30
0.0
 42
0.002843
  0
VERTEX
  5
CB
100
AcDbEntity
  8
0
  6
CONTINUOUS
 62
     7
100
AcDbVertex
100
AcDb2dVertex
 10
28.15282
 20
8.332581
 30
0.0
 42
0.002785
  0
VERTEX
  5
CC
100
AcDbEntity
  8
0
  6
CONTINUOUS
 62
     7
100
AcDbVertex
100
AcDb2dVertex
 10
28.258797
 20
8.324135
 30
0.0
 42
0.002736
  0
VERTEX
  5
CD
100
AcDbEntity
  8
0
  6
CONTINUOUS
 62
     7
100
AcDbVertex
100
AcDb2dVertex
 10
28.364862
 20
8.31686
 30
0.0
 42
0.002696
  0
VERTEX
  5
CE
100
AcDbEntity
  8
0
  6
CONTINUOUS
 62
     7
100
AcDbVertex
100
AcDb2dVertex
 10
28.471001
 20
8.310737
 30
0.0
 42
0.002686
  0
VERTEX
  5
CF
100
AcDbEntity
  8
0
  6
CONTINUOUS
 62
     7
100
AcDbVertex
100
AcDb2dVertex
 10
28.578139
 20
8.305712
 30
0.0
 42
0.002676
  0
VERTEX
  5
D0
100
AcDbEntity
  8
0
  6
CONTINUOUS
 62
     7
100
AcDbVertex
100
AcDb2dVertex
 10
28.686014
 20
8.301811
 30
0.0
 42
0.002647
  0
VERTEX
  5
D1
100
AcDbEntity
  8
0
  6
CONTINUOUS
 62
     7
100
AcDbVertex
100
AcDb2dVertex
 10
28.793512
 20
8.29907
 30
0.0
 42
0.002621
  0
VERTEX
  5
D2
100
AcDbEntity
  8
0
  6
CONTINUOUS
 62
     7
100
AcDbVertex
100
AcDb2dVertex
 10
28.900525
 20
8.297468
 30
0.0
 42
0.002601
  0
VERTEX
  5
D3
100
AcDbEntity
  8
0
  6
CONTINUOUS
 62
     7
100
AcDbVertex
100
AcDb2dVertex
 10
29.006974
 20
8.296987
 30
0.0
  0
SEQEND
  5
D4
100
AcDbEntity
  8
0
 62
     7
  0
POLYLINE
  5
D5
100
AcDbEntity
  8
0
  6
CONTINUOUS
 62
     7
100
AcDb2dPolyline
 66
     1
 10
0.0
 20
0.0
 30
0.0
  0
VERTEX
  5
D6
100
AcDbEntity
  8
0
  6
CONTINUOUS
 62
     7
100
AcDbVertex
100
AcDb2dVertex
 10
32.69247
 20
8.446248
 30
0.0
 42
-0.003539
  0
VERTEX
  5
D7
100
AcDbEntity
  8
0
  6
CONTINUOUS
 62
     7
100
AcDbVertex
100
AcDb2dVertex
 10
32.589373
 20
8.427528
 30
0.0
 42
-0.003417
  0
VERTEX
  5
D8
100
AcDbEntity
  8
0
  6
CONTINUOUS
 62
     7
100
AcDbVertex
100
AcDb2dVertex
 10
32.485149
 20
8.410098
 30
0.0
 42
-0.003307
  0
VERTEX
  5
D9
100
AcDbEntity
  8
0
  6
CONTINUOUS
 62
     7
100
AcDbVertex
100
AcDb2dVertex
 10
32.37994
 20
8.393953
 30
0.0
 42
-0.003207
  0
VERTEX
  5
DA
100
AcDbEntity
  8
0
  6
CONTINUOUS
 62
     7
100
AcDbVertex
100
AcDb2dVertex
 10
32.273886
 20
8.37909
 30
0.0
 42
-0.003118
  0
VERTEX
  5
DB
100
AcDbEntity
  8
0
  6
CONTINUOUS
 62
     7
100
AcDbVertex
100
AcDb2dVertex
 10
32.167125
 20
8.365502
 30
0.0
 42
-0.003038
  0
VERTEX
  5
DC
100
AcDbEntity
  8
0
  6
CONTINUOUS
 62
     7
100
AcDbVertex
100
AcDb2dVertex
 10
32.05979
 20
8.353181
 30
0.0
 42
-0.002937
  0
VERTEX
  5
DD
100
AcDbEntity
  8
0
  6
CONTINUOUS
 62
     7
100
AcDbVertex
100
AcDb2dVertex
 10
31.953055
 20
8.34222
 30
0.0
 42
-0.002843
  0
VERTEX
  5
DE
100
AcDbEntity
  8
0
  6
CONTINUOUS
 62
     7
100
AcDbVertex
100
AcDb2dVertex
 10
31.84718
 20
8.332581
 30
0.0
 42
-0.002785
  0
VERTEX
  5
DF
100
AcDbEntity
  8
0
  6
CONTINUOUS
 62
     7
100
AcDbVertex
100
AcDb2dVertex
 10
31.741203
 20
8.324135
 30
0.0
 42
-0.002736
  0
VERTEX
  5
E0
100
AcDbEntity
  8
0
  6
CONTINUOUS
 62
     7
100
AcDbVertex
100
AcDb2dVertex
 10
31.635138
 20
8.31686
 30
0.0
 42
-0.002696
  0
VERTEX
  5
E1
100
AcDbEntity
  8
0
  6
CONTINUOUS
 62
     7
100
AcDbVertex
100
AcDb2dVertex
 10
31.528999
 20
8.310737
 30
0.0
 42
-0.002686
  0
VERTEX
  5
E2
100
AcDbEntity
  8
0
  6
CONTINUOUS
 62
     7
100
AcDbVertex
100
AcDb2dVertex
 10
31.421861
 20
8.305712
 30
0.0
 42
-0.002676
  0
VERTEX
  5
E3
100
AcDbEntity
  8
0
  6
CONTINUOUS
 62
     7
100
AcDbVertex
100
AcDb2dVertex
 10
31.313986
 20
8.301811
 30
0.0
 42
-0.002647
  0
VERTEX
  5
E4
100
AcDbEntity
  8
0
  6
CONTINUOUS
 62
     7
100
AcDbVertex
100
AcDb2dVertex
 10
31.206488
 20
8.29907
 30
0.0
 42
-0.002621
  0
VERTEX
  5
E5
100
AcDbEntity
  8
0
  6
CONTINUOUS
 62
     7
100
AcDbVertex
100
AcDb2dVertex
 10
31.099475
 20
8.297468
 30
0.0
 42
-0.002601
  0
VERTEX
  5
E6
100
AcDbEntity
  8
0
  6
CONTINUOUS
 62
     7
100
AcDbVertex
100
AcDb2dVertex
 10
30.993026
 20
8.296987
 30
0.0
  0
SEQEND
  5
E7
100
AcDbEntity
  8
0
 62
     7
  0
POLYLINE
  5
E8
100
AcDbEntity
  8
0
  6
CONTINUOUS
 62
     7
100
AcDb2dPolyline
 66
     1
 10
0.0
 20
0.0
 30
0.0
  0
VERTEX
  5
E9
100
AcDbEntity
  8
0
  6
CONTINUOUS
 62
     7
100
AcDbVertex
100
AcDb2dVertex
 10
26.161378
 20
-51.896522
 30
0.0
 42
0.038903
  0
VERTEX
  5
EA
100
AcDbEntity
  8
0
  6
CONTINUOUS
 62
     7
100
AcDbVertex
100
AcDb2dVertex
 10
25.500222
 20
-52.369278
 30
0.0
 42
0.040063
  0
VERTEX
  5
EB
100
AcDbEntity
  8
0
  6
CONTINUOUS
 62
     7
100
AcDbVertex
100
AcDb2dVertex
 10
24.921484
 20
-52.940173
 30
0.0
 42
0.041272
  0
VERTEX
  5
EC
100
AcDbEntity
  8
0
  6
CONTINUOUS
 62
     7
100
AcDbVertex
100
AcDb2dVertex
 10
24.442718
 20
-53.597312
 30
0.0
 42
0.042396
  0
VERTEX
  5
ED
100
AcDbEntity
  8
0
  6
CONTINUOUS
 62
     7
100
AcDbVertex
100
AcDb2dVertex
 10
24.080033
 20
-54.325022
 30
0.0
 42
0.043283
  0
VERTEX
  5
EE
100
AcDbEntity
  8
0
  6
CONTINUOUS
 62
     7
100
AcDbVertex
100
AcDb2dVertex
 10
23.846754
 20
-55.10382
 30
0.0
 42
0.043798
  0
VERTEX
  5
EF
100
AcDbEntity
  8
0
  6
CONTINUOUS
 62
     7
100
AcDbVertex
100
AcDb2dVertex
 10
23.751983
 20
-55.911001
 30
0.0
 42
0.043828
  0
VERTEX
  5
F0
100
AcDbEntity
  8
0
  6
CONTINUOUS
 62
     7
100
AcDbVertex
100
AcDb2dVertex
 10
23.799352
 20
-56.721436
 30
0.0
 42
0.043473
  0
VERTEX
  5
F1
100
AcDbEntity
  8
0
  6
CONTINUOUS
 62
     7
100
AcDbVertex
100
AcDb2dVertex
 10
23.986912
 20
-57.511855
 30
0.0
 42
0.042669
  0
VERTEX
  5
F2
100
AcDbEntity
  8
0
  6
CONTINUOUS
 62
     7
100
AcDbVertex
100
AcDb2dVertex
 10
24.307024
 20
-58.258052
 30
0.0
 42
0.041646
  0
VERTEX
  5
F3
100
AcDbEntity
  8
0
  6
CONTINUOUS
 62
     7
100
AcDbVertex
100
AcDb2dVertex
 10
24.748175
 20
-58.940541
 30
0.0
 42
0.040455
  0
VERTEX
  5
F4
100
AcDbEntity
  8
0
  6
CONTINUOUS
 62
     7
100
AcDbVertex
100
AcDb2dVertex
 10
25.294907
 20
-59.541779
 30
0.0
 42
0.039278
  0
VERTEX
  5
F5
100
AcDbEntity
  8
0
  6
CONTINUOUS
 62
     7
100
AcDbVertex
100
AcDb2dVertex
 10
25.930206
 20
-60.048705
 30
0.0
 42
0.038226
  0
VERTEX
  5
F6
100
AcDbEntity
  8
0
  6
CONTINUOUS
 62
     7
100
AcDbVertex
100
AcDb2dVertex
 10
26.636249
 20
-60.45164
 30
0.0
 42
0.037377
  0
VERTEX
  5
F7
100
AcDbEntity
  8
0
  6
CONTINUOUS
 62
     7
100
AcDbVertex
100
AcDb2dVertex
 10
27.395033
 20
-60.743779
 30
0.0
 42
0.036783
  0
VERTEX
  5
F8
100
AcDbEntity
  8
0
  6
CONTINUOUS
 62
     7
100
AcDbVertex
100
AcDb2dVertex
 10
28.188676
 20
-60.920697
 30
0.0
 42
0.036494
  0
VERTEX
  5
F9
100
AcDbEntity
  8
0
  6
CONTINUOUS
 62
     7
100
AcDbVertex
100
AcDb2dVertex
 10
29.0
 20
-60.979963
 30
0.0
  0
SEQEND
  5
FA
100
AcDbEntity
  8
0
 62
     7
  0
POLYLINE
  5
FB
100
AcDbEntity
  8
0
  6
CONTINUOUS
 62
     7
100
AcDb2dPolyline
 66
     1
 10
0.0
 20
0.0
 30
0.0
  0
VERTEX
  5
FC
100
AcDbEntity
  8
0
  6
CONTINUOUS
 62
     7
100
AcDbVertex
100
AcDb2dVertex
 10
29.0
 20
-52.823308
 30
0.0
 42
0.019916
  0
VERTEX
  5
FD
100
AcDbEntity
  8
0
  6
CONTINUOUS
 62
     7
100
AcDbVertex
100
AcDb2dVertex
 10
28.555614
 20
-52.841013
 30
0.0
 42
0.020009
  0
VERTEX
  5
FE
100
AcDbEntity
  8
0
  6
CONTINUOUS
 62
     7
100
AcDbVertex
100
AcDb2dVertex
 10
28.113098
 20
-52.894214
 30
0.0
 42
0.0201
  0
VERTEX
  5
FF
100
AcDbEntity
  8
0
  6
CONTINUOUS
 62
     7
100
AcDbVertex
100
AcDb2dVertex
 10
27.676476
 20
-52.98265
 30
0.0
 42
0.020274
  0
VERTEX
  5
100
100
AcDbEntity
  8
0
  6
CONTINUOUS
 62
     7
100
AcDbVertex
100
AcDb2dVertex
 10
27.247863
 20
-53.106163
 30
0.0
 42
0.020468
  0
VERTEX
  5
101
100
AcDbEntity
  8
0
  6
CONTINUOUS
 62
     7
100
AcDbVertex
100
AcDb2dVertex
 10
26.830743
 20
-53.264135
 30
0.0
 42
0.020705
  0
VERTEX
  5
102
100
AcDbEntity
  8
0
  6
CONTINUOUS
 62
     7
100
AcDbVertex
100
AcDb2dVertex
 10
26.428029
 20
-53.455871
 30
0.0
 42
0.020983
  0
VERTEX
  5
103
100
AcDbEntity
  8
0
  6
CONTINUOUS
 62
     7
100
AcDbVertex
100
AcDb2dVertex
 10
26.042667
 20
-53.680476
 30
0.0
 42
0.021294
  0
VERTEX
  5
104
100
AcDbEntity
  8
0
  6
CONTINUOUS
 62
     7
100
AcDbVertex
100
AcDb2dVertex
 10
25.677627
 20
-53.936829
 30
0.0
 42
0.021632
  0
VERTEX
  5
105
100
AcDbEntity
  8
0
  6
CONTINUOUS
 62
     7
100
AcDbVertex
100
AcDb2dVertex
 10
25.335887
 20
-54.22355
 30
0.0
 42
0.021989
  0
VERTEX
  5
106
100
AcDbEntity
  8
0
  6
CONTINUOUS
 62
     7
100
AcDbVertex
100
AcDb2dVertex
 10
25.020404
 20
-54.538972
 30
0.0
 42
0.022353
  0
VERTEX
  5
107
100
AcDbEntity
  8
0
  6
CONTINUOUS
 62
     7
100
AcDbVertex
100
AcDb2dVertex
 10
24.734074
 20
-54.881113
 30
0.0
 42
0.022712
  0
VERTEX
  5
108
100
AcDbEntity
  8
0
  6
CONTINUOUS
 62
     7
100
AcDbVertex
100
AcDb2dVertex
 10
24.479684
 20
-55.247651
 30
0.0
 42
0.023055
  0
VERTEX
  5
109
100
AcDbEntity
  8
0
  6
CONTINUOUS
 62
     7
100
AcDbVertex
100
AcDb2dVertex
 10
24.259853
 20
-55.635916
 30
0.0
 42
0.023367
  0
VERTEX
  5
10A
100
AcDbEntity
  8
0
  6
CONTINUOUS
 62
     7
100
AcDbVertex
100
AcDb2dVertex
 10
24.076961
 20
-56.042891
 30
0.0
 42
0.023635
  0
VERTEX
  5
10B
100
AcDbEntity
  8
0
  6
CONTINUOUS
 62
     7
100
AcDbVertex
100
AcDb2dVertex
 10
23.93308
 20
-56.465226
 30
0.0
 42
0.023846
  0
VERTEX
  5
10C
100
AcDbEntity
  8
0
  6
CONTINUOUS
 62
     7
100
AcDbVertex
100
AcDb2dVertex
 10
23.829898
 20
-56.899276
 30
0.0
  0
SEQEND
  5
10D
100
AcDbEntity
  8
0
 62
     7
  0
POLYLINE
  5
10E
100
AcDbEntity
  8
0
  6
CONTINUOUS
 62
     7
100
AcDb2dPolyline
 66
     1
 10
0.0
 20
0.0
 30
0.0
  0
VERTEX
  5
10F
100
AcDbEntity
  8
0
  6
CONTINUOUS
 62
     7
100
AcDbVertex
100
AcDb2dVertex
 10
29.0
 20
-54.467771
 30
0.0
 42
0.039748
  0
VERTEX
  5
110
100
AcDbEntity
  8
0
  6
CONTINUOUS
 62
     7
100
AcDbVertex
100
AcDb2dVertex
 10
28.411472
 20
-54.514601
 30
0.0
 42
0.040204
  0
VERTEX
  5
111
100
AcDbEntity
  8
0
  6
CONTINUOUS
 62
     7
100
AcDbVertex
100
AcDb2dVertex
 10
27.836996
 20
-54.654653
 30
0.0
 42
0.040965
  0
VERTEX
  5
112
100
AcDbEntity
  8
0
  6
CONTINUOUS
 62
     7
100
AcDbVertex
100
AcDb2dVertex
 10
27.292774
 20
-54.885572
 30
0.0
 42
0.042059
  0
VERTEX
  5
113
100
AcDbEntity
  8
0
  6
CONTINUOUS
 62
     7
100
AcDbVertex
100
AcDb2dVertex
 10
26.79412
 20
-55.203203
 30
0.0
 42
0.043396
  0
VERTEX
  5
114
100
AcDbEntity
  8
0
  6
CONTINUOUS
 62
     7
100
AcDbVertex
100
AcDb2dVertex
 10
26.356612
 20
-55.601027
 30
0.0
 42
0.044836
  0
VERTEX
  5
115
100
AcDbEntity
  8
0
  6
CONTINUOUS
 62
     7
100
AcDbVertex
100
AcDb2dVertex
 10
25.995614
 20
-56.069516
 30
0.0
 42
0.046194
  0
VERTEX
  5
116
100
AcDbEntity
  8
0
  6
CONTINUOUS
 62
     7
100
AcDbVertex
100
AcDb2dVertex
 10
25.725348
 20
-56.595631
 30
0.0
 42
0.047258
  0
VERTEX
  5
117
100
AcDbEntity
  8
0
  6
CONTINUOUS
 62
     7
100
AcDbVertex
100
AcDb2dVertex
 10
25.557552
 20
-57.162713
 30
0.0
 42
0.047844
  0
VERTEX
  5
118
100
AcDbEntity
  8
0
  6
CONTINUOUS
 62
     7
100
AcDbVertex
100
AcDb2dVertex
 10
25.500005
 20
-57.75115
 30
0.0
 42
0.047792
  0
VERTEX
  5
119
100
AcDbEntity
  8
0
  6
CONTINUOUS
 62
     7
100
AcDbVertex
100
AcDb2dVertex
 10
25.555311
 20
-58.339087
 30
0.0
 42
0.047205
  0
VERTEX
  5
11A
100
AcDbEntity
  8
0
  6
CONTINUOUS
 62
     7
100
AcDbVertex
100
AcDb2dVertex
 10
25.720642
 20
-58.905966
 30
0.0
 42
0.046181
  0
VERTEX
  5
11B
100
AcDbEntity
  8
0
  6
CONTINUOUS
 62
     7
100
AcDbVertex
100
AcDb2dVertex
 10
25.988552
 20
-59.432714
 30
0.0
 42
0.044844
  0
VERTEX
  5
11C
100
AcDbEntity
  8
0
  6
CONTINUOUS
 62
     7
100
AcDbVertex
100
AcDb2dVertex
 10
26.347466
 20
-59.902415
 30
0.0
 42
0.043417
  0
VERTEX
  5
11D
100
AcDbEntity
  8
0
  6
CONTINUOUS
 62
     7
100
AcDbVertex
100
AcDb2dVertex
 10
26.783274
 20
-60.301874
 30
0.0
 42
0.042094
  0
VERTEX
  5
11E
100
AcDbEntity
  8
0
  6
CONTINUOUS
 62
     7
100
AcDbVertex
100
AcDb2dVertex
 10
27.280775
 20
-60.621483
 30
0.0
 42
0.041005
  0
VERTEX
  5
11F
100
AcDbEntity
  8
0
  6
CONTINUOUS
 62
     7
100
AcDbVertex
100
AcDb2dVertex
 10
27.824389
 20
-60.854532
 30
0.0
  0
SEQEND
  5
120
100
AcDbEntity
  8
0
 62
     7
  0
POLYLINE
  5
121
100
AcDbEntity
  8
0
  6
CONTINUOUS
 62
     7
100
AcDb2dPolyline
 66
     1
 10
0.0
 20
0.0
 30
0.0
  0
VERTEX
  5
122
100
AcDbEntity
  8
0
  6
CONTINUOUS
 62
     7
100
AcDbVertex
100
AcDb2dVertex
 10
29.0
 20
-55.672105
 30
0.0
 42
0.019782
  0
VERTEX
  5
123
100
AcDbEntity
  8
0
  6
CONTINUOUS
 62
     7
100
AcDbVertex
100
AcDb2dVertex
 10
28.705735
 20
-55.68375
 30
0.0
 42
0.019874
  0
VERTEX
  5
124
100
AcDbEntity
  8
0
  6
CONTINUOUS
 62
     7
100
AcDbVertex
100
AcDb2dVertex
 10
28.412684
 20
-55.718741
 30
0.0
 42
0.019958
  0
VERTEX
  5
125
100
AcDbEntity
  8
0
  6
CONTINUOUS
 62
     7
100
AcDbVertex
100
AcDb2dVertex
 10
28.123539
 20
-55.776897
 30
0.0
 42
0.020133
  0
VERTEX
  5
126
100
AcDbEntity
  8
0
  6
CONTINUOUS
 62
     7
100
AcDbVertex
100
AcDb2dVertex
 10
27.839561
 20
-55.858139
 30
0.0
 42
0.020323
  0
VERTEX
  5
127
100
AcDbEntity
  8
0
  6
CONTINUOUS
 62
     7
100
AcDbVertex
100
AcDb2dVertex
 10
27.56309
 20
-55.962056
 30
0.0
 42
0.020557
  0
VERTEX
  5
128
100
AcDbEntity
  8
0
  6
CONTINUOUS
 62
     7
100
AcDbVertex
100
AcDb2dVertex
 10
27.29603
 20
-56.088198
 30
0.0
 42
0.020829
  0
VERTEX
  5
129
100
AcDbEntity
  8
0
  6
CONTINUOUS
 62
     7
100
AcDbVertex
100
AcDb2dVertex
 10
27.040303
 20
-56.235986
 30
0.0
 42
0.021135
  0
VERTEX
  5
12A
100
AcDbEntity
  8
0
  6
CONTINUOUS
 62
     7
100
AcDbVertex
100
AcDb2dVertex
 10
26.79785
 20
-56.404694
 30
0.0
 42
0.021467
  0
VERTEX
  5
12B
100
AcDbEntity
  8
0
  6
CONTINUOUS
 62
     7
100
AcDbVertex
100
AcDb2dVertex
 10
26.570617
 20
-56.593431
 30
0.0
 42
0.021818
  0
VERTEX
  5
12C
100
AcDbEntity
  8
0
  6
CONTINUOUS
 62
     7
100
AcDbVertex
100
AcDb2dVertex
 10
26.360536
 20
-56.801117
 30
0.0
 42
0.022176
  0
VERTEX
  5
12D
100
AcDbEntity
  8
0
  6
CONTINUOUS
 62
     7
100
AcDbVertex
100
AcDb2dVertex
 10
26.169504
 20
-57.026471
 30
0.0
 42
0.022532
  0
VERTEX
  5
12E
100
AcDbEntity
  8
0
  6
CONTINUOUS
 62
     7
100
AcDbVertex
100
AcDb2dVertex
 10
25.999346
 20
-57.267993
 30
0.0
 42
0.022872
  0
VERTEX
  5
12F
100
AcDbEntity
  8
0
  6
CONTINUOUS
 62
     7
100
AcDbVertex
100
AcDb2dVertex
 10
25.851785
 20
-57.523957
 30
0.0
 42
0.023183
  0
VERTEX
  5
130
100
AcDbEntity
  8
0
  6
CONTINUOUS
 62
     7
100
AcDbVertex
100
AcDb2dVertex
 10
25.728391
 20
-57.79241
 30
0.0
 42
0.023452
  0
VERTEX
  5
131
100
AcDbEntity
  8
0
  6
CONTINUOUS
 62
     7
100
AcDbVertex
100
AcDb2dVertex
 10
25.630536
 20
-58.071182
 30
0.0
 42
0.023667
  0
VERTEX
  5
132
100
AcDbEntity
  8
0
  6
CONTINUOUS
 62
     7
100
AcDbVertex
100
AcDb2dVertex
 10
25.559351
 20
-58.35791
 30
0.0
  0
SEQEND
  5
133
100
AcDbEntity
  8
0
 62
     7
  0
POLYLINE
  5
134
100
AcDbEntity
  8
0
  6
CONTINUOUS
 62
     7
100
AcDb2dPolyline
 66
     1
 10
0.0
 20
0.0
 30
0.0
  0
VERTEX
  5
135
100
AcDbEntity
  8
0
  6
CONTINUOUS
 62
     7
100
AcDbVertex
100
AcDb2dVertex
 10
31.0
 20
-55.672105
 30
0.0
 42
-0.019782
  0
VERTEX
  5
136
100
AcDbEntity
  8
0
  6
CONTINUOUS
 62
     7
100
AcDbVertex
100
AcDb2dVertex
 10
31.294265
 20
-55.68375
 30
0.0
 42
-0.019874
  0
VERTEX
  5
137
100
AcDbEntity
  8
0
  6
CONTINUOUS
 62
     7
100
AcDbVertex
100
AcDb2dVertex
 10
31.587316
 20
-55.718741
 30
0.0
 42
-0.019958
  0
VERTEX
  5
138
100
AcDbEntity
  8
0
  6
CONTINUOUS
 62
     7
100
AcDbVertex
100
AcDb2dVertex
 10
31.876461
 20
-55.776897
 30
0.0
 42
-0.020133
  0
VERTEX
  5
139
100
AcDbEntity
  8
0
  6
CONTINUOUS
 62
     7
100
AcDbVertex
100
AcDb2dVertex
 10
32.160439
 20
-55.858139
 30
0.0
 42
-0.020323
  0
VERTEX
  5
13A
100
AcDbEntity
  8
0
  6
CONTINUOUS
 62
     7
100
AcDbVertex
100
AcDb2dVertex
 10
32.43691
 20
-55.962056
 30
0.0
 42
-0.020557
  0
VERTEX
  5
13B
100
AcDbEntity
  8
0
  6
CONTINUOUS
 62
     7
100
AcDbVertex
100
AcDb2dVertex
 10
32.70397
 20
-56.088198
 30
0.0
 42
-0.020829
  0
VERTEX
  5
13C
100
AcDbEntity
  8
0
  6
CONTINUOUS
 62
     7
100
AcDbVertex
100
AcDb2dVertex
 10
32.959697
 20
-56.235986
 30
0.0
 42
-0.021135
  0
VERTEX
  5
13D
100
AcDbEntity
  8
0
  6
CONTINUOUS
 62
     7
100
AcDbVertex
100
AcDb2dVertex
 10
33.20215
 20
-56.404694
 30
0.0
 42
-0.021467
  0
VERTEX
  5
13E
100
AcDbEntity
  8
0
  6
CONTINUOUS
 62
     7
100
AcDbVertex
100
AcDb2dVertex
 10
33.429383
 20
-56.593431
 30
0.0
 42
-0.021818
  0
VERTEX
  5
13F
100
AcDbEntity
  8
0
  6
CONTINUOUS
 62
     7
100
AcDbVertex
100
AcDb2dVertex
 10
33.639464
 20
-56.801117
 30
0.0
 42
-0.022176
  0
VERTEX
  5
140
100
AcDbEntity
  8
0
  6
CONTINUOUS
 62
     7
100
AcDbVertex
100
AcDb2dVertex
 10
33.830496
 20
-57.026471
 30
0.0
 42
-0.022532
  0
VERTEX
  5
141
100
AcDbEntity
  8
0
  6
CONTINUOUS
 62
     7
100
AcDbVertex
100
AcDb2dVertex
 10
34.000654
 20
-57.267993
 30
0.0
 42
-0.022872
  0
VERTEX
  5
142
100
AcDbEntity
  8
0
  6
CONTINUOUS
 62
     7
100
AcDbVertex
100
AcDb2dVertex
 10
34.148215
 20
-57.523957
 30
0.0
 42
-0.023183
  0
VERTEX
  5
143
100
AcDbEntity
  8
0
  6
CONTINUOUS
 62
     7
100
AcDbVertex
100
AcDb2dVertex
 10
34.271609
 20
-57.79241
 30
0.0
 42
-0.023452
  0
VERTEX
  5
144
100
AcDbEntity
  8
0
  6
CONTINUOUS
 62
     7
100
AcDbVertex
100
AcDb2dVertex
 10
34.369464
 20
-58.071182
 30
0.0
 42
-0.023667
  0
VERTEX
  5
145
100
AcDbEntity
  8
0
  6
CONTINUOUS
 62
     7
100
AcDbVertex
100
AcDb2dVertex
 10
34.440649
 20
-58.35791
 30
0.0
  0
SEQEND
  5
146
100
AcDbEntity
  8
0
 62
     7
  0
POLYLINE
  5
147
100
AcDbEntity
  8
0
  6
CONTINUOUS
 62
     7
100
AcDb2dPolyline
 66
     1
 10
0.0
 20
0.0
 30
0.0
  0
VERTEX
  5
148
100
AcDbEntity
  8
0
  6
CONTINUOUS
 62
     7
100
AcDbVertex
100
AcDb2dVertex
 10
31.0
 20
-54.467771
 30
0.0
 42
-0.039748
  0
VERTEX
  5
149
100
AcDbEntity
  8
0
  6
CONTINUOUS
 62
     7
100
AcDbVertex
100
AcDb2dVertex
 10
31.588528
 20
-54.514601
 30
0.0
 42
-0.040204
  0
VERTEX
  5
14A
100
AcDbEntity
  8
0
  6
CONTINUOUS
 62
     7
100
AcDbVertex
100
AcDb2dVertex
 10
32.163004
 20
-54.654653
 30
0.0
 42
-0.040965
  0
VERTEX
  5
14B
100
AcDbEntity
  8
0
  6
CONTINUOUS
 62
     7
100
AcDbVertex
100
AcDb2dVertex
 10
32.707226
 20
-54.885572
 30
0.0
 42
-0.042059
  0
VERTEX
  5
14C
100
AcDbEntity
  8
0
  6
CONTINUOUS
 62
     7
100
AcDbVertex
100
AcDb2dVertex
 10
33.20588
 20
-55.203203
 30
0.0
 42
-0.043396
  0
VERTEX
  5
14D
100
AcDbEntity
  8
0
  6
CONTINUOUS
 62
     7
100
AcDbVertex
100
AcDb2dVertex
 10
33.643388
 20
-55.601027
 30
0.0
 42
-0.044836
  0
VERTEX
  5
14E
100
AcDbEntity
  8
0
  6
CONTINUOUS
 62
     7
100
AcDbVertex
100
AcDb2dVertex
 10
34.004386
 20
-56.069516
 30
0.0
 42
-0.046194
  0
VERTEX
  5
14F
100
AcDbEntity
  8
0
  6
CONTINUOUS
 62
     7
100
AcDbVertex
100
AcDb2dVertex
 10
34.274652
 20
-56.595631
 30
0.0
 42
-0.047258
  0
VERTEX
  5
150
100
AcDbEntity
  8
0
  6
CONTINUOUS
 62
     7
100
AcDbVertex
100
AcDb2dVertex
 10
34.442448
 20
-57.162713
 30
0.0
 42
-0.047844
  0
VERTEX
  5
151
100
AcDbEntity
  8
0
  6
CONTINUOUS
 62
     7
100
AcDbVertex
100
AcDb2dVertex
 10
34.499995
 20
-57.75115
 30
0.0
 42
-0.047792
  0
VERTEX
  5
152
100
AcDbEntity
  8
0
  6
CONTINUOUS
 62
     7
100
AcDbVertex
100
AcDb2dVertex
 10
34.444689
 20
-58.339087
 30
0.0
 42
-0.047205
  0
VERTEX
  5
153
100
AcDbEntity
  8
0
  6
CONTINUOUS
 62
     7
100
AcDbVertex
100
AcDb2dVertex
 10
34.279358
 20
-58.905966
 30
0.0
 42
-0.046181
  0
VERTEX
  5
154
100
AcDbEntity
  8
0
  6
CONTINUOUS
 62
     7
100
AcDbVertex
100
AcDb2dVertex
 10
34.011448
 20
-59.432714
 30
0.0
 42
-0.044844
  0
VERTEX
  5
155
100
AcDbEntity
  8
0
  6
CONTINUOUS
 62
     7
100
AcDbVertex
100
AcDb2dVertex
 10
33.652534
 20
-59.902415
 30
0.0
 42
-0.043417
  0
VERTEX
  5
156
100
AcDbEntity
  8
0
  6
CONTINUOUS
 62
     7
100
AcDbVertex
100
AcDb2dVertex
 10
33.216726
 20
-60.301874
 30
0.0
 42
-0.042094
  0
VERTEX
  5
157
100
AcDbEntity
  8
0
  6
CONTINUOUS
 62
     7
100
AcDbVertex
100
AcDb2dVertex
 10
32.719225
 20
-60.621483
 30
0.0
 42
-0.041005
  0
VERTEX
  5
158
100
AcDbEntity
  8
0
  6
CONTINUOUS
 62
     7
100
AcDbVertex
100
AcDb2dVertex
 10
32.175611
 20
-60.854532
 30
0.0
  0
SEQEND
  5
159
100
AcDbEntity
  8
0
 62
     7
  0
POLYLINE
  5
15A
100
AcDbEntity
  8
0
  6
CONTINUOUS
 62
     7
100
AcDb2dPolyline
 66
     1
 10
0.0
 20
0.0
 30
0.0
  0
VERTEX
  5
15B
100
AcDbEntity
  8
0
  6
CONTINUOUS
 62
     7
100
AcDbVertex
100
AcDb2dVertex
 10
31.0
 20
-52.823308
 30
0.0
 42
-0.019916
  0
VERTEX
  5
15C
100
AcDbEntity
  8
0
  6
CONTINUOUS
 62
     7
100
AcDbVertex
100
AcDb2dVertex
 10
31.444386
 20
-52.841013
 30
0.0
 42
-0.020009
  0
VERTEX
  5
15D
100
AcDbEntity
  8
0
  6
CONTINUOUS
 62
     7
100
AcDbVertex
100
AcDb2dVertex
 10
31.886902
 20
-52.894214
 30
0.0
 42
-0.0201
  0
VERTEX
  5
15E
100
AcDbEntity
  8
0
  6
CONTINUOUS
 62
     7
100
AcDbVertex
100
AcDb2dVertex
 10
32.323524
 20
-52.98265
 30
0.0
 42
-0.020274
  0
VERTEX
  5
15F
100
AcDbEntity
  8
0
  6
CONTINUOUS
 62
     7
100
AcDbVertex
100
AcDb2dVertex
 10
32.752137
 20
-53.106163
 30
0.0
 42
-0.020468
  0
VERTEX
  5
160
100
AcDbEntity
  8
0
  6
CONTINUOUS
 62
     7
100
AcDbVertex
100
AcDb2dVertex
 10
33.169257
 20
-53.264135
 30
0.0
 42
-0.020705
  0
VERTEX
  5
161
100
AcDbEntity
  8
0
  6
CONTINUOUS
 62
     7
100
AcDbVertex
100
AcDb2dVertex
 10
33.571971
 20
-53.455871
 30
0.0
 42
-0.020983
  0
VERTEX
  5
162
100
AcDbEntity
  8
0
  6
CONTINUOUS
 62
     7
100
AcDbVertex
100
AcDb2dVertex
 10
33.957333
 20
-53.680476
 30
0.0
 42
-0.021294
  0
VERTEX
  5
163
100
AcDbEntity
  8
0
  6
CONTINUOUS
 62
     7
100
AcDbVertex
100
AcDb2dVertex
 10
34.322373
 20
-53.936829
 30
0.0
 42
-0.021632
  0
VERTEX
  5
164
100
AcDbEntity
  8
0
  6
CONTINUOUS
 62
     7
100
AcDbVertex
100
AcDb2dVertex
 10
34.664113
 20
-54.22355
 30
0.0
 42
-0.021989
  0
VERTEX
  5
165
100
AcDbEntity
  8
0
  6
CONTINUOUS
 62
     7
100
AcDbVertex
100
AcDb2dVertex
 10
34.979596
 20
-54.538972
 30
0.0
 42
-0.022353
  0
VERTEX
  5
166
100
AcDbEntity
  8
0
  6
CONTINUOUS
 62
     7
100
AcDbVertex
100
AcDb2dVertex
 10
35.265926
 20
-54.881113
 30
0.0
 42
-0.022712
  0
VERTEX
  5
167
100
AcDbEntity
  8
0
  6
CONTINUOUS
 62
     7
100
AcDbVertex
100
AcDb2dVertex
 10
35.520316
 20
-55.247651
 30
0.0
 42
-0.023055
  0
VERTEX
  5
168
100
AcDbEntity
  8
0
  6
CONTINUOUS
 62
     7
100
AcDbVertex
100
AcDb2dVertex
 10
35.740147
 20
-55.635916
 30
0.0
 42
-0.023367
  0
VERTEX
  5
169
100
AcDbEntity
  8
0
  6
CONTINUOUS
 62
     7
100
AcDbVertex
100
AcDb2dVertex
 10
35.923039
 20
-56.042891
 30
0.0
 42
-0.023635
  0
VERTEX
  5
16A
100
AcDbEntity
  8
0
  6
CONTINUOUS
 62
     7
100
AcDbVertex
100
AcDb2dVertex
 10
36.06692
 20
-56.465226
 30
0.0
 42
-0.023846
  0
VERTEX
  5
16B
100
AcDbEntity
  8
0
  6
CONTINUOUS
 62
     7
100
AcDbVertex
100
AcDb2dVertex
 10
36.170102
 20
-56.899276
 30
0.0
  0
SEQEND
  5
16C
100
AcDbEntity
  8
0
 62
     7
  0
POLYLINE
  5
16D
100
AcDbEntity
  8
0
  6
CONTINUOUS
 62
     7
100
AcDb2dPolyline
 66
     1
 10
0.0
 20
0.0
 30
0.0
  0
VERTEX
  5
16E
100
AcDbEntity
  8
0
  6
CONTINUOUS
 62
     7
100
AcDbVertex
100
AcDb2dVertex
 10
33.838622
 20
-51.896522
 30
0.0
 42
-0.038903
  0
VERTEX
  5
16F
100
AcDbEntity
  8
0
  6
CONTINUOUS
 62
     7
100
AcDbVertex
100
AcDb2dVertex
 10
34.499778
 20
-52.369278
 30
0.0
 42
-0.040063
  0
VERTEX
  5
170
100
AcDbEntity
  8
0
  6
CONTINUOUS
 62
     7
100
AcDbVertex
100
AcDb2dVertex
 10
35.078516
 20
-52.940173
 30
0.0
 42
-0.041272
  0
VERTEX
  5
171
100
AcDbEntity
  8
0
  6
CONTINUOUS
 62
     7
100
AcDbVertex
100
AcDb2dVertex
 10
35.557282
 20
-53.597312
 30
0.0
 42
-0.042396
  0
VERTEX
  5
172
100
AcDbEntity
  8
0
  6
CONTINUOUS
 62
     7
100
AcDbVertex
100
AcDb2dVertex
 10
35.919967
 20
-54.325022
 30
0.0
 42
-0.043283
  0
VERTEX
  5
173
100
AcDbEntity
  8
0
  6
CONTINUOUS
 62
     7
100
AcDbVertex
100
AcDb2dVertex
 10
36.153246
 20
-55.10382
 30
0.0
 42
-0.043798
  0
VERTEX
  5
174
100
AcDbEntity
  8
0
  6
CONTINUOUS
 62
     7
100
AcDbVertex
100
AcDb2dVertex
 10
36.248017
 20
-55.911001
 30
0.0
 42
-0.043828
  0
VERTEX
  5
175
100
AcDbEntity
  8
0
  6
CONTINUOUS
 62
     7
100
AcDbVertex
100
AcDb2dVertex
 10
36.200648
 20
-56.721436
 30
0.0
 42
-0.043473
  0
VERTEX
  5
176
100
AcDbEntity
  8
0
  6
CONTINUOUS
 62
     7
100
AcDbVertex
100
AcDb2dVertex
 10
36.013088
 20
-57.511855
 30
0.0
 42
-0.042669
  0
VERTEX
  5
177
100
AcDbEntity
  8
0
  6
CONTINUOUS
 62
     7
100
AcDbVertex
100
AcDb2dVertex
 10
35.692976
 20
-58.258052
 30
0.0
 42
-0.041646
  0
VERTEX
  5
178
100
AcDbEntity
  8
0
  6
CONTINUOUS
 62
     7
100
AcDbVertex
100
AcDb2dVertex
 10
35.251825
 20
-58.940541
 30
0.0
 42
-0.040455
  0
VERTEX
  5
179
100
AcDbEntity
  8
0
  6
CONTINUOUS
 62
     7
100
AcDbVertex
100
AcDb2dVertex
 10
34.705093
 20
-59.541779
 30
0.0
 42
-0.039278
  0
VERTEX
  5
17A
100
AcDbEntity
  8
0
  6
CONTINUOUS
 62
     7
100
AcDbVertex
100
AcDb2dVertex
 10
34.069794
 20
-60.048705
 30
0.0
 42
-0.038226
  0
VERTEX
  5
17B
100
AcDbEntity
  8
0
  6
CONTINUOUS
 62
     7
100
AcDbVertex
100
AcDb2dVertex
 10
33.363751
 20
-60.45164
 30
0.0
 42
-0.037377
  0
VERTEX
  5
17C
100
AcDbEntity
  8
0
  6
CONTINUOUS
 62
     7
100
AcDbVertex
100
AcDb2dVertex
 10
32.604967
 20
-60.743779
 30
0.0
 42
-0.036783
  0
VERTEX
  5
17D
100
AcDbEntity
  8
0
  6
CONTINUOUS
 62
     7
100
AcDbVertex
100
AcDb2dVertex
 10
31.811324
 20
-60.920697
 30
0.0
 42
-0.036494
  0
VERTEX
  5
17E
100
AcDbEntity
  8
0
  6
CONTINUOUS
 62
     7
100
AcDbVertex
100
AcDb2dVertex
 10
31.0
 20
-60.979963
 30
0.0
  0
SEQEND
  5
17F
100
AcDbEntity
  8
0
 62
     7
  0
POLYLINE
  5
180
100
AcDbEntity
  8
0
  6
CONTINUOUS
 62
     7
100
AcDb2dPolyline
 66
     1
 10
0.0
 20
0.0
 30
0.0
  0
VERTEX
  5
181
100
AcDbEntity
  8
0
  6
CONTINUOUS
 62
     7
100
AcDbVertex
100
AcDb2dVertex
 10
31.0
 20
8.743893
 30
0.0
 42
-0.02806
  0
VERTEX
  5
182
100
AcDbEntity
  8
0
  6
CONTINUOUS
 62
     7
100
AcDbVertex
100
AcDb2dVertex
 10
31.537807
 20
8.713676
 30
0.0
 42
-0.027915
  0
VERTEX
  5
183
100
AcDbEntity
  8
0
  6
CONTINUOUS
 62
     7
100
AcDbVertex
100
AcDb2dVertex
 10
32.06938
 20
8.623473
 30
0.0
 42
-0.027598
  0
VERTEX
  5
184
100
AcDbEntity
  8
0
  6
CONTINUOUS
 62
     7
100
AcDbVertex
100
AcDb2dVertex
 10
32.587966
 20
8.474843
 30
0.0
 42
-0.02708
  0
VERTEX
  5
185
100
AcDbEntity
  8
0
  6
CONTINUOUS
 62
     7
100
AcDbVertex
100
AcDb2dVertex
 10
33.086248
 20
8.270906
 30
0.0
 42
-0.026558
  0
VERTEX
  5
186
100
AcDbEntity
  8
0
  6
CONTINUOUS
 62
     7
100
AcDbVertex
100
AcDb2dVertex
 10
33.56061
 20
8.01437
 30
0.0
 42
-0.025943
  0
VERTEX
  5
187
100
AcDbEntity
  8
0
  6
CONTINUOUS
 62
     7
100
AcDbVertex
100
AcDb2dVertex
 10
34.00578
 20
7.709326
 30
0.0
 42
-0.025281
  0
VERTEX
  5
188
100
AcDbEntity
  8
0
  6
CONTINUOUS
 62
     7
100
AcDbVertex
100
AcDb2dVertex
 10
34.417452
 20
7.360341
 30
0.0
 42
-0.024617
  0
VERTEX
  5
189
100
AcDbEntity
  8
0
  6
CONTINUOUS
 62
     7
100
AcDbVertex
100
AcDb2dVertex
 10
34.792314
 20
6.972087
 30
0.0
 42
-0.023982
  0
VERTEX
  5
18A
100
AcDbEntity
  8
0
  6
CONTINUOUS
 62
     7
100
AcDbVertex
100
AcDb2dVertex
 10
35.127754
 20
6.549282
 30
0.0
 42
-0.023395
  0
VERTEX
  5
18B
100
AcDbEntity
  8
0
  6
CONTINUOUS
 62
     7
100
AcDbVertex
100
AcDb2dVertex
 10
35.421719
 20
6.096619
 30
0.0
 42
-0.022872
  0
VERTEX
  5
18C
100
AcDbEntity
  8
0
  6
CONTINUOUS
 62
     7
100
AcDbVertex
100
AcDb2dVertex
 10
35.672635
 20
5.6187
 30
0.0
 42
-0.022425
  0
VERTEX
  5
18D
100
AcDbEntity
  8
0
  6
CONTINUOUS
 62
     7
100
AcDbVertex
100
AcDb2dVertex
 10
35.879318
 20
5.120011
 30
0.0
 42
-0.02206
  0
VERTEX
  5
18E
100
AcDbEntity
  8
0
  6
CONTINUOUS
 62
     7
100
AcDbVertex
100
AcDb2dVertex
 10
36.040901
 20
4.604906
 30
0.0
 42
-0.021782
  0
VERTEX
  5
18F
100
AcDbEntity
  8
0
  6
CONTINUOUS
 62
     7
100
AcDbVertex
100
AcDb2dVertex
 10
36.156777
 20
4.077624
 30
0.0
 42
-0.021594
  0
VERTEX
  5
190
100
AcDbEntity
  8
0
  6
CONTINUOUS
 62
     7
100
AcDbVertex
100
AcDb2dVertex
 10
36.226548
 20
3.542304
 30
0.0
 42
-0.021499
  0
VERTEX
  5
191
100
AcDbEntity
  8
0
  6
CONTINUOUS
 62
     7
100
AcDbVertex
100
AcDb2dVertex
 10
36.249999
 20
3.002997
 30
0.0
  0
SEQEND
  5
192
100
AcDbEntity
  8
0
 62
     7
  0
LINE
  5
193
100
AcDbEntity
  8
0
  6
CONTINUOUS
 62
     7
100
AcDbLine
 10
79.275403
 20
-55.121237
 30
0.0
 11
80.788889
 21
-53.607748
 31
0.0
  0
LINE
  5
194
100
AcDbEntity
  8
0
  6
CONTINUOUS
 62
     7
100
AcDbLine
 10
77.629426
 20
-54.52215
 30
0.0
 11
80.021862
 21
-52.12971
 31
0.0
  0
LINE
  5
195
100
AcDbEntity
  8
0
  6
CONTINUOUS
 62
     7
100
AcDbLine
 10
77.348809
 20
-52.557702
 30
0.0
 11
78.009784
 21
-51.896726
 31
0.0
  0
LINE
  5
196
100
AcDbEntity
  8
0
  6
CONTINUOUS
 62
     7
100
AcDbLine
 10
75.702827
 20
-51.958621
 30
0.0
 11
75.764722
 21
-51.896726
 31
0.0
  0
LINE
  5
197
100
AcDbEntity
  8
0
  6
CONTINUOUS
 62
     7
100
AcDbLine
 10
79.043487
 20
-64.333415
 30
0.0
 11
80.397869
 21
-62.979031
 31
0.0
  0
LINE
  5
198
100
AcDbEntity
  8
0
  6
CONTINUOUS
 62
     7
100
AcDbLine
 10
76.77866
 20
-64.35318
 30
0.0
 11
78.751893
 21
-62.379944
 31
0.0
  0
LINE
  5
199
100
AcDbEntity
  8
0
  6
CONTINUOUS
 62
     7
100
AcDbLine
 10
74.513833
 20
-64.372945
 30
0.0
 11
77.105917
 21
-61.780857
 31
0.0
  0
LINE
  5
19A
100
AcDbEntity
  8
0
  6
CONTINUOUS
 62
     7
100
AcDbLine
 10
72.249006
 20
-64.392711
 30
0.0
 11
74.094591
 21
-62.547123
 31
0.0
  0
LINE
  5
19B
100
AcDbEntity
  8
0
  6
CONTINUOUS
 62
     7
100
AcDbLine
 10
74.79392
 20
-61.847792
 30
0.0
 11
75.459941
 21
-61.18177
 31
0.0
  0
LINE
  5
19C
100
AcDbEntity
  8
0
  6
CONTINUOUS
 62
     7
100
AcDbLine
 10
69.999929
 20
-64.396726
 30
0.0
 11
72.448615
 21
-61.948036
 31
0.0
  0
LINE
  5
19D
100
AcDbEntity
  8
0
  6
CONTINUOUS
 62
     7
100
AcDbLine
 10
69.788889
 20
-62.3627
 30
0.0
 11
70.802638
 21
-61.348949
 31
0.0
  0
TEXT
  5
1A0
100
AcDbEntity
  8
0
  6
CONTINUOUS
100
AcDbText
 10
11.3004
 20
-93.790258
 30
0.0
 40
6.0
  1
CTJPR10CA
100
AcDbText
  0
LINE
  5
1D7
100
AcDbEntity
  8
0
  6
CONTINUOUS
100
AcDbLine
 10
-29.99999
 20
21.629052
 30
0.0
 11
-29.99999
 21
-2.777285
 31
0.0
  0
ARC
  5
1D8
100
AcDbEntity
  8
0
  6
CONTINUOUS
100
AcDbCircle
 10
-29.99999
 20
19.0
 30
0.0
 40
19.0
100
AcDbArc
 50
194.27386
 51
285.268794
  0
LINE
  5
1E2
100
AcDbEntity
  8
0
  6
CONTINUOUS
100
AcDbLine
 10
-24.651016
 20
19.0
 30
0.0
 11
-36.62693
 21
19.0
 31
0.0
  0
DIMENSION
  5
209
100
AcDbEntity
  8
寸法
  6
CONTINUOUS
100
AcDbDimension
  2
*D1
 10
10.011161
 20
0.839328
 30
0.0
 11
-6.907697
 21
-6.567937
 31
0.0
 70
   162
  3
STANDARD
100
AcDb2LineAngularDimension
 13
0.0
 23
0.0
 33
0.0
 14
0.4
 24
0.0
 34
0.0
 15
0.434862
 25
0.001511
 35
0.0
 16
-9.416826
 26
-0.286152
 36
0.0
  0
DIMENSION
  5
216
100
AcDbEntity
  8
寸法
  6
CONTINUOUS
100
AcDbDimension
  2
*D2
 10
42.0
 20
-9.920409
 30
0.0
 11
45.999995
 21
-7.420409
 31
0.0
 70
    32
  3
STANDARD
100
AcDbAlignedDimension
 13
49.999989
 23
6.499996
 33
0.0
 14
42.0
 24
3.0
 34
0.0
100
AcDbRotatedDimension
  0
DIMENSION
  5
223
100
AcDbEntity
  8
寸法
  6
CONTINUOUS
100
AcDbDimension
  2
*D3
 10
49.999989
 20
-19.938936
 30
0.0
 11
24.999995
 21
-17.438936
 31
0.0
 70
    32
  3
STANDARD
100
AcDbAlignedDimension
 13
0.0
 23
0.0
 33
0.0
 14
49.999989
 24
6.499996
 34
0.0
100
AcDbRotatedDimension
  0
DIMENSION
  5
230
100
AcDbEntity
  8
寸法
  6
CONTINUOUS
100
AcDbDimension
  2
*D4
 10
60.363964
 20
3.0
 30
0.0
 11
57.863964
 21
8.5
 31
0.0
 70
    32
  3
STANDARD
100
AcDbAlignedDimension
 13
42.0
 23
14.0
 33
0.0
 14
42.0
 24
3.0
 34
0.0
 50
90.0
100
AcDbRotatedDimension
  0
DIMENSION
  5
23F
100
AcDbEntity
  8
寸法
  6
CONTINUOUS
100
AcDbDimension
  2
*D5
 10
29.0
 20
-39.732629
 30
0.0
 11
23.0
 21
-37.232629
 31
0.0
 12
0.0
 22
10.31707
 32
0.0
 70
    32
  3
STANDARD
100
AcDbAlignedDimension
 13
31.0
 23
-51.318799
 33
0.0
 14
29.0
 24
-51.252134
 34
0.0
100
AcDbRotatedDimension
  0
DIMENSION
  5
24C
100
AcDbEntity
  8
寸法
  6
CONTINUOUS
100
AcDbDimension
  2
*D6
 10
50.0
 20
-30.299596
 30
0.0
 11
40.0
 21
-27.799596
 31
0.0
 12
0.0
 22
10.31707
 32
0.0
 70
    32
  3
STANDARD
100
AcDbAlignedDimension
 13
30.0
 23
-49.985471
 33
0.0
 14
50.0
 24
-56.396726
 34
0.0
100
AcDbRotatedDimension
  0
DIMENSION
  5
259
100
AcDbEntity
  8
寸法
  6
CONTINUOUS
100
AcDbDimension
  2
*D7
 10
-9.035216
 20
-64.396711
 30
0.0
 11
-11.535216
 21
-59.396713
 31
0.0
 70
    32
  3
STANDARD
100
AcDbAlignedDimension
 13
-0.000003
 23
-54.396715
 33
0.0
 14
3.183815
 24
-64.396711
 34
0.0
 50
90.0
100
AcDbRotatedDimension
  0
DIMENSION
  5
266
100
AcDbEntity
  8
寸法
  6
CONTINUOUS
100
AcDbDimension
  2
*D8
 10
-17.533956
 20
0.0
 30
0.0
 11
-20.033956
 21
7.0
 31
0.0
 70
    32
  3
STANDARD
100
AcDbAlignedDimension
 13
1.0
 23
14.0
 33
0.0
 14
0.0
 24
0.0
 34
0.0
 50
90.0
100
AcDbRotatedDimension
  0
DIMENSION
  5
27F
100
AcDbEntity
  8
寸法
  6
CONTINUOUS
100
AcDbDimension
  2
*D9
 10
60.327549
 20
-64.396726
 30
0.0
 11
57.827549
 21
-58.146726
 31
0.0
 12
0.0
 22
10.31707
 32
0.0
 70
    32
  3
STANDARD
100
AcDbAlignedDimension
 13
42.0
 23
-51.896726
 33
0.0
 14
42.0
 24
-64.396726
 34
0.0
 50
90.0
100
AcDbRotatedDimension
  0
LINE
  5
280
100
AcDbEntity
  8
寸法
  6
CONTINUOUS
100
AcDbLine
 10
80.788889
 20
-59.396729
 30
0.0
 11
80.983566
 21
-59.396729
 31
0.0
  0
DIMENSION
  5
2F4
100
AcDbEntity
  8
寸法
  6
CONTINUOUS
100
AcDbDimension
  2
*D10
 10
83.501764
 20
-60.384134
 30
0.0
 11
90.968818
 21
-57.454346
 31
0.0
 12
-10.211111
 22
10.31707
 32
0.0
 70
   162
  3
STANDARD
100
AcDb2LineAngularDimension
 13
80.788889
 23
-59.396729
 33
0.0
 14
80.983566
 24
-59.396729
 34
0.0
 15
67.964243
 25
-54.72894
 35
0.0
 16
90.873119
 26
-61.786734
 36
0.0
  0
DIMENSION
  5
303
100
AcDbEntity
  8
寸法
  6
CONTINUOUS
100
AcDbDimension
  2
*D11
 10
103.353309
 20
-64.396726
 30
0.0
 11
100.853309
 21
-61.896727
 31
0.0
 12
-10.211111
 22
10.31707
 32
0.0
 70
    32
  3
STANDARD
100
AcDbAlignedDimension
 13
80.788889
 23
-59.396729
 33
0.0
 14
69.788889
 24
-64.396726
 34
0.0
 50
90.0
100
AcDbRotatedDimension
  0
ARC
  5
336
100
AcDbEntity
  8
寸法
  6
CONTINUOUS
100
AcDbCircle
 10
30.0
 20
-54.467771
 30
0.0
 40
30.000087
100
AcDbArc
 50
179.864293
 51
239.605607
  0
INSERT
  5
356
100
AcDbEntity
  8
寸法
  6
CONTINUOUS
 62
     1
100
AcDbBlockReference
  2
_OPEN30
 10
-34.773537
 20
-49.816398
 30
0.0
 41
2.0
 42
2.0
 43
2.0
 50
90.0
  0
INSERT
  5
358
100
AcDbEntity
  8
寸法
  6
CONTINUOUS
 62
     1
100
AcDbBlockReference
  2
_OPEN30
 10
-25.044363
 20
-59.798504
 30
0.0
 41
2.0
 42
2.0
 43
2.0
  0
LINE
  5
35A
100
AcDbEntity
  8
寸法
  6
CONTINUOUS
 62
     1
100
AcDbLine
 10
-34.773537
 20
-51.816398
 30
0.0
 11
-34.773537
 21
-59.798504
 31
0.0
  0
LINE
  5
35B
100
AcDbEntity
  8
寸法
  6
CONTINUOUS
 62
     1
100
AcDbLine
 10
-27.044363
 20
-59.798504
 30
0.0
 11
-34.773537
 21
-59.798504
 31
0.0
  0
CIRCLE
  5
35D
100
AcDbEntity
  8
0
  6
CONTINUOUS
 62
     7
100
AcDbCircle
 10
13.606548
 20
8.583338
 30
0.0
 40
4.399999
  0
TEXT
  5
35E
100
AcDbEntity
  8
寸法
  6
CONTINUOUS
100
AcDbText
 10
-27.137667
 20
-64.804507
 30
0.0
 40
3.0
  1
+5°
100
AcDbText
  0
TEXT
  5
35F
100
AcDbEntity
  8
寸法
  6
CONTINUOUS
100
AcDbText
 10
-40.552205
 20
-52.308914
 30
0.0
 40
3.0
  1
0°
100
AcDbText
  0
DIMENSION
  5
377
100
AcDbEntity
  8
寸法
  6
CONTINUOUS
100
AcDbDimension
  2
*D12
 10
-12.33442
 20
25.99483
 30
0.0
 11
-39.297658
 21
15.318511
 31
0.0
 70
   163
  3
STANDARD
100
AcDbDiametricDimension
 15
-47.66556
 25
12.00517
 35
0.0
 40
0.0
1001
ACAD
1000
DSTYLE
1002
{
1070
   288
1070
     1
1002
}
  0
DIMENSION
  5
3C3
100
AcDbEntity
  8
寸法
  6
CONTINUOUS
100
AcDbDimension
  2
*D13
 10
47.964144
 20
-30.440812
 30
0.0
 11
17.275383
 21
-71.486887
 31
0.0
 70
   163
  3
STANDARD
100
AcDbDiametricDimension
 15
12.035856
 25
-78.49473
 35
0.0
 40
0.0
1001
ACAD
1000
DSTYLE
1002
{
1070
   288
1070
     1
1002
}
  0
ENDSEC
  0
SECTION
  2
OBJECTS
  0
DICTIONARY
  5
C
100
AcDbDictionary
  3
ACAD_GROUP
350
D
  3
ACAD_MLINESTYLE
350
1B
  3
CONTENTDICTIONARY
350
1AC
  0
DICTIONARY
  5
D
102
{ACAD_REACTORS
330
C
102
}
100
AcDbDictionary
  0
DICTIONARY
  5
1B
102
{ACAD_REACTORS
330
C
102
}
100
AcDbDictionary
  3
STANDARD
350
1C
  0
DICTIONARY
  5
1AC
102
{ACAD_REACTORS
330
C
102
}
100
AcDbDictionary
  0
MLINESTYLE
  5
1C
102
{ACAD_REACTORS
330
1B
102
}
100
AcDbMlineStyle
  2
STANDARD
 70
     0
  3

 62
   256
 51
90.0
 52
90.0
 71
     2
 49
0.5
 62
   256
  6
BYLAYER
 49
-0.5
 62
   256
  6
BYLAYER
  0
ENDSEC
  0
EOF
