  0
SECTION
  2
HEADER
  9
$ACADVER
  1
AC1015
  9
$ACADMAINTVER
 70
     6
  9
$DWGCODEPAGE
  3
ANSI_932
  9
$INSBASE
 10
0.0
 20
0.0
 30
0.0
  9
$EXTMIN
 10
-125.0375695190254
 20
-207.8221717603074
 30
-0.0000000000000005
  9
$EXTMAX
 10
157.1956747114996
 20
39.83595014969583
 30
0.0000000000000005
  9
$LIMMIN
 10
0.0
 20
0.0
  9
$LIMMAX
 10
420.0
 20
297.0
  9
$ORTHOMODE
 70
     0
  9
$REGENMODE
 70
     1
  9
$FILLMODE
 70
     1
  9
$QTEXTMODE
 70
     0
  9
$MIRRTEXT
 70
     1
  9
$LTSCALE
 40
1.0
  9
$ATTMODE
 70
     1
  9
$TEXTSIZE
 40
10.0
  9
$TRACEWID
 40
1.0
  9
$TEXTSTYLE
  7
STANDARD
  9
$CLAYER
  8
AM_0
  9
$CELTYPE
  6
ByLayer
  9
$CECOLOR
 62
   256
  9
$CELTSCALE
 40
1.0
  9
$DISPSILH
 70
     0
  9
$DIMSCALE
 40
1.0
  9
$DIMASZ
 40
2.5
  9
$DIMEXO
 40
0.0
  9
$DIMDLI
 40
10.0
  9
$DIMRND
 40
0.0
  9
$DIMDLE
 40
0.0
  9
$DIMEXE
 40
1.0
  9
$DIMTP
 40
0.1
  9
$DIMTM
 40
0.1000000001
  9
$DIMTXT
 40
3.8
  9
$DIMCEN
 40
0.0
  9
$DIMTSZ
 40
0.0
  9
$DIMTOL
 70
     0
  9
$DIMLIM
 70
     0
  9
$DIMTIH
 70
     0
  9
$DIMTOH
 70
     0
  9
$DIMSE1
 70
     0
  9
$DIMSE2
 70
     0
  9
$DIMTAD
 70
     3
  9
$DIMZIN
 70
     1
  9
$DIMBLK
  1
Open30
  9
$DIMASO
 70
     1
  9
$DIMSHO
 70
     1
  9
$DIMPOST
  1

  9
$DIMAPOST
  1
"
  9
$DIMALT
 70
     0
  9
$DIMALTD
 70
     2
  9
$DIMALTF
 40
0.0393701
  9
$DIMLFAC
 40
1.0
  9
$DIMTOFL
 70
     1
  9
$DIMTVP
 40
0.0
  9
$DIMTIX
 70
     0
  9
$DIMSOXD
 70
     0
  9
$DIMSAH
 70
     0
  9
$DIMBLK1
  1

  9
$DIMBLK2
  1

  9
$DIMSTYLE
  2
AM_JIS
  9
$DIMCLRD
 70
   256
  9
$DIMCLRE
 70
   256
  9
$DIMCLRT
 70
     2
  9
$DIMTFAC
 40
0.71
  9
$DIMGAP
 40
1.5
  9
$DIMJUST
 70
     0
  9
$DIMSD1
 70
     0
  9
$DIMSD2
 70
     0
  9
$DIMTOLJ
 70
     0
  9
$DIMTZIN
 70
     8
  9
$DIMALTZ
 70
     0
  9
$DIMALTTZ
 70
     0
  9
$DIMUPT
 70
     0
  9
$DIMDEC
 70
     0
  9
$DIMTDEC
 70
     2
  9
$DIMALTU
 70
     2
  9
$DIMALTTD
 70
     2
  9
$DIMTXSTY
  7
STANDARD
  9
$DIMAUNIT
 70
     1
  9
$DIMADEC
 70
     1
  9
$DIMALTRND
 40
0.0
  9
$DIMAZIN
 70
     2
  9
$DIMDSEP
 70
    46
  9
$DIMATFIT
 70
     3
  9
$DIMFRAC
 70
     0
  9
$DIMLDRBLK
  1
Open30
  9
$DIMLUNIT
 70
     2
  9
$DIMLWD
 70
    -1
  9
$DIMLWE
 70
    -1
  9
$DIMTMOVE
 70
     0
  9
$LUNITS
 70
     2
  9
$LUPREC
 70
     2
  9
$SKETCHINC
 40
1.0
  9
$FILLETRAD
 40
0.794
  9
$AUNITS
 70
     1
  9
$AUPREC
 70
     5
  9
$MENU
  1
.
  9
$ELEVATION
 40
0.0
  9
$PELEVATION
 40
0.0
  9
$THICKNESS
 40
0.0
  9
$LIMCHECK
 70
     0
  9
$CHAMFERA
 40
1.0
  9
$CHAMFERB
 40
1.0
  9
$CHAMFERC
 40
20.0
  9
$CHAMFERD
 40
0.0
  9
$SKPOLY
 70
     0
  9
$TDCREATE
 40
2451943.610431667
  9
$TDUCREATE
 40
2451943.235431667
  9
$TDUPDATE
 40
2455457.480107963
  9
$TDUUPDATE
 40
2455457.105107963
  9
$TDINDWG
 40
2.1634352431
  9
$TDUSRTIMER
 40
2.1634350694
  9
$USRTIMER
 70
     1
  9
$ANGBASE
 50
0.0
  9
$ANGDIR
 70
     0
  9
$PDMODE
 70
     0
  9
$PDSIZE
 40
0.0
  9
$PLINEWID
 40
0.0
  9
$SPLFRAME
 70
     0
  9
$SPLINETYPE
 70
     6
  9
$SPLINESEGS
 70
     8
  9
$HANDSEED
  5
3423A
  9
$SURFTAB1
 70
     6
  9
$SURFTAB2
 70
     6
  9
$SURFTYPE
 70
     6
  9
$SURFU
 70
     6
  9
$SURFV
 70
     6
  9
$UCSBASE
  2

  9
$UCSNAME
  2

  9
$UCSORG
 10
0.0
 20
0.0
 30
0.0
  9
$UCSXDIR
 10
1.0
 20
0.0
 30
0.0
  9
$UCSYDIR
 10
0.0
 20
1.0
 30
0.0
  9
$UCSORTHOREF
  2

  9
$UCSORTHOVIEW
 70
     0
  9
$UCSORGTOP
 10
0.0
 20
0.0
 30
0.0
  9
$UCSORGBOTTOM
 10
0.0
 20
0.0
 30
0.0
  9
$UCSORGLEFT
 10
0.0
 20
0.0
 30
0.0
  9
$UCSORGRIGHT
 10
0.0
 20
0.0
 30
0.0
  9
$UCSORGFRONT
 10
0.0
 20
0.0
 30
0.0
  9
$UCSORGBACK
 10
0.0
 20
0.0
 30
0.0
  9
$PUCSBASE
  2

  9
$PUCSNAME
  2

  9
$PUCSORG
 10
0.0
 20
0.0
 30
0.0
  9
$PUCSXDIR
 10
1.0
 20
0.0
 30
0.0
  9
$PUCSYDIR
 10
0.0
 20
1.0
 30
0.0
  9
$PUCSORTHOREF
  2

  9
$PUCSORTHOVIEW
 70
     0
  9
$PUCSORGTOP
 10
0.0
 20
0.0
 30
0.0
  9
$PUCSORGBOTTOM
 10
0.0
 20
0.0
 30
0.0
  9
$PUCSORGLEFT
 10
0.0
 20
0.0
 30
0.0
  9
$PUCSORGRIGHT
 10
0.0
 20
0.0
 30
0.0
  9
$PUCSORGFRONT
 10
0.0
 20
0.0
 30
0.0
  9
$PUCSORGBACK
 10
0.0
 20
0.0
 30
0.0
  9
$USERI1
 70
     0
  9
$USERI2
 70
     0
  9
$USERI3
 70
     0
  9
$USERI4
 70
     0
  9
$USERI5
 70
     0
  9
$USERR1
 40
0.0
  9
$USERR2
 40
0.0
  9
$USERR3
 40
0.0
  9
$USERR4
 40
0.0
  9
$USERR5
 40
0.0
  9
$WORLDVIEW
 70
     1
  9
$SHADEDGE
 70
     3
  9
$SHADEDIF
 70
    70
  9
$TILEMODE
 70
     1
  9
$MAXACTVP
 70
    64
  9
$PINSBASE
 10
0.0
 20
0.0
 30
0.0
  9
$PLIMCHECK
 70
     0
  9
$PEXTMIN
 10
1.000000000000000E+20
 20
1.000000000000000E+20
 30
1.000000000000000E+20
  9
$PEXTMAX
 10
-1.000000000000000E+20
 20
-1.000000000000000E+20
 30
-1.000000000000000E+20
  9
$PLIMMIN
 10
0.0
 20
0.0
  9
$PLIMMAX
 10
420.0
 20
297.0
  9
$UNITMODE
 70
     0
  9
$VISRETAIN
 70
     1
  9
$PLINEGEN
 70
     0
  9
$PSLTSCALE
 70
     1
  9
$TREEDEPTH
 70
  3020
  9
$CMLSTYLE
  2
Standard
  9
$CMLJUST
 70
     0
  9
$CMLSCALE
 40
20.0
  9
$PROXYGRAPHICS
 70
     1
  9
$MEASUREMENT
 70
     1
  9
$CELWEIGHT
370
    -1
  9
$ENDCAPS
280
     0
  9
$JOINSTYLE
280
     0
  9
$LWDISPLAY
290
     0
  9
$INSUNITS
 70
     4
  9
$HYPERLINKBASE
  1

  9
$STYLESHEET
  1
sei_cad.ctb
  9
$XEDIT
290
     1
  9
$CEPSNTYPE
380
     0
  9
$PSTYLEMODE
290
     1
  9
$FINGERPRINTGUID
  2
{C77AB3BE-9CA2-11D3-BAF3-006094EB760E}
  9
$VERSIONGUID
  2
{EB5E6D31-066C-4493-A434-BFBD980A80A8}
  9
$EXTNAMES
290
     1
  9
$PSVPSCALE
 40
0.0
  9
$OLESTARTUP
290
     0
  0
ENDSEC
  0
SECTION
  2
CLASSES
  0
CLASS
  1
ACDBDICTIONARYWDFLT
  2
AcDbDictionaryWithDefault
  3
ObjectDBX Classes
 90
        0
280
     0
281
     0
  0
CLASS
  1
ACDBPLACEHOLDER
  2
AcDbPlaceHolder
  3
ObjectDBX Classes
 90
        0
280
     0
281
     0
  0
CLASS
  1
LAYOUT
  2
AcDbLayout
  3
ObjectDBX Classes
 90
        0
280
     0
281
     0
  0
CLASS
  1
ACME_DOCUMENT
  2
AcMeDbDoc
  3
AcMeServices
 90
        0
280
     1
281
     0
  0
CLASS
  1
ACMESCOPE
  2
AcMeScope
  3
AcMeServices
 90
        0
280
     1
281
     0
  0
CLASS
  1
ACMECOMMANDHISTORY
  2
AcMeCommandHistory
  3
AcMeServices
 90
        0
280
     1
281
     0
  0
CLASS
  1
DICTIONARYVAR
  2
AcDbDictionaryVar
  3
ObjectDBX Classes
 90
        0
280
     0
281
     0
  0
CLASS
  1
ACIMSYSVARMAN
  2
AcImSysVarManager
  3
AcMeServices
 90
        0
280
     1
281
     0
  0
CLASS
  1
ACIMREALSYSVAR
  2
AcImRealSysVar
  3
AcMeServices
 90
        0
280
     1
281
     0
  0
CLASS
  1
ACIMINTSYSVAR
  2
AcImIntSysVar
  3
AcMeServices
 90
        0
280
     1
281
     0
  0
CLASS
  1
ACMEDRAWINGMAN
  2
AcMeDrawingMan
  3
AcMeServices
 90
        0
280
     1
281
     0
  0
CLASS
  1
ACMEVIEW
  2
AcMeView
  3
AcMeServices
 90
        0
280
     1
281
     0
  0
CLASS
  1
ACDBENTITYCACHE
  2
AcMeEntityCache
  3
AcMeServices
 90
        0
280
     1
281
     0
  0
CLASS
  1
GSMANAGER
  2
AcMeGSManager
  3
AcMeServices
 90
        0
280
     1
281
     0
  0
CLASS
  1
AMDTINTERNALREACTOR
  2
AmdtInternalReactor
  3
AcMeServices
 90
        0
280
     1
281
     0
  0
CLASS
  1
ACMESTATEMGR
  2
AcMeStateMgr
  3
AcMeServices
 90
        0
280
     1
281
     0
  0
CLASS
  1
ACME_DATABASE
  2
AcMeDbDatabase
  3
AcMeServices
 90
        0
280
     1
281
     0
  0
CLASS
  1
ACRFINSADJUSTERMGR
  2
AcRfInsAdjusterMgr
  3
AcMeServices
 90
        0
280
     1
281
     0
  0
CLASS
  1
AMGSETTINGSOBJ
  2
AmgSettingsObj
  3
"AcadM|Product Description: AutoCAD Mechanical 2000|Company: Autodesk"
 90
        0
280
     1
281
     0
  0
CLASS
  1
AMGOBJPROPCFG
  2
AmgObjPropCfg
  3
"AmgLay|Product Description: AutoCAD Mechanical 2000|Company: Autodesk"
 90
        1
280
     1
281
     0
  0
CLASS
  1
ACMDATADICTIONARY
  2
AcmDataDictionary
  3
"AcmSymBB|Product Description: AutoCAD Mechanical 2004 DX|Company: Autodesk"
 90
        0
280
     1
281
     0
  0
CLASS
  1
ACMDATAENTRYBLOCK
  2
AcmDataEntryBlock
  3
"AcmSymBB|Product Description: AutoCAD Mechanical 2004 DX|Company: Autodesk"
 90
        0
280
     1
281
     0
  0
CLASS
  1
ACIMSTRSYSVAR
  2
AcImStrSysVar
  3
AcMeServices
 90
        0
280
     1
281
     0
  0
CLASS
  1
ACAMGFILTERDAT
  2
AcAmgFilterDat
  3
"AcadM|Product Description: AutoCAD Mechanical 2000|Company: Autodesk"
 90
        0
280
     1
281
     0
  0
CLASS
  1
LAYER_INDEX
  2
AcDbLayerIndex
  3
ObjectDBX Classes
 90
        0
280
     0
281
     0
  0
CLASS
  1
IDBUFFER
  2
AcDbIdBuffer
  3
ObjectDBX Classes
 90
        0
280
     0
281
     0
  0
CLASS
  1
ACMSTANDARDJIS
  2
AcmStandardJIS
  3
"Amdt_StdImp|Product Description: AutoCAD Mechanical 2004 DX|Company: Autodesk"
 90
        0
280
     1
281
     0
  0
CLASS
  1
ACMSURFSTANDARDJIS
  2
AcmSurfTextStdJIS
  3
"Amdt_StdImp|Product Description: AutoCAD Mechanical 2004 DX|Company: Autodesk"
 90
        0
280
     1
281
     0
  0
CLASS
  1
ACMFCFSTANDARDJIS
  2
AcmFCFStdJIS
  3
"Amdt_StdImp|Product Description: AutoCAD Mechanical 2004 DX|Company: Autodesk"
 90
        0
280
     1
281
     0
  0
CLASS
  1
ACMWELDSTANDARDJIS
  2
AcmWeldingStdJIS
  3
"Amdt_StdImp|Product Description: AutoCAD Mechanical 2004 DX|Company: Autodesk"
 90
        0
280
     1
281
     0
  0
CLASS
  1
ACMIDSTANDARDJIS
  2
AcmIdStdJIS
  3
"Amdt_StdImp|Product Description: AutoCAD Mechanical 2004 DX|Company: Autodesk"
 90
        0
280
     1
281
     0
  0
CLASS
  1
ACMDATUMSTANDARDJIS
  2
AcmDatumStdJIS
  3
"Amdt_StdImp|Product Description: AutoCAD Mechanical 2004 DX|Company: Autodesk"
 90
        0
280
     1
281
     0
  0
CLASS
  1
ACMBOMSTANDARDJIS
  2
AcmBOMStdJIS
  3
"Amdt_StdImp|Product Description: AutoCAD Mechanical 2004 DX|Company: Autodesk"
 90
        0
280
     1
281
     0
  0
CLASS
  1
AMDTNOTE
  2
AmdtNote
  3
"AcmSymBB|Product Description: AutoCAD Mechanical 2004 DX|Company: Autodesk"
 90
     1023
280
     1
281
     1
  0
CLASS
  1
ACMDATUMID
  2
AcmDatumId
  3
"AcmSymBB|Product Description: AutoCAD Mechanical 2004 DX|Company: Autodesk"
 90
     1023
280
     1
281
     1
  0
CLASS
  1
TABLESTYLE
  2
AcDbTableStyle
  3
ObjectDBX Classes
 90
     2047
280
     0
281
     0
  0
CLASS
  1
ACGREFMASTER
  2
AcGrefMaster
  3
AcAttribServices
 90
        0
280
     1
281
     0
  0
CLASS
  1
AM_DRAWING_MGR
  2
AcDmDwgMgr
  3
AcMechDwgViewMgmt
 90
        0
280
     1
281
     0
  0
CLASS
  1
AM_DWG_DOCUMENT
  2
AcDmDwgDocument
  3
AcMechDwgViewMgmt
 90
        0
280
     1
281
     0
  0
CLASS
  1
AM_DWG_SHEET
  2
AcDmSheet
  3
AcMechDwgViewMgmt
 90
        0
280
     1
281
     0
  0
CLASS
  1
AM_VIEWDIMPARMAP
  2
AcDmViewDimParMap
  3
AcMechDwgViewMgmt
 90
        0
280
     1
281
     0
  0
CLASS
  1
AM_DWGMGR_NAME
  2
AcDmDwgMgrName
  3
AcMechDwgViewMgmt
 90
        0
280
     1
281
     0
  0
CLASS
  1
ACGREFACADMASTER
  2
AcGrefacadMaster
  3
AcGrefServices
 90
        0
280
     1
281
     0
  0
CLASS
  1
AMDTMENUSTATEMGR
  2
AmdtMenuStateMgr
  3
McadcomServices
 90
        0
280
     1
281
     0
  0
CLASS
  1
AMDTMCOMMENUSTATE
  2
AmdtMcomMenuState
  3
McadcomServices
 90
        0
280
     1
281
     0
  0
CLASS
  1
AMIMASTER
  2
AmiMaster
  3
AmiServices
 90
        0
280
     1
281
     0
  0
CLASS
  1
MAPIAMMOUDLE
  2
MApiAmModule
  3
MApiAmServices
 90
        0
280
     1
281
     0
  0
CLASS
  1
AMDTADMENUSTATE
  2
AmdtAdMenuState
  3
DesignerServices
 90
        0
280
     1
281
     0
  0
CLASS
  1
ADAPPL
  2
AcAdAppl
  3
DesignerServices
 90
        0
280
     1
281
     0
  0
CLASS
  1
DEPMGR
  2
AcAdDepMgr
  3
DesignerServices
 90
        0
280
     1
281
     0
  0
CLASS
  1
PARAMMGR
  2
AcAdParamMgr
  3
DesignerServices
 90
        0
280
     1
281
     0
  0
CLASS
  1
PARAMSCOPE
  2
AcAdParamScope
  3
DesignerServices
 90
        0
280
     1
281
     0
  0
CLASS
  1
NAMEDAPPL
  2
AcAdNamedAppl
  3
DesignerServices
 90
        0
280
     1
281
     0
  0
CLASS
  1
AMDTDMMENUSTATE
  2
AmdtDmMenuState
  3
AcMechDwgViewMgmt
 90
        0
280
     1
281
     0
  0
CLASS
  1
AMDTAMMENUSTATE
  2
AmdtAmMenuState
  3
DesignerAssemblies
 90
        0
280
     1
281
     0
  0
CLASS
  1
ACAMPROJECT
  2
AcAmProject
  3
DesignerAssemblies
 90
        0
280
     1
281
     0
  0
CLASS
  1
ACAMGRCOMPDEF
  2
AcAmGrCompDef
  3
DesignerAssemblies
 90
        0
280
     1
281
     0
  0
CLASS
  1
ACCMCONTEXT
  2
AcCmContext
  3
DesignerAssemblies
 90
        0
280
     1
281
     0
  0
CLASS
  1
ACAMCOMPDEF
  2
AcAmCompDef
  3
DesignerAssemblies
 90
        0
280
     1
281
     0
  0
CLASS
  1
ACAMCOMPDEFMGR
  2
AcAmCompDefMgr
  3
DesignerAssemblies
 90
        0
280
     1
281
     0
  0
CLASS
  1
AMCONTEXTMGR
  2
AcAmContextMgr
  3
DesignerAssemblies
 90
        0
280
     1
281
     0
  0
CLASS
  1
ACAMCONTEXTMODELER
  2
AcAmContextModeler
  3
DesignerAssemblies
 90
        0
280
     1
281
     0
  0
CLASS
  1
ACAMGTITLESTD
  2
AcAmgTitleStd
  3
"TITLEAPP"
 90
        0
280
     1
281
     0
  0
CLASS
  1
ACMDETAILSTANDARDJIS
  2
AmdtDetailSymStdJIS
  3
"Amdt_StdImp|Product Description: AutoCAD Mechanical 2004 DX|Company: Autodesk"
 90
        0
280
     1
281
     0
  0
CLASS
  1
ACMSECTIONSTANDARDJIS
  2
AmdtSectionSymStdJIS
  3
"Amdt_StdImp|Product Description: AutoCAD Mechanical 2004 DX|Company: Autodesk"
 90
        0
280
     1
281
     0
  0
CLASS
  1
ACMCENTERLINESTANDARDJIS
  2
AmdtCenterLineStdJIS
  3
"Amdt_StdImp|Product Description: AutoCAD Mechanical 2004 DX|Company: Autodesk"
 90
        0
280
     1
281
     0
  0
CLASS
  1
ACMTHREADLINESTANDARDJIS
  2
AmdtThreadLineStdJIS
  3
"Amdt_StdImp|Product Description: AutoCAD Mechanical 2004 DX|Company: Autodesk"
 90
        0
280
     1
281
     0
  0
CLASS
  1
ACMNOTESTANDARDJIS
  2
AmdtNoteStdJIS
  3
"Amdt_StdImp|Product Description: AutoCAD Mechanical 2004 DX|Company: Autodesk"
 90
        0
280
     1
281
     0
  0
CLASS
  1
AMDTNOTETEMPLATEDB
  2
AmdtNoteTemplateDB
  3
AMDT_STDIMP_MODULE_NAME
 90
        0
280
     1
281
     0
  0
CLASS
  1
ACAMGLAYSTD
  2
AcAmgLayStd
  3
"AcAmgLayStd|Product Description: AutoCAD Mechanical 2000|Company: Autodesk"
 90
        0
280
     1
281
     0
  0
CLASS
  1
ACAMGDIMSTD
  2
AcAmgDimStd
  3
"AcAmgDimStd|Product Description: AutoCAD Mechanical 2000|Company: Autodesk"
 90
        0
280
     1
281
     0
  0
CLASS
  1
ACAMGHOLECHARTSTDJIS
  2
AcAmgHoleChartStdJIS
  3
ACMSYMBB_MODULE_NAME
 90
        0
280
     1
281
     0
  0
CLASS
  1
CATALOGSTATE
  2
AcAmCatalogState
  3
DesignerAssemblies
 90
        0
280
     1
281
     0
  0
CLASS
  1
ACAMGRCOMPDEFSET
  2
AcAmGrCompDefSet
  3
DesignerAssemblies
 90
        0
280
     1
281
     0
  0
CLASS
  1
AMDTBROWSERDBTAB
  2
AmdtBrowserDbTab
  3
McadcomServices
 90
        0
280
     1
281
     0
  0
CLASS
  1
CBROWSERAPPOBJECT
  2
CBrowserAppObject
  3
McadcomServices
 90
        0
280
     1
281
     0
  0
CLASS
  1
DM_PLACEHOLDER
  2
AcDmSelsetPlaceholder
  3
AcMechDwgViewMgmt
 90
        0
280
     1
281
     0
  0
CLASS
  1
SORTENTSTABLE
  2
AcDbSortentsTable
  3
ObjectDBX Classes
 90
        0
280
     0
281
     0
  0
CLASS
  1
ACMSTANDARDISO
  2
AcmStandardISO
  3
"Amdt_StdImp|Product Description: AutoCAD Mechanical 2004 DX|Company: Autodesk"
 90
        0
280
     1
281
     0
  0
CLASS
  1
AMDTEDGESTANDARDISO13715
  2
AmdtEdgeStdISO13715
  3
"Amdt_StdImp|Product Description: AutoCAD Mechanical 2004 DX|Company: Autodesk"
 90
        0
280
     1
281
     0
  0
CLASS
  1
ACMSURFSTANDARDISO
  2
AcmSurfTextStdISO
  3
"Amdt_StdImp|Product Description: AutoCAD Mechanical 2004 DX|Company: Autodesk"
 90
        0
280
     1
281
     0
  0
CLASS
  1
ACMFCFSTANDARDISO
  2
AcmFCFStdISO
  3
"Amdt_StdImp|Product Description: AutoCAD Mechanical 2004 DX|Company: Autodesk"
 90
        0
280
     1
281
     0
  0
CLASS
  1
ACMWELDSTANDARDISO
  2
AcmWeldingStdISO
  3
"Amdt_StdImp|Product Description: AutoCAD Mechanical 2004 DX|Company: Autodesk"
 90
        0
280
     1
281
     0
  0
CLASS
  1
ACMIDSTANDARDISO
  2
AcmIdStdISO
  3
"Amdt_StdImp|Product Description: AutoCAD Mechanical 2004 DX|Company: Autodesk"
 90
        0
280
     1
281
     0
  0
CLASS
  1
ACMDATUMSTANDARDISO
  2
AcmDatumStdISO
  3
"Amdt_StdImp|Product Description: AutoCAD Mechanical 2004 DX|Company: Autodesk"
 90
        0
280
     1
281
     0
  0
CLASS
  1
ACMBOMSTANDARDISO
  2
AcmBOMStdISO
  3
"Amdt_StdImp|Product Description: AutoCAD Mechanical 2004 DX|Company: Autodesk"
 90
        0
280
     1
281
     0
  0
CLASS
  1
ACMDETAILSTANDARDISO
  2
AmdtDetailSymStdISO
  3
"Amdt_StdImp|Product Description: AutoCAD Mechanical 2004 DX|Company: Autodesk"
 90
        0
280
     1
281
     0
  0
CLASS
  1
ACMSECTIONSTANDARDISO
  2
AmdtSectionSymStdISO
  3
"Amdt_StdImp|Product Description: AutoCAD Mechanical 2004 DX|Company: Autodesk"
 90
        0
280
     1
281
     0
  0
CLASS
  1
ACMCENTERLINESTANDARDISO
  2
AmdtCenterLineStdISO
  3
"Amdt_StdImp|Product Description: AutoCAD Mechanical 2004 DX|Company: Autodesk"
 90
        0
280
     1
281
     0
  0
CLASS
  1
ACMTHREADLINESTANDARDISO
  2
AmdtThreadLineStdISO
  3
"Amdt_StdImp|Product Description: AutoCAD Mechanical 2004 DX|Company: Autodesk"
 90
        0
280
     1
281
     0
  0
CLASS
  1
ACMNOTESTANDARDISO
  2
AmdtNoteStdISO
  3
"Amdt_StdImp|Product Description: AutoCAD Mechanical 2004 DX|Company: Autodesk"
 90
        0
280
     1
281
     0
  0
CLASS
  1
ACAMGHOLECHARTSTDISO
  2
AcAmgHoleChartStdISO
  3
ACMSYMBB_MODULE_NAME
 90
        0
280
     1
281
     0
  0
CLASS
  1
AMDTFORMULAUPDATEDISPATCHER
  2
AmdtFormulaUpdateDispatcher
  3
AcMeServices
 90
        0
280
     1
281
     0
  0
ENDSEC
  0
SECTION
  2
TABLES
  0
TABLE
  2
VPORT
  5
8
330
0
100
AcDbSymbolTable
 70
    10
  0
VPORT
  5
34233
330
8
100
AcDbSymbolTableRecord
100
AcDbViewportTableRecord
  2
*Active
 70
     0
 10
0.0
 20
0.0
 11
1.0
 21
1.0
 12
26.00017982761818
 22
-87.87188170498274
 13
0.0
 23
0.0
 14
2.5
 24
2.5
 15
10.0
 25
10.0
 16
0.0
 26
0.0
 36
1.0
 17
0.0
 27
0.0
 37
0.0
 40
665.690367121184
 41
1.372924648786718
 42
50.0
 43
0.0
 44
0.0
 50
0.0
 51
0.0
 71
    16
 72
 20000
 73
     1
 74
     3
 75
     0
 76
     0
 77
     0
 78
     0
281
     0
 65
     1
110
0.0
120
0.0
130
0.0
111
1.0
121
0.0
131
0.0
112
0.0
122
1.0
132
0.0
 79
     0
146
0.0
  0
ENDTAB
  0
TABLE
  2
LTYPE
  5
5
330
0
100
AcDbSymbolTable
 70
    16
  0
LTYPE
  5
14
330
5
100
AcDbSymbolTableRecord
100
AcDbLinetypeTableRecord
  2
ByBlock
 70
     0
  3

 72
    65
 73
     0
 40
0.0
  0
LTYPE
  5
15
330
5
100
AcDbSymbolTableRecord
100
AcDbLinetypeTableRecord
  2
ByLayer
 70
     0
  3

 72
    65
 73
     0
 40
0.0
  0
LTYPE
  5
16
330
5
100
AcDbSymbolTableRecord
100
AcDbLinetypeTableRecord
  2
Continuous
 70
     0
  3
Solid line
 72
    65
 73
     0
 40
0.0
  0
LTYPE
  5
43
330
5
100
AcDbSymbolTableRecord
100
AcDbLinetypeTableRecord
  2
AM_ISO02W050
 70
     0
  3
__ __ __ __ __ __ __ __ __ __ __ __ __ __ __
 72
    65
 73
     2
 40
7.5
 49
6.0
 74
     0
 49
-1.5
 74
     0
  0
LTYPE
  5
44
330
5
100
AcDbSymbolTableRecord
100
AcDbLinetypeTableRecord
  2
AM_ISO08W050
 70
     0
  3
____ . ____ . ____ . ____ . ____ . ____ . ____
 72
    65
 73
     4
 40
18.0
 49
12.0
 74
     0
 49
-1.5
 74
     0
 49
3.0
 74
     0
 49
-1.5
 74
     0
  0
LTYPE
  5
45
330
5
100
AcDbSymbolTableRecord
100
AcDbLinetypeTableRecord
  2
AM_ISO09W050
 70
     0
  3
_____ . . _____ . . _____ . . ____ .. ____
 72
    65
 73
     6
 40
22.5
 49
12.0
 74
     0
 49
-1.5
 74
     0
 49
3.0
 74
     0
 49
-1.5
 74
     0
 49
3.0
 74
     0
 49
-1.5
 74
     0
  0
LTYPE
  5
46
330
5
100
AcDbSymbolTableRecord
100
AcDbLinetypeTableRecord
  2
Amconstr
 70
     0
  3
_______________________
 72
    65
 73
     2
 40
9999.0
 49
9999.0
 74
     0
 49
0.0
 74
     0
  0
LTYPE
  5
47
330
5
100
AcDbSymbolTableRecord
100
AcDbLinetypeTableRecord
  2
AM_ISO02W050x2
 70
     0
  3
 _ _ _ _ _ _ _ _ _ _ _ _
 72
    65
 73
     2
 40
3.75
 49
3.0
 74
     0
 49
-0.75
 74
     0
  0
LTYPE
  5
48
330
5
100
AcDbSymbolTableRecord
100
AcDbLinetypeTableRecord
  2
AM_ISO08W050x2
 70
     0
  3
__ . __ . __ . __ . __ . __
 72
    65
 73
     4
 40
9.0
 49
6.0
 74
     0
 49
-0.75
 74
     0
 49
1.5
 74
     0
 49
-0.75
 74
     0
  0
LTYPE
  5
4B
330
5
100
AcDbSymbolTableRecord
100
AcDbLinetypeTableRecord
  2
Amzigzag
 70
     0
  3
/\/-/\/-/\/-/\/-/\/-/\/
 72
    65
 73
     2
 40
11.0001
 49
0.0001
 74
     4
 75
   135
340
4A
 46
0.04
 50
0.0
 44
0.0
 45
0.0
 49
-11.0
 74
     0
  0
LTYPE
  5
188
330
5
100
AcDbSymbolTableRecord
100
AcDbLinetypeTableRecord
  2
ACJISTGB
 70
     0
  3
__ . . __ . .
 72
    65
 73
     6
 40
9.0
 49
4.0
 74
     0
 49
-1.0
 74
     0
 49
1.0
 74
     0
 49
-1.0
 74
     0
 49
1.0
 74
     0
 49
-1.0
 74
     0
  0
LTYPE
  5
189
330
5
100
AcDbSymbolTableRecord
100
AcDbLinetypeTableRecord
  2
ACJISTGL
 70
     0
  3
_ _ _ _ _
 72
    65
 73
     2
 40
3.0
 49
2.0
 74
     0
 49
-1.0
 74
     0
  0
LTYPE
  5
652
330
5
100
AcDbSymbolTableRecord
100
AcDbLinetypeTableRecord
  2
CENTER
 70
     0
  3
____ _ ____ _ ____ _ ____ _ ____ _ ____ _ ____
 72
    65
 73
     4
 40
17.5
 49
13.0
 74
     0
 49
-1.5
 74
     0
 49
1.5
 74
     0
 49
-1.5
 74
     0
  0
LTYPE
  5
12AB
330
5
100
AcDbSymbolTableRecord
100
AcDbLinetypeTableRecord
  2
HIDDEN
 70
     0
  3
Hidden __ __ __ __ __ __ __ __ __ __ __ __ __ _
 72
    65
 73
     2
 40
0.375
 49
0.25
 74
     0
 49
-0.125
 74
     0
  0
LTYPE
  5
12AC
330
5
100
AcDbSymbolTableRecord
100
AcDbLinetypeTableRecord
  2
PHANTOM2
 70
     0
  3
Phantom (.5x) ___ _ _ ___ _ _ ___ _ _ ___ _ _
 72
    65
 73
     6
 40
1.25
 49
0.625
 74
     0
 49
-0.125
 74
     0
 49
0.125
 74
     0
 49
-0.125
 74
     0
 49
0.125
 74
     0
 49
-0.125
 74
     0
  0
LTYPE
  5
1341A
330
5
100
AcDbSymbolTableRecord
100
AcDbLinetypeTableRecord
  2
ACISOTGB
 70
     0
  3
__ . . __ . .
 72
    65
 73
     6
 40
9.0
 49
4.0
 74
     0
 49
-1.0
 74
     0
 49
1.0
 74
     0
 49
-1.0
 74
     0
 49
1.0
 74
     0
 49
-1.0
 74
     0
  0
LTYPE
  5
233DE
330
5
100
AcDbSymbolTableRecord
100
AcDbLinetypeTableRecord
  2
ACISOWELD
 70
     0
  3
_ _ _ _ _
 72
    65
 73
     2
 40
2.0
 49
2.0
 74
     0
 49
-1.0
 74
     0
  0
LTYPE
  5
233DF
330
5
100
AcDbSymbolTableRecord
100
AcDbLinetypeTableRecord
  2
ACISOTGL
 70
     0
  3
_ _ _ _ _
 72
    65
 73
     2
 40
3.0
 49
2.0
 74
     0
 49
-1.0
 74
     0
  0
ENDTAB
  0
TABLE
  2
LAYER
  5
2
102
{ACAD_XDICTIONARY
360
233EB
102
}
330
0
100
AcDbSymbolTable
 70
     8
  0
LAYER
  5
10
330
2
100
AcDbSymbolTableRecord
100
AcDbLayerTableRecord
  2
0
 70
     0
 62
     7
  6
Continuous
370
    -3
390
F
  0
LAYER
  5
7D
330
2
100
AcDbSymbolTableRecord
100
AcDbLayerTableRecord
  2
AM_5
 70
     0
 62
     3
  6
Continuous
370
    13
390
F
  0
LAYER
  5
7F
330
2
100
AcDbSymbolTableRecord
100
AcDbLayerTableRecord
  2
Defpoints
 70
     0
 62
     7
  6
Continuous
290
     0
370
    -3
390
F
  0
LAYER
  5
12B1
330
2
100
AcDbSymbolTableRecord
100
AcDbLayerTableRecord
  2
AM_0
 70
     0
 62
     7
  6
Continuous
370
    30
390
F
  0
LAYER
  5
18A4
330
2
100
AcDbSymbolTableRecord
100
AcDbLayerTableRecord
  2
AM_7
 70
     0
 62
     4
  6
AM_ISO08W050
370
    13
390
F
  0
LAYER
  5
18A5
330
2
100
AcDbSymbolTableRecord
100
AcDbLayerTableRecord
  2
AM_6
 70
     0
 62
     2
  6
Continuous
370
    30
390
F
  0
LAYER
  5
18A6
330
2
100
AcDbSymbolTableRecord
100
AcDbLayerTableRecord
  2
AM_11
 70
     0
 62
     3
  6
AM_ISO09W050
370
    13
390
F
  0
LAYER
  5
263B
330
2
100
AcDbSymbolTableRecord
100
AcDbLayerTableRecord
  2
AM_3
 70
     0
 62
     6
  6
AM_ISO02W050
370
    13
390
F
  0
ENDTAB
  0
TABLE
  2
STYLE
  5
3
330
0
100
AcDbSymbolTable
 70
     6
  0
STYLE
  5
11
330
3
100
AcDbSymbolTableRecord
100
AcDbTextStyleTableRecord
  2
STANDARD
 70
     0
 40
0.0
 41
1.0
 50
0.0
 71
     0
 42
10.0
  3
ISOCP.SHX
  4
EXTFONT.SHX
  0
STYLE
  5
4A
330
3
100
AcDbSymbolTableRecord
100
AcDbTextStyleTableRecord
  2

 70
     1
 40
0.0
 41
1.0
 50
0.0
 71
     0
 42
2.5
  3
ltypeshp.shx
  4

  0
STYLE
  5
180
330
3
100
AcDbSymbolTableRecord
100
AcDbTextStyleTableRecord
  2
ACJISTS
 70
     0
 40
1.0
 41
1.0
 50
0.0
 71
     0
 42
2.5
  3
isocp.shx
  4
bigfont.shx
  0
STYLE
  5
187
330
3
100
AcDbSymbolTableRecord
100
AcDbTextStyleTableRecord
  2
ACJISGDT
 70
     0
 40
0.0
 41
1.0
 50
0.0
 71
     0
 42
2.5
  3
amgdt.shx
  4

  0
STYLE
  5
233E2
330
3
100
AcDbSymbolTableRecord
100
AcDbTextStyleTableRecord
  2
ACISOTS
 70
     0
 40
1.0
 41
1.0
 50
0.0
 71
     0
 42
2.5
  3
isocp.shx
  4
extfont.shx
  0
STYLE
  5
233E3
330
3
100
AcDbSymbolTableRecord
100
AcDbTextStyleTableRecord
  2
ACISOGDT
 70
     0
 40
0.0
 41
1.0
 50
0.0
 71
     0
 42
2.5
  3
amgdt.shx
  4

  0
ENDTAB
  0
TABLE
  2
VIEW
  5
6
330
0
100
AcDbSymbolTable
 70
     6
  0
VIEW
  5
A30
330
6
100
AcDbSymbolTableRecord
100
AcDbViewTableRecord
  2
AM_VIEW1
 70
     0
 40
148.5
 10
108.6929657794677
 20
222.75
 41
217.3859315589354
 11
0.0
 21
0.0
 31
1.0
 12
0.0
 22
0.0
 32
0.0
 42
50.0
 43
0.0
 44
0.0
 50
0.0
 71
    16
281
     0
 72
     0
  0
VIEW
  5
A31
330
6
100
AcDbSymbolTableRecord
100
AcDbViewTableRecord
  2
AM_VIEW2
 70
     0
 40
148.5
 10
311.3070342205323
 20
222.75
 41
217.3859315589354
 11
0.0
 21
0.0
 31
1.0
 12
0.0
 22
0.0
 32
0.0
 42
50.0
 43
0.0
 44
0.0
 50
0.0
 71
    16
281
     0
 72
     0
  0
VIEW
  5
A32
330
6
100
AcDbSymbolTableRecord
100
AcDbViewTableRecord
  2
AM_VIEW3
 70
     0
 40
148.5
 10
108.6929657794677
 20
74.25
 41
217.3859315589354
 11
0.0
 21
0.0
 31
1.0
 12
0.0
 22
0.0
 32
0.0
 42
50.0
 43
0.0
 44
0.0
 50
0.0
 71
    16
281
     0
 72
     0
  0
VIEW
  5
A33
330
6
100
AcDbSymbolTableRecord
100
AcDbViewTableRecord
  2
AM_VIEW4
 70
     0
 40
148.5
 10
311.3070342205323
 20
74.25
 41
217.3859315589354
 11
0.0
 21
0.0
 31
1.0
 12
0.0
 22
0.0
 32
0.0
 42
50.0
 43
0.0
 44
0.0
 50
0.0
 71
    16
281
     0
 72
     0
  0
VIEW
  5
A34
330
6
100
AcDbSymbolTableRecord
100
AcDbViewTableRecord
  2
AM_VIEW5
 70
     0
 40
148.5
 10
210.0
 20
148.5
 41
217.3859315589353
 11
0.0
 21
0.0
 31
1.0
 12
0.0
 22
0.0
 32
0.0
 42
50.0
 43
0.0
 44
0.0
 50
0.0
 71
    16
281
     0
 72
     0
  0
VIEW
  5
A35
330
6
100
AcDbSymbolTableRecord
100
AcDbViewTableRecord
  2
AM_VIEW6
 70
     0
 40
296.99703
 10
210.0
 20
148.5
 41
434.7675153992395
 11
0.0
 21
0.0
 31
1.0
 12
0.0
 22
0.0
 32
0.0
 42
50.0
 43
0.0
 44
0.0
 50
0.0
 71
    16
281
     0
 72
     0
  0
ENDTAB
  0
TABLE
  2
UCS
  5
7
330
0
100
AcDbSymbolTable
 70
     0
  0
ENDTAB
  0
TABLE
  2
APPID
  5
9
330
0
100
AcDbSymbolTable
 70
    46
  0
APPID
  5
12
330
9
100
AcDbSymbolTableRecord
100
AcDbRegAppTableRecord
  2
ACAD
 70
     0
  0
APPID
  5
2C
330
9
100
AcDbSymbolTableRecord
100
AcDbRegAppTableRecord
  2
MCAD_NO_VIS
 70
     0
  0
APPID
  5
2D
330
9
100
AcDbSymbolTableRecord
100
AcDbRegAppTableRecord
  2
ACAD_TEMP_GRAPHIC
 70
     0
  0
APPID
  5
B9
330
9
100
AcDbSymbolTableRecord
100
AcDbRegAppTableRecord
  2
GENIUS_GENDTOL_13
 70
     0
  0
APPID
  5
359
330
9
100
AcDbSymbolTableRecord
100
AcDbRegAppTableRecord
  2
GENIUS_GENREC_14
 70
     0
  0
APPID
  5
35A
330
9
100
AcDbSymbolTableRecord
100
AcDbRegAppTableRecord
  2
GENIUS_GENODEF_13
 70
     0
  0
APPID
  5
35B
330
9
100
AcDbSymbolTableRecord
100
AcDbRegAppTableRecord
  2
GENIUS_GENOBJ-N-REC_13
 70
     0
  0
APPID
  5
667
330
9
100
AcDbSymbolTableRecord
100
AcDbRegAppTableRecord
  2
GENIUS_GENCFG_13
 70
     0
  0
APPID
  5
668
330
9
100
AcDbSymbolTableRecord
100
AcDbRegAppTableRecord
  2
GENIUS_GENCFG0_13
 70
     0
  0
APPID
  5
669
330
9
100
AcDbSymbolTableRecord
100
AcDbRegAppTableRecord
  2
GENIUS_GENCFG1_13
 70
     0
  0
APPID
  5
66A
330
9
100
AcDbSymbolTableRecord
100
AcDbRegAppTableRecord
  2
GENIUS_GENCFG2_13
 70
     0
  0
APPID
  5
66B
330
9
100
AcDbSymbolTableRecord
100
AcDbRegAppTableRecord
  2
GENIUS_GENCFG3_13
 70
     0
  0
APPID
  5
66C
330
9
100
AcDbSymbolTableRecord
100
AcDbRegAppTableRecord
  2
GENIUS_GENCFG4_13
 70
     0
  0
APPID
  5
A76
330
9
100
AcDbSymbolTableRecord
100
AcDbRegAppTableRecord
  2
GENIUS_GENBLLY_14
 70
     0
  0
APPID
  5
A77
330
9
100
AcDbSymbolTableRecord
100
AcDbRegAppTableRecord
  2
GENIUS_GENOBJ-N-CEN_13
 70
     0
  0
APPID
  5
A83
330
9
100
AcDbSymbolTableRecord
100
AcDbRegAppTableRecord
  2
GENIUS_GENTRA_14
 70
     0
  0
APPID
  5
A8D
330
9
100
AcDbSymbolTableRecord
100
AcDbRegAppTableRecord
  2
GENIUS_GENOBJ-N-TIT_13
 70
     0
  0
APPID
  5
A8E
330
9
100
AcDbSymbolTableRecord
100
AcDbRegAppTableRecord
  2
GENIUS_GENTITLE_13
 70
     0
  0
APPID
  5
A8F
330
9
100
AcDbSymbolTableRecord
100
AcDbRegAppTableRecord
  2
GENIUS_GENOENT_13
 70
     0
  0
APPID
  5
A90
330
9
100
AcDbSymbolTableRecord
100
AcDbRegAppTableRecord
  2
GENIUS_GENOREF_13
 70
     0
  0
APPID
  5
A91
330
9
100
AcDbSymbolTableRecord
100
AcDbRegAppTableRecord
  2
GENIUS_GENOLIS_13
 70
     0
  0
APPID
  5
A92
330
9
100
AcDbSymbolTableRecord
100
AcDbRegAppTableRecord
  2
GENIUS_GENZVEED_13
 70
     0
  0
APPID
  5
A93
330
9
100
AcDbSymbolTableRecord
100
AcDbRegAppTableRecord
  2
GENIUS_GENSCREG_15
 70
     0
  0
APPID
  5
A94
330
9
100
AcDbSymbolTableRecord
100
AcDbRegAppTableRecord
  2
GENIUS_GENOBJ-N-SDF_13
 70
     0
  0
APPID
  5
12B5
330
9
100
AcDbSymbolTableRecord
100
AcDbRegAppTableRecord
  2
GENIUS_GENOBJ-N-RSBK_13
 70
     0
  0
APPID
  5
12B6
330
9
100
AcDbSymbolTableRecord
100
AcDbRegAppTableRecord
  2
GENIUS_GENOBJ-N-LIB_13
 70
     0
  0
APPID
  5
12B7
330
9
100
AcDbSymbolTableRecord
100
AcDbRegAppTableRecord
  2
GENIUS_GENSCALE_13
 70
     0
  0
APPID
  5
12B8
330
9
100
AcDbSymbolTableRecord
100
AcDbRegAppTableRecord
  2
GENIUS_GENOBJ-N-HTC_13
 70
     0
  0
APPID
  5
12B9
330
9
100
AcDbSymbolTableRecord
100
AcDbRegAppTableRecord
  2
GENIUS_GENHATCH_13
 70
     0
  0
APPID
  5
18AA
330
9
100
AcDbSymbolTableRecord
100
AcDbRegAppTableRecord
  2
BASE_TYPE
 70
     0
  0
APPID
  5
18AB
330
9
100
AcDbSymbolTableRecord
100
AcDbRegAppTableRecord
  2
GENIUS_GENOBJ-N-FIL_13
 70
     0
  0
APPID
  5
1E91
330
9
100
AcDbSymbolTableRecord
100
AcDbRegAppTableRecord
  2
GENIUS_GENOBJ-N-CRS_13
 70
     0
  0
APPID
  5
3B24
330
9
100
AcDbSymbolTableRecord
100
AcDbRegAppTableRecord
  2
GENIUS_GENDIMSH_14
 70
     0
  0
APPID
  5
576E
330
9
100
AcDbSymbolTableRecord
100
AcDbRegAppTableRecord
  2
GENIUS_GENFIL_13
 70
     0
  0
APPID
  5
576F
330
9
100
AcDbSymbolTableRecord
100
AcDbRegAppTableRecord
  2
GENIUS_GENOBJ-N-CHA_13
 70
     0
  0
APPID
  5
D3D6
330
9
100
AcDbSymbolTableRecord
100
AcDbRegAppTableRecord
  2
GENIUS_GENOBJ-N-DIM_13
 70
     0
  0
APPID
  5
D3E0
330
9
100
AcDbSymbolTableRecord
100
AcDbRegAppTableRecord
  2
GENIUS_GENDIM_13
 70
     0
  0
APPID
  5
23301
330
9
100
AcDbSymbolTableRecord
100
AcDbRegAppTableRecord
  2
AD_DRAW
 70
     0
  0
APPID
  5
23304
330
9
100
AcDbSymbolTableRecord
100
AcDbRegAppTableRecord
  2
ACATTRIBSERVICES
 70
     0
  0
APPID
  5
23322
330
9
100
AcDbSymbolTableRecord
100
AcDbRegAppTableRecord
  2
DESIGNERASSEMBLIES
 70
     0
  0
APPID
  5
23335
330
9
100
AcDbSymbolTableRecord
100
AcDbRegAppTableRecord
  2
ACADM_DIM_EDIT
 70
     0
  0
APPID
  5
23336
330
9
100
AcDbSymbolTableRecord
100
AcDbRegAppTableRecord
  2
AMDT_DM_ADJ
 70
     0
  0
APPID
  5
25646
330
9
100
AcDbSymbolTableRecord
100
AcDbRegAppTableRecord
  2
ACAD_DSTYLE_DIMTEXT_FILL
 70
     0
  0
APPID
  5
25647
330
9
100
AcDbSymbolTableRecord
100
AcDbRegAppTableRecord
  2
ACAD_PSEXT
 70
     0
  0
APPID
  5
25961
330
9
100
AcDbSymbolTableRecord
100
AcDbRegAppTableRecord
  2
GENIUS_GENSCREG_13
 70
     0
  0
APPID
  5
26FE7
330
9
100
AcDbSymbolTableRecord
100
AcDbRegAppTableRecord
  2
GENIUS_GENCEN_19
 70
     0
  0
ENDTAB
  0
TABLE
  2
DIMSTYLE
  5
A
330
0
100
AcDbSymbolTable
 70
    17
100
AcDbDimStyleTable
  0
DIMSTYLE
105
58
330
A
100
AcDbSymbolTableRecord
100
AcDbDimStyleTableRecord
  2
AM_JIS
 70
     0
  4
"
 41
2.5
 42
0.0
 43
10.0
 44
1.0
 47
0.1
 48
0.1000000001
 73
     0
 74
     0
 77
     3
 78
     1
 79
     2
140
3.8
141
0.0
143
0.0393701
146
0.71
147
1.5
172
     1
176
   256
177
   256
178
     2
179
     1
271
     2
272
     2
275
     1
283
     0
284
     8
340
11
341
59
342
59
371
    -1
372
    -1
  0
DIMSTYLE
105
5F
330
A
100
AcDbSymbolTableRecord
100
AcDbDimStyleTableRecord
  2
AM_JIS$3
 70
     0
  4
"
 41
2.5
 42
0.0
 43
10.0
 44
1.0
 47
0.1
 48
0.1000000001
 73
     0
 77
     3
 78
     1
 79
     2
140
3.8
141
0.0
143
0.0393701
146
0.71
147
1.5
172
     1
176
   256
177
   256
178
     2
179
     1
271
     2
272
     2
275
     1
283
     0
284
     8
288
     1
289
     0
340
11
341
59
342
59
371
    -1
372
    -1
  0
DIMSTYLE
105
60
330
A
100
AcDbSymbolTableRecord
100
AcDbDimStyleTableRecord
  2
AM_JIS$4
 70
     0
  4
"
 41
2.5
 42
0.0
 43
10.0
 44
1.0
 47
0.1
 48
0.1000000001
 73
     0
 77
     3
 78
     1
 79
     2
140
3.8
141
0.0
143
0.0393701
146
0.71
147
1.5
172
     1
176
   256
177
   256
178
     2
179
     1
271
     2
272
     2
275
     1
283
     0
284
     8
288
     1
289
     0
340
11
341
59
342
59
371
    -1
372
    -1
  0
DIMSTYLE
105
61
330
A
100
AcDbSymbolTableRecord
100
AcDbDimStyleTableRecord
  2
AM_JIS$6
 70
     0
  4
"
 41
2.5
 42
0.0
 43
10.0
 44
1.0
 47
0.1
 48
0.1000000001
 73
     0
 74
     0
 78
     1
 79
     2
140
3.8
141
0.0
143
0.0393701
146
0.71
147
1.5
172
     1
176
   256
177
   256
178
     2
179
     1
271
     2
272
     2
275
     1
283
     0
284
     8
340
11
341
59
342
59
371
    -1
372
    -1
  0
DIMSTYLE
105
62
330
A
100
AcDbSymbolTableRecord
100
AcDbDimStyleTableRecord
  2
AM_JIS$7
 70
     0
  4
"
 41
2.5
 42
0.0
 43
10.0
 44
1.0
 47
0.1
 48
0.1000000001
 73
     0
 74
     0
 77
     3
 78
     1
 79
     2
140
5.0
141
0.0
143
0.0393701
146
0.71
147
1.5
172
     1
176
   256
177
   256
178
     2
179
     1
271
     2
272
     2
275
     1
283
     0
284
     8
340
11
341
59
342
59
371
    -1
372
    -1
  0
DIMSTYLE
105
63
330
A
100
AcDbSymbolTableRecord
100
AcDbDimStyleTableRecord
  2
AM_JIS$SF
 70
     0
  4
"
 41
2.5
 42
1.0
 43
10.0
 44
1.0
 47
0.1
 48
0.1
 73
     0
 74
     0
 75
     1
 76
     1
 77
     3
 78
     8
 79
     2
140
3.5
141
0.0
143
0.0393701
146
0.71
147
1.5
176
   256
177
   256
178
     2
271
     2
272
     3
274
     4
340
11
341
59
342
59
343
59
344
59
371
    -1
372
    -1
  0
DIMSTYLE
105
68
330
A
100
AcDbSymbolTableRecord
100
AcDbDimStyleTableRecord
  2
AM_JIS$SH
 70
     0
  4
"
 41
2.5
 42
1.0
 43
10.0
 44
1.0
 47
0.1
 48
0.1
 73
     0
 74
     0
 75
     1
 76
     1
 77
     3
 78
     8
 79
     2
140
3.5
141
0.0
143
0.0393701
144
2.0
146
0.71
147
1.5
173
     1
176
   256
177
   256
178
     2
271
     2
272
     3
274
     4
340
11
341
59
342
59
343
64
344
59
371
    -1
372
    -1
  0
DIMSTYLE
105
65F
330
A
100
AcDbSymbolTableRecord
100
AcDbDimStyleTableRecord
  2
STANDARD
 70
     0
340
11
  0
DIMSTYLE
105
18A8
102
{ACAD_REACTORS
330
260B4
330
260D0
102
}
330
A
100
AcDbSymbolTableRecord
100
AcDbDimStyleTableRecord
  2
AM_JIS$0
 70
     0
  4
"
 41
2.5
 42
0.0
 43
10.0
 44
1.0
 47
0.1
 48
0.1000000001
 73
     0
 74
     0
 77
     3
 78
     1
 79
     2
140
3.8
141
0.0
143
0.0393701
146
0.71
147
1.5
172
     1
176
     3
177
     3
178
     2
271
     2
272
     2
275
     1
283
     0
284
     8
289
     0
340
11
341
59
342
59
371
    13
372
    13
  0
DIMSTYLE
105
18A9
102
{ACAD_REACTORS
330
300DE
330
34030
102
}
330
A
100
AcDbSymbolTableRecord
100
AcDbDimStyleTableRecord
  2
AM_JIS$2
 70
     0
  4
"
 41
2.5
 42
0.0
 43
10.0
 44
1.0
 47
0.1
 48
0.1000000001
 73
     0
 74
     0
 77
     3
 78
     1
 79
     2
140
3.8
141
0.0
143
0.0393701
146
0.71
147
1.5
172
     1
176
     3
177
     3
178
     2
271
     2
272
     2
275
     1
283
     0
284
     8
289
     0
340
11
341
59
342
59
371
    13
372
    13
  0
DIMSTYLE
105
233E4
330
A
100
AcDbSymbolTableRecord
100
AcDbDimStyleTableRecord
  2
AM_ISO
 70
     0
  4
"
 41
2.5
 42
1.0
 43
10.0
 44
1.0
 47
0.1
 48
0.1
 73
     0
 74
     0
 77
     1
 78
     8
 79
     2
140
3.5
141
0.0
143
0.0393701
146
0.71
147
1.5
172
     1
176
   256
177
   256
178
     2
271
     2
272
     3
274
     4
283
     0
284
     8
340
11
371
    -1
372
    -1
  0
DIMSTYLE
105
233E5
330
A
100
AcDbSymbolTableRecord
100
AcDbDimStyleTableRecord
  2
AM_ISO$3
 70
     0
  4
"
 41
2.5
 42
1.0
 43
10.0
 44
1.0
 47
0.1
 48
0.1
 73
     0
 77
     1
 78
     8
 79
     2
140
3.5
141
0.0
143
0.0393701
146
0.71
147
1.5
176
   256
177
   256
178
     2
271
     2
272
     3
274
     4
283
     0
284
     8
288
     1
289
     0
340
11
371
    -1
372
    -1
  0
DIMSTYLE
105
233E6
330
A
100
AcDbSymbolTableRecord
100
AcDbDimStyleTableRecord
  2
AM_ISO$4
 70
     0
  4
"
 41
2.5
 42
1.0
 43
10.0
 44
1.0
 47
0.1
 48
0.1
 73
     0
 77
     1
 78
     8
 79
     2
140
3.5
141
0.0
143
0.0393701
146
0.71
147
1.5
176
   256
177
   256
178
     2
271
     2
272
     3
274
     4
283
     0
284
     8
288
     1
289
     0
340
11
371
    -1
372
    -1
  0
DIMSTYLE
105
233E7
330
A
100
AcDbSymbolTableRecord
100
AcDbDimStyleTableRecord
  2
AM_ISO$6
 70
     0
  4
"
 41
2.5
 42
1.0
 43
10.0
 44
1.0
 47
0.1
 48
0.1
 73
     0
 74
     0
 78
     8
 79
     2
140
3.5
141
0.0
143
0.0393701
146
0.71
147
1.5
172
     1
176
   256
177
   256
178
     2
271
     2
272
     3
274
     4
283
     0
284
     8
340
11
371
    -1
372
    -1
  0
DIMSTYLE
105
233E8
330
A
100
AcDbSymbolTableRecord
100
AcDbDimStyleTableRecord
  2
AM_ISO$7
 70
     0
  4
"
 41
2.5
 42
1.0
 43
10.0
 44
1.0
 47
0.1
 48
0.1
 73
     0
 74
     0
 77
     1
 78
     8
 79
     2
140
5.0
141
0.0
143
0.0393701
146
0.71
147
1.5
172
     1
176
   256
177
   256
178
     2
271
     2
272
     3
274
     4
283
     0
284
     8
340
11
371
    -1
372
    -1
  0
DIMSTYLE
105
233E9
330
A
100
AcDbSymbolTableRecord
100
AcDbDimStyleTableRecord
  2
AM_ISO$SF
 70
     0
  4
"
 41
2.5
 42
1.0
 43
10.0
 44
1.0
 47
0.1
 48
0.1
 73
     0
 74
     0
 75
     1
 76
     1
 77
     1
 78
     8
 79
     2
140
3.5
141
0.0
143
0.0393701
146
0.71
147
1.5
172
     1
176
   256
177
   256
178
     2
271
     2
272
     3
274
     4
283
     0
284
     8
340
11
371
    -1
372
    -1
  0
DIMSTYLE
105
233EA
330
A
100
AcDbSymbolTableRecord
100
AcDbDimStyleTableRecord
  2
AM_ISO$SH
 70
     0
  4
"
 41
2.5
 42
1.0
 43
10.0
 44
1.0
 47
0.1
 48
0.1
 73
     0
 74
     0
 75
     1
 76
     1
 77
     1
 78
     8
 79
     2
140
3.5
141
0.0
143
0.0393701
144
2.0
146
0.71
147
1.5
172
     1
173
     1
176
   256
177
   256
178
     2
271
     2
272
     3
274
     4
283
     0
284
     8
340
11
343
64
371
    -1
372
    -1
  0
ENDTAB
  0
TABLE
  2
BLOCK_RECORD
  5
1
330
0
100
AcDbSymbolTable
 70
     8
  0
BLOCK_RECORD
  5
1F
102
{ACAD_XDICTIONARY
360
165
102
}
330
1
100
AcDbSymbolTableRecord
100
AcDbBlockTableRecord
  2
*Model_Space
340
22
  0
BLOCK_RECORD
  5
1B
330
1
100
AcDbSymbolTableRecord
100
AcDbBlockTableRecord
  2
*Paper_Space
340
1E
  0
BLOCK_RECORD
  5
23
330
1
100
AcDbSymbolTableRecord
100
AcDbBlockTableRecord
  2
*Paper_Space0
340
26
  0
BLOCK_RECORD
  5
59
330
1
100
AcDbSymbolTableRecord
100
AcDbBlockTableRecord
  2
_Open30
340
0
102
{BLKREFS
331
341E8
331
341E9
331
341F1
331
341F2
331
341FA
331
341FB
331
34207
331
34208
102
}
  0
BLOCK_RECORD
  5
64
330
1
100
AcDbSymbolTableRecord
100
AcDbBlockTableRecord
  2
GENAXEH
340
0
  0
BLOCK_RECORD
  5
23319
330
1
100
AcDbSymbolTableRecord
100
AcDbBlockTableRecord
  2
*U3
340
0
  0
BLOCK_RECORD
  5
262AB
330
1
100
AcDbSymbolTableRecord
100
AcDbBlockTableRecord
  2
*D4
340
0
  0
BLOCK_RECORD
  5
262C9
330
1
100
AcDbSymbolTableRecord
100
AcDbBlockTableRecord
  2
*D5
340
0
  0
BLOCK_RECORD
  5
300DF
330
1
100
AcDbSymbolTableRecord
100
AcDbBlockTableRecord
  2
*D6
340
0
  0
BLOCK_RECORD
  5
34031
330
1
100
AcDbSymbolTableRecord
100
AcDbBlockTableRecord
  2
*D7
340
0
  0
ENDTAB
  0
ENDSEC
  0
SECTION
  2
BLOCKS
  0
BLOCK
  5
20
330
1F
100
AcDbEntity
  8
0
100
AcDbBlockBegin
  2
*Model_Space
 70
     0
 71
     0
 10
0.0
 20
0.0
 30
0.0
  3
*Model_Space
  1

  0
ENDBLK
  5
21
330
1F
100
AcDbEntity
  8
0
100
AcDbBlockEnd
  0
BLOCK
  5
1C
330
1B
100
AcDbEntity
 67
     1
  8
0
100
AcDbBlockBegin
  2
*Paper_Space
 70
     0
 71
     0
 10
0.0
 20
0.0
 30
0.0
  3
*Paper_Space
  1

  0
ENDBLK
  5
1D
330
1B
100
AcDbEntity
 67
     1
  8
0
100
AcDbBlockEnd
  0
BLOCK
  5
24
330
23
100
AcDbEntity
  8
0
100
AcDbBlockBegin
  2
*Paper_Space0
 70
     0
 71
     0
 10
0.0
 20
0.0
 30
0.0
  3
*Paper_Space0
  1

  0
ENDBLK
  5
25
330
23
100
AcDbEntity
  8
0
100
AcDbBlockEnd
  0
BLOCK
  5
5D
330
59
100
AcDbEntity
  8
0
100
AcDbBlockBegin
  2
_Open30
 70
     0
 71
     0
 10
0.0
 20
0.0
 30
0.0
  3
_Open30
  1

  0
LINE
  5
5A
330
59
100
AcDbEntity
  8
0
 62
     0
370
    -2
100
AcDbLine
 10
-1.0
 20
0.26794919
 30
0.0
 11
0.0
 21
0.0
 31
0.0
  0
LINE
  5
5B
330
59
100
AcDbEntity
  8
0
 62
     0
370
    -2
100
AcDbLine
 10
0.0
 20
0.0
 30
0.0
 11
-1.0
 21
-0.26794919
 31
0.0
  0
LINE
  5
5C
330
59
100
AcDbEntity
  8
0
 62
     0
370
    -2
100
AcDbLine
 10
0.0
 20
0.0
 30
0.0
 11
-1.0
 21
0.0
 31
0.0
  0
ENDBLK
  5
5E
330
59
100
AcDbEntity
  8
0
100
AcDbBlockEnd
  0
BLOCK
  5
66
330
64
100
AcDbEntity
  8
0
100
AcDbBlockBegin
  2
GENAXEH
 70
     0
 71
     0
 10
0.0
 20
0.0
 30
0.0
  3
GENAXEH
  1

  0
LINE
  5
65
330
64
100
AcDbEntity
  8
0
100
AcDbLine
 10
-1.0
 20
0.0
 30
0.0
 11
1.0
 21
0.0
 31
0.0
  0
ENDBLK
  5
67
330
64
100
AcDbEntity
  8
0
100
AcDbBlockEnd
  0
BLOCK
  5
2331A
330
23319
100
AcDbEntity
  8
0
100
AcDbBlockBegin
  2
*U3
 70
     1
 71
     0
 10
0.0
 20
0.0
 30
0.0
  3
*U3
  1

  0
ENDBLK
  5
2331B
330
23319
100
AcDbEntity
  8
0
100
AcDbBlockEnd
  0
BLOCK
  5
264AD
330
262AB
100
AcDbEntity
  8
0
100
AcDbBlockBegin
  2
*D4
 70
     1
 71
     0
 10
0.0
 20
0.0
 30
0.0
  3
*D4
  1

  0
LINE
  5
341E5
330
262AB
100
AcDbEntity
  8
AM_5
 62
     3
370
    13
100
AcDbLine
 10
-0.0000000000002274
 20
-6.331786404189302
 30
0.0
 11
-0.0000000000002312
 21
-68.7303537818334
 31
0.0
  0
LINE
  5
341E6
330
262AB
100
AcDbEntity
  8
AM_5
 62
     3
370
    13
100
AcDbLine
 10
99.99999999992349
 20
-31.5
 30
0.0
 11
99.99999999992349
 21
-68.7303537818334
 31
0.0
  0
LINE
  5
341E7
330
262AB
100
AcDbEntity
  8
AM_5
 62
     3
370
    13
100
AcDbLine
 10
2.499999999999769
 20
-67.7303537818334
 30
0.0
 11
97.49999999992349
 21
-67.7303537818334
 31
0.0
  0
INSERT
  5
341E8
330
262AB
100
AcDbEntity
  8
AM_5
 62
     3
370
    13
100
AcDbBlockReference
  2
_Open30
 10
-0.0000000000002311
 20
-67.7303537818334
 30
0.0
 41
2.5
 42
2.5
 43
2.5
 50
180.0
  0
INSERT
  5
341E9
330
262AB
100
AcDbEntity
  8
AM_5
 62
     3
370
    13
100
AcDbBlockReference
  2
_Open30
 10
99.99999999992349
 20
-67.7303537818334
 30
0.0
 41
2.5
 42
2.5
 43
2.5
  0
MTEXT
  5
341EA
330
262AB
100
AcDbEntity
  8
AM_5
 62
     2
100
AcDbMText
 10
49.99999999996163
 20
-64.3303537818334
 30
0.0
 40
3.8
 41
0.0
 71
     5
 72
     1
  1
100
 73
     1
 44
1.0
  0
POINT
  5
341EB
330
262AB
100
AcDbEntity
  8
Defpoints
 62
     0
100
AcDbPoint
 10
-0.0000000000002274
 20
-6.331786404189302
 30
0.0
  0
POINT
  5
341EC
330
262AB
100
AcDbEntity
  8
Defpoints
 62
     0
100
AcDbPoint
 10
99.99999999992349
 20
-31.5
 30
0.0
  0
POINT
  5
341ED
330
262AB
100
AcDbEntity
  8
Defpoints
 62
     0
100
AcDbPoint
 10
99.99999999992349
 20
-67.7303537818334
 30
0.0
  0
ENDBLK
  5
264AE
330
262AB
100
AcDbEntity
  8
0
100
AcDbBlockEnd
  0
BLOCK
  5
264B3
330
262C9
100
AcDbEntity
  8
0
100
AcDbBlockBegin
  2
*D5
 70
     1
 71
     0
 10
0.0
 20
0.0
 30
0.0
  3
*D5
  1

  0
LINE
  5
341EE
330
262C9
100
AcDbEntity
  8
AM_5
 62
     3
370
    13
100
AcDbLine
 10
99.99999999992355
 20
31.5
 30
0.0
 11
157.1956747114996
 21
31.49999999999998
 31
0.0
  0
LINE
  5
341EF
330
262C9
100
AcDbEntity
  8
AM_5
 62
     3
370
    13
100
AcDbLine
 10
99.99999999992349
 20
-31.5
 30
0.0
 11
157.1956747114996
 21
-31.50000000000002
 31
0.0
  0
LINE
  5
341F0
330
262C9
100
AcDbEntity
  8
AM_5
 62
     3
370
    13
100
AcDbLine
 10
156.1956747114996
 20
28.99999999999998
 30
0.0
 11
156.1956747114996
 21
-29.00000000000002
 31
0.0
  0
INSERT
  5
341F1
330
262C9
100
AcDbEntity
  8
AM_5
 62
     3
370
    13
100
AcDbBlockReference
  2
_Open30
 10
156.1956747114996
 20
31.49999999999998
 30
0.0
 41
2.5
 42
2.5
 43
2.5
 50
90.0
  0
INSERT
  5
341F2
330
262C9
100
AcDbEntity
  8
AM_5
 62
     3
370
    13
100
AcDbBlockReference
  2
_Open30
 10
156.1956747114996
 20
-31.50000000000002
 30
0.0
 41
2.5
 42
2.5
 43
2.5
 50
270.0
  0
MTEXT
  5
341F3
330
262C9
100
AcDbEntity
  8
AM_5
 62
     2
100
AcDbMText
 10
152.7956747114996
 20
0.0000000000000086
 30
0.0
 40
3.8
 41
0.0
 71
     5
 72
     1
  1
%%c63
 11
6.123031769111886E-17
 21
1.0
 31
0.0
 73
     1
 44
1.0
  0
POINT
  5
341F4
330
262C9
100
AcDbEntity
  8
Defpoints
 62
     0
100
AcDbPoint
 10
99.99999999992355
 20
31.5
 30
0.0
  0
POINT
  5
341F5
330
262C9
100
AcDbEntity
  8
Defpoints
 62
     0
100
AcDbPoint
 10
99.99999999992349
 20
-31.5
 30
0.0
  0
POINT
  5
341F6
330
262C9
100
AcDbEntity
  8
Defpoints
 62
     0
100
AcDbPoint
 10
156.1956747114996
 20
-31.50000000000002
 30
0.0
  0
ENDBLK
  5
264B4
330
262C9
100
AcDbEntity
  8
0
100
AcDbBlockEnd
  0
BLOCK
  5
30115
330
300DF
100
AcDbEntity
  8
0
100
AcDbBlockBegin
  2
*D6
 70
     1
 71
     0
 10
0.0
 20
0.0
 30
0.0
  3
*D6
  1

  0
LINE
  5
341F7
330
300DF
100
AcDbEntity
  8
AM_5
 62
     3
370
    13
100
AcDbLine
 10
-0.0000000000002269
 20
-6.331786404189302
 30
0.0
 11
-0.0000000000002345
 21
-32.88652053250757
 31
0.0
  0
LINE
  5
341F8
330
300DF
100
AcDbEntity
  8
AM_5
 62
     3
370
    13
100
AcDbLine
 10
13.60334182616691
 20
-4.881269266438493
 30
0.0
 11
30.79968662218057
 21
-10.30325595376685
 31
0.0
  0
ARC
  5
341F9
330
300DF
100
AcDbEntity
  8
AM_5
 62
     3
370
    13
100
AcDbCircle
 10
-0.0000000000002271
 20
-0.5921520639412907
 30
0.0
 40
31.29436846856628
100
AcDbArc
 50
274.5783817382932
 51
337.9216182617073
  0
INSERT
  5
341FA
330
300DF
100
AcDbEntity
  8
AM_5
 62
     3
370
    13
100
AcDbBlockReference
  2
_Open30
 10
-0.0000000000002327
 20
-31.88652053250757
 30
0.0
 41
2.5
 42
2.5
 43
2.5
 50
182.2891908691466
  0
INSERT
  5
341FB
330
300DF
100
AcDbEntity
  8
AM_5
 62
     3
370
    13
100
AcDbBlockReference
  2
_Open30
 10
29.84596967143234
 20
-10.00255015426259
 30
0.0
 41
2.5
 42
2.5
 43
2.5
 50
70.21080913085393
  0
MTEXT
  5
341FC
330
300DF
100
AcDbEntity
  8
AM_5
 62
     2
100
AcDbMText
 10
16.49398805135154
 20
-23.08711338188359
 30
0.0
 40
3.8
 41
0.0
 71
     5
 72
     1
  1
72°30'
 11
0.8064446042674801
 21
0.5913096483635857
 31
0.0
 73
     1
 44
1.0
  0
POINT
  5
341FD
330
300DF
100
AcDbEntity
  8
Defpoints
 62
     0
100
AcDbPoint
 10
12.81167393897856
 20
-29.14383342822677
 30
0.0
  0
POINT
  5
341FE
330
300DF
100
AcDbEntity
  8
Defpoints
 62
     0
100
AcDbPoint
 10
0.5494269557378857
 20
-0.7653857176629798
 30
0.0
  0
POINT
  5
341FF
330
300DF
100
AcDbEntity
  8
Defpoints
 62
     0
100
AcDbPoint
 10
-0.0000000000002269
 20
-6.331786404189302
 30
0.0
  0
POINT
  5
34200
330
300DF
100
AcDbEntity
  8
Defpoints
 62
     0
100
AcDbPoint
 10
-0.0000000000002274
 20
-0.0000000000001137
 30
0.0
  0
POINT
  5
34201
330
300DF
100
AcDbEntity
  8
Defpoints
 62
     0
100
AcDbPoint
 10
13.60334182616691
 20
-4.881269266438493
 30
0.0
  0
ENDBLK
  5
30116
330
300DF
100
AcDbEntity
  8
0
100
AcDbBlockEnd
  0
BLOCK
  5
3408B
330
34031
100
AcDbEntity
  8
0
100
AcDbBlockBegin
  2
*D7
 70
     1
 71
     0
 10
0.0
 20
0.0
 30
0.0
  3
*D7
  1

  0
LINE
  5
34202
330
34031
100
AcDbEntity
  8
AM_5
 62
     3
370
    13
100
AcDbLine
 10
-1.804774027218777
 20
-0.0231089989589796
 30
0.0
 11
-23.69384083264465
 21
6.878487254482764
 31
0.0
  0
LINE
  5
34203
330
34031
100
AcDbEntity
  8
AM_5
 62
     3
370
    13
100
AcDbLine
 10
-1.804774027218777
 20
-0.0231089989589796
 30
0.0
 11
-23.56900163491212
 21
-7.308826060335774
 31
0.0
  0
ARC
  5
34204
330
34031
100
AcDbEntity
  8
AM_5
 62
     3
370
    13
100
AcDbCircle
 10
-1.804774027218777
 20
-0.0231089989589796
 30
0.0
 40
21.95132406764189
100
AcDbArc
 50
149.4422934289335
 51
155.971146714467
  0
ARC
  5
34205
330
34031
100
AcDbEntity
  8
AM_5
 62
     3
370
    13
100
AcDbCircle
 10
-1.804774027218777
 20
-0.0231089989589796
 30
0.0
 40
21.95132406764189
100
AcDbArc
 50
205.0371590004019
 51
211.5660122859355
  0
ARC
  5
34206
330
34031
100
AcDbEntity
  8
AM_5
 62
     3
370
    13
100
AcDbCircle
 10
-1.804774027218777
 20
-0.0231089989589796
 30
0.0
 40
21.95132406764189
100
AcDbArc
 50
162.5000000000005
 51
198.5083057148684
  0
INSERT
  5
34207
330
34031
100
AcDbEntity
  8
AM_5
 62
     3
370
    13
100
AcDbBlockReference
  2
_Open30
 10
-22.74012388189642
 20
6.577781454978498
 30
0.0
 41
2.5
 42
2.5
 43
2.5
 50
249.2355733572337
  0
INSERT
  5
34208
330
34031
100
AcDbEntity
  8
AM_5
 62
     3
370
    13
100
AcDbBlockReference
  2
_Open30
 10
-22.62072398680999
 20
-6.991383936303871
 30
0.0
 41
2.5
 42
2.5
 43
2.5
 50
111.7727323576352
  0
MTEXT
  5
34209
330
34031
100
AcDbEntity
  8
AM_5
 62
     2
100
AcDbMText
 10
-20.35537993468977
 20
-0.1863423545317799
 30
0.0
 40
3.8
 41
0.0
 71
     5
 72
     1
  1
35%%D
 11
0.008799013751126584
 21
-0.9999612879291915
 31
0.0
 73
     1
 44
1.0
  0
POINT
  5
3420A
330
34031
100
AcDbEntity
  8
Defpoints
 62
     0
100
AcDbPoint
 10
-23.65514019165655
 20
2.079776352796306
 30
0.0
  0
POINT
  5
3420B
330
34031
100
AcDbEntity
  8
Defpoints
 62
     0
100
AcDbPoint
 10
13.51590356632471
 20
5.105587693023609
 30
0.0
  0
POINT
  5
3420C
330
34031
100
AcDbEntity
  8
Defpoints
 62
     0
100
AcDbPoint
 10
0.5494269557381131
 20
-0.76538571766298
 30
0.0
  0
POINT
  5
3420D
330
34031
100
AcDbEntity
  8
Defpoints
 62
     0
100
AcDbPoint
 10
13.60334182616714
 20
-4.881269266438494
 30
0.0
  0
POINT
  5
3420E
330
34031
100
AcDbEntity
  8
Defpoints
 62
     0
100
AcDbPoint
 10
0.5360672926079815
 20
0.7605028915824051
 30
0.0
  0
ENDBLK
  5
3408C
330
34031
100
AcDbEntity
  8
0
100
AcDbBlockEnd
  0
ENDSEC
  0
SECTION
  2
ENTITIES
  0
TEXT
  5
1E47B
330
1F
100
AcDbEntity
  8
AM_6
100
AcDbText
 10
151.2162403638389
 20
-76.45697250710231
 30
0.0
 40
3.0
  1

100
AcDbText
  0
TEXT
  5
1E47F
330
1F
100
AcDbEntity
  8
AM_6
100
AcDbText
 10
163.4073958784107
 20
-76.45697250710231
 30
0.0
 40
3.0
  1

100
AcDbText
  0
TEXT
  5
232C4
330
1F
100
AcDbEntity
  8
AM_0
100
AcDbText
 10
-36.17699422355804
 20
-207.787399936176
 30
0.0
 40
5.0
  1
H63A-WH-DVVNN-H16
100
AcDbText
  0
LINE
  5
25F5F
330
1F
100
AcDbEntity
  8
AM_0
100
AcDbLine
 10
80.26684821623707
 20
26.5
 30
0.0
 11
81.12499999992355
 21
26.5
 31
0.0
  0
LINE
  5
25F60
330
1F
100
AcDbEntity
  8
AM_0
100
AcDbLine
 10
82.87499999992355
 20
26.5
 30
0.0
 11
81.12499999992355
 21
26.5
 31
0.0
  0
LINE
  5
25F61
330
1F
100
AcDbEntity
  8
AM_0
100
AcDbLine
 10
82.87499999992355
 20
26.5
 30
0.0
 11
83.73315178361003
 21
26.5
 31
0.0
  0
LINE
  5
25F62
330
1F
100
AcDbEntity
  8
AM_0
100
AcDbLine
 10
78.62250092516473
 20
30.18691769624729
 30
0.0
 11
73.99999999992355
 21
30.18691769624729
 31
0.0
  0
SPLINE
  5
25F63
330
1F
100
AcDbEntity
  8
AM_0
100
AcDbSpline
210
0.0
220
0.0
230
1.0
 70
    12
 71
     2
 72
     6
 73
     3
 74
     0
 42
0.0000000001
 43
0.0000000001
 40
0.0
 40
0.0
 40
0.0
 40
3.113143699890185
 40
3.113143699890185
 40
3.113143699890185
 10
80.12499999992355
 20
27.4603534582684
 30
0.0
 41
1.0
 10
79.40928258890688
 20
28.76489463188588
 30
0.0
 41
1.001020531935521
 10
78.62250092516473
 20
30.18691769624729
 30
0.0
 41
1.0
  0
ARC
  5
25F64
330
1F
100
AcDbEntity
  8
AM_0
100
AcDbCircle
 10
81.22706381449183
 20
27.04086158464907
 30
0.0
 40
1.102064085650231
100
AcDbArc
 50
179.9598130706537
 51
209.3912990857467
  0
ARC
  5
25F65
330
1F
100
AcDbEntity
  8
AM_0
100
AcDbCircle
 10
81.18393985417771
 20
-27.34889958628173
 30
0.0
 40
1.058952913756587
100
AcDbArc
 50
126.7129507495303
 51
180.2845529351275
  0
SPLINE
  5
25F66
330
1F
100
AcDbEntity
  8
AM_0
100
AcDbSpline
210
0.0
220
0.0
230
1.0
 70
    12
 71
     2
 72
     6
 73
     3
 74
     0
 42
0.0000000001
 43
0.0000000001
 40
0.0004629399900766
 40
0.0004629399900766
 40
0.0004629399900766
 40
3.089518613366919
 40
3.089518613366919
 40
3.089518613366919
 10
78.6225009251643
 20
-30.46719547316388
 30
0.0
 41
1.00000029977658
 10
79.40856857011752
 20
-29.05953270801103
 30
0.0
 41
1.001000308211577
 10
80.12499999992377
 20
-27.76816544269877
 30
0.0
 41
1.00000032891449
  0
LINE
  5
25F67
330
1F
100
AcDbEntity
  8
AM_0
100
AcDbLine
 10
73.99999999992349
 20
-30.46719547316388
 30
0.0
 11
78.62250092516467
 21
-30.46719547316388
 31
0.0
  0
LINE
  5
25F68
330
1F
100
AcDbEntity
  8
AM_0
100
AcDbLine
 10
82.87499999992349
 20
-26.5
 30
0.0
 11
83.44910893207077
 21
-26.5
 31
0.0
  0
LINE
  5
25F69
330
1F
100
AcDbEntity
  8
AM_0
100
AcDbLine
 10
81.12499999992349
 20
-26.5
 30
0.0
 11
82.87499999992349
 21
-26.5
 31
0.0
  0
LINE
  5
25F6A
330
1F
100
AcDbEntity
  8
AM_0
100
AcDbLine
 10
80.55089106777712
 20
-26.5
 30
0.0
 11
81.12499999992349
 21
-26.5
 31
0.0
  0
ARC
  5
25F6B
330
1F
100
AcDbEntity
  8
AM_0
100
AcDbCircle
 10
110.1751318366486
 20
47.37263673449706
 30
0.0
 40
23.9594551963814
100
AcDbArc
 50
256.2984766703751
 51
277.9767128774108
  0
ARC
  5
25F6C
330
1F
100
AcDbEntity
  8
AM_0
100
AcDbCircle
 10
110.1751318366485
 20
-47.37263673449701
 30
0.0
 40
23.95945519638139
100
AcDbArc
 50
82.02328712258925
 51
103.7015233296248
  0
SPLINE
  5
25F6D
330
1F
100
AcDbEntity
  8
AM_0
100
AcDbSpline
210
0.0
220
0.0
230
1.0
 70
     8
 71
     3
 72
     8
 73
     4
 74
     0
 42
0.0000000001
 43
0.0000000001
 40
2.048349944607707
 40
2.048349944607707
 40
2.048349944607707
 40
2.048349944607707
 40
2.082808961106547
 40
2.082808961106547
 40
2.082808961106547
 40
2.082808961106547
 10
131.9995549476624
 20
-20.29583066739815
 30
0.0
 10
131.9998543927449
 20
-20.28406332142549
 30
0.0
 10
131.9999999999235
 20
-20.27242226426824
 30
0.0
 10
131.9999999999235
 20
-20.26093592543475
 30
0.0
  0
SPLINE
  5
25F6E
330
1F
100
AcDbEntity
  8
AM_0
100
AcDbSpline
210
0.0
220
0.0
230
1.0
 70
     8
 71
     3
 72
     8
 73
     4
 74
     0
 42
0.0000000001
 43
0.0000000001
 40
5.80931992843316
 40
5.80931992843316
 40
5.80931992843316
 40
5.80931992843316
 40
5.823322112792894
 40
5.823322112792894
 40
5.823322112792894
 40
5.823322112792894
 10
131.9999999999236
 20
20.28191457645244
 30
0.0
 10
131.9999999999236
 20
20.28658197123878
 30
0.0
 10
131.9999759385882
 20
20.29127491188046
 30
0.0
 10
131.9999272086333
 20
20.29599149296701
 30
0.0
  0
SPLINE
  5
25F6F
330
1F
100
AcDbEntity
  8
AM_0
100
AcDbSpline
210
0.0
220
0.0
230
1.0
 70
     8
 71
     3
 72
    16
 73
    12
 74
     0
 42
0.0000000001
 43
0.0000000001
 40
-1.965007727733835
 40
-1.965007727733835
 40
-1.965007727733835
 40
-1.965007727733835
 40
-1.602152014354634
 40
-1.602152014354634
 40
-0.9617068588456064
 40
-0.9617068588456064
 40
-0.4733245765258282
 40
-0.4733245765258282
 40
-0.1927584624124154
 40
-0.1927584624124154
 40
-0.0001921708555565
 40
-0.0001921708555565
 40
-0.0001921708555565
 40
-0.0001921708555565
 10
131.9999272086333
 20
20.29616059051296
 30
0.0
 10
131.9985497966808
 20
20.38573514765722
 30
0.0
 10
131.9777411959739
 20
20.46895818018948
 30
0.0
 10
131.8688009059906
 20
20.67167276063447
 30
0.0
 10
131.7498492172071
 20
20.75496673623002
 30
0.0
 10
131.5052791744692
 20
20.83981341560866
 30
0.0
 10
131.3883213888284
 20
20.85632464283299
 30
0.0
 10
131.2016973337831
 20
20.86802084104147
 30
0.0
 10
131.124730258004
 20
20.86965914293523
 30
0.0
 10
130.9841456869535
 20
20.87031290871801
 30
0.0
 10
130.9235914610499
 20
20.87008831058483
 30
0.0
 10
130.8599251402565
 20
20.86999999999989
 30
0.0
  0
SPLINE
  5
25F70
330
1F
100
AcDbEntity
  8
AM_0
100
AcDbSpline
210
0.0
220
0.0
230
1.0
 70
     8
 71
     3
 72
    16
 73
    12
 74
     0
 42
0.0000000001
 43
0.0000000001
 40
-4.40429224599759
 40
-4.40429224599759
 40
-4.40429224599759
 40
-4.40429224599759
 40
-4.141910802677585
 40
-4.141910802677585
 40
-3.871634509130126
 40
-3.871634509130126
 40
-3.14310442813097
 40
-3.14310442813097
 40
-2.420961954899249
 40
-2.420961954899249
 40
-1.953365045766561
 40
-1.953365045766561
 40
-1.953365045766561
 40
-1.953365045766561
 10
130.8599251402565
 20
-20.86999999999989
 30
0.0
 10
130.9282849021255
 20
-20.86992338016989
 30
0.0
 10
130.9932432912864
 20
-20.86972611045894
 30
0.0
 10
131.1176472908527
 20
-20.86778624592625
 30
0.0
 10
131.1768642358337
 20
-20.86592444066537
 30
0.0
 10
131.377438865913
 20
-20.85381625952778
 30
0.0
 10
131.5210509055067
 20
-20.83280259993444
 30
0.0
 10
131.7695275119485
 20
-20.73018404392042
 30
0.0
 10
131.8690256417102
 20
-20.6511365152619
 30
0.0
 10
131.9713351698809
 20
-20.47232009367599
 30
0.0
 10
131.9959899172108
 20
-20.3895439363514
 30
0.0
 10
131.9995549476624
 20
-20.2959516831379
 30
0.0
  0
ARC
  5
25F71
330
1F
100
AcDbEntity
  8
AM_0
100
AcDbCircle
 10
82.77293618535526
 20
27.04086158464907
 30
0.0
 40
1.102064085651275
100
AcDbArc
 50
330.6087009142617
 51
0.0401869293332346
  0
SPLINE
  5
25F72
330
1F
100
AcDbEntity
  8
AM_0
100
AcDbSpline
210
0.0
220
0.0
230
1.0
 70
    12
 71
     2
 72
     6
 73
     3
 74
     0
 42
0.0000000001
 43
0.0000000001
 40
0.0
 40
0.0
 40
0.0
 40
3.113143699890207
 40
3.113143699890207
 40
3.113143699890207
 10
85.37749907468327
 20
30.18691769624729
 30
0.0
 41
1.0
 10
84.59071741095244
 20
28.7648946319068
 30
0.0
 41
1.001020531934115
 10
83.87499999992355
 20
27.4603534582684
 30
0.0
 41
1.0
  0
LINE
  5
25F73
330
1F
100
AcDbEntity
  8
AM_0
100
AcDbLine
 10
85.99999999992355
 20
30.18691769624729
 30
0.0
 11
85.37749907468327
 21
30.18691769624729
 31
0.0
  0
ARC
  5
25F74
330
1F
100
AcDbEntity
  8
AM_0
100
AcDbCircle
 10
85.7627065148626
 20
63.31335143878368
 30
0.0
 40
33.12728362991341
100
AcDbArc
 50
270.4104179389327
 51
286.1911316600853
  0
ARC
  5
25F75
330
1F
100
AcDbEntity
  8
AM_0
100
AcDbCircle
 10
82.81606014566916
 20
-27.34889958628264
 30
0.0
 40
1.058952913757433
100
AcDbArc
 50
359.7154470648854
 51
53.28704925043718
  0
SPLINE
  5
25F76
330
1F
100
AcDbEntity
  8
AM_0
100
AcDbSpline
210
0.0
220
0.0
230
1.0
 70
     8
 71
     3
 72
     8
 73
     4
 74
     0
 42
0.0000000001
 43
0.0000000001
 40
1.776340743961663
 40
1.776340743961663
 40
1.776340743961663
 40
1.776340743961663
 40
2.063575594279487
 40
2.063575594279487
 40
2.063575594279487
 40
2.063575594279487
 10
83.87499999992349
 20
-20.30394050424638
 30
0.0
 10
83.87499999992349
 20
-20.20819555414073
 30
0.0
 10
83.86761371472028
 20
-20.10344515595716
 30
0.0
 10
83.85145332975014
 20
-20.0
 30
0.0
  0
LINE
  5
25F77
330
1F
100
AcDbEntity
  8
AM_0
100
AcDbLine
 10
83.85145332975014
 20
-20.0
 30
0.0
 11
83.87499999992349
 21
-20.0
 31
0.0
  0
ARC
  5
25F78
330
1F
100
AcDbEntity
  8
AM_0
100
AcDbCircle
 10
81.16467654769878
 20
-17.51309475951348
 30
0.0
 40
6.647400590745968
100
AcDbArc
 50
201.9697455278659
 51
247.5156208110631
  0
LINE
  5
25F79
330
1F
100
AcDbEntity
  8
AM_0
100
AcDbLine
 10
74.99999999992349
 20
-20.0
 30
0.0
 11
78.62250092516467
 21
-20.0
 31
0.0
  0
LINE
  5
25F7A
330
1F
100
AcDbEntity
  8
AM_0
100
AcDbLine
 10
78.62250092516467
 20
-20.0
 30
0.0
 11
80.12499999992349
 21
-20.0
 31
0.0
  0
LINE
  5
25F7B
330
1F
100
AcDbEntity
  8
AM_0
100
AcDbLine
 10
80.12499999992349
 20
-20.0
 30
0.0
 11
80.12572598838312
 21
-20.0
 31
0.0
  0
SPLINE
  5
25F7C
330
1F
100
AcDbEntity
  8
AM_0
100
AcDbSpline
210
0.0
220
0.0
230
1.0
 70
     8
 71
     3
 72
     8
 73
     4
 74
     0
 42
0.0000000001
 43
0.0000000001
 40
-1.94204761059973
 40
-1.94204761059973
 40
-1.94204761059973
 40
-1.94204761059973
 40
-1.894302822527507
 40
-1.894302822527507
 40
-1.894302822527507
 40
-1.894302822527507
 10
80.12572598838312
 20
-20.0
 30
0.0
 10
80.12524096377354
 20
-20.01797842666383
 30
0.0
 10
80.12499999992349
 20
-20.03597907479525
 30
0.0
 10
80.12499999992349
 20
-20.05399192398545
 30
0.0
  0
LINE
  5
25F7D
330
1F
100
AcDbEntity
  8
AM_0
100
AcDbLine
 10
85.37749907468322
 20
-30.46719547316388
 30
0.0
 11
86.99999999992349
 21
-30.46719547316388
 31
0.0
  0
SPLINE
  5
25F7E
330
1F
100
AcDbEntity
  8
AM_0
100
AcDbSpline
210
0.0
220
0.0
230
1.0
 70
    12
 71
     2
 72
     6
 73
     3
 74
     0
 42
0.0000000001
 43
0.0000000001
 40
0.0
 40
0.0
 40
0.0
 40
3.089056677703773
 40
3.089056677703773
 40
3.089056677703773
 10
83.87499999992349
 20
-27.76816544269786
 30
0.0
 41
1.0
 10
84.59143142970882
 20
-29.05953270797363
 30
0.0
 41
1.000999993556015
 10
85.37749907468322
 20
-30.46719547316388
 30
0.0
 41
1.0
  0
ARC
  5
25F7F
330
1F
100
AcDbEntity
  8
AM_0
100
AcDbCircle
 10
86.83576962501849
 20
-63.23930744120838
 30
0.0
 40
32.77252346802263
100
AcDbArc
 50
75.57466508419866
 51
89.71287695489545
  0
SPLINE
  5
25F80
330
1F
100
AcDbEntity
  8
AM_0
100
AcDbSpline
210
0.0
220
0.0
230
1.0
 70
    12
 71
     2
 72
     6
 73
     3
 74
     0
 42
0.0000000001
 43
0.0000000001
 40
0.0
 40
0.0
 40
0.0
 40
3.788582771409939
 40
3.788582771409939
 40
3.788582771409939
 10
85.37749907468322
 20
-24.33618704727542
 30
0.0
 41
1.0
 10
84.56843903968962
 20
-22.52234529161615
 30
0.0
 41
1.001661993538315
 10
83.87499999992349
 20
-20.85835592881267
 30
0.0
 41
1.0
  0
LINE
  5
25F81
330
1F
100
AcDbEntity
  8
AM_0
100
AcDbLine
 10
83.87499999992349
 20
-20.0
 30
0.0
 11
85.37749907468322
 21
-20.0
 31
0.0
  0
LINE
  5
25F82
330
1F
100
AcDbEntity
  8
AM_0
100
AcDbLine
 10
83.87499999992349
 20
-20.85835592881267
 30
0.0
 11
83.87499999992349
 21
-20.30394050424638
 31
0.0
  0
LINE
  5
25F83
330
1F
100
AcDbEntity
  8
AM_0
100
AcDbLine
 10
80.12499999992349
 20
-20.05399192398545
 30
0.0
 11
80.12499999992349
 21
-20.61513046624532
 31
0.0
  0
ARC
  5
25F84
330
1F
100
AcDbEntity
  8
AM_0
100
AcDbCircle
 10
26.61985999212521
 20
3.93761795919545
 30
0.0
 40
58.86966504488657
100
AcDbArc
 50
332.0494046668653
 51
335.3502823397773
  0
ARC
  5
25F85
330
1F
100
AcDbEntity
  8
AM_0
100
AcDbCircle
 10
88.36228254556391
 20
-17.11358135752744
 30
0.0
 40
7.238142412492669
100
AcDbArc
 50
266.2452459749702
 51
336.4981347158563
  0
LINE
  5
25F86
330
1F
100
AcDbEntity
  8
AM_0
100
AcDbLine
 10
85.37749907468322
 20
-20.0
 30
0.0
 11
94.99999999992349
 21
-20.0
 31
0.0
  0
LINE
  5
25F87
330
1F
100
AcDbEntity
  8
AM_0
100
AcDbLine
 10
87.88828609626751
 20
-24.33618704727542
 30
0.0
 11
85.37749907468322
 21
-24.33618704727542
 31
0.0
  0
LINE
  5
25F88
330
1F
100
AcDbEntity
  8
AM_0
100
AcDbLine
 10
125.9999999999235
 20
-20.86999999999989
 30
0.0
 11
130.8599251402565
 21
-20.86999999999989
 31
0.0
  0
LINE
  5
25F89
330
1F
100
AcDbEntity
  8
AM_0
100
AcDbLine
 10
121.9999999999236
 20
20.86999999999989
 30
0.0
 11
130.8599251402565
 21
20.86999999999989
 31
0.0
  0
LINE
  5
25F8A
330
1F
100
AcDbEntity
  8
AM_11
  6
ACJISTGB
100
AcDbLine
 10
130.8599251402562
 20
-22.77700374298286
 30
0.0
 11
125.9999999999235
 21
-23.01999999999953
 31
0.0
  0
LINE
  5
25F8B
330
1F
100
AcDbEntity
  8
AM_0
100
AcDbLine
 10
104.4999999999235
 20
-24.09500000000026
 30
0.0
 11
99.99999999992349
 21
-24.31999999999971
 31
0.0
  0
LINE
  5
25F8C
330
1F
100
AcDbEntity
  8
AM_11
  6
ACJISTGB
100
AcDbLine
 10
130.8599251402564
 20
22.77700374298343
 30
0.0
 11
121.9999999999236
 21
23.22000000000028
 31
0.0
  0
LINE
  5
25F8D
330
1F
100
AcDbEntity
  8
AM_0
100
AcDbLine
 10
104.4999999999236
 20
24.09500000000026
 30
0.0
 11
99.99999999992355
 21
24.32000000000062
 31
0.0
  0
LINE
  5
25F8E
330
1F
100
AcDbEntity
  8
AM_0
100
AcDbLine
 10
99.99999999992349
 20
-31.5
 30
0.0
 11
94.99999999992349
 21
-31.5
 31
0.0
  0
LINE
  5
25F8F
330
1F
100
AcDbEntity
  8
AM_0
100
AcDbLine
 10
99.99999999992355
 20
31.5
 30
0.0
 11
94.99999999992355
 21
31.5
 31
0.0
  0
LINE
  5
25F90
330
1F
100
AcDbEntity
  8
AM_0
100
AcDbLine
 10
73.99999999992355
 20
30.18691769624729
 30
0.0
 11
73.99999999992349
 21
-30.46719547316388
 31
0.0
  0
LINE
  5
25F91
330
1F
100
AcDbEntity
  8
AM_11
  6
ACJISTGB
100
AcDbLine
 10
131.9999999999236
 20
21.57850093632987
 30
0.0
 11
131.9999999999236
 21
20.28895312868858
 31
0.0
  0
LINE
  5
25F92
330
1F
100
AcDbEntity
  8
AM_0
100
AcDbLine
 10
125.9999999999235
 20
-20.86999999999989
 30
0.0
 11
125.9999999999235
 21
-23.01999999999953
 31
0.0
  0
LINE
  5
25F93
330
1F
100
AcDbEntity
  8
AM_0
100
AcDbLine
 10
121.9999999999236
 20
23.22000000000026
 30
0.0
 11
121.9999999999236
 21
20.86999999999989
 31
0.0
  0
LINE
  5
25F94
330
1F
100
AcDbEntity
  8
AM_0
100
AcDbLine
 10
82.87499999992355
 20
26.5
 30
0.0
 11
82.87499999992349
 21
-26.5
 31
0.0
  0
LINE
  5
25F95
330
1F
100
AcDbEntity
  8
AM_0
100
AcDbLine
 10
78.62250092516467
 20
-23.65518542296377
 30
0.0
 11
78.62250092516467
 21
-30.46719547316388
 31
0.0
  0
LINE
  5
25F96
330
1F
100
AcDbEntity
  8
AM_0
100
AcDbLine
 10
78.62250092516473
 20
30.18691769624729
 30
0.0
 11
78.62250092516467
 21
-20.0
 31
0.0
  0
LINE
  5
25F97
330
1F
100
AcDbEntity
  8
AM_0
100
AcDbLine
 10
81.12499999992355
 20
26.5
 30
0.0
 11
81.12499999992349
 21
-26.5
 31
0.0
  0
LINE
  5
25F98
330
1F
100
AcDbEntity
  8
AM_0
100
AcDbLine
 10
80.12499999992355
 20
27.4603534582684
 30
0.0
 11
80.12499999992349
 21
-20.0
 31
0.0
  0
LINE
  5
25F99
330
1F
100
AcDbEntity
  8
AM_0
100
AcDbLine
 10
85.37749907468322
 20
-24.33618704727542
 30
0.0
 11
85.37749907468322
 21
-30.46719547316388
 31
0.0
  0
LINE
  5
25F9A
330
1F
100
AcDbEntity
  8
AM_0
100
AcDbLine
 10
83.87499999992349
 20
-20.85835592881267
 30
0.0
 11
83.87499999992349
 21
-27.76816544269786
 31
0.0
  0
LINE
  5
25F9B
330
1F
100
AcDbEntity
  8
AM_0
100
AcDbLine
 10
83.87499999992355
 20
27.4603534582684
 30
0.0
 11
83.87499999992349
 21
-20.0
 31
0.0
  0
LINE
  5
25F9C
330
1F
100
AcDbEntity
  8
AM_0
100
AcDbLine
 10
85.37749907468327
 20
30.18691769624729
 30
0.0
 11
85.37749907468322
 21
-20.0
 31
0.0
  0
LINE
  5
25F9D
330
1F
100
AcDbEntity
  8
AM_0
100
AcDbLine
 10
80.12499999992349
 20
-20.61513046624532
 30
0.0
 11
80.12499999992349
 21
-27.76816544269786
 31
0.0
  0
LINE
  5
25F9E
330
1F
100
AcDbEntity
  8
AM_0
100
AcDbLine
 10
99.99999999992355
 20
31.5
 30
0.0
 11
99.99999999992349
 21
-31.5
 31
0.0
  0
ARC
  5
25F9F
330
1F
100
AcDbEntity
  8
AM_0
100
AcDbCircle
 10
74.00000296299078
 20
-137.0306206603709
 30
0.0
 40
3.000002963068777
100
AcDbArc
 50
180.000056590357
 51
269.99994340963
  0
ARC
  5
25FA0
330
1F
100
AcDbEntity
  8
AM_0
100
AcDbCircle
 10
74.00000296299078
 20
-127.0306265865056
 30
0.0
 40
3.000002963068682
100
AcDbArc
 50
90.00005659035688
 51
179.99994340963
  0
LINE
  5
25FA1
330
1F
100
AcDbEntity
  8
AM_0
100
AcDbLine
 10
80.12499999992349
 20
-124.0306236234383
 30
0.0
 11
80.55089106777712
 21
-124.0306236234383
 31
0.0
  0
LINE
  5
25FA2
330
1F
100
AcDbEntity
  8
AM_0
100
AcDbLine
 10
78.62250092516467
 20
-124.0306236234383
 30
0.0
 11
80.12499999992349
 21
-124.0306236234383
 31
0.0
  0
LINE
  5
25FA3
330
1F
100
AcDbEntity
  8
AM_0
100
AcDbLine
 10
73.99999999992349
 20
-124.0306236234383
 30
0.0
 11
78.62250092516467
 21
-124.0306236234383
 31
0.0
  0
SPLINE
  5
25FA4
330
1F
100
AcDbEntity
  8
AM_0
100
AcDbSpline
210
0.0
220
0.0
230
1.0
 70
     8
 71
     3
 72
    16
 73
    12
 74
     0
 42
0.0000000001
 43
0.0000000001
 40
5.956346460088473
 40
5.956346460088473
 40
5.956346460088473
 40
5.956346460088473
 40
6.062495147234408
 40
6.062495147234408
 40
6.202228077623816
 40
6.202228077623816
 40
6.481227230306896
 40
6.481227230306896
 40
6.760226382989976
 40
6.760226382989976
 40
6.821665582602051
 40
6.821665582602051
 40
6.821665582602051
 40
6.821665582602051
 10
81.12499999992349
 20
-139.3790928517882
 30
0.0
 10
81.08961710420851
 20
-139.3790928517882
 30
0.0
 10
81.04813229066792
 20
-139.3881381406608
 30
0.0
 10
80.97233621812018
 20
-139.4193228383292
 30
0.0
 10
80.92628912417138
 20
-139.4510042497959
 30
0.0
 10
80.82188818046859
 20
-139.5436448600294
 30
0.0
 10
80.76196998410148
 20
-139.6243849439115
 30
0.0
 10
80.65693494034247
 20
-139.7967772673036
 30
0.0
 10
80.61211209841065
 20
-139.8886084664054
 30
0.0
 10
80.56676426341608
 20
-139.9926332692511
 30
0.0
 10
80.55874944113373
 20
-140.0115578002305
 30
0.0
 10
80.55089106777712
 20
-140.0306236234382
 30
0.0
  0
LINE
  5
25FA5
330
1F
100
AcDbEntity
  8
AM_0
100
AcDbLine
 10
82.87499999992349
 20
-139.3790928517882
 30
0.0
 11
81.12499999992349
 21
-139.3790928517882
 31
0.0
  0
SPLINE
  5
25FA6
330
1F
100
AcDbEntity
  8
AM_0
100
AcDbSpline
210
0.0
220
0.0
230
1.0
 70
     8
 71
     3
 72
    16
 73
    12
 74
     0
 42
0.0000000001
 43
0.0000000001
 40
5.091027337574894
 40
5.091027337574894
 40
5.091027337574894
 40
5.091027337574894
 40
5.15246653718697
 40
5.15246653718697
 40
5.43146568987005
 40
5.43146568987005
 40
5.71046484255313
 40
5.71046484255313
 40
5.850197772942538
 40
5.850197772942538
 40
5.956346460088473
 40
5.956346460088473
 40
5.956346460088473
 40
5.956346460088473
 10
83.44910893207077
 20
-140.0306236234382
 30
0.0
 10
83.44125055871416
 20
-140.0115578002305
 30
0.0
 10
83.43323573643181
 20
-139.9926332692511
 30
0.0
 10
83.38788790143724
 20
-139.8886084664054
 30
0.0
 10
83.34306505950451
 20
-139.7967772673036
 30
0.0
 10
83.2380300157464
 20
-139.6243849439115
 30
0.0
 10
83.1781118193793
 20
-139.5436448600294
 30
0.0
 10
83.0737108756756
 20
-139.4510042497959
 30
0.0
 10
83.02766378172771
 20
-139.4193228383292
 30
0.0
 10
82.95186770917906
 20
-139.3881381406608
 30
0.0
 10
82.91038289563937
 20
-139.3790928517882
 30
0.0
 10
82.87499999992349
 20
-139.3790928517882
 30
0.0
  0
SPLINE
  5
25FA7
330
1F
100
AcDbEntity
  8
AM_0
100
AcDbSpline
210
0.0
220
0.0
230
1.0
 70
     8
 71
     3
 72
    16
 73
    12
 74
     0
 42
0.0000000001
 43
0.0000000001
 40
5.956346460088472
 40
5.956346460088472
 40
5.956346460088472
 40
5.956346460088472
 40
6.062495147234407
 40
6.062495147234407
 40
6.202228077623815
 40
6.202228077623815
 40
6.481227230306895
 40
6.481227230306895
 40
6.760226382989975
 40
6.760226382989975
 40
6.821665582602113
 40
6.821665582602113
 40
6.821665582602113
 40
6.821665582602113
 10
82.87499999992349
 20
-124.6821543950891
 30
0.0
 10
82.91038289563937
 20
-124.6821543950891
 30
0.0
 10
82.95186770917906
 20
-124.6731091062165
 30
0.0
 10
83.02766378172771
 20
-124.6419244085482
 30
0.0
 10
83.0737108756756
 20
-124.6102429970815
 30
0.0
 10
83.1781118193793
 20
-124.517602386848
 30
0.0
 10
83.2380300157464
 20
-124.4368623029659
 30
0.0
 10
83.34306505950451
 20
-124.2644699795737
 30
0.0
 10
83.38788790143724
 20
-124.172638780472
 30
0.0
 10
83.43323573643181
 20
-124.0686139776253
 30
0.0
 10
83.44125055871416
 20
-124.0496894466469
 30
0.0
 10
83.44910893207077
 20
-124.0306236234383
 30
0.0
  0
LINE
  5
25FA8
330
1F
100
AcDbEntity
  8
AM_0
100
AcDbLine
 10
81.12499999992349
 20
-124.6821543950891
 30
0.0
 11
82.87499999992349
 21
-124.6821543950891
 31
0.0
  0
SPLINE
  5
25FA9
330
1F
100
AcDbEntity
  8
AM_0
100
AcDbSpline
210
0.0
220
0.0
230
1.0
 70
     8
 71
     3
 72
    16
 73
    12
 74
     0
 42
0.0000000001
 43
0.0000000001
 40
5.091027337574832
 40
5.091027337574832
 40
5.091027337574832
 40
5.091027337574832
 40
5.152466537186969
 40
5.152466537186969
 40
5.431465689870049
 40
5.431465689870049
 40
5.71046484255313
 40
5.71046484255313
 40
5.850197772942537
 40
5.850197772942537
 40
5.956346460088472
 40
5.956346460088472
 40
5.956346460088472
 40
5.956346460088472
 10
80.55089106777712
 20
-124.0306236234383
 30
0.0
 10
80.55874944113373
 20
-124.0496894466469
 30
0.0
 10
80.56676426341608
 20
-124.0686139776253
 30
0.0
 10
80.61211209841065
 20
-124.172638780472
 30
0.0
 10
80.65693494034247
 20
-124.2644699795737
 30
0.0
 10
80.76196998410148
 20
-124.4368623029659
 30
0.0
 10
80.82188818046859
 20
-124.517602386848
 30
0.0
 10
80.92628912417138
 20
-124.6102429970815
 30
0.0
 10
80.97233621812018
 20
-124.6419244085482
 30
0.0
 10
81.04813229066792
 20
-124.6731091062165
 30
0.0
 10
81.08961710420851
 20
-124.6821543950891
 30
0.0
 10
81.12499999992349
 20
-124.6821543950891
 30
0.0
  0
LINE
  5
25FAA
330
1F
100
AcDbEntity
  8
AM_0
100
AcDbLine
 10
78.62250092516467
 20
-140.0306236234382
 30
0.0
 11
73.99999999992349
 21
-140.0306236234382
 31
0.0
  0
LINE
  5
25FAB
330
1F
100
AcDbEntity
  8
AM_0
100
AcDbLine
 10
78.62250092516467
 20
-140.0306236234382
 30
0.0
 11
80.12499999992349
 21
-140.0306236234382
 31
0.0
  0
LINE
  5
25FAC
330
1F
100
AcDbEntity
  8
AM_0
100
AcDbLine
 10
80.12499999992349
 20
-140.0306236234382
 30
0.0
 11
80.55089106777712
 21
-140.0306236234382
 31
0.0
  0
ARC
  5
25FAD
330
1F
100
AcDbEntity
  8
AM_0
100
AcDbCircle
 10
92.96119873340996
 20
-195.1170635508269
 30
0.0
 40
31.98582038169304
100
AcDbArc
 50
80.93630643191753
 51
89.930495784383
  0
ARC
  5
25FAE
330
1F
100
AcDbEntity
  8
AM_0
100
AcDbCircle
 10
93.03880126643782
 20
-195.1170635508242
 30
0.0
 40
31.98582038169042
100
AcDbArc
 50
90.06950421560396
 51
99.06369356809559
  0
ARC
  5
25FAF
330
1F
100
AcDbEntity
  8
AM_0
100
AcDbCircle
 10
108.9999999999234
 20
-132.0306236234382
 30
0.0
 40
4.499999999999965
100
AcDbArc
 50
228.8076280850552
 51
131.1923719149448
  0
ARC
  5
25FB0
330
1F
100
AcDbEntity
  8
AM_0
100
AcDbCircle
 10
109.0000000024509
 20
-132.0306236234382
 30
0.0
 40
4.500000001664618
100
AcDbArc
 50
131.1923719391818
 51
228.8076280608183
  0
CIRCLE
  5
25FB1
330
1F
100
AcDbEntity
  8
AM_0
100
AcDbCircle
 10
108.9999999999234
 20
-132.0306236234382
 30
0.0
 40
4.500000000000006
  0
LINE
  5
25FB2
330
1F
100
AcDbEntity
  8
AM_0
100
AcDbLine
 10
129.9999999999235
 20
-125.8181236234386
 30
0.0
 11
131.9999999999235
 21
-124.6634230850596
 31
0.0
  0
LINE
  5
25FB3
330
1F
100
AcDbEntity
  8
AM_0
100
AcDbLine
 10
129.9999999999235
 20
-138.2431236234388
 30
0.0
 11
127.4999999999235
 21
-138.2431236234388
 31
0.0
  0
LINE
  5
25FB4
330
1F
100
AcDbEntity
  8
AM_0
100
AcDbLine
 10
127.4999999999235
 20
-125.8181236234386
 30
0.0
 11
129.9999999999235
 21
-125.8181236234386
 31
0.0
  0
LINE
  5
25FB5
330
1F
100
AcDbEntity
  8
AM_0
100
AcDbLine
 10
131.9995549476624
 20
-124.6061800361022
 30
0.0
 11
131.9999999999235
 21
-124.6059230850597
 31
0.0
  0
LINE
  5
25FB6
330
1F
100
AcDbEntity
  8
AM_0
100
AcDbLine
 10
129.9999999999235
 20
-138.2431236234388
 30
0.0
 11
131.9999999999235
 21
-139.3978241618179
 31
0.0
  0
LINE
  5
25FB7
330
1F
100
AcDbEntity
  8
AM_0
100
AcDbLine
 10
131.9995549476624
 20
-139.4550672107753
 30
0.0
 11
131.9999999999235
 21
-139.4553241618178
 31
0.0
  0
SPLINE
  5
25FB8
330
1F
100
AcDbEntity
  8
AM_0
100
AcDbSpline
210
0.0
220
0.0
230
1.0
 70
     8
 71
     3
 72
    16
 73
    12
 74
     0
 42
0.0000000001
 43
0.0000000001
 40
-1.936088707179519
 40
-1.936088707179519
 40
-1.936088707179519
 40
-1.936088707179519
 40
-1.618608641566384
 40
-1.618608641566384
 40
-0.9853554418149393
 40
-0.9853554418149393
 40
-0.4905148334691103
 40
-0.4905148334691103
 40
-0.2011422780024802
 40
-0.2011422780024802
 40
-0.0002750058701333
 40
-0.0002750058701333
 40
-0.0002750058701333
 40
-0.0002750058701333
 10
131.9995549476624
 20
-139.4550672107753
 30
0.0
 10
131.996383578119
 20
-139.5663227797641
 30
0.0
 10
131.9764826640775
 20
-139.6833833421833
 30
0.0
 10
131.8782639048121
 20
-140.0414017340127
 30
0.0
 10
131.7642459661555
 20
-140.2834974474063
 30
0.0
 10
131.5236055180975
 20
-140.6647379506758
 30
0.0
 10
131.4057453537633
 20
-140.8130078890981
 30
0.0
 10
131.2150731056707
 20
-140.9908904859631
 30
0.0
 10
131.1356191135727
 20
-141.0519754343404
 30
0.0
 10
130.9896345936276
 20
-141.1248573895427
 30
0.0
 10
130.9263816549582
 20
-141.146097156442
 30
0.0
 10
130.8599251402565
 20
-141.1542221837772
 30
0.0
  0
SPLINE
  5
25FB9
330
1F
100
AcDbEntity
  8
AM_0
100
AcDbSpline
210
0.0
220
0.0
230
1.0
 70
     8
 71
     3
 72
    16
 73
    12
 74
     0
 42
0.0000000001
 43
0.0000000001
 40
-4.40429224599759
 40
-4.40429224599759
 40
-4.40429224599759
 40
-4.40429224599759
 40
-4.141910802677585
 40
-4.141910802677585
 40
-3.871634509130126
 40
-3.871634509130126
 40
-3.14310442813097
 40
-3.14310442813097
 40
-2.420961954899249
 40
-2.420961954899249
 40
-1.953365045766561
 40
-1.953365045766561
 40
-1.953365045766561
 40
-1.953365045766561
 10
130.8599251402565
 20
-122.9070250631003
 30
0.0
 10
130.9282849021255
 20
-122.9153827829759
 30
0.0
 10
130.9932432912864
 20
-122.9376179588053
 30
0.0
 10
131.1176472908527
 20
-123.0009405614119
 30
0.0
 10
131.1768642358337
 20
-123.0425678958463
 30
0.0
 10
131.377438865913
 20
-123.2103188620322
 30
0.0
 10
131.5210509055067
 20
-123.3878494821984
 30
0.0
 10
131.7695275119485
 20
-123.7913420349805
 30
0.0
 10
131.8690256417102
 20
-124.0068177174626
 30
0.0
 10
131.9713351698809
 20
-124.3489944306002
 30
0.0
 10
131.9959899172108
 20
-124.481114355197
 30
0.0
 10
131.9995549476624
 20
-124.6061800361022
 30
0.0
  0
ARC
  5
25FBA
330
1F
100
AcDbEntity
  8
AM_0
100
AcDbCircle
 10
134.7173831894359
 20
-85.95992515232678
 30
0.0
 40
37.14792288160733
100
AcDbArc
 50
259.2369973264173
 51
264.0396343738103
  0
ARC
  5
25FBB
330
1F
100
AcDbEntity
  8
AM_0
100
AcDbCircle
 10
134.7173831894323
 20
-178.1013220945233
 30
0.0
 40
37.14792288157967
100
AcDbArc
 50
95.96036562618976
 51
100.7630026735891
  0
LINE
  5
25FBC
330
1F
100
AcDbEntity
  8
AM_0
100
AcDbLine
 10
83.87499999992349
 20
-140.0306236234382
 30
0.0
 11
85.37749907468322
 21
-140.0306236234383
 31
0.0
  0
LINE
  5
25FBD
330
1F
100
AcDbEntity
  8
AM_0
100
AcDbLine
 10
83.44910893207077
 20
-140.0306236234382
 30
0.0
 11
83.87499999992349
 21
-140.0306236234382
 31
0.0
  0
LINE
  5
25FBE
330
1F
100
AcDbEntity
  8
AM_0
100
AcDbLine
 10
83.44910893207077
 20
-124.0306236234383
 30
0.0
 11
83.87499999992349
 21
-124.0306236234383
 31
0.0
  0
LINE
  5
25FBF
330
1F
100
AcDbEntity
  8
AM_0
100
AcDbLine
 10
83.85145332975014
 20
-112.0306236234383
 30
0.0
 11
83.87499999992349
 21
-112.0306236234383
 31
0.0
  0
SPLINE
  5
25FC0
330
1F
100
AcDbEntity
  8
AM_0
100
AcDbSpline
210
0.0
220
0.0
230
1.0
 70
     8
 71
     3
 72
     8
 73
     4
 74
     0
 42
0.0000000001
 43
0.0000000001
 40
-2.06357559427948
 40
-2.06357559427948
 40
-2.06357559427948
 40
-2.06357559427948
 40
-1.776340743961663
 40
-1.776340743961663
 40
-1.776340743961663
 40
-1.776340743961663
 10
83.85145332975014
 20
-112.0306236234383
 30
0.0
 10
83.86761371472028
 20
-111.9271784674811
 30
0.0
 10
83.87499999992349
 20
-111.8224280692975
 30
0.0
 10
83.87499999992349
 20
-111.7266831191919
 30
0.0
  0
ARC
  5
25FC1
330
1F
100
AcDbEntity
  8
AM_0
100
AcDbCircle
 10
82.11262327248352
 20
-104.0296917906589
 30
0.0
 40
8.001235164662798
100
AcDbArc
 50
207.2595688438588
 51
244.1384544096968
  0
LINE
  5
25FC2
330
1F
100
AcDbEntity
  8
AM_0
100
AcDbLine
 10
74.99999999992349
 20
-107.6944365761628
 30
0.0
 11
78.62250092516467
 21
-107.6944365761628
 31
0.0
  0
SPLINE
  5
25FC3
330
1F
100
AcDbEntity
  8
AM_0
100
AcDbSpline
210
0.0
220
0.0
230
1.0
 70
    12
 71
     2
 72
     6
 73
     3
 74
     0
 42
0.0000000001
 43
0.0000000001
 40
0.0
 40
0.0
 40
0.0
 40
3.788582771409915
 40
3.788582771409915
 40
3.788582771409915
 10
78.62250092516467
 20
-107.6944365761628
 30
0.0
 41
1.0
 10
79.43156096015693
 20
-109.508278331823
 30
0.0
 41
1.001661993538562
 10
80.12499999992349
 20
-111.1722676946256
 30
0.0
 41
1.0
  0
SPLINE
  5
25FC4
330
1F
100
AcDbEntity
  8
AM_0
100
AcDbSpline
210
0.0
220
0.0
230
1.0
 70
     8
 71
     3
 72
     8
 73
     4
 74
     0
 42
0.0000000001
 43
0.0000000001
 40
1.776340743961663
 40
1.776340743961663
 40
1.776340743961663
 40
1.776340743961663
 40
1.82900694760964
 40
1.82900694760964
 40
1.82900694760964
 40
1.82900694760964
 10
80.12499999992349
 20
-111.7266831191919
 30
0.0
 10
80.12499999992349
 20
-111.7442385204076
 30
0.0
 10
80.1252350692638
 20
-111.7620970154712
 30
0.0
 10
80.12572598838312
 20
-111.780194708389
 30
0.0
  0
SPLINE
  5
25FC5
330
1F
100
AcDbEntity
  8
AM_0
100
AcDbSpline
210
0.0
220
0.0
230
1.0
 70
    24
 71
     3
 72
     8
 73
     4
 74
     0
 42
0.0000000001
 43
0.0000000001
 40
-1.94204761059973
 40
-1.94204761059973
 40
-1.94204761059973
 40
-1.94204761059973
 40
-1.894302822527507
 40
-1.894302822527507
 40
-1.894302822527507
 40
-1.894302822527507
 10
80.12572598838312
 20
-111.780194708389
 30
0.0
 10
80.12524096377354
 20
-111.7800704107985
 30
0.0
 10
80.12499999992349
 20
-111.7800086225871
 30
0.0
 10
80.12499999992349
 20
-111.7800086225871
 30
0.0
  0
LINE
  5
25FC6
330
1F
100
AcDbEntity
  8
AM_0
100
AcDbLine
 10
80.12499999992349
 20
-111.1722676946256
 30
0.0
 11
80.12499999992349
 21
-111.7266831191919
 31
0.0
  0
LINE
  5
25FC7
330
1F
100
AcDbEntity
  8
AM_0
100
AcDbLine
 10
86.99999999992349
 20
-140.0306236234383
 30
0.0
 11
85.37749907468322
 21
-140.0306236234383
 31
0.0
  0
LINE
  5
25FC8
330
1F
100
AcDbEntity
  8
AM_0
100
AcDbLine
 10
85.37749907468322
 20
-124.0306236234383
 30
0.0
 11
86.99999999992349
 21
-124.0306236234383
 31
0.0
  0
LINE
  5
25FC9
330
1F
100
AcDbEntity
  8
AM_0
100
AcDbLine
 10
83.87499999992349
 20
-124.0306236234383
 30
0.0
 11
85.37749907468322
 21
-124.0306236234383
 31
0.0
  0
ARC
  5
25FCA
330
1F
100
AcDbEntity
  8
AM_0
100
AcDbCircle
 10
86.99999999992343
 20
-132.0306236234382
 30
0.0
 40
8.000000000000057
100
AcDbArc
 50
270.0
 51
90.0
  0
LINE
  5
25FCB
330
1F
100
AcDbEntity
  8
AM_0
100
AcDbLine
 10
83.87499999992349
 20
-112.0306236234383
 30
0.0
 11
85.37749907468322
 21
-112.0306236234383
 31
0.0
  0
SPLINE
  5
25FCC
330
1F
100
AcDbEntity
  8
AM_0
100
AcDbSpline
210
0.0
220
0.0
230
1.0
 70
    12
 71
     2
 72
     6
 73
     3
 74
     0
 42
0.0000000001
 43
0.0000000001
 40
0.0
 40
0.0
 40
0.0
 40
3.788582771409939
 40
3.788582771409939
 40
3.788582771409939
 10
83.87499999992349
 20
-111.1722676946256
 30
0.0
 41
1.0
 10
84.56843903968962
 20
-109.5082783318231
 30
0.0
 41
1.001661993538315
 10
85.37749907468322
 20
-107.6944365761628
 30
0.0
 41
1.0
  0
LINE
  5
25FCD
330
1F
100
AcDbEntity
  8
AM_0
100
AcDbLine
 10
83.87499999992349
 20
-111.7266831191919
 30
0.0
 11
83.87499999992349
 21
-111.1722676946256
 31
0.0
  0
ARC
  5
25FCE
330
1F
100
AcDbEntity
  8
AM_0
100
AcDbCircle
 10
82.11112374146507
 20
-104.0322346679531
 30
0.0
 40
7.99829286590654
100
AcDbArc
 50
244.1401747691827
 51
255.6219705914311
  0
ARC
  5
25FCF
330
1F
100
AcDbEntity
  8
AM_0
100
AcDbCircle
 10
87.8880879935985
 20
-104.0302987182877
 30
0.0
 40
8.000324907604083
100
AcDbArc
 50
270.0014187482344
 51
332.7419619425979
  0
LINE
  5
25FD0
330
1F
100
AcDbEntity
  8
AM_0
100
AcDbLine
 10
85.37749907468322
 20
-107.6944365761628
 30
0.0
 11
94.99999999992349
 21
-107.6944365761628
 31
0.0
  0
LINE
  5
25FD1
330
1F
100
AcDbEntity
  8
AM_0
100
AcDbLine
 10
87.88828609626751
 20
-112.0306236234383
 30
0.0
 11
85.37749907468322
 21
-112.0306236234383
 31
0.0
  0
LINE
  5
25FD2
330
1F
100
AcDbEntity
  8
AM_0
100
AcDbLine
 10
130.8599251402565
 20
-154.8076273664219
 30
0.0
 11
99.99999999992349
 21
-156.3506236234389
 31
0.0
  0
LINE
  5
25FD3
330
1F
100
AcDbEntity
  8
AM_0
100
AcDbLine
 10
130.8599251402565
 20
-109.2536198804555
 30
0.0
 11
99.99999999992349
 21
-107.7106236234386
 31
0.0
  0
LINE
  5
25FD4
330
1F
100
AcDbEntity
  8
AM_0
100
AcDbLine
 10
83.87499999992349
 20
-160.9282188876304
 30
0.0
 11
85.37749907468322
 21
-163.5306236234383
 31
0.0
  0
LINE
  5
25FD5
330
1F
100
AcDbEntity
  8
AM_0
100
AcDbLine
 10
78.62250092516467
 20
-163.5306236234382
 30
0.0
 11
73.99999999992349
 21
-163.5306236234382
 31
0.0
  0
LINE
  5
25FD6
330
1F
100
AcDbEntity
  8
AM_0
100
AcDbLine
 10
78.62250092516467
 20
-100.5306236234383
 30
0.0
 11
73.99999999992349
 21
-100.5306236234383
 31
0.0
  0
LINE
  5
25FD7
330
1F
100
AcDbEntity
  8
AM_0
100
AcDbLine
 10
82.87499999992349
 20
-159.5306236234382
 30
0.0
 11
81.12499999992349
 21
-159.5306236234382
 31
0.0
  0
LINE
  5
25FD8
330
1F
100
AcDbEntity
  8
AM_0
100
AcDbLine
 10
82.87499999992349
 20
-104.5306236234383
 30
0.0
 11
81.12499999992349
 21
-104.5306236234383
 31
0.0
  0
LINE
  5
25FD9
330
1F
100
AcDbEntity
  8
AM_0
100
AcDbLine
 10
80.12499999992349
 20
-160.9282188876304
 30
0.0
 11
78.62250092516467
 21
-163.5306236234382
 31
0.0
  0
LINE
  5
25FDA
330
1F
100
AcDbEntity
  8
AM_0
100
AcDbLine
 10
80.12499999992349
 20
-103.133028359247
 30
0.0
 11
78.62250092516467
 21
-100.5306236234383
 31
0.0
  0
LINE
  5
25FDB
330
1F
100
AcDbEntity
  8
AM_0
100
AcDbLine
 10
83.87499999992349
 20
-103.133028359247
 30
0.0
 11
85.37749907468322
 21
-100.5306236234383
 31
0.0
  0
LINE
  5
25FDC
330
1F
100
AcDbEntity
  8
AM_0
100
AcDbLine
 10
99.99999999992349
 20
-163.5306236234383
 30
0.0
 11
97.99999999992349
 21
-163.5306236234383
 31
0.0
  0
LINE
  5
25FDD
330
1F
100
AcDbEntity
  8
AM_0
100
AcDbLine
 10
87.99999999992349
 20
-163.5306236234383
 30
0.0
 11
85.37749907468322
 21
-163.5306236234383
 31
0.0
  0
LINE
  5
25FDE
330
1F
100
AcDbEntity
  8
AM_0
100
AcDbLine
 10
99.99999999992349
 20
-100.5306236234383
 30
0.0
 11
85.37749907468322
 21
-100.5306236234383
 31
0.0
  0
LINE
  5
25FDF
330
1F
100
AcDbEntity
  8
AM_0
100
AcDbLine
 10
70.99999999992349
 20
-127.0306236234383
 30
0.0
 11
70.99999999992349
 21
-137.0306236234382
 31
0.0
  0
LINE
  5
25FE0
330
1F
100
AcDbEntity
  8
AM_0
100
AcDbLine
 10
73.99999999992349
 20
-100.5306236234383
 30
0.0
 11
73.99999999992349
 21
-124.0306236234383
 31
0.0
  0
LINE
  5
25FE1
330
1F
100
AcDbEntity
  8
AM_0
100
AcDbLine
 10
73.99999999992349
 20
-140.0306236234382
 30
0.0
 11
73.99999999992349
 21
-163.5306236234382
 31
0.0
  0
LINE
  5
25FE2
330
1F
100
AcDbEntity
  8
AM_0
100
AcDbLine
 10
131.9999999999235
 20
-124.6634230850596
 30
0.0
 11
131.9999999999235
 21
-124.6059230850597
 31
0.0
  0
LINE
  5
25FE3
330
1F
100
AcDbEntity
  8
AM_0
100
AcDbLine
 10
131.9999999999235
 20
-139.4553241618178
 30
0.0
 11
131.9999999999235
 21
-139.3978241618179
 31
0.0
  0
LINE
  5
25FE4
330
1F
100
AcDbEntity
  8
AM_0
100
AcDbLine
 10
131.9999999999235
 20
-139.4553241618178
 30
0.0
 11
131.9999999999235
 21
-153.609124559769
 31
0.0
  0
LINE
  5
25FE5
330
1F
100
AcDbEntity
  8
AM_0
100
AcDbLine
 10
131.9999999999235
 20
-110.4521226871084
 30
0.0
 11
131.9999999999235
 21
-124.6059230850597
 31
0.0
  0
LINE
  5
25FE6
330
1F
100
AcDbEntity
  8
AM_0
100
AcDbLine
 10
125.9999999999235
 20
-123.9279554272623
 30
0.0
 11
125.9999999999235
 21
-140.1332918196154
 31
0.0
  0
LINE
  5
25FE7
330
1F
100
AcDbEntity
  8
AM_0
100
AcDbLine
 10
85.37749907468322
 20
-140.0306236234392
 30
0.0
 11
85.37749907468322
 21
-163.5306236234383
 31
0.0
  0
LINE
  5
25FE8
330
1F
100
AcDbEntity
  8
AM_0
100
AcDbLine
 10
83.87499999992349
 20
-140.0306236234382
 30
0.0
 11
83.87499999992349
 21
-160.9282188876304
 31
0.0
  0
LINE
  5
25FE9
330
1F
100
AcDbEntity
  8
AM_0
100
AcDbLine
 10
82.87499999992349
 20
-139.3790928517882
 30
0.0
 11
82.87499999992349
 21
-159.5306236234382
 31
0.0
  0
LINE
  5
25FEA
330
1F
100
AcDbEntity
  8
AM_0
100
AcDbLine
 10
78.62250092516467
 20
-140.0306236234382
 30
0.0
 11
78.62250092516467
 21
-163.5306236234382
 31
0.0
  0
LINE
  5
25FEB
330
1F
100
AcDbEntity
  8
AM_0
100
AcDbLine
 10
78.62250092516467
 20
-111.2296091624758
 30
0.0
 11
78.62250092516467
 21
-124.0306236234383
 31
0.0
  0
LINE
  5
25FEC
330
1F
100
AcDbEntity
  8
AM_0
100
AcDbLine
 10
78.62250092516467
 20
-100.5306236234383
 30
0.0
 11
78.62250092516467
 21
-107.6944365761628
 31
0.0
  0
LINE
  5
25FED
330
1F
100
AcDbEntity
  8
AM_0
100
AcDbLine
 10
81.12499999992349
 20
-139.3790928517882
 30
0.0
 11
81.12499999992349
 21
-159.5306236234382
 31
0.0
  0
LINE
  5
25FEE
330
1F
100
AcDbEntity
  8
AM_0
100
AcDbLine
 10
80.12499999992349
 20
-140.0306236234382
 30
0.0
 11
80.12499999992349
 21
-160.9282188876304
 31
0.0
  0
LINE
  5
25FEF
330
1F
100
AcDbEntity
  8
AM_0
100
AcDbLine
 10
80.12499999992349
 20
-103.133028359247
 30
0.0
 11
80.12499999992349
 21
-111.1722676946256
 31
0.0
  0
LINE
  5
25FF0
330
1F
100
AcDbEntity
  8
AM_0
100
AcDbLine
 10
85.37749907468322
 20
-112.0306236234383
 30
0.0
 11
85.37749907468322
 21
-124.0306236234383
 31
0.0
  0
LINE
  5
25FF1
330
1F
100
AcDbEntity
  8
AM_0
100
AcDbLine
 10
83.87499999992349
 20
-112.0306236234383
 30
0.0
 11
83.87499999992349
 21
-124.0306236234383
 31
0.0
  0
LINE
  5
25FF2
330
1F
100
AcDbEntity
  8
AM_0
100
AcDbLine
 10
83.87499999992349
 20
-103.133028359247
 30
0.0
 11
83.87499999992349
 21
-111.1722676946256
 31
0.0
  0
LINE
  5
25FF3
330
1F
100
AcDbEntity
  8
AM_0
100
AcDbLine
 10
85.37749907468322
 20
-100.5306236234383
 30
0.0
 11
85.37749907468322
 21
-107.6944365761628
 31
0.0
  0
LINE
  5
25FF4
330
1F
100
AcDbEntity
  8
AM_0
100
AcDbLine
 10
80.12499999992349
 20
-111.7800086225871
 30
0.0
 11
80.12499999992349
 21
-124.0306236234383
 31
0.0
  0
LINE
  5
25FF5
330
1F
100
AcDbEntity
  8
AM_0
100
AcDbLine
 10
99.99999999992349
 20
-100.5306236234383
 30
0.0
 11
99.99999999992349
 21
-163.5306236234383
 31
0.0
  0
ARC
  5
25FF6
330
1F
100
AcDbEntity
  8
AM_0
100
AcDbCircle
 10
130.7999999999236
 20
-153.609124559769
 30
0.0
 40
1.2
100
AcDbArc
 50
272.8624052261126
 51
0.0
  0
ARC
  5
25FF7
330
1F
100
AcDbEntity
  8
AM_0
100
AcDbCircle
 10
130.7999999999236
 20
-110.4521226871084
 30
0.0
 40
1.2
100
AcDbArc
 50
0.0
 51
87.13759477388736
  0
ARC
  5
25FF8
330
1F
100
AcDbEntity
  8
AM_0
100
AcDbCircle
 10
82.87499999992343
 20
-160.5306236234382
 30
0.0
 40
1.0
100
AcDbArc
 50
0.0
 51
90.0
  0
ARC
  5
25FF9
330
1F
100
AcDbEntity
  8
AM_0
100
AcDbCircle
 10
82.87499999992343
 20
-103.5306236234382
 30
0.0
 40
1.0
100
AcDbArc
 50
270.0
 51
0.0
  0
ARC
  5
25FFA
330
1F
100
AcDbEntity
  8
AM_0
100
AcDbCircle
 10
81.12499999992343
 20
-160.5306236234382
 30
0.0
 40
1.0
100
AcDbArc
 50
90.0
 51
180.0
  0
ARC
  5
25FFB
330
1F
100
AcDbEntity
  8
AM_0
100
AcDbCircle
 10
81.12499999992343
 20
-103.5306236234382
 30
0.0
 40
1.0
100
AcDbArc
 50
180.0
 51
270.0
  0
DIMENSION
  5
260B4
330
1F
100
AcDbEntity
  8
AM_5
100
AcDbDimension
  2
*D4
 10
99.99999999992349
 20
-67.7303537818334
 30
0.0
 11
49.99999999996163
 21
-64.3303537818334
 31
0.0
 70
    32
  1
<>
 71
     5
 42
99.99999999992372
  3
AM_JIS$0
100
AcDbAlignedDimension
 13
-0.0000000000002274
 23
-6.331786404189302
 33
0.0
 14
99.99999999992349
 24
-31.5
 34
0.0
100
AcDbRotatedDimension
1001
ACAD
1000
DSTYLE
1002
{
1070
   179
1070
     0
1070
   271
1070
     0
1070
   272
1070
     2
1002
}
  0
ARC
  5
260BC
330
1F
100
AcDbEntity
  8
AM_0
100
AcDbCircle
 10
127.4999999999234
 20
-127.3181236234386
 30
0.0
 40
1.5
100
AcDbArc
 50
90.0
 51
180.0
1001
GENIUS_GENOBJ-N-FIL_13
1002
{
1000
OWNER
1000
GEN
1002
}
1001
GENIUS_GENODEF_13
1002
{
1000
HIER
1070
     0
1002
}
1002
{
1000
MANEDIT
1070
     0
1002
}
1002
{
1000
NOSEL
1070
     0
1002
}
1002
{
1000
BEHIND
1070
     0
1002
}
1002
{
1000
OTHER
1070
     0
1002
}
1002
{
1000
REACTOR
1002
}
  0
ARC
  5
260BD
330
1F
100
AcDbEntity
  8
AM_0
100
AcDbCircle
 10
127.4999999999234
 20
-136.7431236234388
 30
0.0
 40
1.5
100
AcDbArc
 50
180.0
 51
270.0
1001
GENIUS_GENODEF_13
1002
{
1000
HIER
1070
     0
1002
}
1002
{
1000
MANEDIT
1070
     0
1002
}
1002
{
1000
NOSEL
1070
     0
1002
}
1002
{
1000
BEHIND
1070
     0
1002
}
1002
{
1000
OTHER
1070
     0
1002
}
1002
{
1000
REACTOR
1002
}
1001
GENIUS_GENOBJ-N-FIL_13
1002
{
1000
OWNER
1000
GEN
1002
}
  0
ARC
  5
260BE
330
1F
100
AcDbEntity
  8
AM_0
100
AcDbCircle
 10
127.4999999999234
 20
-140.1332918196154
 30
0.0
 40
1.5
100
AcDbArc
 50
180.0
 51
280.7630026735891
1001
GENIUS_GENOBJ-N-FIL_13
1002
{
1000
OWNER
1000
GEN
1002
}
1001
GENIUS_GENODEF_13
1002
{
1000
HIER
1070
     0
1002
}
1002
{
1000
MANEDIT
1070
     0
1002
}
1002
{
1000
NOSEL
1070
     0
1002
}
1002
{
1000
BEHIND
1070
     0
1002
}
1002
{
1000
OTHER
1070
     0
1002
}
1002
{
1000
REACTOR
1002
}
  0
ARC
  5
260BF
330
1F
100
AcDbEntity
  8
AM_0
100
AcDbCircle
 10
127.4999999999234
 20
-123.9279554272623
 30
0.0
 40
1.5
100
AcDbArc
 50
79.23699732641728
 51
180.0
1001
GENIUS_GENOBJ-N-FIL_13
1002
{
1000
OWNER
1000
GEN
1002
}
1001
GENIUS_GENODEF_13
1002
{
1000
HIER
1070
     0
1002
}
1002
{
1000
MANEDIT
1070
     0
1002
}
1002
{
1000
NOSEL
1070
     0
1002
}
1002
{
1000
BEHIND
1070
     0
1002
}
1002
{
1000
OTHER
1070
     0
1002
}
1002
{
1000
REACTOR
1002
}
  0
ARC
  5
260C4
330
1F
100
AcDbEntity
  8
AM_11
  6
ACJISTGB
100
AcDbCircle
 10
130.7999999999237
 20
21.57850093632987
 30
0.0
 40
1.2
100
AcDbArc
 50
0.0
 51
87.13759477388736
  0
ARC
  5
260C5
330
1F
100
AcDbEntity
  8
AM_11
  6
ACJISTGB
100
AcDbCircle
 10
130.7999999999236
 20
-21.57850093633078
 30
0.0
 40
1.2
100
AcDbArc
 50
272.8624052261126
 51
0.0
  0
LINE
  5
260C6
330
1F
100
AcDbEntity
  8
AM_11
  6
ACJISTGB
100
AcDbLine
 10
131.9999999999235
 20
-20.2609359254368
 30
0.0
 11
131.9999999999235
 21
-21.57850093633078
 31
0.0
  0
LINE
  5
260C7
330
1F
100
AcDbEntity
  8
AM_0
100
AcDbLine
 10
125.9999999999235
 20
-23.01999999999953
 30
0.0
 11
113.4999999999235
 21
-23.64499999999953
 31
0.0
  0
LINE
  5
260C8
330
1F
100
AcDbEntity
  8
AM_0
100
AcDbLine
 10
131.9999999999236
 20
20.28895312868858
 30
0.0
 11
131.9999999999235
 21
-20.2609359254368
 31
0.0
  0
LINE
  5
260C9
330
1F
100
AcDbEntity
  8
AM_0
100
AcDbLine
 10
121.9999999999236
 20
23.22000000000028
 30
0.0
 11
113.4999999999236
 21
23.64500000000044
 31
0.0
  0
DIMENSION
  5
260D0
330
1F
100
AcDbEntity
  8
AM_5
100
AcDbDimension
  2
*D5
 10
156.1956747114996
 20
-31.50000000000002
 30
0.0
 11
152.7956747114996
 21
0.0000000000000086
 31
0.0
 70
    32
  1
%%c<>
 71
     5
 42
63.0
  3
AM_JIS$0
100
AcDbAlignedDimension
 13
99.99999999992355
 23
31.5
 33
0.0
 14
99.99999999992349
 24
-31.5
 34
0.0
 50
90.0
100
AcDbRotatedDimension
1001
ACAD
1000
DSTYLE
1002
{
1070
   179
1070
     0
1070
   271
1070
     0
1070
   272
1070
     2
1002
}
  0
LINE
  5
26215
330
1F
100
AcDbEntity
  8
AM_7
100
AcDbLine
 10
135.0013493436153
 20
0.0
 30
0.0
 11
-1.986927475789003
 21
0.0
 31
0.0
1001
GENIUS_GENODEF_13
1002
{
1000
HIER
1070
     0
1002
}
1002
{
1000
MANEDIT
1070
     0
1002
}
1002
{
1000
NOSEL
1070
     0
1002
}
1002
{
1000
BEHIND
1070
     0
1002
}
1002
{
1000
OTHER
1070
     0
1002
}
1002
{
1000
REACTOR
1002
}
1001
GENIUS_GENOBJ-N-CEN_13
1002
{
1000
OWNER
1000
GEN
1002
}
  0
LINE
  5
2621A
330
1F
100
AcDbEntity
  8
AM_7
100
AcDbLine
 10
139.4704181304422
 20
-132.0306236234383
 30
0.0
 11
-2.403837257410601
 21
-132.0306236234382
 31
0.0
1001
GENIUS_GENODEF_13
1002
{
1000
HIER
1070
     0
1002
}
1002
{
1000
MANEDIT
1070
     0
1002
}
1002
{
1000
NOSEL
1070
     0
1002
}
1002
{
1000
BEHIND
1070
     0
1002
}
1002
{
1000
OTHER
1070
     0
1002
}
1002
{
1000
REACTOR
1002
}
1001
GENIUS_GENOBJ-N-CEN_13
1002
{
1000
OWNER
1000
GEN
1002
}
  0
DIMENSION
  5
300DE
330
1F
100
AcDbEntity
  8
AM_5
100
AcDbDimension
  2
*D6
 10
13.60334182616691
 20
-4.881269266438494
 30
0.0
 11
16.49398805135154
 21
-23.08711338188359
 31
0.0
 70
    34
 71
     5
 42
1.265363707695897
  3
AM_JIS$2
100
AcDb2LineAngularDimension
 13
-0.0000000000002274
 23
-6.331786404189302
 33
0.0
 14
-0.0000000000002274
 24
-0.0000000000001137
 34
0.0
 15
0.5494269557378857
 25
-0.7653857176629799
 35
0.0
 16
12.81167393897856
 26
-29.14383342822677
 36
0.0
1001
ACAD
1000
DSTYLE
1002
{
1070
   179
1070
     1
1070
   271
1070
     0
1002
}
  0
ARC
  5
30C27
330
1F
100
AcDbEntity
  8
AM_0
100
AcDbCircle
 10
73.3928701787234
 20
-34.43034531717808
 30
0.0
 40
4.521335507167465
100
AcDbArc
 50
82.28294962581721
 51
121.9540977775002
  0
SPLINE
  5
30C28
330
1F
100
AcDbEntity
  8
AM_0
100
AcDbSpline
210
0.0
220
0.0
230
1.0
 70
     8
 71
     3
 72
    22
 73
    18
 74
     0
 42
0.0000000001
 43
0.0000000001
 40
9.135131403655869
 40
9.135131403655869
 40
9.135131403655869
 40
9.135131403655869
 40
9.700515220472013
 40
9.700515220472013
 40
10.26589903728816
 40
10.26589903728816
 40
10.8312828541043
 40
10.8312828541043
 40
11.39666667092044
 40
11.39666667092044
 40
11.97803453432145
 40
11.97803453432145
 40
12.55940239772245
 40
12.55940239772245
 40
13.14077026112346
 40
13.14077026112346
 40
13.72213812452446
 40
13.72213812452446
 40
13.72213812452446
 40
13.72213812452446
 10
73.99999999992332
 20
29.66479394838302
 30
0.0
 10
73.81153872765134
 20
29.66479394838302
 30
0.0
 10
73.6169570184324
 20
29.67029013172635
 30
0.0
 10
73.23057020141499
 20
29.6930785779914
 30
0.0
 10
73.03876096798848
 20
29.71036092892484
 30
0.0
 10
72.67153005150107
 20
29.75509692905609
 30
0.0
 10
72.49579431127216
 20
29.78257232032138
 30
0.0
 10
72.17123466741299
 20
29.84434987081522
 30
0.0
 10
72.02241492489856
 20
29.87863437725332
 30
0.0
 10
71.75542427737349
 20
29.9504055555484
 30
0.0
 10
71.62872310055622
 20
29.99052406548276
 30
0.0
 10
71.40556155651296
 20
30.07471192398839
 30
0.0
 10
71.30908258788071
 20
30.11876098466712
 30
0.0
 10
71.15405659528727
 20
30.20685629907689
 30
0.0
 10
71.09539647793321
 20
30.25095591149454
 30
0.0
 10
71.01835714477301
 20
30.33568204620394
 30
0.0
 10
70.99999999992332
 20
30.37630504740105
 30
0.0
 10
70.99999999992332
 20
30.41381265149141
 30
0.0
  0
LINE
  5
30C62
330
1F
100
AcDbEntity
  8
AM_0
100
AcDbLine
 10
70.99999999992326
 20
-30.59411708155631
 30
0.0
 11
70.99999999992326
 21
-30.99999999999966
 31
0.0
  0
LINE
  5
30C63
330
1F
100
AcDbEntity
  8
AM_0
100
AcDbLine
 10
70.99999999992332
 20
31.00000000000034
 30
0.0
 11
70.99999999992332
 21
30.41381265149141
 31
0.0
  0
LINE
  5
31DF3
330
1F
100
AcDbEntity
  8
AM_7
100
AcDbLine
 10
-125.0375695190254
 20
0.0000000000000568
 30
0.0
 11
-48.62820672299893
 21
0.0
 31
0.0
1001
GENIUS_GENODEF_13
1002
{
1000
HIER
1070
     0
1002
}
1002
{
1000
MANEDIT
1070
     0
1002
}
1002
{
1000
NOSEL
1070
     0
1002
}
1002
{
1000
BEHIND
1070
     0
1002
}
1002
{
1000
OTHER
1070
     0
1002
}
1002
{
1000
REACTOR
1002
}
1001
GENIUS_GENOBJ-N-CEN_13
1002
{
1000
OWNER
1000
GEN
1002
}
1001
GENIUS_GENCEN_19
1002
{
1040
2.794
1002
}
  0
LINE
  5
31DF4
330
1F
100
AcDbEntity
  8
AM_7
100
AcDbLine
 10
-86.95811964036591
 20
39.83595014969583
 30
0.0
 11
-86.95811964036591
 21
-47.43746503456117
 31
0.0
1001
GENIUS_GENOBJ-N-CEN_13
1002
{
1000
OWNER
1000
GEN
1002
}
1001
GENIUS_GENODEF_13
1002
{
1000
HIER
1070
     0
1002
}
1002
{
1000
MANEDIT
1070
     0
1002
}
1002
{
1000
NOSEL
1070
     0
1002
}
1002
{
1000
BEHIND
1070
     0
1002
}
1002
{
1000
OTHER
1070
     0
1002
}
1002
{
1000
REACTOR
1002
}
1001
GENIUS_GENCEN_19
1002
{
1040
2.794
1002
}
  0
LINE
  5
31DFF
330
1F
100
AcDbEntity
  8
AM_5
100
AcDbLine
 10
-0.0000000000002274
 20
-6.331786404189302
 30
0.0
 11
-0.0000000000002274
 21
-0.0000000000001137
 31
0.0
  0
CIRCLE
  5
31E0B
330
1F
100
AcDbEntity
  8
AM_0
100
AcDbCircle
 10
-0.0000000000002842
 20
-0.0000000000001137
 30
0.0
 40
0.3
  0
LINE
  5
31EF2
330
1F
100
AcDbEntity
  8
AM_5
100
AcDbLine
 10
59.99999999992343
 20
-19.30037357162433
 30
0.0
 11
57.24685630811524
 21
-18.43231069998757
 31
0.0
  0
LINE
  5
31EF3
330
1F
100
AcDbEntity
  8
AM_5
100
AcDbLine
 10
59.99999999992343
 20
-19.30037357162433
 30
0.0
 11
60.62480734560847
 21
-22.11869737895603
 31
0.0
  0
CIRCLE
  5
32002
330
1F
100
AcDbEntity
  8
AM_0
100
AcDbCircle
 10
68.99999999992343
 20
0.0
 30
0.0
 40
3.499999999999981
  0
CIRCLE
  5
32003
330
1F
100
AcDbEntity
  8
AM_0
100
AcDbCircle
 10
68.99999999992343
 20
0.0
 30
0.0
 40
3.0
  0
LINE
  5
32004
330
1F
100
AcDbEntity
  8
AM_0
100
AcDbLine
 10
68.13397459613918
 20
1.5
 30
0.0
 11
69.86602540370802
 21
1.5
 31
0.0
  0
LINE
  5
32005
330
1F
100
AcDbEntity
  8
AM_0
100
AcDbLine
 10
69.86602540370802
 20
1.5
 30
0.0
 11
70.73205080749233
 21
0.0
 31
0.0
  0
LINE
  5
32006
330
1F
100
AcDbEntity
  8
AM_0
100
AcDbLine
 10
70.73205080749233
 20
0.0
 30
0.0
 11
69.86602540370802
 21
-1.5
 31
0.0
  0
LINE
  5
32007
330
1F
100
AcDbEntity
  8
AM_0
100
AcDbLine
 10
69.8660254037078
 20
-1.5
 30
0.0
 11
68.13397459613896
 21
-1.5
 31
0.0
  0
LINE
  5
32008
330
1F
100
AcDbEntity
  8
AM_0
100
AcDbLine
 10
68.13397459613896
 20
-1.5
 30
0.0
 11
67.26794919235442
 21
0.0
 31
0.0
  0
LINE
  5
32009
330
1F
100
AcDbEntity
  8
AM_0
100
AcDbLine
 10
67.26794919235465
 20
0.0
 30
0.0
 11
68.13397459613896
 21
1.5
 31
0.0
  0
LINE
  5
3203D
330
1F
100
AcDbEntity
  8
AM_0
100
AcDbLine
 10
42.99999999992349
 20
-108.694610946574
 30
0.0
 11
42.99999999992349
 21
-108.7854603822613
 31
0.0
  0
LINE
  5
3218B
330
1F
100
AcDbEntity
  8
AM_7
  6
AM_ISO08W050x2
100
AcDbLine
 10
-68.95811964036591
 20
-7.794000000000011
 30
0.0
 11
-68.95811964036591
 21
8.429874996895848
 31
0.0
1001
GENIUS_GENODEF_13
1002
{
1000
HIER
1070
     0
1002
}
1002
{
1000
MANEDIT
1070
     0
1002
}
1002
{
1000
NOSEL
1070
     0
1002
}
1002
{
1000
BEHIND
1070
     0
1002
}
1002
{
1000
OTHER
1070
     0
1002
}
1002
{
1000
REACTOR
1002
}
1001
GENIUS_GENOBJ-N-CEN_13
1002
{
1000
OWNER
1000
GEN
1002
}
1001
GENIUS_GENCEN_19
1002
{
1040
2.794
1002
}
  0
LINE
  5
33666
330
1F
100
AcDbEntity
  8
AM_0
100
AcDbLine
 10
23.34468357720664
 20
-2.601381297046032
 30
0.0
 11
25.67264105409925
 21
-2.582812619085075
 31
0.0
  0
LINE
  5
33667
330
1F
100
AcDbEntity
  8
AM_0
100
AcDbLine
 10
27.21592110738277
 20
-2.881147444991939
 30
0.0
 11
27.5172739913686
 21
-2.878743739292418
 31
0.0
  0
LINE
  5
33668
330
1F
100
AcDbEntity
  8
AM_0
100
AcDbLine
 10
31.87325624500829
 20
1.25418762047002
 30
0.0
 11
34.0817985672453
 21
1.898420276773095
 31
0.0
  0
LINE
  5
33669
330
1F
100
AcDbEntity
  8
AM_0
100
AcDbLine
 10
22.11355929177478
 20
-2.026079077284408
 30
0.0
 11
24.44151676866738
 21
-2.007510399323451
 31
0.0
  0
LINE
  5
3366A
330
1F
100
AcDbEntity
  8
AM_0
100
AcDbLine
 10
25.67264105409925
 20
-2.582812619085075
 30
0.0
 11
28.04436553154017
 21
-2.754212130448309
 31
0.0
  0
LINE
  5
3366B
330
1F
100
AcDbEntity
  8
AM_0
100
AcDbLine
 10
31.14188831840301
 20
11.21690967709503
 30
0.0
 11
28.96048076357954
 21
10.48666927865486
 31
0.0
  0
LINE
  5
3366C
330
1F
100
AcDbEntity
  8
AM_0
100
AcDbLine
 10
62.59374473401078
 20
-31.0
 30
0.0
 11
60.62480734677581
 21
-22.11869738422149
 31
0.0
  0
ARC
  5
3366D
330
1F
100
AcDbEntity
  8
AM_0
100
AcDbCircle
 10
55.74294769355453
 20
-23.2012433093737
 30
0.0
 40
5.000445915497537
100
AcDbArc
 50
12.50294984626937
 51
72.49705015374808
  0
LINE
  5
3366E
330
1F
100
AcDbEntity
  8
AM_0
100
AcDbLine
 10
57.24685630869692
 20
-18.432310700171
 30
0.0
 11
44.32073841374324
 21
-14.35672138298605
 31
0.0
  0
LINE
  5
3366F
330
1F
100
AcDbEntity
  8
AM_0
100
AcDbLine
 10
43.88425391517234
 20
15.48249962147747
 30
0.0
 11
57.31790525014952
 21
19.97950197285786
 31
0.0
  0
ARC
  5
33670
330
1F
100
AcDbEntity
  8
AM_0
100
AcDbCircle
 10
55.73049998835944
 20
24.72106544393739
 30
0.0
 40
5.00022795634699
100
AcDbArc
 50
288.5097832912609
 51
347.498522423593
  0
LINE
  5
33671
330
1F
100
AcDbEntity
  8
AM_0
100
AcDbLine
 10
60.61217466559054
 20
23.63869214367833
 30
0.0
 11
62.24413732740862
 21
31.0
 31
0.0
  0
LINE
  5
33672
330
1F
100
AcDbEntity
  8
AM_0
100
AcDbLine
 10
33.71815658244367
 20
12.07933227183753
 30
0.0
 11
32.86009973935205
 21
11.79209215038566
 31
0.0
  0
LINE
  5
33673
330
1F
100
AcDbEntity
  8
AM_0
100
AcDbLine
 10
35.78695476708265
 20
2.514983244451628
 30
0.0
 11
36.64517984068118
 21
2.852453101097126
 31
0.0
  0
LINE
  5
33674
330
1F
100
AcDbEntity
  8
AM_0
100
AcDbLine
 10
32.86009973935205
 20
11.79209215038554
 30
0.0
 11
35.78695476708288
 21
2.514983244451059
 31
0.0
  0
SPLINE
  5
33675
330
1F
100
AcDbEntity
  8
AM_0
100
AcDbSpline
210
0.0
220
0.0
230
1.0
 70
     8
 71
     3
 72
    25
 73
    21
 74
     0
 42
0.0000000001
 43
0.0000000001
 40
-0.3032928087601946
 40
-0.3032928087601946
 40
-0.3032928087601946
 40
-0.3032928087601946
 40
0.0
 40
0.0
 40
0.0
 40
0.377573817671387
 40
0.377573817671387
 40
0.7551476353427741
 40
0.7551476353427741
 40
1.145530205569047
 40
1.145530205569047
 40
1.53591277579532
 40
1.53591277579532
 40
1.933567728923267
 40
1.933567728923267
 40
2.331222682051215
 40
2.331222682051215
 40
2.704709957822045
 40
2.704709957822045
 40
2.772845432510606
 40
2.772845432510606
 40
2.772845432510606
 40
2.772845432510606
 10
35.78695476708288
 20
2.514983244451173
 30
0.0
 10
35.81908578877221
 20
2.413139120076494
 30
0.0
 10
35.83535495420881
 20
2.306581329094115
 30
0.0
 10
35.83682775042428
 20
2.205678273678814
 30
0.0
 10
35.83866125677048
 20
2.080062529594329
 30
0.0
 10
35.8173758500069
 20
1.946534142752284
 30
0.0
 10
35.72773001224721
 20
1.701689950872947
 30
0.0
 10
35.65941159276133
 20
1.59037657612032
 30
0.0
 10
35.49996651145523
 20
1.411997108598598
 30
0.0
 10
35.39711206186678
 20
1.334119966129265
 30
0.0
 10
35.17282410110477
 20
1.231435112375493
 30
0.0
 10
35.05146905638196
 20
1.206608282438992
 30
0.0
 10
34.82361068813555
 20
1.206868852956063
 30
0.0
 10
34.70149229652827
 20
1.232849763570926
 30
0.0
 10
34.4777460746792
 20
1.338370065932281
 30
0.0
 10
34.37611890966502
 20
1.4177982850224
 30
0.0
 10
34.21931449728925
 20
1.598309362982718
 30
0.0
 10
34.15203117340809
 20
1.709304226931749
 30
0.0
 10
34.09684928610398
 20
1.853115653560735
 30
0.0
 10
34.08898211311623
 20
1.875650943565688
 30
0.0
 10
34.0817985672453
 20
1.89842027677264
 30
0.0
  0
LINE
  5
33676
330
1F
100
AcDbEntity
  8
AM_0
100
AcDbLine
 10
31.44972488934758
 20
11.31995997584534
 30
0.0
 11
32.86009973935205
 21
11.79209215038554
 31
0.0
  0
LINE
  5
33677
330
1F
100
AcDbEntity
  8
AM_0
100
AcDbLine
 10
34.31020482403903
 20
2.253236948587414
 30
0.0
 11
34.42129236707262
 21
1.901128208984233
 31
0.0
  0
LINE
  5
33678
330
1F
100
AcDbEntity
  8
AM_0
100
AcDbLine
 10
34.0817985672453
 20
1.89842027677264
 30
0.0
 11
34.42129236707285
 21
1.901128208984233
 31
0.0
  0
LINE
  5
33679
330
1F
100
AcDbEntity
  8
AM_0
100
AcDbLine
 10
34.0817985672453
 20
1.89842027677264
 30
0.0
 11
34.00678146801931
 21
2.136198298824979
 31
0.0
  0
LINE
  5
3367A
330
1F
100
AcDbEntity
  8
AM_0
100
AcDbLine
 10
31.44972488934735
 20
11.31995997584545
 30
0.0
 11
31.62369695699198
 21
10.76852924120476
 31
0.0
  0
LINE
  5
3367B
330
1F
100
AcDbEntity
  8
AM_0
100
AcDbLine
 10
31.28420315716534
 20
10.76582130899317
 30
0.0
 11
31.14188831840301
 21
11.21690967709492
 31
0.0
  0
LINE
  5
3367C
330
1F
100
AcDbEntity
  8
AM_0
100
AcDbLine
 10
31.14188831840301
 20
11.21690967709492
 30
0.0
 11
31.44972488934758
 21
11.31995997584534
 31
0.0
  0
LINE
  5
3367D
330
1F
100
AcDbEntity
  8
AM_0
100
AcDbLine
 10
14.57004552829005
 20
-4.976363947894015
 30
0.0
 11
36.46232565444836
 21
-11.8789733574697
 31
0.0
  0
LINE
  5
3367E
330
1F
100
AcDbEntity
  8
AM_0
100
AcDbLine
 10
14.70987124251576
 20
-4.504511912578892
 30
0.0
 11
14.57004552828983
 21
-4.976363947894015
 31
0.0
  0
LINE
  5
3367F
330
1F
100
AcDbEntity
  8
AM_0
100
AcDbLine
 10
22.11355929177955
 20
-2.026079077289182
 30
0.0
 11
14.70987124251599
 21
-4.504511912579005
 31
0.0
  0
LINE
  5
33680
330
1F
100
AcDbEntity
  8
AM_0
100
AcDbLine
 10
27.215921107383
 20
-2.88114744499228
 30
0.0
 11
23.34468357720687
 21
-2.601381297046032
 31
0.0
  0
LINE
  5
33681
330
1F
100
AcDbEntity
  8
AM_0
100
AcDbLine
 10
14.15683864422169
 20
5.494224053318476
 30
0.0
 11
14.23732202454391
 21
5.2391198280352
 31
0.0
  0
LINE
  5
33682
330
1F
100
AcDbEntity
  8
AM_0
100
AcDbLine
 10
28.96048076357954
 20
10.48666927865486
 30
0.0
 11
23.14743396754682
 21
8.540713971449577
 31
0.0
  0
LINE
  5
33683
330
1F
100
AcDbEntity
  8
AM_0
100
AcDbLine
 10
22.04510432769723
 20
8.171701938995511
 30
0.0
 11
14.22719116308315
 21
5.554604546224937
 31
0.0
  0
LINE
  5
33684
330
1F
100
AcDbEntity
  8
AM_0
100
AcDbLine
 10
28.97057617651205
 20
10.454670343163
 30
0.0
 11
28.96048076357954
 21
10.48666927865486
 31
0.0
  0
LINE
  5
33685
330
1F
100
AcDbEntity
  8
AM_0
100
AcDbLine
 10
31.87325624500829
 20
1.25418762047002
 30
0.0
 11
31.79629529978058
 21
1.498126955904809
 31
0.0
  0
LINE
  5
33686
330
1F
100
AcDbEntity
  8
AM_0
100
AcDbLine
 10
33.71815658244367
 20
12.07933227183753
 30
0.0
 11
36.3249034524116
 21
3.816854501743705
 31
0.0
  0
LINE
  5
33687
330
1F
100
AcDbEntity
  8
AM_0
100
AcDbLine
 10
36.24515631110847
 20
12.925261903207
 30
0.0
 11
33.71815658244367
 21
12.07933227183753
 31
0.0
  0
LINE
  5
33688
330
1F
100
AcDbEntity
  8
AM_0
100
AcDbLine
 10
36.46232565444836
 20
-11.8789733574697
 30
0.0
 11
40.06703169422201
 21
-13.01553280607493
 31
0.0
  0
ARC
  5
3368A
330
1F
100
AcDbEntity
  8
AM_0
100
AcDbCircle
 10
34.30033200943655
 20
2.042807209756575
 30
0.0
 40
2.480693012256273
100
AcDbArc
 50
325.8234909105761
 51
19.04913702110671
  0
ELLIPSE
  5
3368B
330
1F
100
AcDbEntity
  8
AM_0
100
AcDbEllipse
 10
34.86028379880321
 20
32.60583627600795
 30
0.0
 11
3.731578540903279
 21
-32.84417307555633
 31
5.895383546681235E-17
210
-2.013343444420918E-19
220
1.772081166837523E-18
230
1.0
 40
0.1102601387363943
 41
5.76832985573363
 42
5.833183767955214
  0
LINE
  5
3368D
330
1F
100
AcDbEntity
  8
AM_0
100
AcDbLine
 10
39.8294062986069
 20
14.12511295038644
 30
0.0
 11
36.24515631110847
 21
12.925261903207
 31
0.0
  0
LINE
  5
3368F
330
1F
100
AcDbEntity
  8
AM_0
100
AcDbLine
 10
43.88425391517234
 20
15.48249962147747
 30
0.0
 11
39.8294062986069
 21
14.12511295038632
 31
0.0
  0
ELLIPSE
  5
33690
330
1F
100
AcDbEntity
  8
AM_0
100
AcDbEllipse
 10
36.33497935739013
 20
0.0
 30
0.0
 11
0.2937294866522162
 21
-30.99988610824241
 31
8.312254859539766E-17
210
-2.540429875956635E-20
220
2.681141676248455E-18
230
1.0
 40
0.2860843146547633
 41
1.08657333858558
 42
2.091032670181979
  0
LINE
  5
33691
330
1F
100
AcDbEntity
  8
AM_0
100
AcDbLine
 10
40.06703169422178
 20
-13.01553280607493
 30
0.0
 11
44.32073841374324
 21
-14.35672138298605
 31
0.0
  0
ELLIPSE
  5
33693
330
1F
100
AcDbEntity
  8
AM_0
100
AcDbEllipse
 10
41.48492149862466
 20
0.0
 30
0.0
 11
-0.05211329601894203
 21
5.499979793397868
 31
5.834012103274756E-18
210
1.004973687477412E-20
220
-1.060638147319116E-18
230
0.9999999999999999
 40
0.2860843146547633
 41
1.799142716190982
 42
4.404076421728849
  0
ARC
  5
33694
330
1F
100
AcDbEntity
  8
AM_0
100
AcDbCircle
 10
57.86257446336396
 20
0.1557610812808434
 30
0.0
 40
17.95433961965112
100
AcDbArc
 50
176.4820819486111
 51
184.5211796925341
  0
ELLIPSE
  5
33695
330
1F
100
AcDbEntity
  8
AM_0
100
AcDbEllipse
 10
41.48492149862466
 20
0.0
 30
0.0
 11
-0.05211329601894203
 21
5.499979793397868
 31
5.834012103274756E-18
210
1.004973687477412E-20
220
-1.060638147319116E-18
230
0.9999999999999999
 40
0.2860843146547633
 41
4.954485275260905
 42
7.620603265404741
  0
LINE
  5
33696
330
1F
100
AcDbEntity
  8
AM_0
100
AcDbLine
 10
42.99999999992349
 20
1.333029899268809
 30
0.0
 11
42.99999999992349
 21
-1.65476964360812
 31
0.0
  0
LINE
  5
3369A
330
1F
100
AcDbEntity
  8
AM_0
100
AcDbLine
 10
70.99999999992332
 20
31.0
 30
0.0
 11
62.24413732740862
 21
31.0
 31
0.0
  0
LINE
  5
3369B
330
1F
100
AcDbEntity
  8
AM_0
100
AcDbLine
 10
70.99999999992326
 20
-31.0
 30
0.0
 11
62.59374473401078
 21
-31.0
 31
0.0
  0
ELLIPSE
  5
3369E
330
1F
100
AcDbEntity
  8
AM_0
100
AcDbEllipse
 10
25.80741341542978
 20
-0.5877141852928389
 30
0.0
 11
0.01595225641267293
 21
-1.999936380366971
 31
0.0
210
0.0
220
0.0
230
1.0
 40
0.970150584708026
 41
5.494006255741465
 42
6.205448352445877
  0
ELLIPSE
  5
3369F
330
1F
100
AcDbEntity
  8
AM_0
100
AcDbEllipse
 10
33.45725775136418
 20
6.573330556521455
 30
0.0
 11
0.0119641923096011
 21
-1.499952285275228
 31
7.395570986446985E-32
210
-3.932534823162580E-34
220
4.930223823127257E-32
230
1.0
 40
0.9701505847080213
 41
0.9411999305030916
 42
1.061963621034313
  0
ELLIPSE
  5
336A0
330
1F
100
AcDbEntity
  8
AM_0
100
AcDbEllipse
 10
35.343872908447
 20
2.209968059032576
 30
0.0
 11
0.007976128206298987
 21
-0.9999681901834865
 31
-4.930380657631326E-32
210
3.932534823112413E-34
220
-4.930223823127262E-32
230
1.0
 40
0.9701505847080217
 41
5.018624461091275
 42
6.064762591032768
  0
ELLIPSE
  5
336A1
330
1F
100
AcDbEntity
  8
AM_0
100
AcDbEllipse
 10
33.45725775136418
 20
6.573330556521455
 30
0.0
 11
0.0119641923096011
 21
-1.499952285275228
 31
7.395570986446985E-32
210
-3.932534823162580E-34
220
4.930223823127257E-32
230
1.0
 40
0.9701505847080213
 41
2.692099993968663
 42
2.812863684499879
  0
ELLIPSE
  5
336A2
330
1F
100
AcDbEntity
  8
AM_0
100
AcDbEllipse
 10
23.4794559385374
 20
-0.6062828632537958
 30
0.0
 11
-0.01595225641280992
 21
1.99993638036697
 31
0.0
210
0.0
220
0.0
230
1.0
 40
0.9701505847080231
 41
2.352413602151652
 42
3.06385569885606
  0
ELLIPSE
  5
336A3
330
1F
100
AcDbEntity
  8
AM_0
100
AcDbEllipse
 10
27.35069346870898
 20
-0.8860490112000434
 30
0.0
 11
-0.01595225641280783
 21
1.999936380366708
 31
9.860761315261351E-32
210
3.932534823164648E-34
220
-4.930223823127257E-32
230
1.0
 40
0.9701505847080231
 41
3.063855698858288
 42
5.491296287929812
  0
ELLIPSE
  5
336A4
330
1F
100
AcDbEntity
  8
AM_0
100
AcDbEllipse
 10
12.32929133236405
 20
7.829953181506198
 30
0.0
 11
-0.02392838461921489
 21
2.999904570550455
 31
0.0
210
0.0
220
0.0
230
1.0
 40
0.9701505847080233
 41
3.812254451697698
 42
3.843717832863876
  0
ELLIPSE
  5
336A5
330
1F
100
AcDbEntity
  8
AM_0
100
AcDbEllipse
 10
34.2520941544359
 20
2.050519117061754
 30
0.0
 11
-0.02056613520115442
 21
2.578378940756346
 31
1.271279404919513E-31
210
3.932534823164669E-34
220
-4.930223823127258E-32
230
1.0
 40
0.9701505847080231
 41
1.877031807502116
 42
4.130125510990634
  0
LINE
  5
336A7
330
1F
100
AcDbEntity
  8
AM_0
100
AcDbLine
 10
27.73715061585619
 20
-0.5270800647895158
 30
0.0
 11
28.77075642937587
 21
-0.5188356300521946
 31
0.0
  0
LINE
  5
336A8
330
1F
100
AcDbEntity
  8
AM_0
100
AcDbLine
 10
24.32084366654874
 20
-2.008472934079919
 30
0.0
 11
28.77075642937587
 21
-0.5188356300523083
 31
0.0
  0
ELLIPSE
  5
336A9
330
1F
100
AcDbEntity
  8
AM_0
100
AcDbEllipse
 10
28.53070171166507
 20
0.2420540411083039
 30
0.0
 11
0.006380902564988228
 21
-0.7999745521467894
 31
3.944304526105061E-32
210
-3.932534823081007E-34
220
4.930223823127266E-32
230
1.0
 40
0.970150584708027
 41
0.3062354807069162
 42
0.9703613506385022
  0
LINE
  5
336AA
330
1F
100
AcDbEntity
  8
AM_0
100
AcDbLine
 10
13.60334182616759
 20
-4.88126926643838
 30
0.0
 11
14.70778578125567
 21
-4.511549453175917
 31
0.0
  0
LINE
  5
336AB
330
1F
100
AcDbEntity
  8
AM_0
100
AcDbLine
 10
22.13295893741031
 20
-2.025924338303753
 30
0.0
 11
26.58317809988409
 21
-0.5361844649970635
 31
0.0
  0
LINE
  5
336AC
330
1F
100
AcDbEntity
  8
AM_0
100
AcDbLine
 10
26.58317809988387
 20
-0.5361844649971772
 30
0.0
 11
27.73745701550968
 21
-0.5269774955083904
 31
0.0
  0
LINE
  5
336AD
330
1F
100
AcDbEntity
  8
AM_0
100
AcDbLine
 10
23.28723785303612
 20
-2.016717368814966
 30
0.0
 11
27.73745701551013
 21
-0.5269774955082767
 31
0.0
  0
LINE
  5
336AE
330
1F
100
AcDbEntity
  8
AM_0
100
AcDbLine
 10
0.5494269557381131
 20
-0.7653857176629799
 30
0.0
 11
13.60334182616714
 21
-4.881269266438494
 31
0.0
  0
LINE
  5
336AF
330
1F
100
AcDbEntity
  8
AM_0
100
AcDbLine
 10
13.60334182616714
 20
-4.88126926643838
 30
0.0
 11
14.6005824475609
 21
-4.873314894362579
 31
0.0
  0
LINE
  5
336B0
330
1F
100
AcDbEntity
  8
AM_0
100
AcDbLine
 10
13.51590356632471
 20
5.105587693023608
 30
0.0
 11
0.5360672926079815
 21
0.760502891582405
 31
0.0
  0
LINE
  5
336B1
330
1F
100
AcDbEntity
  8
AM_0
100
AcDbLine
 10
13.87585933172079
 20
4.992094076144099
 30
0.0
 11
13.51590356632471
 21
5.105587693023495
 31
0.0
  0
LINE
  5
336B2
330
1F
100
AcDbEntity
  8
AM_0
100
AcDbLine
 10
13.51590356632471
 20
5.105587693023495
 30
0.0
 11
14.04270570325355
 21
5.109789668071016
 31
0.0
  0
ELLIPSE
  5
336B3
330
1F
100
AcDbEntity
  8
AM_0
100
AcDbEllipse
 10
26.34312338217308
 20
0.2247052061634349
 30
0.0
 11
0.006380902564988228
 21
-0.7999745521467894
 31
3.944304526105061E-32
210
-3.932534823081007E-34
220
4.930223823127266E-32
230
1.0
 40
0.970150584708027
 41
0.3062354807071997
 42
1.254448839677344
  0
ELLIPSE
  5
336B4
330
1F
100
AcDbEntity
  8
AM_0
100
AcDbEllipse
 10
27.49740229779889
 20
0.2339121756522218
 30
0.0
 11
0.006380902564988228
 21
-0.7999745521467894
 31
3.944304526105061E-32
210
-3.932534823081007E-34
220
4.930223823127266E-32
230
1.0
 40
0.970150584708027
 41
0.3062354807077774
 42
1.741860296621437
  0
ELLIPSE
  5
336B5
330
1F
100
AcDbEntity
  8
AM_0
100
AcDbEllipse
 10
0.7761220103187725
 20
-0.0003867795782071
 30
0.0
 11
0.006380902564988228
 21
-0.7999745521467894
 31
3.944304526105061E-32
210
-3.932534823081007E-34
220
4.930223823127266E-32
230
1.0
 40
0.970150584708027
 41
3.44782813429671
 42
5.978555549688583
  0
LINE
  5
336B6
330
1F
100
AcDbEntity
  8
AM_0
100
AcDbLine
 10
23.0829860685916
 20
6.627561059945379
 30
0.0
 11
25.18856850478267
 21
5.837297985888881
 31
0.0
  0
LINE
  5
336B7
330
1F
100
AcDbEntity
  8
AM_0
100
AcDbLine
 10
25.18856850478267
 20
5.837297985888768
 30
0.0
 11
25.57827937598506
 21
3.562911745462998
 31
0.0
  0
LINE
  5
336B8
330
1F
100
AcDbEntity
  8
AM_0
100
AcDbLine
 10
25.57827937598506
 20
3.562911745462998
 30
0.0
 11
23.86240781099639
 21
2.078788579093839
 31
0.0
  0
LINE
  5
336B9
330
1F
100
AcDbEntity
  8
AM_0
100
AcDbLine
 10
23.86240781099616
 20
2.078788579093839
 30
0.0
 11
21.75682537480509
 21
2.869051653150336
 31
0.0
  0
LINE
  5
336BA
330
1F
100
AcDbEntity
  8
AM_0
100
AcDbLine
 10
22.60555987158898
 20
2.875821483656864
 30
0.0
 11
24.12470453785147
 21
2.305659084283434
 31
0.0
  0
LINE
  5
336BB
330
1F
100
AcDbEntity
  8
AM_0
100
AcDbLine
 10
21.75682537480532
 20
2.86905165315045
 30
0.0
 11
22.60555987158898
 21
2.875821483656864
 31
0.0
  0
LINE
  5
336BC
330
1F
100
AcDbEntity
  8
AM_0
100
AcDbLine
 10
21.75682537480532
 20
2.869051653150336
 30
0.0
 11
21.36711450360292
 21
5.143437893576106
 31
0.0
  0
LINE
  5
336BD
330
1F
100
AcDbEntity
  8
AM_0
100
AcDbLine
 10
22.21584900038658
 20
5.150207724082634
 30
0.0
 11
22.60555987158875
 21
2.875821483656978
 31
0.0
  0
LINE
  5
336BE
330
1F
100
AcDbEntity
  8
AM_0
100
AcDbLine
 10
21.36711450360292
 20
5.14343789357622
 30
0.0
 11
22.21584900038658
 21
5.150207724082634
 31
0.0
  0
LINE
  5
336BF
330
1F
100
AcDbEntity
  8
AM_0
100
AcDbLine
 10
21.36711450360292
 20
5.14343789357622
 30
0.0
 11
23.0829860685916
 21
6.627561059945379
 31
0.0
  0
LINE
  5
336C0
330
1F
100
AcDbEntity
  8
AM_0
100
AcDbLine
 10
23.66942383851995
 20
6.407460385262652
 30
0.0
 11
22.21584900038658
 21
5.150207724082634
 31
0.0
  0
LINE
  5
336C1
330
1F
100
AcDbEntity
  8
AM_0
100
AcDbLine
 10
24.65127624746549
 20
8.612710814237175
 30
0.0
 11
23.84236281217488
 21
8.606258611726162
 31
0.0
  0
LINE
  5
336C2
330
1F
100
AcDbEntity
  8
AM_0
100
AcDbLine
 10
24.71907333721845
 20
0.1129811976777546
 30
0.0
 11
23.91015990192784
 21
0.106528995166741
 31
0.0
  0
ARC
  5
336C3
330
1F
100
AcDbEntity
  8
AM_0
100
AcDbCircle
 10
23.97440188550905
 20
4.357176609784574
 30
0.0
 40
4.251133046155022
100
AcDbArc
 50
91.77987808412571
 51
269.1341285735031
  0
ELLIPSE
  5
336C4
330
1F
100
AcDbEntity
  8
AM_0
100
AcDbEllipse
 10
23.47269693979399
 20
4.353174819519609
 30
0.0
 11
-0.02062456414045661
 21
2.585704184234781
 31
-1.274891143684110E-31
210
-3.932534823081006E-34
220
4.930223823127264E-32
230
1.0
 40
0.9701505847080268
 41
0.000000000000002
 42
6.283185307179588
  0
ELLIPSE
  5
336C5
330
1F
100
AcDbEntity
  8
AM_0
100
AcDbEllipse
 10
24.68517479234208
 20
4.362846005957408
 30
0.0
 11
0.03389854487649995
 21
-4.249864808279819
 31
-2.095411779493314E-31
210
3.932534823080999E-34
220
-4.930223823127265E-32
230
1.0
 40
0.9701505847080267
 41
-0.0000000000000101
 42
3.14159265358989
  0
ELLIPSE
  5
336C6
330
1F
100
AcDbEntity
  8
AM_0
100
AcDbEllipse
 10
23.54372224798851
 20
4.35374134450467
 30
0.0
 11
0.02626453848269887
 21
-3.292788472484364
 31
1.623521703368320E-31
210
-3.932534823081005E-34
220
4.930223823127263E-32
230
1.0
 40
0.9701505847080264
 41
0.0000000000000287
 42
6.283185307179615
  0
ELLIPSE
  5
336C7
330
1F
100
AcDbEntity
  8
AM_0
100
AcDbEllipse
 10
23.70479109473638
 20
4.355026091143941
 30
0.0
 11
-0.0315623910125078
 21
3.956980906345915
 31
1.951004273414390E-31
210
3.932534823081113E-34
220
-4.930223823127264E-32
230
1.0
 40
0.9701505847080264
 41
0.0000000000000198
 42
6.283185307179605
  0
ELLIPSE
  5
336C8
330
1F
100
AcDbEntity
  8
AM_0
100
AcDbEllipse
 10
23.87626135705148
 20
4.356393803446395
 30
0.0
 11
0.03389854487649995
 21
-4.249864808279819
 31
-2.095411779493314E-31
210
3.932534823080999E-34
220
-4.930223823127265E-32
230
1.0
 40
0.9701505847080267
 41
0.0000000000000434
 42
3.14159265358989
  0
LINE
  5
336C9
330
1F
100
AcDbEntity
  8
AM_0
100
AcDbLine
 10
18.62271626763379
 20
-2.506464614452966
 30
0.0
 11
19.67495040746951
 21
-2.498071593070222
 31
0.0
  0
LINE
  5
336CA
330
1F
100
AcDbEntity
  8
AM_0
100
AcDbLine
 10
19.67495040746951
 20
-2.498071593070222
 30
0.0
 11
30.32995026128936
 21
1.068759062408503
 31
0.0
  0
LINE
  5
336CB
330
1F
100
AcDbEntity
  8
AM_0
100
AcDbLine
 10
16.77709466827616
 20
-2.988789394540163
 30
0.0
 11
17.3212643995447
 21
-2.966938498484211
 31
0.0
  0
LINE
  5
336CC
330
1F
100
AcDbEntity
  8
AM_0
100
AcDbLine
 10
32.36700972304345
 20
2.123118853287224
 30
0.0
 11
34.00678146938992
 21
2.136198299019725
 31
0.0
  0
LINE
  5
336CD
330
1F
100
AcDbEntity
  8
AM_0
100
AcDbLine
 10
10.36496288925821
 20
0.0050733566001782
 30
0.0
 11
10.84371124030861
 21
-1.512391823311191
 31
0.0
  0
ELLIPSE
  5
336CE
330
1F
100
AcDbEntity
  8
AM_0
100
AcDbEllipse
 10
24.44784380724889
 20
-1.976219141647903
 30
0.0
 11
-14.86271076442783
 21
0.5787875447851043
 31
-2.322860714362966E-16
210
-1.560511718038730E-17
220
6.076985283557678E-19
230
1.0
 40
0.0109904034371063
 41
0.4149233823994828
 42
0.8186085756217757
  0
ARC
  5
336CF
330
1F
100
AcDbEntity
  8
AM_0
100
AcDbCircle
 10
14.61146880669281
 20
6.619052919083742
 30
0.0
 40
8.325367446003757
100
AcDbArc
 50
267.7762788016947
 51
290.2225276552962
  0
ARC
  5
336D0
330
1F
100
AcDbEntity
  8
AM_0
100
AcDbCircle
 10
15.82388779555669
 20
5.285529932347458
 30
0.0
 40
8.279409389169958
100
AcDbArc
 50
270.7257425677389
 51
289.7579237465649
  0
ELLIPSE
  5
336D1
330
1F
100
AcDbEntity
  8
AM_0
100
AcDbEllipse
 10
21.48595074835419
 20
7.411948094090576
 30
0.0
 11
-11.7900222753851
 21
-9.099496861101358
 31
-8.856873016562130E-17
210
-4.707851926218963E-18
220
-3.633503213526389E-18
230
0.9999999999999999
 40
0.140166623895514
 41
5.41713128879543
 42
5.820816482017708
  0
ARC
  5
336D2
330
1F
100
AcDbEntity
  8
AM_0
100
AcDbCircle
 10
18.22674800470537
 20
-2.739025254896546
 30
0.0
 40
7.683801316618586
100
AcDbArc
 50
109.2863832621972
 51
134.1329030173295
  0
LINE
  5
336D3
330
1F
100
AcDbEntity
  8
AM_0
100
AcDbLine
 10
21.28601043355332
 20
-1.586317890151236
 30
0.0
 11
32.36700972304345
 21
2.123118853287224
 31
0.0
  0
LINE
  5
336D4
330
1F
100
AcDbEntity
  8
AM_0
100
AcDbLine
 10
27.21944129420706
 20
8.40551542749381
 30
0.0
 11
29.75275338874201
 21
9.253558164485753
 31
0.0
  0
LINE
  5
336D5
330
1F
100
AcDbEntity
  8
AM_0
100
AcDbLine
 10
29.75275338874201
 20
9.253558164485753
 30
0.0
 11
31.55316377157158
 21
3.546885630781844
 31
0.0
  0
LINE
  5
336D6
330
1F
100
AcDbEntity
  8
AM_0
100
AcDbLine
 10
31.55316377157158
 20
3.546885630781844
 30
0.0
 11
29.01985167703299
 21
2.698842893788651
 31
0.0
  0
LINE
  5
336D7
330
1F
100
AcDbEntity
  8
AM_0
100
AcDbLine
 10
21.90841271996953
 20
0.318242347132923
 30
0.0
 11
20.47216448208144
 21
-0.1625511126566153
 31
0.0
  0
LINE
  5
336D8
330
1F
100
AcDbEntity
  8
AM_0
100
AcDbLine
 10
18.6717540992521
 20
5.544121421047294
 30
0.0
 11
20.47216448208144
 21
-0.162551112656729
 31
0.0
  0
LINE
  5
336D9
330
1F
100
AcDbEntity
  8
AM_0
100
AcDbLine
 10
18.67175409925187
 20
5.544121421047294
 30
0.0
 11
20.04769888846988
 21
6.004727908307814
 31
0.0
  0
LINE
  5
336DA
330
1F
100
AcDbEntity
  8
AM_0
100
AcDbLine
 10
28.05602316622537
 20
1.160891658093647
 30
0.0
 11
26.89036495372955
 21
0.7706799731399769
 31
0.0
  0
LINE
  5
336DB
330
1F
100
AcDbEntity
  8
AM_0
100
AcDbLine
 10
24.95136834768516
 20
0.1215882199544467
 30
0.0
 11
23.78571013519093
 21
-0.2686234649987682
 31
0.0
  0
LINE
  5
336DC
330
1F
100
AcDbEntity
  8
AM_0
100
AcDbLine
 10
24.43965002251537
 20
8.611022802639923
 30
0.0
 11
25.58463944949619
 21
8.994315476913471
 31
0.0
  0
ARC
  5
336DD
330
1F
100
AcDbEntity
  8
AM_0
100
AcDbCircle
 10
24.15118208586279
 20
4.196499613369724
 30
0.0
 40
4.480055117039032
100
AcDbArc
 50
239.9595019377512
 51
265.3207504862355
  0
ARC
  5
336DE
330
1F
100
AcDbEntity
  8
AM_0
100
AcDbCircle
 10
24.09182964326493
 20
4.716227037853059
 30
0.0
 40
5.324963844952421
100
AcDbArc
 50
318.1122696323295
 51
337.7372817769958
  0
ARC
  5
336DF
330
1F
100
AcDbEntity
  8
AM_0
100
AcDbCircle
 10
25.03723604838211
 20
4.910539707624025
 30
0.0
 40
4.120300355239346
100
AcDbArc
 50
58.02002366371315
 51
82.36538424312229
  0
ELLIPSE
  5
336E0
330
1F
100
AcDbEntity
  8
AM_0
100
AcDbEllipse
 10
31.75626849085313
 20
9.269538966149753
 30
0.0
 11
1.649692616207646
 21
0.3117770252661229
 31
-2.724967292366736E-17
210
1.594839233334998E-17
220
3.014102306464487E-18
230
1.0
 40
0.8897482969020343
 41
0.1058239597211913
 42
1.370384805809077
  0
LINE
  5
336E1
330
1F
100
AcDbEntity
  8
AM_0
100
AcDbLine
 10
30.59282069393601
 20
1.150736110979437
 30
0.0
 11
34.00678146938992
 21
2.136198299019725
 31
0.0
  0
ELLIPSE
  5
336E2
330
1F
100
AcDbEntity
  8
AM_0
100
AcDbEllipse
 10
33.55667887368247
 20
3.56286643244573
 30
0.0
 11
1.649692616207647
 21
0.3117770252661229
 31
-2.724967292366734E-17
210
1.594839233334997E-17
220
3.014102306464484E-18
230
1.0
 40
0.8897482969020342
 41
4.818212940105806
 42
6.389009266900702
  0
LINE
  5
336E3
330
1F
100
AcDbEntity
  8
AM_0
100
AcDbLine
 10
34.26763656930677
 20
6.881275442771084
 30
0.0
 11
35.16784176072144
 21
4.027939175919073
 31
0.0
  0
LINE
  5
336E4
330
1F
100
AcDbEntity
  8
AM_0
100
AcDbLine
 10
35.16784176072144
 20
4.027939175919073
 30
0.0
 11
33.30077793939711
 21
4.013046761786086
 31
0.0
  0
LINE
  5
336E5
330
1F
100
AcDbEntity
  8
AM_0
100
AcDbLine
 10
33.30077793939711
 20
4.013046761786086
 30
0.0
 11
31.50036755656754
 21
9.719719295489995
 31
0.0
  0
LINE
  5
336E6
330
1F
100
AcDbEntity
  8
AM_0
100
AcDbLine
 10
31.50036755656754
 20
9.719719295489995
 30
0.0
 11
33.36743137789188
 21
9.734611709622982
 31
0.0
  0
LINE
  5
336E7
330
1F
100
AcDbEntity
  8
AM_0
100
AcDbLine
 10
34.26763656930677
 20
6.881275442771084
 30
0.0
 11
33.3674313778921
 21
9.734611709623096
 31
0.0
  0
LINE
  5
336E8
330
1F
100
AcDbEntity
  8
AM_0
100
AcDbLine
 10
15.92875693611006
 20
-2.99321528035432
 30
0.0
 11
16.77700070538265
 21
-2.986449364077998
 31
0.0
  0
LINE
  5
336E9
330
1F
100
AcDbEntity
  8
AM_0
100
AcDbLine
 10
30.10453255219744
 20
10.75641180569244
 30
0.0
 11
31.81282635978545
 21
10.77003780955636
 31
0.0
  0
LINE
  5
336EA
330
1F
100
AcDbEntity
  8
AM_0
100
AcDbLine
 10
10.73777518512077
 20
-1.591753136599891
 30
0.0
 11
10.25902683407037
 21
-0.0742879566885222
 31
0.0
  0
LINE
  5
336EB
330
1F
100
AcDbEntity
  8
AM_0
100
AcDbLine
 10
11.98745083669712
 20
-2.635160532277382
 30
0.0
 11
15.15170555749126
 21
-2.962491590369069
 31
0.0
  0
LINE
  5
336EC
330
1F
100
AcDbEntity
  8
AM_0
100
AcDbLine
 10
15.15170106788071
 20
-2.966469060160762
 30
0.0
 11
15.92847485845562
 21
-2.999790869541272
 31
0.0
  0
SPLINE
  5
336ED
330
1F
100
AcDbEntity
  8
AM_0
100
AcDbSpline
210
0.0
220
0.0
230
1.0
 70
     8
 71
     3
 72
     8
 73
     4
 74
     0
 42
0.0000000001
 43
0.0000000001
 40
0.0
 40
0.0
 40
0.0
 40
0.0
 40
5.404006960049278
 40
5.404006960049278
 40
5.404006960049278
 40
5.404006960049278
 10
10.44894924500147
 20
1.220216832431674
 30
0.0
 10
11.00395504992127
 20
2.036784754763175
 30
0.0
 10
11.80765423795799
 20
2.991599397587947
 30
0.0
 10
12.78821300311631
 20
4.036079293533021
 30
0.0
  0
ARC
  5
336EE
330
1F
100
AcDbEntity
  8
AM_0
100
AcDbCircle
 10
18.48251449950573
 20
-1.348283320848395
 30
0.0
 40
7.836863549592247
100
AcDbArc
 50
109.492443273889
 51
136.6024999876542
  0
LINE
  5
336EF
330
1F
100
AcDbEntity
  8
AM_0
100
AcDbLine
 10
15.86596231112674
 20
6.043838266673106
 30
0.0
 11
18.55794195501233
 21
6.973471035610942
 31
0.0
  0
LINE
  5
336F0
330
1F
100
AcDbEntity
  8
AM_0
100
AcDbLine
 10
18.55933426896888
 20
6.969439249132051
 30
0.0
 11
21.86699895874415
 21
8.076701564983296
 31
0.0
  0
LINE
  5
336F1
330
1F
100
AcDbEntity
  8
AM_0
100
AcDbLine
 10
23.34600114085595
 20
8.571807186292631
 30
0.0
 11
29.64033355845908
 21
10.67887599257051
 31
0.0
  0
ARC
  5
336F2
330
1F
100
AcDbEntity
  8
AM_0
100
AcDbCircle
 10
33.2204920260013
 20
6.434034922566184
 30
0.0
 40
1.470513228084032
100
AcDbArc
 50
337.9184527588181
 51
347.1152061653568
  0
ARC
  5
336F3
330
1F
100
AcDbEntity
  8
AM_0
100
AcDbCircle
 10
33.25708822970506
 20
6.464803846462473
 30
0.0
 40
1.424234866551198
100
AcDbArc
 50
48.24041901361824
 51
57.63497911260103
  0
ELLIPSE
  5
336F4
330
1F
100
AcDbEntity
  8
AM_0
100
AcDbEllipse
 10
30.45119804654416
 20
1.069726181052261
 30
0.0
 11
-0.4768320260037911
 21
-0.1504367607239664
 31
0.0
210
0.0
220
0.0
230
1.0
 40
0.0731078059497288
 41
4.387853719199947
 42
4.946359079838438
  0
ELLIPSE
  5
336F5
330
1F
100
AcDbEntity
  8
AM_0
100
AcDbEllipse
 10
16.6742664360869
 20
7.01304929643652
 30
0.0
 11
0.07976128206240671
 21
-9.999681901834865
 31
0.0
210
0.0
220
0.0
230
1.0
 40
0.9701505847080261
 41
0.0585101987256658
 42
0.3062354807068475
  0
ELLIPSE
  5
336F6
330
1F
100
AcDbEntity
  8
AM_0
100
AcDbEllipse
 10
31.916907127336
 20
3.549786986713116
 30
0.0
 11
0.01196419230935275
 21
-1.499952285275229
 31
0.0
210
0.0
220
0.0
230
1.0
 40
0.9701505847080272
 41
0.3062354807068293
 42
1.877031807501624
  0
ELLIPSE
  5
336F7
330
1F
100
AcDbEntity
  8
AM_0
100
AcDbEllipse
 10
12.16827126313194
 20
-1.140442854428102
 30
0.0
 11
1.430496078011375
 21
0.4513102821718995
 31
0.0
210
0.0
220
0.0
230
1.0
 40
0.0731078059497288
 41
2.730613081708721
 42
3.141592653589694
  0
ELLIPSE
  5
336F8
330
1F
100
AcDbEntity
  8
AM_0
100
AcDbEllipse
 10
12.16827126313194
 20
-1.140442854427988
 30
0.0
 11
0.1802425558078202
 21
1.489131498920068
 31
0.0
210
0.0
220
0.0
230
0.9999999999999999
 40
0.9048504823158314
 41
1.930799168762315
 42
3.141592653589823
  0
ELLIPSE
  5
336F9
330
1F
100
AcDbEntity
  8
AM_0
100
AcDbEllipse
 10
15.29391613474274
 20
-1.466477270365317
 30
0.0
 11
0.1419267391935371
 21
1.49327050486571
 31
0.0
210
0.0
220
0.0
230
1.0
 40
0.6687316631083888
 41
1.791009583593116
 42
3.141592653589675
  0
ELLIPSE
  5
336FA
330
1F
100
AcDbEntity
  8
AM_0
100
AcDbEllipse
 10
23.86710246921632
 20
-0.1354717906307315
 30
0.0
 11
13.35129672810616
 21
4.212229300271062
 31
0.0
210
0.0
220
0.0
230
1.0
 40
0.0731078059497288
 41
1.80476642624828
 42
2.045618302746222
  0
ELLIPSE
  5
336FB
330
1F
100
AcDbEntity
  8
AM_0
100
AcDbEllipse
 10
24.31720506492354
 20
-1.562139924056737
 30
0.0
 11
-11.92080065009478
 21
-3.760919018099161
 31
0.0
210
0.0
220
0.0
230
0.9999999999999999
 40
0.0731078059497288
 41
4.946359079838057
 42
5.187210956336008
  0
ELLIPSE
  5
336FC
330
1F
100
AcDbEntity
  8
AM_0
100
AcDbEllipse
 10
18.17261367192634
 20
-1.079796481026961
 30
0.0
 11
-0.5047132584587449
 21
1.412538327528123
 31
0.0
210
0.0
220
0.0
230
1.0
 40
0.4559567305377384
 41
1.488560244679513
 42
3.059356571474438
  0
ELLIPSE
  5
336FD
330
1F
100
AcDbEntity
  8
AM_0
100
AcDbEllipse
 10
30.11649674450644
 20
9.256459520417138
 30
0.0
 11
0.01196419230935275
 21
-1.499952285275229
 31
0.0
210
0.0
220
0.0
230
1.0
 40
0.9701505847080272
 41
1.877031807501769
 42
3.141592653589537
  0
ELLIPSE
  5
336FE
330
1F
100
AcDbEntity
  8
AM_0
100
AcDbEllipse
 10
31.916907127336
 20
3.549786986713116
 30
0.0
 11
-1.430496078011373
 21
-0.4513102821718992
 31
1.848892746611746E-32
210
1.175481698974124E-32
220
3.708552476350779E-33
230
1.0
 40
0.0731078059497288
 41
3.375562753043198
 42
4.946359079838095
  0
ELLIPSE
  5
336FF
330
1F
100
AcDbEntity
  8
AM_0
100
AcDbEllipse
 10
30.11649674450644
 20
9.256459520417138
 30
0.0
 11
1.430496078011375
 21
0.4513102821718995
 31
0.0
210
0.0
220
0.0
230
1.0
 40
0.0731078059497288
 41
0.2339700994534079
 42
1.804766426248303
  0
ELLIPSE
  5
33700
330
1F
100
AcDbEntity
  8
AM_0
100
AcDbEllipse
 10
11.68952291208154
 20
0.3770223254832672
 30
0.0
 11
-1.430496078011375
 21
-0.4513102821718995
 31
0.0
210
0.0
220
0.0
230
1.0
 40
0.0731078059497288
 41
5.872205735298488
 42
6.283185307179482
  0
ELLIPSE
  5
33701
330
1F
100
AcDbEntity
  8
AM_0
100
AcDbEllipse
 10
11.68952291208154
 20
0.3770223254832672
 30
0.0
 11
-1.240573667079771
 21
0.8431945069482032
 31
7.395570986445957E-32
210
4.077666941691810E-32
220
-2.771513258452655E-32
230
1.0
 40
0.869520486610361
 41
0.0000000000000828
 42
0.9385871115381274
  0
ELLIPSE
  5
33702
330
1F
100
AcDbEntity
  8
AM_0
100
AcDbEllipse
 10
13.8818086452826
 20
3.009410616969944
 30
0.0
 11
-1.093595642166036
 21
1.026668676562919
 31
0.0
210
0.0
220
0.0
230
0.9999999999999998
 40
0.6193253907569293
 41
-0.0000000000000338
 42
1.178694303952987
  0
ELLIPSE
  5
33703
330
1F
100
AcDbEntity
  8
AM_0
100
AcDbEllipse
 10
22.06669208638675
 20
5.571200743073177
 30
0.0
 11
-13.35129672810616
 21
-4.212229300271062
 31
0.0
210
0.0
220
0.0
230
1.0
 40
0.0731078059497288
 41
4.946359079838073
 42
5.187210956336014
  0
ELLIPSE
  5
33704
330
1F
100
AcDbEntity
  8
AM_0
100
AcDbEllipse
 10
16.372203289097
 20
4.626876052677062
 30
0.0
 11
-0.5047132584587456
 21
1.412538327528126
 31
-7.395570986446985E-32
210
-1.658952324770052E-32
220
4.642901098805048E-32
230
1.0
 40
0.4559567305377385
 41
-0.0000000000002712
 42
1.488560244679456
  0
ELLIPSE
  5
33705
330
1F
100
AcDbEntity
  8
AM_0
100
AcDbEllipse
 10
19.03549745501653
 20
5.547022776978679
 30
0.0
 11
-0.4761631860478183
 21
1.422416472153212
 31
0.0
210
0.0
220
0.0
230
1.0
 40
0.2312208721112576
 41
0.0000000000000455
 42
1.495581312905955
  0
ELLIPSE
  5
33706
330
1F
100
AcDbEntity
  8
AM_0
100
AcDbEllipse
 10
30.11649674450644
 20
9.256459520417138
 30
0.0
 11
0.4761631860478183
 21
-1.422416472153212
 31
0.0
210
0.0
220
0.0
230
1.0
 40
0.2312208721112576
 41
3.141592653589867
 42
4.637173966495748
  0
ELLIPSE
  5
33707
330
1F
100
AcDbEntity
  8
AM_0
100
AcDbEllipse
 10
31.916907127336
 20
3.549786986713116
 30
0.0
 11
0.4761631860478183
 21
-1.422416472153212
 31
0.0
210
0.0
220
0.0
230
1.0
 40
0.2312208721112576
 41
4.637173966495748
 42
6.207970293290627
  0
ELLIPSE
  5
33708
330
1F
100
AcDbEntity
  8
AM_0
100
AcDbEllipse
 10
20.83590783784587
 20
-0.1596497567253437
 30
0.0
 11
-0.4761631860478183
 21
1.422416472153212
 31
0.0
210
0.0
220
0.0
230
1.0
 40
0.2312208721112576
 41
1.495581312905955
 42
3.066377639700833
  0
ELLIPSE
  5
33709
330
1F
100
AcDbEntity
  8
AM_0
100
AcDbEllipse
 10
24.22388452165581
 20
4.208426080933009
 30
0.0
 11
0.03589257692805827
 21
-4.49985685582569
 31
0.0
210
0.0
220
0.0
230
1.0
 40
0.9701505847080268
 41
5.218365979742659
 42
6.174426600748707
  0
ELLIPSE
  5
3370A
330
1F
100
AcDbEntity
  8
AM_0
100
AcDbEllipse
 10
24.102636736401
 20
4.207458962289252
 30
0.0
 11
-0.03589257692805827
 21
4.49985685582569
 31
0.0
210
0.0
220
0.0
230
1.0
 40
0.9701505847080268
 41
1.630604633155341
 42
2.606759463728823
  0
ELLIPSE
  5
3370B
330
1F
100
AcDbEntity
  8
AM_0
100
AcDbEllipse
 10
25.02521727777491
 20
4.516298812337823
 30
0.0
 11
-0.03589257692805827
 21
4.49985685582569
 31
0.0
210
0.0
220
0.0
230
1.0
 40
0.9701505847080268
 41
4.288896804863389
 42
5.748352117318444
  0
ELLIPSE
  5
3370C
330
1F
100
AcDbEntity
  8
AM_0
100
AcDbEllipse
 10
33.26954065462758
 20
6.436166805384346
 30
0.0
 11
-0.011565385899049
 21
1.449953875766056
 31
0.0
210
0.0
220
0.0
230
1.0
 40
0.9701505847080255
 41
5.542982088287002
 42
5.710923838307861
  0
ELLIPSE
  5
3370D
330
1F
100
AcDbEntity
  8
AM_0
100
AcDbEllipse
 10
33.26954065462758
 20
6.436166805384346
 30
0.0
 11
-0.011565385899049
 21
1.449953875766056
 31
0.0
210
0.0
220
0.0
230
1.0
 40
0.9701505847080255
 41
4.32632508387533
 42
4.494266833896109
  0
ARC
  5
3370E
330
1F
100
AcDbEntity
  8
AM_0
100
AcDbCircle
 10
12.16827126313189
 20
-1.140442854428102
 30
0.0
 40
1.5
100
AcDbArc
 50
197.5100763921455
 51
263.0985649425198
  0
ARC
  5
3370F
330
1F
100
AcDbEntity
  8
AM_0
100
AcDbCircle
 10
30.11649674450638
 20
9.256459520417138
 30
0.0
 40
1.5
100
AcDbArc
 50
90.45700332881279
 51
108.5083057148689
  0
ARC
  5
33710
330
1F
100
AcDbEntity
  8
AM_0
100
AcDbCircle
 10
11.68952291208149
 20
0.3770223254832672
 30
0.0
 40
1.5
100
AcDbArc
 50
145.7967929732066
 51
197.5100763921455
  0
LINE
  5
33718
330
1F
100
AcDbEntity
  8
AM_0
100
AcDbLine
 10
41.29999999992367
 20
2.214510797200319
 30
0.0
 11
41.29999999992367
 21
-2.214510797200319
 31
0.0
  0
ARC
  5
33719
330
1F
100
AcDbEntity
  8
AM_0
100
AcDbCircle
 10
44.64990703025097
 20
-0.2145107972002052
 30
0.0
 40
3.901522409500942
100
AcDbArc
 50
210.8385318138122
 51
240.1245455624117
  0
ARC
  5
3371A
330
1F
100
AcDbEntity
  8
AM_0
100
AcDbCircle
 10
44.64990703025097
 20
0.2145107972002052
 30
0.0
 40
3.901522409500942
100
AcDbArc
 50
120.8026230405255
 51
149.1614681861879
  0
LINE
  5
3371B
330
1F
100
AcDbEntity
  8
AM_0
100
AcDbLine
 10
27.48546583003451
 20
-125.0757758756901
 30
0.0
 11
27.48733741483477
 21
-125.0832635138539
 31
0.0
  0
LINE
  5
3371C
330
1F
100
AcDbEntity
  8
AM_0
100
AcDbLine
 10
25.78066529096748
 20
-125.5016564382544
 30
0.0
 11
25.78254607626252
 21
-125.509180884783
 31
0.0
  0
LINE
  5
3371D
330
1F
100
AcDbEntity
  8
AM_0
100
AcDbLine
 10
14.71388311419253
 20
-128.9504562951792
 30
0.0
 11
16.88419109664994
 21
-137.6331945149022
 31
0.0
  0
ELLIPSE
  5
3371E
330
1F
100
AcDbEntity
  8
AM_0
100
AcDbEllipse
 10
22.97729122607632
 20
-167.5550243788765
 30
0.0
 11
-8.848743156509888
 21
39.03851568325175
 31
2.089294527757232E-16
210
1.153814008719383E-18
220
-5.090348479807512E-18
230
0.9999999999999999
 40
0.0716507764136515
 41
4.840430102309314
 42
6.116829793417698
  0
LINE
  5
3371F
330
1F
100
AcDbEntity
  8
AM_0
100
AcDbLine
 10
14.7138831141923
 20
-128.9504562951792
 30
0.0
 11
14.57004552828983
 21
-128.316203596343
 31
0.0
  0
SPLINE
  5
33722
330
1F
100
AcDbEntity
  8
AM_0
100
AcDbSpline
210
0.0
220
0.0
230
1.0
 70
     8
 71
     3
 72
    22
 73
    18
 74
     0
 42
0.0000000001
 43
0.0000000001
 40
13.57898455560739
 40
13.57898455560739
 40
13.57898455560739
 40
13.57898455560739
 40
14.09798912327999
 40
14.09798912327999
 40
14.67024935246877
 40
14.67024935246877
 40
15.24250958165755
 40
15.24250958165755
 40
15.81476981084633
 40
15.81476981084633
 40
16.38703004003512
 40
16.38703004003512
 40
16.96085134262486
 40
16.96085134262486
 40
17.53467264521461
 40
17.53467264521461
 40
17.80376353834936
 40
17.80376353834936
 40
17.80376353834936
 40
17.80376353834936
 10
24.62162390106448
 20
-161.9413067562898
 30
0.0
 10
24.66319058281772
 20
-161.9874523228352
 30
0.0
 10
24.68908229674992
 20
-162.0323747890376
 30
0.0
 10
24.71161701940548
 20
-162.1218281503997
 30
0.0
 10
24.70564151380188
 20
-162.1688744020999
 30
0.0
 10
24.65172208885849
 20
-162.259047815041
 30
0.0
 10
24.60377959162486
 20
-162.3021783093616
 30
0.0
 10
24.46691113079021
 20
-162.3816967410439
 30
0.0
 10
24.37784666443406
 20
-162.4181763724623
 30
0.0
 10
24.16595867648005
 20
-162.4831109922826
 30
0.0
 10
24.04312610858744
 20
-162.5115844782808
 30
0.0
 10
23.77728014568709
 20
-162.5604005638343
 30
0.0
 10
23.62585649302457
 20
-162.5822493656355
 30
0.0
 10
23.29477548741863
 20
-162.6194685146321
 30
0.0
 10
23.11513326519219
 20
-162.6348621721719
 30
0.0
 10
22.83952435025719
 20
-162.6526067720844
 30
0.0
 10
22.74972980000791
 20
-162.6575538040604
 30
0.0
 10
22.65884566749139
 20
-162.6617959935439
 30
0.0
  0
ELLIPSE
  5
33723
330
1F
100
AcDbEntity
  8
AM_0
100
AcDbEllipse
 10
-1.212964503521903
 20
-132.0306236234382
 30
0.0
 11
98.31943887328102
 21
-2.377339073237144E-14
 31
-8.610929919150401E-45
210
8.758115402030107E-47
220
-2.117690071441657E-62
230
1.0
 40
0.3152987888789148
 41
4.97827240879824
 42
5.349145431563908
  0
ARC
  5
33724
330
1F
100
AcDbEntity
  8
AM_0
100
AcDbCircle
 10
56.57221804600323
 20
-152.8617854948151
 30
0.0
 40
4.148940920861888
100
AcDbArc
 50
279.3581283478349
 51
347.6279236298441
  0
ELLIPSE
  5
33725
330
1F
100
AcDbEntity
  8
AM_0
100
AcDbEllipse
 10
55.72121019207918
 20
-132.0306236234382
 30
0.0
 11
-7.528007714925374E-15
 21
-30.99999999999999
 31
0.0
210
0.0
220
0.0
230
1.0
 40
0.2216946626429547
 41
0.7944900005010684
 42
2.347102653088725
  0
ARC
  5
33726
330
1F
100
AcDbEntity
  8
AM_0
100
AcDbCircle
 10
56.572218046003
 20
-111.199461752062
 30
0.0
 40
4.148940920862553
100
AcDbArc
 50
12.37207637016379
 51
80.64187165216517
  0
ELLIPSE
  5
33727
330
1F
100
AcDbEntity
  8
AM_0
100
AcDbEllipse
 10
-1.212964503521903
 20
-132.0306236234382
 30
0.0
 11
98.31943887328102
 21
-2.377339073237144E-14
 31
-8.610929919150401E-45
210
8.758115402030107E-47
220
-2.117690071441657E-62
230
1.0
 40
0.3152987888789148
 41
0.9340398756156781
 42
1.089284032191755
  0
LINE
  5
33728
330
1F
100
AcDbEntity
  8
AM_0
100
AcDbLine
 10
16.43100209110696
 20
-137.7460992886456
 30
0.0
 11
16.17293180173863
 21
-137.8104434385118
 31
0.0
  0
LINE
  5
33729
330
1F
100
AcDbEntity
  8
AM_0
100
AcDbLine
 10
22.65884566749139
 20
-162.6617959935439
 30
0.0
 11
16.43100209110696
 21
-137.7460992886457
 31
0.0
  0
ELLIPSE
  5
3372A
330
1F
100
AcDbEntity
  8
AM_0
100
AcDbEllipse
 10
-1.292769069494966
 20
-132.0306236234382
 30
0.0
 11
104.9112081491689
 21
-2.57450177904505
 31
5.759975718804097E-16
210
-5.487029685078822E-18
220
1.346507006746384E-19
230
1.0
 40
0.2944672108140883
 41
4.815359241111814
 42
4.949943892944232
  0
LINE
  5
3372B
330
1F
100
AcDbEntity
  8
AM_0
100
AcDbLine
 10
8.736794643601911
 20
-163.0245312005816
 30
0.0
 11
3.240420385074572
 21
-141.035219439225
 31
0.0
  0
LINE
  5
3372C
330
1F
100
AcDbEntity
  8
AM_0
100
AcDbLine
 10
8.154857458744914
 20
-163.0306093869991
 30
0.0
 11
8.736792209625378
 21
-163.0243064765265
 31
0.0
  0
LINE
  5
3372D
330
1F
100
AcDbEntity
  8
AM_0
100
AcDbLine
 10
36.63913938394182
 20
-122.7780420066899
 30
0.0
 11
36.64517984068118
 21
-122.7719339194701
 31
0.0
  0
LINE
  5
3372E
330
1F
100
AcDbEntity
  8
AM_0
100
AcDbLine
 10
14.57004552829005
 20
-128.316203596343
 30
0.0
 11
36.46232565444836
 21
-122.8578451127045
 31
0.0
  0
LINE
  5
3372F
330
1F
100
AcDbEntity
  8
AM_0
100
AcDbLine
 10
14.70987124251576
 20
-128.2803124772808
 30
0.0
 11
14.57004552828983
 21
-128.316203596343
 31
0.0
  0
LINE
  5
33730
330
1F
100
AcDbEntity
  8
AM_0
100
AcDbLine
 10
22.11355929177955
 20
-126.4247701903807
 30
0.0
 11
14.70987124251599
 21
-128.2803124772808
 31
0.0
  0
LINE
  5
33731
330
1F
100
AcDbEntity
  8
AM_0
100
AcDbLine
 10
27.215921107383
 20
-125.1511058193254
 30
0.0
 11
23.34468357720687
 21
-126.1181895217237
 31
0.0
  0
LINE
  5
33732
330
1F
100
AcDbEntity
  8
AM_0
100
AcDbLine
 10
25.7806652909668
 20
-125.5016564382551
 30
0.0
 11
27.48546583003474
 21
-125.0757758756905
 31
0.0
  0
LINE
  5
33733
330
1F
100
AcDbEntity
  8
AM_0
100
AcDbLine
 10
15.37183333256473
 20
-128.0968697233722
 30
0.0
 11
25.7806652909668
 21
-125.5016564382551
 31
0.0
  0
LINE
  5
33734
330
1F
100
AcDbEntity
  8
AM_0
100
AcDbLine
 10
28.96048076357954
 20
-124.688389488733
 30
0.0
 11
28.69900307951696
 21
-124.7539220850053
 31
0.0
  0
LINE
  5
33735
330
1F
100
AcDbEntity
  8
AM_0
100
AcDbLine
 10
23.84900261018709
 20
-125.9694488471332
 30
0.0
 11
15.3711656864881
 21
-128.0941986756906
 31
0.0
  0
LINE
  5
33736
330
1F
100
AcDbEntity
  8
AM_0
100
AcDbLine
 10
29.74957365646344
 20
-124.4961371534673
 30
0.0
 11
28.96048076357954
 21
-124.688389488733
 31
0.0
  0
LINE
  5
33737
330
1F
100
AcDbEntity
  8
AM_0
100
AcDbLine
 10
28.70070792912804
 20
-124.76074266669
 30
0.0
 11
29.7499816561143
 21
-124.4977694352409
 31
0.0
  0
LINE
  5
33738
330
1F
100
AcDbEntity
  8
AM_0
100
AcDbLine
 10
30.89803395430806
 20
-124.2163295716077
 30
0.0
 11
28.57171110273214
 21
-124.7993620272378
 31
0.0
  0
LINE
  5
33739
330
1F
100
AcDbEntity
  8
AM_0
100
AcDbLine
 10
31.87325624500829
 20
-123.978729202271
 30
0.0
 11
30.89803395430852
 21
-124.2163295716076
 31
0.0
  0
LINE
  5
3373A
330
1F
100
AcDbEntity
  8
AM_0
100
AcDbLine
 10
34.71840416673865
 20
-123.2523040441731
 30
0.0
 11
36.3249034524116
 21
-122.8609011535143
 31
0.0
  0
LINE
  5
3373B
330
1F
100
AcDbEntity
  8
AM_0
100
AcDbLine
 10
36.24515631110864
 20
-122.8626745970676
 30
0.0
 11
34.71676029052162
 21
-123.245727398382
 31
0.0
  0
ELLIPSE
  5
3373C
330
1F
100
AcDbEntity
  8
AM_0
100
AcDbEllipse
 10
35.24640652683013
 20
-118.0071687173883
 30
0.0
 11
5.013715623231077
 21
0.0565820147681172
 31
-8.111589356239777E-19
210
1.617673796216696E-19
220
1.825616957679428E-21
230
1.0
 40
0.9972005430312694
 41
4.946080854569365
 42
5.993278405765691
  0
LINE
  5
3373D
330
1F
100
AcDbEntity
  8
AM_0
100
AcDbLine
 10
36.35263651550201
 20
-122.860284416398
 30
0.0
 11
36.46232565444836
 21
-122.8578451127045
 31
0.0
  0
LINE
  5
3373E
330
1F
100
AcDbEntity
  8
AM_0
100
AcDbLine
 10
36.35315559282083
 20
-122.8619818348554
 30
0.0
 11
36.78689217535862
 21
-122.7293434620966
 31
0.0
  0
ELLIPSE
  5
3373F
330
1F
100
AcDbEntity
  8
AM_0
100
AcDbEllipse
 10
34.86028379880315
 20
-118.0157554435282
 30
0.0
 11
4.847325579875312
 21
-1.991565990872824
 31
8.208832943283307E-16
210
-1.448895978429300E-16
220
5.952915494127846E-17
230
0.9999999999999998
 40
0.9450849703753497
 41
5.36829088436849
 42
5.433144796590074
  0
LINE
  5
33740
330
1F
100
AcDbEntity
  8
AM_0
100
AcDbLine
 10
36.24515631110842
 20
-122.8626745970676
 30
0.0
 11
36.3249034524116
 21
-122.8609011535143
 31
0.0
  0
ELLIPSE
  5
33741
330
1F
100
AcDbEntity
  8
AM_0
100
AcDbEllipse
 10
35.03613730376708
 20
-118.011844754573
 30
0.0
 11
0.0547675899383079
 21
-4.999701875111878
 31
1.175649354559801E-19
210
-2.575497382228841E-22
220
2.351156789221517E-20
230
1.0
 40
0.9971151633022112
 41
0.233959829948299
 42
1.281157381144626
  0
LINE
  5
33742
330
1F
100
AcDbEntity
  8
AM_0
100
AcDbLine
 10
39.94206696056119
 20
-119.3849504205249
 30
0.0
 11
39.82940629860684
 21
-119.3874558059392
 31
0.0
  0
LINE
  5
33743
330
1F
100
AcDbEntity
  8
AM_0
100
AcDbLine
 10
43.88425391517228
 20
-105.1737398602212
 30
0.0
 11
42.30924961003632
 21
-110.694702895929
 31
0.0
  0
LINE
  5
33744
330
1F
100
AcDbEntity
  8
AM_0
100
AcDbLine
 10
41.29999999992367
 20
-114.2324899185195
 30
0.0
 11
39.82940629860684
 21
-119.3874558059392
 31
0.0
  0
ELLIPSE
  5
33745
330
1F
100
AcDbEntity
  8
AM_0
100
AcDbEllipse
 10
36.33497935739013
 20
-132.0306236234382
 30
0.0
 11
8.869941833231687
 21
30.99991794467464
 31
-4.600239705164774E-17
210
3.924690330933775E-19
220
1.371655874465609E-18
230
1.0
 40
0.0080413353015953
 41
5.803973859005927
 42
6.808433190602326
  0
LINE
  5
33746
330
1F
100
AcDbEntity
  8
AM_0
100
AcDbLine
 10
40.06703169422178
 20
-119.382171413056
 30
0.0
 11
44.32073841374324
 21
-104.5554611829483
 31
0.0
  0
LINE
  5
33747
330
1F
100
AcDbEntity
  8
AM_0
100
AcDbLine
 10
40.06703169422201
 20
-119.382171413056
 30
0.0
 11
39.96410403028324
 21
-119.384460352811
 31
0.0
  0
ELLIPSE
  5
33748
330
1F
100
AcDbEntity
  8
AM_0
100
AcDbEllipse
 10
41.48492149862466
 20
-114.0306236234383
 30
0.0
 11
-1.573699357508854
 21
-5.499985441797135
 31
-1.242300316655639E-17
210
-5.973798005590127E-19
220
-2.087806791444130E-18
230
0.9999999999999999
 40
0.0080413353015953
 41
0.2333579294327859
 42
2.83829163497065
  0
SPLINE
  5
33749
330
1F
100
AcDbEntity
  8
AM_0
100
AcDbSpline
210
0.0
220
0.0
230
1.0
 70
     8
 71
     3
 72
    14
 73
    10
 74
     0
 42
0.0000000001
 43
0.0000000001
 40
9.786257973796028
 40
9.786257973796028
 40
9.786257973796028
 40
9.786257973796028
 40
9.870426813131878
 40
9.870426813131878
 40
11.02943401380008
 40
11.02943401380008
 40
12.18452353118711
 40
12.18452353118711
 40
12.27167340264606
 40
12.27167340264606
 40
12.27167340264606
 40
12.27167340264606
 10
39.96410403028324
 20
-119.384460352811
 30
0.0
 10
39.96195224071755
 20
-119.3911204485712
 30
0.0
 10
39.95985067944673
 20
-119.3975517330389
 30
0.0
 10
39.92959794085925
 20
-119.4891575949327
 30
0.0
 10
39.91230218216231
 20
-119.5305483009499
 30
0.0
 10
39.90554887855308
 20
-119.5306984831703
 30
0.0
 10
39.91581970503819
 20
-119.4897348704328
 30
0.0
 10
39.93868760718408
 20
-119.3984920561638
 30
0.0
 10
39.94034993159323
 20
-119.3918443414759
 30
0.0
 10
39.94206696056119
 20
-119.3849504205249
 30
0.0
  0
ELLIPSE
  5
3374A
330
1F
100
AcDbEntity
  8
AM_0
100
AcDbEllipse
 10
41.48492149862466
 20
-114.0306236234383
 30
0.0
 11
-1.573699357508854
 21
-5.499985441797135
 31
-1.242300316655639E-17
210
-5.973798005590127E-19
220
-2.087806791444130E-18
230
0.9999999999999999
 40
0.0080413353015953
 41
4.802025319008127
 42
6.054818478646549
  0
ELLIPSE
  5
3374B
330
1F
100
AcDbEntity
  8
AM_0
100
AcDbEllipse
 10
41.48492149862466
 20
-114.0306236234383
 30
0.0
 11
-1.573699357508854
 21
-5.499985441797135
 31
-1.242300316655639E-17
210
-5.973798005590127E-19
220
-2.087806791444130E-18
230
0.9999999999999999
 40
0.0080413353015953
 41
3.388700488502736
 42
4.043596890681869
  0
LINE
  5
3374C
330
1F
100
AcDbEntity
  8
AM_0
100
AcDbLine
 10
42.99999999992349
 20
-108.694610946574
 30
0.0
 11
42.99999999992349
 21
-108.7854603822614
 31
0.0
  0
LINE
  5
3374D
330
1F
100
AcDbEntity
  8
AM_0
100
AcDbLine
 10
65.49850697595355
 20
-101.0582411980291
 30
0.0
 11
68.99899221558019
 21
-101.2474796973082
 31
0.0
  0
LINE
  5
3374E
330
1F
100
AcDbEntity
  8
AM_0
100
AcDbLine
 10
69.00100778426702
 20
-101.2474796973082
 30
0.0
 11
72.50149302389366
 21
-101.0582411980291
 31
0.0
  0
LINE
  5
33751
330
1F
100
AcDbEntity
  8
AM_0
100
AcDbLine
 10
65.49999999992349
 20
-101.0306236234383
 30
0.0
 11
45.20432415618291
 21
-101.0306236234383
 31
0.0
  0
LINE
  5
33752
330
1F
100
AcDbEntity
  8
AM_0
100
AcDbLine
 10
73.99999999992326
 20
-101.0306236234383
 30
0.0
 11
72.49999999992349
 21
-101.0306236234383
 31
0.0
  0
LINE
  5
33753
330
1F
100
AcDbEntity
  8
AM_0
100
AcDbLine
 10
73.99999999992326
 20
-163.0306236234382
 30
0.0
 11
8.169604767237956
 21
-163.0306236234382
 31
0.0
  0
LINE
  5
33754
330
1F
100
AcDbEntity
  8
AM_0
100
AcDbLine
 10
2.691235704180031
 20
-141.1719960150467
 30
0.0
 11
8.15485367329768
 21
-163.0302598844483
 31
0.0
  0
LINE
  5
33756
330
1F
100
AcDbEntity
  8
AM_0
100
AcDbLine
 10
73.99999999992349
 20
-100.5306236234383
 30
0.0
 11
73.99999999992349
 21
-124.0306236234384
 31
0.0
  0
ELLIPSE
  5
33757
330
1F
100
AcDbEntity
  8
AM_0
100
AcDbEllipse
 10
15.58089563642955
 20
-137.9643085940608
 30
0.0
 11
2.910457198537948
 21
0.7274880723962137
 31
-1.240806109406012E-18
210
4.012570081233940E-19
220
1.002968494165793E-19
230
0.9999999999999999
 40
0.001934237287562
 41
1.106012368128964
 42
1.273904706446649
  0
ELLIPSE
  5
33758
330
1F
100
AcDbEntity
  8
AM_0
100
AcDbEllipse
 10
23.4794559385374
 20
-126.080524549905
 30
0.0
 11
1.940304799025277
 21
0.4849920482641726
 31
-8.272040729448792E-19
210
4.012570081270513E-19
220
1.002968494175008E-19
230
0.9999999999999999
 40
0.0019342372876032
 41
3.930948066089585
 42
4.642390162793959
  0
ELLIPSE
  5
33759
330
1F
100
AcDbEntity
  8
AM_0
100
AcDbEllipse
 10
27.35069346870898
 20
-125.113440847508
 30
0.0
 11
1.940304799025022
 21
0.484992048264109
 31
-8.272040729293140E-19
210
4.012570081195537E-19
220
1.002968494156267E-19
230
1.0
 40
0.0019342372876032
 41
4.6423901627963
 42
7.783982816386327
  0
ELLIPSE
  5
3375A
330
1F
100
AcDbEntity
  8
AM_0
100
AcDbEllipse
 10
26.27644742427617
 20
-125.3714654803849
 30
0.0
 11
2.425380998781596
 21
0.6062400603302158
 31
7.006664485039239E-19
210
-2.719012945096323E-19
220
-6.796353120198034E-20
230
1.0
 40
0.0019342372876032
 41
3.141592653587893
 42
5.95365781623631
  0
ELLIPSE
  5
3375B
330
1F
100
AcDbEntity
  8
AM_0
100
AcDbEllipse
 10
34.2520941544359
 20
-123.3825352101346
 30
0.0
 11
2.501500088486452
 21
0.6252665314529528
 31
-4.899779576703138E-19
210
1.843554346987271E-19
220
4.608086313453622E-20
230
1.0
 40
0.0019342372876032
 41
3.455566271440131
 42
5.708659974928614
  0
ELLIPSE
  5
3375C
330
1F
100
AcDbEntity
  8
AM_0
100
AcDbEllipse
 10
21.49923982677581
 20
-126.5640832677246
 30
0.0
 11
1.261198119366431
 21
0.3152448313717125
 31
8.500545843337986E-19
210
-6.343711497755023E-19
220
-1.585652746124611E-19
230
0.9999999999999999
 40
0.0019342372876032
 41
1.57853446393795
 42
7.861719771117536
  0
LINE
  5
3375D
330
1F
100
AcDbEntity
  8
AM_0
100
AcDbLine
 10
2.978964288749125
 20
-141.100407765578
 30
0.0
 11
15.91155541230125
 21
-137.8759506479149
 31
0.0
  0
LINE
  5
3375E
330
1F
100
AcDbEntity
  8
AM_0
100
AcDbLine
 10
1.824703767030201
 20
-136.4825645707615
 30
0.0
 11
2.978964288749125
 21
-141.100407765578
 31
0.0
  0
LINE
  5
3375F
330
1F
100
AcDbEntity
  8
AM_0
100
AcDbLine
 10
14.75729489058233
 20
-133.2581074530984
 30
0.0
 11
15.91155541230125
 21
-137.8759506479149
 31
0.0
  0
LINE
  5
33760
330
1F
100
AcDbEntity
  8
AM_0
100
AcDbLine
 10
15.91155541230148
 20
-137.8759506479149
 30
0.0
 11
16.88395357930779
 21
-137.6322442806857
 31
0.0
  0
LINE
  5
33761
330
1F
100
AcDbEntity
  8
AM_0
100
AcDbLine
 10
1.27546019057138
 20
-136.6191055234495
 30
0.0
 11
2.42953742371958
 21
-141.2362154367731
 31
0.0
  0
ELLIPSE
  5
33762
330
1F
100
AcDbEntity
  8
AM_0
100
AcDbEllipse
 10
3.205659343329785
 20
-141.0422186174674
 30
0.0
 11
0.7761219196101145
 21
0.1939968193056572
 31
1.895198327305124E-19
210
-2.298289005984264E-19
220
-5.744725741415556E-20
230
0.9999999999999999
 40
0.001934237287562
 41
3.141592653589857
 42
4.415497360036469
  0
LINE
  5
33763
330
1F
100
AcDbEntity
  8
AM_0
100
AcDbLine
 10
13.60334182616759
 20
-128.6401094260565
 30
0.0
 11
14.5875614841458
 21
-128.393440308878
 31
0.0
  0
LINE
  5
33764
330
1F
100
AcDbEntity
  8
AM_0
100
AcDbLine
 10
14.7576207417934
 20
-133.2580262092667
 30
0.0
 11
15.72969315692728
 21
-133.0144014832912
 31
0.0
  0
LINE
  5
33765
330
1F
100
AcDbEntity
  8
AM_0
100
AcDbLine
 10
0.5494269557381131
 20
-131.8948159512377
 30
0.0
 11
13.60334182616714
 21
-128.6401094260566
 31
0.0
  0
LINE
  5
33766
330
1F
100
AcDbEntity
  8
AM_0
100
AcDbLine
 10
13.60334182616714
 20
-128.6401094260566
 30
0.0
 11
14.75762074179295
 21
-133.2580262092668
 31
0.0
  0
LINE
  5
33767
330
1F
100
AcDbEntity
  8
AM_0
100
AcDbLine
 10
1.703705871363923
 20
-136.5127327344479
 30
0.0
 11
14.75762074179295
 21
-133.2580262092668
 31
0.0
  0
LINE
  5
33768
330
1F
100
AcDbEntity
  8
AM_0
100
AcDbLine
 10
0.5494269557381131
 20
-131.8948159512377
 30
0.0
 11
1.703705871363923
 21
-136.5127327344479
 31
0.0
  0
LINE
  5
33769
330
1F
100
AcDbEntity
  8
AM_0
100
AcDbLine
 10
12.28666096904055
 20
-128.9501316659436
 30
0.0
 11
0.5360672926079815
 21
-131.8951130478868
 31
0.0
  0
LINE
  5
3376A
330
1F
100
AcDbEntity
  8
AM_0
100
AcDbLine
 10
0.0000000907087951
 20
-132.0306236224325
 30
0.0
 11
1.154279006334605
 21
-136.6485404056428
 31
0.0
  0
ELLIPSE
  5
3376B
330
1F
100
AcDbEntity
  8
AM_0
100
AcDbEllipse
 10
0.7761220103187725
 20
-131.836626803127
 30
0.0
 11
0.7761219196101145
 21
0.1939968193056572
 31
1.895198327305124E-19
210
-2.298289005984264E-19
220
-5.744725741415556E-20
230
0.9999999999999999
 40
0.001934237287562
 41
1.884769944644592
 42
4.415497360036458
  0
ELLIPSE
  5
3376C
330
1F
100
AcDbEntity
  8
AM_0
100
AcDbEllipse
 10
1.930400925944582
 20
-136.4545435863372
 30
0.0
 11
0.7761219196101145
 21
0.1939968193056572
 31
1.895198327305124E-19
210
-2.298289005984264E-19
220
-5.744725741415556E-20
230
0.9999999999999999
 40
0.001934237287562
 41
3.141592653589857
 42
4.415497360036469
  0
ELLIPSE
  5
3376D
330
1F
100
AcDbEntity
  8
AM_0
100
AcDbEllipse
 10
13.55962269624581
 20
-128.6410816666644
 30
0.0
 11
1.848140321071584
 21
0.4619549259715962
 31
-3.889374253453825E-19
210
1.980727435480798E-19
220
4.950959542384231E-20
230
0.9999999999999999
 40
0.001934237287562
 41
2.328998137634849
 42
5.300856042043346
  0
LINE
  5
3376E
330
1F
100
AcDbEntity
  8
AM_0
100
AcDbLine
 10
23.0829860685916
 20
-114.2473938748404
 30
0.0
 11
25.18856850478267
 21
-113.7226651720612
 31
0.0
  0
LINE
  5
3376F
330
1F
100
AcDbEntity
  8
AM_0
100
AcDbLine
 10
25.18856850478267
 20
-113.7226651720612
 30
0.0
 11
25.18979290320851
 21
-113.7275636155513
 31
0.0
  0
LINE
  5
33770
330
1F
100
AcDbEntity
  8
AM_0
100
AcDbLine
 10
25.18856850478267
 20
-113.7226651720612
 30
0.0
 11
25.57827937598506
 21
-113.6297889126498
 31
0.0
  0
LINE
  5
33771
330
1F
100
AcDbEntity
  8
AM_0
100
AcDbLine
 10
25.57827937598506
 20
-113.6297889126498
 30
0.0
 11
23.86240781099639
 21
-114.0616413560176
 31
0.0
  0
LINE
  5
33772
330
1F
100
AcDbEntity
  8
AM_0
100
AcDbLine
 10
23.86240781099616
 20
-114.0616413560176
 30
0.0
 11
21.75682537480509
 21
-114.5863700587969
 31
0.0
  0
LINE
  5
33773
330
1F
100
AcDbEntity
  8
AM_0
100
AcDbLine
 10
21.75682537480532
 20
-114.5863700587969
 30
0.0
 11
21.36711450360292
 21
-114.6792463182082
 31
0.0
  0
LINE
  5
33774
330
1F
100
AcDbEntity
  8
AM_0
100
AcDbLine
 10
21.36711450360292
 20
-114.6792463182082
 30
0.0
 11
23.0829860685916
 21
-114.2473938748404
 31
0.0
  0
LINE
  5
33775
330
1F
100
AcDbEntity
  8
AM_0
100
AcDbLine
 10
23.08298606859182
 20
-114.2473938748404
 30
0.0
 11
23.08498279196817
 21
-114.2553821541603
 31
0.0
  0
SPLINE
  5
33776
330
1F
100
AcDbEntity
  8
AM_0
100
AcDbSpline
210
0.0
220
0.0
230
1.0
 70
     8
 71
     3
 72
    60
 73
    56
 74
     0
 42
0.0000000001
 43
0.0000000001
 40
0.0
 40
0.0
 40
0.0
 40
0.0
 40
0.324270383954652
 40
0.324270383954652
 40
0.4817116795371541
 40
0.4817116795371541
 40
0.6379310340493144
 40
0.6379310340493144
 40
0.684884279365453
 40
0.684884279365453
 40
0.7196019494411038
 40
0.7196019494411038
 40
0.7582528658422005
 40
0.7582528658422005
 40
0.7951027272801929
 40
0.7951027272801929
 40
0.8593068662248017
 40
0.8593068662248017
 40
1.027433387578888
 40
1.027433387578888
 40
1.533045544369899
 40
1.533045544369899
 40
2.538464358156372
 40
2.538464358156372
 40
3.3687320046148
 40
3.3687320046148
 40
4.195359802846041
 40
4.195359802846041
 40
5.020795406911981
 40
5.020795406911981
 40
5.8459623354044
 40
5.8459623354044
 40
6.671286595289248
 40
6.671286595289248
 40
7.497436877331842
 40
7.497436877331842
 40
8.326934122596082
 40
8.326934122596082
 40
8.612286891221524
 40
8.612286891221524
 40
8.662394365137747
 40
8.662394365137747
 40
8.712486757143573
 40
8.712486757143573
 40
8.754237809504687
 40
8.754237809504687
 40
8.792006982866701
 40
8.792006982866701
 40
8.859355850837595
 40
8.859355850837595
 40
9.002670025950435
 40
9.002670025950435
 40
9.274826373704435
 40
9.274826373704435
 40
9.437354064345863
 40
9.437354064345863
 40
9.437354064345863
 40
9.437354064345863
 10
20.34911697893438
 20
-115.2371682107089
 30
0.0
 10
20.40473006562604
 20
-115.1444887011832
 30
0.0
 10
20.47648812422801
 20
-115.0598690642328
 30
0.0
 10
20.59877388310031
 20
-114.9558860112701
 30
0.0
 10
20.64156129284277
 20
-114.9249604577723
 30
0.0
 10
20.73070535831027
 20
-114.8706455668983
 30
0.0
 10
20.77784002790111
 20
-114.8468399563863
 30
0.0
 10
20.83880623578364
 20
-114.8216345967926
 30
0.0
 10
20.85296900405035
 20
-114.816170513475
 30
0.0
 10
20.87612426155454
 20
-114.8077788603193
 30
0.0
 10
20.88559921813101
 20
-114.804526949566
 30
0.0
 10
20.90293259666976
 20
-114.7988023295786
 30
0.0
 10
20.91058805504929
 20
-114.7964132240348
 30
0.0
 10
20.9223557005954
 20
-114.7928242534354
 30
0.0
 10
20.92684856254994
 20
-114.7915017670063
 30
0.0
 10
20.9372579819966
 20
-114.7884759347297
 30
0.0
 10
20.94194404740381
 20
-114.7871654437503
 30
0.0
 10
20.95719149613035
 20
-114.7829344344979
 30
0.0
 10
20.96531919041638
 20
-114.7807739154821
 30
0.0
 10
21.00365984953635
 20
-114.7706267285256
 30
0.0
 10
21.04267690084009
 20
-114.7605624860963
 30
0.0
 10
21.20585424514172
 20
-114.7188088173791
 30
0.0
 10
21.37638520556095
 20
-114.675586972979
 30
0.0
 10
21.77042494806813
 20
-114.5761797331722
 30
0.0
 10
21.98380536614593
 20
-114.5224858039195
 30
0.0
 10
22.44784690418544
 20
-114.4059448488504
 30
0.0
 10
22.70411083179818
 20
-114.3416898157255
 30
0.0
 10
23.2273814826068
 20
-114.2106737368637
 30
0.0
 10
23.50088384898743
 20
-114.142286051153
 30
0.0
 10
24.03101296990838
 20
-114.0099054455823
 30
0.0
 10
24.29424021143257
 20
-113.9442642294311
 30
0.0
 10
24.77783847266608
 20
-113.8238507539762
 30
0.0
 10
25.00420931956353
 20
-113.7675845845996
 30
0.0
 10
25.39256499144688
 20
-113.6712677773386
 30
0.0
 10
25.55925872339969
 20
-113.6300492594918
 30
0.0
 10
25.81393624688337
 20
-113.5673659003311
 30
0.0
 10
25.90285612677519
 20
-113.5456455361982
 30
0.0
 10
25.97340416636178
 20
-113.5288483739108
 30
0.0
 10
25.9836204144591
 20
-113.5263129948432
 30
0.0
 10
26.0109142756279
 20
-113.5203894613053
 30
0.0
 10
26.01567337996119
 20
-113.5193693206075
 30
0.0
 10
26.02885441280876
 20
-113.516691129076
 30
0.0
 10
26.03773592786581
 20
-113.5149331170098
 30
0.0
 10
26.0593435451259
 20
-113.5111307281908
 30
0.0
 10
26.07130987820381
 20
-113.5091868257201
 30
0.0
 10
26.09523379101609
 20
-113.5058168809674
 30
0.0
 10
26.10724237599618
 20
-113.5043291500937
 30
0.0
 10
26.14102024091233
 20
-113.500791272208
 30
0.0
 10
26.16329210274159
 20
-113.4991833691468
 30
0.0
 10
26.23297483782028
 20
-113.4965256885006
 30
0.0
 10
26.28098004885612
 20
-113.498106688474
 30
0.0
 10
26.4185846172669
 20
-113.5125918599592
 30
0.0
 10
26.50832186719265
 20
-113.534666883614
 30
0.0
 10
26.64298543667212
 20
-113.5881052034702
 30
0.0
 10
26.69186950327901
 20
-113.6122704873303
 30
0.0
 10
26.73832154211584
 20
-113.6401441712732
 30
0.0
  0
LINE
  5
33777
330
1F
100
AcDbEntity
  8
AM_0
100
AcDbLine
 10
28.70862479293453
 20
-117.5758024524433
 30
0.0
 11
27.99940905498022
 21
-114.7384472734829
 31
0.0
  0
LINE
  5
33778
330
1F
100
AcDbEntity
  8
AM_0
100
AcDbLine
 10
20.44200100238516
 20
-119.5556909699918
 30
0.0
 11
19.75311365912273
 21
-116.7996634786055
 31
0.0
  0
LINE
  5
33779
330
1F
100
AcDbEntity
  8
AM_0
100
AcDbLine
 10
20.3491169789346
 20
-115.2371682107089
 30
0.0
 11
19.86579804717496
 21
-116.0426218225251
 31
0.0
  0
LINE
  5
3377A
330
1F
100
AcDbEntity
  8
AM_0
100
AcDbLine
 10
26.73832154211584
 20
-113.6401441712732
 30
0.0
 11
27.54377696216136
 21
-114.1234600895957
 31
0.0
  0
ARC
  5
3377B
330
1F
100
AcDbEntity
  8
AM_0
100
AcDbCircle
 10
27.02886206270529
 20
-114.9812286533314
 30
0.0
 40
1.000452029142292
100
AcDbArc
 50
14.0442792032769
 51
59.02378162834039
  0
ARC
  5
3377C
330
1F
100
AcDbEntity
  8
AM_0
100
AcDbCircle
 10
20.72374811285778
 20
-116.5572335287337
 30
0.0
 40
1.00045165968796
100
AcDbArc
 50
149.0440189811288
 51
194.023538925681
  0
LINE
  5
3377D
330
1F
100
AcDbEntity
  8
AM_0
100
AcDbLine
 10
23.6446184990026
 20
-125.1517705507666
 30
0.0
 11
23.85106642548828
 21
-125.9777055407168
 31
0.0
  0
LINE
  5
3377E
330
1F
100
AcDbEntity
  8
AM_0
100
AcDbLine
 10
28.4946189683327
 20
-123.9362437886388
 30
0.0
 11
28.70218738874166
 21
-124.7666615319548
 31
0.0
  0
ELLIPSE
  5
3377F
330
1F
100
AcDbEntity
  8
AM_0
100
AcDbEllipse
 10
23.47269693979399
 20
-114.154517615429
 30
0.0
 11
2.508606917090991
 21
0.627042930379157
 31
-9.250558400607080E-19
210
3.470685474480658E-19
220
8.675208441449863E-20
230
0.9999999999999999
 40
0.001934237287562
 41
1.578534463937784
 42
7.86171977111737
  0
ELLIPSE
  5
33780
330
1F
100
AcDbEntity
  8
AM_0
100
AcDbEllipse
 10
24.68517479234208
 20
-119.0052705389692
 30
0.0
 11
4.123147697928732
 21
1.030608102561304
 31
-2.625144424834628E-18
210
5.992447441930702E-19
220
1.497851966576164E-19
230
0.9999999999999999
 40
0.001934237287562
 41
4.491431650035728
 42
5.669872652869613
  0
ELLIPSE
  5
33781
330
1F
100
AcDbEntity
  8
AM_0
100
AcDbEllipse
 10
23.54372224798851
 20
-114.4386681429179
 30
0.0
 11
3.194608257570781
 21
0.7985135134537219
 31
-1.289731992967840E-18
210
3.799809178619031E-19
220
9.497874960042911E-20
230
1.0
 40
0.001934237287562
 41
3.139658411477842
 42
6.285119549291577
  0
ELLIPSE
  5
33782
330
1F
100
AcDbEntity
  8
AM_0
100
AcDbEllipse
 10
23.70479109473638
 20
-115.0830553188251
 30
0.0
 11
3.83899663889588
 21
0.9595826615037969
 31
8.931245380971440E-19
210
-2.189647542032597E-19
220
-5.473169199604170E-20
230
0.9999999999999999
 40
0.001934237287562
 41
3.139658411477842
 42
6.285119549291577
  0
ELLIPSE
  5
33783
330
1F
100
AcDbEntity
  8
AM_0
100
AcDbEllipse
 10
23.87626135705148
 20
-115.7690553760443
 30
0.0
 11
4.123147697928732
 21
1.030608102561304
 31
-2.625144424834628E-18
210
5.992447441930702E-19
220
1.497851966576164E-19
230
0.9999999999999999
 40
0.001934237287562
 41
3.14159265358973
 42
6.283185307179459
  0
LINE
  5
33784
330
1F
100
AcDbEntity
  8
AM_0
100
AcDbLine
 10
18.62271626763379
 20
-121.936997990207
 30
0.0
 11
19.67495040746951
 21
-126.1466648466612
 31
0.0
  0
LINE
  5
33785
330
1F
100
AcDbEntity
  8
AM_0
100
AcDbLine
 10
15.18017227814028
 20
-124.1434410187106
 30
0.0
 11
16.04354987681666
 21
-127.5975506357209
 31
0.0
  0
LINE
  5
33786
330
1F
100
AcDbEntity
  8
AM_0
100
AcDbLine
 10
12.05452740652675
 20
-128.3460218262318
 30
0.0
 11
12.1792859824144
 21
-128.8451427177617
 31
0.0
  0
LINE
  5
33787
330
1F
100
AcDbEntity
  8
AM_0
100
AcDbLine
 10
10.78440045107084
 20
-128.6614407473133
 30
0.0
 11
10.90915902695849
 21
-129.1605616388432
 31
0.0
  0
LINE
  5
33788
330
1F
100
AcDbEntity
  8
AM_0
100
AcDbLine
 10
19.67495040746951
 20
-126.1466648466612
 30
0.0
 11
30.32995026128936
 21
-123.4762656261485
 31
0.0
  0
LINE
  5
33789
330
1F
100
AcDbEntity
  8
AM_0
100
AcDbLine
 10
10.43041067590809
 20
-129.27720251766
 30
0.0
 11
10.90915902695849
 21
-129.1605616388432
 31
0.0
  0
LINE
  5
3378A
330
1F
100
AcDbEntity
  8
AM_0
100
AcDbLine
 10
12.17928598241417
 20
-128.8451427177617
 30
0.0
 11
15.73865398218266
 21
-127.9560321204684
 31
0.0
  0
ARC
  5
3378B
330
1F
100
AcDbEntity
  8
AM_0
100
AcDbCircle
 10
18.1226825510567
 20
-129.3024950474224
 30
0.0
 40
2.688796779907804
100
AcDbArc
 50
107.342757758673
 51
140.6473309053295
  0
LINE
  5
3378C
330
1F
100
AcDbEntity
  8
AM_0
100
AcDbLine
 10
15.73782319868394
 20
-127.9553269535375
 30
0.0
 11
16.04236005060568
 21
-127.5965407140982
 31
0.0
  0
LINE
  5
3378D
330
1F
100
AcDbEntity
  8
AM_0
100
AcDbLine
 10
32.36700972304345
 20
-118.1203782409692
 30
0.0
 11
33.71700717894544
 21
-123.521305022622
 31
0.0
  0
LINE
  5
3378E
330
1F
100
AcDbEntity
  8
AM_0
100
AcDbLine
 10
10.30565210002044
 20
-128.7780816261301
 30
0.0
 11
10.78440045107084
 21
-128.6614407473133
 31
0.0
  0
LINE
  5
3378F
330
1F
100
AcDbEntity
  8
AM_0
100
AcDbLine
 10
10.36496288925821
 20
-127.833592631252
 30
0.0
 11
10.84371124030861
 21
-127.7169517524353
 31
0.0
  0
LINE
  5
33790
330
1F
100
AcDbEntity
  8
AM_0
100
AcDbLine
 10
10.30565210002044
 20
-128.7780816261301
 30
0.0
 11
10.43041067590809
 21
-129.27720251766
 31
0.0
  0
ELLIPSE
  5
33791
330
1F
100
AcDbEntity
  8
AM_0
100
AcDbEllipse
 10
24.44784380724889
 20
-132.9925970248782
 30
0.0
 11
-14.47186815164616
 21
-3.607264882319536
 31
-2.635707037484805E-18
210
-1.714725239548390E-19
220
-4.274132457975911E-20
230
1.0
 40
0.9386714648418232
 41
5.235165568261651
 42
5.638850761483944
  0
ELLIPSE
  5
33792
330
1F
100
AcDbEntity
  8
AM_0
100
AcDbEllipse
 10
24.33409995064369
 20
-133.0240094119636
 30
0.0
 11
-13.08894226629463
 21
-3.25663692887457
 31
-8.758271502556712E-17
210
-6.301268152070722E-18
220
-1.567807554290944E-18
230
1.0
 40
0.9267480214061297
 41
5.235552381352719
 42
5.639237574575099
  0
ARC
  5
33793
330
1F
100
AcDbEntity
  8
AM_0
100
AcDbCircle
 10
25.4187336397161
 20
-135.0890757488179
 30
0.0
 40
16.41513873499959
100
AcDbArc
 50
118.8852942393209
 51
132.6915305739303
  0
ARC
  5
33794
330
1F
100
AcDbEntity
  8
AM_0
100
AcDbCircle
 10
27.475822276153
 20
-139.5386112451648
 30
0.0
 40
19.7026464002982
100
AcDbArc
 50
116.7010828439547
 51
128.6132885178273
  0
ELLIPSE
  5
33795
330
1F
100
AcDbEntity
  8
AM_0
100
AcDbEllipse
 10
21.48595074835419
 20
-133.7142241774162
 30
0.0
 11
-3.346449809897859
 21
13.59417553316878
 31
-2.333376500756251E-18
210
-3.983935719837420E-20
220
1.618381406114203E-19
230
1.0
 40
0.8368913252209159
 41
0.5264261547097806
 42
0.930111347932059
  0
ARC
  5
33796
330
1F
100
AcDbEntity
  8
AM_0
100
AcDbCircle
 10
20.52291148664091
 20
-130.1924525494982
 30
0.0
 40
10.24923885838623
100
AcDbArc
 50
118.1414128256267
 51
138.2505607123778
  0
LINE
  5
33797
330
1F
100
AcDbEntity
  8
AM_0
100
AcDbLine
 10
21.28601043355332
 20
-120.8975431655231
 30
0.0
 11
32.36700972304345
 21
-118.1203782409691
 31
0.0
  0
LINE
  5
33798
330
1F
100
AcDbEntity
  8
AM_0
100
AcDbLine
 10
28.68494794640435
 20
-117.4810786335416
 30
0.0
 11
29.75275338874201
 21
-117.2134609085301
 31
0.0
  0
LINE
  5
33799
330
1F
100
AcDbEntity
  8
AM_0
100
AcDbLine
 10
29.75275338874201
 20
-117.21346090853
 30
0.0
 11
31.55316377157158
 21
-116.7748140728317
 31
0.0
  0
LINE
  5
3379A
330
1F
100
AcDbEntity
  8
AM_0
100
AcDbLine
 10
31.55316377157158
 20
-116.7748140728317
 30
0.0
 11
29.01985167703299
 21
-117.4097230109248
 31
0.0
  0
LINE
  5
3379B
330
1F
100
AcDbEntity
  8
AM_0
100
AcDbLine
 10
21.90841271996953
 20
-119.1920206466078
 30
0.0
 11
20.47216448208144
 21
-119.5519789973856
 31
0.0
  0
LINE
  5
3379C
330
1F
100
AcDbEntity
  8
AM_0
100
AcDbLine
 10
18.6717540992521
 20
-119.990625833084
 30
0.0
 11
20.47216448208144
 21
-119.5519789973856
 31
0.0
  0
LINE
  5
3379D
330
1F
100
AcDbEntity
  8
AM_0
100
AcDbLine
 10
18.67175409925187
 20
-119.990625833084
 30
0.0
 11
20.10800233713565
 21
-119.6306674823073
 31
0.0
  0
LINE
  5
3379E
330
1F
100
AcDbEntity
  8
AM_0
100
AcDbLine
 10
28.05602316622537
 20
-118.1690885350408
 30
0.0
 11
26.8903649535863
 21
-118.4612305176894
 31
0.0
  0
LINE
  5
3379F
330
1F
100
AcDbEntity
  8
AM_0
100
AcDbLine
 10
24.95136834785433
 20
-118.9471897007547
 30
0.0
 11
23.78571013519093
 21
-119.2393316834095
 31
0.0
  0
ARC
  5
337A0
330
1F
100
AcDbEntity
  8
AM_0
100
AcDbCircle
 10
22.72957143646164
 20
-123.8776677752445
 30
0.0
 40
4.757056931735405
100
AcDbArc
 50
77.17258004463278
 51
99.94013204058571
  0
SPLINE
  5
337A1
330
1F
100
AcDbEntity
  8
AM_0
100
AcDbSpline
210
0.0
220
0.0
230
1.0
 70
     8
 71
     3
 72
     8
 73
     4
 74
     0
 42
0.0000000001
 43
0.0000000001
 40
8.99452670302588
 40
8.99452670302588
 40
8.99452670302588
 40
8.99452670302588
 40
9.204589678217225
 40
9.204589678217225
 40
9.204589678217225
 40
9.204589678217225
 10
20.10800233713701
 20
-119.630667482307
 30
0.0
 10
20.13540826735436
 20
-119.6236894768803
 30
0.0
 10
20.16474737902956
 20
-119.6189936825628
 30
0.0
 10
20.19591210852093
 20
-119.6163178904471
 30
0.0
  0
ARC
  5
337A2
330
1F
100
AcDbEntity
  8
AM_0
100
AcDbCircle
 10
30.31793673913313
 20
-120.0486788594535
 30
0.0
 40
2.940937401395911
100
AcDbArc
 50
116.192270148394
 51
140.2743154572344
  0
LINE
  5
337A3
330
1F
100
AcDbEntity
  8
AM_0
100
AcDbLine
 10
29.24516503462758
 20
-124.6190298272583
 30
0.0
 11
28.60984412883124
 21
-124.3972244019999
 31
0.0
  0
LINE
  5
337A4
330
1F
100
AcDbEntity
  8
AM_0
100
AcDbLine
 10
28.50961912226865
 20
-123.9962548151552
 30
0.0
 11
30.59282069393601
 21
-123.4887095431168
 31
0.0
  0
LINE
  5
337A5
330
1F
100
AcDbEntity
  8
AM_0
100
AcDbLine
 10
30.59282069393623
 20
-123.4887095431169
 30
0.0
 11
31.9456838568459
 21
-123.9610257953098
 31
0.0
  0
LINE
  5
337A6
330
1F
100
AcDbEntity
  8
AM_0
100
AcDbLine
 10
30.94335567539963
 20
-124.1535891187233
 30
0.0
 11
31.03057199760076
 21
-124.1840383818575
 31
0.0
  0
ELLIPSE
  5
337A7
330
1F
100
AcDbEntity
  8
AM_0
100
AcDbEllipse
 10
30.79332147683056
 20
-124.1901430216981
 30
0.0
 11
-0.5570820078625571
 21
0.1743383267197669
 31
1.136809236654746E-17
210
1.858621597213637E-17
220
-5.816540019066463E-18
230
0.9999999999999999
 40
0.1401754732005299
 41
4.483808850619589
 42
6.054605177414485
  0
LINE
  5
337A8
330
1F
100
AcDbEntity
  8
AM_0
100
AcDbLine
 10
30.95553625136279
 20
-124.2023198764351
 30
0.0
 11
30.94335567539986
 21
-124.1535891187233
 31
0.0
  0
LINE
  5
337A9
330
1F
100
AcDbEntity
  8
AM_0
100
AcDbLine
 10
29.68613722658813
 20
-124.1415496054977
 30
0.0
 11
30.25626718115075
 21
-124.0026447741932
 31
0.0
  0
LINE
  5
337AA
330
1F
100
AcDbEntity
  8
AM_0
100
AcDbLine
 10
30.25626718115097
 20
-124.0026447741933
 30
0.0
 11
30.3443638554478
 21
-124.3550926143762
 31
0.0
  0
ELLIPSE
  5
337AB
330
1F
100
AcDbEntity
  8
AM_0
100
AcDbEllipse
 10
30.22319152226794
 20
-124.3290478530026
 30
0.0
 11
-0.5570820078625571
 21
0.1743383267197669
 31
1.136809236654746E-17
210
1.858621597213637E-17
220
-5.816540019066463E-18
230
0.9999999999999999
 40
0.1401754732005299
 41
6.05460517741446
 42
6.368578795264662
  0
LINE
  5
337AC
330
1F
100
AcDbEntity
  8
AM_0
100
AcDbLine
 10
29.77517089197397
 20
-124.4977460603486
 30
0.0
 11
29.68613722658836
 21
-124.1415496054977
 31
0.0
  0
ARC
  5
337AD
330
1F
100
AcDbEntity
  8
AM_0
100
AcDbCircle
 10
18.08375987125424
 20
-127.3669282078729
 30
0.0
 40
0.7999992092102252
100
AcDbArc
 50
108.8505802079067
 51
194.0302771698452
  0
LINE
  5
337AE
330
1F
100
AcDbEntity
  8
AM_0
100
AcDbLine
 10
12.25565026781794
 20
-128.8260673382529
 30
0.0
 11
12.28945887335578
 21
-128.9613252250746
 31
0.0
  0
LINE
  5
337AF
330
1F
100
AcDbEntity
  8
AM_0
100
AcDbLine
 10
15.36025635345243
 20
-128.0505537719855
 30
0.0
 11
15.37595890804289
 21
-128.1133748886163
 31
0.0
  0
LINE
  5
337B0
330
1F
100
AcDbEntity
  8
AM_0
100
AcDbLine
 10
33.37213572660528
 20
-117.8662959136956
 30
0.0
 11
34.72280897801636
 21
-123.2699263464169
 31
0.0
  0
LINE
  5
337B1
330
1F
100
AcDbEntity
  8
AM_0
100
AcDbLine
 10
10.23429431281272
 20
-128.7949943541613
 30
0.0
 11
10.35905288870038
 21
-129.2941152456913
 31
0.0
  0
LINE
  5
337B2
330
1F
100
AcDbEntity
  8
AM_0
100
AcDbLine
 10
29.76142741559568
 20
-117.2113173157366
 30
0.0
 11
31.56183779842525
 21
-116.7726704800382
 31
0.0
  0
ARC
  5
337B3
330
1F
100
AcDbEntity
  8
AM_0
100
AcDbCircle
 10
22.49296830485974
 20
-131.7972245293299
 30
0.0
 40
12.81562962651804
100
AcDbArc
 50
139.4933816080878
 51
162.647648186356
  0
ARC
  5
337B4
330
1F
100
AcDbEntity
  8
AM_0
100
AcDbCircle
 10
20.60744184789775
 20
-130.3960554176899
 30
0.0
 40
10.47310847243621
100
AcDbArc
 50
118.2185954796597
 51
138.6215023357438
  0
ARC
  5
337B5
330
1F
100
AcDbEntity
  8
AM_0
100
AcDbCircle
 10
21.79409819950871
 20
-132.4456237000007
 30
0.0
 40
12.84040834991449
100
AcDbArc
 50
104.077652773832
 51
118.5600009694561
  0
LINE
  5
337B6
330
1F
100
AcDbEntity
  8
AM_0
100
AcDbLine
 10
28.68494719422608
 20
-117.481075624307
 30
0.0
 11
29.75183878779342
 21
-117.2136869317757
 31
0.0
  0
LINE
  5
337B7
330
1F
100
AcDbEntity
  8
AM_0
100
AcDbLine
 10
18.67083949830305
 20
-119.9908518563298
 30
0.0
 11
20.10960724150198
 21
-119.6302620569259
 31
0.0
  0
LINE
  5
337B8
330
1F
100
AcDbEntity
  8
AM_0
100
AcDbLine
 10
29.66605510763509
 20
-124.1620049925803
 30
0.0
 11
29.75146111572815
 21
-124.5036883005057
 31
0.0
  0
ELLIPSE
  5
337B9
330
1F
100
AcDbEntity
  8
AM_0
100
AcDbEllipse
 10
30.45119804654416
 20
-123.9613409185025
 30
0.0
 11
-0.1183564429703028
 21
0.4857898232851502
 31
2.695724302413093E-18
210
1.276225358648861E-18
220
-5.238221729978965E-18
230
1.0
 40
0.9511120889506645
 41
5.730942778226456
 42
6.289448138864949
  0
ELLIPSE
  5
337BA
330
1F
100
AcDbEntity
  8
AM_0
100
AcDbEllipse
 10
16.6742664360869
 20
-126.8777429061585
 30
0.0
 11
9.701523995126419
 21
2.424960241320755
 31
2.802665794042692E-18
210
-2.719012945122519E-19
220
-6.796353120263189E-20
230
1.0
 40
0.0019342372875633
 41
4.77863731625324
 42
5.026362598234422
  0
ELLIPSE
  5
337BB
330
1F
100
AcDbEntity
  8
AM_0
100
AcDbEllipse
 10
12.2930298390196
 20
-128.8137303306764
 30
0.0
 11
1.455228599268966
 21
0.3637440361981011
 31
-6.204030547015788E-19
210
4.012570081224734E-19
220
1.002968494163482E-19
230
1.0
 40
0.0019342372875606
 41
3.45556627143955
 42
4.633663516535666
  0
ELLIPSE
  5
337BC
330
1F
100
AcDbEntity
  8
AM_0
100
AcDbEllipse
 10
15.85239783878785
 20
-127.9246197333831
 30
0.0
 11
1.455228599268967
 21
0.3637440361981013
 31
-6.204030547016160E-19
210
4.012570081224972E-19
220
1.002968494163542E-19
230
1.0
 40
0.0019342372875606
 41
4.633663516535667
 42
6.283185307179661
  0
ELLIPSE
  5
337BD
330
1F
100
AcDbEntity
  8
AM_0
100
AcDbEllipse
 10
11.81428148796942
 20
-128.9303712094931
 30
0.0
 11
1.455228599268966
 21
0.3637440361981011
 31
-6.204030547015788E-19
210
4.012570081224734E-19
220
1.002968494163482E-19
230
1.0
 40
0.0019342372875606
 41
3.14159265358973
 42
3.455566271439435
  0
ELLIPSE
  5
337BE
330
1F
100
AcDbEntity
  8
AM_0
100
AcDbEllipse
 10
31.916907127336
 20
-118.2300399498937
 30
0.0
 11
1.455228599268964
 21
0.3637440361981071
 31
-6.204030547030575E-19
210
4.012570081234297E-19
220
1.002968494165890E-19
230
1.0
 40
0.001934237287562
 41
5.026362598234488
 42
6.283185307179587
  0
ELLIPSE
  5
337BF
330
1F
100
AcDbEntity
  8
AM_0
100
AcDbEllipse
 10
12.16827126313194
 20
-128.3146094391464
 30
0.0
 11
1.455228599268964
 21
0.3637440361981073
 31
-6.204030547030764E-19
210
4.012570081234418E-19
220
1.002968494165920E-19
230
1.0
 40
0.0019342372875619
 41
3.455566271439549
 42
4.633663516535668
  0
ELLIPSE
  5
337C0
330
1F
100
AcDbEntity
  8
AM_0
100
AcDbEllipse
 10
12.16827126313194
 20
-128.3146094391464
 30
0.0
 11
-0.3550693289109098
 21
1.457369469855452
 31
-5.432380997856456E-18
210
-8.572763890210075E-19
220
3.518660539955057E-18
230
1.0
 40
0.9511120889506642
 41
0.9321094871458525
 42
1.577059158480283
  0
ELLIPSE
  5
337C1
330
1F
100
AcDbEntity
  8
AM_0
100
AcDbEllipse
 10
12.16827126313194
 20
-128.3146094391464
 30
0.0
 11
-1.359055195447879
 21
0.6347983740733695
 31
1.006793683818752E-17
210
6.081280829946413E-18
220
-2.840493304513169E-18
230
0.9999999999999998
 40
0.0511563817532497
 41
0.250915689056455
 42
1.510918932549469
  0
ELLIPSE
  5
337C2
330
1F
100
AcDbEntity
  8
AM_0
100
AcDbEllipse
 10
15.29391613474274
 20
-124.112028631626
 30
0.0
 11
-1.005588881450914
 21
1.113009883829565
 31
4.397025027325913E-18
210
1.965155323973481E-18
220
-2.175081028826533E-18
230
1.0
 40
0.0703487172287349
 41
0.1567395544401385
 42
1.535492433559115
  0
ELLIPSE
  5
337C3
330
1F
100
AcDbEntity
  8
AM_0
100
AcDbEllipse
 10
23.86710246921632
 20
-133.1340871832981
 30
0.0
 11
-3.313980403168476
 21
13.60211505198421
 31
2.140206484718399E-17
210
3.618674667903504E-19
220
-1.485272185721548E-18
230
1.0
 40
0.9511120889506645
 41
0.0062628316853903
 42
0.2471147081833318
  0
ELLIPSE
  5
337C4
330
1F
100
AcDbEntity
  8
AM_0
100
AcDbEllipse
 10
24.31720506492354
 20
-133.0244254743735
 30
0.0
 11
-2.958911074257575
 21
12.14474558212876
 31
5.387355365523099E-17
210
1.020205148928464E-18
220
-4.187395857586835E-18
230
1.0
 40
0.9511120889506647
 41
0.0062628316853759
 42
0.2471147081833272
  0
ELLIPSE
  5
337C5
330
1F
100
AcDbEntity
  8
AM_0
100
AcDbEllipse
 10
18.17261367192634
 20
-122.0466596991316
 30
0.0
 11
-0.7168322135208262
 21
1.317631047622522
 31
6.016968105328621E-18
210
1.916958473611975E-18
220
-3.523619550282436E-18
230
1.0
 40
0.2994638540428475
 41
4.633126291913748
 42
6.203922618708673
  0
ELLIPSE
  5
337C6
330
1F
100
AcDbEntity
  8
AM_0
100
AcDbEllipse
 10
31.916907127336
 20
-118.2300399498937
 30
0.0
 11
-0.355069328910909
 21
1.457369469855451
 31
-5.432380997856529E-18
210
-8.572763890210169E-19
220
3.518660539955107E-18
230
0.9999999999999999
 40
0.9511120889506645
 41
-0.0000000000001188
 42
0.0062628316852147
  0
ELLIPSE
  5
337C7
330
1F
100
AcDbEntity
  8
AM_0
100
AcDbEllipse
 10
30.11649674450644
 20
-118.6686867855921
 30
0.0
 11
-0.3550693289109098
 21
1.457369469855452
 31
-5.432380997856456E-18
210
-8.572763890210075E-19
220
3.518660539955057E-18
230
1.0
 40
0.9511120889506642
 41
-0.0000000000001195
 42
0.0062628316853852
  0
ELLIPSE
  5
337C8
330
1F
100
AcDbEntity
  8
AM_0
100
AcDbEllipse
 10
11.68952291208154
 20
-128.4312503179632
 30
0.0
 11
-0.3550693289109099
 21
1.457369469855452
 31
-5.432380997856456E-18
210
-8.572763890210075E-19
220
3.518660539955057E-18
230
0.9999999999999999
 40
0.9511120889506646
 41
0.9321094871458525
 42
1.577059158480283
  0
ELLIPSE
  5
337C9
330
1F
100
AcDbEntity
  8
AM_0
100
AcDbEllipse
 10
11.68952291208154
 20
-128.4312503179632
 30
0.0
 11
1.455228599268964
 21
0.3637440361981073
 31
-6.204030547030764E-19
210
4.012570081234418E-19
220
1.002968494165920E-19
230
1.0
 40
0.0019342372875619
 41
3.14159265358973
 42
3.455566271439435
  0
ELLIPSE
  5
337CA
330
1F
100
AcDbEntity
  8
AM_0
100
AcDbEllipse
 10
11.68952291208154
 20
-128.4312503179633
 30
0.0
 11
-1.428928091534765
 21
0.4562504895583006
 31
2.500099109064624E-17
210
1.587760821584210E-17
220
-5.069650855356992E-18
230
1.0
 40
0.4084769717780516
 41
6.00806412317554
 42
6.283185307179591
  0
ELLIPSE
  5
337CB
330
1F
100
AcDbEntity
  8
AM_0
100
AcDbEllipse
 10
13.8818086452826
 20
-124.4560704611029
 30
0.0
 11
-1.132960073989185
 21
0.9830572062430648
 31
3.724771370769238E-17
210
1.875563221253116E-17
220
-1.627405927841139E-17
230
0.9999999999999998
 40
0.5724130548285178
 41
6.092124530047801
 42
6.283185307179562
  0
ELLIPSE
  5
337CC
330
1F
100
AcDbEntity
  8
AM_0
100
AcDbEllipse
 10
22.06669208638675
 20
-133.5727340189964
 30
0.0
 11
-3.313980403168477
 21
13.6021150519842
 31
2.140206484718398E-17
210
3.618674667903506E-19
220
-1.485272185721548E-18
230
0.9999999999999999
 40
0.9511120889506645
 41
0.0062628316853903
 42
0.2471147081833316
  0
ELLIPSE
  5
337CD
330
1F
100
AcDbEntity
  8
AM_0
100
AcDbEllipse
 10
16.372203289097
 20
-122.48530653483
 30
0.0
 11
-0.7168322135208274
 21
1.317631047622524
 31
6.016968105327891E-18
210
1.916958473611740E-18
220
-3.523619550282003E-18
230
0.9999999999999999
 40
0.2994638540428475
 41
6.203922618708673
 42
6.283185307179617
  0
ELLIPSE
  5
337CE
330
1F
100
AcDbEntity
  8
AM_0
100
AcDbEllipse
 10
30.11649674450644
 20
-118.6686867855921
 30
0.0
 11
-0.3646579567135578
 21
1.454999853816314
 31
3.386026819099238E-18
210
5.487740538800151E-19
220
-2.189630456358892E-18
230
1.0
 40
0.3088398500485626
 41
6.281151651374399
 42
6.283185307179569
  0
ELLIPSE
  5
337CF
330
1F
100
AcDbEntity
  8
AM_0
100
AcDbEllipse
 10
31.916907127336
 20
-118.2300399498937
 30
0.0
 11
-0.3646579567135578
 21
1.454999853816314
 31
3.386026819099238E-18
210
5.487740538800151E-19
220
-2.189630456358892E-18
230
1.0
 40
0.3088398500485626
 41
4.71035532457952
 42
6.281151651374399
  0
ELLIPSE
  5
337D0
330
1F
100
AcDbEntity
  8
AM_0
100
AcDbEllipse
 10
20.83590783784587
 20
-121.0072048744477
 30
0.0
 11
-0.3646579567135578
 21
1.454999853816314
 31
3.386026819099239E-18
210
5.487740538800154E-19
220
-2.189630456358892E-18
230
1.0
 40
0.3088398500485625
 41
4.71035532457952
 42
6.281151651374399
  0
ELLIPSE
  5
337D1
330
1F
100
AcDbEntity
  8
AM_0
100
AcDbEllipse
 10
24.102636736401
 20
-118.6358056826708
 30
0.0
 11
4.365685797806894
 21
1.091232108594322
 31
3.342805454945825E-18
210
-7.206734962710312E-19
220
-1.801371182825249E-19
230
0.9999999999999998
 40
0.0019342372875619
 41
2.725838615214018
 42
4.18529392766653
  0
ELLIPSE
  5
337D2
330
1F
100
AcDbEntity
  8
AM_0
100
AcDbEllipse
 10
25.02521727777491
 20
-118.4045848105595
 30
0.0
 11
4.365685797806894
 21
1.091232108594322
 31
3.342805454945825E-18
210
-7.206734962710312E-19
220
-1.801371182825249E-19
230
0.9999999999999998
 40
0.0019342372875619
 41
5.867431268801193
 42
6.858970321552977
  0
ARC
  5
337D3
330
1F
100
AcDbEntity
  8
AM_0
100
AcDbCircle
 10
31.91690712733595
 20
-118.2300399498938
 30
0.0
 40
1.5
100
AcDbArc
 50
14.03390468459692
 51
103.6926130716428
  0
ARC
  5
337D4
330
1F
100
AcDbEntity
  8
AM_0
100
AcDbCircle
 10
30.11649674450638
 20
-118.6686867855921
 30
0.0
 40
1.5
100
AcDbArc
 50
103.6926130716428
 51
104.0698907162571
  0
ARC
  5
337D5
330
1F
100
AcDbEntity
  8
AM_0
100
AcDbCircle
 10
11.68952291208149
 20
-128.4312503179631
 30
0.0
 40
1.5
100
AcDbArc
 50
162.2919447598491
 51
194.0339046845969
  0
LINE
  5
337D6
330
1F
100
AcDbEntity
  8
AM_0
100
AcDbLine
 10
41.29999999992367
 20
-111.8161128262378
 30
0.0
 11
41.29999999992367
 21
-114.8423644163361
 31
0.0
  0
ARC
  5
337D7
330
1F
100
AcDbEntity
  8
AM_0
100
AcDbCircle
 10
44.64990703025097
 20
-113.816112826238
 30
0.0
 40
3.901522409500942
100
AcDbArc
 50
123.1180604345493
 51
149.1614681861879
  0
LINE
  5
337D8
330
1F
100
AcDbEntity
  8
AM_0
100
AcDbLine
 10
-117.544951211054
 20
5.044376519091031
 30
0.0
 11
-92.87238058659034
 21
4.995185592615059
 31
0.0
  0
LINE
  5
337D9
330
1F
100
AcDbEntity
  8
AM_0
100
AcDbLine
 10
-92.87238058659023
 20
4.995185592615059
 30
0.0
 11
-95.96269366976219
 21
0.8674793847139313
 31
0.0
  0
LINE
  5
337DA
330
1F
100
AcDbEntity
  8
AM_0
100
AcDbLine
 10
-92.63955329653584
 20
5.512792731279461
 30
0.0
 11
-92.60661594588396
 21
5.084287020077028
 31
0.0
  0
LINE
  5
337DB
330
1F
100
AcDbEntity
  8
AM_0
100
AcDbLine
 10
-92.63955329653572
 20
5.512792731279461
 30
0.0
 11
-83.32610768333291
 21
5.494224053318504
 31
0.0
  0
LINE
  5
337DC
330
1F
100
AcDbEntity
  8
AM_0
100
AcDbLine
 10
-83.27515045687005
 20
4.831284802461397
 30
0.0
 11
-83.3527625036528
 21
4.831439541444439
 31
0.0
  0
LINE
  5
337DD
330
1F
100
AcDbEntity
  8
AM_0
100
AcDbLine
 10
-92.54697185294788
 20
-4.824048339513496
 30
0.0
 11
-92.56069053182989
 21
-5.004404559142671
 31
0.0
  0
LINE
  5
337DE
330
1F
100
AcDbEntity
  8
AM_0
100
AcDbLine
 10
-83.28542054099
 20
-4.504357173589227
 30
0.0
 11
-83.20780849420783
 21
-4.504511912572269
 31
0.0
  0
LINE
  5
337DF
330
1F
100
AcDbEntity
  8
AM_0
100
AcDbLine
 10
-83.8779523121068
 20
-5.021715764524373
 30
0.0
 11
-92.56069053182989
 21
-5.004404559142671
 31
0.0
  0
LINE
  5
337E0
330
1F
100
AcDbEntity
  8
AM_0
100
AcDbLine
 10
-80.30609368389139
 20
11.21690967709506
 30
0.0
 11
-79.61588550566069
 21
10.48666927865489
 31
0.0
  0
ELLIPSE
  5
337E1
330
1F
100
AcDbEntity
  8
AM_0
100
AcDbEllipse
 10
-119.4130805261943
 20
7.901000091951971
 30
0.0
 11
38.84754115287891
 21
-2.915162679355778
 31
-5.710957990020964E-16
210
1.461863102710871E-17
220
-1.096998325474239E-18
230
1.0
 40
0.0250522245476643
 41
0.3799127019754781
 42
1.503282958237552
  0
ELLIPSE
  5
337E3
330
1F
100
AcDbEntity
  8
AM_0
100
AcDbEllipse
 10
-122.4825203958042
 20
-7.627158334213561
 30
0.0
 11
39.04360873349886
 21
2.776862604021259
 31
-5.470750769728921E-16
210
1.394137798469486E-17
220
9.915397789807526E-19
230
1.0
 40
0.0236263956337271
 41
4.854989184219138
 42
6.131388875327521
  0
LINE
  5
337E4
330
1F
100
AcDbEntity
  8
AM_0
100
AcDbLine
 10
-83.8779523121068
 20
-5.021715764524487
 30
0.0
 11
-83.24369961327056
 21
-4.9763639478941
 31
0.0
  0
LINE
  5
337E8
330
1F
100
AcDbEntity
  8
AM_0
100
AcDbLine
 10
-117.6163154749587
 20
-4.773553684278056
 30
0.0
 11
-116.8890711673131
 21
-8.149980019579147
 31
0.0
  0
ARC
  5
337E9
330
1F
100
AcDbEntity
  8
AM_0
100
AcDbCircle
 10
-86.95811964036597
 20
0.0000000000000284
 30
0.0
 40
31.0
100
AcDbArc
 50
195.2339982905659
 51
216.4834572302965
  0
ARC
  5
337EA
330
1F
100
AcDbEntity
  8
AM_0
100
AcDbCircle
 10
-86.95387993958451
 20
0.0036858002536349
 30
0.0
 40
31.00560038614015
100
AcDbArc
 50
216.4842751224386
 51
225.5201060019143
  0
ARC
  5
337EB
330
1F
100
AcDbEntity
  8
AM_0
100
AcDbCircle
 10
-86.95811964036597
 20
0.0000000000000284
 30
0.0
 40
31.0
100
AcDbArc
 50
225.5209238940595
 51
314.4790761059405
  0
ARC
  5
337EC
330
1F
100
AcDbEntity
  8
AM_0
100
AcDbCircle
 10
-86.96235934112741
 20
0.0036858002363545
 30
0.0
 40
31.00560038611389
100
AcDbArc
 50
314.4798939980846
 51
323.515724877564
  0
ARC
  5
337ED
330
1F
100
AcDbEntity
  8
AM_0
100
AcDbCircle
 10
-86.95811964036597
 20
0.0000000000000284
 30
0.0
 40
31.0
100
AcDbArc
 50
323.5165427697035
 51
332.4113777355814
  0
ARC
  5
337EE
330
1F
100
AcDbEntity
  8
AM_0
100
AcDbCircle
 10
-86.95811964036597
 20
0.0000000000000284
 30
0.0
 40
31.0
100
AcDbArc
 50
29.96265812858503
 51
40.12820230182199
  0
ARC
  5
337EF
330
1F
100
AcDbEntity
  8
AM_0
100
AcDbCircle
 10
-86.96179978570598
 20
-0.0036683905806001
 30
0.0
 40
31.00517813577538
100
AcDbArc
 50
40.12900248511642
 51
49.68769635761806
  0
ARC
  5
337F0
330
1F
100
AcDbEntity
  8
AM_0
100
AcDbCircle
 10
-86.95811964036597
 20
0.0000000000000284
 30
0.0
 40
31.0
100
AcDbArc
 50
49.68849654091176
 51
130.3115034590882
  0
ARC
  5
337F1
330
1F
100
AcDbEntity
  8
AM_0
100
AcDbCircle
 10
-86.95443949503493
 20
-0.003668390570823
 30
0.0
 40
31.00517813576205
100
AcDbArc
 50
130.3123036423808
 51
139.8709975148849
  0
ARC
  5
337F2
330
1F
100
AcDbEntity
  8
AM_0
100
AcDbCircle
 10
-86.95811964036597
 20
0.0000000000000284
 30
0.0
 40
31.0
100
AcDbArc
 50
139.871797698178
 51
163.748772009559
  0
LINE
  5
337F3
330
1F
100
AcDbEntity
  8
AM_0
100
AcDbLine
 10
-117.5743643558042
 20
5.051113359307067
 30
0.0
 11
-116.7430300276923
 21
8.680731421216677
 31
0.0
  0
ARC
  5
337F4
330
1F
100
AcDbEntity
  8
AM_0
100
AcDbCircle
 10
-86.95811964036597
 20
0.0000000000000284
 30
0.0
 40
31.00000000000001
100
AcDbArc
 50
170.635083967165
 51
178.3154350495529
  0
LINE
  5
337F5
330
1F
100
AcDbEntity
  8
AM_0
100
AcDbLine
 10
-117.5892920104716
 20
-4.767733133562672
 30
0.0
 11
-92.80850534405295
 21
-4.817139815723039
 31
0.0
  0
ARC
  5
337F6
330
1F
100
AcDbEntity
  8
AM_0
100
AcDbCircle
 10
-86.95811964036597
 20
0.0000000000000284
 30
0.0
 40
31.0
100
AcDbArc
 50
181.1359492146268
 51
188.8470817518624
  0
LINE
  5
337F7
330
1F
100
AcDbEntity
  8
AM_0
100
AcDbLine
 10
-95.96269366976219
 20
0.8674793847139313
 30
0.0
 11
-117.944721927402
 21
0.911306043568004
 31
0.0
  0
LINE
  5
337F8
330
1F
100
AcDbEntity
  8
AM_0
100
AcDbLine
 10
-117.9520272175092
 20
-0.6145674084221469
 30
0.0
 11
-96.07423650684802
 21
-0.6581862437142831
 31
0.0
  0
LINE
  5
337F9
330
1F
100
AcDbEntity
  8
AM_0
100
AcDbLine
 10
-117.9560292698218
 20
-0.6145481225177605
 30
0.0
 11
-117.9486760813088
 21
0.9113250986497974
 31
0.0
  0
LINE
  5
337FA
330
1F
100
AcDbEntity
  8
AM_0
100
AcDbLine
 10
-78.42349752138546
 20
12.07933227183753
 30
0.0
 11
-79.28035450170455
 21
11.79209215038569
 31
0.0
  0
LINE
  5
337FB
330
1F
100
AcDbEntity
  8
AM_0
100
AcDbLine
 10
-81.20957563940431
 20
11.93763967594217
 30
0.0
 11
-79.28035450170455
 21
11.79209215038557
 31
0.0
  0
LINE
  5
337FC
330
1F
100
AcDbEntity
  8
AM_0
100
AcDbLine
 10
-79.28035450170455
 20
11.79209215038569
 30
0.0
 11
-79.20160923829633
 21
10.76763831810209
 31
0.0
  0
LINE
  5
337FD
330
1F
100
AcDbEntity
  8
AM_0
100
AcDbLine
 10
-81.15912302930587
 20
11.28126534271897
 30
0.0
 11
-81.20957563940419
 21
11.93763967594228
 31
0.0
  0
LINE
  5
337FE
330
1F
100
AcDbEntity
  8
AM_0
100
AcDbLine
 10
-81.67201738362689
 20
11.31995997584536
 30
0.0
 11
-81.20957563940431
 21
11.93763967594228
 31
0.0
  0
LINE
  5
337FF
330
1F
100
AcDbEntity
  8
AM_0
100
AcDbLine
 10
-80.30609368389139
 20
11.21690967709495
 30
0.0
 11
-81.67201738362689
 21
11.31995997584536
 31
0.0
  0
LINE
  5
33800
330
1F
100
AcDbEntity
  8
AM_0
100
AcDbLine
 10
-83.24369961327056
 20
-4.976363947893987
 30
0.0
 11
-77.785341129632
 21
-11.8789733574697
 31
0.0
  0
LINE
  5
33801
330
1F
100
AcDbEntity
  8
AM_0
100
AcDbLine
 10
-83.20780849420828
 20
-4.504511912578863
 30
0.0
 11
-83.24369961327056
 21
-4.976363947893987
 31
0.0
  0
LINE
  5
33802
330
1F
100
AcDbEntity
  8
AM_0
100
AcDbLine
 10
-82.06974224914916
 20
-2.984406027413769
 30
0.0
 11
-83.20780849420839
 21
-4.504511912578977
 31
0.0
  0
LINE
  5
33803
330
1F
100
AcDbEntity
  8
AM_0
100
AcDbLine
 10
-83.27515045686982
 20
4.831284802457873
 30
0.0
 11
-82.88203077811977
 21
4.33414786985
 31
0.0
  0
LINE
  5
33804
330
1F
100
AcDbEntity
  8
AM_0
100
AcDbLine
 10
-83.32610768333291
 20
5.494224053318618
 30
0.0
 11
-83.27515045686982
 21
4.831284802457873
 31
0.0
  0
LINE
  5
33805
330
1F
100
AcDbEntity
  8
AM_0
100
AcDbLine
 10
-79.61588550566057
 20
10.48666927865489
 30
0.0
 11
-83.30840222124311
 21
5.554604546224965
 31
0.0
  0
LINE
  5
33806
330
1F
100
AcDbEntity
  8
AM_0
100
AcDbLine
 10
-79.50448543462278
 20
9.037385540791121
 30
0.0
 11
-79.61588550566057
 21
10.48666927865489
 31
0.0
  0
LINE
  5
33807
330
1F
100
AcDbEntity
  8
AM_0
100
AcDbLine
 10
-78.42349752138546
 20
12.07933227183753
 30
0.0
 11
-78.32253865408006
 21
10.76588567152407
 31
0.0
  0
LINE
  5
33808
330
1F
100
AcDbEntity
  8
AM_0
100
AcDbLine
 10
-77.7901706139952
 20
12.925261903207
 30
0.0
 11
-78.42349752138546
 21
12.07933227183753
 31
0.0
  0
ELLIPSE
  5
33809
330
1F
100
AcDbEntity
  8
AM_0
100
AcDbEllipse
 10
-72.9346647343159
 20
-11.49559552915707
 30
0.0
 11
5.000000104650154
 21
-0.0001111296408130329
 31
-5.406007479086876E-20
210
1.081201472653690E-20
220
-2.403070575754194E-25
230
0.9999999999999999
 40
0.3161837056634126
 41
3.386608199512646
 42
4.433805750708973
  0
ELLIPSE
  5
3380C
330
1F
100
AcDbEntity
  8
AM_0
100
AcDbEllipse
 10
-72.9393407715005
 20
12.52053490953244
 30
0.0
 11
-5.000000104622194
 21
0.0001188646848512786
 31
5.405977171286326E-20
210
1.081195411022818E-20
220
-2.570318982095036E-25
230
1.0
 40
0.3337910311547173
 41
4.991113725425295
 42
6.038311276621623
  0
LINE
  5
3380E
330
1F
100
AcDbEntity
  8
AM_0
100
AcDbLine
 10
-60.10123587714884
 20
15.48249962147747
 30
0.0
 11
-74.31495182286687
 21
14.12511295038632
 31
0.0
  0
ARC
  5
3380F
330
1F
100
AcDbEntity
  8
AM_0
100
AcDbCircle
 10
-86.95811964036597
 20
0.0000000000000284
 30
0.0
 40
31.0
100
AcDbArc
 50
332.4113777355814
 51
29.96265812858503
  0
LINE
  5
33810
330
1F
100
AcDbEntity
  8
AM_0
100
AcDbLine
 10
-74.30966742998362
 20
-13.01553280607493
 30
0.0
 11
-59.48295719987584
 21
-14.35672138298605
 31
0.0
  0
ARC
  5
33812
330
1F
100
AcDbEntity
  8
AM_0
100
AcDbCircle
 10
-68.95811964036597
 20
0.0000000000000284
 30
0.0
 40
5.50000000000002
100
AcDbArc
 50
193.2385956826335
 51
342.4903029213286
  0
ARC
  5
33813
330
1F
100
AcDbEntity
  8
AM_0
100
AcDbCircle
 10
-68.93719015316873
 20
0.0036760770113062
 30
0.0
 40
5.521215262795149
100
AcDbArc
 50
186.6977675858574
 51
193.225991239101
  0
ARC
  5
33814
330
1F
100
AcDbEntity
  8
AM_0
100
AcDbCircle
 10
-68.95811964036597
 20
0.0000000000000284
 30
0.0
 40
5.50000000000002
100
AcDbArc
 50
14.02640723534868
 51
85.00745823408353
  0
LINE
  5
33815
330
1F
100
AcDbEntity
  8
AM_0
100
AcDbLine
 10
-63.62210696350155
 20
1.333029899268809
 30
0.0
 11
-63.71295639918901
 21
-1.65476964360812
 31
0.0
  0
CIRCLE
  5
33816
330
1F
100
AcDbEntity
  8
AM_0
100
AcDbCircle
 10
-86.95811964036597
 20
0.0000000000000284
 30
0.0
 40
31.5
  0
ELLIPSE
  5
33817
330
1F
100
AcDbEntity
  8
AM_0
100
AcDbEllipse
 10
-93.09170400443907
 20
7.848521859467297
 30
0.0
 11
0.005981236749415987
 21
2.999994037461899
 31
7.324660527050732E-19
210
-4.867836524599166E-22
220
-2.441548656398304E-19
230
1.0
 40
0.2424955705096263
 41
3.456049746835277
 42
3.820476064236538
  0
ELLIPSE
  5
33818
330
1F
100
AcDbEntity
  8
AM_0
100
AcDbEllipse
 10
-92.8918046109884
 20
-7.686154810368947
 30
0.0
 11
-0.005981236749416143
 21
-2.999994037461918
 31
-7.324660527050924E-19
210
-4.867836524599361E-22
220
-2.441548656398352E-19
230
1.0
 40
0.2424955705096246
 41
2.677292170319671
 42
2.837980396628225
  0
ELLIPSE
  5
33819
330
1F
100
AcDbEntity
  8
AM_0
100
AcDbEllipse
 10
-83.77825839123636
 20
7.829953181506227
 30
0.0
 11
0.005981236749543651
 21
2.999994037461898
 31
7.324660527207071E-19
210
-4.867836524806981E-22
220
-2.441548656450417E-19
230
1.0
 40
0.2424955705096413
 41
3.820476064236628
 42
3.851939445402806
  0
ELLIPSE
  5
3381A
330
1F
100
AcDbEntity
  8
AM_0
100
AcDbEllipse
 10
-81.49157928465218
 20
5.116315388550362
 30
0.0
 11
0.002591869258135584
 21
1.29999741623349
 31
3.174019561789732E-19
210
-4.867836524806970E-22
220
-2.441548656450417E-19
230
1.0
 40
0.2424955705096413
 41
6.219213213209434
 42
6.976071587641068
  0
ARC
  5
3381B
330
1F
100
AcDbEntity
  8
AM_0
100
AcDbCircle
 10
-68.95811964036585
 20
0.0000000000000284
 30
0.0
 40
5.000000000000021
100
AcDbArc
 50
179.8835749923464
 51
84.05925209005603
  0
LINE
  5
3381C
330
1F
100
AcDbEntity
  8
AM_0
100
AcDbLine
 10
-96.02790378250563
 20
-0.7459066746509393
 30
0.0
 11
-92.80344666484257
 21
-4.823536992973772
 31
0.0
  0
LINE
  5
3381D
330
1F
100
AcDbEntity
  8
AM_0
100
AcDbLine
 10
-91.4411125012266
 20
-0.7550515876843917
 30
0.0
 11
-96.02790378250563
 21
-0.7459066746509393
 31
0.0
  0
LINE
  5
3381E
330
1F
100
AcDbEntity
  8
AM_0
100
AcDbLine
 10
-91.43968454536173
 20
0.7708335822382253
 30
0.0
 11
-96.02820087915484
 21
0.779981934594332
 31
0.0
  0
LINE
  5
3381F
330
1F
100
AcDbEntity
  8
AM_0
100
AcDbLine
 10
-92.80537583518242
 20
5.084683297515909
 30
0.0
 11
-96.02820087915484
 21
0.7799819345942183
 31
0.0
  0
LINE
  5
33820
330
1F
100
AcDbEntity
  8
AM_0
100
AcDbLine
 10
-88.21685950138942
 20
5.075534945159831
 30
0.0
 11
-92.80537583518242
 21
5.084683297515909
 31
0.0
  0
LINE
  5
33821
330
1F
100
AcDbEntity
  8
AM_0
100
AcDbLine
 10
-88.21666296743683
 20
-4.832681890886846
 30
0.0
 11
-92.80344666484257
 21
-4.823536992973772
 31
0.0
  0
ELLIPSE
  5
33822
330
1F
100
AcDbEntity
  8
AM_0
100
AcDbEllipse
 10
-95.96971463439502
 20
0.0190922634337198
 30
0.0
 11
-0.001594996466510952
 21
-0.7999984099898396
 31
-1.953242807213555E-19
210
-4.867836524599303E-22
220
-2.441548656398337E-19
230
0.9999999999999999
 40
0.2424955705096264
 41
3.456049746835369
 42
5.986777162227242
  0
LINE
  5
33823
330
1F
100
AcDbEntity
  8
AM_0
100
AcDbLine
 10
-83.56760544298402
 20
-4.881269266438352
 30
0.0
 11
-82.14526087923207
 21
-2.981455128659007
 31
0.0
  0
LINE
  5
33824
330
1F
100
AcDbEntity
  8
AM_0
100
AcDbLine
 10
-86.82231196816531
 20
-0.7653857176629515
 30
0.0
 11
-83.56760544298425
 21
-4.881269266438466
 31
0.0
  0
LINE
  5
33825
330
1F
100
AcDbEntity
  8
AM_0
100
AcDbLine
 10
-83.56760544298425
 20
-4.881269266438352
 30
0.0
 11
-88.18552222619439
 21
-4.872062296949565
 31
0.0
  0
LINE
  5
33826
330
1F
100
AcDbEntity
  8
AM_0
100
AcDbLine
 10
-91.44022875137546
 20
-0.7561787481741646
 30
0.0
 11
-88.18552222619439
 21
-4.872062296949679
 31
0.0
  0
LINE
  5
33827
330
1F
100
AcDbEntity
  8
AM_0
100
AcDbLine
 10
-86.82231196816531
 20
-0.7653857176629515
 30
0.0
 11
-91.44022875137546
 21
-0.7561787481741646
 31
0.0
  0
LINE
  5
33828
330
1F
100
AcDbEntity
  8
AM_0
100
AcDbLine
 10
-83.56954992419981
 20
5.105587693023637
 30
0.0
 11
-86.8226090648144
 21
0.7605028915824335
 31
0.0
  0
LINE
  5
33829
330
1F
100
AcDbEntity
  8
AM_0
100
AcDbLine
 10
-86.8226090648144
 20
0.7605028915823198
 30
0.0
 11
-91.44052584802466
 21
0.7697098610711066
 31
0.0
  0
LINE
  5
3382A
330
1F
100
AcDbEntity
  8
AM_0
100
AcDbLine
 10
-88.18746670741007
 20
5.114794662512423
 30
0.0
 11
-91.44052584802466
 21
0.7697098610712203
 31
0.0
  0
LINE
  5
3382B
330
1F
100
AcDbEntity
  8
AM_0
100
AcDbLine
 10
-82.93973393344231
 20
4.309125936776496
 30
0.0
 11
-83.56954992419981
 21
5.105587693023523
 31
0.0
  0
LINE
  5
3382C
330
1F
100
AcDbEntity
  8
AM_0
100
AcDbLine
 10
-83.56954992419981
 20
5.105587693023523
 30
0.0
 11
-88.18746670741007
 21
5.11479466251231
 31
0.0
  0
ELLIPSE
  5
3382D
330
1F
100
AcDbEntity
  8
AM_0
100
AcDbEllipse
 10
-86.7641228200547
 20
-0.0003867795781787
 30
0.0
 11
-0.001594996466510952
 21
-0.7999984099898396
 31
-1.953242807213555E-19
210
-4.867836524599303E-22
220
-2.441548656398337E-19
230
0.9999999999999999
 40
0.2424955705096264
 41
3.456049746835369
 42
5.986777162227242
  0
ELLIPSE
  5
3382E
330
1F
100
AcDbEntity
  8
AM_0
100
AcDbEllipse
 10
-91.38203960326484
 20
0.0088201899106082
 30
0.0
 11
-0.001594996466510952
 21
-0.7999984099898396
 31
-1.953242807213555E-19
210
-4.867836524599303E-22
220
-2.441548656398337E-19
230
0.9999999999999999
 40
0.2424955705096264
 41
3.456049746835369
 42
5.986777162227241
  0
LINE
  5
3382F
330
1F
100
AcDbEntity
  8
AM_0
100
AcDbLine
 10
-69.17488989176798
 20
6.627561059945379
 30
0.0
 11
-68.65016118898882
 21
5.837297985888881
 31
0.0
  0
LINE
  5
33830
330
1F
100
AcDbEntity
  8
AM_0
100
AcDbLine
 10
-68.65016118898882
 20
5.837297985888768
 30
0.0
 11
-69.4044042876161
 21
5.838801757724013
 31
0.0
  0
LINE
  5
33831
330
1F
100
AcDbEntity
  8
AM_0
100
AcDbLine
 10
-68.65016118898882
 20
5.837297985888768
 30
0.0
 11
-68.55728492957735
 21
3.562911745462998
 31
0.0
  0
LINE
  5
33832
330
1F
100
AcDbEntity
  8
AM_0
100
AcDbLine
 10
-68.55728492957746
 20
3.562911745462998
 30
0.0
 11
-69.54228056504564
 21
3.564875580063813
 31
0.0
  0
LINE
  5
33833
330
1F
100
AcDbEntity
  8
AM_0
100
AcDbLine
 10
-68.55728492957735
 20
3.562911745462998
 30
0.0
 11
-68.98913737294527
 21
2.078788579093839
 31
0.0
  0
LINE
  5
33834
330
1F
100
AcDbEntity
  8
AM_0
100
AcDbLine
 10
-68.98913737294527
 20
2.078788579093839
 30
0.0
 11
-69.51386607572442
 21
2.869051653150336
 31
0.0
  0
LINE
  5
33835
330
1F
100
AcDbEntity
  8
AM_0
100
AcDbLine
 10
-69.51386607572442
 20
2.869051653150336
 30
0.0
 11
-69.60674233513589
 21
5.143437893576106
 31
0.0
  0
LINE
  5
33836
330
1F
100
AcDbEntity
  8
AM_0
100
AcDbLine
 10
-69.60674233513589
 20
5.14343789357622
 30
0.0
 11
-69.17488989176798
 21
6.627561059945379
 31
0.0
  0
ARC
  5
33837
330
1F
100
AcDbEntity
  8
AM_0
100
AcDbCircle
 10
-75.65113420082088
 20
4.366272000668943
 30
0.0
 40
7.226022867450817
100
AcDbArc
 50
333.7031208506596
 51
26.0684125833062
  0
LINE
  5
33838
330
1F
100
AcDbEntity
  8
AM_0
100
AcDbLine
 10
-73.94123997462498
 20
0.112854452886495
 30
0.0
 11
-70.70502481170013
 21
0.1064022503754813
 31
0.0
  0
LINE
  5
33839
330
1F
100
AcDbEntity
  8
AM_0
100
AcDbLine
 10
-73.92429313716832
 20
8.612837559028435
 30
0.0
 11
-70.68807797424358
 21
8.606385356517421
 31
0.0
  0
LINE
  5
3383A
330
1F
100
AcDbEntity
  8
AM_0
100
AcDbLine
 10
-69.16021478645746
 20
7.541704512495699
 30
0.0
 11
-69.76305965963093
 21
8.18603725122523
 31
0.0
  0
LINE
  5
3383B
330
1F
100
AcDbEntity
  8
AM_0
100
AcDbLine
 10
-69.17292837346952
 20
1.164982301283203
 30
0.0
 11
-69.77833771999769
 21
0.5230585188553505
 31
0.0
  0
ARC
  5
3383C
330
1F
100
AcDbEntity
  8
AM_0
100
AcDbCircle
 10
-70.70754379207057
 20
7.33557685930046
 30
0.0
 40
1.270957573903442
100
AcDbArc
 50
42.00144255376301
 51
89.12243111977165
  0
ARC
  5
3383D
330
1F
100
AcDbEntity
  8
AM_0
100
AcDbCircle
 10
-70.71942314718825
 20
1.377278264233297
 30
0.0
 40
1.270957573904073
100
AcDbArc
 50
270.6491023142087
 51
317.7700908802025
  0
ELLIPSE
  5
3383E
330
1F
100
AcDbEntity
  8
AM_0
100
AcDbEllipse
 10
-69.08201363235662
 20
4.353174819519609
 30
0.0
 11
0.005155400288958499
 21
2.58578129834352
 31
6.313335950356308E-19
210
-4.867836524599164E-22
220
-2.441548656398303E-19
230
1.0
 40
0.2424955705096262
 41
0.0082216125387629
 42
6.291406919718347
  0
ELLIPSE
  5
3383F
330
1F
100
AcDbEntity
  8
AM_0
100
AcDbEllipse
 10
-73.93276655589682
 20
4.362846005957408
 30
0.0
 11
-0.008473418728339429
 21
-4.249991553071024
 31
-1.037660241332201E-18
210
-4.867836524599294E-22
220
-2.441548656398337E-19
230
1.0
 40
0.2424955705096263
 41
3.141592653589739
 42
3.954649746515887
  0
ELLIPSE
  5
33840
330
1F
100
AcDbEntity
  8
AM_0
100
AcDbEllipse
 10
-73.93276655589682
 20
4.362846005957408
 30
0.0
 11
-0.008473418728339429
 21
-4.249991553071024
 31
-1.037660241332201E-18
210
-4.867836524599294E-22
220
-2.441548656398337E-19
230
1.0
 40
0.2424955705096263
 41
6.164836722064841
 42
6.28318530717964
  0
ELLIPSE
  5
33841
330
1F
100
AcDbEntity
  8
AM_0
100
AcDbEllipse
 10
-69.36616415984554
 20
4.35374134450467
 30
0.0
 11
-0.006565191310756662
 21
-3.292886674146362
 31
-8.039774993212083E-19
210
-4.867836524599290E-22
220
-2.441548656398334E-19
230
1.0
 40
0.2424955705096263
 41
2.888957703862509
 42
6.535820256906952
  0
ELLIPSE
  5
33842
330
1F
100
AcDbEntity
  8
AM_0
100
AcDbEllipse
 10
-70.01055133575278
 20
4.355026091143941
 30
0.0
 11
0.007889464166998948
 21
3.957098916386566
 31
9.661487947160888E-19
210
-4.867836524599424E-22
220
-2.441548656398367E-19
230
1.0
 40
0.2424955705096263
 41
6.030550357452116
 42
9.67741291049685
  0
ELLIPSE
  5
33843
330
1F
100
AcDbEntity
  8
AM_0
100
AcDbEllipse
 10
-70.69655139297186
 20
4.356393803446395
 30
0.0
 11
-0.008473418728339429
 21
-4.249991553071024
 31
-1.037660241332201E-18
210
-4.867836524599294E-22
220
-2.441548656398337E-19
230
1.0
 40
0.2424955705096263
 41
3.141592653589794
 42
6.283185307179585
  0
LINE
  5
33844
330
1F
100
AcDbEntity
  8
AM_0
100
AcDbLine
 10
-79.07093703563828
 20
-2.961828599325571
 30
0.0
 11
-82.52504665264848
 21
-2.954941969845635
 31
0.0
  0
LINE
  5
33845
330
1F
100
AcDbEntity
  8
AM_0
100
AcDbLine
 10
-83.27351784315943
 20
-2.635794183387901
 30
0.0
 11
-83.77263873468928
 21
-2.634799061337134
 31
0.0
  0
LINE
  5
33846
330
1F
100
AcDbEntity
  8
AM_0
100
AcDbLine
 10
-83.58893676424088
 20
-1.60370262950093
 30
0.0
 11
-84.08805765577085
 21
-1.602707507450162
 31
0.0
  0
LINE
  5
33847
330
1F
100
AcDbEntity
  8
AM_0
100
AcDbLine
 10
-84.20469853458758
 20
-0.0852423275387935
 30
0.0
 11
-84.08805765577085
 21
-1.602707507450162
 31
0.0
  0
LINE
  5
33848
330
1F
100
AcDbEntity
  8
AM_0
100
AcDbLine
 10
-83.77263873468939
 20
-2.634799061337134
 30
0.0
 11
-82.88352813739596
 21
-2.9242195615453
 31
0.0
  0
LINE
  5
33849
330
1F
100
AcDbEntity
  8
AM_0
100
AcDbLine
 10
-82.52520877545828
 20
-2.957849953037083
 30
0.0
 11
-81.94363019196385
 21
-2.990273515222299
 31
0.0
  0
LINE
  5
3384A
330
1F
100
AcDbEntity
  8
AM_0
100
AcDbLine
 10
-82.88351911490577
 20
-2.924114104912945
 30
0.0
 11
-82.52503321166137
 21
-2.954784869350732
 31
0.0
  0
LINE
  5
3384B
330
1F
100
AcDbEntity
  8
AM_0
100
AcDbLine
 10
-83.70557764305761
 20
-0.0862374495895608
 30
0.0
 11
-83.58893676424088
 21
-1.60370262950093
 31
0.0
  0
LINE
  5
3384C
330
1F
100
AcDbEntity
  8
AM_0
100
AcDbLine
 10
-79.06173189662366
 20
9.628767862964452
 30
0.0
 11
-81.73213111713642
 21
6.06193720748584
 31
0.0
  0
LINE
  5
3384D
330
1F
100
AcDbEntity
  8
AM_0
100
AcDbLine
 10
-79.8130827049855
 20
10.69530395721725
 30
0.0
 11
-73.7058445114443
 21
10.68312765384314
 31
0.0
  0
ARC
  5
3384E
330
1F
100
AcDbEntity
  8
AM_0
100
AcDbCircle
 10
-84.4842149227606
 20
6.264177605129277
 30
0.0
 40
2.536728278911081
100
AcDbArc
 50
303.836081571404
 51
330.4813711898241
  0
LINE
  5
3384F
330
1F
100
AcDbEntity
  8
AM_0
100
AcDbLine
 10
-77.52246426068223
 20
6.053544186103068
 30
0.0
 11
-81.73213111713642
 21
6.06193720748584
 31
0.0
  0
LINE
  5
33850
330
1F
100
AcDbEntity
  8
AM_0
100
AcDbLine
 10
-83.40871669719411
 20
3.908336575429445
 30
0.0
 11
-84.0919080302574
 21
1.518805094890951
 31
0.0
  0
LINE
  5
33851
330
1F
100
AcDbEntity
  8
AM_0
100
AcDbLine
 10
-83.40826220969609
 20
3.907719766261295
 30
0.0
 11
-83.07105487753586
 21
4.156186430816405
 31
0.0
  0
LINE
  5
33852
330
1F
100
AcDbEntity
  8
AM_0
100
AcDbLine
 10
-79.61760728186653
 20
4.150198264328679
 30
0.0
 11
-83.07171689840891
 21
4.157084893807593
 31
0.0
  0
LINE
  5
33853
330
1F
100
AcDbEntity
  8
AM_0
100
AcDbLine
 10
-82.76108864817957
 20
0.0050733566002066
 30
0.0
 11
-82.64444776936284
 21
-1.512391823311162
 31
0.0
  0
LINE
  5
33854
330
1F
100
AcDbEntity
  8
AM_0
100
AcDbLine
 10
-83.70557764305761
 20
-0.0862374495895608
 30
0.0
 11
-84.20469853458758
 21
-0.0852423275387935
 31
0.0
  0
LINE
  5
33855
330
1F
100
AcDbEntity
  8
AM_0
100
AcDbLine
 10
-83.59278713872755
 20
1.517809972839956
 30
0.0
 11
-84.09190803025729
 21
1.518805094890723
 31
0.0
  0
ELLIPSE
  5
33856
330
1F
100
AcDbEntity
  8
AM_0
100
AcDbEllipse
 10
-87.9200930418059
 20
-1.976219141647874
 30
0.0
 11
-14.05511715156743
 21
0.1810191299062947
 31
-4.863622642046696E-18
210
-3.459818919846366E-19
220
4.455981431887830E-21
230
1.0
 40
0.0408040877683098
 41
3.924450633941522
 42
4.328135827163814
  0
ELLIPSE
  5
33857
330
1F
100
AcDbEntity
  8
AM_0
100
AcDbEllipse
 10
-87.95150542889121
 20
-3.471570470607816
 30
0.0
 11
12.55968361913899
 21
-0.3022694218704699
 31
2.523915219592632E-16
210
-2.008374002299888E-17
220
4.833482012634368E-19
230
1.0
 40
0.0812517080355699
 41
0.7874083433395668
 42
1.191093536561946
  0
ARC
  5
33858
330
1F
100
AcDbEntity
  8
AM_0
100
AcDbCircle
 10
-77.56885295727926
 20
2.064914172453456
 30
0.0
 40
3.784323967738258
100
AcDbArc
 50
264.2012388031045
 51
300.5790863661939
  0
LINE
  5
33859
330
1F
100
AcDbEntity
  8
AM_0
100
AcDbLine
 10
-79.07123013088415
 20
-2.966551849406045
 30
0.0
 11
-78.55602274295404
 21
-2.998522385171043
 31
0.0
  0
ELLIPSE
  5
3385A
330
1F
100
AcDbEntity
  8
AM_0
100
AcDbEllipse
 10
-88.87576099818045
 20
8.552735741447378
 30
0.0
 11
-12.19284963580009
 21
-3.238398270855593
 31
-2.560534700520778E-16
210
-1.961650281477879E-17
220
-5.210106799733776E-18
230
0.9999999999999999
 40
0.6697707974507683
 41
1.835464432088093
 42
2.239149625310469
  0
ELLIPSE
  5
3385B
330
1F
100
AcDbEntity
  8
AM_0
100
AcDbEllipse
 10
-88.64172019434386
 20
7.411948094090604
 30
0.0
 11
13.7344319953583
 21
3.165142651957269
 31
1.462657870841901E-17
210
-1.011250789885612E-18
220
-2.330458957439345E-19
230
0.9999999999999998
 40
0.632706297265059
 41
5.005111927576788
 42
5.408797120799067
  0
ARC
  5
3385C
330
1F
100
AcDbEntity
  8
AM_0
100
AcDbCircle
 10
-62.98084711094367
 20
-14.44871349714742
 30
0.0
 40
23.04812505382061
100
AcDbArc
 50
124.6414772496341
 51
131.6403753994927
  0
ARC
  5
3385D
330
1F
100
AcDbEntity
  8
AM_0
100
AcDbCircle
 10
-67.58584088150343
 20
-6.989183271677661
 30
0.0
 40
16.39662232649124
100
AcDbArc
 50
127.3020226785859
 51
137.2055286112501
  0
LINE
  5
3385E
330
1F
100
AcDbEntity
  8
AM_0
100
AcDbLine
 10
-73.7058445114443
 20
10.68312765384314
 30
0.0
 11
-76.48300943599827
 21
6.973690910404685
 31
0.0
  0
LINE
  5
3385F
330
1F
100
AcDbEntity
  8
AM_0
100
AcDbLine
 10
-72.62259184692346
 20
8.610242292672524
 30
0.0
 11
-72.14095692545766
 21
9.253558164485753
 31
0.0
  0
LINE
  5
33860
330
1F
100
AcDbEntity
  8
AM_0
100
AcDbLine
 10
-72.14095692545766
 20
9.253558164485753
 30
0.0
 11
-72.09142666042237
 21
8.609183282323102
 31
0.0
  0
LINE
  5
33861
330
1F
100
AcDbEntity
  8
AM_0
100
AcDbLine
 10
-74.11951666353548
 20
0.318242347132923
 30
0.0
 11
-74.47947501431327
 21
-0.1625511126566153
 31
0.0
  0
LINE
  5
33862
330
1F
100
AcDbEntity
  8
AM_0
100
AcDbLine
 10
-74.91812185001163
 20
5.544121421047294
 30
0.0
 11
-74.47947501431327
 21
-0.162551112656729
 31
0.0
  0
LINE
  5
33863
330
1F
100
AcDbEntity
  8
AM_0
100
AcDbLine
 10
-74.91812185001163
 20
5.544121421047294
 30
0.0
 11
-74.55816349923487
 21
6.024914880835468
 31
0.0
  0
LINE
  5
33864
330
1F
100
AcDbEntity
  8
AM_0
100
AcDbLine
 10
-73.8813139262835
 20
0.1127349753547833
 30
0.0
 11
-74.05832638823279
 21
-0.123699139377095
 31
0.0
  0
LINE
  5
33865
330
1F
100
AcDbEntity
  8
AM_0
100
AcDbLine
 10
-74.76894855982516
 20
7.564800353820488
 30
0.0
 11
-74.47680657721332
 21
7.95501203877302
 31
0.0
  0
LINE
  5
33866
330
1F
100
AcDbEntity
  8
AM_0
100
AcDbLine
 10
-73.99084739406806
 20
8.604103791960824
 30
0.0
 11
-73.6987054114561
 21
8.994315476913471
 31
0.0
  0
SPLINE
  5
33867
330
1F
100
AcDbEntity
  8
AM_0
100
AcDbSpline
210
0.0
220
0.0
230
1.0
 70
     8
 71
     3
 72
    12
 73
     8
 74
     0
 42
0.0000000001
 43
0.0000000001
 40
2.466761295282202
 40
2.466761295282202
 40
2.466761295282202
 40
2.466761295282202
 40
3.025809340518748
 40
3.025809340518748
 40
3.530110897271872
 40
3.530110897271872
 40
4.034412454024997
 40
4.034412454024997
 40
4.034412454024997
 40
4.034412454024997
 10
-74.09993948937245
 20
-0.2118049826690367
 30
0.0
 10
-74.07503502711052
 20
-0.1786527252770611
 30
0.0
 10
-74.05746787227645
 20
-0.1350279983366818
 30
0.0
 10
-74.04203282900869
 20
-0.0318362651617008
 30
0.0
 10
-74.0424461420356
 20
0.0257135560129882
 30
0.0
 10
-74.06370343818151
 20
0.1584834804373259
 30
0.0
 10
-74.08444440840162
 20
0.2336837749577398
 30
0.0
 10
-74.11951666353548
 20
0.318242347132923
 30
0.0
  0
ARC
  5
33868
330
1F
100
AcDbEntity
  8
AM_0
100
AcDbCircle
 10
-77.9207176317604
 20
6.349005625263686
 30
0.0
 40
3.378136336027994
100
AcDbArc
 50
354.4947054643515
 51
21.09411773163394
  0
ARC
  5
33869
330
1F
100
AcDbEntity
  8
AM_0
100
AcDbCircle
 10
-73.8318515823824
 20
7.704922068978391
 30
0.0
 40
1.296249691710149
100
AcDbArc
 50
44.33472224740703
 51
84.104382460068
  0
LINE
  5
3386A
330
1F
100
AcDbEntity
  8
AM_0
100
AcDbLine
 10
-79.58895954051536
 20
10.13637001001271
 30
0.0
 11
-79.07417581359209
 21
9.710744911535613
 31
0.0
  0
LINE
  5
3386B
330
1F
100
AcDbEntity
  8
AM_0
100
AcDbLine
 10
-79.07417581359198
 20
9.7107449115355
 30
0.0
 11
-79.06730265525368
 21
9.62132704568765
 31
0.0
  0
LINE
  5
3386C
330
1F
100
AcDbEntity
  8
AM_0
100
AcDbLine
 10
-78.55570794097969
 20
-2.993449329649252
 30
0.0
 11
-81.94343068960495
 21
-2.986695058958134
 31
0.0
  0
ARC
  5
3386D
330
1F
100
AcDbEntity
  8
AM_0
100
AcDbCircle
 10
-83.16328095352668
 20
4.892358146968178
 30
0.0
 40
0.6248687206874876
100
AcDbArc
 50
269.2293634611862
 51
310.8302067496858
  0
LINE
  5
3386E
330
1F
100
AcDbEntity
  8
AM_0
100
AcDbLine
 10
-82.8550924007684
 20
-2.928541409262465
 30
0.0
 11
-82.80048997894392
 21
-2.930896514412751
 31
0.0
  0
LINE
  5
3386F
330
1F
100
AcDbEntity
  8
AM_0
100
AcDbLine
 10
-73.59319218414487
 20
10.7564565391483
 30
0.0
 11
-79.88273520096163
 21
10.76899631268103
 31
0.0
  0
ARC
  5
33870
330
1F
100
AcDbEntity
  8
AM_0
100
AcDbCircle
 10
-78.44563411249868
 20
1.317921159386202
 30
0.0
 40
4.312775410503582
100
AcDbArc
 50
268.5374961312903
 51
302.1490353108371
  0
ARC
  5
33871
330
1F
100
AcDbEntity
  8
AM_0
100
AcDbCircle
 10
-79.1137846065995
 20
2.383817029362405
 30
0.0
 40
5.570772777743509
100
AcDbArc
 50
302.1337388422983
 51
321.8335484824395
  0
LINE
  5
33872
330
1F
100
AcDbEntity
  8
AM_0
100
AcDbLine
 10
-72.10059450370682
 20
9.371418819537212
 30
0.0
 11
-72.04199723304134
 21
8.609084732424662
 31
0.0
  0
LINE
  5
33873
330
1F
100
AcDbEntity
  8
AM_0
100
AcDbLine
 10
-74.09993948937233
 20
-0.2118049826690367
 30
0.0
 11
-74.73393800612428
 21
-1.058631677235098
 31
0.0
  0
ELLIPSE
  5
33874
330
1F
100
AcDbEntity
  8
AM_0
100
AcDbEllipse
 10
-83.74122634760397
 20
-1.139447732377306
 30
0.0
 11
-0.002990618374705883
 21
-1.49999701873095
 31
-3.662330263522783E-19
210
-4.867836524592298E-22
220
-2.441548656396582E-19
230
1.0
 40
0.2424955705096222
 41
5.026846073630304
 42
6.204943318726443
  0
ELLIPSE
  5
33875
330
1F
100
AcDbEntity
  8
AM_0
100
AcDbEllipse
 10
-83.17467589335752
 20
2.767548928072671
 30
0.0
 11
-0.002990618374705885
 21
-1.499997018730951
 31
-3.662330263522783E-19
210
-4.867836524592294E-22
220
-2.441548656396579E-19
230
1.0
 40
0.2424955705096223
 41
3.141592653589646
 42
3.848748828534137
  0
ELLIPSE
  5
33876
330
1F
100
AcDbEntity
  8
AM_0
100
AcDbEllipse
 10
-82.85211575031065
 20
-1.428868232585359
 30
0.0
 11
-0.002990618374705886
 21
-1.499997018730951
 31
-3.662330263522785E-19
210
-4.867836524592277E-22
220
-2.441548656396580E-19
230
1.0
 40
0.2424955705096223
 41
6.204943318726443
 42
6.283185307179592
  0
ELLIPSE
  5
33877
330
1F
100
AcDbEntity
  8
AM_0
100
AcDbEllipse
 10
-79.5468071889776
 20
9.629734981608323
 30
0.0
 11
0.4985294329376092
 21
0.03831976637332117
 31
3.510530287816035E-19
210
-7.000410694780918E-19
220
-5.380908019023136E-20
230
1.0
 40
0.3000683971382526
 41
6.026154357710109
 42
6.584659718348602
  0
ELLIPSE
  5
33878
330
1F
100
AcDbEntity
  8
AM_0
100
AcDbEllipse
 10
-81.00105305763907
 20
-3.449183682020788
 30
0.0
 11
-0.0199374558314007
 21
-9.999980124872998
 31
-2.441553509018634E-18
210
-4.867836524606035E-22
220
-2.441548656400027E-19
230
1.0
 40
0.2424955705096304
 41
3.456049746835406
 42
3.703775028816535
  0
ELLIPSE
  5
33879
330
1F
100
AcDbEntity
  8
AM_0
100
AcDbEllipse
 10
-83.85786722642069
 20
0.378017447534063
 30
0.0
 11
-0.002990618374705883
 21
-1.49999701873095
 31
-3.662330263522783E-19
210
-4.867836524592298E-22
220
-2.441548656396582E-19
230
1.0
 40
0.2424955705096222
 41
3.848748828534251
 42
5.026846073630304
  0
ELLIPSE
  5
3387A
330
1F
100
AcDbEntity
  8
AM_0
100
AcDbEllipse
 10
-83.242105456074
 20
-1.140442854428073
 30
0.0
 11
-0.002990618374707993
 21
-1.49999701873095
 31
-3.662330263525366E-19
210
-4.867836524599164E-22
220
-2.441548656398303E-19
230
1.0
 40
0.2424955705096263
 41
5.026846073630304
 42
6.204943318726443
  0
ELLIPSE
  5
3387B
330
1F
100
AcDbEntity
  8
AM_0
100
AcDbEllipse
 10
-83.242105456074
 20
-1.140442854428073
 30
0.0
 11
1.495588298812828
 21
0.1149592991199636
 31
2.787421317359283E-18
210
-1.852815424935101E-18
220
-1.424177782202969E-19
230
1.0
 40
0.3000683971382524
 41
4.455358030915187
 42
5.100307702249618
  0
ELLIPSE
  5
3387C
330
1F
100
AcDbEntity
  8
AM_0
100
AcDbEllipse
 10
-83.242105456074
 20
-1.14044285442796
 30
0.0
 11
0.08466838931026721
 21
1.497608514883536
 31
1.036854475172599E-17
210
-3.901724371644615E-19
220
-6.901342625393509E-18
230
1.0
 40
0.4226448027111218
 41
3.225360033951196
 42
4.485363277444211
  0
ELLIPSE
  5
3387D
330
1F
100
AcDbEntity
  8
AM_0
100
AcDbEllipse
 10
-79.03952464855365
 20
-1.466477270365289
 30
0.0
 11
0.1569299021267664
 21
1.491768415612318
 31
3.595561991027916E-18
210
-2.507783072634362E-19
220
-2.383887028707369E-18
230
0.9999999999999999
 40
0.7401682381327639
 41
3.254603407785144
 42
4.63335628690412
  0
ELLIPSE
  5
3387E
330
1F
100
AcDbEntity
  8
AM_0
100
AcDbEllipse
 10
-88.06158320022564
 20
-0.135471790630703
 30
0.0
 11
13.95882412225306
 21
1.072953458452993
 31
-1.098166196628766E-17
210
7.820973875379848E-19
220
6.011638870556137E-20
230
0.9999999999999998
 40
0.3000683971382525
 41
5.785302481212139
 42
6.026154357710081
  0
ELLIPSE
  5
3387F
330
1F
100
AcDbEntity
  8
AM_0
100
AcDbEllipse
 10
-76.97415571605927
 20
-1.079796481026961
 30
0.0
 11
0.823450211312044
 21
-1.253766226012705
 31
3.235998232976347E-17
210
-1.184303746111014E-17
220
1.803193463085579E-17
230
1.0
 40
0.8381079047468414
 41
0.000000000000115
 42
0.9883422416003558
  0
ELLIPSE
  5
33880
330
1F
100
AcDbEntity
  8
AM_0
100
AcDbEllipse
 10
-73.59618280251971
 20
9.256459520417138
 30
0.0
 11
-0.002990618374707992
 21
-1.499997018730949
 31
-3.662330263525365E-19
210
-4.867836524599166E-22
220
-2.441548656398303E-19
230
1.0
 40
0.2424955705096263
 41
3.141592653589785
 42
3.456049746835265
  0
ELLIPSE
  5
33881
330
1F
100
AcDbEntity
  8
AM_0
100
AcDbEllipse
 10
-73.59618280251971
 20
9.256459520417138
 30
0.0
 11
1.495588298812828
 21
0.1149592991199636
 31
2.787421317359283E-18
210
-1.852815424935101E-18
220
-1.424177782202969E-19
230
1.0
 40
0.3000683971382524
 41
6.026154357710086
 42
6.28318530717973
  0
ELLIPSE
  5
33882
330
1F
100
AcDbEntity
  8
AM_0
100
AcDbEllipse
 10
-83.35874633489073
 20
0.3770223254832956
 30
0.0
 11
1.495588298812828
 21
0.1149592991199636
 31
2.787421317359283E-18
210
-1.852815424935101E-18
220
-1.424177782202970E-19
230
0.9999999999999999
 40
0.3000683971382525
 41
4.455358030915187
 42
5.100307702249618
  0
ELLIPSE
  5
33883
330
1F
100
AcDbEntity
  8
AM_0
100
AcDbEllipse
 10
-83.35874633489073
 20
0.3770223254832956
 30
0.0
 11
-0.002990618374707993
 21
-1.49999701873095
 31
-3.662330263525366E-19
210
-4.867836524599164E-22
220
-2.441548656398303E-19
230
1.0
 40
0.2424955705096263
 41
3.848748828534251
 42
5.026846073630304
  0
ELLIPSE
  5
33884
330
1F
100
AcDbEntity
  8
AM_0
100
AcDbEllipse
 10
-83.35874633489095
 20
0.3770223254832956
 30
0.0
 11
0.6377889194687567
 21
-1.357654335315971
 31
-1.747434299608980E-17
210
4.953307705735843E-18
220
-1.054405223353164E-17
230
0.9999999999999999
 40
0.2776340881302472
 41
1.165982312679893
 42
2.425985556172935
  0
ELLIPSE
  5
33885
330
1F
100
AcDbEntity
  8
AM_0
100
AcDbEllipse
 10
-79.3835664780305
 20
3.009410616969973
 30
0.0
 11
1.018119162872228
 21
-1.101559517317314
 31
2.870110662861250E-17
210
-1.298717629076869E-17
220
1.405154540634983E-17
230
0.9999999999999999
 40
0.5373819451988143
 41
0.9187501785970792
 42
2.297503057716149
  0
ELLIPSE
  5
33886
330
1F
100
AcDbEntity
  8
AM_0
100
AcDbEllipse
 10
-88.6098917448486
 20
6.997868876499211
 30
0.0
 11
12.46323582344023
 21
0.9579941593330295
 31
-2.764318113176196E-17
210
2.204950306273425E-18
220
1.694848388455230E-19
230
0.9999999999999999
 40
0.3000683971382526
 41
5.785302481212144
 42
6.026154357710094
  0
ELLIPSE
  5
33887
330
1F
100
AcDbEntity
  8
AM_0
100
AcDbEllipse
 10
-88.50023003592401
 20
5.571200743073206
 30
0.0
 11
13.95882412225306
 21
1.072953458452994
 31
-1.098166196628766E-17
210
7.820973875379848E-19
220
6.011638870556140E-20
230
0.9999999999999998
 40
0.3000683971382525
 41
5.78530248121214
 42
6.026154357710081
  0
ELLIPSE
  5
33888
330
1F
100
AcDbEntity
  8
AM_0
100
AcDbEllipse
 10
-77.41280255175764
 20
4.626876052677062
 30
0.0
 11
0.8234502113120464
 21
-1.253766226012708
 31
3.235998232976370E-17
210
-1.184303746111021E-17
220
1.803193463085587E-17
230
0.9999999999999999
 40
0.8381079047468409
 41
0.9883422416003546
 42
2.559138568395223
  0
ELLIPSE
  5
33889
330
1F
100
AcDbEntity
  8
AM_0
100
AcDbEllipse
 10
-76.37334772707368
 20
5.547022776978679
 30
0.0
 11
1.200762885251046
 21
-0.898981920509854
 31
1.002153349165667E-17
210
-5.348215764480729E-18
220
4.004078855459258E-18
230
0.9999999999999998
 40
0.9225805413740802
 41
0.6796812510186989
 42
2.250477577813614
  0
ELLIPSE
  5
3388A
330
1F
100
AcDbEntity
  8
AM_0
100
AcDbEllipse
 10
-73.59618280251971
 20
9.256459520417138
 30
0.0
 11
1.200762885251132
 21
-0.8989819205097388
 31
1.002153349165737E-17
210
-5.348215764481487E-18
220
4.004078855459027E-18
230
1.0
 40
0.9225805413740802
 41
0.6796812510185997
 42
2.250477577813514
  0
ELLIPSE
  5
3388B
330
1F
100
AcDbEntity
  8
AM_0
100
AcDbEllipse
 10
-75.93470089137531
 20
-0.1596497567253437
 30
0.0
 11
1.200762885251046
 21
-0.898981920509854
 31
1.002153349165667E-17
210
-5.348215764480729E-18
220
4.004078855459258E-18
230
0.9999999999999998
 40
0.9225805413740802
 41
0.0000000000000986
 42
0.6796812510187714
  0
ELLIPSE
  5
3388C
330
1F
100
AcDbEntity
  8
AM_0
100
AcDbEllipse
 10
-73.56330169959836
 20
4.207458962289252
 30
0.0
 11
0.008971855124123853
 21
4.499991056192849
 31
1.098699079057595E-18
210
-4.867836524599030E-22
220
-2.441548656398270E-19
230
1.0
 40
0.2424955705096263
 41
1.155525763814974
 42
2.614981076267541
  0
ELLIPSE
  5
3388D
330
1F
100
AcDbEntity
  8
AM_0
100
AcDbEllipse
 10
-73.81715611984112
 20
4.51726593098158
 30
0.0
 11
-0.008971855124123976
 21
-4.499991056192849
 31
-1.098699079057609E-18
210
-4.867836524599156E-22
220
-2.441548656398302E-19
230
1.0
 40
0.2424955705096263
 41
2.714267958547244
 42
3.041055559697411
  0
ARC
  5
3388E
330
1F
100
AcDbEntity
  8
AM_0
100
AcDbCircle
 10
-73.59618280251976
 20
9.256459520417167
 30
0.0
 40
1.5
100
AcDbArc
 50
4.395431800575791
 51
89.88576671698267
  0
ARC
  5
3388F
330
1F
100
AcDbEntity
  8
AM_0
100
AcDbCircle
 10
-68.95811964036597
 20
0.0000000000000284
 30
0.0
 40
2.214510797200376
100
AcDbArc
 50
177.2219919318581
 51
82.38913119143925
  0
ARC
  5
33890
330
1F
100
AcDbEntity
  8
AM_0
100
AcDbCircle
 10
-68.95811964036597
 20
0.0000000000000284
 30
0.0
 40
3.75
100
AcDbArc
 50
178.3130803934065
 51
82.12025992558931
  0
ARC
  5
33891
330
1F
100
AcDbEntity
  8
AM_0
100
AcDbCircle
 10
-68.95811964036597
 20
0.0000000000000284
 30
0.0
 40
5.0
100
AcDbArc
 50
179.8835749923464
 51
84.05925209005603
  0
ARC
  5
33892
330
1F
100
AcDbEntity
  8
AM_0
100
AcDbCircle
 10
-68.95811964036597
 20
0.0000000000000284
 30
0.0
 40
2.0
100
AcDbArc
 50
176.9360472961236
 51
83.33092322140016
  0
LINE
  5
33F0B
330
1F
100
AcDbEntity
  8
AM_0
100
AcDbLine
 10
73.99999999992349
 20
-140.0306236234382
 30
0.0
 11
73.99999999992349
 21
-163.5306236234382
 31
0.0
  0
DIMENSION
  5
34030
330
1F
100
AcDbEntity
  8
AM_5
100
AcDbDimension
  2
*D7
 10
0.5360672926079815
 20
0.760502891582405
 30
0.0
 11
-23.75524831364902
 21
-0.2162590012856072
 31
0.0
 70
   162
  1
35%%D
 71
     5
 42
0.6284634927891366
  3
AM_JIS$2
100
AcDb2LineAngularDimension
 13
0.5494269557381131
 23
-0.7653857176629799
 33
0.0
 14
13.60334182616714
 24
-4.881269266438494
 34
0.0
 15
13.51590356632471
 25
5.105587693023608
 35
0.0
 16
-23.65514019165655
 26
2.079776352796306
 36
0.0
1001
ACAD
1000
DSTYLE
1002
{
1070
   179
1070
     1
1070
   271
1070
     0
1002
}
  0
ENDSEC
  0
SECTION
  2
OBJECTS
  0
DICTIONARY
  5
C
330
0
100
AcDbDictionary
281
     1
  3
ACAD_COLOR
350
232CA
  3
ACAD_GROUP
350
D
  3
ACAD_LAYOUT
350
1A
  3
ACAD_MATERIAL
350
232C9
  3
ACAD_MLINESTYLE
350
17
  3
ACAD_PLOTSETTINGS
350
19
  3
ACAD_PLOTSTYLENAME
350
E
  3
ACAD_TABLESTYLE
350
232CB
  3
AcAmCatalogState
350
23332
  3
ACDBHEADERROUNDTRIPXREC
350
34236
  3
AcDbVariableDictionary
350
30
  3
ACDMSYSVARMGR
350
232E5
  3
ACGREF_MASTER
350
232DD
  3
ACGREFACAD_MASTER
350
23305
  3
AcmDictionary
350
4D
  3
ACME_BOM_MANAGER_NAME
350
36
  3
ACME_COMMAND_HISTORY
350
2F
  3
ACME_SCOPE_NAME
350
2E
  3
ACMESTATEMGR
350
3B
  3
AcmeSysVarManager
350
32
  3
AcmSystemVariableManager
350
6A
  3
AD_APPL
350
23310
  3
ADSYSVARMGR
350
2330F
  3
AmdtNamedDwgMgr
350
23300
  3
AMG
350
3F
  3
AMGSNAPSETTINGS
350
73
  3
AMI_MASTER
350
23308
  3
AUTOCAD_ASSEMBLIES_PROJECT
350
23318
  3
Designer_Assemblies_SysVars
350
23313
  3
DWGPROPS
350
34239
  3
FILENAME
350
217A
  3
GREFAM_MODULE
350
23309
  3
ZWKSIZE
350
217C
  0
DICTIONARY
  5
233EB
330
2
100
AcDbDictionary
280
     1
281
     1
  3
ACAD_LAYERSTATES
360
233EC
  0
DICTIONARY
  5
165
330
1F
100
AcDbDictionary
280
     1
281
     1
  3
ACAD_SORTENTS
360
322A1
  0
DICTIONARY
  5
232CA
102
{ACAD_REACTORS
330
C
102
}
330
C
100
AcDbDictionary
281
     1
  0
DICTIONARY
  5
D
102
{ACAD_REACTORS
330
C
102
}
330
C
100
AcDbDictionary
281
     1
  0
DICTIONARY
  5
1A
102
{ACAD_REACTORS
330
C
102
}
330
C
100
AcDbDictionary
281
     1
  3
Model
350
22
  3
ﾚｲｱｳﾄ1
350
1E
  3
ﾚｲｱｳﾄ2
350
26
  0
DICTIONARY
  5
232C9
102
{ACAD_REACTORS
330
C
102
}
330
C
100
AcDbDictionary
281
     1
  0
DICTIONARY
  5
17
102
{ACAD_REACTORS
330
C
102
}
330
C
100
AcDbDictionary
281
     1
  3
Standard
350
18
  0
DICTIONARY
  5
19
102
{ACAD_REACTORS
330
C
102
}
330
C
100
AcDbDictionary
281
     1
  0
ACDBDICTIONARYWDFLT
  5
E
102
{ACAD_REACTORS
330
C
102
}
330
C
100
AcDbDictionary
281
     1
  3
Normal
350
F
100
AcDbDictionaryWithDefault
340
F
  0
DICTIONARY
  5
232CB
102
{ACAD_REACTORS
330
C
102
}
330
C
100
AcDbDictionary
281
     1
  3
Standard
350
232CC
  0
ACAD_PROXY_OBJECT
  5
23332
102
{ACAD_REACTORS
330
C
102
}
330
C
100
AcDbProxyObject
 90
      499
 91
      572
 95
       25
 70
     0
 93
      560
310
3FFFFFFFE00A028140296AE2E2C3B9A1818182E32AE482B415AC15141BA41A441C5C1AFAE20A1A0A226991818182E2A16A922AC656F596240082D0052001140160008AFF9EFF
  0
DICTIONARY
  5
34236
102
{ACAD_REACTORS
330
C
102
}
330
C
100
AcDbDictionary
281
     1
  3
COLORDICT
350
34237
  3
MATERIALDICT
350
34238
  0
DICTIONARY
  5
30
102
{ACAD_REACTORS
330
C
102
}
330
C
100
AcDbDictionary
281
     1
  3
CTABLESTYLE
350
233A5
  3
HIDETEXT
350
34235
  3
INDEXCTL
350
34234
  0
ACAD_PROXY_OBJECT
  5
232E5
102
{ACAD_REACTORS
330
C
102
}
330
C
100
AcDbProxyObject
 90
      499
 91
      507
 95
       25
 70
     0
 93
      240
310
4C51A47A0000000000000000000000000000000000000000000000000000
330
232E6
330
232E7
330
232E8
330
232E9
330
232EA
330
232EB
330
232EC
330
232ED
330
232EE
330
232EF
330
232F0
330
232F1
330
232F2
330
232F3
330
232F4
330
232F5
330
232F6
330
232F7
330
232F8
330
232F9
330
232FA
330
232FB
330
232FC
330
232FD
330
232FE
330
232FF
 94
        0
  0
ACAD_PROXY_OBJECT
  5
232DD
102
{ACAD_REACTORS
330
C
102
}
330
C
100
AcDbProxyObject
 90
      499
 91
      536
 95
       25
 70
     0
 93
       34
310
0400004280
  0
ACAD_PROXY_OBJECT
  5
23305
102
{ACAD_REACTORS
330
C
102
}
330
C
100
AcDbProxyObject
 90
      499
 91
      542
 95
       25
 70
     0
 93
      114
310
04000041C080000000000000000000
  0
DICTIONARY
  5
4D
102
{ACAD_REACTORS
330
C
102
}
330
C
100
AcDbDictionary
281
     1
  3
AcmBOMDATA
350
4E
  3
AcmStdDictionary
350
17E
  3
AMDTSECTSYM_ARROWCOLOR
350
23326
  0
ACAD_PROXY_OBJECT
  5
36
102
{ACAD_REACTORS
330
C
102
}
330
C
100
AcDbProxyObject
 90
      499
 91
      510
 95
       25
 70
     0
 93
       50
310
00010040400000
330
0
330
0
330
37
 94
        0
  0
ACAD_PROXY_OBJECT
  5
2F
102
{ACAD_REACTORS
330
C
102
}
330
C
100
AcDbProxyObject
 90
      499
 91
      505
 95
       25
 70
     0
 93
     5126
310
478050844524F5047454F4D805044D4F5645805045A4F4F4D805055153415645404052D4D5347202D205050413A2020206465736B746F702E6172782046696C6556657273696F6E3A20392E322E302E34014390535115149154D15511109353D1102014213880B4815539113C05084E202D20554E444F014115539113E0141
310
15539113E014151549054D16014151549054D1501014B5354D1C80B481414104E88080819195CDADD1BDC0B985C9E08119A5B1955995C9CDA5BDB8E880E4B8C8B8C0B8D005054552415345805054552415345805054552415345404052D4D5347202D205050413A2020206465736B746F702E6172782046696C65566572736
310
96F6E3A20392E322E302E34014151549054D1501014B5354D1C80B481414104E88080819195CDADD1BDC0B985C9E08119A5B1955995C9CDA5BDB8E880E4B8C8B8C0B8D005054552415345805054552415345805054552415345805054552415345805054552415345404052D4D5347202D205050413A2020206465736B746F
310
702E6172782046696C6556657273696F6E3A20392E322E302E34014151549054D16014151549054D16014151549054D16014151549054D16014151549054D16014151549054D1501014B5354D1C80B481414104E88080819195CDADD1BDC0B985C9E08119A5B1955995C9CDA5BDB8E880E4B8C8B8C0B8D0050545524153458
310
05054552415345805054552415345805054552415345805054552415345805055153415645408052D4D5347202D205050413A2020206465736B746F702E6172782046696C6556657273696F6E3A20392E322E302E34014B5354D1C80B481414104E88080819195CDADD1BDC0B985C9E08119A5B1955995C9CDA5BDB8E880E4
310
B8C8B8C0B8D0
  0
ACAD_PROXY_OBJECT
  5
2E
102
{ACAD_REACTORS
330
C
102
}
330
C
100
AcDbProxyObject
 90
      499
 91
      504
 95
       25
 70
     0
 93
      586
310
09000046408000000000000000001344E200000000000000000000000000000000000000000000000000000000000000000000000000000000000000000000000000000000AAA406AA80
360
33
360
34
360
35
360
37
360
6B
360
6C
360
232DE
360
232DF
360
232E0
360
232E1
360
232E2
360
232E3
360
232E6
360
232E7
360
232E8
360
232E9
360
232EA
360
232EB
360
232EC
360
232ED
360
232EE
360
232EF
360
232F0
360
232F1
360
232F2
360
232F3
360
232F4
360
232F5
360
232F6
360
232F7
360
232F8
360
232F9
360
232FA
360
232FB
360
232FC
360
232FD
360
232FE
360
232FF
360
2330B
360
2330C
360
2330D
360
2330E
360
23314
360
23315
360
23316
360
23317
360
2331C
360
2331D
360
2331E
360
2331F
360
23320
360
23321
 94
        0
  0
ACAD_PROXY_OBJECT
  5
3B
102
{ACAD_REACTORS
330
C
102
}
330
C
100
AcDbProxyObject
 90
      499
 91
      515
 95
       25
 70
     0
 93
       50
310
09000042641280
  0
ACAD_PROXY_OBJECT
  5
32
102
{ACAD_REACTORS
330
C
102
}
330
C
100
AcDbProxyObject
 90
      499
 91
      507
 95
       25
 70
     0
 93
       48
310
903412000000
330
33
330
34
330
35
 94
        0
  0
ACAD_PROXY_OBJECT
  5
6A
102
{ACAD_REACTORS
330
C
102
}
330
C
100
AcDbProxyObject
 90
      499
 91
      507
 95
       25
 70
     0
 93
       40
310
90240E0000
330
6B
330
6C
 94
        0
  0
ACAD_PROXY_OBJECT
  5
23310
102
{ACAD_REACTORS
330
C
102
}
330
C
100
AcDbProxyObject
 90
      499
 91
      552
 95
       25
 70
     0
 93
       42
310
000900004040
330
2330B
 94
        0
  0
ACAD_PROXY_OBJECT
  5
2330F
102
{ACAD_REACTORS
330
C
102
}
330
C
100
AcDbProxyObject
 90
      499
 91
      507
 95
       25
 70
     0
 93
        8
310
AA
  0
ACAD_PROXY_OBJECT
  5
23300
102
{ACAD_REACTORS
330
C
102
}
330
C
100
AcDbProxyObject
 90
      499
 91
      541
 95
       25
 70
     0
 93
       42
310
000100005E80
330
232DE
 94
        0
  0
DICTIONARY
  5
3F
102
{ACAD_REACTORS
330
C
102
}
330
C
100
AcDbDictionary
281
     1
  3
AcMgSettings
350
40
  3
AMGLAYCFG
350
42
  0
DICTIONARY
  5
73
102
{ACAD_REACTORS
330
C
102
}
330
C
100
AcDbDictionary
281
     1
  3
DIMENSION
350
62F
  3
FEA
350
630
  3
HATCH (1)
350
631
  3
HATCH (2)
350
632
  3
SYMBOLS
350
633
  0
ACAD_PROXY_OBJECT
  5
23308
102
{ACAD_REACTORS
330
C
102
}
330
C
100
AcDbProxyObject
 90
      499
 91
      545
 95
       25
 70
     0
 93
       34
310
0500004280
  0
ACAD_PROXY_OBJECT
  5
23318
102
{ACAD_REACTORS
330
C
102
}
330
C
100
AcDbProxyObject
 90
      499
 91
      555
 95
       25
 70
     0
 93
       98
310
0900004E400000000000000000
330
2331F
330
0
330
23320
330
0
330
0
330
0
330
0
330
0
 94
        0
  0
ACAD_PROXY_OBJECT
  5
23313
102
{ACAD_REACTORS
330
C
102
}
330
C
100
AcDbProxyObject
 90
      499
 91
      507
 95
       25
 70
     0
 93
       56
310
90441600000000
330
23314
330
23315
330
23316
330
23317
 94
        0
  0
XRECORD
  5
34239
102
{ACAD_REACTORS
330
C
102
}
330
C
100
AcDbXrecord
280
     1
  1
DWGPROPS COOKIE
  2

  3

  4

  6

  7

  8
Administrator
  9

300
AmdtFileType=84
301
=
302
=
303
=
304
=
305
=
306
=
307
=
308
=
309
=
 40
0.0
 41
2451943.235431667
 42
2455457.105107963
  1

 90
        1
  0
DICTIONARY
  5
217A
102
{ACAD_REACTORS
330
C
102
}
330
C
100
AcDbDictionary
281
     1
  3
FILENAME
350
217B
  0
ACAD_PROXY_OBJECT
  5
23309
102
{ACAD_REACTORS
330
C
102
}
330
C
100
AcDbProxyObject
 90
      499
 91
      546
 95
       25
 70
     0
 93
        8
310
05
  0
DICTIONARY
  5
217C
102
{ACAD_REACTORS
330
C
102
}
330
C
100
AcDbDictionary
281
     1
  3
ZWKSIZE
350
217D
  0
DICTIONARY
  5
233EC
102
{ACAD_REACTORS
330
233EB
102
}
330
233EB
100
AcDbDictionary
281
     1
  0
SORTENTSTABLE
  5
322A1
102
{ACAD_REACTORS
330
165
102
}
330
165
100
AcDbSortentsTable
330
1F
331
0
  5
33B15
331
1E47B
  5
1E47B
331
1E47F
  5
1E47F
331
232C4
  5
232C4
331
25F5F
  5
25F5F
331
25F60
  5
25F60
331
25F61
  5
25F61
331
25F62
  5
25F62
331
25F63
  5
25F63
331
25F64
  5
25F64
331
25F65
  5
25F65
331
25F66
  5
25F66
331
25F67
  5
25F67
331
25F68
  5
25F68
331
25F69
  5
25F69
331
25F6A
  5
25F6A
331
25F6B
  5
25F6B
331
25F6C
  5
25F6C
331
25F6D
  5
25F6D
331
25F6E
  5
25F6E
331
25F6F
  5
25F6F
331
25F70
  5
25F70
331
25F71
  5
25F71
331
25F72
  5
25F72
331
25F73
  5
25F73
331
25F74
  5
25F74
331
25F75
  5
25F75
331
25F76
  5
25F76
331
25F77
  5
25F77
331
25F78
  5
25F78
331
25F79
  5
25F79
331
25F7A
  5
25F7A
331
25F7B
  5
25F7B
331
25F7C
  5
25F7C
331
25F7D
  5
25F7D
331
25F7E
  5
25F7E
331
25F7F
  5
25F7F
331
25F80
  5
25F80
331
25F81
  5
25F81
331
25F82
  5
25F82
331
25F83
  5
25F83
331
25F84
  5
25F84
331
25F85
  5
25F85
331
25F86
  5
25F86
331
25F87
  5
25F87
331
25F88
  5
25F88
331
25F89
  5
25F89
331
25F8A
  5
25F8A
331
25F8B
  5
25F8B
331
25F8C
  5
25F8C
331
25F8D
  5
25F8D
331
25F8E
  5
25F8E
331
25F8F
  5
25F8F
331
25F90
  5
25F90
331
25F91
  5
25F91
331
25F92
  5
25F92
331
25F93
  5
25F93
331
25F94
  5
25F94
331
25F95
  5
25F95
331
25F96
  5
25F96
331
25F97
  5
25F97
331
25F98
  5
25F98
331
25F99
  5
25F99
331
25F9A
  5
25F9A
331
25F9B
  5
25F9B
331
25F9C
  5
25F9C
331
25F9D
  5
25F9D
331
25F9E
  5
25F9E
331
25F9F
  5
25F9F
331
25FA0
  5
25FA0
331
25FA1
  5
25FA1
331
25FA2
  5
25FA2
331
25FA3
  5
25FA3
331
25FA4
  5
25FA4
331
25FA5
  5
25FA5
331
25FA6
  5
25FA6
331
25FA7
  5
25FA7
331
25FA8
  5
25FA8
331
25FA9
  5
25FA9
331
25FAA
  5
25FAA
331
25FAB
  5
25FAB
331
25FAC
  5
25FAC
331
25FAD
  5
25FAD
331
25FAE
  5
25FAE
331
25FAF
  5
25FAF
331
25FB0
  5
25FB0
331
25FB1
  5
25FB1
331
25FB2
  5
25FB2
331
25FB3
  5
25FB3
331
25FB4
  5
25FB4
331
25FB5
  5
25FB5
331
25FB6
  5
25FB6
331
25FB7
  5
25FB7
331
25FB8
  5
25FB8
331
25FB9
  5
25FB9
331
25FBA
  5
25FBA
331
25FBB
  5
25FBB
331
25FBC
  5
25FBC
331
25FBD
  5
25FBD
331
25FBE
  5
25FBE
331
25FBF
  5
25FBF
331
25FC0
  5
25FC0
331
25FC1
  5
25FC1
331
25FC2
  5
25FC2
331
25FC3
  5
25FC3
331
25FC4
  5
25FC4
331
25FC5
  5
25FC5
331
25FC6
  5
25FC6
331
25FC7
  5
25FC7
331
25FC8
  5
25FC8
331
25FC9
  5
25FC9
331
25FCA
  5
25FCA
331
25FCB
  5
25FCB
331
25FCC
  5
25FCC
331
25FCD
  5
25FCD
331
25FCE
  5
25FCE
331
25FCF
  5
25FCF
331
25FD0
  5
25FD0
331
25FD1
  5
25FD1
331
25FD2
  5
25FD2
331
25FD3
  5
25FD3
331
25FD4
  5
25FD4
331
25FD5
  5
25FD5
331
25FD6
  5
25FD6
331
25FD7
  5
25FD7
331
25FD8
  5
25FD8
331
25FD9
  5
25FD9
331
25FDA
  5
25FDA
331
25FDB
  5
25FDB
331
25FDC
  5
25FDC
331
25FDD
  5
25FDD
331
25FDE
  5
25FDE
331
25FDF
  5
25FDF
331
25FE0
  5
25FE0
331
25FE1
  5
25FE1
331
25FE2
  5
25FE2
331
25FE3
  5
25FE3
331
25FE4
  5
25FE4
331
25FE5
  5
25FE5
331
25FE6
  5
25FE6
331
25FE7
  5
25FE7
331
25FE8
  5
25FE8
331
25FE9
  5
25FE9
331
25FEA
  5
25FEA
331
25FEB
  5
25FEB
331
25FEC
  5
25FEC
331
25FED
  5
25FED
331
25FEE
  5
25FEE
331
25FEF
  5
25FEF
331
25FF0
  5
25FF0
331
25FF1
  5
25FF1
331
25FF2
  5
25FF2
331
25FF3
  5
25FF3
331
25FF4
  5
25FF4
331
25FF5
  5
25FF5
331
25FF6
  5
25FF6
331
25FF7
  5
25FF7
331
25FF8
  5
25FF8
331
25FF9
  5
25FF9
331
25FFA
  5
25FFA
331
25FFB
  5
25FFB
331
260B4
  5
260B4
331
260BC
  5
260BC
331
260BD
  5
260BD
331
260BE
  5
260BE
331
260BF
  5
260BF
331
260C4
  5
260C4
331
260C5
  5
260C5
331
260C6
  5
260C6
331
260C7
  5
260C7
331
260C8
  5
260C8
331
260C9
  5
260C9
331
260D0
  5
260D0
331
26215
  5
26215
331
2621A
  5
2621A
331
300DE
  5
300DE
331
30C27
  5
30C27
331
30C28
  5
30C28
331
30C62
  5
30C62
331
30C63
  5
30C63
331
31DF3
  5
31DF3
331
31DF4
  5
31DF4
331
31DFF
  5
31DFF
331
31E0B
  5
31E0B
331
31EF2
  5
31EF2
331
31EF3
  5
31EF3
331
32002
  5
32002
331
32003
  5
32003
331
32004
  5
32004
331
32005
  5
32005
331
32006
  5
32006
331
32007
  5
32007
331
32008
  5
32008
331
32009
  5
32009
331
3203D
  5
32040
331
3218B
  5
3218C
331
33666
  5
33666
331
33667
  5
33667
331
33668
  5
33668
331
33669
  5
33669
331
3366A
  5
3366A
331
3366B
  5
3366B
331
3366C
  5
3366C
331
3366D
  5
3366D
331
3366E
  5
3366E
331
3366F
  5
3366F
331
33670
  5
33670
331
33671
  5
33671
331
33672
  5
33672
331
33673
  5
33673
331
33674
  5
33674
331
33675
  5
33675
331
33676
  5
33676
331
33677
  5
33677
331
33678
  5
33678
331
33679
  5
33679
331
3367A
  5
3367A
331
3367B
  5
3367B
331
3367C
  5
3367C
331
3367D
  5
3367D
331
3367E
  5
3367E
331
3367F
  5
3367F
331
33680
  5
33680
331
33681
  5
33681
331
33682
  5
33682
331
33683
  5
33683
331
33684
  5
33684
331
33685
  5
33685
331
33686
  5
33686
331
33687
  5
33687
331
33688
  5
33688
331
3368A
  5
3368A
331
3368B
  5
3368B
331
3368D
  5
3368D
331
3368F
  5
3368F
331
33690
  5
33690
331
33691
  5
33691
331
33693
  5
33693
331
33694
  5
33694
331
33695
  5
33695
331
33696
  5
33696
331
3369A
  5
3369A
331
3369B
  5
3369B
331
3369E
  5
3369E
331
3369F
  5
3369F
331
336A0
  5
336A0
331
336A1
  5
336A1
331
336A2
  5
336A2
331
336A3
  5
336A3
331
336A4
  5
336A4
331
336A5
  5
336A5
331
336A7
  5
336A7
331
336A8
  5
336A8
331
336A9
  5
336A9
331
336AA
  5
336AA
331
336AB
  5
336AB
331
336AC
  5
336AC
331
336AD
  5
336AD
331
336AE
  5
336AE
331
336AF
  5
336AF
331
336B0
  5
336B0
331
336B1
  5
336B1
331
336B2
  5
336B2
331
336B3
  5
336B3
331
336B4
  5
336B4
331
336B5
  5
336B5
331
336B6
  5
336B6
331
336B7
  5
336B7
331
336B8
  5
336B8
331
336B9
  5
336B9
331
336BA
  5
336BA
331
336BB
  5
336BB
331
336BC
  5
336BC
331
336BD
  5
336BD
331
336BE
  5
336BE
331
336BF
  5
336BF
331
336C0
  5
336C0
331
336C1
  5
336C1
331
336C2
  5
336C2
331
336C3
  5
336C3
331
336C4
  5
336C4
331
336C5
  5
336C5
331
336C6
  5
336C6
331
336C7
  5
336C7
331
336C8
  5
336C8
331
336C9
  5
336C9
331
336CA
  5
336CA
331
336CB
  5
336CB
331
336CC
  5
336CC
331
336CD
  5
336CD
331
336CE
  5
336CE
331
336CF
  5
336CF
331
336D0
  5
336D0
331
336D1
  5
336D1
331
336D2
  5
336D2
331
336D3
  5
336D3
331
336D4
  5
336D4
331
336D5
  5
336D5
331
336D6
  5
336D6
331
336D7
  5
336D7
331
336D8
  5
336D8
331
336D9
  5
336D9
331
336DA
  5
336DA
331
336DB
  5
336DB
331
336DC
  5
336DC
331
336DD
  5
336DD
331
336DE
  5
336DE
331
336DF
  5
336DF
331
336E0
  5
336E0
331
336E1
  5
336E1
331
336E2
  5
336E2
331
336E3
  5
336E3
331
336E4
  5
336E4
331
336E5
  5
336E5
331
336E6
  5
336E6
331
336E7
  5
336E7
331
336E8
  5
336E8
331
336E9
  5
336E9
331
336EA
  5
336EA
331
336EB
  5
336EB
331
336EC
  5
336EC
331
336ED
  5
336ED
331
336EE
  5
336EE
331
336EF
  5
336EF
331
336F0
  5
336F0
331
336F1
  5
336F1
331
336F2
  5
336F2
331
336F3
  5
336F3
331
336F4
  5
336F4
331
336F5
  5
336F5
331
336F6
  5
336F6
331
336F7
  5
336F7
331
336F8
  5
336F8
331
336F9
  5
336F9
331
336FA
  5
336FA
331
336FB
  5
336FB
331
336FC
  5
336FC
331
336FD
  5
336FD
331
336FE
  5
336FE
331
336FF
  5
336FF
331
33700
  5
33700
331
33701
  5
33701
331
33702
  5
33702
331
33703
  5
33703
331
33704
  5
33704
331
33705
  5
33705
331
33706
  5
33706
331
33707
  5
33707
331
33708
  5
33708
331
33709
  5
33709
331
3370A
  5
3370A
331
3370B
  5
3370B
331
3370C
  5
3370C
331
3370D
  5
3370D
331
3370E
  5
3370E
331
3370F
  5
3370F
331
33710
  5
33710
331
33718
  5
33718
331
33719
  5
33719
331
3371A
  5
3371A
331
3371B
  5
3371B
331
3371C
  5
3371C
331
3371D
  5
3371D
331
3371E
  5
3371E
331
3371F
  5
3371F
331
33722
  5
33722
331
33723
  5
33723
331
33724
  5
33724
331
33725
  5
33725
331
33726
  5
33726
331
33727
  5
33727
331
33728
  5
33728
331
33729
  5
33729
331
3372A
  5
3372A
331
3372B
  5
3372B
331
3372C
  5
3372C
331
3372D
  5
3372D
331
3372E
  5
3372E
331
3372F
  5
3372F
331
33730
  5
33730
331
33731
  5
33731
331
33732
  5
33732
331
33733
  5
33733
331
33734
  5
33734
331
33735
  5
33735
331
33736
  5
33736
331
33737
  5
33737
331
33738
  5
33738
331
33739
  5
33739
331
3373A
  5
3373A
331
3373B
  5
3373B
331
3373C
  5
3373C
331
3373D
  5
3373D
331
3373E
  5
3373E
331
3373F
  5
3373F
331
33740
  5
33740
331
33741
  5
33741
331
33742
  5
33742
331
33743
  5
33743
331
33744
  5
33744
331
33745
  5
33745
331
33746
  5
33746
331
33747
  5
33747
331
33748
  5
33748
331
33749
  5
33749
331
3374A
  5
3374A
331
3374B
  5
3374B
331
3374C
  5
3374C
331
3374D
  5
3374D
331
3374E
  5
3374E
331
33751
  5
33751
331
33752
  5
33752
331
33753
  5
33753
331
33754
  5
33754
331
33756
  5
33756
331
33757
  5
33758
331
33758
  5
33759
331
33759
  5
3375A
331
3375A
  5
3375B
331
3375B
  5
3375C
331
3375C
  5
3375D
331
3375D
  5
3375E
331
3375E
  5
3375F
331
3375F
  5
33760
331
33760
  5
33761
331
33761
  5
33762
331
33762
  5
33763
331
33763
  5
33764
331
33764
  5
33765
331
33765
  5
33766
331
33766
  5
33767
331
33767
  5
33768
331
33768
  5
33769
331
33769
  5
3376A
331
3376A
  5
3376B
331
3376B
  5
3376C
331
3376C
  5
3376D
331
3376D
  5
3376E
331
3376E
  5
3376F
331
3376F
  5
33770
331
33770
  5
33771
331
33771
  5
33772
331
33772
  5
33773
331
33773
  5
33774
331
33774
  5
33775
331
33775
  5
33776
331
33776
  5
33777
331
33777
  5
33778
331
33778
  5
33779
331
33779
  5
3377A
331
3377A
  5
3377B
331
3377B
  5
3377C
331
3377C
  5
3377D
331
3377D
  5
3377E
331
3377E
  5
3377F
331
3377F
  5
33780
331
33780
  5
33781
331
33781
  5
33782
331
33782
  5
33783
331
33783
  5
33784
331
33784
  5
33785
331
33785
  5
33786
331
33786
  5
33787
331
33787
  5
33788
331
33788
  5
33789
331
33789
  5
3378A
331
3378A
  5
3378B
331
3378B
  5
3378C
331
3378C
  5
3378D
331
3378D
  5
3378E
331
3378E
  5
3378F
331
3378F
  5
33790
331
33790
  5
33791
331
33791
  5
33792
331
33792
  5
33793
331
33793
  5
33794
331
33794
  5
33795
331
33795
  5
33796
331
33796
  5
33797
331
33797
  5
33798
331
33798
  5
33799
331
33799
  5
3379A
331
3379A
  5
3379B
331
3379B
  5
3379C
331
3379C
  5
3379D
331
3379D
  5
3379E
331
3379E
  5
3379F
331
3379F
  5
337A0
331
337A0
  5
337A1
331
337A1
  5
337A2
331
337A2
  5
337A3
331
337A3
  5
337A4
331
337A4
  5
337A5
331
337A5
  5
337A6
331
337A6
  5
337A7
331
337A7
  5
337A8
331
337A8
  5
337A9
331
337A9
  5
337AA
331
337AA
  5
337AB
331
337AB
  5
337AC
331
337AC
  5
337AD
331
337AD
  5
337AE
331
337AE
  5
337AF
331
337AF
  5
337B0
331
337B0
  5
337B1
331
337B1
  5
337B2
331
337B2
  5
337B3
331
337B3
  5
337B4
331
337B4
  5
337B5
331
337B5
  5
337B6
331
337B6
  5
337B7
331
337B7
  5
337B8
331
337B8
  5
337B9
331
337B9
  5
337BA
331
337BA
  5
337BB
331
337BB
  5
337BC
331
337BC
  5
337BD
331
337BD
  5
337BE
331
337BE
  5
337BF
331
337BF
  5
337C0
331
337C0
  5
337C1
331
337C1
  5
337C2
331
337C2
  5
337C3
331
337C3
  5
337C4
331
337C4
  5
337C5
331
337C5
  5
337C6
331
337C6
  5
337C7
331
337C7
  5
337C8
331
337C8
  5
337C9
331
337C9
  5
337CA
331
337CA
  5
337CB
331
337CB
  5
337CC
331
337CC
  5
337CD
331
337CD
  5
337CE
331
337CE
  5
337CF
331
337CF
  5
337D0
331
337D0
  5
337D1
331
337D1
  5
337D2
331
337D2
  5
337D3
331
337D3
  5
337D4
331
337D4
  5
337D5
331
337D5
  5
337D6
331
337D6
  5
337D7
331
337D7
  5
337D8
331
337D8
  5
337D9
331
337D9
  5
337DA
331
337DA
  5
337DB
331
337DB
  5
337DC
331
337DC
  5
337DD
331
337DD
  5
337DE
331
337DE
  5
337DF
331
337DF
  5
337E0
331
337E0
  5
337E1
331
337E1
  5
337E3
331
337E3
  5
337E4
331
337E4
  5
337E8
331
337E8
  5
337E9
331
337E9
  5
337EA
331
337EA
  5
337EB
331
337EB
  5
337EC
331
337EC
  5
337ED
331
337ED
  5
337EE
331
337EE
  5
337EF
331
337EF
  5
337F0
331
337F0
  5
337F1
331
337F1
  5
337F2
331
337F2
  5
337F3
331
337F3
  5
337F4
331
337F4
  5
337F5
331
337F5
  5
337F6
331
337F6
  5
337F7
331
337F7
  5
337F8
331
337F8
  5
337F9
331
337F9
  5
337FA
331
337FA
  5
337FB
331
337FB
  5
337FC
331
337FC
  5
337FD
331
337FD
  5
337FE
331
337FE
  5
337FF
331
337FF
  5
33800
331
33800
  5
33801
331
33801
  5
33802
331
33802
  5
33803
331
33803
  5
33804
331
33804
  5
33805
331
33805
  5
33806
331
33806
  5
33807
331
33807
  5
33808
331
33808
  5
33809
331
33809
  5
3380C
331
3380C
  5
3380E
331
3380E
  5
3380F
331
3380F
  5
33810
331
33810
  5
33812
331
33812
  5
33813
331
33813
  5
33814
331
33814
  5
33815
331
33815
  5
33816
331
33816
  5
33817
331
33817
  5
33818
331
33818
  5
33819
331
33819
  5
3381A
331
3381A
  5
3381B
331
3381B
  5
3381C
331
3381C
  5
3381D
331
3381D
  5
3381E
331
3381E
  5
3381F
331
3381F
  5
33820
331
33820
  5
33821
331
33821
  5
33822
331
33822
  5
33823
331
33823
  5
33824
331
33824
  5
33825
331
33825
  5
33826
331
33826
  5
33827
331
33827
  5
33828
331
33828
  5
33829
331
33829
  5
3382A
331
3382A
  5
3382B
331
3382B
  5
3382C
331
3382C
  5
3382D
331
3382D
  5
3382E
331
3382E
  5
3382F
331
3382F
  5
33830
331
33830
  5
33831
331
33831
  5
33832
331
33832
  5
33833
331
33833
  5
33834
331
33834
  5
33835
331
33835
  5
33836
331
33836
  5
33837
331
33837
  5
33838
331
33838
  5
33839
331
33839
  5
3383A
331
3383A
  5
3383B
331
3383B
  5
3383C
331
3383C
  5
3383D
331
3383D
  5
3383E
331
3383E
  5
3383F
331
3383F
  5
33840
331
33840
  5
33841
331
33841
  5
33842
331
33842
  5
33843
331
33843
  5
33844
331
33844
  5
33845
331
33845
  5
33846
331
33846
  5
33847
331
33847
  5
33848
331
33848
  5
33849
331
33849
  5
3384A
331
3384A
  5
3384B
331
3384B
  5
3384C
331
3384C
  5
3384D
331
3384D
  5
3384E
331
3384E
  5
3384F
331
3384F
  5
33850
331
33850
  5
33851
331
33851
  5
33852
331
33852
  5
33853
331
33853
  5
33854
331
33854
  5
33855
331
33855
  5
33856
331
33856
  5
33857
331
33857
  5
33858
331
33858
  5
33859
331
33859
  5
3385A
331
3385A
  5
3385B
331
3385B
  5
3385C
331
3385C
  5
3385D
331
3385D
  5
3385E
331
3385E
  5
3385F
331
3385F
  5
33860
331
33860
  5
33861
331
33861
  5
33862
331
33862
  5
33863
331
33863
  5
33864
331
33864
  5
33865
331
33865
  5
33866
331
33866
  5
33867
331
33867
  5
33868
331
33868
  5
33869
331
33869
  5
3386A
331
3386A
  5
3386B
331
3386B
  5
3386C
331
3386C
  5
3386D
331
3386D
  5
3386E
331
3386E
  5
3386F
331
3386F
  5
33870
331
33870
  5
33871
331
33871
  5
33872
331
33872
  5
33873
331
33873
  5
33874
331
33874
  5
33875
331
33875
  5
33876
331
33876
  5
33877
331
33877
  5
33878
331
33878
  5
33879
331
33879
  5
3387A
331
3387A
  5
3387B
331
3387B
  5
3387C
331
3387C
  5
3387D
331
3387D
  5
3387E
331
3387E
  5
3387F
331
3387F
  5
33880
331
33880
  5
33881
331
33881
  5
33882
331
33882
  5
33883
331
33883
  5
33884
331
33884
  5
33885
331
33885
  5
33886
331
33886
  5
33887
331
33887
  5
33888
331
33888
  5
33889
331
33889
  5
3388A
331
3388A
  5
3388B
331
3388B
  5
3388C
331
3388C
  5
3388D
331
3388D
  5
3388E
331
3388E
  5
3388F
331
3388F
  5
33890
331
33890
  5
33891
331
33891
  5
33892
331
33892
  5
33893
331
33F0B
  5
33757
  0
LAYOUT
  5
22
102
{ACAD_REACTORS
330
1A
102
}
330
1A
100
AcDbPlotSettings
  1

  2
SII LP-2150 (D-SCAN C2)
  4
User120
  6
AM_VIEW1
 40
3.174999952316284
 41
3.174999952316284
 42
3.17498779296875
 43
3.17498779296875
 44
296.9259948730469
 45
419.9889831542969
 46
0.0
 47
0.0
 48
0.0
 49
0.0
140
420.0
141
297.0
142
1.0
143
1.022107788374329
 70
 11952
 72
     1
 73
     1
 74
     4
  7
sei_cad.ctb
 75
     0
147
0.9783703943695685
148
0.0
149
0.0
100
AcDbLayout
  1
Model
 70
     1
 71
     0
 10
0.0
 20
0.0
 11
12.0
 21
9.0
 12
0.0
 22
0.0
 32
0.0
 14
0.0
 24
0.0
 34
0.0
 15
0.0
 25
0.0
 35
0.0
146
0.0
 13
0.0
 23
0.0
 33
0.0
 16
1.0
 26
0.0
 36
0.0
 17
0.0
 27
1.0
 37
0.0
 76
     0
330
1F
1001
ACAD_PSEXT
1000
SII LP-2150 (D-SCAN C2)
1000
SII LP-2150 (D-SCAN C2)
1000
133.153.16.130#3000
1000

1070
     0
  0
LAYOUT
  5
1E
102
{ACAD_REACTORS
330
1A
102
}
330
1A
100
AcDbPlotSettings
  1

  2
Canon LASER SHOT LBP-2030
  4

  6

 40
0.0
 41
0.0
 42
0.0
 43
0.0
 44
0.0
 45
0.0
 46
0.0
 47
0.0
 48
0.0
 49
0.0
140
0.0
141
0.0
142
1.0
143
1.0
 70
   688
 72
     0
 73
     0
 74
     5
  7
sei_cad.ctb
 75
    16
147
1.0
148
0.0
149
0.0
100
AcDbLayout
  1
ﾚｲｱｳﾄ1
 70
     1
 71
     1
 10
0.0
 20
0.0
 11
420.0
 21
297.0
 12
0.0
 22
0.0
 32
0.0
 14
1.000000000000000E+20
 24
1.000000000000000E+20
 34
1.000000000000000E+20
 15
-1.000000000000000E+20
 25
-1.000000000000000E+20
 35
-1.000000000000000E+20
146
0.0
 13
0.0
 23
0.0
 33
0.0
 16
1.0
 26
0.0
 36
0.0
 17
0.0
 27
1.0
 37
0.0
 76
     0
330
1B
  0
LAYOUT
  5
26
102
{ACAD_REACTORS
330
1A
102
}
330
1A
100
AcDbPlotSettings
  1

  2
Canon LASER SHOT LBP-2030
  4

  6

 40
0.0
 41
0.0
 42
0.0
 43
0.0
 44
0.0
 45
0.0
 46
0.0
 47
0.0
 48
0.0
 49
0.0
140
0.0
141
0.0
142
1.0
143
1.0
 70
   688
 72
     0
 73
     0
 74
     5
  7
sei_cad.ctb
 75
    16
147
1.0
148
0.0
149
0.0
100
AcDbLayout
  1
ﾚｲｱｳﾄ2
 70
     1
 71
     2
 10
0.0
 20
0.0
 11
12.0
 21
9.0
 12
0.0
 22
0.0
 32
0.0
 14
0.0
 24
0.0
 34
0.0
 15
0.0
 25
0.0
 35
0.0
146
0.0
 13
0.0
 23
0.0
 33
0.0
 16
1.0
 26
0.0
 36
0.0
 17
0.0
 27
1.0
 37
0.0
 76
     0
330
23
  0
MLINESTYLE
  5
18
102
{ACAD_REACTORS
330
17
102
}
330
17
100
AcDbMlineStyle
  2
STANDARD
 70
     0
  3

 62
   256
 51
90.0
 52
90.0
 71
     2
 49
0.5
 62
   256
  6
BYLAYER
 49
-0.5
 62
   256
  6
BYLAYER
  0
ACDBPLACEHOLDER
  5
F
102
{ACAD_REACTORS
330
E
102
}
330
E
  0
TABLESTYLE
  5
232CC
102
{ACAD_REACTORS
330
232CB
102
}
330
232CB
100
AcDbTableStyle
  3
Standard
 70
     0
 71
     8
 40
1.5
 41
1.5
280
     0
281
     0
  7
STANDARD
140
4.5
170
     2
 62
     0
 63
     7
283
     0
274
    -2
284
     1
 64
     0
275
    -2
285
     1
 65
     0
276
    -2
286
     1
 66
     0
277
    -2
287
     1
 67
     0
278
    -2
288
     1
 68
     0
279
    -2
289
     1
 69
     0
  7
STANDARD
140
6.0
170
     5
 62
     0
 63
     7
283
     0
274
    -2
284
     1
 64
     0
275
    -2
285
     1
 65
     0
276
    -2
286
     1
 66
     0
277
    -2
287
     1
 67
     0
278
    -2
288
     1
 68
     0
279
    -2
289
     1
 69
     0
  7
STANDARD
140
4.5
170
     5
 62
     0
 63
     7
283
     0
274
    -2
284
     1
 64
     0
275
    -2
285
     1
 65
     0
276
    -2
286
     1
 66
     0
277
    -2
287
     1
 67
     0
278
    -2
288
     1
 68
     0
279
    -2
289
     1
 69
     0
  0
XRECORD
  5
34237
102
{ACAD_REACTORS
330
34236
102
}
330
34236
100
AcDbXrecord
280
     1
340
232CA
  0
XRECORD
  5
34238
102
{ACAD_REACTORS
330
34236
102
}
330
34236
100
AcDbXrecord
280
     1
340
232C9
  0
DICTIONARYVAR
  5
233A5
102
{ACAD_REACTORS
330
30
102
}
330
30
100
DictionaryVariables
280
     0
  1
STANDARD
  0
DICTIONARYVAR
  5
34235
102
{ACAD_REACTORS
330
30
102
}
330
30
100
DictionaryVariables
280
     0
  1
0
  0
DICTIONARYVAR
  5
34234
102
{ACAD_REACTORS
330
30
102
}
330
30
100
DictionaryVariables
280
     0
  1
1
  0
ACAD_PROXY_OBJECT
  5
4E
102
{ACAD_REACTORS
330
4D
102
}
330
4D
100
AcDbProxyObject
 90
      499
 91
      520
 95
       25
 70
     0
 93
      118
310
405010040CA904C415CD5B075DD228
350
4F
 94
        0
  0
DICTIONARY
  5
17E
102
{ACAD_REACTORS
330
4D
102
}
330
4D
100
AcDbDictionary
281
     1
  3
ISO
350
24424
  3
JIS
350
17F
  0
XRECORD
  5
23326
102
{ACAD_REACTORS
330
4D
102
}
330
4D
100
AcDbXrecord
280
     1
 90
-1023410169
  0
ACAD_PROXY_OBJECT
  5
33
330
2E
100
AcDbProxyObject
 90
      499
 91
      508
 95
       25
 70
     0
 93
      156
310
00010143D050D351505391D5531054925390D490
330
2E
 94
        0
  0
ACAD_PROXY_OBJECT
  5
34
330
2E
100
AcDbProxyObject
 90
      499
 91
      508
 95
       25
 70
     0
 93
      148
310
000101439050D351531253915054925390D490
330
2E
 94
        0
  0
ACAD_PROXY_OBJECT
  5
35
330
2E
100
AcDbProxyObject
 90
      499
 91
      509
 95
       25
 70
     0
 93
      156
310
000101439050D35154D6535093D314D256915080
330
2E
 94
        0
  0
ACAD_PROXY_OBJECT
  5
37
330
2E
100
AcDbProxyObject
 90
      499
 91
      511
 95
       25
 70
     0
 93
       88
310
000101411093D34C402B00
330
2E
330
0
330
0
 94
        0
  0
ACAD_PROXY_OBJECT
  5
6B
330
2E
100
AcDbProxyObject
 90
      499
 91
      509
 95
       25
 70
     0
 93
      108
310
00010142505351D153D35054D4E0
330
2E
 94
        0
  0
ACAD_PROXY_OBJECT
  5
6C
330
2E
100
AcDbProxyObject
 90
      499
 91
      522
 95
       25
 70
     0
 93
      140
310
00010142105350D55494D511005034A49530
330
2E
 94
        0
  0
ACAD_PROXY_OBJECT
  5
232DE
330
2E
100
AcDbProxyObject
 90
      499
 91
      537
 95
       25
 70
     0
 93
      358
310
0001014124FEA55D00507392E322E302E32014124FEA55D00507392E322E302E3240501000041505391D311658
330
2E
330
232DF
330
232E5
 94
        0
  0
ACAD_PROXY_OBJECT
  5
232DF
330
2E
100
AcDbProxyObject
 90
      499
 91
      538
 95
       25
 70
     0
 93
       56
310
000190240E0000
330
2E
330
232E0
330
232E2
 94
        0
  0
ACAD_PROXY_OBJECT
  5
232E0
330
2E
100
AcDbProxyObject
 90
      499
 91
      539
 95
       25
 70
     0
 93
       48
310
0001AA000000
330
2E
330
1E
330
232E1
330
0
 94
        0
  0
ACAD_PROXY_OBJECT
  5
232E1
330
2E
100
AcDbProxyObject
 90
      499
 91
      540
 95
       25
 70
     0
 93
       28
310
0001AAA0
330
2E
 94
        0
  0
ACAD_PROXY_OBJECT
  5
232E2
330
2E
100
AcDbProxyObject
 90
      499
 91
      539
 95
       25
 70
     0
 93
       48
310
0001AA000000
330
2E
330
26
330
232E3
330
0
 94
        0
  0
ACAD_PROXY_OBJECT
  5
232E3
330
2E
100
AcDbProxyObject
 90
      499
 91
      540
 95
       25
 70
     0
 93
       28
310
0001AAA0
330
2E
 94
        0
  0
ACAD_PROXY_OBJECT
  5
232E6
330
2E
100
AcDbProxyObject
 90
      499
 91
      509
 95
       25
 70
     0
 93
      108
310
000101421053521310D05310D010
330
2E
 94
        0
  0
ACAD_PROXY_OBJECT
  5
232E7
330
2E
100
AcDbProxyObject
 90
      499
 91
      509
 95
       25
 70
     0
 93
      124
310
00010142905354915554D15112535010
330
2E
 94
        0
  0
ACAD_PROXY_OBJECT
  5
232E8
330
2E
100
AcDbProxyObject
 90
      499
 91
      509
 95
       25
 70
     0
 93
      132
310
00010143105354D150D51253D391125360
330
2E
 94
        0
  0
ACAD_PROXY_OBJECT
  5
232E9
330
2E
100
AcDbProxyObject
 90
      499
 91
      509
 95
       25
 70
     0
 93
      124
310
00010142905355941093D49111549010
330
2E
 94
        0
  0
ACAD_PROXY_OBJECT
  5
232EA
330
2E
100
AcDbProxyObject
 90
      499
 91
      509
 95
       25
 70
     0
 93
      116
310
0001014290535115D1D0D3D313D4A0
330
2E
 94
        0
  0
ACAD_PROXY_OBJECT
  5
232EB
330
2E
100
AcDbProxyObject
 90
      499
 91
      509
 95
       25
 70
     0
 93
      148
310
00010143505355925155D49151949154D21010
330
2E
 94
        0
  0
ACAD_PROXY_OBJECT
  5
232EC
330
2E
100
AcDbProxyObject
 90
      499
 91
      509
 95
       25
 70
     0
 93
      172
310
00010144105350539393D51154149154D15495915010
330
2E
 94
        0
  0
ACAD_PROXY_OBJECT
  5
232ED
330
2E
100
AcDbProxyObject
 90
      499
 91
      509
 95
       25
 70
     0
 93
      172
310
00010144105350555513D11253505494905391D15010
330
2E
 94
        0
  0
ACAD_PROXY_OBJECT
  5
232EE
330
2E
100
AcDbProxyObject
 90
      499
 91
      509
 95
       25
 70
     0
 93
      124
310
00010142D05351561514915191125360
330
2E
 94
        0
  0
ACAD_PROXY_OBJECT
  5
232EF
330
2E
100
AcDbProxyObject
 90
      499
 91
      509
 95
       25
 70
     0
 93
      132
310
00010142D05355105410539393D5115010
330
2E
 94
        0
  0
ACAD_PROXY_OBJECT
  5
232F0
330
2E
100
AcDbProxyObject
 90
      499
 91
      509
 95
       25
 70
     0
 93
      108
310
00010142105350555513D0D31010
330
2E
 94
        0
  0
ACAD_PROXY_OBJECT
  5
232F1
330
2E
100
AcDbProxyObject
 90
      499
 91
      509
 95
       25
 70
     0
 93
      108
310
00010142105350D3119150551050
330
2E
 94
        0
  0
ACAD_PROXY_OBJECT
  5
232F2
330
2E
100
AcDbProxyObject
 90
      499
 91
      509
 95
       25
 70
     0
 93
      108
310
00010142105350D315925155D3F0
330
2E
 94
        0
  0
ACAD_PROXY_OBJECT
  5
232F3
330
2E
100
AcDbProxyObject
 90
      499
 91
      509
 95
       25
 70
     0
 93
      148
310
0001014350535212511156915493D112535010
330
2E
 94
        0
  0
ACAD_PROXY_OBJECT
  5
232F4
330
2E
100
AcDbProxyObject
 90
      499
 91
      509
 95
       25
 70
     0
 93
      124
310
00010142905352105510D21254D3D010
330
2E
 94
        0
  0
ACAD_PROXY_OBJECT
  5
232F5
330
2E
100
AcDbProxyObject
 90
      499
 91
      509
 95
       25
 70
     0
 93
      148
310
00010143905354D25391D31152105513105660
330
2E
 94
        0
  0
ACAD_PROXY_OBJECT
  5
232F6
330
2E
100
AcDbProxyObject
 90
      499
 91
      509
 95
       25
 70
     0
 93
      124
310
00010142D0535115D1D193111254D420
330
2E
 94
        0
  0
ACAD_PROXY_OBJECT
  5
232F7
330
2E
100
AcDbProxyObject
 90
      499
 91
      509
 95
       25
 70
     0
 93
      100
310
00010142105350555513D213A0
330
2E
 94
        0
  0
ACAD_PROXY_OBJECT
  5
232F8
330
2E
100
AcDbProxyObject
 90
      499
 91
      509
 95
       25
 70
     0
 93
      116
310
000101425053521390D3D553951010
330
2E
 94
        0
  0
ACAD_PROXY_OBJECT
  5
232F9
330
2E
100
AcDbProxyObject
 90
      499
 91
      509
 95
       25
 70
     0
 93
      108
310
0001014210535213941493D29010
330
2E
 94
        0
  0
ACAD_PROXY_OBJECT
  5
232FA
330
2E
100
AcDbProxyObject
 90
      499
 91
      509
 95
       25
 70
     0
 93
      108
310
0001014210535213951654115070
330
2E
 94
        0
  0
ACAD_PROXY_OBJECT
  5
232FB
330
2E
100
AcDbProxyObject
 90
      499
 91
      509
 95
       25
 70
     0
 93
      108
310
000101421053521395925155D0F0
330
2E
 94
        0
  0
ACAD_PROXY_OBJECT
  5
232FC
330
2E
100
AcDbProxyObject
 90
      499
 91
      509
 95
       25
 70
     0
 93
      140
310
00010143505354D150D51253D390D3D41660
330
2E
 94
        0
  0
ACAD_PROXY_OBJECT
  5
232FD
330
2E
100
AcDbProxyObject
 90
      499
 91
      509
 95
       25
 70
     0
 93
      108
310
00010142105350D3141493D29030
330
2E
 94
        0
  0
ACAD_PROXY_OBJECT
  5
232FE
330
2E
100
AcDbProxyObject
 90
      499
 91
      508
 95
       25
 70
     0
 93
      212
310
00010143905350555513D2105510D21493D500000000000002E400
330
2E
 94
        0
  0
ACAD_PROXY_OBJECT
  5
232FF
330
2E
100
AcDbProxyObject
 90
      499
 91
      509
 95
       25
 70
     0
 93
      156
310
00010143905350555513D2105510D21111551010
330
2E
 94
        0
  0
ACAD_PROXY_OBJECT
  5
2330B
330
2E
100
AcDbProxyObject
 90
      499
 91
      548
 95
       25
 70
     0
 93
      698
310
0001000000009AA6A9AA4051E576564204D61792033312030343A35373A303020323030362028555443290141CE4B8C8B8C0B8C80518467269205365702031372031313A33313A323120323031300141CE4B8C8B8C0B8C80
330
2E
330
2330C
330
2330D
330
2330F
330
0
 94
        0
  0
ACAD_PROXY_OBJECT
  5
2330C
330
2E
100
AcDbProxyObject
 90
      499
 91
      549
 95
       25
 70
     0
 93
       70
310
0001AAA80820000000
330
2E
330
2330C
330
2330C
 94
        0
  0
ACAD_PROXY_OBJECT
  5
2330D
330
2E
100
AcDbProxyObject
 90
      499
 91
      550
 95
       25
 70
     0
 93
       48
310
000100000000
330
2E
330
0
330
2330E
330
0
330
0
 94
        0
  0
ACAD_PROXY_OBJECT
  5
2330E
330
2E
100
AcDbProxyObject
 90
      499
 91
      551
 95
       25
 70
     0
 93
       40
310
000100AAAA
330
2E
330
0
 94
        0
  0
ACAD_PROXY_OBJECT
  5
23314
330
2E
100
AcDbProxyObject
 90
      499
 91
      522
 95
       25
 70
     0
 93
      180
310
00010143105050D3D35411119390535140504434F4D500
330
2E
 94
        0
  0
ACAD_PROXY_OBJECT
  5
23315
330
2E
100
AcDbProxyObject
 90
      499
 91
      522
 95
       25
 70
     0
 93
      212
310
0001014390505193D311115491119390535140506466F6C6465720
330
2E
 94
        0
  0
ACAD_PROXY_OBJECT
  5
23316
330
2E
100
AcDbProxyObject
 90
      499
 91
      522
 95
       25
 70
     0
 93
      180
310
00010143105050539393D1119390535140504284156290
330
2E
 94
        0
  0
ACAD_PROXY_OBJECT
  5
23317
330
2E
100
AcDbProxyObject
 90
      499
 91
      522
 95
       25
 70
     0
 93
      436
310
00010143905050D3D35415925155D31254D50052295BD96CA0A90B396CA0A894591A496CA0A8DB691A496CA0A89BA96CA0A95E28F95310
330
2E
 94
        0
  0
ACAD_PROXY_OBJECT
  5
2331C
330
2E
100
AcDbProxyObject
 90
      499
 91
      556
 95
       25
 70
     0
 93
       32
310
00010000
330
2E
340
23319
330
2331E
330
23319
 94
        0
  0
ACAD_PROXY_OBJECT
  5
2331D
330
2E
100
AcDbProxyObject
 90
      499
 91
      557
 95
       25
 70
     0
 93
       18
310
000180
330
2E
 94
        0
  0
ACAD_PROXY_OBJECT
  5
2331E
330
2E
100
AcDbProxyObject
 90
      499
 91
      558
 95
       25
 70
     0
 93
      226
310
00010144520D8CD04B55D20B51159593938B520C4D9050055401550000
330
2E
330
2331C
330
2331D
 94
        0
  0
ACAD_PROXY_OBJECT
  5
2331F
330
2E
100
AcDbProxyObject
 90
      499
 91
      559
 95
       25
 70
     0
 93
      178
310
000100AAAAAA9195104E6175E692E824806FEAC2A092C0
330
2E
330
2331E
 94
        0
  0
ACAD_PROXY_OBJECT
  5
23320
330
2E
100
AcDbProxyObject
 90
      499
 91
      560
 95
       25
 70
     0
 93
      108
310
000190140A000000000000AAAAA0
330
2E
330
23321
330
23321
330
23321
330
23321
330
23321
330
0
 94
        0
  0
ACAD_PROXY_OBJECT
  5
23321
330
2E
100
AcDbProxyObject
 90
      499
 91
      561
 95
       25
 70
     0
 93
       51
310
00010000AAAA80
330
2E
330
23320
330
2331E
 94
        0
  0
DICTIONARY
  5
40
102
{ACAD_REACTORS
330
3F
102
}
330
3F
100
AcDbDictionary
281
     1
  3
DWGSETTINGS
350
41
  3
FEM
350
69
  3
Shaft
350
56
  3
TRANSSETTINGS
350
4C
  0
ACAD_PROXY_OBJECT
  5
42
102
{ACAD_REACTORS
330
3F
102
}
330
3F
100
AcDbProxyObject
 90
      499
 91
      519
 95
       25
 70
     0
 93
    23232
310
41502491013041105357CC201C00030C011E441013141105357CC603800030C011E441013241105357CCA01400030C011E441013341105357CCE01800030C010D9013441105357CD200C00030C010D9013541105357CD600C00030C010D9013641105357CDA00800030C011E9013741105357CDE01000030C010D901384110
310
5357CE200400030C011E9013941105357CE63F400030C0241102324141505357CC4C201C00030C011E902344141505357CC4C600C00030C010D902495041505357CC4CA01C00030C011E40902304E41505357CC13A01C00030C011E902314E41505357CC53A03800030C011E902324E41505357CC93A01400030C011E90233
310
4E41505357CCD3A01800030C010D902344E41505357CD13A00C00030C010D902354E41505357CD53A00C00030C010D902364E41505357CD93A00800030C011E902374E41505357CDD3A01000030C010D902384E41505357CE13A00400030C011E902394E41505357CE53A3F400030C024110332414E41905357CC4C13A01C0
310
0030C011E90334414E41905357CC4C53A00C00030C010D90349504E41905357CC4C93A01C00030C011E409044B4C494E41505357D0D3200400030C011E42504494E464F42105357D410549151A01000030C010D42D055241484D3541905357D093D4A01C00030C011E425045649455742105357D5925155D4E00400030C011
310
E42D06424548494E4441905357D25395A3F400030C0243505545241494C41505357D514A00C00030C010D4250348494441905357D21251201C00030C011E4250356495341905357D59254E01C00030C011E4250650415244494D42505357D41054911253600C00030C010D4250652454644494D42505357D49151911253601
310
000030C010D425774110531514901348070000C300479034110915312501348000000C0003FFFFFFFD034110921395901398000000C0003FFFFFFFE415092139594D06424548494E448000000C0003FFFFFFFE411093125110234418000000C0003FFFFFFFD03411093D05410234418000000C0003FFFFFFFD03411093D48C
310
9055241484D358010000C30047A411093D48CD055241484D358020000C30047A411093D48D5055241484D358000000C0003FFFFFFFE411093D48DD055241484D3581E0000C30047903411094105410234418000000C0003FFFFFFFD03411094115610234418000000C0003FFFFFFFD034110951112501358000000C0003FFF
310
FFFFD034110D0530C901348000000C0003FFFFFFFE4110D0530CD01348020000C30047A4110D0530D501348070000C30047A4110D0530DD013481E0000C30047A4110D15393901378000000C0003FFFFFFFE4110D15395D01378000000C0003FFFFFFFE4110D312539044B4C494E8000000C0003FFFFFFFE4110D3D38C5013
310
08000000C0003FFFFFFFD034110D3D38C901318000000C0003FFFFFFFD034110D3D38CD01328000000C0003FFFFFFFD034110D3D38D101328000000C0003FFFFFFFD034111115494101348000000C0003FFFFFFFD034111115510501348000000C0003FFFFFFFE4111125051D01358000000C0003FFFFFFFE4111125312501
310
358000000C0003FFFFFFFE411112535410650415244494D8000000C0003FFFFFFFE411112535490652454644494D8000000C0003FFFFFFFE411156135410234418000000C0003FFFFFFFD034111915353901388000000C0003FFFFFFFE415191535413901388030000C3004364151915354D410234418000000C0003FFFFFF
310
FE4151915354D510234418030000C300436415191535593901328000000C0003FFFFFFFE415191535595101328030000C3004364111931055101308000000C0003FFFFFFFD03411194905490234418000000C0003FFFFFFFD034111D49312501358000000C0003FFFFFFFD034111D5931250234418000000C0003FFFFFFFD0
310
34112105510D01388000000C0003FFFFFFFD014112125113901338000000C0003FFFFFFFD034112125115D01338000000C0003FFFFFFFD034112131253901348000000C0003FFFFFFFD01411213D0D3901378000000C0003FFFFFFFE411213D0D5D01378000000C0003FFFFFFFE4112539193D04494E464F8000000C0003FF
310
FFFFFE4113105112501348000000C0003FFFFFFFD034113115051101358000000C0003FFFFFFFE419397D0921395902394E8000000C0003FFFFFFFE419397D0D3D38C502304E8000000C0003FFFFFFFD03419397D0D3D38C902314E8000000C0003FFFFFFFD03419397D0D3D38CD02324E8000000C0003FFFFFFFD03419397
310
D0D3D38D102324E8000000C0003FFFFFFFD03419397D0D15393902374E8000000C0003FFFFFFFE419397D0D15395D02374E8000000C0003FFFFFFFE419397D1125312502354E8000000C0003FFFFFFFE419397D2105510D02384E8000000C0003FFFFFFFD01419397D2125113902334E8000000C0003FFFFFFFD03419397D2
310
125115D02334E8000000C0003FFFFFFFD03419397D3115051102354E8000000C0003FFFFFFFE419397D391D25410349504E8000000C0003FFFFFFFE419397D412105390334414E8000000C0003FFFFFFFE419397D510D3D3902304E8000000C0003FFFFFFFD03419397D5121312502344E8000000C0003FFFFFFFD01419397
310
D5131153902304E8000000C0003FFFFFFFD03419397D516150CD02364E8000000C0003FFFFFFFD03419397D594131250332414E8000000C0003FFFFFFFE411391D25410249508000000C0003FFFFFFFE411410530C9055241484D358010000C30047A411410530CD055241484D358020000C30047A411410530D5055241484
310
D358000000C0003FFFFFFFE411410530DD055241484D3581E0000C30047903411412105390234418000000C0003FFFFFFFE411413D4D3901368070000C30047A419413D4D49151901368050000C30047903411413D4D6101368000000C0003FFFFFFFD03411414D150D0234418000000C0003FFFFFFFD03411490D1D390137
310
8000000C0003FFFFFFFE411490D1D5D01378000000C0003FFFFFFFE4114919112501348000000C0003FFFFFFFD034114945514901348070000C30047903411494D093D01348000000C0003FFFFFFFD034114D09492D01348000000C0003FFFFFFFD014114D0D153901378000000C0003FFFFFFFD034114D150D51013480000
310
00C0003FFFFFFFD014114D15313901378000000C0003FFFFFFFD034114D15315D01378000000C0003FFFFFFFD034114D4D654D01308000000C0003FFFFFFFD034114D51312501348070000C300479034114D6508C501358000000C0003FFFFFFFD034114D6508C901358000000C0003FFFFFFFD034114D6508CD0135802000
310
0C30047A4114D6508D501358070000C300479034114D65353901378000000C0003FFFFFFFD034114D65355D01378000000C0003FFFFFFFD03411510D3D3901308000000C0003FFFFFFFD034115121312501348000000C0003FFFFFFFD01411512550C9055241484D358010000C30047A411512550CD055241484D358020000
310
C30047A411512550D5055241484D358000000C0003FFFFFFFE411512550DD055241484D3581E0000C300479034115131153901308000000C0003FFFFFFFD03415514905253105545241494C8000000C0003FFFFFFFE41151492D3901378000000C0003FFFFFFFD0341151492D5D01378000000C0003FFFFFFFD03411514931
310
2501348000000C0003FFFFFFFD01411516150C501368030000C300436411516150C901368030000C300436411516150CD01368000000C0003FFFFFFFE411516150D501368070000C30047A411516150DD013681E0000C30047A4115925155D04564945578000000C0003FFFFFFFE41159151121034849448000000C0003FFF
310
FFFFD0241159151159035649538000000C0003FFFFFFFD02411594131250232418000000C0003FFFFFFFE4116925690501348000000C0003FFFFFFFD01411354D653501358020000C30047AAAA3F400030C01013F90A4391E41D1E4190D4151E4110D40D0D4091E4051E4791E7F6
340
16
340
16
340
16
340
43
340
16
340
16
340
16
340
44
340
16
340
16
340
44
340
45
340
16
340
16
340
16
340
16
340
43
340
16
340
16
340
16
340
44
340
16
340
16
340
44
340
45
340
16
340
46
340
16
340
16
340
16
340
16
340
16
340
43
340
16
340
16
340
16
340
47
340
15
340
15
340
15
340
15
340
15
340
15
340
15
340
15
340
15
340
15
340
15
340
15
340
15
340
15
340
15
340
15
340
48
340
15
340
15
340
15
340
15
340
15
340
15
340
15
340
15
340
15
340
15
340
15
340
15
340
15
340
15
340
15
340
16
340
15
340
15
340
15
340
15
340
15
340
15
340
15
340
15
340
47
340
15
340
15
340
48
340
15
340
15
340
15
340
15
340
15
340
15
340
15
340
15
340
15
340
48
340
15
340
15
340
15
340
47
340
15
340
15
340
15
340
15
340
15
340
15
340
15
340
15
340
15
340
15
340
15
340
15
340
15
340
15
340
15
340
15
340
15
340
15
340
15
340
48
340
15
340
15
340
48
340
15
340
15
340
16
340
15
340
48
340
15
340
15
340
47
340
15
340
15
340
16
340
15
340
48
340
15
340
15
340
15
340
15
340
15
340
15
340
15
340
15
340
15
340
48
340
15
340
15
340
15
340
15
340
15
340
15
340
15
340
15
340
15
340
15
340
15
340
4B
340
16
 94
        0
  0
ACAD_PROXY_OBJECT
  5
62F
102
{ACAD_REACTORS
330
73
102
}
330
73
100
AcDbProxyObject
 90
      499
 91
      523
 95
       25
 70
     0
 93
      253
310
43D1444494D454E53494F4E2C414D44545F2A5F44494D404A9012A404A9012A0
  0
ACAD_PROXY_OBJECT
  5
630
102
{ACAD_REACTORS
330
73
102
}
330
73
100
AcDbProxyObject
 90
      499
 91
      523
 95
       25
 70
     0
 93
      181
310
43D012A42D05357D191504B505357CA9012A404A9012A8
  0
ACAD_PROXY_OBJECT
  5
631
102
{ACAD_REACTORS
330
73
102
}
330
73
100
AcDbProxyObject
 90
      499
 91
      523
 95
       25
 70
     0
 93
      133
310
43D054841544348404A9012A404A9012A8
  0
ACAD_PROXY_OBJECT
  5
632
102
{ACAD_REACTORS
330
73
102
}
330
73
100
AcDbProxyObject
 90
      499
 91
      523
 95
       25
 70
     0
 93
      549
310
43D044C494E4549CE0B0E138B0A8B4E0B0A8B4E138B105357CE0B105357CE138B0A8B505357CE0B0A8B505357CE139012A404A910494E534552542C5354445041525432448
  0
ACAD_PROXY_OBJECT
  5
633
102
{ACAD_REACTORS
330
73
102
}
330
73
100
AcDbProxyObject
 90
      499
 91
      523
 95
       25
 70
     0
 93
      909
310
43D6641434D46434652414D452C41434D444154554D5441524745542C41434D444154554D49442C41434D57454C4453594D2C41434D5355524653594D2C41434D4645415449442C41434D504152545245462C41434D42414C4C4F4F4E2C414D44544544474553594D404A9012A404A9012A8
  0
XRECORD
  5
217B
102
{ACAD_REACTORS
330
217A
102
}
330
217A
100
AcDbXrecord
280
     1
  1
21000753__00___
  0

  0
XRECORD
  5
217D
102
{ACAD_REACTORS
330
217C
102
}
330
217C
100
AcDbXrecord
280
     1
  1
3
  0

  0
ACAD_PROXY_OBJECT
  5
4F
102
{ACAD_REACTORS
330
4E
102
}
330
4E
100
AcDbProxyObject
 90
      499
 91
      521
 95
       25
 70
     0
 93
      157
310
057356C1D77406406AA8FFFFFFFF05DD01009010
330
1F
330
0
330
2331E
 94
        0
  0
ACAD_PROXY_OBJECT
  5
24424
102
{ACAD_REACTORS
330
17E
102
}
330
17E
100
AcDbProxyObject
 90
      499
 91
      578
 95
       25
 70
     0
 93
     2497
310
5DC0000000000000C408030000C30040D254D3D01640600800030C0200800030C000000000000000C40C88A2085A0B6B23A22B233B2A9BA3220480A1C82C6DAA6EAE4CCA8CAF0E8A6E8C88120284A0B1B6A321A329BA3220480A1A82C6DAAECAD8C8D2DCCEA6E8C8812028420B1B6A4B229BA3220480A1682C6DA88C2E8EAD
310
AA6E8C88120284A0B1B6A127A6A9BA3220480A2082DAC8E888CAE8C2D2D8A6F2DAA6E8C88120288A0B6B23A29B2B1BA34B7B729BCB6A9BA3220480A2282DAC8E886CADCE8CAE498D2DCCAA6E8C88120288A0B6B23A2A343932B0B22634B732A9BA3220480A1682DAC8E89CDEE8CAA6E8C88120285A0B1A0B6B3A630BCA9BA3
310
220480A1682C682DACE88D2DAA6E8C88120288A0B1A0B6B3A437B632A1B430B93A29BA3220480A1A82C682DACEA8D2E8D8CAA6E8C8812032048080
340
233E2
360
24425
360
24426
360
24427
360
24428
360
24429
360
2442A
360
2442B
360
2442C
360
2442D
360
2442E
360
2442F
360
24430
360
24436
360
24437
360
24438
360
24439
340
0
340
0
 94
        0
  0
ACAD_PROXY_OBJECT
  5
17F
102
{ACAD_REACTORS
330
17E
102
}
330
17E
100
AcDbProxyObject
 90
      499
 91
      526
 95
       25
 70
     0
 93
     2379
310
5DC33333333333309408000000C00040D29254D01640600800030C0200800030C003333333333330940C8121E8720B1B6A9BAB9332A32BC3A29BA3220480A1282C6DA8C868CA6E8C88120286A0B1B6ABB2B63234B733A9BA3220480A1082C6DA92C8A6E8C88120285A0B1B6A230BA3AB6A9BA3220480A1282C6DA849E9AA6E
310
8C88120286A0B1A0B6B3AA34BA3632A9BA3220480A2082DAC8E888CAE8C2D2D8A6F2DAA6E8C88120288A0B6B23A29B2B1BA34B7B729BCB6A9BA3220480A2282DAC8E886CADCE8CAE498D2DCCAA6E8C88120288A0B6B23A2A343932B0B22634B732A9BA3220480A1682DAC8E89CDEE8CAA6E8C88120285A0B1A0B6B3A630BCA
310
9BA3220480A1682C682DACE88D2DAA6E8C88120288A0B1A0B6B3A437B632A1B430B93A29BA3220480C812020
340
180
360
181
360
182
360
183
360
184
360
185
360
186
360
23323
360
23324
360
23325
360
23327
360
23328
360
23329
360
2332F
360
23330
360
23331
340
0
340
0
 94
        0
  0
ACAD_PROXY_OBJECT
  5
41
102
{ACAD_REACTORS
330
40
102
}
330
40
100
AcDbProxyObject
 90
      499
 91
      518
 95
       25
 70
     0
 93
     2946
310
4050B44574753455454494E4753A0E8482A68AA6A88882A069492A684A1A0A723A0A92920ACA0A811B9AA0C868A9C829C8E82A12686AF87260F862666A8321A2A72224A0A50602A2140ECC009A020E868A9C889282A682A106260F86460F8666083A1A2A72224A9AA250000000000000042020C868A9C988A9C94000000000
310
000048808321A2A727A323250000000000000122020E868A9C9E8C8C62940000000000000488083A1A2A727A32319250000000000000122021CC6D0C2DACCCAE4C8D2DADADEC8CA9FC84A1A624A720A92920ACA0A81191B2108698929C8AA8B2A082A0AB098929C8A84A22BA3AAA9A1A0A622A50A0E9882A6A89E849482A02
310
608426A0A5A2AB24A2ABA7E8120CA0A68682988A0C00800010652455649534941501304154D0D0531150540CC4E8C5085354414E44415244415034A4953425512535154D51053541280E1A32945CCADCD050756455253494F4E4150531352E3030441ED115D1D4D15515125391D4D153911F40
  0
ACAD_PROXY_OBJECT
  5
69
102
{ACAD_REACTORS
330
40
102
}
330
40
100
AcDbProxyObject
 90
      499
 91
      518
 95
       25
 70
     0
 93
      411
310
4050346454D21092DCC6E486DECACC942842630BCA3B937BAB820A8320A6AFA322A0A20F688AE8EA68AA8A8929C8EA68A9C88FA0
  0
ACAD_PROXY_OBJECT
  5
56
102
{ACAD_REACTORS
330
40
102
}
330
40
100
AcDbProxyObject
 90
      499
 91
      518
 95
       25
 70
     0
 93
      583
310
40505536861667421292DCE8CAE4E4EAE0E89FA0484A634B3B43A2634B732A7F21A98D2CED0E898D2DCCAACD2CAEE9FC8229B4B232A7E80A20F688AE8EA68AA8A8929C8EA68A9C88FA
  0
ACAD_PROXY_OBJECT
  5
4C
102
{ACAD_REACTORS
330
40
102
}
330
40
100
AcDbProxyObject
 90
      499
 91
      518
 95
       25
 70
     0
 93
      852
310
4050D5452414E5353455454494E4753A2488A482AE929C8EA8A4829CA69882A8929E9C0C00800050D4F524947494E414C4C595F4F4E0600400028529A7AAA921A2A620A723A0A81A52827212AAA0A48AA68AA4AC8A0C0080001107B44574753455454494E4753454E447D0
  0
ACAD_PROXY_OBJECT
  5
24425
330
24424
100
AcDbProxyObject
 90
      499
 91
      579
 95
       25
 70
     0
 93
       13
310
5DD8
  0
ACAD_PROXY_OBJECT
  5
24426
330
24424
100
AcDbProxyObject
 90
      499
 91
      580
 95
       25
 70
     0
 93
       96
310
5DEA0E80A0280A0280A0280F
  0
ACAD_PROXY_OBJECT
  5
24427
330
24424
100
AcDbProxyObject
 90
      499
 91
      581
 95
       25
 70
     0
 93
      272
310
5DD0E4050140501405014050140501405014050140D01405012C0000000000000040
340
233E3
 94
        0
  0
ACAD_PROXY_OBJECT
  5
24428
330
24424
100
AcDbProxyObject
 90
      499
 91
      582
 95
       25
 70
     0
 93
      497
310
5DE8666666666667A67E199999999999E99FD22405014050140501405014050140501405014050140501405014050140501405014050140501405014050100
340
233DE
 94
        0
  0
ACAD_PROXY_OBJECT
  5
24429
330
24424
100
AcDbProxyObject
 90
      499
 91
      583
 95
       25
 70
     0
 93
       10
310
5DC0
  0
ACAD_PROXY_OBJECT
  5
2442A
330
24424
100
AcDbProxyObject
 90
      499
 91
      584
 95
       25
 70
     0
 93
      257
310
5DE290EA22A7D90F49F80000000000001081400000000000004204010000618000
340
1341A
340
233DF
 94
        0
  0
ACAD_PROXY_OBJECT
  5
2442B
330
24424
100
AcDbProxyObject
 90
      499
 91
      585
 95
       25
 70
     0
 93
    13013
310
5DD0E411255115350141236025B690140501406901000000000000091013347454E545241434F2C4A504E2C302C8D8096DA2C47454E54524154582C25732C2847454E4D53472067656E647767203232322940690120281A8AA2CA0282484A4BE52028120280A0320200000000000012202668E8A9CA8A482869E5894A09C58
310
605921292F94588E8A9CA8A482A8B0584AE658508E8A9C9AA68E40CECADCC8EECE406464665280D202405044E414D454050496BC914F4051C40640A80000000000004E404CD1D15395149050D3CB1294138B0C0B25AF2453CB11D15395149055160B095CCB0A11D1539354D1C819D95B991DD9C80C8C8D8A50192C3D494628
310
4953424C414E4B28504152543A4E414D45292C424C4F434B3A4E414D452C504152543A4E414D452940480A0A888AA686A480A09251B1DBE80A3A80C81D0000000000100A28099A3A2A72A2920A1A7962528271618164946C76F9623A2A72A2920AA2C1612B9961423A2A726A9A39033B2B7323BB39019189B94A0348090142
310
14D51053911054911014122D2E29A50147501904A000000000000125013347454E545241434F2C4A504E2C302C8B4B8A692C47454E54524154582C25732C2847454E4D53472067656E64776720323138294069012028426A0AA22A924A0A62028246EF4BDFA028EA0320B40000000000001CA02668E8A9CA8A482869E5894A
310
09C5860591BBD2F7E588E8A9CA8A482A8B0584AE658508E8A9C9AA68E40CECADCC8EECE406464625280D202405044E4F544540504928D8B4C4051D40641A80000000000003E404CD1D15395149050D3CB1294138B0C0B24A362D30B11D15395149055160B095CCB0A11D1539354D1C819D95B991DD9C80C8C8D4A501240480
310
A0CAC8A9C889EA480A1106F1072706BF02B680A3A80C83D00000000000007C809BA3A2A72A2920A1A79625282716181641BC41C9C1AFC0AD9623A2A72A2920AA2C1612B9961423A2A726A9A39033B2B7323BB39019191A14A0248090141911154D0D48C90141A43825AF880C90147501908A000000000020145013447454E5
310
45241434F2C4A504E2C302C90E096BE20322C47454E54524154582C25732C2847454E4D53472067656E6477672033362940490120284A9AA20A72220A922192028345A5C53490192028EA03213400000000000024A026A8E8A9CA8A482869E5894A09C586059169714D24064588E8A9CA8A482A8B0584AE658508E8A9C9AA6
310
8E40CECADCC8EECE4064646052809202405094D4154455249414C32405068DDE97BF20324051D40642A8713D0AD7A37045404D11D15395149050D3CB1294138B0C0B2377A5EFC80C8B11D15395149055160B095CCB0A11D1539354D1C819D95B991DD9C80D0C0A501240480A089A82A6A680A091D7F2F9480A3A80A0485A06
310
8100000000000007C809923A2A72A2920A1A796252827161816475FCBE51623A2A72A2920AA2C1612B9961423A2A726A9A39033B2B7323BB3901A1914A024809014154149250D150141226FE29A501475014090C409020000000000000F9013247454E545241434F2C4A504E2C302C89BF8A692C47454E54524154582C2573
310
2C2847454E4D53472067656E6477672034332940490120281A224A6A02824850CB202028EA028121A81A040000000000001F202648E8A9CA8A482869E5894A09C58605921432C80588E8A9CA8A482A8B0584AE658508E8A9C9AA68E40CECADCC8EECE406868528092024050E445020000000000000510201C00030C0001018
310
0000000000003E400000000000000F901073D3C4954454D3E4050180000000000003E400000000000000F901073D3C4954454D3E40501800000000000034400000000000000D101073D3C4954454D3E40501800000000000034400000000000000D101073D3C4954454D3E405029010000000000000F9000000000000003E4
310
041CF4F125511534F901418F4F1455164F9014060000000000000F9000000000000003E4041CF4F125511534F9014060000000000000D100000000000000344041CF4F125511534F901901000000000000000F9000000000000003E40A2200000000000008204018000618048220681A048120280C88214844882034852034
310
8452028521485214814000000000000F0BF0000000000003C2FD018020000C3008070000C3003373333333333B0FCCDCCCCCCCCCCEC3F000000000000031012034164050341105901A000000000000062040100006180401000061804008000618008098A02808
340
0
340
0
 94
        0
  0
ACAD_PROXY_OBJECT
  5
2442C
330
24424
100
AcDbProxyObject
 90
      499
 91
      586
 95
       25
 70
     0
 93
      898
310
5DC4000000000000144048CF4F11115510525317D3105091530F880A0F11115510525317D05094D4D0D053114F8A51141C9A9999999999B93F26A666666666724FC000000000000E03F400000000000000400000000000000510000000000000024408070000C300000000000000051000
340
16
340
233E2
 94
        0
  0
ACAD_PROXY_OBJECT
  5
2442D
330
24424
100
AcDbProxyObject
 90
      499
 91
      587
 95
       25
 70
     0
 93
      823
310
5DC0B00000000000002880959E9E29A2A1AA24A7A72FA620A122A62FA324A929AA1F169E29A2A1AA24A7A72FA620A122A62FA620A9AA1F000000000000048803FFFE01C00030C0088C0380006180000000000000048800000000000000A2000000000000002880
340
652
340
233E2
 94
        0
  0
ACAD_PROXY_OBJECT
  5
2442E
330
24424
100
AcDbProxyObject
 90
      499
 91
      588
 95
       25
 70
     0
 93
      152
310
5DE80000000000000840A3D0A5723F0BD1F200
  0
ACAD_PROXY_OBJECT
  5
2442F
330
24424
100
AcDbProxyObject
 90
      499
 91
      589
 95
       25
 70
     0
 93
       14
310
5DE0
340
0
 94
        0
  0
ACAD_PROXY_OBJECT
  5
24430
330
24424
100
AcDbProxyObject
 90
      499
 91
      590
 95
       25
 70
     0
 93
     8619
310
5DD084050BA4050AA405024050E836583938376838C815B836720314043A013D2525633C486F6C653A63746469613E2078203C486F6C653A637464657074683E20555C503C696628657175616C28486F6C653A7461707065642C223022292C22252563222C486F6C653A6E6F6D696E616C202220782022293E3C6966286571
310
75616C28486F6C653A7461707065642C223022292C486F6C653A6469612C486F6C653A706974636864657363293E3C696628657175616C28486F6C653A7461707065642C223122292C22207820222C2222293E3C696628657175616C28486F6C653A7461707065642C223122292C486F6C653A74617064657074682C222229
310
3E203C696628657175616C28486F6C653A7465726D696E6174696F6E2C223022292C22202F20222C2222293E3C696628657175616C28486F6C653A7465726D696E6174696F6E2C223022292C486F6C653A64657074682C2222293E406901405034050E836583938376838C815B836720314043B013D2525633C486F6C653A6
310
3746469613E2078203C486F6C653A6374616E676C653E2525645C503C696628657175616C28486F6C653A7461707065642C223022292C22252563222C486F6C653A6E6F6D696E616C202220782022293E3C696628657175616C28486F6C653A7461707065642C223022292C486F6C653A6469612C486F6C653A70697463686
310
4657363293E3C696628657175616C28486F6C653A7461707065642C223122292C22207820222C2222293E3C696628657175616C28486F6C653A7461707065642C223122292C486F6C653A74617064657074682C2222293E203C696628657175616C28486F6C653A7465726D696E6174696F6E2C223022292C22202F20222C2
310
222293E3C696628657175616C28486F6C653A7465726D696E6174696F6E2C223022292C486F6C653A64657074682C2222293E406901405014050E836583938376838C815B8367203140416013D3C696628657175616C28486F6C653A7461707065642C223022292C22252563222C486F6C653A6E6F6D696E616C2022207820
310
22293E3C696628657175616C28486F6C653A7461707065642C223022292C486F6C653A6469612C486F6C653A706974636864657363293E3C696628657175616C28486F6C653A7461707065642C223122292C22207820222C2222293E3C696628657175616C28486F6C653A7461707065642C223122292C486F6C653A746170
310
64657074682C2222293E203C696628657175616C28486F6C653A7465726D696E6174696F6E2C223022292C22202F20222C2222293E3C696628657175616C28486F6C653A7465726D696E6174696F6E2C223022292C486F6C653A64657074682C2222293E4069014051E4090E836583938376838C815B83672032405173D3C5
310
35444503A444553433E203C535444503A5354443E40690E836583938376838C815B836720314050C3D3C535444503A444553433E40690240515AAABBA120
360
24431
330
24431
360
24432
330
24432
360
24433
330
24433
360
24434
360
24435
330
24434
330
24435
 94
        0
  0
ACAD_PROXY_OBJECT
  5
24436
330
24424
100
AcDbProxyObject
 90
      499
 91
      569
 95
       25
 70
     0
 93
       26
310
5DD02A80
340
0
 94
        0
  0
ACAD_PROXY_OBJECT
  5
24437
330
24424
100
AcDbProxyObject
 90
      499
 91
      570
 95
       25
 70
     0
 93
      250
310
5DD020000000000000A1000000000000002440408F0F9023C3E409A0DCFFFF80
340
233E4
340
0
340
0
340
233E5
340
233E6
340
233E7
340
233E8
340
233E9
340
233EA
340
0
 94
        0
  0
ACAD_PROXY_OBJECT
  5
24438
330
24424
100
AcDbProxyObject
 90
      499
 91
      591
 95
       25
 70
     0
 93
    13889
310
5DD1D003FFFFFFFD030300030000000000000310200800030C01030300030000000000000310200800030C00050C8DC0955782CC838A83588367014ED1D15395149050D3CB1294138B0C0B23702555E0B320E2A0D620D9CB11D15395149055160B095CCB0A11D1539354D1C819D95B991A5B5E880CCC0A78000C0000000000
310
00000000000000000000010000000000000310200800030C010000000000000310200800030C020143CF4F111959985D5B1D151A5D1B194F8050A8C8A8365815B8375838B014E51D15395149050D3CB1294138B0C0B2322A0D96056E0DD60E2CB11D15395149055160B095CCB0A11D1539354D1C819D95B991A5B5E880CCC4
310
A78000C000000000000000000000000000000010000000000000310200800030C010000000000000310200800030C020143CF4F111959985D5B1D151A5D1B194F90D44111409034110541D0C4350F4050E44D03449074510F000141232D24D7C053247454E545241434F2C4A504E2C302C8CB4935F2C47454E54524154582C
310
25732C2847454E4D53472067656E64696D7A20312900010104002214000281464500A608E8A9CA8A482869E5894A09C5860591914588E8A9CA8A482A8B0584AE658508E8A9C9AA68E40CECADCC8D2DAF4406452029E9E9E27B934B3B4B71F1E24A31427A91424A9A12620A7259427B934B3B4B7149624A9A12620A7259424B
310
A32B6949496111116111711149F1E24BA32B69F00808200111A000140560052F47454E545241434F2C4A504E2C302C582C47454E54524154582C25732C2847454E4D53472067656E64696D7A20332900010100002054000280AC80A5E8E8A9CA8A482869E5894A09C586058B2588E8A9CA8A482A8B0584AE658508E8A9C9AA
310
68E40CECADCC8D2DAF4406852000202000040E800050152014BD1D15395149050D3CB1294138B0C0B148B11D15395149055160B095CCB0A11D1539354D1C819D95B991A5B5E880D8A400040400008250000A0507A6029823A2A72A2920A1A79625282716181641E99623A2A72A2920AA2C1612B9961423A2A726A9A39033B2
310
B73234B6BD101B948000808180105A000140A0F4C053047454E545241434F2C4A504E2C302C83D32C47454E54524154582C25732C2847454E4D53472067656E64696D7A203829000101010020F400028248704B5F00A668E8A9CA8A482869E5894A09C58605921C12D7C588E8A9CA8A482A8B0584AE658508E8A9C9AA68E40
310
CECADCC8D2DAF440646052000200080043280005048B4B8A69014CD1D15395149050D3CB1294138B0C0B22D2E29A4B11D15395149055160B095CCB0A11D1539354D1C819D95B991A5B5E880C8C4A4000400100086D0000A09196926BE029923A2A72A2920A1A796252827161816465A49AF9623A2A72A2920AA2C1612B9961
310
423A2A726A9A39033B2B73234B6BD10189480A02620202080043E80005048D8096DA014CD1D15395149050D3CB1294138B0C0B236025B68B11D15395149055160B095CCB0A11D1539354D1C819D95B991A5B5E880C4D0A4000404140280D0000A190687072706CD06C5069D06B0029DA3A2A72A2920A1A7962528271618164
310
1A1C1C9C1B341B141A741AC1623A2A72A2920AA2C1612B9961423A2A726A9A39033B2B73234B6BD10189A94800080828050EA000143A322A0D0E0E4E0D9A0D8A0D3A0D60053D47454E545241434F2C4A504E2C302C8C8A8343839383668362834E83582C47454E54524154582C25732C2847454E4D53472067656E64696D7A
310
2031372900010105002274000281464500A628E8A9CA8A482869E5894A09C5860591914588E8A9CA8A482A8B0584AE658508E8A9C9AA68E40CECADCC8D2DAF440626C52000202080044A8000504909497CA014CD1D15395149050D3CB1294138B0C0B242525F28B11D15395149055160B095CCB0A11D1539354D1C819D95B9
310
91A5B5E880C4E4A400040418008A521E000000000000001CA040C00000000000034408080000000000006881010000000000000D102040000000000001A204080000000000003440818000000000000728103000000000000125020600000000004028A040000000000000034408000000000000004881000000000000000D
310
102000000000000001A204000000000000003440818000000000000508143C0000000000000039408180000000000006881030000000000000D102060000000000001A2040C00000000000034408180000000000006881030000000000000E5020600000000000024A040C0000000000805140800000000000000688100000
310
00000000009102000000000000001A2040000000000000034408180000000000006881030000000000000A10284220000000878000002020000008380000020400000081800000208000000828000002028900000000
340
0
340
0
340
0
340
0
340
233E2
340
233E2
 94
        0
  0
ACAD_PROXY_OBJECT
  5
24439
330
24424
100
AcDbProxyObject
 90
      499
 91
      562
 95
       25
 70
     0
 93
     7018
310
5DD9740D254D3D0649534F5F4133429254D3D7D5125513115051349534F5F42525F5265766973696F6E6C69737446111413478342028323937783834316D6D2920421254D3D7D04D1E0D11141327835202835393478323130326D6D29421254D3D7D04C9E0D51141347839202832393778313839326D6D29421254D3D7D04D
310
1E0E51141337837202834323078323038306D6D29421254D3D7D04CDE0DD1141347838202832393778313638326D6D29421254D3D7D04D1E0E11141327834202835393478313638326D6D29421254D3D7D04C9E0D10E41312028353934783834316D6D29419254D3D7D04C51141347837202832393778313437316D6D29421
310
254D3D7D04D1E0DD1141347836202832393778313236316D6D29421254D3D7D04D1E0D91141347835202832393778313035316D6D29421254D3D7D04D1E0D5104130202838343078313138396D6D2920419254D3D7D04C10E41332028323937783432306D6D29419254D3D7D04CD1141327833202835393478313236316D6D
310
29421254D3D7D04C9E0CD10413478332028323937783633306D6D29421254D3D7D04D1E0CD1141337834202834323078313138396D6D29421254D3D7D04CDE0D11141337836202834323078313738336D6D29421254D3D7D04CDE0D91141337835202834323078313438366D6D29421254D3D7D04CDE0D50E4132202834323
310
0783539346D6D29419254D3D7D04C910413378332028343230783839316D6D29421254D3D7D04CDE0CD0E41342028323937783231306D6D29419254D3D7D04D1124130783220283131383978313638326D6D29421254D3D7D04C1E0C9124130783320283131383978323532336D6D29421254D3D7D04C1E0CD114131783420
310
2838343178323337386D6D29421254D3D7D04C5E0D11141317833202838343178313738336D6D29421254D3D7D04C5E0CD02431254D3C82557247A25E4C81050A49534F5F5449544C4541431254D3C82557247A25E4C81090A49534F5F5449544C45424110E979A97F0838A835883675F42525F44D254D3D7D09497D4995D9
310
A5CDA5BDB9B1A5CDD10E979A97F0838A835883675F54525F44D254D3D7D51497D4995D9A5CDA5BDB9B1A5CDD10E979A97F0838A835883675F424C5F44D254D3D7D09317D4995D9A5CDA5BDB9B1A5CDD10E979A97F0838A835883675F544C5F44D254D3D7D51317D4995D9A5CDA5BDB9B1A5CDD00
  0
ACAD_PROXY_OBJECT
  5
181
330
17F
100
AcDbProxyObject
 90
      499
 91
      527
 95
       25
 70
     0
 93
       86
310
5DEA0C80A0280A0280A034
  0
ACAD_PROXY_OBJECT
  5
182
330
17F
100
AcDbProxyObject
 90
      499
 91
      528
 95
       25
 70
     0
 93
      282
310
5DD0E4050140501405014050140501405014050141101405014041000000000000001000
340
187
 94
        0
  0
ACAD_PROXY_OBJECT
  5
183
330
17F
100
AcDbProxyObject
 90
      499
 91
      529
 95
       25
 70
     0
 93
      323
310
5DCC199999999999E99F91740501405014050140501405014050140501405014050140501405014040
340
0
 94
        0
  0
ACAD_PROXY_OBJECT
  5
184
330
17F
100
AcDbProxyObject
 90
      499
 91
      530
 95
       25
 70
     0
 93
       10
310
5DC0
  0
ACAD_PROXY_OBJECT
  5
185
330
17F
100
AcDbProxyObject
 90
      499
 91
      531
 95
       25
 70
     0
 93
      257
310
5DE0C16A22A7D90F49F80000000000001081400000000000004204010000618000
340
188
340
189
 94
        0
  0
ACAD_PROXY_OBJECT
  5
186
330
17F
100
AcDbProxyObject
 90
      499
 91
      532
 95
       25
 70
     0
 93
     5277
310
5DD06411255115350141236025B6901405014069010000000000000910240690120281A8AA2CA0282484A4BE52028120280A032020000000000001220480D202405044E414D454050496BC914F4051C40640A80000000000004E4090193C3D3C4946284953424C414E4B28504152543A4E414D45292C424C4F434B3A4E414D
310
452C504152543A4E414D45293E3C41435F44455343524950544E3E40480A109A82A88AA492829880A091BBD2F7E80A3A80C81D0E27A15AF46E08A81203480901411393D5115014124A363B7D0147501904A0000000000000F902406428F4F1050D7D393D5114F901202832B22A72227A92028366EF6EE06F582028EA0320B4
310
0000000000001F20480C879E9E20A1AFAB27222FA620A122A61F20240506445020000000000000490201C00030C00010180000000000003E400000000000000F901073D3C4954454D3E4050180000000000003E400000000000000F901073D3C4954454D3E40501800000000000034400000000000000D101073D3C4954454
310
D3E40501800000000000034400000000000000D101073D3C4954454D3E405029010000000000000F9000000000000003E4041CF4F125511534F901418F4F1455164F9014060000000000000F9000000000000003E4041CF4F125511534F901800000000000034400000000000000D101073D3C4954454D3E40640400000000
310
0000003E400000000000000F90288800000000000020810000001800120881A068120480A032208521122080D21480D211480A1485214852050000000000003C2FC000000000000F0BF40600800030C0200400030C00CDCCCCCCCCCCEC3F3373333333333B0FC3333333333330940C80D069014090341504901A1999999999
310
9984A040100006180400800061804010000618008098A02808
340
0
340
0
 94
        0
  0
ACAD_PROXY_OBJECT
  5
23323
330
17F
100
AcDbProxyObject
 90
      499
 91
      562
 95
       25
 70
     0
 93
     3042
310
5DD9740D29254D064A49535F413342929254D7D512551311505134A49535F42525F5265766973696F6E6C6973744190F4134522028323937783231306D6D2941D29254D7D04D1490E41312028353934783834316D6D2941929254D7D04C50F41344C2028323130783239376D6D2941D29254D7D04D1310E413320283239377
310
83432306D6D2941929254D7D04CD0E41322028343230783539346D6D2941929254D7D04C90F4130202838343178313138396D6D2941929254D7D04C10243129254C82557247A25E4C81050A4A49535F5449544C454143129254C82557247A25E4C81090A4A49535F5449544C45424110E979A97F0838A835883675F42525F4
310
4D29254D7D09497D4995D9A5CDA5BDB9B1A5CDD10E979A97F0838A835883675F54525F44D29254D7D51497D4995D9A5CDA5BDB9B1A5CDD10E979A97F0838A835883675F424C5F44D29254D7D09317D4995D9A5CDA5BDB9B1A5CDD10E979A97F0838A835883675F544C5F44D29254D7D51317D4995D9A5CDA5BDB9B1A5CDD00
  0
ACAD_PROXY_OBJECT
  5
23324
330
17F
100
AcDbProxyObject
 90
      499
 91
      563
 95
       25
 70
     0
 93
      898
310
5DC4000000000000124048CF4F11115510525317D3105091530F880A0F11115510525317D05094D4D0D053114F8A50241C9A9999999999B93F26A666666666724FC000000000000E03F400000000000000400000000000000510000000000000024408070000C300000000000000049000
340
16
340
180
 94
        0
  0
ACAD_PROXY_OBJECT
  5
23325
330
17F
100
AcDbProxyObject
 90
      499
 91
      564
 95
       25
 70
     0
 93
      823
310
5DC0B00000000000002480959E9E29A2A1AA24A7A72FA620A122A62FA324A929AA1F169E29A2A1AA24A7A72FA620A122A62FA620A9AA1F000000000000048803FFFE01C00030C008140380006180000000000000048800000000000000A2000000000000002480
340
652
340
180
 94
        0
  0
ACAD_PROXY_OBJECT
  5
23327
330
17F
100
AcDbProxyObject
 90
      499
 91
      565
 95
       25
 70
     0
 93
      152
310
5DE8273108AC1C5A0640A3D0A5723F0BD1F200
  0
ACAD_PROXY_OBJECT
  5
23328
330
17F
100
AcDbProxyObject
 90
      499
 91
      566
 95
       25
 70
     0
 93
       14
310
5DE0
340
0
 94
        0
  0
ACAD_PROXY_OBJECT
  5
23329
330
17F
100
AcDbProxyObject
 90
      499
 91
      567
 95
       25
 70
     0
 93
     6059
310
5DD084050BA4050AA405024050E836583938376838C815B83672031405983D3C486F6C653A6469613E3C696628657175616C28486F6C653A7465726D696E6174696F6E2C223022292C2220905B82B320222C22208368838A838B22293E3C696628657175616C28486F6C653A7465726D696E6174696F6E2C223022292C486F
310
6C653A64657074682C2222293E2C203C486F6C653A63746469613E2082B482AE82E882CC905B82B3203C486F6C653A637464657074683E406901405034050E836583938376838C815B83672031405EF3D3C486F6C653A6374616E676C653E252564202525633C486F6C653A63746469613E208E4D8C8A2C203C69662865717
310
5616C28486F6C653A7461707065642C223022292C22252563222C486F6C653A6E6F6D696E616C202220782022293E3C696628657175616C28486F6C653A7461707065642C223022292C486F6C653A6469612C486F6C653A706974636864657363293E203C696628657175616C28486F6C653A7465726D696E6174696F6E2C2
310
23022292C22905B82B320222C222022293E3C696628657175616C28486F6C653A7465726D696E6174696F6E2C223022292C486F6C653A64657074682C2222293E406901405014050E836583938376838C815B83672031405C73D3C696628657175616C28486F6C653A7461707065642C223022292C22252563222C486F6C65
310
3A6E6F6D696E616C202220782022293E3C696628657175616C28486F6C653A7461707065642C223022292C486F6C653A6469612C486F6C653A706974636864657363293E203C696628657175616C28486F6C653A7465726D696E6174696F6E2C223022292C22905B82B320222C222022293E3C696628657175616C28486F6C
310
653A7465726D696E6174696F6E2C223022292C486F6C653A64657074682C2222293E4069014051E4090E836583938376838C815B83672032405173D3C535444503A444553433E203C535444503A5354443E40690E836583938376838C815B836720314050C3D3C535444503A444553433E40690240515AAABBA120
360
2332D
330
2332D
360
2332E
330
2332E
360
2332C
330
2332C
360
2332B
360
2332A
330
2332B
330
2332A
 94
        0
  0
ACAD_PROXY_OBJECT
  5
2332F
330
17F
100
AcDbProxyObject
 90
      499
 91
      569
 95
       25
 70
     0
 93
       26
310
5DD02A80
340
42
 94
        0
  0
ACAD_PROXY_OBJECT
  5
23330
330
17F
100
AcDbProxyObject
 90
      499
 91
      570
 95
       25
 70
     0
 93
      250
310
5DD020000000000000A1000000000000002440408F0F9023C3E409A0DCFFFF80
340
58
340
18A8
340
18A9
340
5F
340
60
340
61
340
62
340
63
340
68
340
0
 94
        0
  0
ACAD_PROXY_OBJECT
  5
23331
330
17F
100
AcDbProxyObject
 90
      499
 91
      571
 95
       25
 70
     0
 93
    13889
310
5DD1D003FFFFFFFD030300030CCCCCCCCCCCC250200800030C01030300030CCCCCCCCCCCC250200800030C00050C8DC0955782CC838A83588367014ED1D15395149050D3CB1294138B0C0B23702555E0B320E2A0D620D9CB11D15395149055160B095CCB0A11D1539354D1C819D95B991A5B5E880CCC0A78000C0000000000
310
00000000000000000000010CCCCCCCCCCCC250200800030C010CCCCCCCCCCCC250200800030C020143CF4F111959985D5B1D151A5D1B194F8050A8C8A8365815B8375838B014E51D15395149050D3CB1294138B0C0B2322A0D96056E0DD60E2CB11D15395149055160B095CCB0A11D1539354D1C819D95B991A5B5E880CCC4
310
A78000C000000000000000000000000000000010CCCCCCCCCCCC250200800030C010CCCCCCCCCCCC250200800030C020143CF4F111959985D5B1D151A5D1B194F90D44111409034110541D0C4350F4050E44D03449074510F000141232D24D7C053247454E545241434F2C4A504E2C302C8CB4935F2C47454E54524154582C
310
25732C2847454E4D53472067656E64696D7A20312900010104002214000281464500A608E8A9CA8A482869E5894A09C5860591914588E8A9CA8A482A8B0584AE658508E8A9C9AA68E40CECADCC8D2DAF4406452029E9E9E27B934B3B4B71F1E24A31427A91424A9A12620A7259427B934B3B4B7149624A9A12620A7259424B
310
A32B6949496111116111711149F1E24BA32B69F00808200111A000140560052F47454E545241434F2C4A504E2C302C582C47454E54524154582C25732C2847454E4D53472067656E64696D7A20332900010100002054000280AC80A5E8E8A9CA8A482869E5894A09C586058B2588E8A9CA8A482A8B0584AE658508E8A9C9AA
310
68E40CECADCC8D2DAF4406852000202000040E800050152014BD1D15395149050D3CB1294138B0C0B148B11D15395149055160B095CCB0A11D1539354D1C819D95B991A5B5E880D8A400040400008250000A0507A6029823A2A72A2920A1A79625282716181641E99623A2A72A2920AA2C1612B9961423A2A726A9A39033B2
310
B73234B6BD101B948000808180105A000140A0F4C053047454E545241434F2C4A504E2C302C83D32C47454E54524154582C25732C2847454E4D53472067656E64696D7A203829000101010020F400028248704B5F00A668E8A9CA8A482869E5894A09C58605921C12D7C588E8A9CA8A482A8B0584AE658508E8A9C9AA68E40
310
CECADCC8D2DAF440646052000200080043280005048B4B8A69014CD1D15395149050D3CB1294138B0C0B22D2E29A4B11D15395149055160B095CCB0A11D1539354D1C819D95B991A5B5E880C8C4A4000400100086D0000A09196926BE029923A2A72A2920A1A796252827161816465A49AF9623A2A72A2920AA2C1612B9961
310
423A2A726A9A39033B2B73234B6BD10189480A02620202080043E80005048D8096DA014CD1D15395149050D3CB1294138B0C0B236025B68B11D15395149055160B095CCB0A11D1539354D1C819D95B991A5B5E880C4D0A4000404140280D0000A190687072706CD06C5069D06B0029DA3A2A72A2920A1A7962528271618164
310
1A1C1C9C1B341B141A741AC1623A2A72A2920AA2C1612B9961423A2A726A9A39033B2B73234B6BD10189A94800080820050EA000143A322A0D0E0E4E0D9A0D8A0D3A0D60053D47454E545241434F2C4A504E2C302C8C8A8343839383668362834E83582C47454E54524154582C25732C2847454E4D53472067656E64696D7A
310
2031372900010105002274000281464500A628E8A9CA8A482869E5894A09C5860591914588E8A9CA8A482A8B0584AE658508E8A9C9AA68E40CECADCC8D2DAF440626C52000202080044A8000504909497CA014CD1D15395149050D3CB1294138B0C0B242525F28B11D15395149055160B095CCB0A11D1539354D1C819D95B9
310
91A5B5E880C4E4A400040418008A521E000000000000001CA040C00000000000034408080000000000006881010000000000000D102040000000000001A204080000000000003440818000000000000728103000000000000125020600000000004028A040000000000000034408000000000000004881000000000000000D
310
102000000000000001A204000000000000003440818000000000000508143C0000000000000039408180000000000006881030000000000000D102060000000000001A2040C00000000000034408180000000000006881030000000000000E5020600000000000024A040C0000000000805140800000000000000688100000
310
00000000009102000000000000001A2040000000000000034408180000000000006881030000000000000A10284220000000878000002020000008380000020400000081800000208000000828000002028900000000
340
0
340
0
340
0
340
0
340
180
340
180
 94
        0
  0
ACAD_PROXY_OBJECT
  5
24431
330
24430
100
AcDbProxyObject
 90
      499
 91
      568
 95
       25
 70
     0
 93
     2680
310
5DE0143A0D960E4E0DDA0E32056E0D9C80C4043A013D2525633C486F6C653A63746469613E2078203C486F6C653A637464657074683E20555C503C696628657175616C28486F6C653A7461707065642C223022292C22252563222C486F6C653A6E6F6D696E616C202220782022293E3C696628657175616C28486F6C653A74
310
61707065642C223022292C486F6C653A6469612C486F6C653A706974636864657363293E3C696628657175616C28486F6C653A7461707065642C223122292C22207820222C2222293E3C696628657175616C28486F6C653A7461707065642C223122292C486F6C653A74617064657074682C2222293E203C69662865717561
310
6C28486F6C653A7465726D696E6174696F6E2C223022292C22202F20222C2222293E3C696628657175616C28486F6C653A7465726D696E6174696F6E2C223022292C486F6C653A64657074682C2222293E
  0
ACAD_PROXY_OBJECT
  5
24432
330
24430
100
AcDbProxyObject
 90
      499
 91
      568
 95
       25
 70
     0
 93
     2688
310
5DE0143A0D960E4E0DDA0E32056E0D9C80C4043B013D2525633C486F6C653A63746469613E2078203C486F6C653A6374616E676C653E2525645C503C696628657175616C28486F6C653A7461707065642C223022292C22252563222C486F6C653A6E6F6D696E616C202220782022293E3C696628657175616C28486F6C653A
310
7461707065642C223022292C486F6C653A6469612C486F6C653A706974636864657363293E3C696628657175616C28486F6C653A7461707065642C223122292C22207820222C2222293E3C696628657175616C28486F6C653A7461707065642C223122292C486F6C653A74617064657074682C2222293E203C696628657175
310
616C28486F6C653A7465726D696E6174696F6E2C223022292C22202F20222C2222293E3C696628657175616C28486F6C653A7465726D696E6174696F6E2C223022292C486F6C653A64657074682C2222293E
  0
ACAD_PROXY_OBJECT
  5
24433
330
24430
100
AcDbProxyObject
 90
      499
 91
      568
 95
       25
 70
     0
 93
     2392
310
5DE0143A0D960E4E0DDA0E32056E0D9C80C40416013D3C696628657175616C28486F6C653A7461707065642C223022292C22252563222C486F6C653A6E6F6D696E616C202220782022293E3C696628657175616C28486F6C653A7461707065642C223022292C486F6C653A6469612C486F6C653A706974636864657363293E
310
3C696628657175616C28486F6C653A7461707065642C223122292C22207820222C2222293E3C696628657175616C28486F6C653A7461707065642C223122292C486F6C653A74617064657074682C2222293E203C696628657175616C28486F6C653A7465726D696E6174696F6E2C223022292C22202F20222C2222293E3C69
310
6628657175616C28486F6C653A7465726D696E6174696F6E2C223022292C486F6C653A64657074682C2222293E
  0
ACAD_PROXY_OBJECT
  5
24434
330
24430
100
AcDbProxyObject
 90
      499
 91
      568
 95
       25
 70
     0
 93
      344
310
5DE0143A0D960E4E0DDA0E32056E0D9C80C805173D3C535444503A444553433E203C535444503A5354443E
  0
ACAD_PROXY_OBJECT
  5
24435
330
24430
100
AcDbProxyObject
 90
      499
 91
      568
 95
       25
 70
     0
 93
      256
310
5DE0143A0D960E4E0DDA0E32056E0D9C80C4050C3D3C535444503A444553433E
  0
ACAD_PROXY_OBJECT
  5
2332D
330
23329
100
AcDbProxyObject
 90
      499
 91
      568
 95
       25
 70
     0
 93
     1376
310
5DE0143A0D960E4E0DDA0E32056E0D9C80C405983D3C486F6C653A6469613E3C696628657175616C28486F6C653A7465726D696E6174696F6E2C223022292C2220905B82B320222C22208368838A838B22293E3C696628657175616C28486F6C653A7465726D696E6174696F6E2C223022292C486F6C653A64657074682C22
310
22293E2C203C486F6C653A63746469613E2082B482AE82E882CC905B82B3203C486F6C653A637464657074683E
  0
ACAD_PROXY_OBJECT
  5
2332E
330
23329
100
AcDbProxyObject
 90
      499
 91
      568
 95
       25
 70
     0
 93
     2072
310
5DE0143A0D960E4E0DDA0E32056E0D9C80C405EF3D3C486F6C653A6374616E676C653E252564202525633C486F6C653A63746469613E208E4D8C8A2C203C696628657175616C28486F6C653A7461707065642C223022292C22252563222C486F6C653A6E6F6D696E616C202220782022293E3C696628657175616C28486F6C
310
653A7461707065642C223022292C486F6C653A6469612C486F6C653A706974636864657363293E203C696628657175616C28486F6C653A7465726D696E6174696F6E2C223022292C22905B82B320222C222022293E3C696628657175616C28486F6C653A7465726D696E6174696F6E2C223022292C486F6C653A6465707468
310
2C2222293E
  0
ACAD_PROXY_OBJECT
  5
2332C
330
23329
100
AcDbProxyObject
 90
      499
 91
      568
 95
       25
 70
     0
 93
     1752
310
5DE0143A0D960E4E0DDA0E32056E0D9C80C405C73D3C696628657175616C28486F6C653A7461707065642C223022292C22252563222C486F6C653A6E6F6D696E616C202220782022293E3C696628657175616C28486F6C653A7461707065642C223022292C486F6C653A6469612C486F6C653A706974636864657363293E20
310
3C696628657175616C28486F6C653A7465726D696E6174696F6E2C223022292C22905B82B320222C222022293E3C696628657175616C28486F6C653A7465726D696E6174696F6E2C223022292C486F6C653A64657074682C2222293E
  0
ACAD_PROXY_OBJECT
  5
2332B
330
23329
100
AcDbProxyObject
 90
      499
 91
      568
 95
       25
 70
     0
 93
      344
310
5DE0143A0D960E4E0DDA0E32056E0D9C80C805173D3C535444503A444553433E203C535444503A5354443E
  0
ACAD_PROXY_OBJECT
  5
2332A
330
23329
100
AcDbProxyObject
 90
      499
 91
      568
 95
       25
 70
     0
 93
      256
310
5DE0143A0D960E4E0DDA0E32056E0D9C80C4050C3D3C535444503A444553433E
  0
ENDSEC
  0
EOF
