  0
SECTION
  2
HEADER
  9
$ACADVER
  1
AC1015
  9
$ACADMAINTVER
 70
     6
  9
$DWGCODEPAGE
  3
ANSI_932
  9
$INSBASE
 10
0.0
 20
0.0
 30
0.0
  9
$EXTMIN
 10
-139.7429813579979
 20
-163.2397782844026
 30
0.0
  9
$EXTMAX
 10
123.9899171987324
 20
79.3885438199973
 30
0.0000000000000142
  9
$LIMMIN
 10
0.0
 20
0.0
  9
$LIMMAX
 10
420.0
 20
297.0
  9
$ORTHOMODE
 70
     0
  9
$REGENMODE
 70
     1
  9
$FILLMODE
 70
     1
  9
$QTEXTMODE
 70
     0
  9
$MIRRTEXT
 70
     1
  9
$LTSCALE
 40
1.0
  9
$ATTMODE
 70
     1
  9
$TEXTSIZE
 40
3.0
  9
$TRACEWID
 40
1.0
  9
$TEXTSTYLE
  7
STANDARD
  9
$CLAYER
  8
AM_0
  9
$CELTYPE
  6
ByLayer
  9
$CECOLOR
 62
   256
  9
$CELTSCALE
 40
1.0
  9
$DISPSILH
 70
     0
  9
$DIMSCALE
 40
1.0
  9
$DIMASZ
 40
2.5
  9
$DIMEXO
 40
0.0
  9
$DIMDLI
 40
10.0
  9
$DIMRND
 40
0.0
  9
$DIMDLE
 40
0.0
  9
$DIMEXE
 40
1.0
  9
$DIMTP
 40
0.1
  9
$DIMTM
 40
0.1000000001
  9
$DIMTXT
 40
3.8
  9
$DIMCEN
 40
0.0
  9
$DIMTSZ
 40
0.0
  9
$DIMTOL
 70
     0
  9
$DIMLIM
 70
     0
  9
$DIMTIH
 70
     0
  9
$DIMTOH
 70
     0
  9
$DIMSE1
 70
     0
  9
$DIMSE2
 70
     0
  9
$DIMTAD
 70
     3
  9
$DIMZIN
 70
     1
  9
$DIMBLK
  1
Open30
  9
$DIMASO
 70
     1
  9
$DIMSHO
 70
     1
  9
$DIMPOST
  1

  9
$DIMAPOST
  1
"
  9
$DIMALT
 70
     0
  9
$DIMALTD
 70
     2
  9
$DIMALTF
 40
0.0393701
  9
$DIMLFAC
 40
1.0
  9
$DIMTOFL
 70
     1
  9
$DIMTVP
 40
0.0
  9
$DIMTIX
 70
     0
  9
$DIMSOXD
 70
     0
  9
$DIMSAH
 70
     0
  9
$DIMBLK1
  1

  9
$DIMBLK2
  1

  9
$DIMSTYLE
  2
AM_JIS
  9
$DIMCLRD
 70
   256
  9
$DIMCLRE
 70
   256
  9
$DIMCLRT
 70
     2
  9
$DIMTFAC
 40
0.71
  9
$DIMGAP
 40
1.5
  9
$DIMJUST
 70
     0
  9
$DIMSD1
 70
     0
  9
$DIMSD2
 70
     0
  9
$DIMTOLJ
 70
     0
  9
$DIMTZIN
 70
     8
  9
$DIMALTZ
 70
     0
  9
$DIMALTTZ
 70
     0
  9
$DIMUPT
 70
     0
  9
$DIMDEC
 70
     3
  9
$DIMTDEC
 70
     3
  9
$DIMALTU
 70
     2
  9
$DIMALTTD
 70
     2
  9
$DIMTXSTY
  7
STANDARD
  9
$DIMAUNIT
 70
     1
  9
$DIMADEC
 70
     2
  9
$DIMALTRND
 40
0.0
  9
$DIMAZIN
 70
     2
  9
$DIMDSEP
 70
    46
  9
$DIMATFIT
 70
     3
  9
$DIMFRAC
 70
     0
  9
$DIMLDRBLK
  1
Open30
  9
$DIMLUNIT
 70
     2
  9
$DIMLWD
 70
    -1
  9
$DIMLWE
 70
    -1
  9
$DIMTMOVE
 70
     0
  9
$LUNITS
 70
     2
  9
$LUPREC
 70
     2
  9
$SKETCHINC
 40
1.0
  9
$FILLETRAD
 40
1.5
  9
$AUNITS
 70
     1
  9
$AUPREC
 70
     5
  9
$MENU
  1
.
  9
$ELEVATION
 40
0.0
  9
$PELEVATION
 40
0.0
  9
$THICKNESS
 40
0.0
  9
$LIMCHECK
 70
     0
  9
$CHAMFERA
 40
2.5
  9
$CHAMFERB
 40
2.5
  9
$CHAMFERC
 40
20.0
  9
$CHAMFERD
 40
0.0
  9
$SKPOLY
 70
     0
  9
$TDCREATE
 40
2451943.610431667
  9
$TDUCREATE
 40
2451943.235431667
  9
$TDUPDATE
 40
2455482.452708333
  9
$TDUUPDATE
 40
2455482.077708333
  9
$TDINDWG
 40
0.5887638773
  9
$TDUSRTIMER
 40
0.5887637037
  9
$USRTIMER
 70
     1
  9
$ANGBASE
 50
0.0
  9
$ANGDIR
 70
     0
  9
$PDMODE
 70
     0
  9
$PDSIZE
 40
0.0
  9
$PLINEWID
 40
0.0
  9
$SPLFRAME
 70
     0
  9
$SPLINETYPE
 70
     6
  9
$SPLINESEGS
 70
     8
  9
$HANDSEED
  5
1197A
  9
$SURFTAB1
 70
     6
  9
$SURFTAB2
 70
     6
  9
$SURFTYPE
 70
     6
  9
$SURFU
 70
     6
  9
$SURFV
 70
     6
  9
$UCSBASE
  2

  9
$UCSNAME
  2

  9
$UCSORG
 10
0.0
 20
0.0
 30
0.0
  9
$UCSXDIR
 10
1.0
 20
0.0
 30
0.0
  9
$UCSYDIR
 10
0.0
 20
1.0
 30
0.0
  9
$UCSORTHOREF
  2

  9
$UCSORTHOVIEW
 70
     0
  9
$UCSORGTOP
 10
0.0
 20
0.0
 30
0.0
  9
$UCSORGBOTTOM
 10
0.0
 20
0.0
 30
0.0
  9
$UCSORGLEFT
 10
0.0
 20
0.0
 30
0.0
  9
$UCSORGRIGHT
 10
0.0
 20
0.0
 30
0.0
  9
$UCSORGFRONT
 10
0.0
 20
0.0
 30
0.0
  9
$UCSORGBACK
 10
0.0
 20
0.0
 30
0.0
  9
$PUCSBASE
  2

  9
$PUCSNAME
  2

  9
$PUCSORG
 10
0.0
 20
0.0
 30
0.0
  9
$PUCSXDIR
 10
1.0
 20
0.0
 30
0.0
  9
$PUCSYDIR
 10
0.0
 20
1.0
 30
0.0
  9
$PUCSORTHOREF
  2

  9
$PUCSORTHOVIEW
 70
     0
  9
$PUCSORGTOP
 10
0.0
 20
0.0
 30
0.0
  9
$PUCSORGBOTTOM
 10
0.0
 20
0.0
 30
0.0
  9
$PUCSORGLEFT
 10
0.0
 20
0.0
 30
0.0
  9
$PUCSORGRIGHT
 10
0.0
 20
0.0
 30
0.0
  9
$PUCSORGFRONT
 10
0.0
 20
0.0
 30
0.0
  9
$PUCSORGBACK
 10
0.0
 20
0.0
 30
0.0
  9
$USERI1
 70
     0
  9
$USERI2
 70
     0
  9
$USERI3
 70
     0
  9
$USERI4
 70
     0
  9
$USERI5
 70
     0
  9
$USERR1
 40
0.0
  9
$USERR2
 40
0.0
  9
$USERR3
 40
0.0
  9
$USERR4
 40
0.0
  9
$USERR5
 40
0.0
  9
$WORLDVIEW
 70
     1
  9
$SHADEDGE
 70
     3
  9
$SHADEDIF
 70
    70
  9
$TILEMODE
 70
     1
  9
$MAXACTVP
 70
    48
  9
$PINSBASE
 10
0.0
 20
0.0
 30
0.0
  9
$PLIMCHECK
 70
     0
  9
$PEXTMIN
 10
1.000000000000000E+20
 20
1.000000000000000E+20
 30
1.000000000000000E+20
  9
$PEXTMAX
 10
-1.000000000000000E+20
 20
-1.000000000000000E+20
 30
-1.000000000000000E+20
  9
$PLIMMIN
 10
0.0
 20
0.0
  9
$PLIMMAX
 10
420.0
 20
297.0
  9
$UNITMODE
 70
     0
  9
$VISRETAIN
 70
     1
  9
$PLINEGEN
 70
     0
  9
$PSLTSCALE
 70
     1
  9
$TREEDEPTH
 70
  3020
  9
$CMLSTYLE
  2
Standard
  9
$CMLJUST
 70
     0
  9
$CMLSCALE
 40
20.0
  9
$PROXYGRAPHICS
 70
     1
  9
$MEASUREMENT
 70
     1
  9
$CELWEIGHT
370
    -1
  9
$ENDCAPS
280
     0
  9
$JOINSTYLE
280
     0
  9
$LWDISPLAY
290
     0
  9
$INSUNITS
 70
     4
  9
$HYPERLINKBASE
  1

  9
$STYLESHEET
  1
sei_cad.ctb
  9
$XEDIT
290
     1
  9
$CEPSNTYPE
380
     0
  9
$PSTYLEMODE
290
     1
  9
$FINGERPRINTGUID
  2
{C77AB3BE-9CA2-11D3-BAF3-006094EB760E}
  9
$VERSIONGUID
  2
{3A096CE8-9ED2-434C-99BB-E343F77C068F}
  9
$EXTNAMES
290
     1
  9
$PSVPSCALE
 40
0.0
  9
$OLESTARTUP
290
     0
  0
ENDSEC
  0
SECTION
  2
CLASSES
  0
CLASS
  1
ACDBDICTIONARYWDFLT
  2
AcDbDictionaryWithDefault
  3
ObjectDBX Classes
 90
        0
280
     0
281
     0
  0
CLASS
  1
ACDBPLACEHOLDER
  2
AcDbPlaceHolder
  3
ObjectDBX Classes
 90
        0
280
     0
281
     0
  0
CLASS
  1
LAYOUT
  2
AcDbLayout
  3
ObjectDBX Classes
 90
        0
280
     0
281
     0
  0
CLASS
  1
ACME_DOCUMENT
  2
AcMeDbDoc
  3
AcMeServices
 90
        0
280
     1
281
     0
  0
CLASS
  1
ACMESCOPE
  2
AcMeScope
  3
AcMeServices
 90
        0
280
     1
281
     0
  0
CLASS
  1
ACMECOMMANDHISTORY
  2
AcMeCommandHistory
  3
AcMeServices
 90
        0
280
     1
281
     0
  0
CLASS
  1
DICTIONARYVAR
  2
AcDbDictionaryVar
  3
ObjectDBX Classes
 90
        0
280
     0
281
     0
  0
CLASS
  1
ACIMSYSVARMAN
  2
AcImSysVarManager
  3
AcMeServices
 90
        0
280
     1
281
     0
  0
CLASS
  1
ACIMREALSYSVAR
  2
AcImRealSysVar
  3
AcMeServices
 90
        0
280
     1
281
     0
  0
CLASS
  1
ACIMINTSYSVAR
  2
AcImIntSysVar
  3
AcMeServices
 90
        0
280
     1
281
     0
  0
CLASS
  1
ACMEDRAWINGMAN
  2
AcMeDrawingMan
  3
AcMeServices
 90
        0
280
     1
281
     0
  0
CLASS
  1
ACMEVIEW
  2
AcMeView
  3
AcMeServices
 90
        0
280
     1
281
     0
  0
CLASS
  1
ACDBENTITYCACHE
  2
AcMeEntityCache
  3
AcMeServices
 90
        0
280
     1
281
     0
  0
CLASS
  1
GSMANAGER
  2
AcMeGSManager
  3
AcMeServices
 90
        0
280
     1
281
     0
  0
CLASS
  1
AMDTINTERNALREACTOR
  2
AmdtInternalReactor
  3
AcMeServices
 90
        0
280
     1
281
     0
  0
CLASS
  1
ACMESTATEMGR
  2
AcMeStateMgr
  3
AcMeServices
 90
        0
280
     1
281
     0
  0
CLASS
  1
ACME_DATABASE
  2
AcMeDbDatabase
  3
AcMeServices
 90
        0
280
     1
281
     0
  0
CLASS
  1
ACRFINSADJUSTERMGR
  2
AcRfInsAdjusterMgr
  3
AcMeServices
 90
        0
280
     1
281
     0
  0
CLASS
  1
AMGSETTINGSOBJ
  2
AmgSettingsObj
  3
"AcadM|Product Description: AutoCAD Mechanical 2000|Company: Autodesk"
 90
        0
280
     1
281
     0
  0
CLASS
  1
AMGOBJPROPCFG
  2
AmgObjPropCfg
  3
"AmgLay|Product Description: AutoCAD Mechanical 2000|Company: Autodesk"
 90
        1
280
     1
281
     0
  0
CLASS
  1
ACMDATADICTIONARY
  2
AcmDataDictionary
  3
"AcmSymBB|Product Description: AutoCAD Mechanical 2004 DX|Company: Autodesk"
 90
        0
280
     1
281
     0
  0
CLASS
  1
ACMDATAENTRYBLOCK
  2
AcmDataEntryBlock
  3
"AcmSymBB|Product Description: AutoCAD Mechanical 2004 DX|Company: Autodesk"
 90
        0
280
     1
281
     0
  0
CLASS
  1
ACIMSTRSYSVAR
  2
AcImStrSysVar
  3
AcMeServices
 90
        0
280
     1
281
     0
  0
CLASS
  1
ACAMGFILTERDAT
  2
AcAmgFilterDat
  3
"AcadM|Product Description: AutoCAD Mechanical 2000|Company: Autodesk"
 90
        0
280
     1
281
     0
  0
CLASS
  1
LAYER_INDEX
  2
AcDbLayerIndex
  3
ObjectDBX Classes
 90
        0
280
     0
281
     0
  0
CLASS
  1
IDBUFFER
  2
AcDbIdBuffer
  3
ObjectDBX Classes
 90
        0
280
     0
281
     0
  0
CLASS
  1
ACMSTANDARDJIS
  2
AcmStandardJIS
  3
"Amdt_StdImp|Product Description: AutoCAD Mechanical 2004 DX|Company: Autodesk"
 90
        0
280
     1
281
     0
  0
CLASS
  1
ACMSURFSTANDARDJIS
  2
AcmSurfTextStdJIS
  3
"Amdt_StdImp|Product Description: AutoCAD Mechanical 2004 DX|Company: Autodesk"
 90
        0
280
     1
281
     0
  0
CLASS
  1
ACMFCFSTANDARDJIS
  2
AcmFCFStdJIS
  3
"Amdt_StdImp|Product Description: AutoCAD Mechanical 2004 DX|Company: Autodesk"
 90
        0
280
     1
281
     0
  0
CLASS
  1
ACMWELDSTANDARDJIS
  2
AcmWeldingStdJIS
  3
"Amdt_StdImp|Product Description: AutoCAD Mechanical 2004 DX|Company: Autodesk"
 90
        0
280
     1
281
     0
  0
CLASS
  1
ACMIDSTANDARDJIS
  2
AcmIdStdJIS
  3
"Amdt_StdImp|Product Description: AutoCAD Mechanical 2004 DX|Company: Autodesk"
 90
        0
280
     1
281
     0
  0
CLASS
  1
ACMDATUMSTANDARDJIS
  2
AcmDatumStdJIS
  3
"Amdt_StdImp|Product Description: AutoCAD Mechanical 2004 DX|Company: Autodesk"
 90
        0
280
     1
281
     0
  0
CLASS
  1
ACMBOMSTANDARDJIS
  2
AcmBOMStdJIS
  3
"Amdt_StdImp|Product Description: AutoCAD Mechanical 2004 DX|Company: Autodesk"
 90
        0
280
     1
281
     0
  0
CLASS
  1
AMDTNOTE
  2
AmdtNote
  3
"AcmSymBB|Product Description: AutoCAD Mechanical 2004 DX|Company: Autodesk"
 90
     1023
280
     1
281
     1
  0
CLASS
  1
ACGREFMASTER
  2
AcGrefMaster
  3
AcAttribServices
 90
        0
280
     1
281
     0
  0
CLASS
  1
ACGREFACADMASTER
  2
AcGrefacadMaster
  3
AcGrefServices
 90
        0
280
     1
281
     0
  0
CLASS
  1
AMIMASTER
  2
AmiMaster
  3
AmiServices
 90
        0
280
     1
281
     0
  0
CLASS
  1
ACAMGTITLESTD
  2
AcAmgTitleStd
  3
"TITLEAPP"
 90
        0
280
     1
281
     0
  0
CLASS
  1
ACMDETAILSTANDARDJIS
  2
AmdtDetailSymStdJIS
  3
"Amdt_StdImp|Product Description: AutoCAD Mechanical 2004 DX|Company: Autodesk"
 90
        0
280
     1
281
     0
  0
CLASS
  1
ACMSECTIONSTANDARDJIS
  2
AmdtSectionSymStdJIS
  3
"Amdt_StdImp|Product Description: AutoCAD Mechanical 2004 DX|Company: Autodesk"
 90
        0
280
     1
281
     0
  0
CLASS
  1
ACMCENTERLINESTANDARDJIS
  2
AmdtCenterLineStdJIS
  3
"Amdt_StdImp|Product Description: AutoCAD Mechanical 2004 DX|Company: Autodesk"
 90
        0
280
     1
281
     0
  0
CLASS
  1
ACMNOTESTANDARDJIS
  2
AmdtNoteStdJIS
  3
"Amdt_StdImp|Product Description: AutoCAD Mechanical 2004 DX|Company: Autodesk"
 90
        0
280
     1
281
     0
  0
CLASS
  1
ACAMGLAYSTD
  2
AcAmgLayStd
  3
"AcAmgLayStd|Product Description: AutoCAD Mechanical 2000|Company: Autodesk"
 90
        0
280
     1
281
     0
  0
CLASS
  1
ACAMGDIMSTD
  2
AcAmgDimStd
  3
"AcAmgDimStd|Product Description: AutoCAD Mechanical 2000|Company: Autodesk"
 90
        0
280
     1
281
     0
  0
CLASS
  1
AMDTFORMULAUPDATEDISPATCHER
  2
AmdtFormulaUpdateDispatcher
  3
AcMeServices
 90
        0
280
     1
281
     0
  0
CLASS
  1
DUMMY
  2
AcDbLongTransaction
  3
DUMMY
 90
        0
280
     0
281
     0
  0
CLASS
  1
LWPOLYLINE
  2
AcDbPolyline
  3
AutoCAD 2000
 90
        0
280
     0
281
     1
  0
CLASS
  1
HATCH
  2
AcDbHatch
  3
AutoCAD 2000
 90
        0
280
     0
281
     1
  0
CLASS
  1
XRECORD
  2
AcDbXrecord
  3
AutoCAD 2000
 90
        0
280
     0
281
     0
  0
CLASS
  1
DUMMY
  2
AcDbLongTransaction
  3
DUMMY
 90
        0
280
     0
281
     0
  0
CLASS
  1
LWPOLYLINE
  2
AcDbPolyline
  3
AutoCAD 2000
 90
        0
280
     0
281
     1
  0
CLASS
  1
HATCH
  2
AcDbHatch
  3
AutoCAD 2000
 90
        0
280
     0
281
     1
  0
CLASS
  1
XRECORD
  2
AcDbXrecord
  3
AutoCAD 2000
 90
        0
280
     0
281
     0
  0
CLASS
  1
ACDBCIRCARCRES
  2
AcDbCircArcRes
  3
AcGrefServices
 90
        0
280
     1
281
     0
  0
CLASS
  1
ACDBLINERES
  2
AcDbLineRes
  3
AcGrefServices
 90
        0
280
     1
281
     0
  0
CLASS
  1
ACDBELLIPSERES
  2
AcDbEllipseRes
  3
AcGrefServices
 90
        0
280
     1
281
     0
  0
CLASS
  1
DUMMY
  2
AcDbLongTransaction
  3
DUMMY
 90
        0
280
     0
281
     0
  0
CLASS
  1
LWPOLYLINE
  2
AcDbPolyline
  3
AutoCAD 2000
 90
        0
280
     0
281
     1
  0
CLASS
  1
HATCH
  2
AcDbHatch
  3
AutoCAD 2000
 90
        0
280
     0
281
     1
  0
CLASS
  1
XRECORD
  2
AcDbXrecord
  3
AutoCAD 2000
 90
        0
280
     0
281
     0
  0
CLASS
  1
TABLESTYLE
  2
AcDbTableStyle
  3
ObjectDBX Classes
 90
     2047
280
     0
281
     0
  0
CLASS
  1
AM_DRAWING_MGR
  2
AcDmDwgMgr
  3
AcMechDwgViewMgmt
 90
        0
280
     1
281
     0
  0
CLASS
  1
AM_DWG_DOCUMENT
  2
AcDmDwgDocument
  3
AcMechDwgViewMgmt
 90
        0
280
     1
281
     0
  0
CLASS
  1
AM_DWG_SHEET
  2
AcDmSheet
  3
AcMechDwgViewMgmt
 90
        0
280
     1
281
     0
  0
CLASS
  1
AM_VIEWDIMPARMAP
  2
AcDmViewDimParMap
  3
AcMechDwgViewMgmt
 90
        0
280
     1
281
     0
  0
CLASS
  1
AM_DWGMGR_NAME
  2
AcDmDwgMgrName
  3
AcMechDwgViewMgmt
 90
        0
280
     1
281
     0
  0
CLASS
  1
AMDTMENUSTATEMGR
  2
AmdtMenuStateMgr
  3
McadcomServices
 90
        0
280
     1
281
     0
  0
CLASS
  1
AMDTMCOMMENUSTATE
  2
AmdtMcomMenuState
  3
McadcomServices
 90
        0
280
     1
281
     0
  0
CLASS
  1
MAPIAMMOUDLE
  2
MApiAmModule
  3
MApiAmServices
 90
        0
280
     1
281
     0
  0
CLASS
  1
AMDTADMENUSTATE
  2
AmdtAdMenuState
  3
DesignerServices
 90
        0
280
     1
281
     0
  0
CLASS
  1
ADAPPL
  2
AcAdAppl
  3
DesignerServices
 90
        0
280
     1
281
     0
  0
CLASS
  1
DEPMGR
  2
AcAdDepMgr
  3
DesignerServices
 90
        0
280
     1
281
     0
  0
CLASS
  1
PARAMMGR
  2
AcAdParamMgr
  3
DesignerServices
 90
        0
280
     1
281
     0
  0
CLASS
  1
PARAMSCOPE
  2
AcAdParamScope
  3
DesignerServices
 90
        0
280
     1
281
     0
  0
CLASS
  1
NAMEDAPPL
  2
AcAdNamedAppl
  3
DesignerServices
 90
        0
280
     1
281
     0
  0
CLASS
  1
AMDTDMMENUSTATE
  2
AmdtDmMenuState
  3
AcMechDwgViewMgmt
 90
        0
280
     1
281
     0
  0
CLASS
  1
AMDTAMMENUSTATE
  2
AmdtAmMenuState
  3
DesignerAssemblies
 90
        0
280
     1
281
     0
  0
CLASS
  1
ACAMPROJECT
  2
AcAmProject
  3
DesignerAssemblies
 90
        0
280
     1
281
     0
  0
CLASS
  1
ACAMGRCOMPDEF
  2
AcAmGrCompDef
  3
DesignerAssemblies
 90
        0
280
     1
281
     0
  0
CLASS
  1
ACCMCONTEXT
  2
AcCmContext
  3
DesignerAssemblies
 90
        0
280
     1
281
     0
  0
CLASS
  1
ACAMCOMPDEF
  2
AcAmCompDef
  3
DesignerAssemblies
 90
        0
280
     1
281
     0
  0
CLASS
  1
ACAMCOMPDEFMGR
  2
AcAmCompDefMgr
  3
DesignerAssemblies
 90
        0
280
     1
281
     0
  0
CLASS
  1
AMCONTEXTMGR
  2
AcAmContextMgr
  3
DesignerAssemblies
 90
        0
280
     1
281
     0
  0
CLASS
  1
ACAMCONTEXTMODELER
  2
AcAmContextModeler
  3
DesignerAssemblies
 90
        0
280
     1
281
     0
  0
CLASS
  1
CATALOGSTATE
  2
AcAmCatalogState
  3
DesignerAssemblies
 90
        0
280
     1
281
     0
  0
CLASS
  1
ACAMGRCOMPDEFSET
  2
AcAmGrCompDefSet
  3
DesignerAssemblies
 90
        0
280
     1
281
     0
  0
CLASS
  1
AMDTBROWSERDBTAB
  2
AmdtBrowserDbTab
  3
McadcomServices
 90
        0
280
     1
281
     0
  0
CLASS
  1
CBROWSERAPPOBJECT
  2
CBrowserAppObject
  3
McadcomServices
 90
        0
280
     1
281
     0
  0
CLASS
  1
DM_PLACEHOLDER
  2
AcDmSelsetPlaceholder
  3
AcMechDwgViewMgmt
 90
        0
280
     1
281
     0
  0
CLASS
  1
ACMSTANDARDISO
  2
AcmStandardISO
  3
"Amdt_StdImp|Product Description: AutoCAD Mechanical 2004 DX|Company: Autodesk"
 90
        0
280
     1
281
     0
  0
CLASS
  1
AMDTEDGESTANDARDISO13715
  2
AmdtEdgeStdISO13715
  3
"Amdt_StdImp|Product Description: AutoCAD Mechanical 2004 DX|Company: Autodesk"
 90
        0
280
     1
281
     0
  0
CLASS
  1
ACMSURFSTANDARDISO
  2
AcmSurfTextStdISO
  3
"Amdt_StdImp|Product Description: AutoCAD Mechanical 2004 DX|Company: Autodesk"
 90
        0
280
     1
281
     0
  0
CLASS
  1
ACMFCFSTANDARDISO
  2
AcmFCFStdISO
  3
"Amdt_StdImp|Product Description: AutoCAD Mechanical 2004 DX|Company: Autodesk"
 90
        0
280
     1
281
     0
  0
CLASS
  1
ACMWELDSTANDARDISO
  2
AcmWeldingStdISO
  3
"Amdt_StdImp|Product Description: AutoCAD Mechanical 2004 DX|Company: Autodesk"
 90
        0
280
     1
281
     0
  0
CLASS
  1
ACMIDSTANDARDISO
  2
AcmIdStdISO
  3
"Amdt_StdImp|Product Description: AutoCAD Mechanical 2004 DX|Company: Autodesk"
 90
        0
280
     1
281
     0
  0
CLASS
  1
ACMDATUMSTANDARDISO
  2
AcmDatumStdISO
  3
"Amdt_StdImp|Product Description: AutoCAD Mechanical 2004 DX|Company: Autodesk"
 90
        0
280
     1
281
     0
  0
CLASS
  1
ACMBOMSTANDARDISO
  2
AcmBOMStdISO
  3
"Amdt_StdImp|Product Description: AutoCAD Mechanical 2004 DX|Company: Autodesk"
 90
        0
280
     1
281
     0
  0
CLASS
  1
ACMDETAILSTANDARDISO
  2
AmdtDetailSymStdISO
  3
"Amdt_StdImp|Product Description: AutoCAD Mechanical 2004 DX|Company: Autodesk"
 90
        0
280
     1
281
     0
  0
CLASS
  1
ACMSECTIONSTANDARDISO
  2
AmdtSectionSymStdISO
  3
"Amdt_StdImp|Product Description: AutoCAD Mechanical 2004 DX|Company: Autodesk"
 90
        0
280
     1
281
     0
  0
CLASS
  1
ACMCENTERLINESTANDARDISO
  2
AmdtCenterLineStdISO
  3
"Amdt_StdImp|Product Description: AutoCAD Mechanical 2004 DX|Company: Autodesk"
 90
        0
280
     1
281
     0
  0
CLASS
  1
ACMTHREADLINESTANDARDISO
  2
AmdtThreadLineStdISO
  3
"Amdt_StdImp|Product Description: AutoCAD Mechanical 2004 DX|Company: Autodesk"
 90
        0
280
     1
281
     0
  0
CLASS
  1
ACMNOTESTANDARDISO
  2
AmdtNoteStdISO
  3
"Amdt_StdImp|Product Description: AutoCAD Mechanical 2004 DX|Company: Autodesk"
 90
        0
280
     1
281
     0
  0
CLASS
  1
AMDTNOTETEMPLATEDB
  2
AmdtNoteTemplateDB
  3
AMDT_STDIMP_MODULE_NAME
 90
        0
280
     1
281
     0
  0
CLASS
  1
ACAMGHOLECHARTSTDISO
  2
AcAmgHoleChartStdISO
  3
ACMSYMBB_MODULE_NAME
 90
        0
280
     1
281
     0
  0
CLASS
  1
ACMTHREADLINESTANDARDJIS
  2
AmdtThreadLineStdJIS
  3
"Amdt_StdImp|Product Description: AutoCAD Mechanical 2004 DX|Company: Autodesk"
 90
        0
280
     1
281
     0
  0
CLASS
  1
ACAMGHOLECHARTSTDJIS
  2
AcAmgHoleChartStdJIS
  3
ACMSYMBB_MODULE_NAME
 90
        0
280
     1
281
     0
  0
CLASS
  1
SORTENTSTABLE
  2
AcDbSortentsTable
  3
ObjectDBX Classes
 90
        0
280
     0
281
     0
  0
ENDSEC
  0
SECTION
  2
TABLES
  0
TABLE
  2
VPORT
  5
8
330
0
100
AcDbSymbolTable
 70
     3
  0
VPORT
  5
11973
330
8
100
AcDbSymbolTableRecord
100
AcDbViewportTableRecord
  2
*Active
 70
     0
 10
0.0
 20
0.0
 11
1.0
 21
1.0
 12
21.05573013587753
 22
-35.27453526049754
 13
0.0
 23
0.0
 14
2.5
 24
2.5
 15
10.0
 25
10.0
 16
0.0
 26
0.0
 36
1.0
 17
0.0
 27
0.0
 37
0.0
 40
259.1996605292223
 41
1.51114922813036
 42
50.0
 43
0.0
 44
0.0
 50
0.0
 51
0.0
 71
    16
 72
  2000
 73
     1
 74
     3
 75
     0
 76
     0
 77
     0
 78
     0
281
     0
 65
     1
110
0.0
120
0.0
130
0.0
111
1.0
121
0.0
131
0.0
112
0.0
122
1.0
132
0.0
 79
     0
146
0.0
  0
ENDTAB
  0
TABLE
  2
LTYPE
  5
5
330
0
100
AcDbSymbolTable
 70
    16
  0
LTYPE
  5
14
330
5
100
AcDbSymbolTableRecord
100
AcDbLinetypeTableRecord
  2
ByBlock
 70
     0
  3

 72
    65
 73
     0
 40
0.0
  0
LTYPE
  5
15
330
5
100
AcDbSymbolTableRecord
100
AcDbLinetypeTableRecord
  2
ByLayer
 70
     0
  3

 72
    65
 73
     0
 40
0.0
  0
LTYPE
  5
16
330
5
100
AcDbSymbolTableRecord
100
AcDbLinetypeTableRecord
  2
Continuous
 70
     0
  3
Solid line
 72
    65
 73
     0
 40
0.0
  0
LTYPE
  5
43
330
5
100
AcDbSymbolTableRecord
100
AcDbLinetypeTableRecord
  2
AM_ISO02W050
 70
     0
  3
__ __ __ __ __ __ __ __ __ __ __ __ __ __ __
 72
    65
 73
     2
 40
7.5
 49
6.0
 74
     0
 49
-1.5
 74
     0
  0
LTYPE
  5
44
330
5
100
AcDbSymbolTableRecord
100
AcDbLinetypeTableRecord
  2
AM_ISO08W050
 70
     0
  3
____ . ____ . ____ . ____ . ____ . ____ . ____
 72
    65
 73
     4
 40
18.0
 49
12.0
 74
     0
 49
-1.5
 74
     0
 49
3.0
 74
     0
 49
-1.5
 74
     0
  0
LTYPE
  5
45
330
5
100
AcDbSymbolTableRecord
100
AcDbLinetypeTableRecord
  2
AM_ISO09W050
 70
     0
  3
_____ . . _____ . . _____ . . ____ .. ____
 72
    65
 73
     6
 40
22.5
 49
12.0
 74
     0
 49
-1.5
 74
     0
 49
3.0
 74
     0
 49
-1.5
 74
     0
 49
3.0
 74
     0
 49
-1.5
 74
     0
  0
LTYPE
  5
46
330
5
100
AcDbSymbolTableRecord
100
AcDbLinetypeTableRecord
  2
Amconstr
 70
     0
  3
_______________________
 72
    65
 73
     2
 40
9999.0
 49
9999.0
 74
     0
 49
0.0
 74
     0
  0
LTYPE
  5
47
330
5
100
AcDbSymbolTableRecord
100
AcDbLinetypeTableRecord
  2
AM_ISO02W050x2
 70
     0
  3
 _ _ _ _ _ _ _ _ _ _ _ _
 72
    65
 73
     2
 40
3.75
 49
3.0
 74
     0
 49
-0.75
 74
     0
  0
LTYPE
  5
48
330
5
100
AcDbSymbolTableRecord
100
AcDbLinetypeTableRecord
  2
AM_ISO08W050x2
 70
     0
  3
__ . __ . __ . __ . __ . __
 72
    65
 73
     4
 40
9.0
 49
6.0
 74
     0
 49
-0.75
 74
     0
 49
1.5
 74
     0
 49
-0.75
 74
     0
  0
LTYPE
  5
4B
330
5
100
AcDbSymbolTableRecord
100
AcDbLinetypeTableRecord
  2
Amzigzag
 70
     0
  3
/\/-/\/-/\/-/\/-/\/-/\/
 72
    65
 73
     2
 40
11.0001
 49
0.0001
 74
     4
 75
   135
340
4A
 46
0.04
 50
0.0
 44
0.0
 45
0.0
 49
-11.0
 74
     0
  0
LTYPE
  5
188
330
5
100
AcDbSymbolTableRecord
100
AcDbLinetypeTableRecord
  2
ACJISTGB
 70
     0
  3
__ . . __ . .
 72
    65
 73
     6
 40
9.0
 49
4.0
 74
     0
 49
-1.0
 74
     0
 49
1.0
 74
     0
 49
-1.0
 74
     0
 49
1.0
 74
     0
 49
-1.0
 74
     0
  0
LTYPE
  5
189
330
5
100
AcDbSymbolTableRecord
100
AcDbLinetypeTableRecord
  2
ACJISTGL
 70
     0
  3
_ _ _ _ _
 72
    65
 73
     2
 40
3.0
 49
2.0
 74
     0
 49
-1.0
 74
     0
  0
LTYPE
  5
652
330
5
100
AcDbSymbolTableRecord
100
AcDbLinetypeTableRecord
  2
CENTER
 70
     0
  3
____ _ ____ _ ____ _ ____ _ ____ _ ____ _ ____
 72
    65
 73
     4
 40
17.5
 49
13.0
 74
     0
 49
-1.5
 74
     0
 49
1.5
 74
     0
 49
-1.5
 74
     0
  0
LTYPE
  5
12AB
330
5
100
AcDbSymbolTableRecord
100
AcDbLinetypeTableRecord
  2
HIDDEN
 70
     0
  3
Hidden __ __ __ __ __ __ __ __ __ __ __ __ __ _
 72
    65
 73
     2
 40
0.375
 49
0.25
 74
     0
 49
-0.125
 74
     0
  0
LTYPE
  5
12AC
330
5
100
AcDbSymbolTableRecord
100
AcDbLinetypeTableRecord
  2
PHANTOM2
 70
     0
  3
Phantom (.5x) ___ _ _ ___ _ _ ___ _ _ ___ _ _
 72
    65
 73
     6
 40
1.25
 49
0.625
 74
     0
 49
-0.125
 74
     0
 49
0.125
 74
     0
 49
-0.125
 74
     0
 49
0.125
 74
     0
 49
-0.125
 74
     0
  0
LTYPE
  5
9A44
330
5
100
AcDbSymbolTableRecord
100
AcDbLinetypeTableRecord
  2
ACISOWELD
 70
     0
  3
_ _ _ _ _
 72
    65
 73
     2
 40
2.0
 49
2.0
 74
     0
 49
-1.0
 74
     0
  0
LTYPE
  5
9A45
330
5
100
AcDbSymbolTableRecord
100
AcDbLinetypeTableRecord
  2
ACISOTGB
 70
     0
  3
__ . . __ . .
 72
    65
 73
     6
 40
9.0
 49
4.0
 74
     0
 49
-1.0
 74
     0
 49
1.0
 74
     0
 49
-1.0
 74
     0
 49
1.0
 74
     0
 49
-1.0
 74
     0
  0
LTYPE
  5
9A46
330
5
100
AcDbSymbolTableRecord
100
AcDbLinetypeTableRecord
  2
ACISOTGL
 70
     0
  3
_ _ _ _ _
 72
    65
 73
     2
 40
3.0
 49
2.0
 74
     0
 49
-1.0
 74
     0
  0
ENDTAB
  0
TABLE
  2
LAYER
  5
2
102
{ACAD_XDICTIONARY
360
9B25
102
}
330
0
100
AcDbSymbolTable
 70
     8
  0
LAYER
  5
10
330
2
100
AcDbSymbolTableRecord
100
AcDbLayerTableRecord
  2
0
 70
     0
 62
     7
  6
Continuous
370
    -3
390
F
  0
LAYER
  5
7D
330
2
100
AcDbSymbolTableRecord
100
AcDbLayerTableRecord
  2
AM_5
 70
     0
 62
     3
  6
Continuous
370
    13
390
F
  0
LAYER
  5
7F
330
2
100
AcDbSymbolTableRecord
100
AcDbLayerTableRecord
  2
Defpoints
 70
     0
 62
     7
  6
Continuous
290
     0
370
    -3
390
F
  0
LAYER
  5
12B1
330
2
100
AcDbSymbolTableRecord
100
AcDbLayerTableRecord
  2
AM_0
 70
     0
 62
     7
  6
Continuous
370
    30
390
F
  0
LAYER
  5
1896
330
2
100
AcDbSymbolTableRecord
100
AcDbLayerTableRecord
  2
AM_7
 70
     0
 62
     4
  6
AM_ISO08W050
370
    13
390
F
  0
LAYER
  5
2C94
330
2
100
AcDbSymbolTableRecord
100
AcDbLayerTableRecord
  2
AM_11
 70
     0
 62
     3
  6
AM_ISO09W050
370
    13
390
F
  0
ENDTAB
  0
TABLE
  2
STYLE
  5
3
330
0
100
AcDbSymbolTable
 70
     6
  0
STYLE
  5
11
330
3
100
AcDbSymbolTableRecord
100
AcDbTextStyleTableRecord
  2
STANDARD
 70
     0
 40
0.0
 41
1.0
 50
0.0
 71
     0
 42
3.0
  3
ISOCP.SHX
  4
EXTFONT.SHX
  0
STYLE
  5
4A
330
3
100
AcDbSymbolTableRecord
100
AcDbTextStyleTableRecord
  2

 70
     1
 40
0.0
 41
1.0
 50
0.0
 71
     0
 42
2.5
  3
ltypeshp.shx
  4

  0
STYLE
  5
180
330
3
100
AcDbSymbolTableRecord
100
AcDbTextStyleTableRecord
  2
ACJISTS
 70
     0
 40
1.0
 41
1.0
 50
0.0
 71
     0
 42
2.5
  3
isocp.shx
  4
bigfont.shx
  0
STYLE
  5
187
330
3
100
AcDbSymbolTableRecord
100
AcDbTextStyleTableRecord
  2
ACJISGDT
 70
     0
 40
0.0
 41
1.0
 50
0.0
 71
     0
 42
2.5
  3
amgdt.shx
  4

  0
STYLE
  5
9A36
330
3
100
AcDbSymbolTableRecord
100
AcDbTextStyleTableRecord
  2
ACISOTS
 70
     0
 40
1.0
 41
1.0
 50
0.0
 71
     0
 42
3.15
  3
isocp.shx
  4
extfont.shx
  0
STYLE
  5
9A43
330
3
100
AcDbSymbolTableRecord
100
AcDbTextStyleTableRecord
  2
ACISOGDT
 70
     0
 40
0.0
 41
1.0
 50
0.0
 71
     0
 42
3.15
  3
amgdt.shx
  4

  0
ENDTAB
  0
TABLE
  2
VIEW
  5
6
330
0
100
AcDbSymbolTable
 70
     6
  0
VIEW
  5
A30
330
6
100
AcDbSymbolTableRecord
100
AcDbViewTableRecord
  2
AM_VIEW1
 70
     0
 40
148.5
 10
108.6929657794677
 20
222.75
 41
217.3859315589354
 11
0.0
 21
0.0
 31
1.0
 12
0.0
 22
0.0
 32
0.0
 42
50.0
 43
0.0
 44
0.0
 50
0.0
 71
    16
281
     0
 72
     0
  0
VIEW
  5
A31
330
6
100
AcDbSymbolTableRecord
100
AcDbViewTableRecord
  2
AM_VIEW2
 70
     0
 40
148.5
 10
311.3070342205323
 20
222.75
 41
217.3859315589354
 11
0.0
 21
0.0
 31
1.0
 12
0.0
 22
0.0
 32
0.0
 42
50.0
 43
0.0
 44
0.0
 50
0.0
 71
    16
281
     0
 72
     0
  0
VIEW
  5
A32
330
6
100
AcDbSymbolTableRecord
100
AcDbViewTableRecord
  2
AM_VIEW3
 70
     0
 40
148.5
 10
108.6929657794677
 20
74.25
 41
217.3859315589354
 11
0.0
 21
0.0
 31
1.0
 12
0.0
 22
0.0
 32
0.0
 42
50.0
 43
0.0
 44
0.0
 50
0.0
 71
    16
281
     0
 72
     0
  0
VIEW
  5
A33
330
6
100
AcDbSymbolTableRecord
100
AcDbViewTableRecord
  2
AM_VIEW4
 70
     0
 40
148.5
 10
311.3070342205323
 20
74.25
 41
217.3859315589354
 11
0.0
 21
0.0
 31
1.0
 12
0.0
 22
0.0
 32
0.0
 42
50.0
 43
0.0
 44
0.0
 50
0.0
 71
    16
281
     0
 72
     0
  0
VIEW
  5
A34
330
6
100
AcDbSymbolTableRecord
100
AcDbViewTableRecord
  2
AM_VIEW5
 70
     0
 40
148.5
 10
210.0
 20
148.5
 41
217.3859315589353
 11
0.0
 21
0.0
 31
1.0
 12
0.0
 22
0.0
 32
0.0
 42
50.0
 43
0.0
 44
0.0
 50
0.0
 71
    16
281
     0
 72
     0
  0
VIEW
  5
A35
330
6
100
AcDbSymbolTableRecord
100
AcDbViewTableRecord
  2
AM_VIEW6
 70
     0
 40
296.99703
 10
210.0
 20
148.5
 41
434.7675153992395
 11
0.0
 21
0.0
 31
1.0
 12
0.0
 22
0.0
 32
0.0
 42
50.0
 43
0.0
 44
0.0
 50
0.0
 71
    16
281
     0
 72
     0
  0
ENDTAB
  0
TABLE
  2
UCS
  5
7
330
0
100
AcDbSymbolTable
 70
     0
  0
ENDTAB
  0
TABLE
  2
APPID
  5
9
330
0
100
AcDbSymbolTable
 70
    47
  0
APPID
  5
12
330
9
100
AcDbSymbolTableRecord
100
AcDbRegAppTableRecord
  2
ACAD
 70
     0
  0
APPID
  5
2C
330
9
100
AcDbSymbolTableRecord
100
AcDbRegAppTableRecord
  2
MCAD_NO_VIS
 70
     0
  0
APPID
  5
2D
330
9
100
AcDbSymbolTableRecord
100
AcDbRegAppTableRecord
  2
ACAD_TEMP_GRAPHIC
 70
     0
  0
APPID
  5
B9
330
9
100
AcDbSymbolTableRecord
100
AcDbRegAppTableRecord
  2
GENIUS_GENDTOL_13
 70
     0
  0
APPID
  5
359
330
9
100
AcDbSymbolTableRecord
100
AcDbRegAppTableRecord
  2
GENIUS_GENREC_14
 70
     0
  0
APPID
  5
35A
330
9
100
AcDbSymbolTableRecord
100
AcDbRegAppTableRecord
  2
GENIUS_GENODEF_13
 70
     0
  0
APPID
  5
35B
330
9
100
AcDbSymbolTableRecord
100
AcDbRegAppTableRecord
  2
GENIUS_GENOBJ-N-REC_13
 70
     0
  0
APPID
  5
667
330
9
100
AcDbSymbolTableRecord
100
AcDbRegAppTableRecord
  2
GENIUS_GENCFG_13
 70
     0
1001
GENIUS_GENCFG0_13
1000
GEN
  0
APPID
  5
668
330
9
100
AcDbSymbolTableRecord
100
AcDbRegAppTableRecord
  2
GENIUS_GENCFG0_13
 70
     0
1001
GENIUS_GENCFG_13
1071
1094015123
1000
668
1000
GEN
1070
     0
  0
APPID
  5
669
330
9
100
AcDbSymbolTableRecord
100
AcDbRegAppTableRecord
  2
GENIUS_GENCFG1_13
 70
     0
  0
APPID
  5
66A
330
9
100
AcDbSymbolTableRecord
100
AcDbRegAppTableRecord
  2
GENIUS_GENCFG2_13
 70
     0
  0
APPID
  5
66B
330
9
100
AcDbSymbolTableRecord
100
AcDbRegAppTableRecord
  2
GENIUS_GENCFG3_13
 70
     0
  0
APPID
  5
66C
330
9
100
AcDbSymbolTableRecord
100
AcDbRegAppTableRecord
  2
GENIUS_GENCFG4_13
 70
     0
  0
APPID
  5
A76
330
9
100
AcDbSymbolTableRecord
100
AcDbRegAppTableRecord
  2
GENIUS_GENBLLY_14
 70
     0
  0
APPID
  5
A77
330
9
100
AcDbSymbolTableRecord
100
AcDbRegAppTableRecord
  2
GENIUS_GENOBJ-N-CEN_13
 70
     0
  0
APPID
  5
A83
330
9
100
AcDbSymbolTableRecord
100
AcDbRegAppTableRecord
  2
GENIUS_GENTRA_14
 70
     0
  0
APPID
  5
A8D
330
9
100
AcDbSymbolTableRecord
100
AcDbRegAppTableRecord
  2
GENIUS_GENOBJ-N-TIT_13
 70
     0
  0
APPID
  5
A8E
330
9
100
AcDbSymbolTableRecord
100
AcDbRegAppTableRecord
  2
GENIUS_GENTITLE_13
 70
     0
  0
APPID
  5
A8F
330
9
100
AcDbSymbolTableRecord
100
AcDbRegAppTableRecord
  2
GENIUS_GENOENT_13
 70
     0
  0
APPID
  5
A90
330
9
100
AcDbSymbolTableRecord
100
AcDbRegAppTableRecord
  2
GENIUS_GENOREF_13
 70
     0
  0
APPID
  5
A91
330
9
100
AcDbSymbolTableRecord
100
AcDbRegAppTableRecord
  2
GENIUS_GENOLIS_13
 70
     0
  0
APPID
  5
A92
330
9
100
AcDbSymbolTableRecord
100
AcDbRegAppTableRecord
  2
GENIUS_GENZVEED_13
 70
     0
  0
APPID
  5
A93
330
9
100
AcDbSymbolTableRecord
100
AcDbRegAppTableRecord
  2
GENIUS_GENSCREG_15
 70
     0
  0
APPID
  5
A94
330
9
100
AcDbSymbolTableRecord
100
AcDbRegAppTableRecord
  2
GENIUS_GENOBJ-N-SDF_13
 70
     0
  0
APPID
  5
12B5
330
9
100
AcDbSymbolTableRecord
100
AcDbRegAppTableRecord
  2
GENIUS_GENOBJ-N-RSBK_13
 70
     0
  0
APPID
  5
12B6
330
9
100
AcDbSymbolTableRecord
100
AcDbRegAppTableRecord
  2
GENIUS_GENOBJ-N-LIB_13
 70
     0
  0
APPID
  5
12B7
330
9
100
AcDbSymbolTableRecord
100
AcDbRegAppTableRecord
  2
GENIUS_GENSCALE_13
 70
     0
  0
APPID
  5
12B8
330
9
100
AcDbSymbolTableRecord
100
AcDbRegAppTableRecord
  2
GENIUS_GENOBJ-N-HTC_13
 70
     0
  0
APPID
  5
12B9
330
9
100
AcDbSymbolTableRecord
100
AcDbRegAppTableRecord
  2
GENIUS_GENHATCH_13
 70
     0
  0
APPID
  5
189B
330
9
100
AcDbSymbolTableRecord
100
AcDbRegAppTableRecord
  2
BASE_TYPE
 70
     0
  0
APPID
  5
189C
330
9
100
AcDbSymbolTableRecord
100
AcDbRegAppTableRecord
  2
GENIUS_GENOBJ-N-FIL_13
 70
     0
  0
APPID
  5
23D0
330
9
100
AcDbSymbolTableRecord
100
AcDbRegAppTableRecord
  2
ACATTRIBSERVICES
 70
     0
  0
APPID
  5
264C
330
9
100
AcDbSymbolTableRecord
100
AcDbRegAppTableRecord
  2
GENIUS_GENSCREG_13
 70
     0
  0
APPID
  5
26E5
330
9
100
AcDbSymbolTableRecord
100
AcDbRegAppTableRecord
  2
CONTENTBLOCKICON
 70
     0
  0
APPID
  5
2747
330
9
100
AcDbSymbolTableRecord
100
AcDbRegAppTableRecord
  2
GENIUS_GENFIL_13
 70
     0
  0
APPID
  5
2748
330
9
100
AcDbSymbolTableRecord
100
AcDbRegAppTableRecord
  2
GENIUS_GENOBJ-N-CHA_13
 70
     0
  0
APPID
  5
2749
330
9
100
AcDbSymbolTableRecord
100
AcDbRegAppTableRecord
  2
GENIUS_GENDIMSH_14
 70
     0
  0
APPID
  5
274A
330
9
100
AcDbSymbolTableRecord
100
AcDbRegAppTableRecord
  2
GENIUS_GENOBJ-N-DIM_13
 70
     0
  0
APPID
  5
274B
330
9
100
AcDbSymbolTableRecord
100
AcDbRegAppTableRecord
  2
GENIUS_GENDIM_13
 70
     0
  0
APPID
  5
2A08
330
9
100
AcDbSymbolTableRecord
100
AcDbRegAppTableRecord
  2
GENIUS_GENOBJ-N-CRS_13
 70
     0
  0
APPID
  5
9A0B
330
9
100
AcDbSymbolTableRecord
100
AcDbRegAppTableRecord
  2
AD_DRAW
 70
     0
  0
APPID
  5
9A29
330
9
100
AcDbSymbolTableRecord
100
AcDbRegAppTableRecord
  2
DESIGNERASSEMBLIES
 70
     0
  0
APPID
  5
9A2F
330
9
100
AcDbSymbolTableRecord
100
AcDbRegAppTableRecord
  2
ACADM_DIM_EDIT
 70
     0
  0
APPID
  5
9A30
330
9
100
AcDbSymbolTableRecord
100
AcDbRegAppTableRecord
  2
AMDT_DM_ADJ
 70
     0
  0
APPID
  5
9B24
330
9
100
AcDbSymbolTableRecord
100
AcDbRegAppTableRecord
  2
GENIUS_GENCEN_19
 70
     0
  0
APPID
  5
A33D
330
9
100
AcDbSymbolTableRecord
100
AcDbRegAppTableRecord
  2
ACAD_DSTYLE_DIMTEXT_FILL
 70
     0
  0
APPID
  5
A33E
330
9
100
AcDbSymbolTableRecord
100
AcDbRegAppTableRecord
  2
ACAD_PSEXT
 70
     0
  0
ENDTAB
  0
TABLE
  2
DIMSTYLE
  5
A
330
0
100
AcDbSymbolTable
 70
    10
100
AcDbDimStyleTable
  0
DIMSTYLE
105
58
330
A
100
AcDbSymbolTableRecord
100
AcDbDimStyleTableRecord
  2
AM_JIS
 70
     0
  4
"
 41
2.5
 42
0.0
 43
10.0
 44
1.0
 47
0.1
 48
0.1000000001
 73
     0
 74
     0
 77
     3
 78
     1
 79
     2
140
3.8
141
0.0
143
0.0393701
146
0.71
147
1.5
172
     1
176
   256
177
   256
178
     2
179
     2
271
     3
272
     3
275
     1
283
     0
284
     8
340
11
341
59
342
59
371
    -1
372
    -1
  0
DIMSTYLE
105
5F
330
A
100
AcDbSymbolTableRecord
100
AcDbDimStyleTableRecord
  2
AM_JIS$3
 70
     0
  4
"
 41
2.5
 42
0.0
 43
10.0
 44
1.0
 47
0.1
 48
0.1000000001
 73
     0
 77
     3
 78
     1
 79
     2
140
3.8
141
0.0
143
0.0393701
146
0.71
147
1.5
172
     1
176
   256
177
   256
178
     2
179
     2
271
     3
272
     3
275
     1
283
     0
284
     8
288
     1
289
     0
340
11
341
59
342
59
371
    -1
372
    -1
  0
DIMSTYLE
105
60
330
A
100
AcDbSymbolTableRecord
100
AcDbDimStyleTableRecord
  2
AM_JIS$4
 70
     0
  4
"
 41
2.5
 42
0.0
 43
10.0
 44
1.0
 47
0.1
 48
0.1000000001
 73
     0
 77
     3
 78
     1
 79
     2
140
3.8
141
0.0
143
0.0393701
146
0.71
147
1.5
172
     1
176
   256
177
   256
178
     2
179
     2
271
     3
272
     3
275
     1
283
     0
284
     8
288
     1
289
     0
340
11
341
59
342
59
371
    -1
372
    -1
  0
DIMSTYLE
105
61
330
A
100
AcDbSymbolTableRecord
100
AcDbDimStyleTableRecord
  2
AM_JIS$6
 70
     0
  4
"
 41
2.5
 42
0.0
 43
10.0
 44
1.0
 47
0.1
 48
0.1000000001
 73
     0
 74
     0
 78
     1
 79
     2
140
3.8
141
0.0
143
0.0393701
146
0.71
147
1.5
172
     1
176
   256
177
   256
178
     2
179
     2
271
     3
272
     3
275
     1
283
     0
284
     8
340
11
341
59
342
59
371
    -1
372
    -1
  0
DIMSTYLE
105
62
330
A
100
AcDbSymbolTableRecord
100
AcDbDimStyleTableRecord
  2
AM_JIS$7
 70
     0
  4
"
 41
2.5
 42
0.0
 43
10.0
 44
1.0
 47
0.1
 48
0.1000000001
 73
     0
 74
     0
 77
     3
 78
     1
 79
     2
140
5.0
141
0.0
143
0.0393701
146
0.71
147
1.5
172
     1
176
   256
177
   256
178
     2
179
     2
271
     3
272
     3
275
     1
283
     0
284
     8
340
11
341
59
342
59
371
    -1
372
    -1
  0
DIMSTYLE
105
63
330
A
100
AcDbSymbolTableRecord
100
AcDbDimStyleTableRecord
  2
AM_JIS$SF
 70
     0
  4
"
 41
2.5
 42
1.0
 43
10.0
 44
1.0
 47
0.1
 48
0.1
 73
     0
 74
     0
 75
     1
 76
     1
 77
     3
 78
     8
 79
     2
140
3.5
141
0.0
143
0.0393701
146
0.71
147
1.5
176
   256
177
   256
178
     2
271
     2
272
     3
274
     4
340
11
341
59
342
59
343
59
344
59
371
    -1
372
    -1
  0
DIMSTYLE
105
68
330
A
100
AcDbSymbolTableRecord
100
AcDbDimStyleTableRecord
  2
AM_JIS$SH
 70
     0
  4
"
 41
2.5
 42
1.0
 43
10.0
 44
1.0
 47
0.1
 48
0.1
 73
     0
 74
     0
 75
     1
 76
     1
 77
     3
 78
     8
 79
     2
140
3.5
141
0.0
143
0.0393701
144
2.0
146
0.71
147
1.5
173
     1
176
   256
177
   256
178
     2
271
     2
272
     3
274
     4
340
11
341
59
342
59
343
64
344
59
371
    -1
372
    -1
  0
DIMSTYLE
105
65F
330
A
100
AcDbSymbolTableRecord
100
AcDbDimStyleTableRecord
  2
STANDARD
 70
     0
340
11
  0
DIMSTYLE
105
1899
102
{ACAD_REACTORS
330
EC7B
330
EC96
330
ED1B
102
}
330
A
100
AcDbSymbolTableRecord
100
AcDbDimStyleTableRecord
  2
AM_JIS$0
 70
     0
  4
"
 41
2.5
 42
0.0
 43
10.0
 44
1.0
 47
0.1
 48
0.1000000001
 73
     0
 74
     0
 77
     3
 78
     1
 79
     2
140
3.8
141
0.0
143
0.0393701
146
0.71
147
1.5
172
     1
176
     3
177
     3
178
     2
271
     3
272
     3
275
     1
283
     0
284
     8
289
     0
340
11
341
59
342
59
371
    13
372
    13
  0
DIMSTYLE
105
189A
102
{ACAD_REACTORS
330
ED1D
102
}
330
A
100
AcDbSymbolTableRecord
100
AcDbDimStyleTableRecord
  2
AM_JIS$2
 70
     0
  4
"
 41
2.5
 42
0.0
 43
10.0
 44
1.0
 47
0.1
 48
0.1000000001
 73
     0
 74
     0
 77
     3
 78
     1
 79
     2
140
3.8
141
0.0
143
0.0393701
146
0.71
147
1.5
172
     1
176
     3
177
     3
178
     2
179
     3
271
     3
272
     3
275
     1
283
     0
284
     8
289
     0
340
11
341
59
342
59
371
    13
372
    13
  0
ENDTAB
  0
TABLE
  2
BLOCK_RECORD
  5
1
330
0
100
AcDbSymbolTable
 70
     8
  0
BLOCK_RECORD
  5
1F
102
{ACAD_XDICTIONARY
360
165
102
}
330
1
100
AcDbSymbolTableRecord
100
AcDbBlockTableRecord
  2
*Model_Space
340
22
  0
BLOCK_RECORD
  5
1B
102
{ACAD_XDICTIONARY
360
264F
102
}
330
1
100
AcDbSymbolTableRecord
100
AcDbBlockTableRecord
  2
*Paper_Space
340
1E
  0
BLOCK_RECORD
  5
23
102
{ACAD_XDICTIONARY
360
2651
102
}
330
1
100
AcDbSymbolTableRecord
100
AcDbBlockTableRecord
  2
*Paper_Space0
340
26
  0
BLOCK_RECORD
  5
59
330
1
100
AcDbSymbolTableRecord
100
AcDbBlockTableRecord
  2
_Open30
340
0
102
{BLKREFS
331
11910
331
11911
331
11919
331
1191A
331
11922
331
11923
331
1192B
331
1192C
102
}
  0
BLOCK_RECORD
  5
64
330
1
100
AcDbSymbolTableRecord
100
AcDbBlockTableRecord
  2
GENAXEH
340
0
  0
BLOCK_RECORD
  5
9A20
330
1
100
AcDbSymbolTableRecord
100
AcDbBlockTableRecord
  2
*U3
340
0
  0
BLOCK_RECORD
  5
EE14
330
1
100
AcDbSymbolTableRecord
100
AcDbBlockTableRecord
  2
*D4
340
0
  0
BLOCK_RECORD
  5
EE28
330
1
100
AcDbSymbolTableRecord
100
AcDbBlockTableRecord
  2
*D5
340
0
  0
BLOCK_RECORD
  5
EEED
330
1
100
AcDbSymbolTableRecord
100
AcDbBlockTableRecord
  2
*D6
340
0
  0
BLOCK_RECORD
  5
EEF7
330
1
100
AcDbSymbolTableRecord
100
AcDbBlockTableRecord
  2
*D7
340
0
  0
ENDTAB
  0
ENDSEC
  0
SECTION
  2
BLOCKS
  0
BLOCK
  5
20
330
1F
100
AcDbEntity
  8
0
100
AcDbBlockBegin
  2
*Model_Space
 70
     0
 71
     0
 10
0.0
 20
0.0
 30
0.0
  3
*Model_Space
  1

  0
ENDBLK
  5
21
330
1F
100
AcDbEntity
  8
0
100
AcDbBlockEnd
  0
BLOCK
  5
1C
330
1B
100
AcDbEntity
 67
     1
  8
0
100
AcDbBlockBegin
  2
*Paper_Space
 70
     0
 71
     0
 10
0.0
 20
0.0
 30
0.0
  3
*Paper_Space
  1

  0
ENDBLK
  5
1D
330
1B
100
AcDbEntity
 67
     1
  8
0
100
AcDbBlockEnd
  0
BLOCK
  5
24
330
23
100
AcDbEntity
  8
0
100
AcDbBlockBegin
  2
*Paper_Space0
 70
     0
 71
     0
 10
0.0
 20
0.0
 30
0.0
  3
*Paper_Space0
  1

  0
ENDBLK
  5
25
330
23
100
AcDbEntity
  8
0
100
AcDbBlockEnd
  0
BLOCK
  5
2F22
330
59
100
AcDbEntity
  8
0
100
AcDbBlockBegin
  2
_Open30
 70
     0
 71
     0
 10
0.0
 20
0.0
 30
0.0
  3
_Open30
  1

  0
LINE
  5
2F1F
330
59
100
AcDbEntity
  8
0
 62
     0
370
    -2
100
AcDbLine
 10
-1.0
 20
0.26794919
 30
0.0
 11
0.0
 21
0.0
 31
0.0
  0
LINE
  5
2F20
330
59
100
AcDbEntity
  8
0
 62
     0
370
    -2
100
AcDbLine
 10
0.0
 20
0.0
 30
0.0
 11
-1.0
 21
-0.26794919
 31
0.0
  0
LINE
  5
2F21
330
59
100
AcDbEntity
  8
0
 62
     0
370
    -2
100
AcDbLine
 10
0.0
 20
0.0
 30
0.0
 11
-1.0
 21
0.0
 31
0.0
  0
ENDBLK
  5
2F23
330
59
100
AcDbEntity
  8
0
100
AcDbBlockEnd
  0
BLOCK
  5
2F2E
330
64
100
AcDbEntity
  8
0
100
AcDbBlockBegin
  2
GENAXEH
 70
     0
 71
     0
 10
0.0
 20
0.0
 30
0.0
  3
GENAXEH
  1

  0
LINE
  5
2F2D
330
64
100
AcDbEntity
  8
0
100
AcDbLine
 10
-1.0
 20
0.0
 30
0.0
 11
1.0
 21
0.0
 31
0.0
  0
ENDBLK
  5
2F2F
330
64
100
AcDbEntity
  8
0
100
AcDbBlockEnd
  0
BLOCK
  5
9A21
330
9A20
100
AcDbEntity
  8
0
100
AcDbBlockBegin
  2
*U3
 70
     1
 71
     0
 10
0.0
 20
0.0
 30
0.0
  3
*U3
  1

  0
ENDBLK
  5
9A22
330
9A20
100
AcDbEntity
  8
0
100
AcDbBlockEnd
  0
BLOCK
  5
F03E
330
EE14
100
AcDbEntity
  8
0
100
AcDbBlockBegin
  2
*D4
 70
     1
 71
     0
 10
0.0
 20
0.0
 30
0.0
  3
*D4
  1

  0
LINE
  5
1190D
330
EE14
100
AcDbEntity
  8
AM_5
 62
     3
370
    13
100
AcDbLine
 10
0.0
 20
0.0
 30
0.0
 11
-0.0000000000000018
 21
-29.66360704889961
 31
0.0
  0
LINE
  5
1190E
330
EE14
100
AcDbEntity
  8
AM_5
 62
     3
370
    13
100
AcDbLine
 10
64.99999999999977
 20
13.49999999999977
 30
0.0
 11
64.99999999999977
 21
-29.66360704889961
 31
0.0
  0
LINE
  5
1190F
330
EE14
100
AcDbEntity
  8
AM_5
 62
     3
370
    13
100
AcDbLine
 10
2.499999999999998
 20
-28.66360704889961
 30
0.0
 11
62.49999999999977
 21
-28.66360704889961
 31
0.0
  0
INSERT
  5
11910
330
EE14
100
AcDbEntity
  8
AM_5
 62
     3
370
    13
100
AcDbBlockReference
  2
_Open30
 10
-0.0000000000000018
 20
-28.66360704889961
 30
0.0
 41
2.5
 42
2.5
 43
2.5
 50
180.0
  0
INSERT
  5
11911
330
EE14
100
AcDbEntity
  8
AM_5
 62
     3
370
    13
100
AcDbBlockReference
  2
_Open30
 10
64.99999999999977
 20
-28.66360704889961
 30
0.0
 41
2.5
 42
2.5
 43
2.5
  0
MTEXT
  5
11912
330
EE14
100
AcDbEntity
  8
AM_5
 62
     2
100
AcDbMText
 10
32.49999999999989
 20
-25.26360704889961
 30
0.0
 40
3.8
 41
0.0
 71
     5
 72
     1
  1
65
 73
     1
 44
1.0
  0
POINT
  5
11913
330
EE14
100
AcDbEntity
  8
Defpoints
 62
     0
100
AcDbPoint
 10
0.0
 20
0.0
 30
0.0
  0
POINT
  5
11914
330
EE14
100
AcDbEntity
  8
Defpoints
 62
     0
100
AcDbPoint
 10
64.99999999999977
 20
13.49999999999977
 30
0.0
  0
POINT
  5
11915
330
EE14
100
AcDbEntity
  8
Defpoints
 62
     0
100
AcDbPoint
 10
64.99999999999977
 20
-28.66360704889961
 30
0.0
  0
ENDBLK
  5
F03F
330
EE14
100
AcDbEntity
  8
0
100
AcDbBlockEnd
  0
BLOCK
  5
F042
330
EE28
100
AcDbEntity
  8
0
100
AcDbBlockBegin
  2
*D5
 70
     1
 71
     0
 10
0.0
 20
0.0
 30
0.0
  3
*D5
  1

  0
LINE
  5
11916
330
EE28
100
AcDbEntity
  8
AM_5
 62
     3
370
    13
100
AcDbLine
 10
64.99999999999983
 20
76.4999999999998
 30
0.0
 11
123.9899171987324
 21
76.49999999999979
 31
0.0
  0
LINE
  5
11917
330
EE28
100
AcDbEntity
  8
AM_5
 62
     3
370
    13
100
AcDbLine
 10
64.99999999999977
 20
13.49999999999977
 30
0.0
 11
123.9899171987324
 21
13.49999999999976
 31
0.0
  0
LINE
  5
11918
330
EE28
100
AcDbEntity
  8
AM_5
 62
     3
370
    13
100
AcDbLine
 10
122.9899171987324
 20
73.99999999999979
 30
0.0
 11
122.9899171987324
 21
15.99999999999976
 31
0.0
  0
INSERT
  5
11919
330
EE28
100
AcDbEntity
  8
AM_5
 62
     3
370
    13
100
AcDbBlockReference
  2
_Open30
 10
122.9899171987324
 20
76.49999999999979
 30
0.0
 41
2.5
 42
2.5
 43
2.5
 50
90.0
  0
INSERT
  5
1191A
330
EE28
100
AcDbEntity
  8
AM_5
 62
     3
370
    13
100
AcDbBlockReference
  2
_Open30
 10
122.9899171987324
 20
13.49999999999976
 30
0.0
 41
2.5
 42
2.5
 43
2.5
 50
270.0
  0
MTEXT
  5
1191B
330
EE28
100
AcDbEntity
  8
AM_5
 62
     2
100
AcDbMText
 10
119.5899171987324
 20
44.99999999999979
 30
0.0
 40
3.8
 41
0.0
 71
     5
 72
     1
  1
%%c63
 11
6.123031769111886E-17
 21
1.0
 31
0.0
 73
     1
 44
1.0
  0
POINT
  5
1191C
330
EE28
100
AcDbEntity
  8
Defpoints
 62
     0
100
AcDbPoint
 10
64.99999999999983
 20
76.4999999999998
 30
0.0
  0
POINT
  5
1191D
330
EE28
100
AcDbEntity
  8
Defpoints
 62
     0
100
AcDbPoint
 10
64.99999999999977
 20
13.49999999999977
 30
0.0
  0
POINT
  5
1191E
330
EE28
100
AcDbEntity
  8
Defpoints
 62
     0
100
AcDbPoint
 10
122.9899171987324
 20
13.49999999999976
 30
0.0
  0
ENDBLK
  5
F043
330
EE28
100
AcDbEntity
  8
0
100
AcDbBlockEnd
  0
BLOCK
  5
F068
330
EEED
100
AcDbEntity
  8
0
100
AcDbBlockBegin
  2
*D6
 70
     1
 71
     0
 10
0.0
 20
0.0
 30
0.0
  3
*D6
  1

  0
LINE
  5
1191F
330
EEED
100
AcDbEntity
  8
AM_5
 62
     3
370
    13
100
AcDbLine
 10
0.0
 20
0.0
 30
0.0
 11
-13.00000101000002
 21
0.0000000000000037
 31
0.0
  0
LINE
  5
11920
330
EEED
100
AcDbEntity
  8
AM_5
 62
     3
370
    13
100
AcDbLine
 10
8.397513830329217
 20
44.99999999999983
 30
0.0
 11
-13.00000101000001
 21
44.99999999999983
 31
0.0
  0
LINE
  5
11921
330
EEED
100
AcDbEntity
  8
AM_5
 62
     3
370
    13
100
AcDbLine
 10
-12.00000101000002
 20
2.500000000000004
 30
0.0
 11
-12.00000101000001
 21
42.49999999999983
 31
0.0
  0
INSERT
  5
11922
330
EEED
100
AcDbEntity
  8
AM_5
 62
     3
370
    13
100
AcDbBlockReference
  2
_Open30
 10
-12.00000101000002
 20
0.0000000000000034
 30
0.0
 41
2.5
 42
2.5
 43
2.5
 50
270.0
  0
INSERT
  5
11923
330
EEED
100
AcDbEntity
  8
AM_5
 62
     3
370
    13
100
AcDbBlockReference
  2
_Open30
 10
-12.00000101000001
 20
44.99999999999983
 30
0.0
 41
2.5
 42
2.5
 43
2.5
 50
90.0
  0
MTEXT
  5
11924
330
EEED
100
AcDbEntity
  8
AM_5
 62
     2
100
AcDbMText
 10
-15.40000101000002
 20
22.49999999999992
 30
0.0
 40
3.8
 41
0.0
 71
     5
 72
     1
  1
45
 11
6.123031769111886E-17
 21
1.0
 31
0.0
 73
     1
 44
1.0
  0
POINT
  5
11925
330
EEED
100
AcDbEntity
  8
Defpoints
 62
     0
100
AcDbPoint
 10
0.0
 20
0.0
 30
0.0
  0
POINT
  5
11926
330
EEED
100
AcDbEntity
  8
Defpoints
 62
     0
100
AcDbPoint
 10
8.397513830329217
 20
44.99999999999983
 30
0.0
  0
POINT
  5
11927
330
EEED
100
AcDbEntity
  8
Defpoints
 62
     0
100
AcDbPoint
 10
-12.00000101000001
 20
44.99999999999983
 30
0.0
  0
ENDBLK
  5
F069
330
EEED
100
AcDbEntity
  8
0
100
AcDbBlockEnd
  0
BLOCK
  5
F06A
330
EEF7
100
AcDbEntity
  8
0
100
AcDbBlockBegin
  2
*D7
 70
     1
 71
     0
 10
0.0
 20
0.0
 30
0.0
  3
*D7
  1

  0
LINE
  5
11928
330
EEF7
100
AcDbEntity
  8
AM_5
 62
     3
370
    13
100
AcDbLine
 10
0.0
 20
-0.518359197934255
 30
0.0
 11
-0.0000000000000018
 21
-22.21692870426706
 31
0.0
  0
LINE
  5
11929
330
EEF7
100
AcDbEntity
  8
AM_5
 62
     3
370
    13
100
AcDbLine
 10
13.64880298740058
 20
6.586757916784618
 30
0.0
 11
19.24686621658441
 21
9.500925180805453
 31
0.0
  0
ARC
  5
1192A
330
EEF7
100
AcDbEntity
  8
AM_5
 62
     3
370
    13
100
AcDbCircle
 10
0.0
 20
-0.518359197934255
 30
0.0
 40
20.6985695063328
100
AcDbArc
 50
276.9244716826023
 51
20.5755283174172
  0
INSERT
  5
1192B
330
EEF7
100
AcDbEntity
  8
AM_5
 62
     3
370
    13
100
AcDbBlockReference
  2
_Open30
 10
-0.0000000000000018
 20
-21.21692870426706
 30
0.0
 41
2.5
 42
2.5
 43
2.5
 50
183.4622358413011
  0
INSERT
  5
1192C
330
EEF7
100
AcDbEntity
  8
AM_5
 62
     3
370
    13
100
AcDbBlockReference
  2
_Open30
 10
18.35985538340634
 20
9.039176567570118
 30
0.0
 41
2.5
 42
2.5
 43
2.5
 50
114.0377641587183
  0
MTEXT
  5
1192D
330
EEF7
100
AcDbEntity
  8
AM_5
 62
     2
100
AcDbMText
 10
14.78875241662649
 20
-9.49239446224825
 30
0.0
 40
3.8
 41
0.0
 71
     5
 72
     1
  1
117°30'
 11
0.5187732581603759
 21
0.8549118706730349
 31
0.0
 73
     1
 44
1.0
  0
POINT
  5
1192E
330
EEF7
100
AcDbEntity
  8
Defpoints
 62
     0
100
AcDbPoint
 10
13.07276840313163
 20
-16.56620970467108
 30
0.0
  0
POINT
  5
1192F
330
EEF7
100
AcDbEntity
  8
Defpoints
 62
     0
100
AcDbPoint
 10
1.16939889058699
 20
0.0903913334576031
 30
0.0
  0
POINT
  5
11930
330
EEF7
100
AcDbEntity
  8
Defpoints
 62
     0
100
AcDbPoint
 10
-0.0000000000000001
 20
0.8000000000000114
 30
0.0
  0
POINT
  5
11931
330
EEF7
100
AcDbEntity
  8
Defpoints
 62
     0
100
AcDbPoint
 10
0.0
 20
0.0
 30
0.0
  0
POINT
  5
11932
330
EEF7
100
AcDbEntity
  8
Defpoints
 62
     0
100
AcDbPoint
 10
13.64880298740058
 20
6.586757916784618
 30
0.0
  0
ENDBLK
  5
F06B
330
EEF7
100
AcDbEntity
  8
0
100
AcDbBlockEnd
  0
ENDSEC
  0
SECTION
  2
ENTITIES
  0
LINE
  5
EB24
330
1F
100
AcDbEntity
  8
AM_0
100
AcDbLine
 10
45.26684821631335
 20
71.4999999999998
 30
0.0
 11
46.12499999999983
 21
71.49999999999977
 31
0.0
  0
LINE
  5
EB25
330
1F
100
AcDbEntity
  8
AM_0
100
AcDbLine
 10
47.87499999999983
 20
71.49999999999977
 30
0.0
 11
46.12499999999983
 21
71.49999999999977
 31
0.0
  0
LINE
  5
EB26
330
1F
100
AcDbEntity
  8
AM_0
100
AcDbLine
 10
47.87499999999983
 20
71.49999999999977
 30
0.0
 11
48.73315178368631
 21
71.49999999999977
 31
0.0
  0
LINE
  5
EB27
330
1F
100
AcDbEntity
  8
AM_0
100
AcDbLine
 10
43.62250092524101
 20
75.18691769624712
 30
0.0
 11
38.99999999999983
 21
75.18691769624712
 31
0.0
  0
SPLINE
  5
EB28
330
1F
100
AcDbEntity
  8
AM_0
100
AcDbSpline
210
0.0
220
0.0
230
1.0
 70
    12
 71
     2
 72
     6
 73
     3
 74
     0
 42
0.0000000001
 43
0.0000000001
 40
0.0
 40
0.0
 40
0.0
 40
3.113143699890185
 40
3.113143699890185
 40
3.113143699890185
 10
45.12499999999983
 20
72.4603534582682
 30
0.0
 41
1.0
 10
44.40928258898282
 20
73.76489463188591
 30
0.0
 41
1.001020531935521
 10
43.62250092524101
 20
75.18691769624712
 30
0.0
 41
1.0
  0
ARC
  5
EB29
330
1F
100
AcDbEntity
  8
AM_0
100
AcDbCircle
 10
46.22706381456811
 20
72.04086158464884
 30
0.0
 40
1.102064085650231
100
AcDbArc
 50
179.9598130706537
 51
209.3912990857467
  0
ARC
  5
EB2A
330
1F
100
AcDbEntity
  8
AM_0
100
AcDbCircle
 10
46.18393985425405
 20
17.65110041371804
 30
0.0
 40
1.058952913756587
100
AcDbArc
 50
126.7129507495303
 51
180.2845529351275
  0
SPLINE
  5
EB2B
330
1F
100
AcDbEntity
  8
AM_0
100
AcDbSpline
210
0.0
220
0.0
230
1.0
 70
    12
 71
     2
 72
     6
 73
     3
 74
     0
 42
0.0000000001
 43
0.0000000001
 40
0.0004629399900766
 40
0.0004629399900766
 40
0.0004629399900766
 40
3.089518613366919
 40
3.089518613366919
 40
3.089518613366919
 10
43.62250092524101
 20
14.53280452683586
 30
0.0
 41
1.00000029977658
 10
44.40856857019367
 20
15.94046729198863
 30
0.0
 41
1.001000308211577
 10
45.12499999999972
 20
17.23183455730123
 30
0.0
 41
1.00000032891449
  0
LINE
  5
EB2C
330
1F
100
AcDbEntity
  8
AM_0
100
AcDbLine
 10
38.99999999999977
 20
14.53280452683595
 30
0.0
 11
43.62250092524096
 21
14.53280452683592
 31
0.0
  0
LINE
  5
EB2D
330
1F
100
AcDbEntity
  8
AM_0
100
AcDbLine
 10
47.87499999999977
 20
18.49999999999977
 30
0.0
 11
48.44910893214706
 21
18.49999999999977
 31
0.0
  0
LINE
  5
EB2E
330
1F
100
AcDbEntity
  8
AM_0
100
AcDbLine
 10
46.12499999999977
 20
18.49999999999977
 30
0.0
 11
47.87499999999977
 21
18.49999999999977
 31
0.0
  0
LINE
  5
EB2F
330
1F
100
AcDbEntity
  8
AM_0
100
AcDbLine
 10
45.5508910678534
 20
18.4999999999998
 30
0.0
 11
46.12499999999977
 21
18.49999999999977
 31
0.0
  0
ARC
  5
EB30
330
1F
100
AcDbEntity
  8
AM_0
100
AcDbCircle
 10
75.17513183672492
 20
92.37263673449687
 30
0.0
 40
23.9594551963814
100
AcDbArc
 50
256.2984766703751
 51
277.9767128774108
  0
ARC
  5
EB31
330
1F
100
AcDbEntity
  8
AM_0
100
AcDbCircle
 10
75.17513183672486
 20
-2.372636734497291
 30
0.0
 40
23.95945519638139
100
AcDbArc
 50
82.02328712258925
 51
103.7015233296248
  0
SPLINE
  5
EB32
330
1F
100
AcDbEntity
  8
AM_0
100
AcDbSpline
210
0.0
220
0.0
230
1.0
 70
     8
 71
     3
 72
     8
 73
     4
 74
     0
 42
0.0000000001
 43
0.0000000001
 40
2.048349944607707
 40
2.048349944607707
 40
2.048349944607707
 40
2.048349944607707
 40
2.082808961106547
 40
2.082808961106547
 40
2.082808961106547
 40
2.082808961106547
 10
96.99955494773872
 20
24.70416933260162
 30
0.0
 10
96.99985439282114
 20
24.71593667857428
 30
0.0
 10
96.99999999999977
 20
24.72757773573153
 30
0.0
 10
96.99999999999977
 20
24.73906407456502
 30
0.0
  0
SPLINE
  5
EB33
330
1F
100
AcDbEntity
  8
AM_0
100
AcDbSpline
210
0.0
220
0.0
230
1.0
 70
     8
 71
     3
 72
     8
 73
     4
 74
     0
 42
0.0000000001
 43
0.0000000001
 40
5.80931992843316
 40
5.80931992843316
 40
5.80931992843316
 40
5.80931992843316
 40
5.823322112792894
 40
5.823322112792894
 40
5.823322112792894
 40
5.823322112792894
 10
96.99999999999983
 20
65.28191457645221
 30
0.0
 10
96.99999999999983
 20
65.28658197123855
 30
0.0
 10
96.99997593866448
 20
65.29127491188024
 30
0.0
 10
96.99992720870961
 20
65.29599149296678
 30
0.0
  0
SPLINE
  5
EB34
330
1F
100
AcDbEntity
  8
AM_0
100
AcDbSpline
210
0.0
220
0.0
230
1.0
 70
     8
 71
     3
 72
    16
 73
    12
 74
     0
 42
0.0000000001
 43
0.0000000001
 40
-1.965007727733835
 40
-1.965007727733835
 40
-1.965007727733835
 40
-1.965007727733835
 40
-1.602152014354634
 40
-1.602152014354634
 40
-0.9617068588456064
 40
-0.9617068588456064
 40
-0.4733245765258282
 40
-0.4733245765258282
 40
-0.1927584624124154
 40
-0.1927584624124154
 40
-0.0001921708555565
 40
-0.0001921708555565
 40
-0.0001921708555565
 40
-0.0001921708555565
 10
96.99992720870961
 20
65.29616059051273
 30
0.0
 10
96.99854979675712
 20
65.38573514765699
 30
0.0
 10
96.9777411960502
 20
65.46895818018925
 30
0.0
 10
96.86880090606684
 20
65.67167276063424
 30
0.0
 10
96.74984921728338
 20
65.75496673622979
 30
0.0
 10
96.50527917454548
 20
65.83981341560843
 30
0.0
 10
96.38832138890467
 20
65.85632464283276
 30
0.0
 10
96.20169733385939
 20
65.86802084104124
 30
0.0
 10
96.12473025808032
 20
65.86965914293501
 30
0.0
 10
95.98414568702975
 20
65.87031290871778
 30
0.0
 10
95.92359146112614
 20
65.87008831058461
 30
0.0
 10
95.85992514033279
 20
65.86999999999966
 30
0.0
  0
SPLINE
  5
EB35
330
1F
100
AcDbEntity
  8
AM_0
100
AcDbSpline
210
0.0
220
0.0
230
1.0
 70
     8
 71
     3
 72
    16
 73
    12
 74
     0
 42
0.0000000001
 43
0.0000000001
 40
-4.40429224599759
 40
-4.40429224599759
 40
-4.40429224599759
 40
-4.40429224599759
 40
-4.141910802677585
 40
-4.141910802677585
 40
-3.871634509130126
 40
-3.871634509130126
 40
-3.14310442813097
 40
-3.14310442813097
 40
-2.420961954899249
 40
-2.420961954899249
 40
-1.953365045766561
 40
-1.953365045766561
 40
-1.953365045766561
 40
-1.953365045766561
 10
95.85992514033273
 20
24.12999999999988
 30
0.0
 10
95.92828490220177
 20
24.13007661982988
 30
0.0
 10
95.99324329136266
 20
24.13027388954083
 30
0.0
 10
96.11764729092897
 20
24.13221375407352
 30
0.0
 10
96.17686423590999
 20
24.13407555933441
 30
0.0
 10
96.37743886598923
 20
24.146183740472
 30
0.0
 10
96.52105090558302
 20
24.16719740006533
 30
0.0
 10
96.76952751202475
 20
24.26981595607936
 30
0.0
 10
96.86902564178649
 20
24.34886348473788
 30
0.0
 10
96.97133516995723
 20
24.52767990632378
 30
0.0
 10
96.99598991728703
 20
24.61045606364837
 30
0.0
 10
96.99955494773872
 20
24.70404831686187
 30
0.0
  0
ARC
  5
EB36
330
1F
100
AcDbEntity
  8
AM_0
100
AcDbCircle
 10
47.77293618543155
 20
72.04086158464884
 30
0.0
 40
1.102064085651275
100
AcDbArc
 50
330.6087009142617
 51
0.0401869293332346
  0
SPLINE
  5
EB37
330
1F
100
AcDbEntity
  8
AM_0
100
AcDbSpline
210
0.0
220
0.0
230
1.0
 70
    12
 71
     2
 72
     6
 73
     3
 74
     0
 42
0.0000000001
 43
0.0000000001
 40
0.0
 40
0.0
 40
0.0
 40
3.113143699890207
 40
3.113143699890207
 40
3.113143699890207
 10
50.37749907475956
 20
75.18691769624709
 30
0.0
 41
1.0
 10
49.59071741102866
 20
73.76489463190663
 30
0.0
 41
1.001020531934115
 10
48.87499999999983
 20
72.46035345826817
 30
0.0
 41
1.0
  0
LINE
  5
EB38
330
1F
100
AcDbEntity
  8
AM_0
100
AcDbLine
 10
50.99999999999983
 20
75.18691769624709
 30
0.0
 11
50.37749907475956
 21
75.18691769624709
 31
0.0
  0
ARC
  5
EB39
330
1F
100
AcDbEntity
  8
AM_0
100
AcDbCircle
 10
50.76270651493888
 20
108.3133514387835
 30
0.0
 40
33.12728362991341
100
AcDbArc
 50
270.4104179389327
 51
286.1911316600853
  0
ARC
  5
EB3A
330
1F
100
AcDbEntity
  8
AM_0
100
AcDbCircle
 10
47.8160601457455
 20
17.65110041371713
 30
0.0
 40
1.058952913757433
100
AcDbArc
 50
359.7154470648854
 51
53.28704925043718
  0
SPLINE
  5
EB3B
330
1F
100
AcDbEntity
  8
AM_0
100
AcDbSpline
210
0.0
220
0.0
230
1.0
 70
     8
 71
     3
 72
     8
 73
     4
 74
     0
 42
0.0000000001
 43
0.0000000001
 40
1.776340743961663
 40
1.776340743961663
 40
1.776340743961663
 40
1.776340743961663
 40
2.063575594279487
 40
2.063575594279487
 40
2.063575594279487
 40
2.063575594279487
 10
48.87499999999977
 20
24.69605949575339
 30
0.0
 10
48.87499999999977
 20
24.79180444585904
 30
0.0
 10
48.86761371479656
 20
24.89655484404261
 30
0.0
 10
48.85145332982643
 20
24.99999999999977
 30
0.0
  0
LINE
  5
EB3C
330
1F
100
AcDbEntity
  8
AM_0
100
AcDbLine
 10
48.85145332982643
 20
24.99999999999977
 30
0.0
 11
48.87499999999977
 21
24.99999999999977
 31
0.0
  0
ARC
  5
EB3D
330
1F
100
AcDbEntity
  8
AM_0
100
AcDbCircle
 10
46.16467654777512
 20
27.48690524048629
 30
0.0
 40
6.647400590745968
100
AcDbArc
 50
201.9697455278659
 51
247.5156208110631
  0
LINE
  5
EB3E
330
1F
100
AcDbEntity
  8
AM_0
100
AcDbLine
 10
39.99999999999977
 20
24.99999999999983
 30
0.0
 11
43.62250092524096
 21
24.9999999999998
 31
0.0
  0
LINE
  5
EB3F
330
1F
100
AcDbEntity
  8
AM_0
100
AcDbLine
 10
43.62250092524096
 20
24.9999999999998
 30
0.0
 11
45.12499999999977
 21
24.9999999999998
 31
0.0
  0
LINE
  5
EB40
330
1F
100
AcDbEntity
  8
AM_0
100
AcDbLine
 10
45.12499999999977
 20
24.9999999999998
 30
0.0
 11
45.12572598845941
 21
24.9999999999998
 31
0.0
  0
SPLINE
  5
EB41
330
1F
100
AcDbEntity
  8
AM_0
100
AcDbSpline
210
0.0
220
0.0
230
1.0
 70
     8
 71
     3
 72
     8
 73
     4
 74
     0
 42
0.0000000001
 43
0.0000000001
 40
-1.94204761059973
 40
-1.94204761059973
 40
-1.94204761059973
 40
-1.94204761059973
 40
-1.894302822527507
 40
-1.894302822527507
 40
-1.894302822527507
 40
-1.894302822527507
 10
45.12572598845941
 20
24.9999999999998
 30
0.0
 10
45.12524096384982
 20
24.98202157333597
 30
0.0
 10
45.12499999999977
 20
24.96402092520455
 30
0.0
 10
45.12499999999977
 20
24.94600807601435
 30
0.0
  0
LINE
  5
EB42
330
1F
100
AcDbEntity
  8
AM_0
100
AcDbLine
 10
50.3774990747595
 20
14.53280452683589
 30
0.0
 11
51.99999999999977
 21
14.53280452683589
 31
0.0
  0
SPLINE
  5
EB43
330
1F
100
AcDbEntity
  8
AM_0
100
AcDbSpline
210
0.0
220
0.0
230
1.0
 70
    12
 71
     2
 72
     6
 73
     3
 74
     0
 42
0.0000000001
 43
0.0000000001
 40
0.0
 40
0.0
 40
0.0
 40
3.089056677703773
 40
3.089056677703773
 40
3.089056677703773
 10
48.87499999999977
 20
17.23183455730191
 30
0.0
 41
1.0
 10
49.59143142978564
 20
15.94046729202614
 30
0.0
 41
1.000999993556015
 10
50.3774990747595
 20
14.53280452683589
 30
0.0
 41
1.0
  0
ARC
  5
EB44
330
1F
100
AcDbEntity
  8
AM_0
100
AcDbCircle
 10
51.83576962509483
 20
-18.23930744120866
 30
0.0
 40
32.77252346802263
100
AcDbArc
 50
75.57466508419904
 51
89.71287695489545
  0
SPLINE
  5
EB45
330
1F
100
AcDbEntity
  8
AM_0
100
AcDbSpline
210
0.0
220
0.0
230
1.0
 70
    12
 71
     2
 72
     6
 73
     3
 74
     0
 42
0.0000000001
 43
0.0000000001
 40
0.0
 40
0.0
 40
0.0
 40
3.788582771409939
 40
3.788582771409939
 40
3.788582771409939
 10
50.3774990747595
 20
20.66381295272436
 30
0.0
 41
1.0
 10
49.5684390397661
 20
22.47765470838368
 30
0.0
 41
1.001661993538315
 10
48.87499999999977
 20
24.1416440711871
 30
0.0
 41
1.0
  0
LINE
  5
EB46
330
1F
100
AcDbEntity
  8
AM_0
100
AcDbLine
 10
48.87499999999977
 20
24.99999999999977
 30
0.0
 11
50.3774990747595
 21
24.99999999999977
 31
0.0
  0
LINE
  5
EB47
330
1F
100
AcDbEntity
  8
AM_0
100
AcDbLine
 10
48.87499999999977
 20
24.1416440711871
 30
0.0
 11
48.87499999999977
 21
24.69605949575339
 31
0.0
  0
LINE
  5
EB48
330
1F
100
AcDbEntity
  8
AM_0
100
AcDbLine
 10
45.12499999999977
 20
24.94600807601435
 30
0.0
 11
45.12499999999977
 21
24.38486953375448
 31
0.0
  0
ARC
  5
EB49
330
1F
100
AcDbEntity
  8
AM_0
100
AcDbCircle
 10
-8.380140007798445
 20
48.93761795919527
 30
0.0
 40
58.86966504488657
100
AcDbArc
 50
332.0494046668653
 51
335.3502823397773
  0
ARC
  5
EB4A
330
1F
100
AcDbEntity
  8
AM_0
100
AcDbCircle
 10
53.36228254564026
 20
27.88641864247234
 30
0.0
 40
7.238142412492669
100
AcDbArc
 50
266.2452459749702
 51
336.4981347158563
  0
LINE
  5
EB4B
330
1F
100
AcDbEntity
  8
AM_0
100
AcDbLine
 10
50.3774990747595
 20
24.99999999999977
 30
0.0
 11
59.99999999999977
 21
24.99999999999977
 31
0.0
  0
LINE
  5
EB4C
330
1F
100
AcDbEntity
  8
AM_0
100
AcDbLine
 10
52.88828609634379
 20
20.66381295272436
 30
0.0
 11
50.3774990747595
 21
20.66381295272436
 31
0.0
  0
LINE
  5
EB4D
330
1F
100
AcDbEntity
  8
AM_0
100
AcDbLine
 10
90.99999999999977
 20
24.12999999999988
 30
0.0
 11
95.85992514033273
 21
24.12999999999988
 31
0.0
  0
LINE
  5
EB4E
330
1F
100
AcDbEntity
  8
AM_0
100
AcDbLine
 10
86.99999999999983
 20
65.86999999999966
 30
0.0
 11
95.85992514033279
 21
65.86999999999966
 31
0.0
  0
LINE
  5
EB4F
330
1F
100
AcDbEntity
  8
AM_11
  6
ACJISTGB
100
AcDbLine
 10
95.85992514033251
 20
22.22299625701692
 30
0.0
 11
90.99999999999977
 21
21.98000000000025
 31
0.0
  0
LINE
  5
EB50
330
1F
100
AcDbEntity
  8
AM_0
100
AcDbLine
 10
69.49999999999977
 20
20.90499999999952
 30
0.0
 11
64.99999999999977
 21
20.68000000000006
 31
0.0
  0
LINE
  5
EB51
330
1F
100
AcDbEntity
  8
AM_11
  6
ACJISTGB
100
AcDbLine
 10
95.85992514033268
 20
67.7770037429832
 30
0.0
 11
86.99999999999983
 21
68.22000000000003
 31
0.0
  0
LINE
  5
EB52
330
1F
100
AcDbEntity
  8
AM_0
100
AcDbLine
 10
69.49999999999983
 20
69.09500000000003
 30
0.0
 11
64.99999999999983
 21
69.32000000000039
 31
0.0
  0
LINE
  5
EB53
330
1F
100
AcDbEntity
  8
AM_0
100
AcDbLine
 10
64.99999999999977
 20
13.49999999999977
 30
0.0
 11
59.99999999999977
 21
13.49999999999977
 31
0.0
  0
LINE
  5
EB54
330
1F
100
AcDbEntity
  8
AM_0
100
AcDbLine
 10
64.99999999999983
 20
76.4999999999998
 30
0.0
 11
59.99999999999983
 21
76.4999999999998
 31
0.0
  0
LINE
  5
EB56
330
1F
100
AcDbEntity
  8
AM_11
  6
ACJISTGB
100
AcDbLine
 10
96.99999999999983
 20
66.57850093632965
 30
0.0
 11
96.99999999999983
 21
65.28895312868838
 31
0.0
  0
LINE
  5
EB57
330
1F
100
AcDbEntity
  8
AM_0
100
AcDbLine
 10
90.99999999999977
 20
24.12999999999988
 30
0.0
 11
90.99999999999977
 21
21.98000000000025
 31
0.0
  0
LINE
  5
EB58
330
1F
100
AcDbEntity
  8
AM_0
100
AcDbLine
 10
86.99999999999983
 20
68.22000000000003
 30
0.0
 11
86.99999999999983
 21
65.86999999999966
 31
0.0
  0
LINE
  5
EB59
330
1F
100
AcDbEntity
  8
AM_0
100
AcDbLine
 10
47.87499999999983
 20
71.49999999999977
 30
0.0
 11
47.87499999999977
 21
18.49999999999977
 31
0.0
  0
LINE
  5
EB5A
330
1F
100
AcDbEntity
  8
AM_0
100
AcDbLine
 10
43.62250092524096
 20
21.34481457703603
 30
0.0
 11
43.62250092524096
 21
14.53280452683592
 31
0.0
  0
LINE
  5
EB5B
330
1F
100
AcDbEntity
  8
AM_0
100
AcDbLine
 10
43.62250092524101
 20
75.18691769624712
 30
0.0
 11
43.62250092524096
 21
24.9999999999998
 31
0.0
  0
LINE
  5
EB5C
330
1F
100
AcDbEntity
  8
AM_0
100
AcDbLine
 10
46.12499999999983
 20
71.49999999999977
 30
0.0
 11
46.12499999999977
 21
18.49999999999977
 31
0.0
  0
LINE
  5
EB5D
330
1F
100
AcDbEntity
  8
AM_0
100
AcDbLine
 10
45.12499999999983
 20
72.4603534582682
 30
0.0
 11
45.12499999999977
 21
24.9999999999998
 31
0.0
  0
LINE
  5
EB5E
330
1F
100
AcDbEntity
  8
AM_0
100
AcDbLine
 10
50.3774990747595
 20
20.66381295272436
 30
0.0
 11
50.3774990747595
 21
14.53280452683589
 31
0.0
  0
LINE
  5
EB5F
330
1F
100
AcDbEntity
  8
AM_0
100
AcDbLine
 10
48.87499999999977
 20
24.1416440711871
 30
0.0
 11
48.87499999999977
 21
17.23183455730191
 31
0.0
  0
LINE
  5
EB60
330
1F
100
AcDbEntity
  8
AM_0
100
AcDbLine
 10
48.87499999999983
 20
72.46035345826817
 30
0.0
 11
48.87499999999977
 21
24.99999999999977
 31
0.0
  0
LINE
  5
EB61
330
1F
100
AcDbEntity
  8
AM_0
100
AcDbLine
 10
50.37749907475956
 20
75.18691769624709
 30
0.0
 11
50.3774990747595
 21
24.99999999999977
 31
0.0
  0
LINE
  5
EB62
330
1F
100
AcDbEntity
  8
AM_0
100
AcDbLine
 10
45.12499999999977
 20
24.38486953375448
 30
0.0
 11
45.12499999999977
 21
17.23183455730194
 31
0.0
  0
LINE
  5
EB63
330
1F
100
AcDbEntity
  8
AM_0
100
AcDbLine
 10
64.99999999999983
 20
76.4999999999998
 30
0.0
 11
64.99999999999977
 21
13.49999999999977
 31
0.0
  0
ARC
  5
EB64
330
1F
100
AcDbEntity
  8
AM_0
100
AcDbCircle
 10
39.00000296306712
 20
-97.03062066037113
 30
0.0
 40
3.000002963068777
100
AcDbArc
 50
180.000056590357
 51
269.99994340963
  0
ARC
  5
EB65
330
1F
100
AcDbEntity
  8
AM_0
100
AcDbCircle
 10
39.00000296306712
 20
-87.03062658650582
 30
0.0
 40
3.000002963068682
100
AcDbArc
 50
90.00005659035688
 51
179.99994340963
  0
LINE
  5
EB66
330
1F
100
AcDbEntity
  8
AM_0
100
AcDbLine
 10
45.12499999999977
 20
-84.03062362343846
 30
0.0
 11
45.5508910678534
 21
-84.03062362343846
 31
0.0
  0
LINE
  5
EB67
330
1F
100
AcDbEntity
  8
AM_0
100
AcDbLine
 10
43.62250092524096
 20
-84.03062362343846
 30
0.0
 11
45.12499999999977
 21
-84.03062362343846
 31
0.0
  0
LINE
  5
EB68
330
1F
100
AcDbEntity
  8
AM_0
100
AcDbLine
 10
38.99999999999977
 20
-84.03062362343846
 30
0.0
 11
43.62250092524096
 21
-84.03062362343846
 31
0.0
  0
SPLINE
  5
EB69
330
1F
100
AcDbEntity
  8
AM_0
100
AcDbSpline
210
0.0
220
0.0
230
1.0
 70
     8
 71
     3
 72
    16
 73
    12
 74
     0
 42
0.0000000001
 43
0.0000000001
 40
5.956346460088473
 40
5.956346460088473
 40
5.956346460088473
 40
5.956346460088473
 40
6.062495147234408
 40
6.062495147234408
 40
6.202228077623816
 40
6.202228077623816
 40
6.481227230306896
 40
6.481227230306896
 40
6.760226382989976
 40
6.760226382989976
 40
6.821665582602051
 40
6.821665582602051
 40
6.821665582602051
 40
6.821665582602051
 10
46.12499999999977
 20
-99.3790928517885
 30
0.0
 10
46.0896171042848
 20
-99.3790928517885
 30
0.0
 10
46.04813229074421
 20
-99.38813814066108
 30
0.0
 10
45.97233621819646
 20
-99.41932283832941
 30
0.0
 10
45.92628912424766
 20
-99.45100424979611
 30
0.0
 10
45.82188818054488
 20
-99.54364486002962
 30
0.0
 10
45.76196998417777
 20
-99.62438494391174
 30
0.0
 10
45.65693494041875
 20
-99.7967772673039
 30
0.0
 10
45.61211209848693
 20
-99.88860846640566
 30
0.0
 10
45.56676426349236
 20
-99.9926332692514
 30
0.0
 10
45.55874944121001
 20
-100.0115578002308
 30
0.0
 10
45.5508910678534
 20
-100.0306236234385
 30
0.0
  0
LINE
  5
EB6A
330
1F
100
AcDbEntity
  8
AM_0
100
AcDbLine
 10
47.87499999999977
 20
-99.3790928517885
 30
0.0
 11
46.12499999999977
 21
-99.3790928517885
 31
0.0
  0
SPLINE
  5
EB6B
330
1F
100
AcDbEntity
  8
AM_0
100
AcDbSpline
210
0.0
220
0.0
230
1.0
 70
     8
 71
     3
 72
    16
 73
    12
 74
     0
 42
0.0000000001
 43
0.0000000001
 40
5.091027337574894
 40
5.091027337574894
 40
5.091027337574894
 40
5.091027337574894
 40
5.15246653718697
 40
5.15246653718697
 40
5.43146568987005
 40
5.43146568987005
 40
5.71046484255313
 40
5.71046484255313
 40
5.850197772942538
 40
5.850197772942538
 40
5.956346460088473
 40
5.956346460088473
 40
5.956346460088473
 40
5.956346460088473
 10
48.44910893214706
 20
-100.0306236234385
 30
0.0
 10
48.44125055879044
 20
-100.0115578002308
 30
0.0
 10
48.4332357365081
 20
-99.9926332692514
 30
0.0
 10
48.38788790151352
 20
-99.88860846640566
 30
0.0
 10
48.3430650595808
 20
-99.7967772673039
 30
0.0
 10
48.23803001582269
 20
-99.62438494391174
 30
0.0
 10
48.17811181945558
 20
-99.54364486002962
 30
0.0
 10
48.07371087575189
 20
-99.45100424979611
 30
0.0
 10
48.02766378180399
 20
-99.41932283832941
 30
0.0
 10
47.95186770925534
 20
-99.38813814066108
 30
0.0
 10
47.91038289571566
 20
-99.3790928517885
 30
0.0
 10
47.87499999999977
 20
-99.3790928517885
 30
0.0
  0
SPLINE
  5
EB6C
330
1F
100
AcDbEntity
  8
AM_0
100
AcDbSpline
210
0.0
220
0.0
230
1.0
 70
     8
 71
     3
 72
    16
 73
    12
 74
     0
 42
0.0000000001
 43
0.0000000001
 40
5.956346460088472
 40
5.956346460088472
 40
5.956346460088472
 40
5.956346460088472
 40
6.062495147234407
 40
6.062495147234407
 40
6.202228077623815
 40
6.202228077623815
 40
6.481227230306895
 40
6.481227230306895
 40
6.760226382989975
 40
6.760226382989975
 40
6.821665582602113
 40
6.821665582602113
 40
6.821665582602113
 40
6.821665582602113
 10
47.87499999999977
 20
-84.68215439508933
 30
0.0
 10
47.91038289571566
 20
-84.68215439508933
 30
0.0
 10
47.95186770925534
 20
-84.67310910621674
 30
0.0
 10
48.02766378180399
 20
-84.64192440854842
 30
0.0
 10
48.07371087575189
 20
-84.61024299708171
 30
0.0
 10
48.17811181945558
 20
-84.51760238684821
 30
0.0
 10
48.23803001582269
 20
-84.43686230296609
 30
0.0
 10
48.3430650595808
 20
-84.26446997957393
 30
0.0
 10
48.38788790151352
 20
-84.17263878047217
 30
0.0
 10
48.4332357365081
 20
-84.06861397762552
 30
0.0
 10
48.44125055879044
 20
-84.04968944664708
 30
0.0
 10
48.44910893214706
 20
-84.03062362343846
 30
0.0
  0
LINE
  5
EB6D
330
1F
100
AcDbEntity
  8
AM_0
100
AcDbLine
 10
46.12499999999977
 20
-84.68215439508933
 30
0.0
 11
47.87499999999977
 21
-84.68215439508933
 31
0.0
  0
SPLINE
  5
EB6E
330
1F
100
AcDbEntity
  8
AM_0
100
AcDbSpline
210
0.0
220
0.0
230
1.0
 70
     8
 71
     3
 72
    16
 73
    12
 74
     0
 42
0.0000000001
 43
0.0000000001
 40
5.091027337574832
 40
5.091027337574832
 40
5.091027337574832
 40
5.091027337574832
 40
5.152466537186969
 40
5.152466537186969
 40
5.431465689870049
 40
5.431465689870049
 40
5.71046484255313
 40
5.71046484255313
 40
5.850197772942537
 40
5.850197772942537
 40
5.956346460088472
 40
5.956346460088472
 40
5.956346460088472
 40
5.956346460088472
 10
45.5508910678534
 20
-84.03062362343846
 30
0.0
 10
45.55874944121001
 20
-84.04968944664708
 30
0.0
 10
45.56676426349236
 20
-84.06861397762552
 30
0.0
 10
45.61211209848693
 20
-84.17263878047217
 30
0.0
 10
45.65693494041875
 20
-84.26446997957393
 30
0.0
 10
45.76196998417777
 20
-84.43686230296609
 30
0.0
 10
45.82188818054488
 20
-84.51760238684821
 30
0.0
 10
45.92628912424766
 20
-84.61024299708171
 30
0.0
 10
45.97233621819646
 20
-84.64192440854842
 30
0.0
 10
46.04813229074421
 20
-84.67310910621674
 30
0.0
 10
46.0896171042848
 20
-84.68215439508933
 30
0.0
 10
46.12499999999977
 20
-84.68215439508933
 30
0.0
  0
LINE
  5
EB6F
330
1F
100
AcDbEntity
  8
AM_0
100
AcDbLine
 10
43.62250092524096
 20
-100.0306236234385
 30
0.0
 11
38.99999999999977
 21
-100.0306236234385
 31
0.0
  0
LINE
  5
EB70
330
1F
100
AcDbEntity
  8
AM_0
100
AcDbLine
 10
43.62250092524096
 20
-100.0306236234385
 30
0.0
 11
45.12499999999977
 21
-100.0306236234385
 31
0.0
  0
LINE
  5
EB71
330
1F
100
AcDbEntity
  8
AM_0
100
AcDbLine
 10
45.12499999999977
 20
-100.0306236234385
 30
0.0
 11
45.5508910678534
 21
-100.0306236234385
 31
0.0
  0
ARC
  5
EB72
330
1F
100
AcDbEntity
  8
AM_0
100
AcDbCircle
 10
57.9611987334863
 20
-155.1170635508272
 30
0.0
 40
31.98582038169304
100
AcDbArc
 50
80.93630643191753
 51
89.930495784383
  0
ARC
  5
EB73
330
1F
100
AcDbEntity
  8
AM_0
100
AcDbCircle
 10
58.03880126651416
 20
-155.1170635508245
 30
0.0
 40
31.98582038169042
100
AcDbArc
 50
90.06950421560396
 51
99.06369356809559
  0
ARC
  5
EB74
330
1F
100
AcDbEntity
  8
AM_0
100
AcDbCircle
 10
73.99999999999977
 20
-92.03062362343849
 30
0.0
 40
4.499999999999965
100
AcDbArc
 50
228.8076280850552
 51
131.1923719149448
  0
ARC
  5
EB75
330
1F
100
AcDbEntity
  8
AM_0
100
AcDbCircle
 10
74.00000000252726
 20
-92.03062362343849
 30
0.0
 40
4.500000001664618
100
AcDbArc
 50
131.1923719391818
 51
228.8076280608183
  0
CIRCLE
  5
EB76
330
1F
100
AcDbEntity
  8
AM_0
100
AcDbCircle
 10
73.99999999999977
 20
-92.03062362343849
 30
0.0
 40
4.500000000000006
  0
LINE
  5
EB77
330
1F
100
AcDbEntity
  8
AM_0
100
AcDbLine
 10
94.99999999999977
 20
-85.81812362343884
 30
0.0
 11
96.99999999999977
 21
-84.66342308505976
 31
0.0
  0
LINE
  5
EB78
330
1F
100
AcDbEntity
  8
AM_0
100
AcDbLine
 10
94.99999999999977
 20
-98.24312362343902
 30
0.0
 11
92.49999999999977
 21
-98.24312362343902
 31
0.0
  0
LINE
  5
EB79
330
1F
100
AcDbEntity
  8
AM_0
100
AcDbLine
 10
92.49999999999977
 20
-85.81812362343884
 30
0.0
 11
94.99999999999977
 21
-85.81812362343884
 31
0.0
  0
LINE
  5
EB7A
330
1F
100
AcDbEntity
  8
AM_0
100
AcDbLine
 10
96.99955494773872
 20
-84.60618003610237
 30
0.0
 11
96.99999999999977
 21
-84.60592308505987
 31
0.0
  0
LINE
  5
EB7B
330
1F
100
AcDbEntity
  8
AM_0
100
AcDbLine
 10
94.99999999999977
 20
-98.24312362343902
 30
0.0
 11
96.99999999999977
 21
-99.39782416181809
 31
0.0
  0
LINE
  5
EB7C
330
1F
100
AcDbEntity
  8
AM_0
100
AcDbLine
 10
96.99955494773872
 20
-99.45506721077548
 30
0.0
 11
96.99999999999977
 21
-99.45532416181798
 31
0.0
  0
SPLINE
  5
EB7D
330
1F
100
AcDbEntity
  8
AM_0
100
AcDbSpline
210
0.0
220
0.0
230
1.0
 70
     8
 71
     3
 72
    16
 73
    12
 74
     0
 42
0.0000000001
 43
0.0000000001
 40
-1.936088707179519
 40
-1.936088707179519
 40
-1.936088707179519
 40
-1.936088707179519
 40
-1.618608641566384
 40
-1.618608641566384
 40
-0.9853554418149393
 40
-0.9853554418149393
 40
-0.4905148334691103
 40
-0.4905148334691103
 40
-0.2011422780024802
 40
-0.2011422780024802
 40
-0.0002750058701333
 40
-0.0002750058701333
 40
-0.0002750058701333
 40
-0.0002750058701333
 10
96.99955494773872
 20
-99.45506721077548
 30
0.0
 10
96.99638357819526
 20
-99.56632277976426
 30
0.0
 10
96.97648266415376
 20
-99.68338334218355
 30
0.0
 10
96.8782639048884
 20
-100.0414017340129
 30
0.0
 10
96.76424596623178
 20
-100.2834974474065
 30
0.0
 10
96.52360551817378
 20
-100.664737950676
 30
0.0
 10
96.40574535383962
 20
-100.8130078890983
 30
0.0
 10
96.21507310574702
 20
-100.9908904859633
 30
0.0
 10
96.135619113649
 20
-101.0519754343406
 30
0.0
 10
95.98963459370384
 20
-101.124857389543
 30
0.0
 10
95.92638165503445
 20
-101.1460971564422
 30
0.0
 10
95.85992514033273
 20
-101.1542221837774
 30
0.0
  0
SPLINE
  5
EB7E
330
1F
100
AcDbEntity
  8
AM_0
100
AcDbSpline
210
0.0
220
0.0
230
1.0
 70
     8
 71
     3
 72
    16
 73
    12
 74
     0
 42
0.0000000001
 43
0.0000000001
 40
-4.40429224599759
 40
-4.40429224599759
 40
-4.40429224599759
 40
-4.40429224599759
 40
-4.141910802677585
 40
-4.141910802677585
 40
-3.871634509130126
 40
-3.871634509130126
 40
-3.14310442813097
 40
-3.14310442813097
 40
-2.420961954899249
 40
-2.420961954899249
 40
-1.953365045766561
 40
-1.953365045766561
 40
-1.953365045766561
 40
-1.953365045766561
 10
95.85992514033273
 20
-82.90702506310048
 30
0.0
 10
95.92828490220177
 20
-82.91538278297615
 30
0.0
 10
95.99324329136266
 20
-82.93761795880549
 30
0.0
 10
96.11764729092897
 20
-83.00094056141209
 30
0.0
 10
96.17686423590999
 20
-83.04256789584655
 30
0.0
 10
96.37743886598923
 20
-83.2103188620324
 30
0.0
 10
96.52105090558302
 20
-83.38784948219858
 30
0.0
 10
96.76952751202475
 20
-83.79134203498073
 30
0.0
 10
96.86902564178649
 20
-84.0068177174628
 30
0.0
 10
96.97133516995723
 20
-84.34899443060043
 30
0.0
 10
96.99598991728703
 20
-84.48111435519716
 30
0.0
 10
96.99955494773872
 20
-84.60618003610237
 30
0.0
  0
ARC
  5
EB7F
330
1F
100
AcDbEntity
  8
AM_0
100
AcDbCircle
 10
99.71738318951225
 20
-45.95992515232706
 30
0.0
 40
37.14792288160733
100
AcDbArc
 50
259.2369973264173
 51
264.0396343738103
  0
ARC
  5
EB80
330
1F
100
AcDbEntity
  8
AM_0
100
AcDbCircle
 10
99.71738318950861
 20
-138.1013220945235
 30
0.0
 40
37.14792288157967
100
AcDbArc
 50
95.96036562618968
 51
100.7630026735891
  0
LINE
  5
EB81
330
1F
100
AcDbEntity
  8
AM_0
100
AcDbLine
 10
48.87499999999977
 20
-100.0306236234385
 30
0.0
 11
50.3774990747595
 21
-100.0306236234385
 31
0.0
  0
LINE
  5
EB82
330
1F
100
AcDbEntity
  8
AM_0
100
AcDbLine
 10
48.44910893214706
 20
-100.0306236234385
 30
0.0
 11
48.87499999999977
 21
-100.0306236234385
 31
0.0
  0
LINE
  5
EB83
330
1F
100
AcDbEntity
  8
AM_0
100
AcDbLine
 10
48.44910893214706
 20
-84.03062362343846
 30
0.0
 11
48.87499999999977
 21
-84.03062362343846
 31
0.0
  0
LINE
  5
EB84
330
1F
100
AcDbEntity
  8
AM_0
100
AcDbLine
 10
48.85145332982643
 20
-72.03062362343846
 30
0.0
 11
48.87499999999977
 21
-72.03062362343846
 31
0.0
  0
SPLINE
  5
EB85
330
1F
100
AcDbEntity
  8
AM_0
100
AcDbSpline
210
0.0
220
0.0
230
1.0
 70
     8
 71
     3
 72
     8
 73
     4
 74
     0
 42
0.0000000001
 43
0.0000000001
 40
-2.06357559427948
 40
-2.06357559427948
 40
-2.06357559427948
 40
-2.06357559427948
 40
-1.776340743961663
 40
-1.776340743961663
 40
-1.776340743961663
 40
-1.776340743961663
 10
48.85145332982643
 20
-72.03062362343846
 30
0.0
 10
48.86761371479656
 20
-71.9271784674813
 30
0.0
 10
48.87499999999977
 20
-71.82242806929773
 30
0.0
 10
48.87499999999977
 20
-71.72668311919207
 30
0.0
  0
ARC
  5
EB86
330
1F
100
AcDbEntity
  8
AM_0
100
AcDbCircle
 10
47.11262327255986
 20
-64.02969179065916
 30
0.0
 40
8.001235164662798
100
AcDbArc
 50
207.2595688438588
 51
244.1384544096968
  0
LINE
  5
EB87
330
1F
100
AcDbEntity
  8
AM_0
100
AcDbLine
 10
39.99999999999977
 20
-67.69443657616306
 30
0.0
 11
43.62250092524096
 21
-67.69443657616306
 31
0.0
  0
SPLINE
  5
EB88
330
1F
100
AcDbEntity
  8
AM_0
100
AcDbSpline
210
0.0
220
0.0
230
1.0
 70
    12
 71
     2
 72
     6
 73
     3
 74
     0
 42
0.0000000001
 43
0.0000000001
 40
0.0
 40
0.0
 40
0.0
 40
3.788582771409915
 40
3.788582771409915
 40
3.788582771409915
 10
43.62250092524096
 20
-67.69443657616306
 30
0.0
 41
1.0
 10
44.43156096023341
 20
-69.50827833182319
 30
0.0
 41
1.001661993538562
 10
45.12499999999977
 20
-71.17226769462579
 30
0.0
 41
1.0
  0
SPLINE
  5
EB89
330
1F
100
AcDbEntity
  8
AM_0
100
AcDbSpline
210
0.0
220
0.0
230
1.0
 70
     8
 71
     3
 72
     8
 73
     4
 74
     0
 42
0.0000000001
 43
0.0000000001
 40
1.776340743961663
 40
1.776340743961663
 40
1.776340743961663
 40
1.776340743961663
 40
1.82900694760964
 40
1.82900694760964
 40
1.82900694760964
 40
1.82900694760964
 10
45.12499999999977
 20
-71.72668311919207
 30
0.0
 10
45.12499999999977
 20
-71.74423852040783
 30
0.0
 10
45.12523506934008
 20
-71.76209701547143
 30
0.0
 10
45.12572598845941
 20
-71.78019470838919
 30
0.0
  0
SPLINE
  5
EB8A
330
1F
100
AcDbEntity
  8
AM_0
100
AcDbSpline
210
0.0
220
0.0
230
1.0
 70
    24
 71
     3
 72
     8
 73
     4
 74
     0
 42
0.0000000001
 43
0.0000000001
 40
-1.94204761059973
 40
-1.94204761059973
 40
-1.94204761059973
 40
-1.94204761059973
 40
-1.894302822527507
 40
-1.894302822527507
 40
-1.894302822527507
 40
-1.894302822527507
 10
45.12572598845941
 20
-71.78019470838919
 30
0.0
 10
45.12524096384982
 20
-71.78007041079874
 30
0.0
 10
45.12499999999977
 20
-71.78000862258725
 30
0.0
 10
45.12499999999977
 20
-71.78000862258725
 30
0.0
  0
LINE
  5
EB8B
330
1F
100
AcDbEntity
  8
AM_0
100
AcDbLine
 10
45.12499999999977
 20
-71.17226769462579
 30
0.0
 11
45.12499999999977
 21
-71.72668311919207
 31
0.0
  0
LINE
  5
EB8C
330
1F
100
AcDbEntity
  8
AM_0
100
AcDbLine
 10
51.99999999999977
 20
-100.0306236234385
 30
0.0
 11
50.3774990747595
 21
-100.0306236234385
 31
0.0
  0
LINE
  5
EB8D
330
1F
100
AcDbEntity
  8
AM_0
100
AcDbLine
 10
50.3774990747595
 20
-84.03062362343846
 30
0.0
 11
51.99999999999977
 21
-84.03062362343846
 31
0.0
  0
LINE
  5
EB8E
330
1F
100
AcDbEntity
  8
AM_0
100
AcDbLine
 10
48.87499999999977
 20
-84.03062362343846
 30
0.0
 11
50.3774990747595
 21
-84.03062362343846
 31
0.0
  0
ARC
  5
EB8F
330
1F
100
AcDbEntity
  8
AM_0
100
AcDbCircle
 10
51.99999999999977
 20
-92.03062362343849
 30
0.0
 40
8.000000000000057
100
AcDbArc
 50
270.0
 51
90.0
  0
LINE
  5
EB90
330
1F
100
AcDbEntity
  8
AM_0
100
AcDbLine
 10
48.87499999999977
 20
-72.03062362343846
 30
0.0
 11
50.3774990747595
 21
-72.03062362343846
 31
0.0
  0
SPLINE
  5
EB91
330
1F
100
AcDbEntity
  8
AM_0
100
AcDbSpline
210
0.0
220
0.0
230
1.0
 70
    12
 71
     2
 72
     6
 73
     3
 74
     0
 42
0.0000000001
 43
0.0000000001
 40
0.0
 40
0.0
 40
0.0
 40
3.788582771409939
 40
3.788582771409939
 40
3.788582771409939
 10
48.87499999999977
 20
-71.17226769462579
 30
0.0
 41
1.0
 10
49.5684390397661
 20
-69.50827833182316
 30
0.0
 41
1.001661993538315
 10
50.3774990747595
 20
-67.69443657616306
 30
0.0
 41
1.0
  0
LINE
  5
EB92
330
1F
100
AcDbEntity
  8
AM_0
100
AcDbLine
 10
48.87499999999977
 20
-71.72668311919207
 30
0.0
 11
48.87499999999977
 21
-71.17226769462579
 31
0.0
  0
ARC
  5
EB93
330
1F
100
AcDbEntity
  8
AM_0
100
AcDbCircle
 10
47.11112374154141
 20
-64.03223466795338
 30
0.0
 40
7.99829286590654
100
AcDbArc
 50
244.140174769182
 51
255.6219705914311
  0
ARC
  5
EB94
330
1F
100
AcDbEntity
  8
AM_0
100
AcDbCircle
 10
52.88808799367484
 20
-64.0302987182879
 30
0.0
 40
8.000324907604083
100
AcDbArc
 50
270.0014187482344
 51
332.7419619425979
  0
LINE
  5
EB95
330
1F
100
AcDbEntity
  8
AM_0
100
AcDbLine
 10
50.3774990747595
 20
-67.69443657616306
 30
0.0
 11
59.99999999999977
 21
-67.69443657616306
 31
0.0
  0
LINE
  5
EB96
330
1F
100
AcDbEntity
  8
AM_0
100
AcDbLine
 10
52.88828609634379
 20
-72.03062362343846
 30
0.0
 11
50.3774990747595
 21
-72.03062362343846
 31
0.0
  0
LINE
  5
EB97
330
1F
100
AcDbEntity
  8
AM_0
100
AcDbLine
 10
95.85992514033273
 20
-114.8076273664221
 30
0.0
 11
64.99999999999977
 21
-116.3506236234391
 31
0.0
  0
LINE
  5
EB98
330
1F
100
AcDbEntity
  8
AM_0
100
AcDbLine
 10
95.85992514033273
 20
-69.25361988045573
 30
0.0
 11
64.99999999999977
 21
-67.71062362343876
 31
0.0
  0
LINE
  5
EB99
330
1F
100
AcDbEntity
  8
AM_0
100
AcDbLine
 10
48.87499999999977
 20
-120.9282188876307
 30
0.0
 11
50.3774990747595
 21
-123.5306236234385
 31
0.0
  0
LINE
  5
EB9A
330
1F
100
AcDbEntity
  8
AM_0
100
AcDbLine
 10
43.62250092524096
 20
-123.5306236234385
 30
0.0
 11
38.99999999999977
 21
-123.5306236234385
 31
0.0
  0
LINE
  5
EB9B
330
1F
100
AcDbEntity
  8
AM_0
100
AcDbLine
 10
43.62250092524096
 20
-60.53062362343847
 30
0.0
 11
38.99999999999977
 21
-60.53062362343847
 31
0.0
  0
LINE
  5
EB9C
330
1F
100
AcDbEntity
  8
AM_0
100
AcDbLine
 10
47.87499999999977
 20
-119.5306236234385
 30
0.0
 11
46.12499999999977
 21
-119.5306236234385
 31
0.0
  0
LINE
  5
EB9D
330
1F
100
AcDbEntity
  8
AM_0
100
AcDbLine
 10
47.87499999999977
 20
-64.53062362343847
 30
0.0
 11
46.12499999999977
 21
-64.53062362343847
 31
0.0
  0
LINE
  5
EB9E
330
1F
100
AcDbEntity
  8
AM_0
100
AcDbLine
 10
45.12499999999977
 20
-120.9282188876307
 30
0.0
 11
43.62250092524096
 21
-123.5306236234385
 31
0.0
  0
LINE
  5
EB9F
330
1F
100
AcDbEntity
  8
AM_0
100
AcDbLine
 10
45.12499999999977
 20
-63.13302835924718
 30
0.0
 11
43.62250092524096
 21
-60.53062362343847
 31
0.0
  0
LINE
  5
EBA0
330
1F
100
AcDbEntity
  8
AM_0
100
AcDbLine
 10
48.87499999999977
 20
-63.13302835924718
 30
0.0
 11
50.3774990747595
 21
-60.53062362343847
 31
0.0
  0
LINE
  5
EBA1
330
1F
100
AcDbEntity
  8
AM_0
100
AcDbLine
 10
64.99999999999977
 20
-123.5306236234385
 30
0.0
 11
62.99999999999977
 21
-123.5306236234385
 31
0.0
  0
LINE
  5
EBA2
330
1F
100
AcDbEntity
  8
AM_0
100
AcDbLine
 10
52.99999999999977
 20
-123.5306236234385
 30
0.0
 11
50.3774990747595
 21
-123.5306236234385
 31
0.0
  0
LINE
  5
EBA3
330
1F
100
AcDbEntity
  8
AM_0
100
AcDbLine
 10
64.99999999999977
 20
-60.53062362343847
 30
0.0
 11
50.3774990747595
 21
-60.53062362343847
 31
0.0
  0
LINE
  5
EBA4
330
1F
100
AcDbEntity
  8
AM_0
100
AcDbLine
 10
35.99999999999977
 20
-87.03062362343846
 30
0.0
 11
35.99999999999977
 21
-97.03062362343846
 31
0.0
  0
LINE
  5
EBA5
330
1F
100
AcDbEntity
  8
AM_0
100
AcDbLine
 10
38.99999999999977
 20
-60.53062362343847
 30
0.0
 11
38.99999999999977
 21
-84.03062362343846
 31
0.0
  0
LINE
  5
EBA6
330
1F
100
AcDbEntity
  8
AM_0
100
AcDbLine
 10
38.99999999999977
 20
-100.0306236234385
 30
0.0
 11
38.99999999999977
 21
-123.5306236234385
 31
0.0
  0
LINE
  5
EBA7
330
1F
100
AcDbEntity
  8
AM_0
100
AcDbLine
 10
96.99999999999977
 20
-84.66342308505976
 30
0.0
 11
96.99999999999977
 21
-84.60592308505987
 31
0.0
  0
LINE
  5
EBA8
330
1F
100
AcDbEntity
  8
AM_0
100
AcDbLine
 10
96.99999999999977
 20
-99.45532416181798
 30
0.0
 11
96.99999999999977
 21
-99.39782416181809
 31
0.0
  0
LINE
  5
EBA9
330
1F
100
AcDbEntity
  8
AM_0
100
AcDbLine
 10
96.99999999999977
 20
-99.45532416181798
 30
0.0
 11
96.99999999999977
 21
-113.6091245597693
 31
0.0
  0
LINE
  5
EBAA
330
1F
100
AcDbEntity
  8
AM_0
100
AcDbLine
 10
96.99999999999977
 20
-70.4521226871086
 30
0.0
 11
96.99999999999977
 21
-84.60592308505987
 31
0.0
  0
LINE
  5
EBAB
330
1F
100
AcDbEntity
  8
AM_0
100
AcDbLine
 10
90.99999999999977
 20
-83.92795542726252
 30
0.0
 11
90.99999999999977
 21
-100.1332918196156
 31
0.0
  0
LINE
  5
EBAC
330
1F
100
AcDbEntity
  8
AM_0
100
AcDbLine
 10
50.3774990747595
 20
-100.0306236234394
 30
0.0
 11
50.3774990747595
 21
-123.5306236234385
 31
0.0
  0
LINE
  5
EBAD
330
1F
100
AcDbEntity
  8
AM_0
100
AcDbLine
 10
48.87499999999977
 20
-100.0306236234385
 30
0.0
 11
48.87499999999977
 21
-120.9282188876307
 31
0.0
  0
LINE
  5
EBAE
330
1F
100
AcDbEntity
  8
AM_0
100
AcDbLine
 10
47.87499999999977
 20
-99.3790928517885
 30
0.0
 11
47.87499999999977
 21
-119.5306236234385
 31
0.0
  0
LINE
  5
EBAF
330
1F
100
AcDbEntity
  8
AM_0
100
AcDbLine
 10
43.62250092524096
 20
-100.0306236234385
 30
0.0
 11
43.62250092524096
 21
-123.5306236234385
 31
0.0
  0
LINE
  5
EBB0
330
1F
100
AcDbEntity
  8
AM_0
100
AcDbLine
 10
43.62250092524096
 20
-71.22960916247595
 30
0.0
 11
43.62250092524096
 21
-84.03062362343846
 31
0.0
  0
LINE
  5
EBB1
330
1F
100
AcDbEntity
  8
AM_0
100
AcDbLine
 10
43.62250092524096
 20
-60.53062362343847
 30
0.0
 11
43.62250092524096
 21
-67.69443657616306
 31
0.0
  0
LINE
  5
EBB2
330
1F
100
AcDbEntity
  8
AM_0
100
AcDbLine
 10
46.12499999999977
 20
-99.3790928517885
 30
0.0
 11
46.12499999999977
 21
-119.5306236234385
 31
0.0
  0
LINE
  5
EBB3
330
1F
100
AcDbEntity
  8
AM_0
100
AcDbLine
 10
45.12499999999977
 20
-100.0306236234385
 30
0.0
 11
45.12499999999977
 21
-120.9282188876307
 31
0.0
  0
LINE
  5
EBB4
330
1F
100
AcDbEntity
  8
AM_0
100
AcDbLine
 10
45.12499999999977
 20
-63.13302835924718
 30
0.0
 11
45.12499999999977
 21
-71.17226769462579
 31
0.0
  0
LINE
  5
EBB5
330
1F
100
AcDbEntity
  8
AM_0
100
AcDbLine
 10
50.3774990747595
 20
-72.03062362343846
 30
0.0
 11
50.3774990747595
 21
-84.03062362343846
 31
0.0
  0
LINE
  5
EBB6
330
1F
100
AcDbEntity
  8
AM_0
100
AcDbLine
 10
48.87499999999977
 20
-72.03062362343846
 30
0.0
 11
48.87499999999977
 21
-84.03062362343846
 31
0.0
  0
LINE
  5
EBB7
330
1F
100
AcDbEntity
  8
AM_0
100
AcDbLine
 10
48.87499999999977
 20
-63.13302835924718
 30
0.0
 11
48.87499999999977
 21
-71.17226769462579
 31
0.0
  0
LINE
  5
EBB8
330
1F
100
AcDbEntity
  8
AM_0
100
AcDbLine
 10
50.3774990747595
 20
-60.53062362343847
 30
0.0
 11
50.3774990747595
 21
-67.69443657616306
 31
0.0
  0
LINE
  5
EBB9
330
1F
100
AcDbEntity
  8
AM_0
100
AcDbLine
 10
45.12499999999977
 20
-71.78000862258725
 30
0.0
 11
45.12499999999977
 21
-84.03062362343846
 31
0.0
  0
LINE
  5
EBBA
330
1F
100
AcDbEntity
  8
AM_0
100
AcDbLine
 10
64.99999999999977
 20
-60.53062362343847
 30
0.0
 11
64.99999999999977
 21
-123.5306236234385
 31
0.0
  0
ARC
  5
EBBB
330
1F
100
AcDbEntity
  8
AM_0
100
AcDbCircle
 10
95.79999999999996
 20
-113.6091245597693
 30
0.0
 40
1.2
100
AcDbArc
 50
272.8624052261126
 51
0.0
  0
ARC
  5
EBBC
330
1F
100
AcDbEntity
  8
AM_0
100
AcDbCircle
 10
95.79999999999996
 20
-70.45212268710861
 30
0.0
 40
1.2
100
AcDbArc
 50
0.0
 51
87.13759477388736
  0
ARC
  5
EBBD
330
1F
100
AcDbEntity
  8
AM_0
100
AcDbCircle
 10
47.87499999999977
 20
-120.5306236234385
 30
0.0
 40
1.0
100
AcDbArc
 50
0.0
 51
90.0
  0
ARC
  5
EBBE
330
1F
100
AcDbEntity
  8
AM_0
100
AcDbCircle
 10
47.87499999999977
 20
-63.53062362343847
 30
0.0
 40
1.0
100
AcDbArc
 50
270.0
 51
0.0
  0
ARC
  5
EBBF
330
1F
100
AcDbEntity
  8
AM_0
100
AcDbCircle
 10
46.12499999999977
 20
-120.5306236234385
 30
0.0
 40
1.0
100
AcDbArc
 50
90.0
 51
180.0
  0
ARC
  5
EBC0
330
1F
100
AcDbEntity
  8
AM_0
100
AcDbCircle
 10
46.12499999999977
 20
-63.53062362343847
 30
0.0
 40
1.0
100
AcDbArc
 50
180.0
 51
270.0
  0
DIMENSION
  5
EC7B
330
1F
100
AcDbEntity
  8
AM_5
100
AcDbDimension
  2
*D4
 10
64.99999999999977
 20
-28.66360704889961
 30
0.0
 11
32.49999999999989
 21
-25.26360704889961
 31
0.0
 70
    32
  1
<>
 71
     5
 42
64.99999999999977
  3
AM_JIS$0
100
AcDbAlignedDimension
 13
0.0
 23
0.0
 33
0.0
 14
64.99999999999977
 24
13.49999999999977
 34
0.0
100
AcDbRotatedDimension
1001
ACAD
1000
DSTYLE
1002
{
1070
   179
1070
     0
1070
   271
1070
     0
1070
   272
1070
     2
1002
}
  0
ARC
  5
EC82
330
1F
100
AcDbEntity
  8
AM_0
100
AcDbCircle
 10
92.49999999999977
 20
-87.31812362343885
 30
0.0
 40
1.5
100
AcDbArc
 50
90.0
 51
180.0
1001
GENIUS_GENOBJ-N-FIL_13
1002
{
1000
OWNER
1000
GEN
1002
}
1001
GENIUS_GENODEF_13
1002
{
1000
HIER
1070
     0
1002
}
1002
{
1000
MANEDIT
1070
     0
1002
}
1002
{
1000
NOSEL
1070
     0
1002
}
1002
{
1000
BEHIND
1070
     0
1002
}
1002
{
1000
OTHER
1070
     0
1002
}
1002
{
1000
REACTOR
1002
}
  0
ARC
  5
EC83
330
1F
100
AcDbEntity
  8
AM_0
100
AcDbCircle
 10
92.49999999999977
 20
-96.74312362343903
 30
0.0
 40
1.5
100
AcDbArc
 50
180.0
 51
270.0
1001
GENIUS_GENODEF_13
1002
{
1000
HIER
1070
     0
1002
}
1002
{
1000
MANEDIT
1070
     0
1002
}
1002
{
1000
NOSEL
1070
     0
1002
}
1002
{
1000
BEHIND
1070
     0
1002
}
1002
{
1000
OTHER
1070
     0
1002
}
1002
{
1000
REACTOR
1002
}
1001
GENIUS_GENOBJ-N-FIL_13
1002
{
1000
OWNER
1000
GEN
1002
}
  0
ARC
  5
EC84
330
1F
100
AcDbEntity
  8
AM_0
100
AcDbCircle
 10
92.49999999999977
 20
-100.1332918196156
 30
0.0
 40
1.5
100
AcDbArc
 50
180.0
 51
280.7630026735891
1001
GENIUS_GENOBJ-N-FIL_13
1002
{
1000
OWNER
1000
GEN
1002
}
1001
GENIUS_GENODEF_13
1002
{
1000
HIER
1070
     0
1002
}
1002
{
1000
MANEDIT
1070
     0
1002
}
1002
{
1000
NOSEL
1070
     0
1002
}
1002
{
1000
BEHIND
1070
     0
1002
}
1002
{
1000
OTHER
1070
     0
1002
}
1002
{
1000
REACTOR
1002
}
  0
ARC
  5
EC85
330
1F
100
AcDbEntity
  8
AM_0
100
AcDbCircle
 10
92.49999999999977
 20
-83.92795542726253
 30
0.0
 40
1.5
100
AcDbArc
 50
79.23699732641728
 51
180.0
1001
GENIUS_GENOBJ-N-FIL_13
1002
{
1000
OWNER
1000
GEN
1002
}
1001
GENIUS_GENODEF_13
1002
{
1000
HIER
1070
     0
1002
}
1002
{
1000
MANEDIT
1070
     0
1002
}
1002
{
1000
NOSEL
1070
     0
1002
}
1002
{
1000
BEHIND
1070
     0
1002
}
1002
{
1000
OTHER
1070
     0
1002
}
1002
{
1000
REACTOR
1002
}
  0
ARC
  5
EC8A
330
1F
100
AcDbEntity
  8
AM_11
  6
ACJISTGB
100
AcDbCircle
 10
95.80000000000001
 20
66.57850093632965
 30
0.0
 40
1.2
100
AcDbArc
 50
0.0
 51
87.13759477388736
  0
ARC
  5
EC8B
330
1F
100
AcDbEntity
  8
AM_11
  6
ACJISTGB
100
AcDbCircle
 10
95.79999999999996
 20
23.42149906366899
 30
0.0
 40
1.2
100
AcDbArc
 50
272.8624052261126
 51
0.0
  0
LINE
  5
EC8C
330
1F
100
AcDbEntity
  8
AM_11
  6
ACJISTGB
100
AcDbLine
 10
96.99999999999977
 20
24.73906407456298
 30
0.0
 11
96.99999999999977
 21
23.42149906366899
 31
0.0
  0
LINE
  5
EC8D
330
1F
100
AcDbEntity
  8
AM_0
100
AcDbLine
 10
90.99999999999977
 20
21.98000000000025
 30
0.0
 11
78.49999999999977
 21
21.35500000000025
 31
0.0
  0
LINE
  5
EC8E
330
1F
100
AcDbEntity
  8
AM_0
100
AcDbLine
 10
96.99999999999983
 20
65.28895312868838
 30
0.0
 11
96.99999999999977
 21
24.73906407456298
 31
0.0
  0
LINE
  5
EC8F
330
1F
100
AcDbEntity
  8
AM_0
100
AcDbLine
 10
86.99999999999983
 20
68.22000000000003
 30
0.0
 11
78.49999999999983
 21
68.64500000000021
 31
0.0
  0
DIMENSION
  5
EC96
330
1F
100
AcDbEntity
  8
AM_5
100
AcDbDimension
  2
*D5
 10
122.9899171987324
 20
13.49999999999976
 30
0.0
 11
119.5899171987324
 21
44.99999999999979
 31
0.0
 70
    32
  1
%%c<>
 71
     5
 42
63.00000000000003
  3
AM_JIS$0
100
AcDbAlignedDimension
 13
64.99999999999983
 23
76.4999999999998
 33
0.0
 14
64.99999999999977
 24
13.49999999999977
 34
0.0
 50
90.0
100
AcDbRotatedDimension
1001
ACAD
1000
DSTYLE
1002
{
1070
   179
1070
     0
1070
   271
1070
     0
1070
   272
1070
     2
1002
}
  0
LINE
  5
ED19
330
1F
100
AcDbEntity
  8
AM_5
100
AcDbLine
 10
0.7999999999999545
 20
0.0
 30
0.0
 11
0.0
 21
0.0
 31
0.0
  0
LINE
  5
ED1A
330
1F
100
AcDbEntity
  8
AM_5
100
AcDbLine
 10
0.0
 20
0.8000000000000114
 30
0.0
 11
0.0
 21
0.0
 31
0.0
  0
DIMENSION
  5
ED1B
330
1F
100
AcDbEntity
  8
AM_5
100
AcDbDimension
  2
*D6
 10
-12.00000101000001
 20
44.99999999999983
 30
0.0
 11
-15.40000101000002
 21
22.49999999999992
 31
0.0
 70
    32
 71
     5
 42
44.99999999999983
  3
AM_JIS$0
100
AcDbAlignedDimension
 13
0.0
 23
0.0
 33
0.0
 14
8.397513830329217
 24
44.99999999999983
 34
0.0
 50
90.0
100
AcDbRotatedDimension
1001
ACAD
1000
DSTYLE
1002
{
1070
   179
1070
     0
1070
   271
1070
     0
1070
   272
1070
     2
1002
}
  0
LINE
  5
ED1C
330
1F
100
AcDbEntity
  8
AM_7
100
AcDbLine
 10
101.1713935235127
 20
44.99999999999977
 30
0.0
 11
8.397513830329217
 21
44.99999999999983
 31
0.0
1001
GENIUS_GENOBJ-N-CEN_13
1002
{
1000
OWNER
1000
GEN
1002
}
1001
GENIUS_GENODEF_13
1002
{
1000
HIER
1070
     0
1002
}
1002
{
1000
MANEDIT
1070
     0
1002
}
1002
{
1000
NOSEL
1070
     0
1002
}
1002
{
1000
BEHIND
1070
     0
1002
}
1002
{
1000
OTHER
1070
     0
1002
}
1002
{
1000
REACTOR
1002
}
  0
DIMENSION
  5
ED1D
330
1F
100
AcDbEntity
  8
AM_5
100
AcDbDimension
  2
*D7
 10
13.64880298740059
 20
6.58675791678462
 30
0.0
 11
14.78875241662649
 21
-9.492394462248248
 31
0.0
 70
    34
 71
     5
 42
2.050761871093677
  3
AM_JIS$2
100
AcDb2LineAngularDimension
 13
0.0
 23
0.8000000000000114
 33
0.0
 14
0.0
 24
0.0
 34
0.0
 15
1.16939889058699
 25
0.0903913334576032
 35
0.0
 16
13.07276840313163
 26
-16.56620970467108
 36
0.0
1001
ACAD
1000
DSTYLE
1002
{
1070
    79
1070
     1
1070
   179
1070
     1
1070
   271
1070
     0
1070
   272
1070
     2
1002
}
  0
LINE
  5
ED1E
330
1F
100
AcDbEntity
  8
AM_7
100
AcDbLine
 10
104.4704181305185
 20
-92.03062362343849
 30
0.0
 11
-5.702118740979358
 21
-92.03062362343846
 31
0.0
1001
GENIUS_GENOBJ-N-CEN_13
1002
{
1000
OWNER
1000
GEN
1002
}
1001
GENIUS_GENODEF_13
1002
{
1000
HIER
1070
     0
1002
}
1002
{
1000
MANEDIT
1070
     0
1002
}
1002
{
1000
NOSEL
1070
     0
1002
}
1002
{
1000
BEHIND
1070
     0
1002
}
1002
{
1000
OTHER
1070
     0
1002
}
1002
{
1000
REACTOR
1002
}
  0
TEXT
  5
ED26
330
1F
100
AcDbEntity
  8
AM_0
100
AcDbText
 10
-91.16254560813832
 20
-163.2050064602711
 30
0.0
 40
5.0
  1
H63A-WH-SVPCR-DX16
100
AcDbText
  0
CIRCLE
  5
FB4A
330
1F
100
AcDbEntity
  8
AM_0
100
AcDbCircle
 10
10.11778045209201
 20
10.11778045209194
 30
0.0
 40
2.55
  0
ARC
  5
FB4B
330
1F
100
AcDbEntity
  8
AM_0
100
AcDbCircle
 10
10.11778045209201
 20
10.11778045209194
 30
0.0
 40
1.410000000000055
100
AcDbArc
 50
29.99999999999917
 51
90.0
  0
ARC
  5
FB4C
330
1F
100
AcDbEntity
  8
AM_0
100
AcDbCircle
 10
10.11778045209201
 20
10.11778045209194
 30
0.0
 40
1.410000000000055
100
AcDbArc
 50
90.0
 51
149.9999999999994
  0
ARC
  5
FB4D
330
1F
100
AcDbEntity
  8
AM_0
100
AcDbCircle
 10
10.11778045209201
 20
10.11778045209194
 30
0.0
 40
1.410000000000055
100
AcDbArc
 50
149.9999999999994
 51
210.0000000000005
  0
ARC
  5
FB4E
330
1F
100
AcDbEntity
  8
AM_0
100
AcDbCircle
 10
10.11778045209201
 20
10.11778045209194
 30
0.0
 40
1.410000000000055
100
AcDbArc
 50
210.0000000000005
 51
270.0
  0
ARC
  5
FB4F
330
1F
100
AcDbEntity
  8
AM_0
100
AcDbCircle
 10
10.11778045209201
 20
10.11778045209194
 30
0.0
 40
1.410000000000055
100
AcDbArc
 50
270.0
 51
330.0000000000023
  0
ARC
  5
FB50
330
1F
100
AcDbEntity
  8
AM_0
100
AcDbCircle
 10
10.11778045209201
 20
10.11778045209194
 30
0.0
 40
1.410000000000055
100
AcDbArc
 50
330.0000000000023
 51
29.99999999999917
  0
ARC
  5
FB51
330
1F
100
AcDbEntity
  8
AM_0
100
AcDbCircle
 10
10.11778045209201
 20
11.2777804520917
 30
0.0
 40
0.2499999999998634
100
AcDbArc
 50
90.0
 51
163.0277849099334
  0
ARC
  5
FB52
330
1F
100
AcDbEntity
  8
AM_0
100
AcDbCircle
 10
10.11778045209201
 20
11.2777804520917
 30
0.0
 40
0.2499999999998634
100
AcDbArc
 50
16.97221509006192
 51
90.0
  0
ARC
  5
FB53
330
1F
100
AcDbEntity
  8
AM_0
100
AcDbCircle
 10
10.93075991394494
 20
11.52590218553119
 30
0.0
 40
0.6
100
AcDbArc
 50
196.9722150900603
 51
283.0277849099385
  0
ARC
  5
FB54
330
1F
100
AcDbEntity
  8
AM_0
100
AcDbCircle
 10
11.12236992048167
 20
10.69778045209175
 30
0.0
 40
0.2499999999998634
100
AcDbArc
 50
29.99999999999773
 51
103.0277849099318
  0
ARC
  5
FB55
330
1F
100
AcDbEntity
  8
AM_0
100
AcDbCircle
 10
11.12236992048167
 20
10.69778045209175
 30
0.0
 40
0.2499999999998634
100
AcDbArc
 50
316.9722150900681
 51
29.99999999999773
  0
ARC
  5
FB56
330
1F
100
AcDbEntity
  8
AM_0
100
AcDbCircle
 10
11.74373937579799
 20
10.11778045209194
 30
0.0
 40
0.6
100
AcDbArc
 50
136.9722150900693
 51
223.0277849099226
  0
ARC
  5
FB57
330
1F
100
AcDbEntity
  8
AM_0
100
AcDbCircle
 10
11.12236992048167
 20
9.53778045209215
 30
0.0
 40
0.2499999999998634
100
AcDbArc
 50
330.0000000000084
 51
43.02778490993187
  0
ARC
  5
FB58
330
1F
100
AcDbEntity
  8
AM_0
100
AcDbCircle
 10
11.12236992048167
 20
9.53778045209215
 30
0.0
 40
0.2499999999998634
100
AcDbArc
 50
256.9722150900682
 51
330.0000000000084
  0
ARC
  5
FB59
330
1F
100
AcDbEntity
  8
AM_0
100
AcDbCircle
 10
10.93075991394494
 20
8.709658718652705
 30
0.0
 40
0.6
100
AcDbArc
 50
76.97221509006819
 51
163.027784909935
  0
ARC
  5
FB5A
330
1F
100
AcDbEntity
  8
AM_0
100
AcDbCircle
 10
10.11778045209201
 20
8.95778045209228
 30
0.0
 40
0.2499999999998634
100
AcDbArc
 50
270.0
 51
343.0277849099334
  0
ARC
  5
FB5B
330
1F
100
AcDbEntity
  8
AM_0
100
AcDbCircle
 10
10.11778045209201
 20
8.95778045209228
 30
0.0
 40
0.2499999999998634
100
AcDbArc
 50
196.9722150900696
 51
270.0
  0
ARC
  5
FB5C
330
1F
100
AcDbEntity
  8
AM_0
100
AcDbCircle
 10
9.304800990239073
 20
8.709658718652648
 30
0.0
 40
0.6
100
AcDbArc
 50
16.97221509006815
 51
103.0277849099385
  0
ARC
  5
FB5D
330
1F
100
AcDbEntity
  8
AM_0
100
AcDbCircle
 10
9.113190983702339
 20
9.537780452092065
 30
0.0
 40
0.2499999999998634
100
AcDbArc
 50
210.0000000000019
 51
283.0277849099452
  0
ARC
  5
FB5E
330
1F
100
AcDbEntity
  8
AM_0
100
AcDbCircle
 10
9.113190983702339
 20
9.537780452092065
 30
0.0
 40
0.2499999999998634
100
AcDbArc
 50
136.9722150900785
 51
210.0000000000019
  0
ARC
  5
FB5F
330
1F
100
AcDbEntity
  8
AM_0
100
AcDbCircle
 10
8.49182152838614
 20
10.11778045209194
 30
0.0
 40
0.6
100
AcDbArc
 50
316.9722150900601
 51
43.02778490993995
  0
ARC
  5
FB60
330
1F
100
AcDbEntity
  8
AM_0
100
AcDbCircle
 10
9.113190983702225
 20
10.69778045209183
 30
0.0
 40
0.2499999999998634
100
AcDbArc
 50
150.0000000000023
 51
223.0277849099331
  0
ARC
  5
FB61
330
1F
100
AcDbEntity
  8
AM_0
100
AcDbCircle
 10
9.113190983702225
 20
10.69778045209183
 30
0.0
 40
0.2499999999998634
100
AcDbArc
 50
76.97221509005475
 51
150.0000000000023
  0
ARC
  5
FB62
330
1F
100
AcDbEntity
  8
AM_0
100
AcDbCircle
 10
9.30480099023896
 20
11.52590218553125
 30
0.0
 40
0.6
100
AcDbArc
 50
256.9722150900682
 51
343.0277849099334
  0
LINE
  5
FB63
330
1F
100
AcDbEntity
  8
AM_0
100
AcDbLine
 10
1.169398890587331
 20
0.0903913334580295
 30
0.0
 11
13.64880298740025
 21
6.586757916784791
 31
0.0
  0
LINE
  5
FB64
330
1F
100
AcDbEntity
  8
AM_0
100
AcDbLine
 10
6.586757916779675
 20
13.64880298740292
 30
0.0
 11
0.0903913334572053
 21
1.1693988905879
 31
0.0
  0
LINE
  5
FB65
330
1F
100
AcDbEntity
  8
AM_0
100
AcDbLine
 10
19.06616201359236
 20
20.14516957072962
 30
0.0
 11
6.586757916779675
 21
13.64880298740292
 31
0.0
  0
LINE
  5
FB66
330
1F
100
AcDbEntity
  8
AM_0
100
AcDbLine
 10
13.64880298740025
 20
6.586757916784791
 30
0.0
 11
20.1451695707226
 21
19.06616201359978
 31
0.0
  0
ARC
  5
FB67
330
1F
100
AcDbEntity
  8
AM_0
100
AcDbCircle
 10
0.7999999999997272
 20
0.7999999999998266
 30
0.0
 40
0.8
100
AcDbArc
 50
152.4999999999998
 51
297.5000000000001
  0
ARC
  5
FB68
330
1F
100
AcDbEntity
  8
AM_0
100
AcDbCircle
 10
19.43556090418065
 20
19.43556090418717
 30
0.0
 40
0.8
100
AcDbArc
 50
332.5000000000187
 51
117.5000000000219
  0
LINE
  5
FB8F
330
1F
100
AcDbEntity
  8
AM_0
100
AcDbLine
 10
23.5635567604217
 20
75.99999999999983
 30
0.0
 11
18.32729213873904
 21
46.30366764834426
 31
0.0
  0
ELLIPSE
  5
FB94
330
1F
100
AcDbEntity
  8
AM_0
100
AcDbEllipse
 10
3.688395009495707
 20
44.99999999999986
 30
0.0
 11
-34.66724670584814
 21
30.37759887409523
 31
0.0
210
0.0
220
0.0
230
1.0
 40
0.2403927812710756
 41
3.268111492686097
 42
3.430297605426711
  0
LINE
  5
FB95
330
1F
100
AcDbEntity
  8
AM_0
100
AcDbLine
 10
38.99999999999966
 20
15.91677081349275
 30
0.0
 11
38.99999999999966
 21
18.25233892641353
 31
0.0
  0
ARC
  5
FB96
330
1F
100
AcDbEntity
  8
AM_0
100
AcDbCircle
 10
34.79254806627728
 20
21.93133529393624
 30
0.0
 40
7.896867673704497
100
AcDbArc
 50
271.5053421294595
 51
278.7951765910747
  0
LINE
  5
FB97
330
1F
100
AcDbEntity
  8
AM_0
100
AcDbLine
 10
33.85647332669009
 20
9.727417465485161
 30
0.0
 11
35.0035796579308
 21
14.03623999913458
 31
0.0
  0
LINE
  5
FB98
330
1F
100
AcDbEntity
  8
AM_0
100
AcDbLine
 10
16.16825143251651
 20
34.05913934332978
 30
0.0
 11
15.17224640326606
 21
28.41051412869422
 31
0.0
  0
LINE
  5
FB9C
330
1F
100
AcDbEntity
  8
AM_0
100
AcDbLine
 10
35.99999999999966
 20
14.12732485796323
 30
0.0
 11
35.99999999999966
 21
14.22739077585339
 31
0.0
  0
SPLINE
  5
FB9D
330
1F
100
AcDbEntity
  8
AM_0
100
AcDbSpline
210
0.0
220
0.0
230
1.0
 70
     8
 71
     3
 72
    18
 73
    14
 74
     0
 42
0.0000000001
 43
0.0000000001
 40
10.42097139031169
 40
10.42097139031169
 40
10.42097139031169
 40
10.42097139031169
 40
10.80379781952573
 40
10.80379781952573
 40
11.36924251315762
 40
11.36924251315762
 40
11.94619945691852
 40
11.94619945691852
 40
12.52315640067942
 40
12.52315640067942
 40
13.10011334444032
 40
13.10011334444032
 40
13.67707028820122
 40
13.67707028820122
 40
13.67707028820122
 40
13.67707028820122
 10
37.67858333052072
 20
14.96979595753504
 30
0.0
 10
37.55789748852931
 20
14.95460809659545
 30
0.0
 10
37.44160980161394
 20
14.93760192080606
 30
0.0
 10
37.16881361318463
 20
14.89212495142954
 30
0.0
 10
37.01958562642642
 20
14.86207252517212
 30
0.0
 10
36.75286362629345
 20
14.7995598973078
 30
0.0
 10
36.62666739675694
 20
14.76484531234902
 30
0.0
 10
36.40431441135149
 20
14.69232810913451
 30
0.0
 10
36.3081401331516
 20
14.65454525355284
 30
0.0
 10
36.15359183271664
 20
14.57943398193737
 30
0.0
 10
36.09510284616374
 20
14.54206089841875
 30
0.0
 10
36.01829637835238
 20
14.4707930797623
 30
0.0
 10
35.99999999999966
 20
14.43690210896793
 30
0.0
 10
35.99999999999966
 20
14.40588291844313
 30
0.0
  0
LINE
  5
FB9E
330
1F
100
AcDbEntity
  8
AM_0
100
AcDbLine
 10
37.67793308833041
 20
14.98081840120599
 30
0.0
 11
38.99948450125726
 21
15.05878010471889
 31
0.0
  0
SPLINE
  5
FBA2
330
1F
100
AcDbEntity
  8
AM_0
100
AcDbSpline
210
0.0
220
0.0
230
1.0
 70
     8
 71
     3
 72
    22
 73
    18
 74
     0
 42
0.0000000001
 43
0.0000000001
 40
9.135131403655873
 40
9.135131403655873
 40
9.135131403655873
 40
9.135131403655873
 40
9.700515220472017
 40
9.700515220472017
 40
10.26589903728816
 40
10.26589903728816
 40
10.83128285410431
 40
10.83128285410431
 40
11.39666667092045
 40
11.39666667092045
 40
11.97803453432145
 40
11.97803453432145
 40
12.55940239772246
 40
12.55940239772246
 40
13.14077026112346
 40
13.14077026112346
 40
13.72213812452447
 40
13.72213812452447
 40
13.72213812452447
 40
13.72213812452447
 10
38.99999999999972
 20
74.66479394838251
 30
0.0
 10
38.81153872772774
 20
74.66479394838251
 30
0.0
 10
38.61695701850891
 20
74.67029013172589
 30
0.0
 10
38.23057020149139
 20
74.69307857799089
 30
0.0
 10
38.03876096806499
 20
74.71036092892445
 30
0.0
 10
37.67153005157746
 20
74.75509692905558
 30
0.0
 10
37.49579431134856
 20
74.78257232032087
 30
0.0
 10
37.17123466748939
 20
74.84434987081471
 30
0.0
 10
37.02241492497495
 20
74.87863437725281
 30
0.0
 10
36.75542427745
 20
74.95040555554789
 30
0.0
 10
36.62872310063273
 20
74.99052406548231
 30
0.0
 10
36.40556155658936
 20
75.07471192398788
 30
0.0
 10
36.30908258795722
 20
75.11876098466661
 30
0.0
 10
36.15405659536367
 20
75.20685629907638
 30
0.0
 10
36.0953964780096
 20
75.25095591149403
 30
0.0
 10
36.01835714484952
 20
75.33568204620343
 30
0.0
 10
35.99999999999972
 20
75.37630504740054
 30
0.0
 10
35.99999999999972
 20
75.41381265149096
 30
0.0
  0
LINE
  5
FBA3
330
1F
100
AcDbEntity
  8
AM_0
100
AcDbLine
 10
8.283993590557543
 20
14.53232795619343
 30
0.0
 11
14.99999999999966
 21
27.43365623335524
 31
0.0
  0
LINE
  5
FBA4
330
1F
100
AcDbEntity
  8
AM_0
100
AcDbLine
 10
14.99999999999966
 20
27.43365623335521
 30
0.0
 11
15.17224640326606
 21
28.41051412869419
 31
0.0
  0
LINE
  5
FBA6
330
1F
100
AcDbEntity
  8
AM_0
100
AcDbLine
 10
32.7790090947359
 20
5.712292335655263
 30
0.0
 11
33.85493362684463
 21
9.727827367437016
 31
0.0
  0
LINE
  5
FBA7
330
1F
100
AcDbEntity
  8
AM_0
100
AcDbLine
 10
15.92349722647145
 20
5.712292479572284
 30
0.0
 11
32.779008557613
 21
5.712292479572284
 31
0.0
  0
LINE
  5
FBA8
330
1F
100
AcDbEntity
  8
AM_0
100
AcDbLine
 10
14.76467287055766
 20
17.90595605455783
 30
0.0
 11
16.5731843952492
 21
21.38007436991151
 31
0.0
  0
CIRCLE
  5
FBA9
330
1F
100
AcDbEntity
  8
AM_0
100
AcDbCircle
 10
32.99999999999966
 20
44.9999999999998
 30
0.0
 40
3.499999999999998
  0
ELLIPSE
  5
FBAA
330
1F
100
AcDbEntity
  8
AM_0
100
AcDbEllipse
 10
24.74414599684678
 20
33.20941856144313
 30
0.0
 11
-3.504071011574302
 21
3.690099803887273
 31
0.0
210
0.0
220
0.0
230
1.0
 40
0.3568063945012277
 41
4.342063978053332
 42
6.117715533902931
  0
LINE
  5
FBAC
330
1F
100
AcDbEntity
  8
AM_0
100
AcDbLine
 10
16.16825143251651
 20
34.05913934332978
 30
0.0
 11
18.32729213873904
 21
46.30366764834432
 31
0.0
  0
ELLIPSE
  5
FBAD
330
1F
100
AcDbEntity
  8
AM_0
100
AcDbEllipse
 10
3.688395009495707
 20
44.99999999999986
 30
0.0
 11
-34.11697294861245
 21
29.8954147649826
 31
0.0
210
0.0
220
0.0
230
1.0
 40
0.2403927812710756
 41
3.12463285820495
 42
4.48670373009548
  0
ELLIPSE
  5
FBAE
330
1F
100
AcDbEntity
  8
AM_0
100
AcDbEllipse
 10
38.99999999999966
 20
12.26205321750447
 30
0.0
 11
2.893104654675792
 21
-3.301642543411936
 31
0.0
210
0.0
220
0.0
230
1.0
 40
0.2403927812711681
 41
2.294672381043675
 42
3.409344104370052
  0
LINE
  5
FBAF
330
1F
100
AcDbEntity
  8
AM_0
100
AcDbLine
 10
35.99999999999966
 20
14.22739077585339
 30
0.0
 11
35.99999999999966
 21
15.26205321750342
 31
0.0
  0
LINE
  5
FBB0
330
1F
100
AcDbEntity
  8
AM_0
100
AcDbLine
 10
21.04181209666911
 20
37.37925009617877
 30
0.0
 11
21.50480992564576
 21
37.05505552615458
 31
0.0
  0
LINE
  5
FBB1
330
1F
100
AcDbEntity
  8
AM_0
100
AcDbLine
 10
27.23972896484531
 20
33.03942198388475
 30
0.0
 11
27.70272679382185
 21
32.71522741386062
 31
0.0
  0
ELLIPSE
  5
FBB2
330
1F
100
AcDbEntity
  8
AM_0
100
AcDbEllipse
 10
24.74414599684678
 20
33.20941856144313
 30
0.0
 11
-3.854478112731731
 21
4.059109784276001
 31
0.0
210
0.0
220
0.0
230
0.9999999999999998
 40
0.3568063945012277
 41
6.189636624340266
 42
10.5533281947956
  0
LINE
  5
FBBB
330
1F
100
AcDbEntity
  8
AM_0
100
AcDbLine
 10
35.99999999999972
 20
75.99999999999983
 30
0.0
 11
23.5635567604217
 21
75.99999999999983
 31
0.0
  0
LINE
  5
FBBC
330
1F
100
AcDbEntity
  8
AM_0
100
AcDbLine
 10
35.99999999999966
 20
13.99999999999983
 30
0.0
 11
34.99999999839213
 21
13.99999999999983
 31
0.0
  0
LINE
  5
FBBD
330
1F
100
AcDbEntity
  8
AM_0
100
AcDbLine
 10
34.99999999839213
 20
13.99999999999983
 30
0.0
 11
34.36501699160442
 21
11.63021115672513
 31
0.0
  0
LINE
  5
FBCB
330
1F
100
AcDbEntity
  8
AM_0
100
AcDbLine
 10
34.99999999839213
 20
13.99999999999983
 30
0.0
 11
34.99999999839213
 21
14.03719298812473
 31
0.0
  0
LINE
  5
FBCC
330
1F
100
AcDbEntity
  8
AM_0
100
AcDbLine
 10
38.99999999999972
 20
75.18691769624701
 30
0.0
 11
38.99999999999966
 21
18.25233892641353
 31
0.0
  0
LINE
  5
FBCF
330
1F
100
AcDbEntity
  8
AM_0
100
AcDbLine
 10
38.99999999999966
 20
15.91677081349275
 30
0.0
 11
38.99999999999966
 21
14.53280452683561
 31
0.0
  0
LINE
  5
FBD0
330
1F
100
AcDbEntity
  8
AM_0
100
AcDbLine
 10
35.99999999999966
 20
14.12732485802357
 30
0.0
 11
35.99999999999966
 21
13.99999999999983
 31
0.0
  0
LINE
  5
FBD1
330
1F
100
AcDbEntity
  8
AM_0
100
AcDbLine
 10
35.99999999999972
 20
75.99999999999983
 30
0.0
 11
35.99999999999972
 21
75.41381265149096
 31
0.0
  0
ARC
  5
FBD2
330
1F
100
AcDbEntity
  8
AM_0
100
AcDbCircle
 10
13.92349722647145
 20
5.71229247957227
 30
0.0
 40
2.0
100
AcDbArc
 50
0.0
 51
81.388043659481
  0
ARC
  5
FBD3
330
1F
100
AcDbEntity
  8
AM_0
100
AcDbCircle
 10
19.73443267622554
 20
19.73443267623266
 30
0.0
 40
1.75
100
AcDbArc
 50
265.1136298015264
 51
93.71607196795516
  0
ARC
  5
FBD4
330
1F
100
AcDbEntity
  8
AM_0
100
AcDbCircle
 10
18.12545335331117
 20
20.57201429675003
 30
0.0
 40
1.750000000000203
100
AcDbArc
 50
31.28392803264152
 51
152.4999999999998
  0
CIRCLE
  5
FBD5
330
1F
100
AcDbEntity
  8
AM_0
100
AcDbCircle
 10
32.99999999999966
 20
44.9999999999998
 30
0.0
 40
3.0
  0
LINE
  5
FBD6
330
1F
100
AcDbEntity
  8
AM_0
100
AcDbLine
 10
27.23972896484531
 20
33.03942198388475
 30
0.0
 11
21.50480992564576
 21
37.0550555261546
 31
0.0
  0
LINE
  5
FBD7
330
1F
100
AcDbEntity
  8
AM_0
100
AcDbLine
 10
26.32423649873306
 20
31.60513990893625
 30
0.0
 11
22.69619440547933
 21
34.14552233157471
 31
0.0
  0
ARC
  5
FBD8
330
1F
100
AcDbEntity
  8
AM_0
100
AcDbCircle
 10
26.25592623062005
 20
35.74245265094329
 30
0.0
 40
3.901522409500941
100
AcDbArc
 50
170.0170540895662
 51
204.1614681861877
  0
ARC
  5
FBD9
330
1F
100
AcDbEntity
  8
AM_0
100
AcDbCircle
 10
26.6073601467175
 20
35.49637597370925
 30
0.0
 40
3.901522409500941
100
AcDbArc
 50
265.8385318138126
 51
293.8637270600776
  0
LINE
  5
FBDA
330
1F
100
AcDbEntity
  8
AM_0
100
AcDbLine
 10
32.13397459621535
 20
43.49999999999983
 30
0.0
 11
31.26794919243082
 21
44.99999999999983
 31
0.0
  0
LINE
  5
FBDB
330
1F
100
AcDbEntity
  8
AM_0
100
AcDbLine
 10
33.86602540378419
 20
43.49999999999983
 30
0.0
 11
32.13397459621535
 21
43.49999999999983
 31
0.0
  0
LINE
  5
FBDC
330
1F
100
AcDbEntity
  8
AM_0
100
AcDbLine
 10
34.73205080756861
 20
44.99999999999983
 30
0.0
 11
33.86602540378419
 21
43.49999999999983
 31
0.0
  0
LINE
  5
FBDD
330
1F
100
AcDbEntity
  8
AM_0
100
AcDbLine
 10
33.86602540378419
 20
46.49999999999983
 30
0.0
 11
34.73205080756861
 21
44.99999999999983
 31
0.0
  0
LINE
  5
FBDE
330
1F
100
AcDbEntity
  8
AM_0
100
AcDbLine
 10
32.13397459621535
 20
46.49999999999983
 30
0.0
 11
33.86602540378419
 21
46.49999999999983
 31
0.0
  0
LINE
  5
FBDF
330
1F
100
AcDbEntity
  8
AM_0
100
AcDbLine
 10
31.26794919243082
 20
44.99999999999983
 30
0.0
 11
32.13397459621535
 21
46.49999999999983
 31
0.0
  0
LINE
  5
FBE1
330
1F
100
AcDbEntity
  8
AM_0
100
AcDbLine
 10
8.707780452092038
 20
-91.8306236234385
 30
0.0
 11
7.567780452092165
 21
-92.03062362343847
 31
0.0
  0
LINE
  5
FBE2
330
1F
100
AcDbEntity
  8
AM_0
100
AcDbLine
 10
11.5277804520922
 20
-91.8306236234385
 30
0.0
 11
12.66778045209207
 21
-92.03062362343847
 31
0.0
  0
LINE
  5
FBE3
330
1F
100
AcDbEntity
  8
AM_0
100
AcDbLine
 10
8.896684632755978
 20
-91.83062362343848
 30
0.0
 11
8.707780452092038
 21
-91.83062362343848
 31
0.0
  0
LINE
  5
FBE4
330
1F
100
AcDbEntity
  8
AM_0
100
AcDbLine
 10
10.11778045209212
 20
-91.83062362343848
 30
0.0
 11
8.896684632755978
 21
-91.83062362343848
 31
0.0
  0
LINE
  5
FBE5
330
1F
100
AcDbEntity
  8
AM_0
100
AcDbLine
 10
11.33887627142826
 20
-91.83062362343848
 30
0.0
 11
10.11778045209212
 21
-91.83062362343848
 31
0.0
  0
LINE
  5
FBE6
330
1F
100
AcDbEntity
  8
AM_0
100
AcDbLine
 10
11.5277804520922
 20
-91.83062362343848
 30
0.0
 11
11.33887627142826
 21
-91.83062362343848
 31
0.0
  0
LINE
  5
FBE7
330
1F
100
AcDbEntity
  8
AM_0
100
AcDbLine
 10
1.591918097276675
 20
-99.97062362343846
 30
0.0
 11
12.98337669335024
 21
-99.97062362343846
 31
0.0
  0
LINE
  5
FBE8
330
1F
100
AcDbEntity
  8
AM_0
100
AcDbLine
 10
12.98337669335024
 20
-96.79062362343848
 30
0.0
 11
12.98337669335024
 21
-99.97062362343846
 31
0.0
  0
LINE
  5
FBE9
330
1F
100
AcDbEntity
  8
AM_0
100
AcDbLine
 10
12.98337669335024
 20
-99.97062362343846
 30
0.0
 11
13.13958682960038
 21
-99.97062362343846
 31
0.0
  0
LINE
  5
FBEA
330
1F
100
AcDbEntity
  8
AM_0
100
AcDbLine
 10
1.299568374629416
 20
-96.79062362343848
 30
0.0
 11
1.299568374629416
 21
-99.97062362343846
 31
0.0
  0
LINE
  5
FBEB
330
1F
100
AcDbEntity
  8
AM_0
100
AcDbLine
 10
1.591918097276675
 20
-99.97062362343846
 30
0.0
 11
1.299568374629416
 21
-99.97062362343846
 31
0.0
  0
LINE
  5
FBEC
330
1F
100
AcDbEntity
  8
AM_0
100
AcDbLine
 10
1.169398890587445
 20
-92.03062362343847
 30
0.0
 11
13.64880298740036
 21
-92.03062362343847
 31
0.0
  0
LINE
  5
FBED
330
1F
100
AcDbEntity
  8
AM_0
100
AcDbLine
 10
13.64880298740036
 20
-92.03062362343847
 30
0.0
 11
13.2154755238173
 21
-96.79062362343848
 31
0.0
  0
LINE
  5
FBEE
330
1F
100
AcDbEntity
  8
AM_0
100
AcDbLine
 10
13.64880298740036
 20
-92.03062362343847
 30
0.0
 11
20.14516957072272
 21
-92.03062362343849
 31
0.0
  0
LINE
  5
FBEF
330
1F
100
AcDbEntity
  8
AM_0
100
AcDbLine
 10
0.8995278311431321
 20
-96.79062362343848
 30
0.0
 11
13.2154755238173
 21
-96.79062362343848
 31
0.0
  0
LINE
  5
FBF0
330
1F
100
AcDbEntity
  8
AM_0
100
AcDbLine
 10
13.2154755238173
 20
-96.79062362343848
 30
0.0
 11
13.73773844634729
 21
-96.79062362343848
 31
0.0
  0
LINE
  5
FBF1
330
1F
100
AcDbEntity
  8
AM_0
100
AcDbLine
 10
0.5844545098976823
 20
-96.79062362343848
 30
0.0
 11
-0.0000000000002274
 21
-92.03062362343847
 31
0.0
  0
LINE
  5
FBF2
330
1F
100
AcDbEntity
  8
AM_0
100
AcDbLine
 10
20.19872553590994
 20
-92.33062362343847
 30
0.0
 11
20.23556090418083
 21
-92.03062362343846
 31
0.0
  0
LINE
  5
FBF3
330
1F
100
AcDbEntity
  8
AM_0
100
AcDbLine
 10
1.1693988905879
 20
-92.03062362343847
 30
0.0
 11
-0.0000000000002274
 21
-92.03062362343847
 31
0.0
  0
LINE
  5
FBF4
330
1F
100
AcDbEntity
  8
AM_0
100
AcDbLine
 10
0.5844545098976823
 20
-96.79062362343848
 30
0.0
 11
0.8995278311435868
 21
-96.79062362343848
 31
0.0
  0
LINE
  5
FBF5
330
1F
100
AcDbEntity
  8
AM_0
100
AcDbLine
 10
20.23556090418083
 20
-92.03062362343849
 30
0.0
 11
20.14516957072351
 21
-92.03062362343849
 31
0.0
  0
LINE
  5
FC22
330
1F
100
AcDbEntity
  8
AM_0
100
AcDbLine
 10
13.36217845068165
 20
-99.97062362343846
 30
0.0
 11
13.36217845068165
 21
-98.07062362343848
 31
0.0
  0
LINE
  5
FC23
330
1F
100
AcDbEntity
  8
AM_0
100
AcDbLine
 10
13.73773844634729
 20
-98.07062362343848
 30
0.0
 11
13.73773844634729
 21
-95.58836219462941
 31
0.0
  0
ELLIPSE
  5
FC24
330
1F
100
AcDbEntity
  8
AM_0
100
AcDbEllipse
 10
13.92349722647157
 20
-86.75764822602892
 30
0.0
 11
1.779641621548493
 21
16.2883876612796
 31
0.0
210
0.0
220
0.0
230
1.0
 40
0.056028887389153
 41
4.145531531138646
 42
4.369319604193011
  0
ELLIPSE
  5
FC25
330
1F
100
AcDbEntity
  8
AM_0
100
AcDbEllipse
 10
85.06312004231813
 20
-92.03062362343849
 30
0.0
 11
85.00345911828002
 21
-3.114580854152524E-14
 31
0.0
210
0.0
220
0.0
230
1.0
 40
0.5205670505529347
 41
3.359085645855866
 42
3.70062840620946
  0
SPLINE
  5
FC26
330
1F
100
AcDbEntity
  8
AM_0
100
AcDbSpline
210
0.0
220
0.0
230
1.0
 70
     8
 71
     3
 72
    25
 73
    21
 74
     0
 42
0.0000000001
 43
0.0000000001
 40
15.29001218837876
 40
15.29001218837876
 40
15.29001218837876
 40
15.29001218837876
 40
16.70060315849133
 40
16.70060315849133
 40
18.1111941286039
 40
18.1111941286039
 40
18.65418480138135
 40
18.65418480138135
 40
19.1971754741588
 40
19.1971754741588
 40
19.55019054774902
 40
19.55019054774902
 40
19.90320562133924
 40
19.90320562133924
 40
19.90320562133924
 40
20.27034415473398
 40
20.27034415473398
 40
20.63748268812872
 40
20.63748268812872
 40
20.92417885877281
 40
20.92417885877281
 40
20.92417885877281
 40
20.92417885877281
 10
15.92349722647157
 20
-112.3908431160996
 30
0.0
 10
15.92349722647157
 20
-112.8083111798641
 30
0.0
 10
15.88736996390617
 20
-113.2617291560624
 30
0.0
 10
15.70215561379462
 20
-114.1358988948278
 30
0.0
 10
15.553698105443
 20
-114.5567939796349
 30
0.0
 10
15.25456897038987
 20
-115.0518666932122
 30
0.0
 10
15.15084853489225
 20
-115.1965233680807
 30
0.0
 10
14.90683729946682
 20
-115.4578375965131
 30
0.0
 10
14.76610678942075
 20
-115.574225181797
 30
0.0
 10
14.52057970504689
 20
-115.7180027175978
 30
0.0
 10
14.40713422882345
 20
-115.7697561630722
 30
0.0
 10
14.1674993536551
 20
-115.8393493427985
 30
0.0
 10
14.0411689176683
 20
-115.8568563905179
 30
0.0
 10
13.92349722647157
 20
-115.8568563905179
 30
0.0
 10
13.80111771534007
 20
-115.8568563905179
 30
0.0
 10
13.67968343671214
 20
-115.8390790849748
 30
0.0
 10
13.44628696296786
 20
-115.7719384443674
 30
0.0
 10
13.33431442816482
 20
-115.7225962232038
 30
0.0
 10
13.14853914833054
 20
-115.6138662791589
 30
0.0
 10
13.07158514593243
 20
-115.5590172546731
 30
0.0
 10
12.99999999999977
 20
-115.4994513240719
 30
0.0
  0
LINE
  5
FC27
330
1F
100
AcDbEntity
  8
AM_0
100
AcDbLine
 10
31.44967319867988
 20
-112.3908431160996
 30
0.0
 11
15.92349722647157
 21
-112.3908431160996
 31
0.0
  0
LINE
  5
FC28
330
1F
100
AcDbEntity
  8
AM_0
100
AcDbLine
 10
15.92349722647157
 20
-112.3908431160996
 30
0.0
 11
15.92349722647157
 21
-92.33062362343847
 31
0.0
  0
SPLINE
  5
FC29
330
1F
100
AcDbEntity
  8
AM_0
100
AcDbSpline
210
0.0
220
0.0
230
1.0
 70
    12
 71
     2
 72
     6
 73
     3
 74
     0
 42
0.0000000001
 43
0.0000000001
 40
8.732102569911586
 40
8.732102569911586
 40
8.732102569911586
 40
30.16048337995073
 40
30.16048337995073
 40
30.16048337995073
 10
31.44967319867976
 20
-112.3908431160996
 30
0.0
 41
1.064764214848983
 10
32.75970573230654
 20
-101.7650722114928
 30
0.0000000000000142
 41
1.130954169208908
 10
32.77900855761317
 20
-92.33062362343847
 30
0.0000000000000142
 41
1.131991029922502
  0
ARC
  5
FC2F
330
1F
100
AcDbEntity
  8
AM_0
100
AcDbCircle
 10
32.20878447375071
 20
-87.31425546270894
 30
0.0
 40
4.244985220828637
100
AcDbArc
 50
311.1119536340264
 51
333.2659909826612
  0
SPLINE
  5
FC30
330
1F
100
AcDbEntity
  8
AM_0
100
AcDbSpline
210
0.0
220
0.0
230
1.0
 70
     8
 71
     3
 72
    19
 73
    15
 74
     0
 42
0.0000000001
 43
0.0000000001
 40
32.52421219096079
 40
32.52421219096079
 40
32.52421219096079
 40
32.52421219096079
 40
32.5789276260937
 40
32.5789276260937
 40
32.5789276260937
 40
33.56140631575988
 40
33.56140631575988
 40
34.54388500542606
 40
34.54388500542606
 40
35.52636369509224
 40
35.52636369509224
 40
36.50884238475842
 40
36.50884238475842
 40
37.25470139178535
 40
37.25470139178535
 40
37.25470139178535
 40
37.25470139178535
 10
33.85493299531834
 20
-92.33062362343847
 30
0.0
 10
33.85966934257988
 20
-92.33062253605488
 30
0.0
 10
33.86439790920485
 20
-92.33054826871774
 30
0.0
 10
33.86911837476259
 20
-92.33039832380126
 30
0.0
 10
33.95387977352698
 20
-92.32770589003562
 30
0.0
 10
34.04209077346695
 20
-92.30041359901182
 30
0.0
 10
34.21921400188421
 20
-92.18929136794606
 30
0.0
 10
34.30812742871194
 20
-92.10547116928558
 30
0.0
 10
34.48055907732396
 20
-91.88219722051554
 30
0.0
 10
34.5641598955151
 20
-91.7426146527088
 30
0.0
 10
34.72047630169254
 20
-91.41608633503145
 30
0.0
 10
34.79317597091938
 20
-91.22910410657943
 30
0.0
 10
34.90751715234728
 20
-90.87310055632585
 30
0.0
 10
34.95551940293717
 20
-90.70094034556809
 30
0.0
 10
34.99999999777924
 20
-90.51253866235481
 30
0.0
  0
ELLIPSE
  5
FC31
330
1F
100
AcDbEntity
  8
AM_0
100
AcDbEllipse
 10
15.17224640326617
 20
-87.33062362343847
 30
0.0
 11
-1.029856249283759E-15
 21
-4.999999999999999
 31
0.0
210
0.0
220
0.0
230
1.0
 40
0.211985282680498
 41
0.3481660212729585
 42
1.22173047639603
  0
LINE
  5
FC38
330
1F
100
AcDbEntity
  8
AM_0
100
AcDbLine
 10
35.99999999999977
 20
-89.22385865677339
 30
0.0
 11
35.99999999999977
 21
-89.04072434006682
 31
0.0
  0
LINE
  5
FC3B
330
1F
100
AcDbEntity
  8
AM_0
100
AcDbLine
 10
10.33790352835104
 20
-123.0306236234385
 30
0.0
 11
31.44967319867988
 21
-123.0306236234385
 31
0.0
  0
LINE
  5
FC3C
330
1F
100
AcDbEntity
  8
AM_0
100
AcDbLine
 10
31.44967319867988
 20
-123.0306236234385
 30
0.0
 11
34.99999999999977
 21
-123.0306236234385
 31
0.0
  0
LINE
  5
FC3D
330
1F
100
AcDbEntity
  8
AM_0
100
AcDbLine
 10
7.706880232634035
 20
-123.0306236234385
 30
0.0
 11
9.736178802546874
 21
-123.0306236234385
 31
0.0
  0
SPLINE
  5
FC3E
330
1F
100
AcDbEntity
  8
AM_0
100
AcDbSpline
210
0.0
220
0.0
230
1.0
 70
     8
 71
     3
 72
    66
 73
    62
 74
     0
 42
0.0000000001
 43
0.0000000001
 40
0.2992942097534038
 40
0.2992942097534038
 40
0.2992942097534038
 40
0.2992942097534038
 40
0.6239808506855635
 40
0.6239808506855635
 40
1.247961701371127
 40
1.247961701371127
 40
1.871942552056691
 40
1.871942552056691
 40
2.495923402742254
 40
2.495923402742254
 40
3.511917035846488
 40
3.511917035846488
 40
4.527910668950723
 40
4.527910668950723
 40
5.543904302054957
 40
5.543904302054957
 40
6.55989793515919
 40
6.55989793515919
 40
7.723242936548719
 40
7.723242936548719
 40
8.886587937938248
 40
8.886587937938248
 40
10.04993293932778
 40
10.04993293932778
 40
11.21327794071731
 40
11.21327794071731
 40
12.52714307551186
 40
12.52714307551186
 40
13.18407564290914
 40
13.18407564290914
 40
13.84100821030641
 40
13.84100821030641
 40
14.49794077770369
 40
14.49794077770369
 40
15.15487334510096
 40
15.15487334510096
 40
16.46873847989552
 40
16.46873847989552
 40
17.63208348128504
 40
17.63208348128504
 40
18.79542848267457
 40
18.79542848267457
 40
19.9587734840641
 40
19.9587734840641
 40
21.12211848545363
 40
21.12211848545363
 40
22.13811211855787
 40
22.13811211855787
 40
23.1541057516621
 40
23.1541057516621
 40
24.17009938476634
 40
24.17009938476634
 40
25.18609301787057
 40
25.18609301787057
 40
25.81007386855614
 40
25.81007386855614
 40
26.4340547192417
 40
26.4340547192417
 40
27.05803556992726
 40
27.05803556992726
 40
27.38272221085943
 40
27.38272221085943
 40
27.38272221085943
 40
27.38272221085943
 10
9.73617880254676
 20
-123.0306236234385
 30
0.0
 10
9.627150763262648
 20
-123.0207577926515
 30
0.0
 10
9.51823483213002
 20
-123.0054653053587
 30
0.0
 10
9.203646422121892
 20
-122.9452195181634
 30
0.0
 10
9.001362215795325
 20
-122.8857166451075
 30
0.0
 10
8.619855793537454
 20
-122.7333116213074
 30
0.0
 10
8.440166145917829
 20
-122.6402508267354
 30
0.0
 10
8.112379430674082
 20
-122.4317404817649
 30
0.0
 10
7.964247793831305
 20
-122.3163046883625
 30
0.0
 10
7.622363092890055
 20
-122.0042382226787
 30
0.0
 10
7.439329105385355
 20
-121.7855443834531
 30
0.0
 10
7.13141846968324
 20
-121.3117359804575
 30
0.0
 10
7.006611329405814
 20
-121.0565786553477
 30
0.0
 10
6.813042814977166
 20
-120.5261507932283
 30
0.0
 10
6.744253973511604
 20
-120.2507390820179
 30
0.0
 10
6.656252460722726
 20
-119.698240039337
 30
0.0
 10
6.637041165448864
 20
-119.4211528863474
 30
0.0
 10
6.637041165448864
 20
-118.8471707623222
 30
0.0
 10
6.662235119242155
 20
-118.5245718140868
 30
0.0
 10
6.76725999939049
 20
-117.8661241930582
 30
0.0
 10
6.846988852622985
 20
-117.5302639018467
 30
0.0
 10
7.060624259770975
 20
-116.8655530614389
 30
0.0
 10
7.194418126852384
 20
-116.5366603515372
 30
0.0
 10
7.514632269401318
 20
-115.9068782129542
 30
0.0
 10
7.700841724541533
 20
-115.6059221285465
 30
0.0
 10
8.155089142639781
 20
-115.0196936686365
 30
0.0
 10
8.462493800228003
 20
-114.7034527180997
 30
0.0
 10
9.003626707706644
 20
-114.3519338742662
 30
0.0
 10
9.19733081480922
 20
-114.255014239608
 30
0.0
 10
9.60453721486499
 20
-114.1209487851139
 30
0.0
 10
9.818063642983134
 20
-114.0838748453976
 30
0.0
 10
10.25601868791466
 20
-114.0838748453976
 30
0.0
 10
10.46954511603281
 20
-114.1209487851139
 30
0.0
 10
10.87675151608846
 20
-114.255014239608
 30
0.0
 10
11.07045562319127
 20
-114.3519338742662
 30
0.0
 10
11.61158853066991
 20
-114.7034527180997
 30
0.0
 10
11.9189931882579
 20
-115.0196936686365
 30
0.0
 10
12.37324060635626
 20
-115.6059221285465
 30
0.0
 10
12.55945006149636
 20
-115.9068782129542
 30
0.0
 10
12.87966420404541
 20
-116.5366603515372
 30
0.0
 10
13.01345807112693
 20
-116.8655530614389
 30
0.0
 10
13.22709347827481
 20
-117.5302639018467
 30
0.0
 10
13.30682233150731
 20
-117.8661241930582
 30
0.0
 10
13.41184721165564
 20
-118.5245718140868
 30
0.0
 10
13.43704116544882
 20
-118.8471707623222
 30
0.0
 10
13.43704116544882
 20
-119.4211528863474
 30
0.0
 10
13.41782987017496
 20
-119.698240039337
 30
0.0
 10
13.32982835738619
 20
-120.2507390820179
 30
0.0
 10
13.26103951592063
 20
-120.5261507932283
 30
0.0
 10
13.06747100149198
 20
-121.0565786553477
 30
0.0
 10
12.94266386121444
 20
-121.3117359804575
 30
0.0
 10
12.63475322551244
 20
-121.7855443834531
 30
0.0
 10
12.45171923800763
 20
-122.0042382226787
 30
0.0
 10
12.10983453706649
 20
-122.3163046883625
 30
0.0
 10
11.9617029002236
 20
-122.4317404817649
 30
0.0
 10
11.63391618497997
 20
-122.6402508267354
 30
0.0
 10
11.45422653736023
 20
-122.7333116213074
 30
0.0
 10
11.07272011510236
 20
-122.8857166451075
 30
0.0
 10
10.87043590877579
 20
-122.9452195181634
 30
0.0
 10
10.55584749876778
 20
-123.0054653053587
 30
0.0
 10
10.44693156763515
 20
-123.0207577926515
 30
0.0
 10
10.33790352835104
 20
-123.0306236234385
 30
0.0
  0
ELLIPSE
  5
FC3F
330
1F
100
AcDbEntity
  8
AM_0
100
AcDbEllipse
 10
24.14445976358047
 20
-92.03062362343846
 30
0.0
 11
1.201868372174495E-14
 21
44.25
 31
0.0
210
0.0
220
0.0
230
1.0
 40
0.5205670505517661
 41
1.814937018545387
 42
2.346985249155006
  0
SPLINE
  5
FC40
330
1F
100
AcDbEntity
  8
AM_0
100
AcDbSpline
210
0.0
220
0.0
230
1.0
 70
     8
 71
     3
 72
    30
 73
    26
 74
     0
 42
0.0000000001
 43
0.0000000001
 40
1.587594024362224
 40
1.587594024362224
 40
1.587594024362224
 40
1.587594024362224
 40
1.661713013955186
 40
1.661713013955186
 40
1.696312272956078
 40
1.696312272956078
 40
1.713611902456524
 40
1.713611902456524
 40
1.73091153195697
 40
1.73091153195697
 40
1.753816823383719
 40
1.753816823383719
 40
1.776722114810468
 40
1.776722114810468
 40
1.896710132725061
 40
1.896710132725061
 40
2.079532106339425
 40
2.079532106339425
 40
2.262354079953788
 40
2.262354079953788
 40
2.627998027182514
 40
2.627998027182514
 40
2.968538358227629
 40
2.968538358227629
 40
2.994744908652619
 40
2.994744908652619
 40
2.994744908652619
 40
2.994744908652619
 10
2.062216164259553
 20
-101.5789929381627
 30
0.0
 10
2.052153500356098
 20
-101.5552890312775
 30
0.0
 10
2.040849760787069
 20
-101.5327792028906
 30
0.0
 10
2.01950947930743
 20
-101.5041699273274
 30
0.0
 10
2.011221311459849
 20
-101.4948200426202
 30
0.0
 10
1.996933356971795
 20
-101.484309941705
 30
0.0
 10
1.991866036947386
 20
-101.4813782555547
 30
0.0
 10
1.981214905567867
 20
-101.4773028629926
 30
0.0
 10
1.975632984779168
 20
-101.4761544461868
 30
0.0
 10
1.962231344470183
 20
-101.4761544461868
 30
0.0
 10
1.954407662799895
 20
-101.4783019289722
 30
0.0
 10
1.940139561638716
 20
-101.4857214313402
 30
0.0
 10
1.933653747532162
 20
-101.4909171837602
 30
0.0
 10
1.89988498462094
 20
-101.5237312025572
 30
0.0
 10
1.881390183250232
 20
-101.5669853765455
 30
0.0
 10
1.84685619559184
 20
-101.6595844658422
 30
0.0
 10
1.832063745714095
 20
-101.7195692485479
 30
0.0
 10
1.807433414120396
 20
-101.8434163565272
 30
0.0
 10
1.797978139269844
 20
-101.9073508785424
 30
0.0
 10
1.775943072560722
 20
-102.1003889639434
 30
0.0
 10
1.769866441612408
 20
-102.2305375304607
 30
0.0
 10
1.769866441612408
 20
-102.4594430205621
 30
0.0
 10
1.775090059717968
 20
-102.5804142758447
 30
0.0
 10
1.790151980747623
 20
-102.7085767608761
 30
0.0
 10
1.791280770625235
 20
-102.7177216983124
 30
0.0
 10
1.792464274976737
 20
-102.7268481571108
 30
0.0
  0
LINE
  5
FC41
330
1F
100
AcDbEntity
  8
AM_0
100
AcDbLine
 10
32.77900855761311
 20
-92.33062362343847
 30
0.0
 11
33.85493299531845
 21
-92.33062362343847
 31
0.0
  0
LINE
  5
FC42
330
1F
100
AcDbEntity
  8
AM_0
100
AcDbLine
 10
15.92349722647157
 20
-92.33062362343847
 30
0.0
 11
32.77900855761311
 21
-92.33062362343847
 31
0.0
  0
ARC
  5
FC43
330
1F
100
AcDbEntity
  8
AM_0
100
AcDbCircle
 10
32.99999999999977
 20
-30.22883796091551
 30
0.0
 40
31.00000000000007
100
AcDbArc
 50
263.5172989488685
 51
276.4827010511315
  0
ELLIPSE
  5
FC44
330
1F
100
AcDbEntity
  8
AM_0
100
AcDbEllipse
 10
24.7441459968469
 20
-74.03062362343849
 30
0.0
 11
-1.95020998388063
 21
-4.830753626650526
 31
0.0
210
0.0
220
0.0
230
1.0
 40
0.661411461250263
 41
2.95985173621939
 42
3.402521684557473
  0
LINE
  5
FC45
330
1F
100
AcDbEntity
  8
AM_0
100
AcDbLine
 10
16.16825143251663
 20
-89.04072434006682
 30
0.0
 11
18.32729213873915
 21
-61.05804783997063
 31
0.0
  0
ELLIPSE
  5
FC46
330
1F
100
AcDbEntity
  8
AM_0
100
AcDbEllipse
 10
3.688395009495821
 20
-92.03062362343846
 30
0.0
 11
31.60416264239287
 21
24.50023540864401
 31
0.0
210
0.0
220
0.0
230
1.0
 40
0.6009688174887221
 41
5.622629251358807
 42
6.984700123249336
  0
LINE
  5
FC49
330
1F
100
AcDbEntity
  8
AM_0
100
AcDbLine
 10
21.04181209666922
 20
-73.12238795891491
 30
0.0
 11
21.50480992564587
 21
-72.85272655142683
 31
0.0
  0
LINE
  5
FC4A
330
1F
100
AcDbEntity
  8
AM_0
100
AcDbLine
 10
27.23972896484543
 20
-69.51256760649412
 30
0.0
 11
27.70272679382197
 21
-69.24290619900603
 31
0.0
  0
ELLIPSE
  5
FC4B
330
1F
100
AcDbEntity
  8
AM_0
100
AcDbEllipse
 10
24.7441459968469
 20
-74.03062362343849
 30
0.0
 11
-2.145230982268694
 21
-5.313828989315582
 31
0.0
210
0.0
220
0.0
230
1.0
 40
0.6614114612502627
 41
4.807424382506321
 42
9.17111595296166
  0
LINE
  5
FC58
330
1F
100
AcDbEntity
  8
AM_0
100
AcDbLine
 10
29.49999999999977
 20
-61.03062362343847
 30
0.0
 11
19.6450758990793
 21
-61.03062362343847
 31
0.0
  0
LINE
  5
FC59
330
1F
100
AcDbEntity
  8
AM_0
100
AcDbLine
 10
38.99999999999977
 20
-61.03062362343847
 30
0.0
 11
36.49999999999977
 21
-61.03062362343847
 31
0.0
  0
LINE
  5
FC5A
330
1F
100
AcDbEntity
  8
AM_0
100
AcDbLine
 10
38.99999999999977
 20
-123.0306236234385
 30
0.0
 11
34.99999999999977
 21
-123.0306236234385
 31
0.0
  0
LINE
  5
FC5C
330
1F
100
AcDbEntity
  8
AM_0
100
AcDbLine
 10
1.769866441612408
 20
-99.97062362343846
 30
0.0
 11
1.769866441612408
 21
-102.3490588704537
 31
0.0
  0
LINE
  5
FC70
330
1F
100
AcDbEntity
  8
AM_0
100
AcDbLine
 10
13.36217845068165
 20
-98.07062362343848
 30
0.0
 11
13.73773844634729
 21
-98.07062362343848
 31
0.0
  0
LINE
  5
FC71
330
1F
100
AcDbEntity
  8
AM_0
100
AcDbLine
 10
31.44967319867988
 20
-112.3908431160996
 30
0.0
 11
31.44967319867988
 21
-123.0306236234385
 31
0.0
  0
LINE
  5
FC72
330
1F
100
AcDbEntity
  8
AM_0
100
AcDbLine
 10
34.99999999839224
 20
-123.0306236234385
 30
0.0
 11
34.99999999839224
 21
-90.51253866357041
 31
0.0
  0
LINE
  5
FC78
330
1F
100
AcDbEntity
  8
AM_0
100
AcDbLine
 10
10.33790352835104
 20
-123.0306236234385
 30
0.0
 11
9.736178802546874
 21
-123.0306236234385
 31
0.0
  0
LINE
  5
FC79
330
1F
100
AcDbEntity
  8
AM_0
100
AcDbLine
 10
13.13958682960038
 20
-99.97062362343846
 30
0.0
 11
13.36217845068165
 21
-99.97062362343846
 31
0.0
  0
LINE
  5
FC7A
330
1F
100
AcDbEntity
  8
AM_0
100
AcDbLine
 10
14.18430160771254
 20
-92.33062362343847
 30
0.0
 11
15.92349722647157
 21
-92.33062362343847
 31
0.0
  0
ELLIPSE
  5
FC7B
330
1F
100
AcDbEntity
  8
AM_0
100
AcDbEllipse
 10
25.48529539390302
 20
-74.03062362343849
 30
0.0
 11
1.219728652416291E-15
 21
5.0
 31
0.0
210
0.0
220
0.0
230
1.0
 40
0.8191520442889952
 41
5.40552768670742
 42
5.840515358841471
  0
ELLIPSE
  5
FC7C
330
1F
100
AcDbEntity
  8
AM_0
100
AcDbEllipse
 10
25.48529539390302
 20
-74.03062362343849
 30
0.0
 11
1.219728652416291E-15
 21
5.0
 31
0.0
210
0.0
220
0.0
230
1.0
 40
0.8191520442889952
 41
1.332981607511479
 42
3.104974777636349
  0
ELLIPSE
  5
FC7D
330
1F
100
AcDbEntity
  8
AM_0
100
AcDbEllipse
 10
25.48529539390302
 20
-74.03062362343849
 30
0.0
 11
1.341701517657920E-15
 21
5.5
 31
0.0
210
0.0
220
0.0
230
1.0
 40
0.8191520442889977
 41
1.404902697948812
 42
2.917598819828252
  0
LINE
  5
FC84
330
1F
100
AcDbEntity
  8
AM_0
100
AcDbLine
 10
25.48529539390302
 20
-69.03062362343835
 30
0.0
 11
25.80407241024955
 21
-69.03062362343835
 31
0.0
  0
ARC
  5
FC85
330
1F
100
AcDbEntity
  8
AM_0
100
AcDbCircle
 10
26.50274287407399
 20
-74.03062362343853
 30
0.0
 40
4.148339090818275
100
AcDbArc
 50
137.6281190163859
 51
222.3718809836129
  0
ELLIPSE
  5
FC86
330
1F
100
AcDbEntity
  8
AM_0
100
AcDbEllipse
 10
25.48529539390302
 20
-74.03062362343849
 30
0.0
 11
1.219728652416313E-15
 21
5.000000000000089
 31
0.0
210
0.0
220
0.0
230
1.0
 40
0.8191520442889954
 41
5.405527686707535
 42
7.853981633974483
  0
ELLIPSE
  5
FC87
330
1F
100
AcDbEntity
  8
AM_0
100
AcDbEllipse
 10
25.48529539390302
 20
-74.03062362343849
 30
0.0
 11
1.219728652416313E-15
 21
5.000000000000089
 31
0.0
210
0.0
220
0.0
230
1.0
 40
0.8191520442889954
 41
1.570796326794897
 42
3.104974777636291
  0
ELLIPSE
  5
FC88
330
1F
100
AcDbEntity
  8
AM_0
100
AcDbEllipse
 10
25.48529539390302
 20
-74.03062362343849
 30
0.0
 11
9.147964893122597E-16
 21
3.750000000000169
 31
0.0
210
0.0
220
0.0
230
1.0
 40
0.8191520442889952
 41
4.50664877066652
 42
7.012654430113998
  0
ELLIPSE
  5
FC89
330
1F
100
AcDbEntity
  8
AM_0
100
AcDbEllipse
 10
25.48529539390302
 20
-74.03062362343849
 30
0.0
 11
9.147964893122597E-16
 21
3.750000000000169
 31
0.0
210
0.0
220
0.0
230
1.0
 40
0.8191520442889952
 41
2.412123530655382
 42
3.900820309449761
  0
ELLIPSE
  5
FC8A
330
1F
100
AcDbEntity
  8
AM_0
100
AcDbEllipse
 10
24.51021545210631
 20
-74.03062362343849
 30
0.0
 11
5.402204540861633E-16
 21
2.214510797200601
 31
0.0
210
0.0
220
0.0
230
1.0
 40
0.8191520442889952
 41
1.570796326794897
 42
7.853981633974483
  0
ELLIPSE
  5
FC8B
330
1F
100
AcDbEntity
  8
AM_0
100
AcDbEllipse
 10
24.51021545210642
 20
-74.03062362343846
 30
0.0
 11
4.147077418215390E-16
 21
1.7
 31
0.0
210
0.0
220
0.0
230
1.0
 40
0.8191520442889952
 41
1.570796326794897
 42
7.853981633974483
  0
LINE
  5
FC8C
330
1F
100
AcDbEntity
  8
AM_0
100
AcDbLine
 10
-101.7101656280007
 20
11.527780452092
 30
0.0
 11
-101.9101656280008
 21
12.66778045209193
 31
0.0
  0
LINE
  5
FC8D
330
1F
100
AcDbEntity
  8
AM_0
100
AcDbLine
 10
-101.7101656280006
 20
8.707780452092493
 30
0.0
 11
-101.9101656280008
 21
7.567780452091938
 31
0.0
  0
LINE
  5
FC8E
330
1F
100
AcDbEntity
  8
AM_0
100
AcDbLine
 10
-101.7101656280007
 20
10.82278045209196
 30
0.0
 11
-101.7101656280007
 21
11.527780452092
 31
0.0
  0
LINE
  5
FC8F
330
1F
100
AcDbEntity
  8
AM_0
100
AcDbLine
 10
-101.7101656280007
 20
9.41278045209188
 30
0.0
 11
-101.7101656280007
 21
10.82278045209196
 31
0.0
  0
LINE
  5
FC90
330
1F
100
AcDbEntity
  8
AM_0
100
AcDbLine
 10
-101.7101656280007
 20
8.707780452091896
 30
0.0
 11
-101.7101656280007
 21
9.41278045209188
 31
0.0
  0
LINE
  5
FC91
330
1F
100
AcDbEntity
  8
AM_0
100
AcDbLine
 10
-109.8501656280007
 20
12.98337669334697
 30
0.0
 11
-109.8501656280007
 21
1.591918097270337
 31
0.0
  0
LINE
  5
FC92
330
1F
100
AcDbEntity
  8
AM_0
100
AcDbLine
 10
-106.6701656280008
 20
12.98337669334697
 30
0.0
 11
-109.8501656280007
 21
12.98337669334697
 31
0.0
  0
LINE
  5
FC93
330
1F
100
AcDbEntity
  8
AM_0
100
AcDbLine
 10
-109.8501656280007
 20
13.14438352137285
 30
0.0
 11
-109.8501656280007
 21
12.98337669334697
 31
0.0
  0
LINE
  5
FC94
330
1F
100
AcDbEntity
  8
AM_0
100
AcDbLine
 10
-106.6701656280008
 20
1.299568374623334
 30
0.0
 11
-109.8501656280007
 21
1.299568374623334
 31
0.0
  0
LINE
  5
FC95
330
1F
100
AcDbEntity
  8
AM_0
100
AcDbLine
 10
-109.8501656280007
 20
1.299568374623334
 30
0.0
 11
-109.8501656280007
 21
1.591918097270337
 31
0.0
  0
LINE
  5
FC96
330
1F
100
AcDbEntity
  8
AM_0
100
AcDbLine
 10
-101.9101656280008
 20
13.64880298740289
 30
0.0
 11
-106.6701656280008
 21
13.21547552382
 31
0.0
  0
LINE
  5
FC97
330
1F
100
AcDbEntity
  8
AM_0
100
AcDbLine
 10
-101.9101656280008
 20
13.64880298740289
 30
0.0
 11
-101.9101656280008
 21
1.169398890587871
 31
0.0
  0
LINE
  5
FC98
330
1F
100
AcDbEntity
  8
AM_0
100
AcDbLine
 10
-101.9101656280008
 20
20.14516957072959
 30
0.0
 11
-101.9101656280008
 21
13.64880298740289
 31
0.0
  0
LINE
  5
FC99
330
1F
100
AcDbEntity
  8
AM_0
100
AcDbLine
 10
-106.6701656280008
 20
13.85678119482915
 30
0.0
 11
-106.6701656280008
 21
13.21547552382
 31
0.0
  0
LINE
  5
FC9A
330
1F
100
AcDbEntity
  8
AM_0
100
AcDbLine
 10
-106.6701656280008
 20
13.21547552382
 30
0.0
 11
-106.6701656280008
 21
0.8995278311435584
 31
0.0
  0
LINE
  5
FC9B
330
1F
100
AcDbEntity
  8
AM_0
100
AcDbLine
 10
-106.6701656280008
 20
0.5844545098976539
 30
0.0
 11
-101.9101656280008
 21
-0.000000000000199
 31
0.0
  0
LINE
  5
FC9C
330
1F
100
AcDbEntity
  8
AM_0
100
AcDbLine
 10
-102.2101656280007
 20
20.19872553591628
 30
0.0
 11
-101.9101656280008
 21
20.23556090418714
 31
0.0
  0
LINE
  5
FC9D
330
1F
100
AcDbEntity
  8
AM_0
100
AcDbLine
 10
-101.9101656280008
 20
-0.000000000000199
 30
0.0
 11
-101.9101656280008
 21
1.169398890587871
 31
0.0
  0
LINE
  5
FC9E
330
1F
100
AcDbEntity
  8
AM_0
100
AcDbLine
 10
-106.6701656280008
 20
0.8995278311435584
 30
0.0
 11
-106.6701656280008
 21
0.5844545098976539
 31
0.0
  0
LINE
  5
FC9F
330
1F
100
AcDbEntity
  8
AM_0
100
AcDbLine
 10
-101.9101656280008
 20
20.14516957072959
 30
0.0
 11
-101.9101656280008
 21
20.23556090418714
 31
0.0
  0
ARC
  5
FCA0
330
1F
100
AcDbEntity
  8
AM_0
100
AcDbCircle
 10
-101.9108097510026
 20
45.0044197324055
 30
0.0
 40
31.50443841142458
100
AcDbArc
 50
271.8720443236475
 51
284.7115495999749
  0
ARC
  5
FCA1
330
1F
100
AcDbEntity
  8
AM_0
100
AcDbCircle
 10
-101.9101656280006
 20
44.99999999999909
 30
0.0
 40
31.50000000000073
100
AcDbArc
 50
73.39845040097703
 51
106.6015495990229
  0
LINE
  5
FCA2
330
1F
100
AcDbEntity
  8
AM_0
100
AcDbLine
 10
-110.9101656280007
 20
74.66479394838251
 30
0.0
 11
-110.9101656280007
 21
75.18691769624701
 31
0.0
  0
LINE
  5
FCA3
330
1F
100
AcDbEntity
  8
AM_0
100
AcDbLine
 10
-93.91016562800064
 20
15.05004173625596
 30
0.0
 11
-93.91016562800064
 21
14.53280452683558
 31
0.0
  0
LINE
  5
FCA4
330
1F
100
AcDbEntity
  8
AM_0
100
AcDbLine
 10
-92.9101656280007
 20
75.18691769624701
 30
0.0
 11
-92.9101656280007
 21
74.66479394838251
 31
0.0
  0
ARC
  5
FCA5
330
1F
100
AcDbEntity
  8
AM_0
100
AcDbCircle
 10
-101.9101656280008
 20
44.99999999999983
 30
0.0
 40
31.0
100
AcDbArc
 50
2.410215748292952
 51
180.0
  0
ARC
  5
FCA6
330
1F
100
AcDbEntity
  8
AM_0
100
AcDbCircle
 10
-101.9101656280008
 20
44.99999999999983
 30
0.0
 40
31.5
100
AcDbArc
 50
292.5900235973335
 51
301.882603353004
  0
LINE
  5
FCA7
330
1F
100
AcDbEntity
  8
AM_0
100
AcDbLine
 10
-89.80992678386622
 20
15.91677081349272
 30
0.0
 11
-85.27247867660765
 21
18.2523389264135
 31
0.0
  0
LINE
  5
FCA8
330
1F
100
AcDbEntity
  8
AM_0
100
AcDbLine
 10
-100.3918239909411
 20
14.03352479111362
 30
0.0
 11
-99.1031468946635
 21
14.1236982554164
 31
0.0
  0
ARC
  5
FCA9
330
1F
100
AcDbEntity
  8
AM_0
100
AcDbCircle
 10
-96.52949133280333
 20
9.923595290607324
 30
0.0
 40
5.642808021072303
100
AcDbArc
 50
133.1975128126936
 51
158.7287369458303
  0
ELLIPSE
  5
FCAA
330
1F
100
AcDbEntity
  8
AM_0
100
AcDbEllipse
 10
-97.21016562800071
 20
28.41051412869419
 30
0.0
 11
2.884874519834597E-15
 21
6.011141398462137
 31
0.0
210
0.0
220
0.0
230
1.0
 40
0.8317887849517526
 41
0.3490658503988665
 42
1.570796326794897
  0
ELLIPSE
  5
FCAB
330
1F
100
AcDbEntity
  8
AM_0
100
AcDbEllipse
 10
-97.21016562800071
 20
7.58276053196775
 30
0.0
 11
1.691580358719377E-15
 21
7.071067811864266
 31
0.0
210
0.0
220
0.0
230
1.0
 40
0.7071067811866686
 41
0.3490658503988675
 42
0.3883340183046775
  0
LINE
  5
FCAC
330
1F
100
AcDbEntity
  8
AM_0
100
AcDbLine
 10
-132.9101656280008
 20
44.9999999999998
 30
0.0
 11
-132.9101656280008
 21
27.43365623335518
 31
0.0
  0
ARC
  5
FCAD
330
1F
100
AcDbEntity
  8
AM_0
100
AcDbCircle
 10
-101.9101656280008
 20
44.99999999999983
 30
0.0
 40
44.25
100
AcDbArc
 50
225.5276506439578
 51
256.0117687552889
  0
LINE
  5
FCAE
330
1F
100
AcDbEntity
  8
AM_0
100
AcDbLine
 10
-132.9101656280008
 20
27.43365623335521
 30
0.0
 11
-132.9101656280008
 21
13.42370351038599
 31
0.0
  0
LINE
  5
FCAF
330
1F
100
AcDbEntity
  8
AM_0
100
AcDbLine
 10
-102.2101656280007
 20
27.43365623335521
 30
0.0
 11
-132.9101656280008
 21
27.43365623335521
 31
0.0
  0
LINE
  5
FCB0
330
1F
100
AcDbEntity
  8
AM_0
100
AcDbLine
 10
-105.4679041991899
 20
13.85678119482915
 30
0.0
 11
-102.2101656280007
 21
14.47536367274364
 31
0.0
  0
LINE
  5
FCB1
330
1F
100
AcDbEntity
  8
AM_0
100
AcDbLine
 10
-107.9501656280007
 20
13.85678119482915
 30
0.0
 11
-105.4679041991899
 21
13.85678119482915
 31
0.0
  0
LINE
  5
FCB2
330
1F
100
AcDbEntity
  8
AM_0
100
AcDbLine
 10
-107.9501656280007
 20
13.39284433639301
 30
0.0
 11
-107.9501656280007
 21
13.85678119482915
 31
0.0
  0
LINE
  5
FCB3
330
1F
100
AcDbEntity
  8
AM_0
100
AcDbLine
 10
-109.8501656280007
 20
13.39284433639301
 30
0.0
 11
-107.9501656280007
 21
13.39284433639301
 31
0.0
  0
LINE
  5
FCB4
330
1F
100
AcDbEntity
  8
AM_0
100
AcDbLine
 10
-112.6066932306032
 20
2.060922551393645
 30
0.0
 11
-111.3561470027078
 21
1.767943315380535
 31
0.0
  0
LINE
  5
FCB5
330
1F
100
AcDbEntity
  8
AM_0
100
AcDbLine
 10
-109.8501656280007
 20
13.14438352137285
 30
0.0
 11
-109.8501656280007
 21
13.39284433639301
 31
0.0
  0
LINE
  5
FCB6
330
1F
100
AcDbEntity
  8
AM_0
100
AcDbLine
 10
-102.2101656280007
 20
14.47536367274364
 30
0.0
 11
-102.2101656280007
 21
27.43365623335521
 31
0.0
  0
LINE
  5
FCB7
330
1F
100
AcDbEntity
  8
AM_0
100
AcDbLine
 10
-102.2101656280007
 20
27.43365623335518
 30
0.0
 11
-102.2101656280007
 21
28.41051412869416
 31
0.0
  0
ELLIPSE
  5
FCB8
330
1F
100
AcDbEntity
  8
AM_0
100
AcDbEllipse
 10
-83.91016562800076
 20
33.2094185614431
 30
0.0
 11
-4.741071105934898
 21
-2.575663108823656
 31
0.0
210
0.0
220
0.0
230
1.0
 40
0.6166014722283577
 41
2.818362033258449
 42
4.151343640769964
  0
LINE
  5
FCB9
330
1F
100
AcDbEntity
  8
AM_0
100
AcDbLine
 10
-98.92026634462911
 20
34.05913934332975
 30
0.0
 11
-70.93758984453291
 21
46.30366764834429
 31
0.0
  0
ARC
  5
FCBA
330
1F
100
AcDbEntity
  8
AM_0
100
AcDbCircle
 10
-101.9101656280008
 20
44.99999999999983
 30
0.0
 40
31.00000000000001
100
AcDbArc
 50
284.3693033912625
 51
2.410215748292952
  0
ELLIPSE
  5
FCBB
330
1F
100
AcDbEntity
  8
AM_0
100
AcDbEllipse
 10
-96.91016562800064
 20
12.26205321750445
 30
0.0
 11
-2.370990523418576
 21
-3.058467352486859
 31
0.0
210
0.0
220
0.0
230
1.0
 40
0.6009688174887218
 41
2.938268641480614
 42
4.05294036480699
  0
LINE
  5
FCBC
330
1F
100
AcDbEntity
  8
AM_0
100
AcDbLine
 10
-98.92026634462911
 20
14.22739077585337
 30
0.0
 11
-96.91016562800064
 21
15.26205321750339
 31
0.0
  0
LINE
  5
FCBD
330
1F
100
AcDbEntity
  8
AM_0
100
AcDbLine
 10
-83.00192996347721
 20
37.37925009617874
 30
0.0
 11
-82.73226855598909
 21
37.05505552615455
 31
0.0
  0
LINE
  5
FCBE
330
1F
100
AcDbEntity
  8
AM_0
100
AcDbLine
 10
-79.39210961105641
 20
33.03942198388472
 30
0.0
 11
-79.1224482035683
 21
32.71522741386059
 31
0.0
  0
ELLIPSE
  5
FCBF
330
1F
100
AcDbEntity
  8
AM_0
100
AcDbEllipse
 10
-83.91016562800076
 20
33.2094185614431
 30
0.0
 11
-5.215178216528392
 21
-2.833229419706023
 31
0.0
210
0.0
220
0.0
230
1.0
 40
0.6166014722283577
 41
4.223264731207294
 42
8.586956301662632
  0
LINE
  5
FCC0
330
1F
100
AcDbEntity
  8
AM_0
100
AcDbLine
 10
-109.8501656280007
 20
1.769866441606638
 30
0.0
 11
-111.3556964507491
 21
1.769866441606638
 31
0.0
  0
ARC
  5
FCC1
330
1F
100
AcDbEntity
  8
AM_0
100
AcDbCircle
 10
-101.9101656280008
 20
44.99999999999983
 30
0.0
 40
31.5
100
AcDbArc
 50
106.6015495990229
 51
190.2221793905772
  0
ARC
  5
FCC2
330
1F
100
AcDbEntity
  8
AM_0
100
AcDbCircle
 10
-101.9101656280008
 20
44.99999999999983
 30
0.0
 40
31.5
100
AcDbArc
 50
301.882603353004
 51
73.39845040097703
  0
ARC
  5
FCC3
330
1F
100
AcDbEntity
  8
AM_0
100
AcDbCircle
 10
-101.9101656280008
 20
44.99999999999983
 30
0.0
 40
31.5
100
AcDbArc
 50
284.7124579609031
 51
292.5900235973335
  0
ELLIPSE
  5
FCC4
330
1F
100
AcDbEntity
  8
AM_0
100
AcDbEllipse
 10
-83.91016562800076
 20
34.26788959554682
 30
0.0
 11
5.0
 21
-1.219728652416292E-15
 31
0.0
210
0.0
220
0.0
230
1.0
 40
0.5735764363510412
 41
3.380281826670622
 42
5.840515358841472
  0
ELLIPSE
  5
FCC5
330
1F
100
AcDbEntity
  8
AM_0
100
AcDbEllipse
 10
-83.91016562800076
 20
34.26788959554682
 30
0.0
 11
5.0
 21
-1.219728652416292E-15
 31
0.0
210
0.0
220
0.0
230
1.0
 40
0.5735764363510412
 41
1.332981607511479
 42
1.585783078912801
  0
ELLIPSE
  5
FCC6
330
1F
100
AcDbEntity
  8
AM_0
100
AcDbEllipse
 10
-83.91016562800076
 20
34.26788959554682
 30
0.0
 11
5.5
 21
-1.341701517657921E-15
 31
0.0
210
0.0
220
0.0
230
1.0
 40
0.5735764363510378
 41
3.517417397715116
 42
5.768594268404147
  0
LINE
  5
FCC7
330
1F
100
AcDbEntity
  8
AM_0
100
AcDbLine
 10
-78.91016562800064
 20
34.26788959554671
 30
0.0
 11
-78.91016562800064
 21
34.72315035603722
 31
0.0
  0
ARC
  5
FCC8
330
1F
100
AcDbEntity
  8
AM_0
100
AcDbCircle
 10
-83.91016562800076
 20
35.76770119048376
 30
0.0
 40
4.172847632956282
100
AcDbArc
 50
211.8606029041857
 51
328.1393970958157
  0
ELLIPSE
  5
FCC9
330
1F
100
AcDbEntity
  8
AM_0
100
AcDbEllipse
 10
-83.91016562800076
 20
34.26788959554671
 30
0.0
 11
5.000000000000089
 21
-1.219728652416313E-15
 31
0.0
210
0.0
220
0.0
230
1.0
 40
0.5735764363510413
 41
3.380281826670619
 42
7.853981633974483
  0
ELLIPSE
  5
FCCA
330
1F
100
AcDbEntity
  8
AM_0
100
AcDbEllipse
 10
-83.91016562800076
 20
34.26788959554671
 30
0.0
 11
5.000000000000089
 21
-1.219728652416313E-15
 31
0.0
210
0.0
220
0.0
230
1.0
 40
0.5735764363510413
 41
1.570796326794897
 42
1.585783078912848
  0
ELLIPSE
  5
FCCB
330
1F
100
AcDbEntity
  8
AM_0
100
AcDbEllipse
 10
-83.91016562800076
 20
34.26788959554671
 30
0.0
 11
3.750000000000169
 21
-9.147964893122597E-16
 31
0.0
210
0.0
220
0.0
230
1.0
 40
0.5735764363510413
 41
5.950305703530489
 42
7.853981633974483
  0
ELLIPSE
  5
FCCC
330
1F
100
AcDbEntity
  8
AM_0
100
AcDbEllipse
 10
-83.91016562800076
 20
34.26788959554671
 30
0.0
 11
3.750000000000169
 21
-9.147964893122597E-16
 31
0.0
210
0.0
220
0.0
230
1.0
 40
0.5735764363510413
 41
1.570796326794897
 42
3.474472257238889
  0
ELLIPSE
  5
FCCD
330
1F
100
AcDbEntity
  8
AM_0
100
AcDbEllipse
 10
-83.91016562800076
 20
32.87533112025545
 30
0.0
 11
2.214510797200601
 21
-5.402204540861633E-16
 31
0.0
210
0.0
220
0.0
230
1.0
 40
0.5735764363510413
 41
1.570796326794897
 42
7.853981633974483
  0
ELLIPSE
  5
FCCE
330
1F
100
AcDbEntity
  8
AM_0
100
AcDbEllipse
 10
-83.91016562800076
 20
32.87533112025545
 30
0.0
 11
1.7
 21
-4.147077418215390E-16
 31
0.0
210
0.0
220
0.0
230
1.0
 40
0.5735764363510413
 41
1.570796326794897
 42
7.853981633974483
  0
LINE
  5
1115A
330
1F
100
AcDbEntity
  8
AM_7
100
AcDbLine
 10
-136.2041656280007
 20
44.99999999999983
 30
0.0
 11
-67.61616562800077
 21
44.99999999999983
 31
0.0
1001
GENIUS_GENODEF_13
1002
{
1000
HIER
1070
     0
1002
}
1002
{
1000
MANEDIT
1070
     0
1002
}
1002
{
1000
NOSEL
1070
     0
1002
}
1002
{
1000
BEHIND
1070
     0
1002
}
1002
{
1000
OTHER
1070
     0
1002
}
1002
{
1000
REACTOR
1002
}
1001
GENIUS_GENOBJ-N-CEN_13
1002
{
1000
OWNER
1000
GEN
1002
}
1001
GENIUS_GENCEN_19
1002
{
1040
2.794
1002
}
  0
LINE
  5
11167
330
1F
100
AcDbEntity
  8
AM_7
100
AcDbLine
 10
-101.9101656280007
 20
79.29399999999981
 30
0.0
 11
-101.9101656280008
 21
-4.113803621344403
 31
0.0
1001
GENIUS_GENODEF_13
1002
{
1000
HIER
1070
     0
1002
}
1002
{
1000
MANEDIT
1070
     0
1002
}
1002
{
1000
NOSEL
1070
     0
1002
}
1002
{
1000
BEHIND
1070
     0
1002
}
1002
{
1000
OTHER
1070
     0
1002
}
1002
{
1000
REACTOR
1002
}
1001
GENIUS_GENOBJ-N-CEN_13
1002
{
1000
OWNER
1000
GEN
1002
}
1001
GENIUS_GENCEN_19
1002
{
1040
2.794
1002
}
  0
ENDSEC
  0
SECTION
  2
OBJECTS
  0
DICTIONARY
  5
C
330
0
100
AcDbDictionary
281
     1
  3
ACAD_COLOR
350
99D5
  3
ACAD_GROUP
350
D
  3
ACAD_LAYOUT
350
1A
  3
ACAD_MATERIAL
350
99D4
  3
ACAD_MLINESTYLE
350
17
  3
ACAD_PLOTSETTINGS
350
19
  3
ACAD_PLOTSTYLENAME
350
E
  3
ACAD_TABLESTYLE
350
99D6
  3
AcAmCatalogState
350
9A2C
  3
ACDBHEADERROUNDTRIPXREC
350
11976
  3
AcDbVariableDictionary
350
30
  3
ACDMSYSVARMGR
350
99EF
  3
ACGREF_MASTER
350
23CD
  3
ACGREFACAD_MASTER
350
23D1
  3
AcmDictionary
350
4D
  3
ACME_BOM_MANAGER_NAME
350
99A7
  3
ACME_COMMAND_HISTORY
350
99A2
  3
ACME_SCOPE_NAME
350
99A1
  3
ACMESTATEMGR
350
99AC
  3
AcmeSysVarManager
350
99A3
  3
AcmSystemVariableManager
350
9A2A
  3
AD_APPL
350
9A17
  3
ADSYSVARMGR
350
9A16
  3
AmdtNamedDwgMgr
350
9A0A
  3
AMG
350
3F
  3
AMGSNAPSETTINGS
350
73
  3
AMI_MASTER
350
23D2
  3
AUTOCAD_ASSEMBLIES_PROJECT
350
9A1F
  3
Designer_Assemblies_SysVars
350
9A1A
  3
DWGPROPS
350
11979
  3
FILENAME
350
1C9F
  3
GREFAM_MODULE
350
9A10
  3
ZWKSIZE
350
1CA1
  0
DICTIONARY
  5
9B25
330
2
100
AcDbDictionary
280
     1
281
     1
  3
ACAD_LAYERFILTERS
360
9F3B
  3
ACAD_LAYERSTATES
360
9B26
  3
ACLYDICTIONARY
360
9F3A
  3
AMLAYER_GROUPCOLORS
360
9F39
  0
DICTIONARY
  5
165
330
1F
100
AcDbDictionary
280
     1
281
     1
  3
ACAD_LAYOUTSELFREF
360
98ED
  3
ACAD_SORTENTS
360
C040
  0
DICTIONARY
  5
264F
330
1B
100
AcDbDictionary
280
     1
281
     1
  3
ACAD_LAYOUTSELFREF
360
98EC
  0
DICTIONARY
  5
2651
330
23
100
AcDbDictionary
280
     1
281
     1
  3
ACAD_LAYOUTSELFREF
360
98EE
  0
DICTIONARY
  5
99D5
102
{ACAD_REACTORS
330
C
102
}
330
C
100
AcDbDictionary
281
     1
  0
DICTIONARY
  5
D
102
{ACAD_REACTORS
330
C
102
}
330
C
100
AcDbDictionary
281
     1
  0
DICTIONARY
  5
1A
102
{ACAD_REACTORS
330
C
102
}
330
C
100
AcDbDictionary
281
     1
  3
Model
350
22
  3
ﾚｲｱｳﾄ1
350
1E
  3
ﾚｲｱｳﾄ2
350
26
  0
DICTIONARY
  5
99D4
102
{ACAD_REACTORS
330
C
102
}
330
C
100
AcDbDictionary
281
     1
  0
DICTIONARY
  5
17
102
{ACAD_REACTORS
330
C
102
}
330
C
100
AcDbDictionary
281
     1
  3
Standard
350
18
  0
DICTIONARY
  5
19
102
{ACAD_REACTORS
330
C
102
}
330
C
100
AcDbDictionary
281
     1
  0
ACDBDICTIONARYWDFLT
  5
E
102
{ACAD_REACTORS
330
C
102
}
330
C
100
AcDbDictionary
281
     1
  3
Normal
350
F
100
AcDbDictionaryWithDefault
340
F
  0
DICTIONARY
  5
99D6
102
{ACAD_REACTORS
330
C
102
}
330
C
100
AcDbDictionary
281
     1
  3
Standard
350
99D7
  0
ACAD_PROXY_OBJECT
  5
9A2C
102
{ACAD_REACTORS
330
C
102
}
330
C
100
AcDbProxyObject
 90
      499
 91
      584
 95
       25
 70
     0
 93
      424
310
3FFFFFFFE00A0281402902C1D2E482B415AC15141BA41A441C5C1AFAE20A1A0A226991818182E24A1AA26C00A3FFFFFFFCFFFF1F40
  0
DICTIONARY
  5
11976
102
{ACAD_REACTORS
330
C
102
}
330
C
100
AcDbDictionary
281
     1
  3
COLORDICT
350
11977
  3
MATERIALDICT
350
11978
  0
DICTIONARY
  5
30
102
{ACAD_REACTORS
330
C
102
}
330
C
100
AcDbDictionary
281
     1
  3
CTABLESTYLE
350
9A53
  3
HIDETEXT
350
11975
  3
INDEXCTL
350
11974
  0
ACAD_PROXY_OBJECT
  5
99EF
102
{ACAD_REACTORS
330
C
102
}
330
C
100
AcDbProxyObject
 90
      499
 91
      507
 95
       25
 70
     0
 93
      240
310
4C51A47A0000000000000000000000000000000000000000000000000000
330
99F0
330
99F1
330
99F2
330
99F3
330
99F4
330
99F5
330
99F6
330
99F7
330
99F8
330
99F9
330
99FA
330
99FB
330
99FC
330
99FD
330
99FE
330
99FF
330
9A00
330
9A01
330
9A02
330
9A03
330
9A04
330
9A05
330
9A06
330
9A07
330
9A08
330
9A09
 94
        0
  0
ACAD_PROXY_OBJECT
  5
23CD
102
{ACAD_REACTORS
330
C
102
}
330
C
100
AcDbProxyObject
 90
      499
 91
      534
 95
       25
 70
     0
 93
       34
310
0400004280
  0
ACAD_PROXY_OBJECT
  5
23D1
102
{ACAD_REACTORS
330
C
102
}
330
C
100
AcDbProxyObject
 90
      499
 91
      535
 95
       25
 70
     0
 93
      114
310
04000041C080000000000000000000
  0
DICTIONARY
  5
4D
102
{ACAD_REACTORS
330
C
102
}
330
C
100
AcDbDictionary
281
     1
  3
AcmBOMDATA
350
99B0
  3
AcmStdDictionary
350
17E
  3
AMDTSECTSYM_ARROWCOLOR
350
9A47
  0
ACAD_PROXY_OBJECT
  5
99A7
102
{ACAD_REACTORS
330
C
102
}
330
C
100
AcDbProxyObject
 90
      499
 91
      510
 95
       25
 70
     0
 93
       50
310
00010040400000
330
0
330
0
330
99A8
 94
        0
  0
ACAD_PROXY_OBJECT
  5
99A2
102
{ACAD_REACTORS
330
C
102
}
330
C
100
AcDbProxyObject
 90
      499
 91
      505
 95
       25
 70
     0
 93
     5732
310
47805055153415645404052D4D5347202D205050413A2020206465736B746F702E6172782046696C6556657273696F6E3A20392E322E302E34014390535115149154D15511109353D1102014213880B4815539113C05084E202D20554E444F014115539113E014115539113E014151549054D16014151549054D1601415154
310
9054D16014151549054D16014151549054D1501014B5354D1C80B481414104E88080819195CDADD1BDC0B985C9E08119A5B1955995C9CDA5BDB8E880E4B8C8B8C0B8D005054552415345805054552415345805054552415345805054552415345404052D4D5347202D205050413A2020206465736B746F702E617278204669
310
6C6556657273696F6E3A20392E322E302E34014151549054D16014151549054D16014151549054D16014151549054D1501014B5354D1C80B481414104E88080819195CDADD1BDC0B985C9E08119A5B1955995C9CDA5BDB8E880E4B8C8B8C0B8D00505455241534580505455241534580505455241534580505455241534540
310
4052D4D5347202D205050413A2020206465736B746F702E6172782046696C6556657273696F6E3A20392E322E302E34014151549054D16014151549054D1501014B5354D1C80B481414104E88080819195CDADD1BDC0B985C9E08119A5B1955995C9CDA5BDB8E880E4B8C8B8C0B8D005054552415345805054552415345408
310
052D4D5347202D205050413A2020206465736B746F702E6172782046696C6556657273696F6E3A20392E322E302E34014B5354D1C80B481414104E88080819195CDADD1BDC0B985C9E08119A5B1955995C9CDA5BDB8E880E4B8C8B8C0B8D0050E414D4454524553455444424D4F4440805084E202D20554E444F014213880B
310
4815539113C0504554E444F80504554E444F805055055524745805055153415645404052D4D5347202D205050413A2020206465736B746F702E6172782046696C6556657273696F6E3A20392E322E302E340
  0
ACAD_PROXY_OBJECT
  5
99A1
102
{ACAD_REACTORS
330
C
102
}
330
C
100
AcDbProxyObject
 90
      499
 91
      504
 95
       25
 70
     0
 93
      578
310
09000046408000000000000000001334DE000000000000000000000000000000000000000000000000000000000000000000000000000000000000000000000000000000AAA406AA80
360
99A4
360
99A5
360
99A6
360
99A8
360
99E8
360
99E9
360
99EA
360
99EB
360
99EC
360
99ED
360
99F0
360
99F1
360
99F2
360
99F3
360
99F4
360
99F5
360
99F6
360
99F7
360
99F8
360
99F9
360
99FA
360
99FB
360
99FC
360
99FD
360
99FE
360
99FF
360
9A00
360
9A01
360
9A02
360
9A03
360
9A04
360
9A05
360
9A06
360
9A07
360
9A08
360
9A09
360
9A12
360
9A13
360
9A14
360
9A15
360
9A1B
360
9A1C
360
9A1D
360
9A1E
360
9A23
360
9A24
360
9A25
360
9A26
360
9A27
360
9A28
360
9A2B
 94
        0
  0
ACAD_PROXY_OBJECT
  5
99AC
102
{ACAD_REACTORS
330
C
102
}
330
C
100
AcDbProxyObject
 90
      499
 91
      515
 95
       25
 70
     0
 93
       50
310
09000042641280
  0
ACAD_PROXY_OBJECT
  5
99A3
102
{ACAD_REACTORS
330
C
102
}
330
C
100
AcDbProxyObject
 90
      499
 91
      507
 95
       25
 70
     0
 93
       48
310
903412000000
330
99A4
330
99A5
330
99A6
 94
        0
  0
ACAD_PROXY_OBJECT
  5
9A2A
102
{ACAD_REACTORS
330
C
102
}
330
C
100
AcDbProxyObject
 90
      499
 91
      507
 95
       25
 70
     0
 93
       32
310
90140A00
330
9A2B
 94
        0
  0
ACAD_PROXY_OBJECT
  5
9A17
102
{ACAD_REACTORS
330
C
102
}
330
C
100
AcDbProxyObject
 90
      499
 91
      574
 95
       25
 70
     0
 93
       42
310
000900004040
330
9A12
 94
        0
  0
ACAD_PROXY_OBJECT
  5
9A16
102
{ACAD_REACTORS
330
C
102
}
330
C
100
AcDbProxyObject
 90
      499
 91
      507
 95
       25
 70
     0
 93
        8
310
AA
  0
ACAD_PROXY_OBJECT
  5
9A0A
102
{ACAD_REACTORS
330
C
102
}
330
C
100
AcDbProxyObject
 90
      499
 91
      565
 95
       25
 70
     0
 93
       42
310
000100005E80
330
99E8
 94
        0
  0
DICTIONARY
  5
3F
102
{ACAD_REACTORS
330
C
102
}
330
C
100
AcDbDictionary
281
     1
  3
AcMgSettings
350
40
  3
AMGLAYCFG
350
99B4
  0
DICTIONARY
  5
73
102
{ACAD_REACTORS
330
C
102
}
330
C
100
AcDbDictionary
281
     1
  0
ACAD_PROXY_OBJECT
  5
23D2
102
{ACAD_REACTORS
330
C
102
}
330
C
100
AcDbProxyObject
 90
      499
 91
      536
 95
       25
 70
     0
 93
       34
310
0500004280
  0
ACAD_PROXY_OBJECT
  5
9A1F
102
{ACAD_REACTORS
330
C
102
}
330
C
100
AcDbProxyObject
 90
      499
 91
      577
 95
       25
 70
     0
 93
       98
310
0900004E400000000000000000
330
9A26
330
0
330
9A27
330
0
330
0
330
0
330
0
330
0
 94
        0
  0
ACAD_PROXY_OBJECT
  5
9A1A
102
{ACAD_REACTORS
330
C
102
}
330
C
100
AcDbProxyObject
 90
      499
 91
      507
 95
       25
 70
     0
 93
       56
310
90441600000000
330
9A1B
330
9A1C
330
9A1D
330
9A1E
 94
        0
  0
XRECORD
  5
11979
102
{ACAD_REACTORS
330
C
102
}
330
C
100
AcDbXrecord
280
     1
  1
DWGPROPS COOKIE
  2

  3

  4

  6

  7

  8

  9

300
AmdtFileType=84
301
=
302
=
303
=
304
=
305
=
306
=
307
=
308
=
309
=
 40
0.0
 41
2451943.235431667
 42
2455482.077708333
  1

 90
        1
  0
DICTIONARY
  5
1C9F
102
{ACAD_REACTORS
330
C
102
}
330
C
100
AcDbDictionary
281
     1
  3
FILENAME
350
1CA0
  0
ACAD_PROXY_OBJECT
  5
9A10
102
{ACAD_REACTORS
330
C
102
}
330
C
100
AcDbProxyObject
 90
      499
 91
      568
 95
       25
 70
     0
 93
        8
310
05
  0
DICTIONARY
  5
1CA1
102
{ACAD_REACTORS
330
C
102
}
330
C
100
AcDbDictionary
281
     1
  3
ZWKSIZE
350
1CA2
  0
DICTIONARY
  5
9F3B
102
{ACAD_REACTORS
330
9B25
102
}
330
9B25
100
AcDbDictionary
281
     1
  0
DICTIONARY
  5
9B26
102
{ACAD_REACTORS
330
9B25
102
}
330
9B25
100
AcDbDictionary
281
     1
  0
DICTIONARY
  5
9F3A
102
{ACAD_REACTORS
330
9B25
102
}
330
9B25
100
AcDbDictionary
281
     1
1001
ACAD
1000
<All
  0
DICTIONARY
  5
9F39
102
{ACAD_REACTORS
330
9B25
102
}
330
9B25
100
AcDbDictionary
280
     1
281
     1
  0
XRECORD
  5
98ED
102
{ACAD_REACTORS
330
165
102
}
330
165
100
AcDbXrecord
280
     1
340
1F
  0
SORTENTSTABLE
  5
C040
102
{ACAD_REACTORS
330
165
102
}
330
165
100
AcDbSortentsTable
330
1F
331
EB24
  5
EB24
331
EB25
  5
EB25
331
EB26
  5
EB26
331
EB27
  5
EB27
331
EB28
  5
EB28
331
EB29
  5
EB29
331
EB2A
  5
EB2A
331
EB2B
  5
EB2B
331
EB2C
  5
EB2C
331
EB2D
  5
EB2D
331
EB2E
  5
EB2E
331
EB2F
  5
EB2F
331
EB30
  5
EB30
331
EB31
  5
EB31
331
EB32
  5
EB32
331
EB33
  5
EB33
331
EB34
  5
EB34
331
EB35
  5
EB35
331
EB36
  5
EB36
331
EB37
  5
EB37
331
EB38
  5
EB38
331
EB39
  5
EB39
331
EB3A
  5
EB3A
331
EB3B
  5
EB3B
331
EB3C
  5
EB3C
331
EB3D
  5
EB3D
331
EB3E
  5
EB3E
331
EB3F
  5
EB3F
331
EB40
  5
EB40
331
EB41
  5
EB41
331
EB42
  5
EB42
331
EB43
  5
EB43
331
EB44
  5
EB44
331
EB45
  5
EB45
331
EB46
  5
EB46
331
EB47
  5
EB47
331
EB48
  5
EB48
331
EB49
  5
EB49
331
EB4A
  5
EB4A
331
EB4B
  5
EB4B
331
EB4C
  5
EB4C
331
EB4D
  5
EB4D
331
EB4E
  5
EB4E
331
EB4F
  5
EB4F
331
EB50
  5
EB50
331
EB51
  5
EB51
331
EB52
  5
EB52
331
EB53
  5
EB53
331
EB54
  5
EB54
331
EB56
  5
EB56
331
EB57
  5
EB57
331
EB58
  5
EB58
331
EB59
  5
EB59
331
EB5A
  5
EB5A
331
EB5B
  5
EB5B
331
EB5C
  5
EB5C
331
EB5D
  5
EB5D
331
EB5E
  5
EB5E
331
EB5F
  5
EB5F
331
EB60
  5
EB60
331
EB61
  5
EB61
331
EB62
  5
EB62
331
EB63
  5
EB63
331
EB64
  5
EB64
331
EB65
  5
EB65
331
EB66
  5
EB66
331
EB67
  5
EB67
331
EB68
  5
EB68
331
EB69
  5
EB69
331
EB6A
  5
EB6A
331
EB6B
  5
EB6B
331
EB6C
  5
EB6C
331
EB6D
  5
EB6D
331
EB6E
  5
EB6E
331
EB6F
  5
EB6F
331
EB70
  5
EB70
331
EB71
  5
EB71
331
EB72
  5
EB72
331
EB73
  5
EB73
331
EB74
  5
EB74
331
EB75
  5
EB75
331
EB76
  5
EB76
331
EB77
  5
EB77
331
EB78
  5
EB78
331
EB79
  5
EB79
331
EB7A
  5
EB7A
331
EB7B
  5
EB7B
331
EB7C
  5
EB7C
331
EB7D
  5
EB7D
331
EB7E
  5
EB7E
331
EB7F
  5
EB7F
331
EB80
  5
EB80
331
EB81
  5
EB81
331
EB82
  5
EB82
331
EB83
  5
EB83
331
EB84
  5
EB84
331
EB85
  5
EB85
331
EB86
  5
EB86
331
EB87
  5
EB87
331
EB88
  5
EB88
331
EB89
  5
EB89
331
EB8A
  5
EB8A
331
EB8B
  5
EB8B
331
EB8C
  5
EB8C
331
EB8D
  5
EB8D
331
EB8E
  5
EB8E
331
EB8F
  5
EB8F
331
EB90
  5
EB90
331
EB91
  5
EB91
331
EB92
  5
EB92
331
EB93
  5
EB93
331
EB94
  5
EB94
331
EB95
  5
EB95
331
EB96
  5
EB96
331
EB97
  5
EB97
331
EB98
  5
EB98
331
EB99
  5
EB99
331
EB9A
  5
EB9A
331
EB9B
  5
EB9B
331
EB9C
  5
EB9C
331
EB9D
  5
EB9D
331
EB9E
  5
EB9E
331
EB9F
  5
EB9F
331
EBA0
  5
EBA0
331
EBA1
  5
EBA1
331
EBA2
  5
EBA2
331
EBA3
  5
EBA3
331
EBA4
  5
EBA4
331
EBA5
  5
EBA5
331
EBA6
  5
EBA6
331
EBA7
  5
EBA7
331
EBA8
  5
EBA8
331
EBA9
  5
EBA9
331
EBAA
  5
EBAA
331
EBAB
  5
EBAB
331
EBAC
  5
EBAC
331
EBAD
  5
EBAD
331
EBAE
  5
EBAE
331
EBAF
  5
EBAF
331
EBB0
  5
EBB0
331
EBB1
  5
EBB1
331
EBB2
  5
EBB2
331
EBB3
  5
EBB3
331
EBB4
  5
EBB4
331
EBB5
  5
EBB5
331
EBB6
  5
EBB6
331
EBB7
  5
EBB7
331
EBB8
  5
EBB8
331
EBB9
  5
EBB9
331
EBBA
  5
EBBA
331
EBBB
  5
EBBB
331
EBBC
  5
EBBC
331
EBBD
  5
EBBD
331
EBBE
  5
EBBE
331
EBBF
  5
EBBF
331
EBC0
  5
EBC0
331
EC7B
  5
EC7B
331
EC82
  5
EC82
331
EC83
  5
EC83
331
EC84
  5
EC84
331
EC85
  5
EC85
331
EC8A
  5
EC8A
331
EC8B
  5
EC8B
331
EC8C
  5
EC8C
331
EC8D
  5
EC8D
331
EC8E
  5
EC8E
331
EC8F
  5
EC8F
331
EC96
  5
EC96
331
ED19
  5
ED19
331
ED1A
  5
ED1A
331
ED1B
  5
ED1B
331
ED1C
  5
ED1C
331
ED1D
  5
ED1D
331
ED1E
  5
ED1E
331
ED26
  5
ED26
331
FB4A
  5
FB4B
331
FB4B
  5
FB4C
331
FB4C
  5
FB4D
331
FB4D
  5
FB4E
331
FB4E
  5
FB4F
331
FB4F
  5
FB50
331
FB50
  5
FB51
331
FB51
  5
FB52
331
FB52
  5
FB53
331
FB53
  5
FB54
331
FB54
  5
FB55
331
FB55
  5
FB56
331
FB56
  5
FB57
331
FB57
  5
FB58
331
FB58
  5
FB59
331
FB59
  5
FB5A
331
FB5A
  5
FB5B
331
FB5B
  5
FB5C
331
FB5C
  5
FB5D
331
FB5D
  5
FB5E
331
FB5E
  5
FB5F
331
FB5F
  5
FB60
331
FB60
  5
FB61
331
FB61
  5
FB62
331
FB62
  5
FB63
331
FB63
  5
FB64
331
FB64
  5
FB65
331
FB65
  5
FB66
331
FB66
  5
FB67
331
FB67
  5
FB68
331
FB68
  5
FB69
331
FB8F
  5
FB90
331
FB94
  5
FB95
331
FB95
  5
FB96
331
FB96
  5
FB97
331
FB97
  5
FB98
331
FB98
  5
FB99
331
FB9C
  5
FB9D
331
FB9D
  5
FB9E
331
FB9E
  5
FB9F
331
FBA2
  5
FBA3
331
FBA3
  5
FBA4
331
FBA4
  5
FBA5
331
FBA6
  5
FBA7
331
FBA7
  5
FBA8
331
FBA8
  5
FBA9
331
FBA9
  5
FBAA
331
FBAA
  5
FBAB
331
FBAC
  5
FBAF
331
FBAD
  5
FBB0
331
FBAE
  5
FBB1
331
FBAF
  5
FBB2
331
FBB0
  5
FBB3
331
FBB1
  5
FBB4
331
FBB2
  5
FBB5
331
FBBB
  5
FBBE
331
FBBC
  5
FBBF
331
FBBD
  5
FBC0
331
FBCB
  5
FBCE
331
FBCC
  5
FBCF
331
FBCF
  5
FBD2
331
FBD0
  5
FBD3
331
FBD1
  5
FBD4
331
FBD2
  5
FBD5
331
FBD3
  5
FBD6
331
FBD4
  5
FBD7
331
FBD5
  5
FBD8
331
FBD6
  5
FBD9
331
FBD7
  5
FBDA
331
FBD8
  5
FBDB
331
FBD9
  5
FBDC
331
FBDA
  5
FBDD
331
FBDB
  5
FBDE
331
FBDC
  5
FBDF
331
FBDD
  5
FBE0
331
FBDE
  5
FBE1
331
FBDF
  5
FBE2
331
FBE1
  5
FBE4
331
FBE2
  5
FBE5
331
FBE3
  5
FBE6
331
FBE4
  5
FBE7
331
FBE5
  5
FBE8
331
FBE6
  5
FBE9
331
FBE7
  5
FBEA
331
FBE8
  5
FBEB
331
FBE9
  5
FBEC
331
FBEA
  5
FBED
331
FBEB
  5
FBEE
331
FBEC
  5
FBEF
331
FBED
  5
FBF0
331
FBEE
  5
FBF1
331
FBEF
  5
FBF2
331
FBF0
  5
FBF3
331
FBF1
  5
FBF4
331
FBF2
  5
FBF5
331
FBF3
  5
FBF6
331
FBF4
  5
FBF7
331
FBF5
  5
FBF8
331
FC22
  5
FC25
331
FC23
  5
FC26
331
FC24
  5
FC27
331
FC25
  5
FC28
331
FC26
  5
FC29
331
FC27
  5
FC2A
331
FC28
  5
FC2B
331
FC29
  5
FC2C
331
FC2F
  5
FC32
331
FC30
  5
FC33
331
FC31
  5
FC34
331
FC38
  5
FC3B
331
FC3B
  5
FC3E
331
FC3C
  5
FC3F
331
FC3D
  5
FC40
331
FC3E
  5
FC41
331
FC3F
  5
FC42
331
FC40
  5
FC43
331
FC41
  5
FC44
331
FC42
  5
FC45
331
FC43
  5
FC46
331
FC44
  5
FC47
331
FC45
  5
FC48
331
FC46
  5
FC49
331
FC49
  5
FC4C
331
FC4A
  5
FC4D
331
FC4B
  5
FC4E
331
FC58
  5
FC5B
331
FC59
  5
FC5C
331
FC5A
  5
FC5D
331
FC5C
  5
FC5F
331
FC70
  5
FC73
331
FC71
  5
FC74
331
FC72
  5
FC75
331
FC78
  5
FC7B
331
FC79
  5
FC7C
331
FC7A
  5
FC7D
331
FC7B
  5
FC7E
331
FC7C
  5
FC7F
331
FC7D
  5
FC80
331
FC84
  5
FC87
331
FC85
  5
FC88
331
FC86
  5
FC89
331
FC87
  5
FC8A
331
FC88
  5
FC8B
331
FC89
  5
FC8C
331
FC8A
  5
FC8D
331
FC8B
  5
FC8E
331
FC8C
  5
FC8F
331
FC8D
  5
FC90
331
FC8E
  5
FC91
331
FC8F
  5
FC92
331
FC90
  5
FC93
331
FC91
  5
FC94
331
FC92
  5
FC95
331
FC93
  5
FC96
331
FC94
  5
FC97
331
FC95
  5
FC98
331
FC96
  5
FC99
331
FC97
  5
FC9A
331
FC98
  5
FC9B
331
FC99
  5
FC9C
331
FC9A
  5
FC9D
331
FC9B
  5
FC9E
331
FC9C
  5
FC9F
331
FC9D
  5
FCA0
331
FC9E
  5
FCA1
331
FC9F
  5
FCA2
331
FCA0
  5
FCA3
331
FCA1
  5
FCA4
331
FCA2
  5
FCA5
331
FCA3
  5
FCA6
331
FCA4
  5
FCA7
331
FCA5
  5
FCA8
331
FCA6
  5
FCA9
331
FCA7
  5
FCAA
331
FCA8
  5
FCAB
331
FCA9
  5
FCAC
331
FCAA
  5
FCAD
331
FCAB
  5
FCAE
331
FCAC
  5
FCAF
331
FCAD
  5
FCB0
331
FCAE
  5
FCB1
331
FCAF
  5
FCB2
331
FCB0
  5
FCB3
331
FCB1
  5
FCB4
331
FCB2
  5
FCB5
331
FCB3
  5
FCB6
331
FCB4
  5
FCB7
331
FCB5
  5
FCB8
331
FCB6
  5
FCB9
331
FCB7
  5
FCBA
331
FCB8
  5
FCBB
331
FCB9
  5
FCBC
331
FCBA
  5
FCBD
331
FCBB
  5
FCBE
331
FCBC
  5
FCBF
331
FCBD
  5
FCC0
331
FCBE
  5
FCC1
331
FCBF
  5
FCC2
331
FCC0
  5
FCC3
331
FCC1
  5
FCC4
331
FCC2
  5
FCC5
331
FCC3
  5
FCC6
331
FCC4
  5
FCC7
331
FCC5
  5
FCC8
331
FCC6
  5
FCC9
331
FCC7
  5
FCCA
331
FCC8
  5
FCCB
331
FCC9
  5
FCCC
331
FCCA
  5
FCCD
331
FCCB
  5
FCCE
331
FCCC
  5
FCCF
331
FCCD
  5
FCD0
331
FCCE
  5
FCD1
331
1115A
  5
1115A
331
11167
  5
11167
  0
XRECORD
  5
98EC
102
{ACAD_REACTORS
330
264F
102
}
330
264F
100
AcDbXrecord
280
     1
340
1B
  0
XRECORD
  5
98EE
102
{ACAD_REACTORS
330
2651
102
}
330
2651
100
AcDbXrecord
280
     1
340
23
  0
LAYOUT
  5
22
102
{ACAD_REACTORS
330
1A
102
}
330
1A
100
AcDbPlotSettings
  1

  2
SII LP-2150 (D-SCAN C2)
  4
User120
  6
AM_VIEW1
 40
3.174999952316284
 41
3.174999952316284
 42
3.17498779296875
 43
3.17498779296875
 44
296.9259948730469
 45
419.9889831542969
 46
0.0
 47
0.0
 48
0.0
 49
0.0
140
420.0
141
297.0
142
1.0
143
1.022107788374329
 70
 11952
 72
     1
 73
     1
 74
     4
  7
sei_cad.ctb
 75
     0
147
0.9783703943695685
148
0.0
149
0.0
100
AcDbLayout
  1
Model
 70
     1
 71
     0
 10
0.0
 20
0.0
 11
12.0
 21
9.0
 12
0.0
 22
0.0
 32
0.0
 14
0.0
 24
0.0
 34
0.0
 15
0.0
 25
0.0
 35
0.0
146
0.0
 13
0.0
 23
0.0
 33
0.0
 16
1.0
 26
0.0
 36
0.0
 17
0.0
 27
1.0
 37
0.0
 76
     0
330
1F
1001
ACAD_PSEXT
1000
SII LP-2150 (D-SCAN C2)
1000
SII LP-2150 (D-SCAN C2)
1000
133.153.16.130#3000
1000

1070
     0
  0
LAYOUT
  5
1E
102
{ACAD_REACTORS
330
1A
102
}
330
1A
100
AcDbPlotSettings
  1

  2
Canon LASER SHOT LBP-2030
  4

  6

 40
0.0
 41
0.0
 42
0.0
 43
0.0
 44
0.0
 45
0.0
 46
0.0
 47
0.0
 48
0.0
 49
0.0
140
0.0
141
0.0
142
1.0
143
1.0
 70
   688
 72
     0
 73
     0
 74
     5
  7
sei_cad.ctb
 75
    16
147
1.0
148
0.0
149
0.0
100
AcDbLayout
  1
ﾚｲｱｳﾄ1
 70
     1
 71
     1
 10
0.0
 20
0.0
 11
420.0
 21
297.0
 12
0.0
 22
0.0
 32
0.0
 14
1.000000000000000E+20
 24
1.000000000000000E+20
 34
1.000000000000000E+20
 15
-1.000000000000000E+20
 25
-1.000000000000000E+20
 35
-1.000000000000000E+20
146
0.0
 13
0.0
 23
0.0
 33
0.0
 16
1.0
 26
0.0
 36
0.0
 17
0.0
 27
1.0
 37
0.0
 76
     0
330
1B
  0
LAYOUT
  5
26
102
{ACAD_REACTORS
330
1A
102
}
330
1A
100
AcDbPlotSettings
  1

  2
Canon LASER SHOT LBP-2030
  4

  6

 40
0.0
 41
0.0
 42
0.0
 43
0.0
 44
0.0
 45
0.0
 46
0.0
 47
0.0
 48
0.0
 49
0.0
140
0.0
141
0.0
142
1.0
143
1.0
 70
   688
 72
     0
 73
     0
 74
     5
  7
sei_cad.ctb
 75
    16
147
1.0
148
0.0
149
0.0
100
AcDbLayout
  1
ﾚｲｱｳﾄ2
 70
     1
 71
     2
 10
0.0
 20
0.0
 11
12.0
 21
9.0
 12
0.0
 22
0.0
 32
0.0
 14
0.0
 24
0.0
 34
0.0
 15
0.0
 25
0.0
 35
0.0
146
0.0
 13
0.0
 23
0.0
 33
0.0
 16
1.0
 26
0.0
 36
0.0
 17
0.0
 27
1.0
 37
0.0
 76
     0
330
23
  0
MLINESTYLE
  5
18
102
{ACAD_REACTORS
330
17
102
}
330
17
100
AcDbMlineStyle
  2
STANDARD
 70
     0
  3

 62
   256
 51
90.0
 52
90.0
 71
     2
 49
0.5
 62
   256
  6
BYLAYER
 49
-0.5
 62
   256
  6
BYLAYER
  0
ACDBPLACEHOLDER
  5
F
102
{ACAD_REACTORS
330
E
102
}
330
E
  0
TABLESTYLE
  5
99D7
102
{ACAD_REACTORS
330
99D6
102
}
330
99D6
100
AcDbTableStyle
  3
Standard
 70
     0
 71
     8
 40
1.5
 41
1.5
280
     0
281
     0
  7
STANDARD
140
4.5
170
     2
 62
     0
 63
     7
283
     0
274
    -2
284
     1
 64
     0
275
    -2
285
     1
 65
     0
276
    -2
286
     1
 66
     0
277
    -2
287
     1
 67
     0
278
    -2
288
     1
 68
     0
279
    -2
289
     1
 69
     0
  7
STANDARD
140
6.0
170
     5
 62
     0
 63
     7
283
     0
274
    -2
284
     1
 64
     0
275
    -2
285
     1
 65
     0
276
    -2
286
     1
 66
     0
277
    -2
287
     1
 67
     0
278
    -2
288
     1
 68
     0
279
    -2
289
     1
 69
     0
  7
STANDARD
140
4.5
170
     5
 62
     0
 63
     7
283
     0
274
    -2
284
     1
 64
     0
275
    -2
285
     1
 65
     0
276
    -2
286
     1
 66
     0
277
    -2
287
     1
 67
     0
278
    -2
288
     1
 68
     0
279
    -2
289
     1
 69
     0
  0
XRECORD
  5
11977
102
{ACAD_REACTORS
330
11976
102
}
330
11976
100
AcDbXrecord
280
     1
340
99D5
  0
XRECORD
  5
11978
102
{ACAD_REACTORS
330
11976
102
}
330
11976
100
AcDbXrecord
280
     1
340
99D4
  0
DICTIONARYVAR
  5
9A53
102
{ACAD_REACTORS
330
30
102
}
330
30
100
DictionaryVariables
280
     0
  1
STANDARD
  0
DICTIONARYVAR
  5
11975
102
{ACAD_REACTORS
330
30
102
}
330
30
100
DictionaryVariables
280
     0
  1
0
  0
DICTIONARYVAR
  5
11974
102
{ACAD_REACTORS
330
30
102
}
330
30
100
DictionaryVariables
280
     0
  1
1
  0
ACAD_PROXY_OBJECT
  5
99B0
102
{ACAD_REACTORS
330
4D
102
}
330
4D
100
AcDbProxyObject
 90
      499
 91
      520
 95
       25
 70
     0
 93
      118
310
405010040CA904C415CD5B075DD1A8
350
99B1
 94
        0
  0
DICTIONARY
  5
17E
102
{ACAD_REACTORS
330
4D
102
}
330
4D
100
AcDbDictionary
281
     1
  3
ISO
350
9A35
  3
JIS
350
9CBB
  0
XRECORD
  5
9A47
102
{ACAD_REACTORS
330
4D
102
}
330
4D
100
AcDbXrecord
280
     1
 90
-1023410169
  0
ACAD_PROXY_OBJECT
  5
99A4
330
99A1
100
AcDbProxyObject
 90
      499
 91
      508
 95
       25
 70
     0
 93
      156
310
00010143D050D351505391D5531054925390D490
330
99A1
 94
        0
  0
ACAD_PROXY_OBJECT
  5
99A5
330
99A1
100
AcDbProxyObject
 90
      499
 91
      508
 95
       25
 70
     0
 93
      148
310
000101439050D351531253915054925390D490
330
99A1
 94
        0
  0
ACAD_PROXY_OBJECT
  5
99A6
330
99A1
100
AcDbProxyObject
 90
      499
 91
      509
 95
       25
 70
     0
 93
      156
310
000101439050D35154D6535093D314D256915080
330
99A1
 94
        0
  0
ACAD_PROXY_OBJECT
  5
99A8
330
99A1
100
AcDbProxyObject
 90
      499
 91
      511
 95
       25
 70
     0
 93
       88
310
000101411093D34C402B00
330
99A1
330
0
330
0
 94
        0
  0
ACAD_PROXY_OBJECT
  5
99E8
330
99A1
100
AcDbProxyObject
 90
      499
 91
      561
 95
       25
 70
     0
 93
      358
310
0001014124FEA55D00507392E322E302E32014124FEA55D00507392E322E302E3240501000041505391D311658
330
99A1
330
99E9
330
99EF
 94
        0
  0
ACAD_PROXY_OBJECT
  5
99E9
330
99A1
100
AcDbProxyObject
 90
      499
 91
      562
 95
       25
 70
     0
 93
       56
310
000190240E0000
330
99A1
330
99EA
330
99EC
 94
        0
  0
ACAD_PROXY_OBJECT
  5
99EA
330
99A1
100
AcDbProxyObject
 90
      499
 91
      563
 95
       25
 70
     0
 93
       48
310
0001AA000000
330
99A1
330
1E
330
99EB
330
0
 94
        0
  0
ACAD_PROXY_OBJECT
  5
99EB
330
99A1
100
AcDbProxyObject
 90
      499
 91
      564
 95
       25
 70
     0
 93
       28
310
0001AAA0
330
99A1
 94
        0
  0
ACAD_PROXY_OBJECT
  5
99EC
330
99A1
100
AcDbProxyObject
 90
      499
 91
      563
 95
       25
 70
     0
 93
       48
310
0001AA000000
330
99A1
330
26
330
99ED
330
0
 94
        0
  0
ACAD_PROXY_OBJECT
  5
99ED
330
99A1
100
AcDbProxyObject
 90
      499
 91
      564
 95
       25
 70
     0
 93
       28
310
0001AAA0
330
99A1
 94
        0
  0
ACAD_PROXY_OBJECT
  5
99F0
330
99A1
100
AcDbProxyObject
 90
      499
 91
      509
 95
       25
 70
     0
 93
      108
310
000101421053521310D05310D010
330
99A1
 94
        0
  0
ACAD_PROXY_OBJECT
  5
99F1
330
99A1
100
AcDbProxyObject
 90
      499
 91
      509
 95
       25
 70
     0
 93
      124
310
00010142905354915554D15112535010
330
99A1
 94
        0
  0
ACAD_PROXY_OBJECT
  5
99F2
330
99A1
100
AcDbProxyObject
 90
      499
 91
      509
 95
       25
 70
     0
 93
      132
310
00010143105354D150D51253D391125360
330
99A1
 94
        0
  0
ACAD_PROXY_OBJECT
  5
99F3
330
99A1
100
AcDbProxyObject
 90
      499
 91
      509
 95
       25
 70
     0
 93
      124
310
00010142905355941093D49111549010
330
99A1
 94
        0
  0
ACAD_PROXY_OBJECT
  5
99F4
330
99A1
100
AcDbProxyObject
 90
      499
 91
      509
 95
       25
 70
     0
 93
      116
310
0001014290535115D1D0D3D313D4A0
330
99A1
 94
        0
  0
ACAD_PROXY_OBJECT
  5
99F5
330
99A1
100
AcDbProxyObject
 90
      499
 91
      509
 95
       25
 70
     0
 93
      148
310
00010143505355925155D49151949154D21010
330
99A1
 94
        0
  0
ACAD_PROXY_OBJECT
  5
99F6
330
99A1
100
AcDbProxyObject
 90
      499
 91
      509
 95
       25
 70
     0
 93
      172
310
00010144105350539393D51154149154D15495915010
330
99A1
 94
        0
  0
ACAD_PROXY_OBJECT
  5
99F7
330
99A1
100
AcDbProxyObject
 90
      499
 91
      509
 95
       25
 70
     0
 93
      172
310
00010144105350555513D11253505494905391D15010
330
99A1
 94
        0
  0
ACAD_PROXY_OBJECT
  5
99F8
330
99A1
100
AcDbProxyObject
 90
      499
 91
      509
 95
       25
 70
     0
 93
      124
310
00010142D05351561514915191125360
330
99A1
 94
        0
  0
ACAD_PROXY_OBJECT
  5
99F9
330
99A1
100
AcDbProxyObject
 90
      499
 91
      509
 95
       25
 70
     0
 93
      132
310
00010142D05355105410539393D5115010
330
99A1
 94
        0
  0
ACAD_PROXY_OBJECT
  5
99FA
330
99A1
100
AcDbProxyObject
 90
      499
 91
      509
 95
       25
 70
     0
 93
      108
310
00010142105350555513D0D31010
330
99A1
 94
        0
  0
ACAD_PROXY_OBJECT
  5
99FB
330
99A1
100
AcDbProxyObject
 90
      499
 91
      509
 95
       25
 70
     0
 93
      108
310
00010142105350D3119150551050
330
99A1
 94
        0
  0
ACAD_PROXY_OBJECT
  5
99FC
330
99A1
100
AcDbProxyObject
 90
      499
 91
      509
 95
       25
 70
     0
 93
      108
310
00010142105350D315925155D3F0
330
99A1
 94
        0
  0
ACAD_PROXY_OBJECT
  5
99FD
330
99A1
100
AcDbProxyObject
 90
      499
 91
      509
 95
       25
 70
     0
 93
      148
310
0001014350535212511156915493D112535010
330
99A1
 94
        0
  0
ACAD_PROXY_OBJECT
  5
99FE
330
99A1
100
AcDbProxyObject
 90
      499
 91
      509
 95
       25
 70
     0
 93
      124
310
00010142905352105510D21254D3D010
330
99A1
 94
        0
  0
ACAD_PROXY_OBJECT
  5
99FF
330
99A1
100
AcDbProxyObject
 90
      499
 91
      509
 95
       25
 70
     0
 93
      148
310
00010143905354D25391D31152105513105660
330
99A1
 94
        0
  0
ACAD_PROXY_OBJECT
  5
9A00
330
99A1
100
AcDbProxyObject
 90
      499
 91
      509
 95
       25
 70
     0
 93
      124
310
00010142D0535115D1D193111254D420
330
99A1
 94
        0
  0
ACAD_PROXY_OBJECT
  5
9A01
330
99A1
100
AcDbProxyObject
 90
      499
 91
      509
 95
       25
 70
     0
 93
      100
310
00010142105350555513D213A0
330
99A1
 94
        0
  0
ACAD_PROXY_OBJECT
  5
9A02
330
99A1
100
AcDbProxyObject
 90
      499
 91
      509
 95
       25
 70
     0
 93
      116
310
000101425053521390D3D553951010
330
99A1
 94
        0
  0
ACAD_PROXY_OBJECT
  5
9A03
330
99A1
100
AcDbProxyObject
 90
      499
 91
      509
 95
       25
 70
     0
 93
      108
310
0001014210535213941493D29010
330
99A1
 94
        0
  0
ACAD_PROXY_OBJECT
  5
9A04
330
99A1
100
AcDbProxyObject
 90
      499
 91
      509
 95
       25
 70
     0
 93
      108
310
0001014210535213951654115070
330
99A1
 94
        0
  0
ACAD_PROXY_OBJECT
  5
9A05
330
99A1
100
AcDbProxyObject
 90
      499
 91
      509
 95
       25
 70
     0
 93
      108
310
000101421053521395925155D0F0
330
99A1
 94
        0
  0
ACAD_PROXY_OBJECT
  5
9A06
330
99A1
100
AcDbProxyObject
 90
      499
 91
      509
 95
       25
 70
     0
 93
      140
310
00010143505354D150D51253D390D3D41660
330
99A1
 94
        0
  0
ACAD_PROXY_OBJECT
  5
9A07
330
99A1
100
AcDbProxyObject
 90
      499
 91
      509
 95
       25
 70
     0
 93
      108
310
00010142105350D3141493D29030
330
99A1
 94
        0
  0
ACAD_PROXY_OBJECT
  5
9A08
330
99A1
100
AcDbProxyObject
 90
      499
 91
      508
 95
       25
 70
     0
 93
      212
310
00010143905350555513D2105510D21493D500000000000002E400
330
99A1
 94
        0
  0
ACAD_PROXY_OBJECT
  5
9A09
330
99A1
100
AcDbProxyObject
 90
      499
 91
      509
 95
       25
 70
     0
 93
      156
310
00010143905350555513D2105510D21111551010
330
99A1
 94
        0
  0
ACAD_PROXY_OBJECT
  5
9A12
330
99A1
100
AcDbProxyObject
 90
      499
 91
      570
 95
       25
 70
     0
 93
      698
310
0001000000009AA6A9AA4051E467269204A756E2032332030373A34373A333020323030362028555443290141CE4B8C8B8C0B8C80518547565204F63742031322031303A35313A353420323031300141CE4B8C8B8C0B8C80
330
99A1
330
9A13
330
9A14
330
9A16
330
0
 94
        0
  0
ACAD_PROXY_OBJECT
  5
9A13
330
99A1
100
AcDbProxyObject
 90
      499
 91
      571
 95
       25
 70
     0
 93
       70
310
0001AAA80820000000
330
99A1
330
9A13
330
9A13
 94
        0
  0
ACAD_PROXY_OBJECT
  5
9A14
330
99A1
100
AcDbProxyObject
 90
      499
 91
      572
 95
       25
 70
     0
 93
       48
310
000100000000
330
99A1
330
0
330
9A15
330
0
330
0
 94
        0
  0
ACAD_PROXY_OBJECT
  5
9A15
330
99A1
100
AcDbProxyObject
 90
      499
 91
      573
 95
       25
 70
     0
 93
       40
310
000100AAAA
330
99A1
330
0
 94
        0
  0
ACAD_PROXY_OBJECT
  5
9A1B
330
99A1
100
AcDbProxyObject
 90
      499
 91
      522
 95
       25
 70
     0
 93
      180
310
00010143105050D3D35411119390535140504434F4D500
330
99A1
 94
        0
  0
ACAD_PROXY_OBJECT
  5
9A1C
330
99A1
100
AcDbProxyObject
 90
      499
 91
      522
 95
       25
 70
     0
 93
      212
310
0001014390505193D311115491119390535140506466F6C6465720
330
99A1
 94
        0
  0
ACAD_PROXY_OBJECT
  5
9A1D
330
99A1
100
AcDbProxyObject
 90
      499
 91
      522
 95
       25
 70
     0
 93
      180
310
00010143105050539393D1119390535140504284156290
330
99A1
 94
        0
  0
ACAD_PROXY_OBJECT
  5
9A1E
330
99A1
100
AcDbProxyObject
 90
      499
 91
      522
 95
       25
 70
     0
 93
      436
310
00010143905050D3D35415925155D31254D50052295BD96CA0A90B396CA0A894591A496CA0A8DB691A496CA0A89BA96CA0A95E28F95310
330
99A1
 94
        0
  0
ACAD_PROXY_OBJECT
  5
9A23
330
99A1
100
AcDbProxyObject
 90
      499
 91
      578
 95
       25
 70
     0
 93
       32
310
00010000
330
99A1
340
9A20
330
9A25
330
9A20
 94
        0
  0
ACAD_PROXY_OBJECT
  5
9A24
330
99A1
100
AcDbProxyObject
 90
      499
 91
      579
 95
       25
 70
     0
 93
       18
310
000180
330
99A1
 94
        0
  0
ACAD_PROXY_OBJECT
  5
9A25
330
99A1
100
AcDbProxyObject
 90
      499
 91
      580
 95
       25
 70
     0
 93
      234
310
00010144920D8CD04B55D20B54D59410D48B51160C4D9050055401550000
330
99A1
330
9A23
330
9A24
 94
        0
  0
ACAD_PROXY_OBJECT
  5
9A26
330
99A1
100
AcDbProxyObject
 90
      499
 91
      581
 95
       25
 70
     0
 93
      178
310
000100AAAAAAB54A018816C84011E71A8B242D3714CA40
330
99A1
330
9A25
 94
        0
  0
ACAD_PROXY_OBJECT
  5
9A27
330
99A1
100
AcDbProxyObject
 90
      499
 91
      582
 95
       25
 70
     0
 93
      108
310
000190140A000000000000AAAAA0
330
99A1
330
9A28
330
9A28
330
9A28
330
9A28
330
9A28
330
0
 94
        0
  0
ACAD_PROXY_OBJECT
  5
9A28
330
99A1
100
AcDbProxyObject
 90
      499
 91
      583
 95
       25
 70
     0
 93
       51
310
00010000AAAA80
330
99A1
330
9A27
330
9A25
 94
        0
  0
ACAD_PROXY_OBJECT
  5
9A2B
330
99A1
100
AcDbProxyObject
 90
      499
 91
      522
 95
       25
 70
     0
 93
      140
310
00010142105350D55494D511005034A49530
330
99A1
 94
        0
  0
DICTIONARY
  5
40
102
{ACAD_REACTORS
330
3F
102
}
330
3F
100
AcDbDictionary
281
     1
  3
DWGSETTINGS
350
999E
  3
Shaft
350
9F38
  3
TRANSSETTINGS
350
999F
  0
ACAD_PROXY_OBJECT
  5
99B4
102
{ACAD_REACTORS
330
3F
102
}
330
3F
100
AcDbProxyObject
 90
      499
 91
      519
 95
       25
 70
     0
 93
    17944
310
41502491013041105357CC201C00030C0132441013141105357CC603800030C0132441013241105357CCA01400030C0132441013341105357CCE01800030C01199013441105357CD200C00030C01199013541105357CD600C00030C01199013641105357CDA00800030C01239013741105357CDE01000030C0119901384110
310
5357CE200400030C01199013941105357CE63F400030C0241102324141505357CC4C201C00030C0132902344141505357CC4C600C00030C0119902495041505357CC4CA01C00030C013240902304E41505357CC13A01C00030C0132902314E41505357CC53A03800030C0132902324E41505357CC93A01400030C013290233
310
4E41505357CCD3A01800030C0119902344E41505357CD13A00C00030C0119902354E41505357CD53A00C00030C0119902364E41505357CD93A00800030C0123902374E41505357CDD3A01000030C0119902384E41505357CE13A00400030C0119902394E41505357CE53A3F400030C024110332414E41905357CC4C13A01C0
310
0030C013290334414E41905357CC4C53A00C00030C011990349504E41905357CC4C93A01C00030C0132409044B4C494E41505357D0D3200400030C011942504494E464F42105357D410549151A01000030C011942D055241484D3541905357D093D4A01C00030C0132425045649455742105357D5925155D4E00400030C011
310
942D06424548494E4441905357D25395A3F400030C0243505545241494C41505357D514A00C00030C01194250348494441905357D21251201C00030C01194250356495341905357D59254E01C00030C01324250650415244494D42505357D41054911253600C00030C01194250652454644494D42505357D49151911253601
310
000030C0119425534110921395901398000000C0003FFFFFFFE415092139594D06424548494E448000000C0003FFFFFFFE411093D48C9055241484D358010000C300466411093D48CD055241484D358020000C30048E411093D48D5055241484D358000000C0003FFFFFFFE4110D0530C901348000000C0003FFFFFFFE4110
310
D0530CD01348020000C30048E4110D0530D501348070000C3004CA4110D0530DD013481E0000C30051A4110D15393901378000000C0003FFFFFFFE4110D15395D01378000000C0003FFFFFFFE4110D312539044B4C494E8000000C0003FFFFFFFE4110D3D38C501308000000C0003FFFFFFFD034110D3D38C901318000000C
310
0003FFFFFFFD034110D3D38CD01328000000C0003FFFFFFFD034110D3D38D101328000000C0003FFFFFFFD034111115510501348000000C0003FFFFFFFE4111125051D01358000000C0003FFFFFFFE4111125312501358000000C0003FFFFFFFE411112535410650415244494D8000000C0003FFFFFFFE4111125354906524
310
54644494D8000000C0003FFFFFFFE4111915353901388000000C0003FFFFFFFE415191535413901388030000C3003FFFFFFFE4151915354D410234418000000C0003FFFFFFFE4151915354D510234418030000C300466415191535593901328000000C0003FFFFFFFE415191535595101328030000C3004664112105510D01
310
388000000C0003FFFFFFFD014112125113901338000000C0003FFFFFFFD034112125115D01338000000C0003FFFFFFFD034112131253901348000000C0003FFFFFFFD01411213D0D3901378000000C0003FFFFFFFE411213D0D5D01378000000C0003FFFFFFFE4112539193D04494E464F8000000C0003FFFFFFFE41131150
310
51101358000000C0003FFFFFFFE419397D0921395902394E8000000C0003FFFFFFFE419397D0D3D38C502304E8000000C0003FFFFFFFD03419397D0D3D38C902314E8000000C0003FFFFFFFD03419397D0D3D38CD02324E8000000C0003FFFFFFFD03419397D0D3D38D102324E8000000C0003FFFFFFFD03419397D0D15393
310
902374E8000000C0003FFFFFFFE419397D0D15395D02374E8000000C0003FFFFFFFE419397D1125312502354E8000000C0003FFFFFFFE419397D2105510D02384E8000000C0003FFFFFFFD01419397D2125113902334E8000000C0003FFFFFFFD03419397D2125115D02334E8000000C0003FFFFFFFD03419397D311505110
310
2354E8000000C0003FFFFFFFE419397D391D25410349504E8000000C0003FFFFFFFE419397D412105390334414E8000000C0003FFFFFFFE419397D510D3D3902304E8000000C0003FFFFFFFD03419397D5121312502344E8000000C0003FFFFFFFD01419397D5131153902304E8000000C0003FFFFFFFD03419397D5941312
310
50332414E8000000C0003FFFFFFFE411391D25410249508000000C0003FFFFFFFE411410530C9055241484D358010000C300466411410530CD055241484D358020000C30048E411410530D5055241484D358000000C0003FFFFFFFE411412105390234418000000C0003FFFFFFFE411413D4D3901358000000C0003FFFFFFF
310
E411490D1D3901378000000C0003FFFFFFFE411490D1D5D01378000000C0003FFFFFFFE4114D09492D01348000000C0003FFFFFFFD014114D150D5101348000000C0003FFFFFFFD014114D6508CD01358020000C30048E411354D653501358020000C30048E411510D3D3901308000000C0003FFFFFFFD0341151213125013
310
48000000C0003FFFFFFFD01411512550C9055241484D358010000C300466411512550CD055241484D358020000C30048E411512550D5055241484D358000000C0003FFFFFFFE4115131153901308000000C0003FFFFFFFD03415514905253105545241494C8000000C0003FFFFFFFE4115149312501348000000C0003FFFFF
310
FFD01411516150C501368030000C300466411516150C901368030000C300466411516150CD01368000000C0003FFFFFFFE411516150D501368070000C3004CA411516150DD013681E0000C30051A4115925155D04564945578000000C0003FFFFFFFE41159151121034849448000000C0003FFFFFFFD024115915115903564
310
9538000000C0003FFFFFFFD02411594131250232418000000C0003FFFFFFFE4116925690501348000000C0003FFFFFFFD01AAA00000030401013F90A4393241D3241919415324111940D194092340519479467F6
340
16
340
16
340
16
340
43
340
16
340
16
340
16
340
44
340
16
340
16
340
44
340
45
340
16
340
16
340
16
340
16
340
43
340
16
340
16
340
16
340
44
340
16
340
16
340
44
340
45
340
16
340
46
340
16
340
16
340
16
340
16
340
16
340
43
340
16
340
16
340
16
340
15
340
15
340
15
340
15
340
15
340
15
340
15
340
15
340
15
340
48
340
15
340
15
340
15
340
15
340
15
340
15
340
15
340
15
340
15
340
15
340
15
340
15
340
15
340
16
340
15
340
15
340
15
340
15
340
47
340
15
340
15
340
48
340
15
340
15
340
15
340
15
340
15
340
15
340
15
340
15
340
48
340
15
340
15
340
15
340
47
340
15
340
15
340
15
340
15
340
15
340
15
340
15
340
15
340
15
340
15
340
15
340
15
340
15
340
15
340
48
340
15
340
15
340
15
340
15
340
15
340
15
340
15
340
15
340
15
340
15
340
15
340
15
340
15
340
15
340
15
340
15
340
15
340
15
340
15
340
15
340
15
340
15
340
4B
 94
        0
  0
XRECORD
  5
1CA0
102
{ACAD_REACTORS
330
1C9F
102
}
330
1C9F
100
AcDbXrecord
280
     1
  1
21000845__00___
  0

  0
XRECORD
  5
1CA2
102
{ACAD_REACTORS
330
1CA1
102
}
330
1CA1
100
AcDbXrecord
280
     1
  1
3
  0

  0
ACAD_PROXY_OBJECT
  5
99B1
102
{ACAD_REACTORS
330
99B0
102
}
330
99B0
100
AcDbProxyObject
 90
      499
 91
      521
 95
       25
 70
     0
 93
      157
310
057356C1D77406406AA8FFFFFFFF05DD01009010
330
1F
330
0
330
9A25
 94
        0
  0
ACAD_PROXY_OBJECT
  5
9A35
102
{ACAD_REACTORS
330
17E
102
}
330
17E
100
AcDbProxyObject
 90
      499
 91
      589
 95
       25
 70
     0
 93
     2497
310
5DC0000000000000C408030000C30040D254D3D01640600800030C0200800030C000000000000000C40C88A2085A0B6B23A22B233B2A9BA3220480A1C82C6DAA6EAE4CCA8CAF0E8A6E8C88120284A0B1B6A321A329BA3220480A1A82C6DAAECAD8C8D2DCCEA6E8C8812028420B1B6A4B229BA3220480A1682C6DA88C2E8EAD
310
AA6E8C88120284A0B1B6A127A6A9BA3220480A2082DAC8E888CAE8C2D2D8A6F2DAA6E8C88120288A0B6B23A29B2B1BA34B7B729BCB6A9BA3220480A2282DAC8E886CADCE8CAE498D2DCCAA6E8C88120288A0B6B23A2A343932B0B22634B732A9BA3220480A1682DAC8E89CDEE8CAA6E8C88120285A0B1A0B6B3A630BCA9BA3
310
220480A1682C682DACE88D2DAA6E8C88120288A0B1A0B6B3A437B632A1B430B93A29BA3220480A1A82C682DACEA8D2E8D8CAA6E8C8812032048080
340
9A36
360
9A37
360
9A38
360
9A39
360
9A3A
360
9A3B
360
9A3C
360
9A3D
360
9A3E
360
9A3F
360
9A40
360
9A41
360
9A42
360
9A4D
360
9A4E
360
9A4F
360
9A50
340
0
340
0
 94
        0
  0
ACAD_PROXY_OBJECT
  5
9CBB
102
{ACAD_REACTORS
330
17E
102
}
330
17E
100
AcDbProxyObject
 90
      499
 91
      526
 95
       25
 70
     0
 93
     2379
310
5DC33333333333309408000000C00040D29254D01640600800030C0200800030C003333333333330940C8121E8720B1B6A9BAB9332A32BC3A29BA3220480A1282C6DA8C868CA6E8C88120286A0B1B6ABB2B63234B733A9BA3220480A1082C6DA92C8A6E8C88120285A0B1B6A230BA3AB6A9BA3220480A1282C6DA849E9AA6E
310
8C88120286A0B1A0B6B3AA34BA3632A9BA3220480A2082DAC8E888CAE8C2D2D8A6F2DAA6E8C88120288A0B6B23A29B2B1BA34B7B729BCB6A9BA3220480A2282DAC8E886CADCE8CAE498D2DCCAA6E8C88120288A0B6B23A2A343932B0B22634B732A9BA3220480A1682DAC8E89CDEE8CAA6E8C88120285A0B1A0B6B3A630BCA
310
9BA3220480A1682C682DACE88D2DAA6E8C88120288A0B1A0B6B3A437B632A1B430B93A29BA3220480C812020
340
180
360
9CBC
360
9CBD
360
9CBE
360
9CBF
360
9CC0
360
9CC1
360
9CC2
360
9CC3
360
9CC4
360
9CC5
360
9CC6
360
9CC7
360
9CCD
360
9CCE
360
9CCF
340
0
340
0
 94
        0
  0
ACAD_PROXY_OBJECT
  5
999E
102
{ACAD_REACTORS
330
40
102
}
330
40
100
AcDbProxyObject
 90
      499
 91
      518
 95
       25
 70
     0
 93
     2876
310
4050B44574753455454494E4753A0E8482A68AA6A88882A069492A684A1A0A723A0A92920ACA0A8419983E1A1ABE1B1820C868A9C829C8E82A12686AF87260F862666A8321A2A72224A0A50000000000000122020E868A9C889282A682A106260F86460F8666083A1A2A72224A9AA250000000000000042020C868A9C988A9
310
C94000000000000048808321A2A727A323250000000000000122020E868A9C9E8C8C62940000000000000488083A1A2A727A3231925000000000000012202128698929C82A4A482B282A0862605C6C8421A624A722AA2CA820A82AC2624A722A1288AE8EAAA68682988A94283A620A9AA27A12520A80982109A82968AAC928
310
AAE9FA04832829A1A0A622830020000419491559254D2505404C1055343414C4541503313A314214D510539110549110540D29254D0954494D455354414D504A082ABAE41792B734141D5915494D253D3905414C4D4B8C0C1107B44574753455454494E4753454E447D0
  0
ACAD_PROXY_OBJECT
  5
9F38
102
{ACAD_REACTORS
330
40
102
}
330
40
100
AcDbProxyObject
 90
      499
 91
      518
 95
       25
 70
     0
 93
      199
310
405055368616674220F688AE8EA68AA8A8929C8EA68A9C88FA
  0
ACAD_PROXY_OBJECT
  5
999F
102
{ACAD_REACTORS
330
40
102
}
330
40
100
AcDbProxyObject
 90
      499
 91
      518
 95
       25
 70
     0
 93
      852
310
4050D5452414E5353455454494E4753A2488A482AE929C8EA8A4829CA69882A8929E9C0C00800050D4F524947494E414C4C595F4F4E0600400008529A7AAA921A2A620A723A0A81A52827212AAA0A48AA68AA4AC8A0C0080001107B44574753455454494E4753454E447D0
  0
ACAD_PROXY_OBJECT
  5
9A37
330
9A35
100
AcDbProxyObject
 90
      499
 91
      590
 95
       25
 70
     0
 93
       13
310
5DD8
  0
ACAD_PROXY_OBJECT
  5
9A38
330
9A35
100
AcDbProxyObject
 90
      499
 91
      591
 95
       25
 70
     0
 93
       96
310
5DEA0E80A0280A0280A0280F
  0
ACAD_PROXY_OBJECT
  5
9A39
330
9A35
100
AcDbProxyObject
 90
      499
 91
      592
 95
       25
 70
     0
 93
      272
310
5DD0E4050140501405014050140501405014050140D01405012C0000000000000040
340
9A43
 94
        0
  0
ACAD_PROXY_OBJECT
  5
9A3A
330
9A35
100
AcDbProxyObject
 90
      499
 91
      593
 95
       25
 70
     0
 93
      497
310
5DE8666666666667A67E199999999999E99FD22405014050140501405014050140501405014050140501405014050140501405014050140501405014050100
340
9A44
 94
        0
  0
ACAD_PROXY_OBJECT
  5
9A3B
330
9A35
100
AcDbProxyObject
 90
      499
 91
      594
 95
       25
 70
     0
 93
       10
310
5DC0
  0
ACAD_PROXY_OBJECT
  5
9A3C
330
9A35
100
AcDbProxyObject
 90
      499
 91
      595
 95
       25
 70
     0
 93
      257
310
5DE290EA22A7D90F49F80000000000001081400000000000004204010000618000
340
9A45
340
9A46
 94
        0
  0
ACAD_PROXY_OBJECT
  5
9A3D
330
9A35
100
AcDbProxyObject
 90
      499
 91
      596
 95
       25
 70
     0
 93
    13013
310
5DD0E411255115350141236025B690140501406901000000000000091013347454E545241434F2C4A504E2C302C8D8096DA2C47454E54524154582C25732C2847454E4D53472067656E647767203232322940690120281A8AA2CA0282484A4BE52028120280A0320200000000000012202668E8A9CA8A482869E5894A09C58
310
605921292F94588E8A9CA8A482A8B0584AE658508E8A9C9AA68E40CECADCC8EECE406464665280D202405044E414D454050496BC914F4051C40640A80000000000004E404CD1D15395149050D3CB1294138B0C0B25AF2453CB11D15395149055160B095CCB0A11D1539354D1C819D95B991DD9C80C8C8D8A50192C3D494628
310
4953424C414E4B28504152543A4E414D45292C424C4F434B3A4E414D452C504152543A4E414D452940480A0A888AA686A480A09251B1DBE80A3A80C81D0000000000100A28099A3A2A72A2920A1A7962528271618164946C76F9623A2A72A2920AA2C1612B9961423A2A726A9A39033B2B7323BB39019189B94A0348090142
310
14D51053911054911014122D2E29A50147501904A000000000000125013347454E545241434F2C4A504E2C302C8B4B8A692C47454E54524154582C25732C2847454E4D53472067656E64776720323138294069012028426A0AA22A924A0A62028246EF4BDFA028EA0320B40000000000001CA02668E8A9CA8A482869E5894A
310
09C5860591BBD2F7E588E8A9CA8A482A8B0584AE658508E8A9C9AA68E40CECADCC8EECE406464625280D202405044E4F544540504928D8B4C4051D40641A80000000000003E404CD1D15395149050D3CB1294138B0C0B24A362D30B11D15395149055160B095CCB0A11D1539354D1C819D95B991DD9C80C8C8D4A501240480
310
A0CAC8A9C889EA480A1106F1072706BF02B680A3A80C83D00000000000007C809BA3A2A72A2920A1A79625282716181641BC41C9C1AFC0AD9623A2A72A2920AA2C1612B9961423A2A726A9A39033B2B7323BB39019191A14A0248090141911154D0D48C90141A43825AF880C90147501908A000000000020145013447454E5
310
45241434F2C4A504E2C302C90E096BE20322C47454E54524154582C25732C2847454E4D53472067656E6477672033362940490120284A9AA20A72220A922192028345A5C53490192028EA03213400000000000024A026A8E8A9CA8A482869E5894A09C586059169714D24064588E8A9CA8A482A8B0584AE658508E8A9C9AA6
310
8E40CECADCC8EECE4064646052809202405094D4154455249414C32405068DDE97BF20324051D40642A8713D0AD7A37045404D11D15395149050D3CB1294138B0C0B2377A5EFC80C8B11D15395149055160B095CCB0A11D1539354D1C819D95B991DD9C80D0C0A501240480A089A82A6A680A091D7F2F9480A3A80A0485A06
310
8100000000000007C809923A2A72A2920A1A796252827161816475FCBE51623A2A72A2920AA2C1612B9961423A2A726A9A39033B2B7323BB3901A1914A024809014154149250D150141226FE29A501475014090C409020000000000000F9013247454E545241434F2C4A504E2C302C89BF8A692C47454E54524154582C2573
310
2C2847454E4D53472067656E6477672034332940490120281A224A6A02824850CB202028EA028121A81A040000000000001F202648E8A9CA8A482869E5894A09C58605921432C80588E8A9CA8A482A8B0584AE658508E8A9C9AA68E40CECADCC8EECE406868528092024050E445020000000000000510201C00030C0001018
310
0000000000003E400000000000000F901073D3C4954454D3E4050180000000000003E400000000000000F901073D3C4954454D3E40501800000000000034400000000000000D101073D3C4954454D3E40501800000000000034400000000000000D101073D3C4954454D3E405029010000000000000F9000000000000003E4
310
041CF4F125511534F901418F4F1455164F9014060000000000000F9000000000000003E4041CF4F125511534F9014060000000000000D100000000000000344041CF4F125511534F901901000000000000000F9000000000000003E40A2200000000000008204038000618048220681A048120280C88214844882034852034
310
8452028521485214814000000000000F0BF0000000000003C2FD018020000C3008070000C3003373333333333B0FCCDCCCCCCCCCCEC3F000000000000031012034164050341105901A000000000000062040100006180401000061804008000618008098A02808
340
0
340
0
 94
        0
  0
ACAD_PROXY_OBJECT
  5
9A3E
330
9A35
100
AcDbProxyObject
 90
      499
 91
      597
 95
       25
 70
     0
 93
      898
310
5DC4000000000000144048CF4F11115510525317D3105091530F880A0F11115510525317D05094D4D0D053114F8A51141C9A9999999999B93F26A666666666724FC000000000000E03F400000000000000400000000000000510000000000000024408070000C300000000000000051000
340
16
340
9A36
 94
        0
  0
ACAD_PROXY_OBJECT
  5
9A3F
330
9A35
100
AcDbProxyObject
 90
      499
 91
      598
 95
       25
 70
     0
 93
      823
310
5DC0B00000000000002880959E9E29A2A1AA24A7A72FA620A122A62FA324A929AA1F169E29A2A1AA24A7A72FA620A122A62FA620A9AA1F000000000000048803FFFE01C00030C0088C0380006180000000000000048800000000000000A2000000000000002880
340
652
340
9A36
 94
        0
  0
ACAD_PROXY_OBJECT
  5
9A40
330
9A35
100
AcDbProxyObject
 90
      499
 91
      599
 95
       25
 70
     0
 93
      152
310
5DE80000000000000840A3D0A5723F0BD1F200
  0
ACAD_PROXY_OBJECT
  5
9A41
330
9A35
100
AcDbProxyObject
 90
      499
 91
      600
 95
       25
 70
     0
 93
       14
310
5DE0
340
0
 94
        0
  0
ACAD_PROXY_OBJECT
  5
9A42
330
9A35
100
AcDbProxyObject
 90
      499
 91
      601
 95
       25
 70
     0
 93
     8619
310
5DD084050BA4050AA405024050E836583938376838C815B836720314043A013D2525633C486F6C653A63746469613E2078203C486F6C653A637464657074683E20555C503C696628657175616C28486F6C653A7461707065642C223022292C22252563222C486F6C653A6E6F6D696E616C202220782022293E3C6966286571
310
75616C28486F6C653A7461707065642C223022292C486F6C653A6469612C486F6C653A706974636864657363293E3C696628657175616C28486F6C653A7461707065642C223122292C22207820222C2222293E3C696628657175616C28486F6C653A7461707065642C223122292C486F6C653A74617064657074682C222229
310
3E203C696628657175616C28486F6C653A7465726D696E6174696F6E2C223022292C22202F20222C2222293E3C696628657175616C28486F6C653A7465726D696E6174696F6E2C223022292C486F6C653A64657074682C2222293E406901405034050E836583938376838C815B836720314043B013D2525633C486F6C653A6
310
3746469613E2078203C486F6C653A6374616E676C653E2525645C503C696628657175616C28486F6C653A7461707065642C223022292C22252563222C486F6C653A6E6F6D696E616C202220782022293E3C696628657175616C28486F6C653A7461707065642C223022292C486F6C653A6469612C486F6C653A70697463686
310
4657363293E3C696628657175616C28486F6C653A7461707065642C223122292C22207820222C2222293E3C696628657175616C28486F6C653A7461707065642C223122292C486F6C653A74617064657074682C2222293E203C696628657175616C28486F6C653A7465726D696E6174696F6E2C223022292C22202F20222C2
310
222293E3C696628657175616C28486F6C653A7465726D696E6174696F6E2C223022292C486F6C653A64657074682C2222293E406901405014050E836583938376838C815B8367203140416013D3C696628657175616C28486F6C653A7461707065642C223022292C22252563222C486F6C653A6E6F6D696E616C2022207820
310
22293E3C696628657175616C28486F6C653A7461707065642C223022292C486F6C653A6469612C486F6C653A706974636864657363293E3C696628657175616C28486F6C653A7461707065642C223122292C22207820222C2222293E3C696628657175616C28486F6C653A7461707065642C223122292C486F6C653A746170
310
64657074682C2222293E203C696628657175616C28486F6C653A7465726D696E6174696F6E2C223022292C22202F20222C2222293E3C696628657175616C28486F6C653A7465726D696E6174696F6E2C223022292C486F6C653A64657074682C2222293E4069014051E4090E836583938376838C815B83672032405173D3C5
310
35444503A444553433E203C535444503A5354443E40690E836583938376838C815B836720314050C3D3C535444503A444553433E40690240515AAABBA120
360
9A4B
330
9A4B
360
9A4C
330
9A4C
360
9A4A
330
9A4A
360
9A49
360
9A48
330
9A49
330
9A48
 94
        0
  0
ACAD_PROXY_OBJECT
  5
9A4D
330
9A35
100
AcDbProxyObject
 90
      499
 91
      542
 95
       25
 70
     0
 93
    23182
310
5DD02491013041105357CC201C00030C0132441013141105357CC603800030C0132441013241105357CCA01400030C0132441013341105357CCE01800030C01199013441105357CD200C00030C01199013541105357CD600C00030C01199013641105357CDA00800030C01239013741105357CDE01000030C0119901384110
310
5357CE200400030C01199013941105357CE63F400030C0241102324141505357CC4C201C00030C0132902344141505357CC4C600C00030C0119902495041505357CC4CA01C00030C013240902304E41505357CC13A01C00030C0132902314E41505357CC53A03800030C0132902324E41505357CC93A01400030C013290233
310
4E41505357CCD3A01800030C0119902344E41505357CD13A00C00030C0119902354E41505357CD53A00C00030C0119902364E41505357CD93A00800030C0123902374E41505357CDD3A01000030C0119902384E41505357CE13A00400030C0119902394E41505357CE53A3F400030C024110332414E41905357CC4C13A01C0
310
0030C013290334414E41905357CC4C53A00C00030C011990349504E41905357CC4C93A01C00030C0132409044B4C494E41505357D0D3200400030C011942504494E464F42105357D410549151A01000030C011942D055241484D3541905357D093D4A01C00030C0132425045649455742105357D5925155D4E00400030C011
310
942D06424548494E4441905357D25395A3F400030C0243505545241494C41505357D514A00C00030C01194250348494441905357D21251201C00030C01194250356495341905357D59254E01C00030C01324250650415244494D42505357D41054911253600C00030C01194250652454644494D42505357D49151911253601
310
000030C0119425774110531514901348070000C3004C9034110915312501348000000C0003FFFFFFFD034110921395901398000000C0003FFFFFFFE415092139594D06424548494E448000000C0003FFFFFFFE411093125110234418000000C0003FFFFFFFD03411093D05410234418000000C0003FFFFFFFD03411093D48C
310
9055241484D358010000C300466411093D48CD055241484D358020000C30048E411093D48D5055241484D358000000C0003FFFFFFFE411093D48DD055241484D3581E0000C30051903411094105410234418000000C0003FFFFFFFD03411094115610234418000000C0003FFFFFFFD034110951112501358000000C0003FFF
310
FFFFD034110D0530C901348000000C0003FFFFFFFE4110D0530CD01348020000C30048E4110D0530D501348070000C3004CA4110D0530DD013481E0000C30051A4110D15393901378000000C0003FFFFFFFE4110D15395D01378000000C0003FFFFFFFE4110D312539044B4C494E8000000C0003FFFFFFFE4110D3D38C5013
310
08000000C0003FFFFFFFD034110D3D38C901318000000C0003FFFFFFFD034110D3D38CD01328000000C0003FFFFFFFD034110D3D38D101328000000C0003FFFFFFFD034111115494101348000000C0003FFFFFFFD034111115510501348000000C0003FFFFFFFE4111125051D01358000000C0003FFFFFFFE4111125312501
310
358000000C0003FFFFFFFE411112535410650415244494D8000000C0003FFFFFFFE411112535490652454644494D8000000C0003FFFFFFFE411156135410234418000000C0003FFFFFFFD034111915353901388000000C0003FFFFFFFE415191535413901388030000C3003FFFFFFFE4151915354D410234418000000C0003
310
FFFFFFFE4151915354D510234418030000C300466415191535593901328000000C0003FFFFFFFE415191535595101328030000C3004664111931055101308000000C0003FFFFFFFD03411194905490234418000000C0003FFFFFFFD034111D49312501358000000C0003FFFFFFFD034111D5931250234418000000C0003FFF
310
FFFFD034112105510D01388000000C0003FFFFFFFD014112125113901338000000C0003FFFFFFFD034112125115D01338000000C0003FFFFFFFD034112131253901348000000C0003FFFFFFFD01411213D0D3901378000000C0003FFFFFFFE411213D0D5D01378000000C0003FFFFFFFE4112539193D04494E464F8000000C
310
0003FFFFFFFE4113105112501348000000C0003FFFFFFFD034113115051101358000000C0003FFFFFFFE419397D0921395902394E8000000C0003FFFFFFFE419397D0D3D38C502304E8000000C0003FFFFFFFD03419397D0D3D38C902314E8000000C0003FFFFFFFD03419397D0D3D38CD02324E8000000C0003FFFFFFFD03
310
419397D0D3D38D102324E8000000C0003FFFFFFFD03419397D0D15393902374E8000000C0003FFFFFFFE419397D0D15395D02374E8000000C0003FFFFFFFE419397D1125312502354E8000000C0003FFFFFFFE419397D2105510D02384E8000000C0003FFFFFFFD01419397D2125113902334E8000000C0003FFFFFFFD0341
310
9397D2125115D02334E8000000C0003FFFFFFFD03419397D3115051102354E8000000C0003FFFFFFFE419397D391D25410349504E8000000C0003FFFFFFFE419397D412105390334414E8000000C0003FFFFFFFE419397D510D3D3902304E8000000C0003FFFFFFFD03419397D5121312502344E8000000C0003FFFFFFFD01
310
419397D5131153902304E8000000C0003FFFFFFFD03419397D516150CD02364E8000000C0003FFFFFFFD03419397D594131250332414E8000000C0003FFFFFFFE411391D25410249508000000C0003FFFFFFFE411410530C9055241484D358010000C300466411410530CD055241484D358020000C30048E411410530D5055
310
241484D358000000C0003FFFFFFFE411410530DD055241484D3581E0000C30051903411412105390234418000000C0003FFFFFFFE411413D4D3901368070000C3004CA419413D4D49151901368050000C3004C903411413D4D6101368000000C0003FFFFFFFD03411414D150D0234418000000C0003FFFFFFFD03411490D1D
310
3901378000000C0003FFFFFFFE411490D1D5D01378000000C0003FFFFFFFE4114919112501348000000C0003FFFFFFFD034114945514901348070000C3004C903411494D093D01348000000C0003FFFFFFFD034114D09492D01348000000C0003FFFFFFFD014114D0D153901378000000C0003FFFFFFFD034114D150D51013
310
48000000C0003FFFFFFFD014114D15313901378000000C0003FFFFFFFD034114D15315D01378000000C0003FFFFFFFD034114D4D654D01308000000C0003FFFFFFFD034114D51312501348070000C3004C9034114D6508C501358000000C0003FFFFFFFD034114D6508C901358000000C0003FFFFFFFD034114D6508CD0135
310
8020000C30048E4114D6508D501358070000C3004C9034114D65353901378000000C0003FFFFFFFD034114D65355D01378000000C0003FFFFFFFD03411510D3D3901308000000C0003FFFFFFFD034115121312501348000000C0003FFFFFFFD01411512550C9055241484D358010000C300466411512550CD055241484D358
310
020000C30048E411512550D5055241484D358000000C0003FFFFFFFE411512550DD055241484D3581E0000C300519034115131153901308000000C0003FFFFFFFD03415514905253105545241494C8000000C0003FFFFFFFE41151492D3901378000000C0003FFFFFFFD0341151492D5D01378000000C0003FFFFFFFD03411
310
5149312501348000000C0003FFFFFFFD01411516150C501368030000C300466411516150C901368030000C300466411516150CD01368000000C0003FFFFFFFE411516150D501368070000C3004CA411516150DD013681E0000C30051A4115925155D04564945578000000C0003FFFFFFFE41159151121034849448000000C0
310
003FFFFFFFD0241159151159035649538000000C0003FFFFFFFD02411594131250232418000000C0003FFFFFFFE4116925690501348000000C0003FFFFFFFD01411354D653501358020000C30048E429014650248D0346504465054C906465074C90E4C91E519FD8
340
99B4
340
16
340
16
340
16
340
43
340
16
340
16
340
16
340
44
340
16
340
16
340
44
340
45
340
16
340
16
340
16
340
16
340
43
340
16
340
16
340
16
340
44
340
16
340
16
340
44
340
45
340
16
340
46
340
16
340
16
340
16
340
16
340
16
340
43
340
16
340
16
340
16
340
47
340
15
340
15
340
15
340
15
340
15
340
15
340
15
340
15
340
15
340
15
340
15
340
15
340
15
340
15
340
15
340
15
340
48
340
15
340
15
340
15
340
15
340
15
340
15
340
15
340
15
340
15
340
15
340
15
340
15
340
15
340
15
340
15
340
16
340
15
340
15
340
15
340
15
340
15
340
15
340
15
340
15
340
47
340
15
340
15
340
48
340
15
340
15
340
15
340
15
340
15
340
15
340
15
340
15
340
15
340
48
340
15
340
15
340
15
340
47
340
15
340
15
340
15
340
15
340
15
340
15
340
15
340
15
340
15
340
15
340
15
340
15
340
15
340
15
340
15
340
15
340
15
340
15
340
15
340
48
340
15
340
15
340
48
340
15
340
15
340
16
340
15
340
48
340
15
340
15
340
47
340
15
340
15
340
16
340
15
340
48
340
15
340
15
340
15
340
15
340
15
340
15
340
15
340
15
340
15
340
48
340
15
340
15
340
15
340
15
340
15
340
15
340
15
340
15
340
15
340
15
340
15
340
4B
340
16
 94
        0
  0
ACAD_PROXY_OBJECT
  5
9A4E
330
9A35
100
AcDbProxyObject
 90
      499
 91
      543
 95
       25
 70
     0
 93
      250
310
5DD020000000000000A1000000000000002440408F0F9023C3E409A0DCFFFF80
340
0
340
0
340
0
340
0
340
0
340
0
340
0
340
0
340
0
340
0
 94
        0
  0
ACAD_PROXY_OBJECT
  5
9A4F
330
9A35
100
AcDbProxyObject
 90
      499
 91
      603
 95
       25
 70
     0
 93
    13889
310
5DD1D003FFFFFFFD030300030000000000000310200800030C01030300030000000000000310200800030C00050C8DC0955782CC838A83588367014ED1D15395149050D3CB1294138B0C0B23702555E0B320E2A0D620D9CB11D15395149055160B095CCB0A11D1539354D1C819D95B991A5B5E880CCC0A78000C0000000000
310
00000000000000000000010000000000000310200800030C010000000000000310200800030C020143CF4F111959985D5B1D151A5D1B194F8050A8C8A8365815B8375838B014E51D15395149050D3CB1294138B0C0B2322A0D96056E0DD60E2CB11D15395149055160B095CCB0A11D1539354D1C819D95B991A5B5E880CCC4
310
A78000C000000000000000000000000000000010000000000000310200800030C010000000000000310200800030C020143CF4F111959985D5B1D151A5D1B194F90D44111409034110541D0C4350F4050E44D03449074510F000141232D24D7C053247454E545241434F2C4A504E2C302C8CB4935F2C47454E54524154582C
310
25732C2847454E4D53472067656E64696D7A20312900010104002214000281464500A608E8A9CA8A482869E5894A09C5860591914588E8A9CA8A482A8B0584AE658508E8A9C9AA68E40CECADCC8D2DAF4406452029E9E9E27B934B3B4B71F1E24A31427A91424A9A12620A7259427B934B3B4B7149624A9A12620A7259424B
310
A32B6949496111116111711149F1E24BA32B69F00808200111A000140560052F47454E545241434F2C4A504E2C302C582C47454E54524154582C25732C2847454E4D53472067656E64696D7A20332900010100002054000280AC80A5E8E8A9CA8A482869E5894A09C586058B2588E8A9CA8A482A8B0584AE658508E8A9C9AA
310
68E40CECADCC8D2DAF4406852000202000040E800050152014BD1D15395149050D3CB1294138B0C0B148B11D15395149055160B095CCB0A11D1539354D1C819D95B991A5B5E880D8A400040400008250000A0507A6029823A2A72A2920A1A79625282716181641E99623A2A72A2920AA2C1612B9961423A2A726A9A39033B2
310
B73234B6BD101B948000808180105A000140A0F4C053047454E545241434F2C4A504E2C302C83D32C47454E54524154582C25732C2847454E4D53472067656E64696D7A203829000101010020F400028248704B5F00A668E8A9CA8A482869E5894A09C58605921C12D7C588E8A9CA8A482A8B0584AE658508E8A9C9AA68E40
310
CECADCC8D2DAF440646052000200080043280005048B4B8A69014CD1D15395149050D3CB1294138B0C0B22D2E29A4B11D15395149055160B095CCB0A11D1539354D1C819D95B991A5B5E880C8C4A4000400100086D0000A09196926BE029923A2A72A2920A1A796252827161816465A49AF9623A2A72A2920AA2C1612B9961
310
423A2A726A9A39033B2B73234B6BD10189480A02620202080043E80005048D8096DA014CD1D15395149050D3CB1294138B0C0B236025B68B11D15395149055160B095CCB0A11D1539354D1C819D95B991A5B5E880C4D0A4000404140280D0000A190687072706CD06C5069D06B0029DA3A2A72A2920A1A7962528271618164
310
1A1C1C9C1B341B141A741AC1623A2A72A2920AA2C1612B9961423A2A726A9A39033B2B73234B6BD10189A94800080828050EA000143A322A0D0E0E4E0D9A0D8A0D3A0D60053D47454E545241434F2C4A504E2C302C8C8A8343839383668362834E83582C47454E54524154582C25732C2847454E4D53472067656E64696D7A
310
2031372900010105002274000281464500A628E8A9CA8A482869E5894A09C5860591914588E8A9CA8A482A8B0584AE658508E8A9C9AA68E40CECADCC8D2DAF440626C52000202080044A8000504909497CA014CD1D15395149050D3CB1294138B0C0B242525F28B11D15395149055160B095CCB0A11D1539354D1C819D95B9
310
91A5B5E880C4E4A400040418008A521E000000000000001CA040C00000000000034408080000000000006881010000000000000D102040000000000001A204080000000000003440818000000000000728103000000000000125020600000000004028A040000000000000034408000000000000004881000000000000000D
310
102000000000000001A204000000000000003440818000000000000508143C0000000000000039408180000000000006881030000000000000D102060000000000001A2040C00000000000034408180000000000006881030000000000000E5020600000000000024A040C0000000000805140800000000000000688100000
310
00000000009102000000000000001A2040000000000000034408180000000000006881030000000000000A10284220000000878000002020000008380000020400000081800000208000000828000002028900000000
340
0
340
0
340
0
340
0
340
9A36
340
9A36
 94
        0
  0
ACAD_PROXY_OBJECT
  5
9A50
330
9A35
100
AcDbProxyObject
 90
      499
 91
      537
 95
       25
 70
     0
 93
     7018
310
5DD9740D254D3D0649534F5F4133429254D3D7D5125513115051349534F5F42525F5265766973696F6E6C69737446111413478342028323937783834316D6D2920421254D3D7D04D1E0D11141327835202835393478323130326D6D29421254D3D7D04C9E0D51141337837202834323078323038306D6D29421254D3D7D04C
310
DE0DD1141347839202832393778313839326D6D29421254D3D7D04D1E0E50E41312028353934783834316D6D29419254D3D7D04C51141327834202835393478313638326D6D29421254D3D7D04C9E0D11141347838202832393778313638326D6D29421254D3D7D04D1E0E10E41332028323937783432306D6D29419254D3D
310
7D04CD104130202838343078313138396D6D2920419254D3D7D04C11141347835202832393778313035316D6D29421254D3D7D04D1E0D51141347836202832393778313236316D6D29421254D3D7D04D1E0D91141347837202832393778313437316D6D29421254D3D7D04D1E0DD1141327833202835393478313236316D6D
310
29421254D3D7D04C9E0CD1141337834202834323078313138396D6D29421254D3D7D04CDE0D110413478332028323937783633306D6D29421254D3D7D04D1E0CD1141337835202834323078313438366D6D29421254D3D7D04CDE0D51141337836202834323078313738336D6D29421254D3D7D04CDE0D9104133783320283
310
43230783839316D6D29421254D3D7D04CDE0CD0E41322028343230783539346D6D29419254D3D7D04C9124130783220283131383978313638326D6D29421254D3D7D04C1E0C90E41342028323937783231306D6D29419254D3D7D04D1124130783320283131383978323532336D6D29421254D3D7D04C1E0CD114131783420
310
2838343178323337386D6D29421254D3D7D04C5E0D11141317833202838343178313738336D6D29421254D3D7D04C5E0CD02431254D3C82557247A25E4C81050A49534F5F5449544C4541431254D3C82557247A25E4C81090A49534F5F5449544C45424110E979A97F0838A835883675F42525F44D254D3D7D09497D4995D9
310
A5CDA5BDB9B1A5CDD10E979A97F0838A835883675F54525F44D254D3D7D51497D4995D9A5CDA5BDB9B1A5CDD10E979A97F0838A835883675F424C5F44D254D3D7D09317D4995D9A5CDA5BDB9B1A5CDD10E979A97F0838A835883675F544C5F44D254D3D7D51317D4995D9A5CDA5BDB9B1A5CDD00
  0
ACAD_PROXY_OBJECT
  5
9CBC
330
9CBB
100
AcDbProxyObject
 90
      499
 91
      527
 95
       25
 70
     0
 93
       86
310
5DEA0C80A0280A0280A034
  0
ACAD_PROXY_OBJECT
  5
9CBD
330
9CBB
100
AcDbProxyObject
 90
      499
 91
      528
 95
       25
 70
     0
 93
      282
310
5DD0E4050140501405014050140501405014050141101405014041000000000000001000
340
187
 94
        0
  0
ACAD_PROXY_OBJECT
  5
9CBE
330
9CBB
100
AcDbProxyObject
 90
      499
 91
      529
 95
       25
 70
     0
 93
      323
310
5DCC199999999999E99F91740501405014050140501405014050140501405014050140501405014040
340
0
 94
        0
  0
ACAD_PROXY_OBJECT
  5
9CBF
330
9CBB
100
AcDbProxyObject
 90
      499
 91
      530
 95
       25
 70
     0
 93
       10
310
5DC0
  0
ACAD_PROXY_OBJECT
  5
9CC0
330
9CBB
100
AcDbProxyObject
 90
      499
 91
      531
 95
       25
 70
     0
 93
      257
310
5DE0C16A22A7D90F49F80000000000001081400000000000004204010000618000
340
188
340
189
 94
        0
  0
ACAD_PROXY_OBJECT
  5
9CC1
330
9CBB
100
AcDbProxyObject
 90
      499
 91
      532
 95
       25
 70
     0
 93
     5277
310
5DD06411255115350141236025B6901405014069010000000000000910240690120281A8AA2CA0282484A4BE52028120280A032020000000000001220480D202405044E414D454050496BC914F4051C40640A80000000000004E4090193C3D3C4946284953424C414E4B28504152543A4E414D45292C424C4F434B3A4E414D
310
452C504152543A4E414D45293E3C41435F44455343524950544E3E40480A109A82A88AA492829880A091BBD2F7E80A3A80C81D0E27A15AF46E08A81203480901411393D5115014124A363B7D0147501904A0000000000000F902406428F4F1050D7D393D5114F901202832B22A72227A92028366EF6EE06F582028EA0320B4
310
0000000000001F20480C879E9E20A1AFAB27222FA620A122A61F20240506445020000000000000490201C00030C00010180000000000003E400000000000000F901073D3C4954454D3E4050180000000000003E400000000000000F901073D3C4954454D3E40501800000000000034400000000000000D101073D3C4954454
310
D3E40501800000000000034400000000000000D101073D3C4954454D3E405029010000000000000F9000000000000003E4041CF4F125511534F901418F4F1455164F9014060000000000000F9000000000000003E4041CF4F125511534F901800000000000034400000000000000D101073D3C4954454D3E40640400000000
310
0000003E400000000000000F90288800000000000020810000001800120881A068120480A032208521122080D21480D211480A1485214852050000000000003C2FC000000000000F0BF40600800030C0200400030C00CDCCCCCCCCCCEC3F3373333333333B0FC3333333333330940C80D069014090341504901A1999999999
310
9984A040100006180400800061804010000618008098A02808
340
0
340
0
 94
        0
  0
ACAD_PROXY_OBJECT
  5
9CC2
330
9CBB
100
AcDbProxyObject
 90
      499
 91
      537
 95
       25
 70
     0
 93
     3042
310
5DD9740D29254D064A49535F413342929254D7D512551311505134A49535F42525F5265766973696F6E6C6973744190F4134522028323937783231306D6D2941D29254D7D04D1490E41312028353934783834316D6D2941929254D7D04C50E41332028323937783432306D6D2941929254D7D04CD0F41344C2028323130783
310
239376D6D2941D29254D7D04D1310E41322028343230783539346D6D2941929254D7D04C90F4130202838343178313138396D6D2941929254D7D04C10243129254C82557247A25E4C81050A4A49535F5449544C454143129254C82557247A25E4C81090A4A49535F5449544C45424110E979A97F0838A835883675F42525F4
310
4D29254D7D09497D4995D9A5CDA5BDB9B1A5CDD10E979A97F0838A835883675F54525F44D29254D7D51497D4995D9A5CDA5BDB9B1A5CDD10E979A97F0838A835883675F424C5F44D29254D7D09317D4995D9A5CDA5BDB9B1A5CDD10E979A97F0838A835883675F544C5F44D29254D7D51317D4995D9A5CDA5BDB9B1A5CDD00
  0
ACAD_PROXY_OBJECT
  5
9CC3
330
9CBB
100
AcDbProxyObject
 90
      499
 91
      538
 95
       25
 70
     0
 93
      898
310
5DC4000000000000124048CF4F11115510525317D3105091530F880A0F11115510525317D05094D4D0D053114F8A50241C9A9999999999B93F26A666666666724FC000000000000E03F400000000000000400000000000000510000000000000024408070000C300000000000000049000
340
16
340
180
 94
        0
  0
ACAD_PROXY_OBJECT
  5
9CC4
330
9CBB
100
AcDbProxyObject
 90
      499
 91
      539
 95
       25
 70
     0
 93
      823
310
5DC0B00000000000002480959E9E29A2A1AA24A7A72FA620A122A62FA324A929AA1F169E29A2A1AA24A7A72FA620A122A62FA620A9AA1F000000000000048803FFFE01C00030C008140380006180000000000000048800000000000000A2000000000000002480
340
652
340
180
 94
        0
  0
ACAD_PROXY_OBJECT
  5
9CC5
330
9CBB
100
AcDbProxyObject
 90
      499
 91
      540
 95
       25
 70
     0
 93
      152
310
5DE8273108AC1C5A0640A3D0A5723F0BD1F200
  0
ACAD_PROXY_OBJECT
  5
9CC6
330
9CBB
100
AcDbProxyObject
 90
      499
 91
      604
 95
       25
 70
     0
 93
       14
310
5DE0
340
0
 94
        0
  0
ACAD_PROXY_OBJECT
  5
9CC7
330
9CBB
100
AcDbProxyObject
 90
      499
 91
      541
 95
       25
 70
     0
 93
     6059
310
5DD084050BA4050AA405024050E836583938376838C815B83672031405983D3C486F6C653A6469613E3C696628657175616C28486F6C653A7465726D696E6174696F6E2C223022292C2220905B82B320222C22208368838A838B22293E3C696628657175616C28486F6C653A7465726D696E6174696F6E2C223022292C486F
310
6C653A64657074682C2222293E2C203C486F6C653A63746469613E2082B482AE82E882CC905B82B3203C486F6C653A637464657074683E406901405034050E836583938376838C815B83672031405EF3D3C486F6C653A6374616E676C653E252564202525633C486F6C653A63746469613E208E4D8C8A2C203C69662865717
310
5616C28486F6C653A7461707065642C223022292C22252563222C486F6C653A6E6F6D696E616C202220782022293E3C696628657175616C28486F6C653A7461707065642C223022292C486F6C653A6469612C486F6C653A706974636864657363293E203C696628657175616C28486F6C653A7465726D696E6174696F6E2C2
310
23022292C22905B82B320222C222022293E3C696628657175616C28486F6C653A7465726D696E6174696F6E2C223022292C486F6C653A64657074682C2222293E406901405014050E836583938376838C815B83672031405C73D3C696628657175616C28486F6C653A7461707065642C223022292C22252563222C486F6C65
310
3A6E6F6D696E616C202220782022293E3C696628657175616C28486F6C653A7461707065642C223022292C486F6C653A6469612C486F6C653A706974636864657363293E203C696628657175616C28486F6C653A7465726D696E6174696F6E2C223022292C22905B82B320222C222022293E3C696628657175616C28486F6C
310
653A7465726D696E6174696F6E2C223022292C486F6C653A64657074682C2222293E4069014051E4090E836583938376838C815B83672032405173D3C535444503A444553433E203C535444503A5354443E40690E836583938376838C815B836720314050C3D3C535444503A444553433E40690240515AAABBA120
360
9CC8
330
9CC8
360
9CC9
330
9CC9
360
9CCA
330
9CCA
360
9CCB
360
9CCC
330
9CCB
330
9CCC
 94
        0
  0
ACAD_PROXY_OBJECT
  5
9CCD
330
9CBB
100
AcDbProxyObject
 90
      499
 91
      542
 95
       25
 70
     0
 93
       26
310
5DD02A80
340
0
 94
        0
  0
ACAD_PROXY_OBJECT
  5
9CCE
330
9CBB
100
AcDbProxyObject
 90
      499
 91
      543
 95
       25
 70
     0
 93
      250
310
5DD020000000000000A1000000000000002440408F0F9023C3E409A0DCFFFF80
340
58
340
1899
340
189A
340
5F
340
60
340
61
340
62
340
63
340
68
340
0
 94
        0
  0
ACAD_PROXY_OBJECT
  5
9CCF
330
9CBB
100
AcDbProxyObject
 90
      499
 91
      605
 95
       25
 70
     0
 93
    13889
310
5DD1D003FFFFFFFD030300030CCCCCCCCCCCC250200800030C01030300030CCCCCCCCCCCC250200800030C00050C8DC0955782CC838A83588367014ED1D15395149050D3CB1294138B0C0B23702555E0B320E2A0D620D9CB11D15395149055160B095CCB0A11D1539354D1C819D95B991A5B5E880CCC0A78000C0000000000
310
00000000000000000000010CCCCCCCCCCCC250200800030C010CCCCCCCCCCCC250200800030C020143CF4F111959985D5B1D151A5D1B194F8050A8C8A8365815B8375838B014E51D15395149050D3CB1294138B0C0B2322A0D96056E0DD60E2CB11D15395149055160B095CCB0A11D1539354D1C819D95B991A5B5E880CCC4
310
A78000C000000000000000000000000000000010CCCCCCCCCCCC250200800030C010CCCCCCCCCCCC250200800030C020143CF4F111959985D5B1D151A5D1B194F90D44111409034110541D0C4350F4050E44D03449074510F000141232D24D7C053247454E545241434F2C4A504E2C302C8CB4935F2C47454E54524154582C
310
25732C2847454E4D53472067656E64696D7A20312900010104002214000281464500A608E8A9CA8A482869E5894A09C5860591914588E8A9CA8A482A8B0584AE658508E8A9C9AA68E40CECADCC8D2DAF4406452029E9E9E27B934B3B4B71F1E24A31427A91424A9A12620A7259427B934B3B4B7149624A9A12620A7259424B
310
A32B6949496111116111711149F1E24BA32B69F00808200111A000140560052F47454E545241434F2C4A504E2C302C582C47454E54524154582C25732C2847454E4D53472067656E64696D7A20332900010100002054000280AC80A5E8E8A9CA8A482869E5894A09C586058B2588E8A9CA8A482A8B0584AE658508E8A9C9AA
310
68E40CECADCC8D2DAF4406852000202000040E800050152014BD1D15395149050D3CB1294138B0C0B148B11D15395149055160B095CCB0A11D1539354D1C819D95B991A5B5E880D8A400040400008250000A0507A6029823A2A72A2920A1A79625282716181641E99623A2A72A2920AA2C1612B9961423A2A726A9A39033B2
310
B73234B6BD101B948000808180105A000140A0F4C053047454E545241434F2C4A504E2C302C83D32C47454E54524154582C25732C2847454E4D53472067656E64696D7A203829000101010020F400028248704B5F00A668E8A9CA8A482869E5894A09C58605921C12D7C588E8A9CA8A482A8B0584AE658508E8A9C9AA68E40
310
CECADCC8D2DAF440646052000200080043280005048B4B8A69014CD1D15395149050D3CB1294138B0C0B22D2E29A4B11D15395149055160B095CCB0A11D1539354D1C819D95B991A5B5E880C8C4A4000400100086D0000A09196926BE029923A2A72A2920A1A796252827161816465A49AF9623A2A72A2920AA2C1612B9961
310
423A2A726A9A39033B2B73234B6BD10189480A02620202080043E80005048D8096DA014CD1D15395149050D3CB1294138B0C0B236025B68B11D15395149055160B095CCB0A11D1539354D1C819D95B991A5B5E880C4D0A4000404140280D0000A190687072706CD06C5069D06B0029DA3A2A72A2920A1A7962528271618164
310
1A1C1C9C1B341B141A741AC1623A2A72A2920AA2C1612B9961423A2A726A9A39033B2B73234B6BD10189A94800080820050EA000143A322A0D0E0E4E0D9A0D8A0D3A0D60053D47454E545241434F2C4A504E2C302C8C8A8343839383668362834E83582C47454E54524154582C25732C2847454E4D53472067656E64696D7A
310
2031372900010105002274000281464500A628E8A9CA8A482869E5894A09C5860591914588E8A9CA8A482A8B0584AE658508E8A9C9AA68E40CECADCC8D2DAF440626C52000202080044A8000504909497CA014CD1D15395149050D3CB1294138B0C0B242525F28B11D15395149055160B095CCB0A11D1539354D1C819D95B9
310
91A5B5E880C4E4A400040418008A521E000000000000001CA040C00000000000034408080000000000006881010000000000000D102040000000000001A204080000000000003440818000000000000728103000000000000125020600000000004028A040000000000000034408000000000000004881000000000000000D
310
102000000000000001A204000000000000003440818000000000000508143C0000000000000039408180000000000006881030000000000000D102060000000000001A2040C00000000000034408180000000000006881030000000000000E5020600000000000024A040C0000000000805140800000000000000688100000
310
00000000009102000000000000001A2040000000000000034408180000000000006881030000000000000A10284220000000878000002020000008380000020400000081800000208000000828000002028900000000
340
0
340
0
340
0
340
0
340
180
340
180
 94
        0
  0
ACAD_PROXY_OBJECT
  5
9A4B
330
9A42
100
AcDbProxyObject
 90
      499
 91
      602
 95
       25
 70
     0
 93
     2680
310
5DE0143A0D960E4E0DDA0E32056E0D9C80C4043A013D2525633C486F6C653A63746469613E2078203C486F6C653A637464657074683E20555C503C696628657175616C28486F6C653A7461707065642C223022292C22252563222C486F6C653A6E6F6D696E616C202220782022293E3C696628657175616C28486F6C653A74
310
61707065642C223022292C486F6C653A6469612C486F6C653A706974636864657363293E3C696628657175616C28486F6C653A7461707065642C223122292C22207820222C2222293E3C696628657175616C28486F6C653A7461707065642C223122292C486F6C653A74617064657074682C2222293E203C69662865717561
310
6C28486F6C653A7465726D696E6174696F6E2C223022292C22202F20222C2222293E3C696628657175616C28486F6C653A7465726D696E6174696F6E2C223022292C486F6C653A64657074682C2222293E
  0
ACAD_PROXY_OBJECT
  5
9A4C
330
9A42
100
AcDbProxyObject
 90
      499
 91
      602
 95
       25
 70
     0
 93
     2688
310
5DE0143A0D960E4E0DDA0E32056E0D9C80C4043B013D2525633C486F6C653A63746469613E2078203C486F6C653A6374616E676C653E2525645C503C696628657175616C28486F6C653A7461707065642C223022292C22252563222C486F6C653A6E6F6D696E616C202220782022293E3C696628657175616C28486F6C653A
310
7461707065642C223022292C486F6C653A6469612C486F6C653A706974636864657363293E3C696628657175616C28486F6C653A7461707065642C223122292C22207820222C2222293E3C696628657175616C28486F6C653A7461707065642C223122292C486F6C653A74617064657074682C2222293E203C696628657175
310
616C28486F6C653A7465726D696E6174696F6E2C223022292C22202F20222C2222293E3C696628657175616C28486F6C653A7465726D696E6174696F6E2C223022292C486F6C653A64657074682C2222293E
  0
ACAD_PROXY_OBJECT
  5
9A4A
330
9A42
100
AcDbProxyObject
 90
      499
 91
      602
 95
       25
 70
     0
 93
     2392
310
5DE0143A0D960E4E0DDA0E32056E0D9C80C40416013D3C696628657175616C28486F6C653A7461707065642C223022292C22252563222C486F6C653A6E6F6D696E616C202220782022293E3C696628657175616C28486F6C653A7461707065642C223022292C486F6C653A6469612C486F6C653A706974636864657363293E
310
3C696628657175616C28486F6C653A7461707065642C223122292C22207820222C2222293E3C696628657175616C28486F6C653A7461707065642C223122292C486F6C653A74617064657074682C2222293E203C696628657175616C28486F6C653A7465726D696E6174696F6E2C223022292C22202F20222C2222293E3C69
310
6628657175616C28486F6C653A7465726D696E6174696F6E2C223022292C486F6C653A64657074682C2222293E
  0
ACAD_PROXY_OBJECT
  5
9A49
330
9A42
100
AcDbProxyObject
 90
      499
 91
      602
 95
       25
 70
     0
 93
      344
310
5DE0143A0D960E4E0DDA0E32056E0D9C80C805173D3C535444503A444553433E203C535444503A5354443E
  0
ACAD_PROXY_OBJECT
  5
9A48
330
9A42
100
AcDbProxyObject
 90
      499
 91
      602
 95
       25
 70
     0
 93
      256
310
5DE0143A0D960E4E0DDA0E32056E0D9C80C4050C3D3C535444503A444553433E
  0
ACAD_PROXY_OBJECT
  5
9CC8
330
9CC7
100
AcDbProxyObject
 90
      499
 91
      602
 95
       25
 70
     0
 93
     1376
310
5DE0143A0D960E4E0DDA0E32056E0D9C80C405983D3C486F6C653A6469613E3C696628657175616C28486F6C653A7465726D696E6174696F6E2C223022292C2220905B82B320222C22208368838A838B22293E3C696628657175616C28486F6C653A7465726D696E6174696F6E2C223022292C486F6C653A64657074682C22
310
22293E2C203C486F6C653A63746469613E2082B482AE82E882CC905B82B3203C486F6C653A637464657074683E
  0
ACAD_PROXY_OBJECT
  5
9CC9
330
9CC7
100
AcDbProxyObject
 90
      499
 91
      602
 95
       25
 70
     0
 93
     2072
310
5DE0143A0D960E4E0DDA0E32056E0D9C80C405EF3D3C486F6C653A6374616E676C653E252564202525633C486F6C653A63746469613E208E4D8C8A2C203C696628657175616C28486F6C653A7461707065642C223022292C22252563222C486F6C653A6E6F6D696E616C202220782022293E3C696628657175616C28486F6C
310
653A7461707065642C223022292C486F6C653A6469612C486F6C653A706974636864657363293E203C696628657175616C28486F6C653A7465726D696E6174696F6E2C223022292C22905B82B320222C222022293E3C696628657175616C28486F6C653A7465726D696E6174696F6E2C223022292C486F6C653A6465707468
310
2C2222293E
  0
ACAD_PROXY_OBJECT
  5
9CCA
330
9CC7
100
AcDbProxyObject
 90
      499
 91
      602
 95
       25
 70
     0
 93
     1752
310
5DE0143A0D960E4E0DDA0E32056E0D9C80C405C73D3C696628657175616C28486F6C653A7461707065642C223022292C22252563222C486F6C653A6E6F6D696E616C202220782022293E3C696628657175616C28486F6C653A7461707065642C223022292C486F6C653A6469612C486F6C653A706974636864657363293E20
310
3C696628657175616C28486F6C653A7465726D696E6174696F6E2C223022292C22905B82B320222C222022293E3C696628657175616C28486F6C653A7465726D696E6174696F6E2C223022292C486F6C653A64657074682C2222293E
  0
ACAD_PROXY_OBJECT
  5
9CCB
330
9CC7
100
AcDbProxyObject
 90
      499
 91
      602
 95
       25
 70
     0
 93
      344
310
5DE0143A0D960E4E0DDA0E32056E0D9C80C805173D3C535444503A444553433E203C535444503A5354443E
  0
ACAD_PROXY_OBJECT
  5
9CCC
330
9CC7
100
AcDbProxyObject
 90
      499
 91
      602
 95
       25
 70
     0
 93
      256
310
5DE0143A0D960E4E0DDA0E32056E0D9C80C4050C3D3C535444503A444553433E
  0
ENDSEC
  0
EOF
