  0
SECTION
  2
HEADER
  9
$ACADVER
  1
AC1014
  9
$ACADMAINTVER
 70
     0
  9
$DWGCODEPAGE
  3
ANSI_932
  9
$INSBASE
 10
0.0
 20
0.0
 30
0.0
  9
$EXTMIN
 10
-42.806414
 20
-63.105346
 30
0.0
  9
$EXTMAX
 10
66.858325
 20
16.028903
 30
0.0
  9
$LIMMIN
 10
-66.609633
 20
-68.776119
  9
$LIMMAX
 10
72.773391
 20
16.279251
  9
$ORTHOMODE
 70
     0
  9
$REGENMODE
 70
     1
  9
$FILLMODE
 70
     1
  9
$QTEXTMODE
 70
     0
  9
$MIRRTEXT
 70
     1
  9
$DRAGMODE
 70
     2
  9
$LTSCALE
 40
0.5
  9
$OSMODE
 70
   547
  9
$ATTMODE
 70
     1
  9
$TEXTSIZE
 40
0.2
  9
$TRACEWID
 40
0.05
  9
$TEXTSTYLE
  7
STANDARD
  9
$CLAYER
  8
寸法
  9
$CELTYPE
  6
BYLAYER
  9
$CECOLOR
 62
     1
  9
$CELTSCALE
 40
1.0
  9
$DELOBJ
 70
     1
  9
$DISPSILH
 70
     0
  9
$DIMSCALE
 40
1.0
  9
$DIMASZ
 40
2.0
  9
$DIMEXO
 40
1.0
  9
$DIMDLI
 40
10.0
  9
$DIMRND
 40
0.0
  9
$DIMDLE
 40
0.0
  9
$DIMEXE
 40
1.0
  9
$DIMTP
 40
0.0
  9
$DIMTM
 40
0.0
  9
$DIMTXT
 40
3.0
  9
$DIMCEN
 40
2.0
  9
$DIMTSZ
 40
0.0
  9
$DIMTOL
 70
     0
  9
$DIMLIM
 70
     0
  9
$DIMTIH
 70
     0
  9
$DIMTOH
 70
     0
  9
$DIMSE1
 70
     0
  9
$DIMSE2
 70
     0
  9
$DIMTAD
 70
     1
  9
$DIMZIN
 70
     8
  9
$DIMBLK
  1

  9
$DIMASO
 70
     1
  9
$DIMSHO
 70
     1
  9
$DIMPOST
  1

  9
$DIMAPOST
  1

  9
$DIMALT
 70
     0
  9
$DIMALTD
 70
     2
  9
$DIMALTF
 40
25.4
  9
$DIMLFAC
 40
1.0
  9
$DIMTOFL
 70
     1
  9
$DIMTVP
 40
0.0
  9
$DIMTIX
 70
     0
  9
$DIMSOXD
 70
     0
  9
$DIMSAH
 70
     1
  9
$DIMBLK1
  1
_OPEN30
  9
$DIMBLK2
  1
_OPEN30
  9
$DIMSTYLE
  2
寸法
  9
$DIMCLRD
 70
     1
  9
$DIMCLRE
 70
     1
  9
$DIMCLRT
 70
     1
  9
$DIMTFAC
 40
1.0
  9
$DIMGAP
 40
1.0
  9
$DIMJUST
 70
     0
  9
$DIMSD1
 70
     0
  9
$DIMSD2
 70
     0
  9
$DIMTOLJ
 70
     1
  9
$DIMTZIN
 70
     0
  9
$DIMALTZ
 70
     0
  9
$DIMALTTZ
 70
     0
  9
$DIMFIT
 70
     2
  9
$DIMUPT
 70
     0
  9
$DIMUNIT
 70
     2
  9
$DIMDEC
 70
     2
  9
$DIMTDEC
 70
     4
  9
$DIMALTU
 70
     2
  9
$DIMALTTD
 70
     2
  9
$DIMTXSTY
  7
STANDARD
  9
$DIMAUNIT
 70
     0
  9
$LUNITS
 70
     2
  9
$LUPREC
 70
     4
  9
$SKETCHINC
 40
0.1
  9
$FILLETRAD
 40
0.0
  9
$AUNITS
 70
     0
  9
$AUPREC
 70
     0
  9
$MENU
  1
acad
  9
$ELEVATION
 40
0.0
  9
$PELEVATION
 40
0.0
  9
$THICKNESS
 40
0.0
  9
$LIMCHECK
 70
     0
  9
$BLIPMODE
 70
     0
  9
$CHAMFERA
 40
0.0
  9
$CHAMFERB
 40
0.0
  9
$CHAMFERC
 40
0.0
  9
$CHAMFERD
 40
0.0
  9
$SKPOLY
 70
     0
  9
$TDCREATE
 40
2451945.661014930
  9
$TDUPDATE
 40
2451977.594641203
  9
$TDINDWG
 40
0.0148004630
  9
$TDUSRTIMER
 40
0.0148004630
  9
$USRTIMER
 70
     1
  9
$ANGBASE
 50
0.0
  9
$ANGDIR
 70
     0
  9
$PDMODE
 70
     0
  9
$PDSIZE
 40
0.0
  9
$PLINEWID
 40
0.0
  9
$COORDS
 70
     1
  9
$SPLFRAME
 70
     0
  9
$SPLINETYPE
 70
     6
  9
$SPLINESEGS
 70
     8
  9
$ATTDIA
 70
     0
  9
$ATTREQ
 70
     1
  9
$HANDLING
 70
     1
  9
$HANDSEED
  5
430
  9
$SURFTAB1
 70
     6
  9
$SURFTAB2
 70
     6
  9
$SURFTYPE
 70
     6
  9
$SURFU
 70
     6
  9
$SURFV
 70
     6
  9
$UCSNAME
  2

  9
$UCSORG
 10
0.0
 20
0.0
 30
0.0
  9
$UCSXDIR
 10
1.0
 20
0.0
 30
0.0
  9
$UCSYDIR
 10
0.0
 20
1.0
 30
0.0
  9
$PUCSNAME
  2

  9
$PUCSORG
 10
0.0
 20
0.0
 30
0.0
  9
$PUCSXDIR
 10
1.0
 20
0.0
 30
0.0
  9
$PUCSYDIR
 10
0.0
 20
1.0
 30
0.0
  9
$USERI1
 70
     0
  9
$USERI2
 70
     0
  9
$USERI3
 70
     0
  9
$USERI4
 70
     0
  9
$USERI5
 70
     0
  9
$USERR1
 40
0.0
  9
$USERR2
 40
0.0
  9
$USERR3
 40
0.0
  9
$USERR4
 40
0.0
  9
$USERR5
 40
0.0
  9
$WORLDVIEW
 70
     1
  9
$SHADEDGE
 70
     3
  9
$SHADEDIF
 70
    70
  9
$TILEMODE
 70
     1
  9
$MAXACTVP
 70
    48
  9
$PINSBASE
 10
0.0
 20
0.0
 30
0.0
  9
$PLIMCHECK
 70
     0
  9
$PEXTMIN
 10
1.000000E+20
 20
1.000000E+20
 30
1.000000E+20
  9
$PEXTMAX
 10
-1.000000E+20
 20
-1.000000E+20
 30
-1.000000E+20
  9
$PLIMMIN
 10
0.0
 20
0.0
  9
$PLIMMAX
 10
12.0
 20
9.0
  9
$UNITMODE
 70
     0
  9
$VISRETAIN
 70
     1
  9
$PLINEGEN
 70
     0
  9
$PSLTSCALE
 70
     1
  9
$TREEDEPTH
 70
  3020
  9
$PICKSTYLE
 70
     1
  9
$CMLSTYLE
  2
STANDARD
  9
$CMLJUST
 70
     0
  9
$CMLSCALE
 40
1.0
  9
$PROXYGRAPHICS
 70
     1
  9
$MEASUREMENT
 70
     0
  0
ENDSEC
  0
SECTION
  2
CLASSES
  0
ENDSEC
  0
SECTION
  2
TABLES
  0
TABLE
  2
VPORT
  5
8
100
AcDbSymbolTable
 70
     2
  0
VPORT
  5
42F
100
AcDbSymbolTableRecord
100
AcDbViewportTableRecord
  2
*ACTIVE
 70
     0
 10
0.0
 20
0.0
 11
1.0
 21
1.0
 12
27.280053
 22
-27.393553
 13
0.0
 23
0.0
 14
1.0
 24
1.0
 15
10.0
 25
10.0
 16
0.0
 26
0.0
 36
1.0
 17
0.0
 27
0.0
 37
0.0
 40
124.810568
 41
1.710425
 42
50.0
 43
0.0
 44
0.0
 50
0.0
 51
0.0
 71
     0
 72
   100
 73
     1
 74
     1
 75
     0
 76
     0
 77
     0
 78
     0
  0
ENDTAB
  0
TABLE
  2
LTYPE
  5
5
100
AcDbSymbolTable
 70
     5
  0
LTYPE
  5
12
100
AcDbSymbolTableRecord
100
AcDbLinetypeTableRecord
  2
BYBLOCK
 70
     0
  3

 72
    65
 73
     0
 40
0.0
  0
LTYPE
  5
13
100
AcDbSymbolTableRecord
100
AcDbLinetypeTableRecord
  2
BYLAYER
 70
     0
  3

 72
    65
 73
     0
 40
0.0
  0
LTYPE
  5
14
100
AcDbSymbolTableRecord
100
AcDbLinetypeTableRecord
  2
CONTINUOUS
 70
     0
  3
Solid line
 72
    65
 73
     0
 40
0.0
  0
LTYPE
  5
1F
100
AcDbSymbolTableRecord
100
AcDbLinetypeTableRecord
  2
DASHED
 70
     0
  3
__ __ __ __ __ __ __ __ __ __ __ __ __ __ __
 72
    65
 73
     2
 40
3.5
 49
2.0
 74
     0
 49
-1.5
 74
     0
  0
LTYPE
  5
20
100
AcDbSymbolTableRecord
100
AcDbLinetypeTableRecord
  2
CENTER
 70
     0
  3
____ _ ____ _ ____ _ ____ _ ____ _ ____ _ ____
 72
    65
 73
     4
 40
17.5
 49
13.0
 74
     0
 49
-1.5
 74
     0
 49
1.5
 74
     0
 49
-1.5
 74
     0
  0
LTYPE
  5
21
100
AcDbSymbolTableRecord
100
AcDbLinetypeTableRecord
  2
PHANTOM
 70
     0
  3
_____ _ _ _____ _ _ _____ _ _ _____ _ _ ____  
 72
    65
 73
     6
 40
15.5
 49
8.0
 74
     0
 49
-1.5
 74
     0
 49
1.5
 74
     0
 49
-1.5
 74
     0
 49
1.5
 74
     0
 49
-1.5
 74
     0
  0
LTYPE
  5
22
100
AcDbSymbolTableRecord
100
AcDbLinetypeTableRecord
  2
DOT
 70
     0
  3
. . . . . . . . . . . . . . . . . . . . . . . .
 72
    65
 73
     2
 40
0.25
 49
0.0
 74
     0
 49
-0.25
 74
     0
  0
ENDTAB
  0
TABLE
  2
LAYER
  5
2
100
AcDbSymbolTable
 70
     3
  0
LAYER
  5
E
100
AcDbSymbolTableRecord
100
AcDbLayerTableRecord
  2
0
 70
     0
 62
     7
  6
CONTINUOUS
  0
LAYER
  5
F6
100
AcDbSymbolTableRecord
100
AcDbLayerTableRecord
  2
寸法
 70
     0
 62
     1
  6
CONTINUOUS
  0
LAYER
  5
110
100
AcDbSymbolTableRecord
100
AcDbLayerTableRecord
  2
DEFPOINTS
 70
     0
 62
     7
  6
CONTINUOUS
  0
ENDTAB
  0
TABLE
  2
STYLE
  5
3
100
AcDbSymbolTable
 70
     2
  0
STYLE
  5
F
100
AcDbSymbolTableRecord
100
AcDbTextStyleTableRecord
  2
STANDARD
 70
     0
 40
0.0
 41
1.0
 50
0.0
 71
     0
 42
0.2
  3
txt
  4
BIGFONT
  0
STYLE
  5
F7
100
AcDbSymbolTableRecord
100
AcDbTextStyleTableRecord
  2
寸法
 70
     0
 40
0.0
 41
1.0
 50
0.0
 71
     0
 42
1.767677
  3
txt.shx
  4
bigfont.shx
  0
ENDTAB
  0
TABLE
  2
VIEW
  5
6
100
AcDbSymbolTable
 70
     0
  0
ENDTAB
  0
TABLE
  2
UCS
  5
7
100
AcDbSymbolTable
 70
     0
  0
ENDTAB
  0
TABLE
  2
APPID
  5
9
100
AcDbSymbolTable
 70
     3
  0
APPID
  5
10
100
AcDbSymbolTableRecord
100
AcDbRegAppTableRecord
  2
ACAD
 70
     0
  0
APPID
  5
FA
100
AcDbSymbolTableRecord
100
AcDbRegAppTableRecord
  2
CONTENTTABDATA
 70
     0
  0
APPID
  5
FB
100
AcDbSymbolTableRecord
100
AcDbRegAppTableRecord
  2
CONTENTCURRENTTAB
 70
     0
  0
ENDTAB
  0
TABLE
  2
DIMSTYLE
  5
A
100
AcDbSymbolTable
 70
     3
  0
DIMSTYLE
105
E8
100
AcDbSymbolTableRecord
100
AcDbDimStyleTableRecord
  2
STANDARD
 70
     0
  3

  4

  5

  6

  7

 40
1.0
 41
0.18
 42
0.0625
 43
0.38
 44
0.18
 45
0.0
 46
0.0
 47
0.0
 48
0.0
140
0.18
141
0.09
142
0.0
143
25.4
144
1.0
145
0.0
146
1.0
147
0.09
 71
     0
 72
     0
 73
     1
 74
     1
 75
     0
 76
     0
 77
     0
 78
     0
170
     0
171
     2
172
     0
173
     0
174
     0
175
     0
176
     0
177
     0
178
     0
270
     2
271
     4
272
     4
273
     2
274
     2
340
F
275
     0
280
     0
281
     0
282
     0
283
     1
284
     0
285
     0
286
     0
287
     3
288
     0
  0
DIMSTYLE
105
F8
100
AcDbSymbolTableRecord
100
AcDbDimStyleTableRecord
  2
STANDARD_WS
 70
     0
  3

  4

  5

  6

  7

 40
0.707071
 41
2.5
 42
0.625
 43
3.75
 44
1.25
 45
0.0
 46
0.0
 47
0.0
 48
0.0
140
2.5
141
2.5
142
0.0
143
0.0394
144
1.0
145
0.0
146
1.0
147
0.625
 71
     0
 72
     0
 73
     0
 74
     0
 75
     0
 76
     0
 77
     1
 78
     8
170
     0
171
     4
172
     1
173
     0
174
     0
175
     0
176
     0
177
     0
178
     0
270
     2
271
     4
272
     4
273
     8
274
     4
340
F
275
     0
280
     0
281
     0
282
     0
283
     1
284
     0
285
     0
286
     0
287
     3
288
     0
  0
DIMSTYLE
105
F9
102
{ACAD_REACTORS
330
121
330
12E
330
142
330
174
330
183
330
192
330
1A6
330
1CF
102
}
100
AcDbSymbolTableRecord
100
AcDbDimStyleTableRecord
  2
寸法
 70
     0
  3

  4

  5

  6
_OPEN30
  7
_OPEN30
 40
1.0
 41
2.0
 42
1.0
 43
10.0
 44
1.0
 45
0.0
 46
0.0
 47
0.0
 48
0.0
140
3.0
141
2.0
142
0.0
143
25.4
144
1.0
145
0.0
146
1.0
147
1.0
 71
     0
 72
     0
 73
     0
 74
     0
 75
     0
 76
     0
 77
     1
 78
     8
170
     0
171
     2
172
     1
173
     1
174
     0
175
     0
176
     1
177
     1
178
     1
270
     2
271
     2
272
     4
273
     2
274
     2
340
F
275
     0
280
     0
281
     0
282
     0
283
     1
284
     0
285
     0
286
     0
287
     0
288
     0
  0
ENDTAB
  0
TABLE
  2
BLOCK_RECORD
  5
1
100
AcDbSymbolTable
 70
    14
  0
BLOCK_RECORD
  5
18
100
AcDbSymbolTableRecord
100
AcDbBlockTableRecord
  2
*MODEL_SPACE
  0
BLOCK_RECORD
  5
15
100
AcDbSymbolTableRecord
100
AcDbBlockTableRecord
  2
*PAPER_SPACE
  0
BLOCK_RECORD
  5
F0
100
AcDbSymbolTableRecord
100
AcDbBlockTableRecord
  2
_OPEN30
  0
BLOCK_RECORD
  5
FC
100
AcDbSymbolTableRecord
100
AcDbBlockTableRecord
  2
テンプレ-ト
  0
BLOCK_RECORD
  5
115
100
AcDbSymbolTableRecord
100
AcDbBlockTableRecord
  2
*D3
  0
BLOCK_RECORD
  5
122
100
AcDbSymbolTableRecord
100
AcDbBlockTableRecord
  2
*D4
  0
BLOCK_RECORD
  5
130
100
AcDbSymbolTableRecord
100
AcDbBlockTableRecord
  2
*D5
  0
BLOCK_RECORD
  5
168
100
AcDbSymbolTableRecord
100
AcDbBlockTableRecord
  2
*D6
  0
BLOCK_RECORD
  5
175
100
AcDbSymbolTableRecord
100
AcDbBlockTableRecord
  2
*D7
  0
BLOCK_RECORD
  5
184
100
AcDbSymbolTableRecord
100
AcDbBlockTableRecord
  2
*D8
  0
BLOCK_RECORD
  5
194
100
AcDbSymbolTableRecord
100
AcDbBlockTableRecord
  2
*D9
  0
BLOCK_RECORD
  5
1C3
100
AcDbSymbolTableRecord
100
AcDbBlockTableRecord
  2
*D10
  0
BLOCK_RECORD
  5
209
100
AcDbSymbolTableRecord
100
AcDbBlockTableRecord
  2
A$C43594415
  0
ENDTAB
  0
ENDSEC
  0
SECTION
  2
BLOCKS
  0
BLOCK
  5
19
100
AcDbEntity
  8
0
100
AcDbBlockBegin
  2
*MODEL_SPACE
 70
     0
 10
0.0
 20
0.0
 30
0.0
  3
*MODEL_SPACE
  1

  0
ENDBLK
  5
1A
100
AcDbEntity
  8
0
100
AcDbBlockEnd
  0
BLOCK
  5
16
100
AcDbEntity
 67
     1
  8
0
100
AcDbBlockBegin
  2
*PAPER_SPACE
 70
     0
 10
0.0
 20
0.0
 30
0.0
  3
*PAPER_SPACE
  1

  0
ENDBLK
  5
17
100
AcDbEntity
 67
     1
  8
0
100
AcDbBlockEnd
  0
BLOCK
  5
F4
100
AcDbEntity
  8
0
100
AcDbBlockBegin
  2
_OPEN30
 70
     0
 10
0.0
 20
0.0
 30
0.0
  3
_OPEN30
  1

  0
LINE
  5
F1
100
AcDbEntity
  8
0
  6
BYBLOCK
 62
     0
100
AcDbLine
 10
-1.0
 20
0.267949
 30
0.0
 11
0.0
 21
0.0
 31
0.0
  0
LINE
  5
F2
100
AcDbEntity
  8
0
  6
BYBLOCK
 62
     0
100
AcDbLine
 10
0.0
 20
0.0
 30
0.0
 11
-1.0
 21
-0.267949
 31
0.0
  0
LINE
  5
F3
100
AcDbEntity
  8
0
  6
BYBLOCK
 62
     0
100
AcDbLine
 10
0.0
 20
0.0
 30
0.0
 11
-1.0
 21
0.0
 31
0.0
  0
ENDBLK
  5
F5
100
AcDbEntity
  8
0
100
AcDbBlockEnd
  0
BLOCK
  5
FD
100
AcDbEntity
  8
0
100
AcDbBlockBegin
  2
テンプレ-ト
 70
     0
 10
0.0
 20
0.0
 30
0.0
  3
テンプレ-ト
  1

  0
ENDBLK
  5
FE
100
AcDbEntity
  8
0
100
AcDbBlockEnd
  0
BLOCK
  5
3A6
100
AcDbEntity
  8
0
100
AcDbBlockBegin
  2
*D3
 70
     1
 10
0.0
 20
0.0
 30
0.0
  3
*D3
  1

  0
LINE
  5
3A7
100
AcDbEntity
  8
0
  6
BYBLOCK
 62
     1
100
AcDbLine
 10
-3.47704
 20
11.0
 30
0.0
 11
-16.951999
 21
11.0
 31
0.0
  0
LINE
  5
3A8
100
AcDbEntity
  8
0
  6
BYBLOCK
 62
     1
100
AcDbLine
 10
-1.0
 20
0.0
 30
0.0
 11
-16.951999
 21
0.0
 31
0.0
  0
LINE
  5
3A9
100
AcDbEntity
  8
0
  6
BYBLOCK
 62
     1
100
AcDbLine
 10
-15.951999
 20
9.0
 30
0.0
 11
-15.951999
 21
2.0
 31
0.0
  0
INSERT
  5
3AA
100
AcDbEntity
  8
0
  6
BYBLOCK
 62
     1
100
AcDbBlockReference
  2
_OPEN30
 10
-15.951999
 20
11.0
 30
0.0
 41
2.0
 42
2.0
 43
2.0
 50
90.0
  0
INSERT
  5
3AB
100
AcDbEntity
  8
0
  6
BYBLOCK
 62
     1
100
AcDbBlockReference
  2
_OPEN30
 10
-15.951999
 20
0.0
 30
0.0
 41
2.0
 42
2.0
 43
2.0
 50
270.0
  0
MTEXT
  5
3AC
100
AcDbEntity
  8
0
  6
BYBLOCK
 62
     1
100
AcDbMText
 10
-18.451999
 20
5.5
 30
0.0
 40
3.0
 41
0.0
 71
     5
 72
     1
  1
\A1;11
 11
0.0
 21
1.0
 31
0.0
  0
POINT
  5
3AD
100
AcDbEntity
  8
DEFPOINTS
  6
BYBLOCK
 62
     0
100
AcDbPoint
 10
-2.47704
 20
11.0
 30
0.0
  0
POINT
  5
3AE
100
AcDbEntity
  8
DEFPOINTS
  6
BYBLOCK
 62
     0
100
AcDbPoint
 10
0.0
 20
0.0
 30
0.0
  0
POINT
  5
3AF
100
AcDbEntity
  8
DEFPOINTS
  6
BYBLOCK
 62
     0
100
AcDbPoint
 10
-15.951999
 20
0.0
 30
0.0
  0
ENDBLK
  5
3B0
100
AcDbEntity
  8
0
100
AcDbBlockEnd
  0
BLOCK
  5
3B1
100
AcDbEntity
  8
0
100
AcDbBlockBegin
  2
*D4
 70
     1
 10
0.0
 20
0.0
 30
0.0
  3
*D4
  1

  0
LINE
  5
3B2
100
AcDbEntity
  8
0
  6
BYBLOCK
 62
     1
100
AcDbLine
 10
-6.47451
 20
2.73806
 30
0.0
 11
-6.47451
 21
-10.956908
 31
0.0
  0
LINE
  5
3B3
100
AcDbEntity
  8
0
  6
BYBLOCK
 62
     1
100
AcDbLine
 10
20.52549
 20
1.73513
 30
0.0
 11
20.52549
 21
-10.956908
 31
0.0
  0
LINE
  5
3B4
100
AcDbEntity
  8
0
  6
BYBLOCK
 62
     1
100
AcDbLine
 10
-4.47451
 20
-9.956908
 30
0.0
 11
18.52549
 21
-9.956908
 31
0.0
  0
INSERT
  5
3B5
100
AcDbEntity
  8
0
  6
BYBLOCK
 62
     1
100
AcDbBlockReference
  2
_OPEN30
 10
-6.47451
 20
-9.956908
 30
0.0
 41
2.0
 42
2.0
 43
2.0
 50
180.0
  0
INSERT
  5
3B6
100
AcDbEntity
  8
0
  6
BYBLOCK
 62
     1
100
AcDbBlockReference
  2
_OPEN30
 10
20.52549
 20
-9.956908
 30
0.0
 41
2.0
 42
2.0
 43
2.0
  0
MTEXT
  5
3B7
100
AcDbEntity
  8
0
  6
BYBLOCK
 62
     1
100
AcDbMText
 10
7.02549
 20
-7.456908
 30
0.0
 40
3.0
 41
0.0
 71
     5
 72
     1
  1
\A1;27
  0
POINT
  5
3B8
100
AcDbEntity
  8
DEFPOINTS
  6
BYBLOCK
 62
     0
100
AcDbPoint
 10
-6.47451
 20
3.73806
 30
0.0
  0
POINT
  5
3B9
100
AcDbEntity
  8
DEFPOINTS
  6
BYBLOCK
 62
     0
100
AcDbPoint
 10
20.52549
 20
2.73513
 30
0.0
  0
POINT
  5
3BA
100
AcDbEntity
  8
DEFPOINTS
  6
BYBLOCK
 62
     0
100
AcDbPoint
 10
20.52549
 20
-9.956908
 30
0.0
  0
ENDBLK
  5
3BB
100
AcDbEntity
  8
0
100
AcDbBlockEnd
  0
BLOCK
  5
3BC
100
AcDbEntity
  8
0
100
AcDbBlockBegin
  2
*D5
 70
     1
 10
0.0
 20
0.0
 30
0.0
  3
*D5
  1

  0
LINE
  5
3BD
100
AcDbEntity
  8
0
  6
BYBLOCK
 62
     1
100
AcDbLine
 10
-7.140535
 20
4.12259
 30
0.0
 11
-9.023084
 21
5.20948
 31
0.0
  0
LINE
  5
3BE
100
AcDbEntity
  8
0
  6
BYBLOCK
 62
     1
100
AcDbLine
 10
-2.0
 20
0.0
 30
0.0
 11
-10.41896
 21
0.0
 31
0.0
  0
ARC
  5
3BF
100
AcDbEntity
  8
0
  6
BYBLOCK
 62
     1
100
AcDbCircle
 10
0.0
 20
0.0
 30
0.0
 40
9.41896
100
AcDbArc
 50
125.62195
 51
137.810975
  0
ARC
  5
3C0
100
AcDbEntity
  8
0
  6
BYBLOCK
 62
     1
100
AcDbCircle
 10
0.0
 20
0.0
 30
0.0
 40
9.41896
100
AcDbArc
 50
192.189025
 51
204.378049
  0
ARC
  5
3C1
100
AcDbEntity
  8
0
  6
BYBLOCK
 62
     1
100
AcDbCircle
 10
0.0
 20
0.0
 30
0.0
 40
9.41896
100
AcDbArc
 50
149.999999
 51
180.0
  0
INSERT
  5
3C2
100
AcDbEntity
  8
0
  6
BYBLOCK
 62
     1
100
AcDbBlockReference
  2
_OPEN30
 10
-8.157059
 20
4.70948
 30
0.0
 41
2.0
 42
2.0
 43
2.0
 50
233.905487
  0
INSERT
  5
3C3
100
AcDbEntity
  8
0
  6
BYBLOCK
 62
     1
100
AcDbBlockReference
  2
_OPEN30
 10
-9.41896
 20
0.0
 30
0.0
 41
2.0
 42
2.0
 43
2.0
 50
96.094512
  0
MTEXT
  5
3C4
100
AcDbEntity
  8
0
  6
BYBLOCK
 62
     1
100
AcDbMText
 10
-10.773282
 20
5.098824
 30
0.0
 40
3.0
 41
0.0
 71
     5
 72
     1
  1
\A1;30°
 11
0.427791
 21
0.903878
 31
0.0
  0
POINT
  5
3C5
100
AcDbEntity
  8
DEFPOINTS
  6
BYBLOCK
 62
     0
100
AcDbPoint
 10
-9.275865
 20
1.635585
 30
0.0
  0
POINT
  5
3C6
100
AcDbEntity
  8
DEFPOINTS
  6
BYBLOCK
 62
     0
100
AcDbPoint
 10
-1.0
 20
0.0
 30
0.0
  0
POINT
  5
3C7
100
AcDbEntity
  8
DEFPOINTS
  6
BYBLOCK
 62
     0
100
AcDbPoint
 10
-6.274509
 20
3.62259
 30
0.0
  0
POINT
  5
3C8
100
AcDbEntity
  8
DEFPOINTS
  6
BYBLOCK
 62
     0
100
AcDbPoint
 10
-0.09282
 20
0.05359
 30
0.0
  0
POINT
  5
3C9
100
AcDbEntity
  8
DEFPOINTS
  6
BYBLOCK
 62
     0
100
AcDbPoint
 10
0.0
 20
0.0
 30
0.0
  0
ENDBLK
  5
3CA
100
AcDbEntity
  8
0
100
AcDbBlockEnd
  0
BLOCK
  5
3CB
100
AcDbEntity
  8
0
100
AcDbBlockBegin
  2
*D6
 70
     1
 10
0.0
 20
0.0
 30
0.0
  3
*D6
  1

  0
LINE
  5
3CC
100
AcDbEntity
  8
0
  6
BYBLOCK
 62
     1
100
AcDbLine
 10
21.52549
 20
-27.614941
 30
0.0
 11
30.949423
 21
-27.614941
 31
0.0
  0
LINE
  5
3CD
100
AcDbEntity
  8
0
  6
BYBLOCK
 62
     1
100
AcDbLine
 10
21.52549
 20
-36.614937
 30
0.0
 11
30.949423
 21
-36.614937
 31
0.0
  0
LINE
  5
3CE
100
AcDbEntity
  8
0
  6
BYBLOCK
 62
     1
100
AcDbLine
 10
29.949423
 20
-29.614941
 30
0.0
 11
29.949423
 21
-34.614937
 31
0.0
  0
INSERT
  5
3CF
100
AcDbEntity
  8
0
  6
BYBLOCK
 62
     1
100
AcDbBlockReference
  2
_OPEN30
 10
29.949423
 20
-27.614941
 30
0.0
 41
2.0
 42
2.0
 43
2.0
 50
90.0
  0
INSERT
  5
3D0
100
AcDbEntity
  8
0
  6
BYBLOCK
 62
     1
100
AcDbBlockReference
  2
_OPEN30
 10
29.949423
 20
-36.614937
 30
0.0
 41
2.0
 42
2.0
 43
2.0
 50
270.0
  0
MTEXT
  5
3D1
100
AcDbEntity
  8
0
  6
BYBLOCK
 62
     1
100
AcDbMText
 10
27.449423
 20
-32.114939
 30
0.0
 40
3.0
 41
0.0
 71
     5
 72
     1
  1
\A1;9
 11
0.0
 21
1.0
 31
0.0
  0
POINT
  5
3D2
100
AcDbEntity
  8
DEFPOINTS
  6
BYBLOCK
 62
     0
100
AcDbPoint
 10
20.52549
 20
-27.614941
 30
0.0
  0
POINT
  5
3D3
100
AcDbEntity
  8
DEFPOINTS
  6
BYBLOCK
 62
     0
100
AcDbPoint
 10
20.52549
 20
-36.614937
 30
0.0
  0
POINT
  5
3D4
100
AcDbEntity
  8
DEFPOINTS
  6
BYBLOCK
 62
     0
100
AcDbPoint
 10
29.949423
 20
-36.614937
 30
0.0
  0
ENDBLK
  5
3D5
100
AcDbEntity
  8
0
100
AcDbBlockEnd
  0
BLOCK
  5
3D6
100
AcDbEntity
  8
0
100
AcDbBlockBegin
  2
*D7
 70
     1
 10
0.0
 20
0.0
 30
0.0
  3
*D7
  1

  0
LINE
  5
3D7
100
AcDbEntity
  8
0
  6
BYBLOCK
 62
     1
100
AcDbLine
 10
20.52549
 20
-26.614941
 30
0.0
 11
20.52549
 21
-23.462518
 31
0.0
  0
LINE
  5
3D8
100
AcDbEntity
  8
0
  6
BYBLOCK
 62
     1
100
AcDbLine
 10
15.52549
 20
-27.51494
 30
0.0
 11
15.52549
 21
-23.462518
 31
0.0
  0
LINE
  5
3D9
100
AcDbEntity
  8
0
  6
BYBLOCK
 62
     1
100
AcDbLine
 10
22.52549
 20
-24.462518
 30
0.0
 11
24.52549
 21
-24.462518
 31
0.0
  0
LINE
  5
3DA
100
AcDbEntity
  8
0
  6
BYBLOCK
 62
     1
100
AcDbLine
 10
13.52549
 20
-24.462518
 30
0.0
 11
7.52549
 21
-24.462518
 31
0.0
  0
LINE
  5
3DB
100
AcDbEntity
  8
0
  6
BYBLOCK
 62
     1
100
AcDbLine
 10
20.52549
 20
-24.462518
 30
0.0
 11
15.52549
 21
-24.462518
 31
0.0
  0
INSERT
  5
3DC
100
AcDbEntity
  8
0
  6
BYBLOCK
 62
     1
100
AcDbBlockReference
  2
_OPEN30
 10
20.52549
 20
-24.462518
 30
0.0
 41
2.0
 42
2.0
 43
2.0
 50
180.0
  0
INSERT
  5
3DD
100
AcDbEntity
  8
0
  6
BYBLOCK
 62
     1
100
AcDbBlockReference
  2
_OPEN30
 10
15.52549
 20
-24.462518
 30
0.0
 41
2.0
 42
2.0
 43
2.0
  0
MTEXT
  5
3DE
100
AcDbEntity
  8
0
  6
BYBLOCK
 62
     1
100
AcDbMText
 10
9.52549
 20
-21.962518
 30
0.0
 40
3.0
 41
0.0
 71
     5
 72
     1
  1
\A1;5
  0
POINT
  5
3DF
100
AcDbEntity
  8
DEFPOINTS
  6
BYBLOCK
 62
     0
100
AcDbPoint
 10
20.52549
 20
-27.614941
 30
0.0
  0
POINT
  5
3E0
100
AcDbEntity
  8
DEFPOINTS
  6
BYBLOCK
 62
     0
100
AcDbPoint
 10
15.52549
 20
-28.51494
 30
0.0
  0
POINT
  5
3E1
100
AcDbEntity
  8
DEFPOINTS
  6
BYBLOCK
 62
     0
100
AcDbPoint
 10
15.52549
 20
-24.462518
 30
0.0
  0
ENDBLK
  5
3E2
100
AcDbEntity
  8
0
100
AcDbBlockEnd
  0
BLOCK
  5
3E3
100
AcDbEntity
  8
0
100
AcDbBlockBegin
  2
*D8
 70
     1
 10
0.0
 20
0.0
 30
0.0
  3
*D8
  1

  0
LINE
  5
3E4
100
AcDbEntity
  8
0
  6
BYBLOCK
 62
     1
100
AcDbLine
 10
56.903919
 20
-33.11494
 30
0.0
 11
66.858325
 21
-33.11494
 31
0.0
  0
LINE
  5
3E5
100
AcDbEntity
  8
0
  6
BYBLOCK
 62
     1
100
AcDbLine
 10
48.63905
 20
-36.614937
 30
0.0
 11
66.858325
 21
-36.614937
 31
0.0
  0
LINE
  5
3E6
100
AcDbEntity
  8
0
  6
BYBLOCK
 62
     1
100
AcDbLine
 10
65.858325
 20
-31.11494
 30
0.0
 11
65.858325
 21
-29.11494
 31
0.0
  0
LINE
  5
3E7
100
AcDbEntity
  8
0
  6
BYBLOCK
 62
     1
100
AcDbLine
 10
65.858325
 20
-38.614937
 30
0.0
 11
65.858325
 21
-48.614937
 31
0.0
  0
LINE
  5
3E8
100
AcDbEntity
  8
0
  6
BYBLOCK
 62
     1
100
AcDbLine
 10
65.858325
 20
-33.11494
 30
0.0
 11
65.858325
 21
-36.614937
 31
0.0
  0
INSERT
  5
3E9
100
AcDbEntity
  8
0
  6
BYBLOCK
 62
     1
100
AcDbBlockReference
  2
_OPEN30
 10
65.858325
 20
-33.11494
 30
0.0
 41
2.0
 42
2.0
 43
2.0
 50
270.0
  0
INSERT
  5
3EA
100
AcDbEntity
  8
0
  6
BYBLOCK
 62
     1
100
AcDbBlockReference
  2
_OPEN30
 10
65.858325
 20
-36.614937
 30
0.0
 41
2.0
 42
2.0
 43
2.0
 50
90.0
  0
MTEXT
  5
3EB
100
AcDbEntity
  8
0
  6
BYBLOCK
 62
     1
100
AcDbMText
 10
63.358325
 20
-44.614937
 30
0.0
 40
3.0
 41
0.0
 71
     5
 72
     1
  1
\A1;3.5
 11
0.0
 21
1.0
 31
0.0
  0
POINT
  5
3EC
100
AcDbEntity
  8
DEFPOINTS
  6
BYBLOCK
 62
     0
100
AcDbPoint
 10
55.903919
 20
-33.11494
 30
0.0
  0
POINT
  5
3ED
100
AcDbEntity
  8
DEFPOINTS
  6
BYBLOCK
 62
     0
100
AcDbPoint
 10
47.63905
 20
-36.614937
 30
0.0
  0
POINT
  5
3EE
100
AcDbEntity
  8
DEFPOINTS
  6
BYBLOCK
 62
     0
100
AcDbPoint
 10
65.858325
 20
-36.614937
 30
0.0
  0
ENDBLK
  5
3EF
100
AcDbEntity
  8
0
100
AcDbBlockEnd
  0
BLOCK
  5
3F0
100
AcDbEntity
  8
0
100
AcDbBlockBegin
  2
*D9
 70
     1
 10
0.0
 20
0.0
 30
0.0
  3
*D9
  1

  0
LINE
  5
3F1
100
AcDbEntity
  8
0
  6
BYBLOCK
 62
     1
100
AcDbLine
 10
59.310951
 20
-33.593767
 30
0.0
 11
61.737381
 21
-33.93478
 31
0.0
  0
LINE
  5
3F2
100
AcDbEntity
  8
0
  6
BYBLOCK
 62
     1
100
AcDbLine
 10
57.903919
 20
-33.11494
 30
0.0
 11
61.79471
 21
-33.11494
 31
0.0
  0
ARC
  5
3F3
100
AcDbEntity
  8
0
  6
BYBLOCK
 62
     1
100
AcDbCircle
 10
55.903919
 20
-33.11494
 30
0.0
 40
4.890791
100
AcDbArc
 50
304.807051
 51
328.403523
  0
ARC
  5
3F4
100
AcDbEntity
  8
0
  6
BYBLOCK
 62
     1
100
AcDbCircle
 10
55.903919
 20
-33.11494
 30
0.0
 40
4.890791
100
AcDbArc
 50
23.596472
 51
47.192945
  0
ARC
  5
3F5
100
AcDbEntity
  8
0
  6
BYBLOCK
 62
     1
100
AcDbCircle
 10
55.903919
 20
-33.11494
 30
0.0
 40
4.890791
100
AcDbArc
 50
351.999996
 51
360.0
  0
INSERT
  5
3F6
100
AcDbEntity
  8
0
  6
BYBLOCK
 62
     1
100
AcDbBlockReference
  2
_OPEN30
 10
60.747113
 20
-33.795607
 30
0.0
 41
2.0
 42
2.0
 43
2.0
 50
70.201759
  0
INSERT
  5
3F7
100
AcDbEntity
  8
0
  6
BYBLOCK
 62
     1
100
AcDbBlockReference
  2
_OPEN30
 10
60.79471
 20
-33.11494
 30
0.0
 41
2.0
 42
2.0
 43
2.0
 50
281.798236
  0
MTEXT
  5
3F8
100
AcDbEntity
  8
0
  6
BYBLOCK
 62
     1
100
AcDbMText
 10
62.623737
 20
-30.037955
 30
0.0
 40
3.0
 41
0.0
 71
     5
 72
     1
  1
\A1;8°
 11
0.416327
 21
-0.909215
 31
0.0
  0
POINT
  5
3F9
100
AcDbEntity
  8
DEFPOINTS
  6
BYBLOCK
 62
     0
100
AcDbPoint
 10
60.773536
 20
-33.569538
 30
0.0
  0
POINT
  5
3FA
100
AcDbEntity
  8
DEFPOINTS
  6
BYBLOCK
 62
     0
100
AcDbPoint
 10
55.903919
 20
-33.11494
 30
0.0
  0
POINT
  5
3FB
100
AcDbEntity
  8
DEFPOINTS
  6
BYBLOCK
 62
     0
100
AcDbPoint
 10
44.556065
 20
-31.520102
 30
0.0
  0
POINT
  5
3FC
100
AcDbEntity
  8
DEFPOINTS
  6
BYBLOCK
 62
     0
100
AcDbPoint
 10
58.320683
 20
-33.454594
 30
0.0
  0
POINT
  5
3FD
100
AcDbEntity
  8
DEFPOINTS
  6
BYBLOCK
 62
     0
100
AcDbPoint
 10
56.903919
 20
-33.11494
 30
0.0
  0
ENDBLK
  5
3FE
100
AcDbEntity
  8
0
100
AcDbBlockEnd
  0
BLOCK
  5
3FF
100
AcDbEntity
  8
0
100
AcDbBlockBegin
  2
*D10
 70
     1
 10
0.0
 20
0.0
 30
0.0
  3
*D10
  1

  0
LINE
  5
400
100
AcDbEntity
  8
0
  6
BYBLOCK
 62
     1
100
AcDbLine
 10
-7.474509
 20
-28.614939
 30
0.0
 11
-16.559337
 21
-28.614939
 31
0.0
  0
LINE
  5
401
100
AcDbEntity
  8
0
  6
BYBLOCK
 62
     1
100
AcDbLine
 10
-5.129703
 20
-36.614937
 30
0.0
 11
-16.559337
 21
-36.614937
 31
0.0
  0
LINE
  5
402
100
AcDbEntity
  8
0
  6
BYBLOCK
 62
     1
100
AcDbLine
 10
-15.559337
 20
-30.614939
 30
0.0
 11
-15.559337
 21
-34.614937
 31
0.0
  0
INSERT
  5
403
100
AcDbEntity
  8
0
  6
BYBLOCK
 62
     1
100
AcDbBlockReference
  2
_OPEN30
 10
-15.559337
 20
-28.614939
 30
0.0
 41
2.0
 42
2.0
 43
2.0
 50
90.0
  0
INSERT
  5
404
100
AcDbEntity
  8
0
  6
BYBLOCK
 62
     1
100
AcDbBlockReference
  2
_OPEN30
 10
-15.559337
 20
-36.614937
 30
0.0
 41
2.0
 42
2.0
 43
2.0
 50
270.0
  0
MTEXT
  5
405
100
AcDbEntity
  8
0
  6
BYBLOCK
 62
     1
100
AcDbMText
 10
-18.059337
 20
-32.614938
 30
0.0
 40
3.0
 41
0.0
 71
     5
 72
     1
  1
\A1;8
 11
0.0
 21
1.0
 31
0.0
  0
POINT
  5
406
100
AcDbEntity
  8
DEFPOINTS
  6
BYBLOCK
 62
     0
100
AcDbPoint
 10
-6.474509
 20
-28.614939
 30
0.0
  0
POINT
  5
407
100
AcDbEntity
  8
DEFPOINTS
  6
BYBLOCK
 62
     0
100
AcDbPoint
 10
-4.129703
 20
-36.614937
 30
0.0
  0
POINT
  5
408
100
AcDbEntity
  8
DEFPOINTS
  6
BYBLOCK
 62
     0
100
AcDbPoint
 10
-15.559337
 20
-36.614937
 30
0.0
  0
ENDBLK
  5
409
100
AcDbEntity
  8
0
100
AcDbBlockEnd
  0
BLOCK
  5
210
100
AcDbEntity
  8
0
 62
     1
100
AcDbBlockBegin
  2
A$C43594415
 70
     0
 10
0.0
 20
0.0
 30
0.0
  3
A$C43594415
  1

  0
TEXT
  5
20A
100
AcDbEntity
  8
寸法
  6
CONTINUOUS
100
AcDbText
 10
0.0
 20
12.495593
 30
0.0
 40
3.0
  1
0°
100
AcDbText
  0
LINE
  5
20B
100
AcDbEntity
  8
寸法
  6
CONTINUOUS
 62
     1
100
AcDbLine
 10
5.778669
 20
12.988109
 30
0.0
 11
5.778669
 21
5.006003
 31
0.0
  0
LINE
  5
20C
100
AcDbEntity
  8
寸法
  6
CONTINUOUS
 62
     1
100
AcDbLine
 10
13.507843
 20
5.006003
 30
0.0
 11
5.778669
 21
5.006003
 31
0.0
  0
INSERT
  5
20D
100
AcDbEntity
  8
寸法
  6
CONTINUOUS
 62
     1
100
AcDbBlockReference
  2
_OPEN30
 10
15.507843
 20
5.006003
 30
0.0
 41
2.0
 42
2.0
 43
2.0
  0
TEXT
  5
20E
100
AcDbEntity
  8
寸法
  6
CONTINUOUS
100
AcDbText
 10
13.414538
 20
0.0
 30
0.0
 40
3.0
  1
+5°
100
AcDbText
  0
INSERT
  5
20F
100
AcDbEntity
  8
寸法
  6
CONTINUOUS
 62
     1
100
AcDbBlockReference
  2
_OPEN30
 10
5.778669
 20
14.988109
 30
0.0
 41
2.0
 42
2.0
 43
2.0
 50
90.0
  0
ENDBLK
  5
211
100
AcDbEntity
  8
0
 62
     1
100
AcDbBlockEnd
  0
ENDSEC
  0
SECTION
  2
ENTITIES
  0
POINT
  5
24
100
AcDbEntity
  8
0
  6
CONTINUOUS
 62
     7
100
AcDbPoint
 10
-6.47451
 20
3.73806
 30
0.0
  0
POINT
  5
25
100
AcDbEntity
  8
0
  6
CONTINUOUS
 62
     7
100
AcDbPoint
 10
-28.333942
 20
3.73806
 30
0.0
  0
POINT
  5
26
100
AcDbEntity
  8
0
  6
CONTINUOUS
 62
     7
100
AcDbPoint
 10
0.0
 20
0.0
 30
0.0
  0
POINT
  5
27
100
AcDbEntity
  8
0
  6
CONTINUOUS
 62
     7
100
AcDbPoint
 10
47.63905
 20
-36.614937
 30
0.0
  0
POINT
  5
28
100
AcDbEntity
  8
0
  6
CONTINUOUS
 62
     7
100
AcDbPoint
 10
-6.474509
 20
-28.614939
 30
0.0
  0
POINT
  5
29
100
AcDbEntity
  8
0
  6
CONTINUOUS
 62
     4
100
AcDbPoint
 10
5.879081
 20
11.0
 30
0.0
  0
LINE
  5
2A
100
AcDbEntity
  8
0
  6
CONTINUOUS
 62
     7
100
AcDbLine
 10
-6.274509
 20
3.62259
 30
0.0
 11
-0.09282
 21
0.05359
 31
0.0
  0
LINE
  5
2B
100
AcDbEntity
  8
0
  6
CONTINUOUS
 62
     7
100
AcDbLine
 10
-6.42092
 20
4.169
 30
0.0
 11
-2.47704
 21
11.0
 31
0.0
  0
LINE
  5
2C
100
AcDbEntity
  8
0
  6
CONTINUOUS
 62
     7
100
AcDbLine
 10
3.87618
 20
6.928099
 30
0.0
 11
-2.30551
 21
10.497099
 31
0.0
  0
LINE
  5
2D
100
AcDbEntity
  8
0
  6
CONTINUOUS
 62
     7
100
AcDbLine
 10
4.02259
 20
6.38169
 30
0.0
 11
0.45359
 21
0.2
 31
0.0
  0
LINE
  5
2E
100
AcDbEntity
  8
0
  6
CONTINUOUS
 62
     7
100
AcDbLine
 10
0.0
 20
0.0
 30
0.0
 11
-0.09282
 21
0.05359
 31
0.0
  0
LINE
  5
2F
100
AcDbEntity
  8
0
  6
CONTINUOUS
 62
     7
100
AcDbLine
 10
20.52549
 20
11.0
 30
0.0
 11
20.52549
 21
2.73513
 31
0.0
  0
LINE
  5
30
100
AcDbEntity
  8
0
  6
CONTINUOUS
 62
     7
100
AcDbLine
 10
-2.47704
 20
11.0
 30
0.0
 11
20.52549
 21
11.0
 31
0.0
  0
LINE
  5
31
100
AcDbEntity
  8
0
  6
CONTINUOUS
 62
     7
100
AcDbLine
 10
0.91547
 20
1.0
 30
0.0
 11
3.87908
 21
1.0
 31
0.0
  0
LINE
  5
32
100
AcDbEntity
  8
0
  6
CONTINUOUS
 62
     7
100
AcDbLine
 10
3.87908
 20
1.0
 30
0.0
 11
9.879081
 21
2.607695
 31
0.0
  0
LINE
  5
33
100
AcDbEntity
  8
0
  6
CONTINUOUS
 62
     7
100
AcDbLine
 10
9.87908
 20
3.999997
 30
0.0
 11
9.87908
 21
2.607695
 31
0.0
  0
LINE
  5
34
100
AcDbEntity
  8
0
  6
CENTER
 62
     1
100
AcDbLine
 10
8.041234
 20
0.827869
 30
0.0
 11
5.377869
 21
13.358021
 31
0.0
  0
LINE
  5
35
100
AcDbEntity
  8
0
  6
DASHED
 62
     7
100
AcDbLine
 10
5.364211
 20
1.39794
 30
0.0
 11
3.32323
 21
11.0
 31
0.0
  0
LINE
  5
36
100
AcDbEntity
  8
0
  6
DASHED
 62
     7
100
AcDbLine
 10
10.191684
 20
2.73513
 30
0.0
 11
8.434932
 21
11.0
 31
0.0
  0
LINE
  5
37
100
AcDbEntity
  8
0
  6
DASHED
 62
     7
100
AcDbLine
 10
5.751111
 20
1.501609
 30
0.0
 11
3.732165
 21
11.0
 31
0.0
  0
LINE
  5
38
100
AcDbEntity
  8
0
  6
DASHED
 62
     7
100
AcDbLine
 10
9.813566
 20
2.590141
 30
0.0
 11
8.025996
 21
11.0
 31
0.0
  0
LINE
  5
39
100
AcDbEntity
  8
0
  6
CONTINUOUS
 62
     7
100
AcDbLine
 10
3.87908
 20
-27.614941
 30
0.0
 11
20.52549
 21
-27.614941
 31
0.0
  0
LINE
  5
3A
100
AcDbEntity
  8
0
  6
CONTINUOUS
 62
     7
100
AcDbLine
 10
-4.129703
 20
-36.614937
 30
0.0
 11
20.52549
 21
-36.614937
 31
0.0
  0
LINE
  5
3B
100
AcDbEntity
  8
0
  6
CONTINUOUS
 62
     7
100
AcDbLine
 10
20.52549
 20
-27.614941
 30
0.0
 11
20.52549
 21
-36.614937
 31
0.0
  0
LINE
  5
3C
100
AcDbEntity
  8
0
  6
DASHED
 62
     7
100
AcDbLine
 10
17.77549
 20
11.0
 30
0.0
 11
17.77549
 21
3.377579
 31
0.0
  0
LINE
  5
3D
100
AcDbEntity
  8
0
  6
DASHED
 62
     7
100
AcDbLine
 10
13.27549
 20
11.0
 30
0.0
 11
13.27549
 21
3.377579
 31
0.0
  0
LINE
  5
3E
100
AcDbEntity
  8
0
  6
CENTER
 62
     1
100
AcDbLine
 10
15.52549
 20
-28.51494
 30
0.0
 11
15.52549
 21
-35.514938
 31
0.0
  0
LINE
  5
3F
100
AcDbEntity
  8
0
  6
CONTINUOUS
 62
     7
100
AcDbLine
 10
48.903915
 20
-27.614941
 30
0.0
 11
55.203918
 21
-27.614941
 31
0.0
  0
LINE
  5
40
100
AcDbEntity
  8
0
  6
CONTINUOUS
 62
     7
100
AcDbLine
 10
47.63905
 20
-36.614937
 30
0.0
 11
49.13905
 21
-36.614937
 31
0.0
  0
LINE
  5
41
100
AcDbEntity
  8
0
  6
CONTINUOUS
 62
     7
100
AcDbLine
 10
55.903919
 20
-28.314941
 30
0.0
 11
55.903919
 21
-35.865677
 31
0.0
  0
LINE
  5
42
100
AcDbEntity
  8
0
  6
CONTINUOUS
 62
     7
100
AcDbLine
 10
47.63905
 20
-36.614941
 30
0.0
 11
48.903915
 21
-27.614943
 31
0.0
  0
LINE
  5
43
100
AcDbEntity
  8
0
  6
CONTINUOUS
 62
     7
100
AcDbLine
 10
55.903919
 20
-35.865673
 30
0.0
 11
55.207611
 21
-36.561977
 31
0.0
  0
LINE
  5
44
100
AcDbEntity
  8
0
  6
CONTINUOUS
 62
     7
100
AcDbLine
 10
9.87908
 20
3.999997
 30
0.0
 11
20.52549
 21
3.999997
 31
0.0
  0
LINE
  5
45
100
AcDbEntity
  8
0
  6
CENTER
 62
     1
100
AcDbLine
 10
15.52549
 20
12.270776
 30
0.0
 11
15.52549
 21
1.224202
 31
0.0
  0
LINE
  5
46
100
AcDbEntity
  8
0
  6
CENTER
 62
     1
100
AcDbLine
 10
11.282337
 20
-33.114937
 30
0.0
 11
4.282339
 21
-33.114937
 31
0.0
  0
LINE
  5
47
100
AcDbEntity
  8
0
  6
CONTINUOUS
 62
     7
100
AcDbLine
 10
-6.474509
 20
-28.614939
 30
0.0
 11
3.806201
 21
-29.514385
 31
0.0
  0
LINE
  5
48
100
AcDbEntity
  8
0
  6
CONTINUOUS
 62
     7
100
AcDbLine
 10
-5.76178
 20
-33.114937
 30
0.0
 11
3.87908
 21
-33.114937
 31
0.0
  0
LINE
  5
49
100
AcDbEntity
  8
0
  6
CONTINUOUS
 62
     7
100
AcDbLine
 10
-5.961819
 20
-31.851942
 30
0.0
 11
0.91547
 21
-32.453629
 31
0.0
  0
LINE
  5
4A
100
AcDbEntity
  8
0
  6
CONTINUOUS
 62
     7
100
AcDbLine
 10
0.25359
 20
-29.203571
 30
0.0
 11
0.25359
 21
-32.395718
 31
0.0
  0
LINE
  5
4B
100
AcDbEntity
  8
0
  6
CONTINUOUS
 62
     7
100
AcDbLine
 10
0.91547
 20
-29.261478
 30
0.0
 11
0.91547
 21
-32.453629
 31
0.0
  0
LINE
  5
4C
100
AcDbEntity
  8
0
  6
CONTINUOUS
 62
     7
100
AcDbLine
 10
3.87908
 20
-29.519356
 30
0.0
 11
3.87908
 21
-33.114937
 31
0.0
  0
LINE
  5
4D
100
AcDbEntity
  8
0
  6
CONTINUOUS
 62
     7
100
AcDbLine
 10
9.87908
 20
-27.614941
 30
0.0
 11
9.87908
 21
-36.614937
 31
0.0
  0
LINE
  5
4E
100
AcDbEntity
  8
0
  6
CONTINUOUS
 62
     7
100
AcDbLine
 10
0.10718
 20
-32.382912
 30
0.0
 11
0.10718
 21
-33.114937
 31
0.0
  0
LINE
  5
4F
100
AcDbEntity
  8
0
  6
CONTINUOUS
 62
     7
100
AcDbLine
 10
0.107179
 20
-33.114941
 30
0.0
 11
1.739256
 21
-36.614937
 31
0.0
  0
LINE
  5
50
100
AcDbEntity
  8
0
  6
CONTINUOUS
 62
     7
100
AcDbLine
 10
-27.333942
 20
10.3
 30
0.0
 11
-27.333942
 21
3.999997
 31
0.0
  0
LINE
  5
51
100
AcDbEntity
  8
0
  6
CONTINUOUS
 62
     7
100
AcDbLine
 10
-36.333942
 20
10.3
 30
0.0
 11
-36.333942
 21
2.632077
 31
0.0
  0
LINE
  5
52
100
AcDbEntity
  8
0
  6
CONTINUOUS
 62
     7
100
AcDbLine
 10
-32.833942
 20
1.0
 30
0.0
 11
-31.70612
 21
1.0
 31
0.0
  0
LINE
  5
53
100
AcDbEntity
  8
0
  6
CONTINUOUS
 62
     7
100
AcDbLine
 10
-35.633942
 20
11.0
 30
0.0
 11
-28.033941
 21
11.0
 31
0.0
  0
LINE
  5
54
100
AcDbEntity
  8
0
  6
CONTINUOUS
 62
     7
100
AcDbLine
 10
-36.333942
 20
10.300001
 30
0.0
 11
-35.633942
 21
11.000001
 31
0.0
  0
LINE
  5
55
100
AcDbEntity
  8
0
  6
CONTINUOUS
 62
     7
100
AcDbLine
 10
-27.333942
 20
10.300001
 30
0.0
 11
-28.033941
 21
11.000001
 31
0.0
  0
LINE
  5
56
100
AcDbEntity
  8
0
  6
CONTINUOUS
 62
     7
100
AcDbLine
 10
-32.833942
 20
3.82259
 30
0.0
 11
-32.833942
 21
1.0
 31
0.0
  0
LINE
  5
57
100
AcDbEntity
  8
0
  6
CONTINUOUS
 62
     7
100
AcDbLine
 10
-36.333942
 20
2.632076
 30
0.0
 11
-32.833942
 21
0.999999
 31
0.0
  0
LINE
  5
58
100
AcDbEntity
  8
0
  6
CONTINUOUS
 62
     7
100
AcDbLine
 10
5.87908
 20
1.535898
 30
0.0
 11
3.867424
 21
11.000001
 31
0.0
  0
LINE
  5
59
100
AcDbEntity
  8
0
  6
CONTINUOUS
 62
     7
100
AcDbLine
 10
0.021931
 20
5.980344
 30
0.0
 11
-1.199165
 21
6.685344
 31
0.0
  0
LINE
  5
5A
100
AcDbEntity
  8
0
  6
CONTINUOUS
 62
     7
100
AcDbLine
 10
-2.420261
 20
5.980345
 30
0.0
 11
-2.420261
 21
4.570345
 31
0.0
  0
LINE
  5
5B
100
AcDbEntity
  8
0
  6
CONTINUOUS
 62
     7
100
AcDbLine
 10
-1.199165
 20
3.865345
 30
0.0
 11
0.021931
 21
4.570344
 31
0.0
  0
LINE
  5
5C
100
AcDbEntity
  8
0
  6
CONTINUOUS
 62
     7
100
AcDbLine
 10
0.021931
 20
4.570345
 30
0.0
 11
0.021931
 21
5.980345
 31
0.0
  0
LINE
  5
5D
100
AcDbEntity
  8
0
  6
CONTINUOUS
 62
     7
100
AcDbLine
 10
-2.420261
 20
5.980345
 30
0.0
 11
-1.199165
 21
6.685345
 31
0.0
  0
LINE
  5
5E
100
AcDbEntity
  8
0
  6
CONTINUOUS
 62
     7
100
AcDbLine
 10
-2.420261
 20
4.570345
 30
0.0
 11
-1.199165
 21
3.865345
 31
0.0
  0
LINE
  5
5F
100
AcDbEntity
  8
0
  6
CONTINUOUS
 62
     7
100
AcDbLine
 10
-32.833942
 20
3.82259
 30
0.0
 11
-28.321133
 21
3.82259
 31
0.0
  0
LINE
  5
60
100
AcDbEntity
  8
0
  6
CONTINUOUS
 62
     7
100
AcDbLine
 10
-36.333942
 20
5.454667
 30
0.0
 11
-32.833942
 21
3.82259
 31
0.0
  0
LINE
  5
61
100
AcDbEntity
  8
0
  6
CENTER
 62
     7
100
AcDbLine
 10
-5.217523
 20
7.595345
 30
0.0
 11
2.819193
 21
2.955344
 31
0.0
  0
LINE
  5
62
100
AcDbEntity
  8
0
  6
CENTER
 62
     7
100
AcDbLine
 10
-3.519165
 20
1.256987
 30
0.0
 11
1.120835
 21
9.293703
 31
0.0
  0
LINE
  5
63
100
AcDbEntity
  8
0
  6
CONTINUOUS
 62
     7
100
AcDbLine
 10
-6.474509
 20
-28.614939
 30
0.0
 11
-5.761779
 21
-33.114937
 31
0.0
  0
LINE
  5
64
100
AcDbEntity
  8
0
  6
CONTINUOUS
 62
     7
100
AcDbLine
 10
-5.761779
 20
-33.114937
 30
0.0
 11
-4.129703
 21
-36.614937
 31
0.0
  0
LINE
  5
65
100
AcDbEntity
  8
0
  6
CONTINUOUS
 62
     7
100
AcDbLine
 10
-28.336655
 20
3.999997
 30
0.0
 11
-27.333942
 21
3.999997
 31
0.0
  0
LINE
  5
66
100
AcDbEntity
  8
0
  6
CONTINUOUS
 62
     7
100
AcDbLine
 10
3.867424
 20
-27.614941
 30
0.0
 11
20.52549
 21
-27.614941
 31
0.0
  0
LINE
  5
67
100
AcDbEntity
  8
0
  6
CONTINUOUS
 62
     7
100
AcDbLine
 10
55.903919
 20
-28.314939
 30
0.0
 11
55.203922
 21
-27.614941
 31
0.0
  0
LINE
  5
68
100
AcDbEntity
  8
0
  6
CONTINUOUS
 62
     7
100
AcDbLine
 10
49.13905
 20
-36.614941
 30
0.0
 11
55.207615
 21
-36.561981
 31
0.0
  0
LINE
  5
69
100
AcDbEntity
  8
0
  6
CENTER
 62
     1
100
AcDbLine
 10
44.556065
 20
-31.520102
 30
0.0
 11
58.320683
 21
-33.454594
 31
0.0
  0
LINE
  5
6A
100
AcDbEntity
  8
0
  6
CONTINUOUS
 62
     7
100
AcDbLine
 10
48.594639
 20
-29.815575
 30
0.0
 11
55.903919
 21
-30.842827
 31
0.0
  0
LINE
  5
6B
100
AcDbEntity
  8
0
  6
CONTINUOUS
 62
     7
100
AcDbLine
 10
47.968357
 20
-34.271782
 30
0.0
 11
55.903919
 21
-35.387051
 31
0.0
  0
LINE
  5
6C
100
AcDbEntity
  8
0
  6
CENTER
 62
     1
100
AcDbLine
 10
11.425423
 20
-32.043678
 30
0.0
 11
19.557882
 21
-32.043678
 31
0.0
  0
LINE
  5
6D
100
AcDbEntity
  8
0
  6
CENTER
 62
     1
100
AcDbLine
 10
7.782339
 20
-30.28006
 30
0.0
 11
7.782339
 21
-37.024727
 31
0.0
  0
LINE
  5
6E
100
AcDbEntity
  8
0
  6
CONTINUOUS
 62
     7
100
AcDbLine
 10
3.87908
 20
-33.114941
 30
0.0
 11
6.257857
 21
-34.50256
 31
0.0
  0
LINE
  5
6F
100
AcDbEntity
  8
0
  6
CONTINUOUS
 62
     7
100
AcDbLine
 10
9.87908
 20
2.73513
 30
0.0
 11
20.52549
 21
2.73513
 31
0.0
  0
LINE
  5
70
100
AcDbEntity
  8
0
  6
CONTINUOUS
 62
     7
100
AcDbLine
 10
7.422939
 20
-35.18219
 30
0.0
 11
9.879078
 21
-36.614941
 31
0.0
  0
LINE
  5
71
100
AcDbEntity
  8
0
  6
CONTINUOUS
 62
     7
100
AcDbLine
 10
-28.900389
 20
0.0
 30
0.0
 11
-28.321133
 21
3.82259
 31
0.0
  0
LINE
  5
72
100
AcDbEntity
  8
0
  6
CONTINUOUS
 62
     7
100
AcDbLine
 10
-28.321133
 20
3.82259
 30
0.0
 11
-28.909765
 21
10.550689
 31
0.0
  0
LINE
  5
73
100
AcDbEntity
  8
0
  6
CENTER
 62
     1
100
AcDbLine
 10
-29.946259
 20
13.589564
 30
0.0
 11
-29.946259
 21
-3.356006
 31
0.0
  0
LINE
  5
74
100
AcDbEntity
  8
0
  6
CONTINUOUS
 62
     7
100
AcDbLine
 10
-28.900389
 20
-0.000001
 30
0.0
 11
-31.951885
 21
1.087593
 31
0.0
  0
LINE
  5
75
100
AcDbEntity
  8
0
  6
CONTINUOUS
 62
     7
100
AcDbLine
 10
-31.951885
 20
1.087594
 30
0.0
 11
-31.537437
 21
3.82259
 31
0.0
  0
LINE
  5
76
100
AcDbEntity
  8
0
  6
CONTINUOUS
 62
     7
100
AcDbLine
 10
-31.537437
 20
3.82259
 30
0.0
 11
-32.047668
 21
9.654581
 31
0.0
  0
LINE
  5
77
100
AcDbEntity
  8
0
  6
CONTINUOUS
 62
     7
100
AcDbLine
 10
-28.909765
 20
10.55069
 30
0.0
 11
-32.047668
 21
9.654583
 31
0.0
  0
LINE
  5
78
100
AcDbEntity
  8
0
  6
CONTINUOUS
 62
     7
100
AcDbLine
 10
-6.47451
 20
4.134108
 30
0.0
 11
-6.47451
 21
3.73806
 31
0.0
  0
LINE
  5
79
100
AcDbEntity
  8
0
  6
CONTINUOUS
 62
     7
100
AcDbLine
 10
-6.47451
 20
3.73806
 30
0.0
 11
-6.274509
 21
3.62259
 31
0.0
  0
LINE
  5
7A
100
AcDbEntity
  8
0
  6
CONTINUOUS
 62
     7
100
AcDbLine
 10
0.0
 20
0.0
 30
0.0
 11
0.33812
 21
0.0
 31
0.0
  0
ARC
  5
7B
100
AcDbEntity
  8
0
  6
CONTINUOUS
 62
     7
100
AcDbCircle
 10
-2.50551
 20
10.150689
 30
0.0
 40
0.4
100
AcDbArc
 50
60.000002
 51
150.0
  0
ARC
  5
7C
100
AcDbEntity
  8
0
  6
CONTINUOUS
 62
     7
100
AcDbCircle
 10
3.676179
 20
6.581689
 30
0.0
 40
0.4
100
AcDbArc
 50
330.0
 51
60.000002
  0
ARC
  5
7D
100
AcDbEntity
  8
0
  6
CONTINUOUS
 62
     7
100
AcDbCircle
 10
0.10718
 20
0.4
 30
0.0
 40
0.4
100
AcDbArc
 50
240.0
 51
330.0
  0
ARC
  5
7E
100
AcDbEntity
  8
0
  6
CONTINUOUS
 62
     7
100
AcDbCircle
 10
-6.07451
 20
3.969
 30
0.0
 40
0.4
100
AcDbArc
 50
150.0
 51
240.00001
  0
ARC
  5
7F
100
AcDbEntity
  8
0
  6
CONTINUOUS
 62
     7
100
AcDbCircle
 10
2.87908
 20
6.8
 30
0.0
 40
1.5
100
AcDbArc
 50
293.096
 51
126.02586
  0
CIRCLE
  5
80
100
AcDbEntity
  8
0
  6
CONTINUOUS
 62
     7
100
AcDbCircle
 10
-1.199165
 20
5.275344
 30
0.0
 40
2.1
  0
ARC
  5
81
100
AcDbEntity
  8
0
  6
CONTINUOUS
 62
     7
100
AcDbCircle
 10
1.960724
 20
-27.614941
 30
0.0
 40
1.906699
100
AcDbArc
 50
289.76321
 51
0.0
  0
ARC
  5
82
100
AcDbEntity
  8
0
  6
CONTINUOUS
 62
     7
100
AcDbCircle
 10
3.972381
 20
-27.614941
 30
0.0
 40
1.906699
100
AcDbArc
 50
265.0
 51
0.0
  0
POLYLINE
  5
83
100
AcDbEntity
  8
0
  6
CONTINUOUS
 62
     7
100
AcDb2dPolyline
 66
     1
 10
0.0
 20
0.0
 30
0.0
 70
     1
  0
VERTEX
  5
84
100
AcDbEntity
  8
0
  6
CONTINUOUS
 62
     7
100
AcDbVertex
100
AcDb2dVertex
 10
17.77549
 20
-32.043678
 30
0.0
 42
0.099813
  0
VERTEX
  5
85
100
AcDbEntity
  8
0
  6
CONTINUOUS
 62
     7
100
AcDbVertex
100
AcDb2dVertex
 10
17.602766
 20
-31.187555
 30
0.0
 42
0.099016
  0
VERTEX
  5
86
100
AcDbEntity
  8
0
  6
CONTINUOUS
 62
     7
100
AcDbVertex
100
AcDb2dVertex
 10
17.112776
 20
-30.464511
 30
0.0
 42
0.097983
  0
VERTEX
  5
87
100
AcDbEntity
  8
0
  6
CONTINUOUS
 62
     7
100
AcDbVertex
100
AcDb2dVertex
 10
16.38279
 20
-29.98365
 30
0.0
 42
0.097155
  0
VERTEX
  5
88
100
AcDbEntity
  8
0
  6
CONTINUOUS
 62
     7
100
AcDbVertex
100
AcDb2dVertex
 10
15.52549
 20
-29.815575
 30
0.0
 42
0.097173
  0
VERTEX
  5
89
100
AcDbEntity
  8
0
  6
CONTINUOUS
 62
     7
100
AcDbVertex
100
AcDb2dVertex
 10
14.66804
 20
-29.983711
 30
0.0
 42
0.097916
  0
VERTEX
  5
8A
100
AcDbEntity
  8
0
  6
CONTINUOUS
 62
     7
100
AcDbVertex
100
AcDb2dVertex
 10
13.938515
 20
-30.464204
 30
0.0
 42
0.099093
  0
VERTEX
  5
8B
100
AcDbEntity
  8
0
  6
CONTINUOUS
 62
     7
100
AcDbVertex
100
AcDb2dVertex
 10
13.448118
 20
-31.187782
 30
0.0
 42
0.099785
  0
VERTEX
  5
8C
100
AcDbEntity
  8
0
  6
CONTINUOUS
 62
     7
100
AcDbVertex
100
AcDb2dVertex
 10
13.27549
 20
-32.043678
 30
0.0
 42
0.099813
  0
VERTEX
  5
8D
100
AcDbEntity
  8
0
  6
CONTINUOUS
 62
     7
100
AcDbVertex
100
AcDb2dVertex
 10
13.448214
 20
-32.899802
 30
0.0
 42
0.099016
  0
VERTEX
  5
8E
100
AcDbEntity
  8
0
  6
CONTINUOUS
 62
     7
100
AcDbVertex
100
AcDb2dVertex
 10
13.938204
 20
-33.622845
 30
0.0
 42
0.097983
  0
VERTEX
  5
8F
100
AcDbEntity
  8
0
  6
CONTINUOUS
 62
     7
100
AcDbVertex
100
AcDb2dVertex
 10
14.66819
 20
-34.103707
 30
0.0
 42
0.097155
  0
VERTEX
  5
90
100
AcDbEntity
  8
0
  6
CONTINUOUS
 62
     7
100
AcDbVertex
100
AcDb2dVertex
 10
15.52549
 20
-34.271782
 30
0.0
 42
0.097173
  0
VERTEX
  5
91
100
AcDbEntity
  8
0
  6
CONTINUOUS
 62
     7
100
AcDbVertex
100
AcDb2dVertex
 10
16.38294
 20
-34.103646
 30
0.0
 42
0.097916
  0
VERTEX
  5
92
100
AcDbEntity
  8
0
  6
CONTINUOUS
 62
     7
100
AcDbVertex
100
AcDb2dVertex
 10
17.112464
 20
-33.623152
 30
0.0
 42
0.099093
  0
VERTEX
  5
93
100
AcDbEntity
  8
0
  6
CONTINUOUS
 62
     7
100
AcDbVertex
100
AcDb2dVertex
 10
17.602861
 20
-32.899575
 30
0.0
 42
0.099785
  0
SEQEND
  5
94
100
AcDbEntity
  8
0
 62
     7
  0
POLYLINE
  5
95
100
AcDbEntity
  8
0
  6
CONTINUOUS
 62
     7
100
AcDb2dPolyline
 66
     1
 10
0.0
 20
0.0
 30
0.0
  0
VERTEX
  5
96
100
AcDbEntity
  8
0
  6
CONTINUOUS
 62
     7
100
AcDbVertex
100
AcDb2dVertex
 10
17.712923
 20
-32.582849
 30
0.0
 42
0.041149
  0
VERTEX
  5
97
100
AcDbEntity
  8
0
  6
CONTINUOUS
 62
     7
100
AcDbVertex
100
AcDb2dVertex
 10
17.595962
 20
-32.225577
 30
0.0
 42
0.041297
  0
VERTEX
  5
98
100
AcDbEntity
  8
0
  6
CONTINUOUS
 62
     7
100
AcDbVertex
100
AcDb2dVertex
 10
17.421956
 20
-31.892292
 30
0.0
 42
0.04148
  0
VERTEX
  5
99
100
AcDbEntity
  8
0
  6
CONTINUOUS
 62
     7
100
AcDbVertex
100
AcDb2dVertex
 10
17.195431
 20
-31.59221
 30
0.0
 42
0.041687
  0
VERTEX
  5
9A
100
AcDbEntity
  8
0
  6
CONTINUOUS
 62
     7
100
AcDbVertex
100
AcDb2dVertex
 10
16.922331
 20
-31.333707
 30
0.0
 42
0.041894
  0
VERTEX
  5
9B
100
AcDbEntity
  8
0
  6
CONTINUOUS
 62
     7
100
AcDbVertex
100
AcDb2dVertex
 10
16.609986
 20
-31.124178
 30
0.0
 42
0.042073
  0
VERTEX
  5
9C
100
AcDbEntity
  8
0
  6
CONTINUOUS
 62
     7
100
AcDbVertex
100
AcDb2dVertex
 10
16.266983
 20
-30.969753
 30
0.0
 42
0.042201
  0
VERTEX
  5
9D
100
AcDbEntity
  8
0
  6
CONTINUOUS
 62
     7
100
AcDbVertex
100
AcDb2dVertex
 10
15.902954
 20
-30.875028
 30
0.0
 42
0.042263
  0
VERTEX
  5
9E
100
AcDbEntity
  8
0
  6
CONTINUOUS
 62
     7
100
AcDbVertex
100
AcDb2dVertex
 10
15.528247
 20
-30.842829
 30
0.0
 42
0.04216
  0
VERTEX
  5
9F
100
AcDbEntity
  8
0
  6
CONTINUOUS
 62
     7
100
AcDbVertex
100
AcDb2dVertex
 10
15.154369
 20
-30.873948
 30
0.0
 42
0.042143
  0
VERTEX
  5
A0
100
AcDbEntity
  8
0
  6
CONTINUOUS
 62
     7
100
AcDbVertex
100
AcDb2dVertex
 10
14.790573
 20
-30.967446
 30
0.0
 42
0.042057
  0
VERTEX
  5
A1
100
AcDbEntity
  8
0
  6
CONTINUOUS
 62
     7
100
AcDbVertex
100
AcDb2dVertex
 10
14.447239
 20
-31.120721
 30
0.0
 42
0.041881
  0
VERTEX
  5
A2
100
AcDbEntity
  8
0
  6
CONTINUOUS
 62
     7
100
AcDbVertex
100
AcDb2dVertex
 10
14.134348
 20
-31.329163
 30
0.0
 42
0.041686
  0
VERTEX
  5
A3
100
AcDbEntity
  8
0
  6
CONTINUOUS
 62
     7
100
AcDbVertex
100
AcDb2dVertex
 10
13.860444
 20
-31.58675
 30
0.0
 42
0.041493
  0
VERTEX
  5
A4
100
AcDbEntity
  8
0
  6
CONTINUOUS
 62
     7
100
AcDbVertex
100
AcDb2dVertex
 10
13.632904
 20
-31.886173
 30
0.0
 42
0.041319
  0
VERTEX
  5
A5
100
AcDbEntity
  8
0
  6
CONTINUOUS
 62
     7
100
AcDbVertex
100
AcDb2dVertex
 10
13.457775
 20
-32.219058
 30
0.0
 42
0.041178
  0
VERTEX
  5
A6
100
AcDbEntity
  8
0
  6
CONTINUOUS
 62
     7
100
AcDbVertex
100
AcDb2dVertex
 10
13.339652
 20
-32.576204
 30
0.0
  0
SEQEND
  5
A7
100
AcDbEntity
  8
0
 62
     7
  0
POLYLINE
  5
A8
100
AcDbEntity
  8
0
  6
CONTINUOUS
 62
     7
100
AcDb2dPolyline
 66
     1
 10
0.0
 20
0.0
 30
0.0
  0
VERTEX
  5
A9
100
AcDbEntity
  8
0
  6
CONTINUOUS
 62
     7
100
AcDbVertex
100
AcDb2dVertex
 10
6.853789
 20
-34.986038
 30
0.0
 42
0.033691
  0
VERTEX
  5
AA
100
AcDbEntity
  8
0
  6
CONTINUOUS
 62
     7
100
AcDbVertex
100
AcDb2dVertex
 10
7.104412
 20
-34.839313
 30
0.0
 42
0.033977
  0
VERTEX
  5
AB
100
AcDbEntity
  8
0
  6
CONTINUOUS
 62
     7
100
AcDbVertex
100
AcDb2dVertex
 10
7.33297
 20
-34.660117
 30
0.0
 42
0.034288
  0
VERTEX
  5
AC
100
AcDbEntity
  8
0
  6
CONTINUOUS
 62
     7
100
AcDbVertex
100
AcDb2dVertex
 10
7.535048
 20
-34.451468
 30
0.0
 42
0.034601
  0
VERTEX
  5
AD
100
AcDbEntity
  8
0
  6
CONTINUOUS
 62
     7
100
AcDbVertex
100
AcDb2dVertex
 10
7.706589
 20
-34.217019
 30
0.0
 42
0.03489
  0
VERTEX
  5
AE
100
AcDbEntity
  8
0
  6
CONTINUOUS
 62
     7
100
AcDbVertex
100
AcDb2dVertex
 10
7.844023
 20
-33.961048
 30
0.0
 42
0.03513
  0
VERTEX
  5
AF
100
AcDbEntity
  8
0
  6
CONTINUOUS
 62
     7
100
AcDbVertex
100
AcDb2dVertex
 10
7.944398
 20
-33.688395
 30
0.0
 42
0.035299
  0
VERTEX
  5
B0
100
AcDbEntity
  8
0
  6
CONTINUOUS
 62
     7
100
AcDbVertex
100
AcDb2dVertex
 10
8.005506
 20
-33.404376
 30
0.0
 42
0.035346
  0
VERTEX
  5
B1
100
AcDbEntity
  8
0
  6
CONTINUOUS
 62
     7
100
AcDbVertex
100
AcDb2dVertex
 10
8.025996
 20
-33.114937
 30
0.0
 42
0.035265
  0
VERTEX
  5
B2
100
AcDbEntity
  8
0
  6
CONTINUOUS
 62
     7
100
AcDbVertex
100
AcDb2dVertex
 10
8.0056
 20
-32.826157
 30
0.0
 42
0.035205
  0
VERTEX
  5
B3
100
AcDbEntity
  8
0
  6
CONTINUOUS
 62
     7
100
AcDbVertex
100
AcDb2dVertex
 10
7.9448
 20
-32.542868
 30
0.0
 42
0.035106
  0
VERTEX
  5
B4
100
AcDbEntity
  8
0
  6
CONTINUOUS
 62
     7
100
AcDbVertex
100
AcDb2dVertex
 10
7.844699
 20
-32.27033
 30
0.0
 42
0.034896
  0
VERTEX
  5
B5
100
AcDbEntity
  8
0
  6
CONTINUOUS
 62
     7
100
AcDbVertex
100
AcDb2dVertex
 10
7.707444
 20
-32.014213
 30
0.0
 42
0.034591
  0
VERTEX
  5
B6
100
AcDbEntity
  8
0
  6
CONTINUOUS
 62
     7
100
AcDbVertex
100
AcDb2dVertex
 10
7.536143
 20
-31.779707
 30
0.0
 42
0.034286
  0
VERTEX
  5
B7
100
AcDbEntity
  8
0
  6
CONTINUOUS
 62
     7
100
AcDbVertex
100
AcDb2dVertex
 10
7.33426
 20
-31.570921
 30
0.0
 42
0.033983
  0
VERTEX
  5
B8
100
AcDbEntity
  8
0
  6
CONTINUOUS
 62
     7
100
AcDbVertex
100
AcDb2dVertex
 10
7.105819
 20
-31.391521
 30
0.0
 42
0.033704
  0
VERTEX
  5
B9
100
AcDbEntity
  8
0
  6
CONTINUOUS
 62
     7
100
AcDbVertex
100
AcDb2dVertex
 10
6.85523
 20
-31.244558
 30
0.0
  0
SEQEND
  5
BA
100
AcDbEntity
  8
0
 62
     7
  0
POLYLINE
  5
BB
100
AcDbEntity
  8
0
  6
CONTINUOUS
 62
     7
100
AcDb2dPolyline
 66
     1
 10
0.0
 20
0.0
 30
0.0
 70
     1
  0
VERTEX
  5
BC
100
AcDbEntity
  8
0
  6
CONTINUOUS
 62
     7
100
AcDbVertex
100
AcDb2dVertex
 10
9.813566
 20
-33.114937
 30
0.0
 42
0.094004
  0
VERTEX
  5
BD
100
AcDbEntity
  8
0
  6
CONTINUOUS
 62
     7
100
AcDbVertex
100
AcDb2dVertex
 10
9.663644
 20
-32.323123
 30
0.0
 42
0.096509
  0
VERTEX
  5
BE
100
AcDbEntity
  8
0
  6
CONTINUOUS
 62
     7
100
AcDbVertex
100
AcDb2dVertex
 10
9.231042
 20
-31.642954
 30
0.0
 42
0.100336
  0
VERTEX
  5
BF
100
AcDbEntity
  8
0
  6
CONTINUOUS
 62
     7
100
AcDbVertex
100
AcDb2dVertex
 10
8.570962
 20
-31.179674
 30
0.0
 42
0.103122
  0
VERTEX
  5
C0
100
AcDbEntity
  8
0
  6
CONTINUOUS
 62
     7
100
AcDbVertex
100
AcDb2dVertex
 10
7.782339
 20
-31.014938
 30
0.0
 42
0.103064
  0
VERTEX
  5
C1
100
AcDbEntity
  8
0
  6
CONTINUOUS
 62
     7
100
AcDbVertex
100
AcDb2dVertex
 10
6.994131
 20
-31.179493
 30
0.0
 42
0.10025
  0
VERTEX
  5
C2
100
AcDbEntity
  8
0
  6
CONTINUOUS
 62
     7
100
AcDbVertex
100
AcDb2dVertex
 10
6.334441
 20
-31.642106
 30
0.0
 42
0.096567
  0
VERTEX
  5
C3
100
AcDbEntity
  8
0
  6
CONTINUOUS
 62
     7
100
AcDbVertex
100
AcDb2dVertex
 10
5.901297
 20
-32.322454
 30
0.0
 42
0.094088
  0
VERTEX
  5
C4
100
AcDbEntity
  8
0
  6
CONTINUOUS
 62
     7
100
AcDbVertex
100
AcDb2dVertex
 10
5.751111
 20
-33.114937
 30
0.0
 42
0.094003
  0
VERTEX
  5
C5
100
AcDbEntity
  8
0
  6
CONTINUOUS
 62
     7
100
AcDbVertex
100
AcDb2dVertex
 10
5.901033
 20
-33.906751
 30
0.0
 42
0.096509
  0
VERTEX
  5
C6
100
AcDbEntity
  8
0
  6
CONTINUOUS
 62
     7
100
AcDbVertex
100
AcDb2dVertex
 10
6.333634
 20
-34.58692
 30
0.0
 42
0.100335
  0
VERTEX
  5
C7
100
AcDbEntity
  8
0
  6
CONTINUOUS
 62
     7
100
AcDbVertex
100
AcDb2dVertex
 10
6.993713
 20
-35.050202
 30
0.0
 42
0.103123
  0
VERTEX
  5
C8
100
AcDbEntity
  8
0
  6
CONTINUOUS
 62
     7
100
AcDbVertex
100
AcDb2dVertex
 10
7.782339
 20
-35.214939
 30
0.0
 42
0.103064
  0
VERTEX
  5
C9
100
AcDbEntity
  8
0
  6
CONTINUOUS
 62
     7
100
AcDbVertex
100
AcDb2dVertex
 10
8.570546
 20
-35.050384
 30
0.0
 42
0.10025
  0
VERTEX
  5
CA
100
AcDbEntity
  8
0
  6
CONTINUOUS
 62
     7
100
AcDbVertex
100
AcDb2dVertex
 10
9.230235
 20
-34.58777
 30
0.0
 42
0.096567
  0
VERTEX
  5
CB
100
AcDbEntity
  8
0
  6
CONTINUOUS
 62
     7
100
AcDbVertex
100
AcDb2dVertex
 10
9.66338
 20
-33.907422
 30
0.0
 42
0.094088
  0
SEQEND
  5
CC
100
AcDbEntity
  8
0
 62
     7
  0
POLYLINE
  5
CD
100
AcDbEntity
  8
0
  6
CONTINUOUS
 62
     7
100
AcDb2dPolyline
 66
     1
 10
0.0
 20
0.0
 30
0.0
  0
VERTEX
  5
CE
100
AcDbEntity
  8
0
  6
CONTINUOUS
 62
     7
100
AcDbVertex
100
AcDb2dVertex
 10
15.52549
 20
3.690718
 30
0.0
 42
0.009197
  0
VERTEX
  5
CF
100
AcDbEntity
  8
0
  6
CONTINUOUS
 62
     7
100
AcDbVertex
100
AcDb2dVertex
 10
14.947874
 20
3.680224
 30
0.0
 42
0.011422
  0
VERTEX
  5
D0
100
AcDbEntity
  8
0
  6
CONTINUOUS
 62
     7
100
AcDbVertex
100
AcDb2dVertex
 10
14.370583
 20
3.646319
 30
0.0
 42
0.02003
  0
VERTEX
  5
D1
100
AcDbEntity
  8
0
  6
CONTINUOUS
 62
     7
100
AcDbVertex
100
AcDb2dVertex
 10
13.795923
 20
3.577867
 30
0.0
 42
0.16309
  0
VERTEX
  5
D2
100
AcDbEntity
  8
0
  6
CONTINUOUS
 62
     7
100
AcDbVertex
100
AcDb2dVertex
 10
13.27549
 20
3.377579
 30
0.0
 42
0.162714
  0
VERTEX
  5
D3
100
AcDbEntity
  8
0
  6
CONTINUOUS
 62
     7
100
AcDbVertex
100
AcDb2dVertex
 10
13.795645
 20
3.177337
 30
0.0
 42
0.019987
  0
VERTEX
  5
D4
100
AcDbEntity
  8
0
  6
CONTINUOUS
 62
     7
100
AcDbVertex
100
AcDb2dVertex
 10
14.368094
 20
3.109046
 30
0.0
 42
0.011436
  0
VERTEX
  5
D5
100
AcDbEntity
  8
0
  6
CONTINUOUS
 62
     7
100
AcDbVertex
100
AcDb2dVertex
 10
14.945192
 20
3.075033
 30
0.0
 42
0.009208
  0
VERTEX
  5
D6
100
AcDbEntity
  8
0
  6
CONTINUOUS
 62
     7
100
AcDbVertex
100
AcDb2dVertex
 10
15.523311
 20
3.064439
 30
0.0
 42
0.009193
  0
VERTEX
  5
D7
100
AcDbEntity
  8
0
  6
CONTINUOUS
 62
     7
100
AcDbVertex
100
AcDb2dVertex
 10
16.100914
 20
3.074853
 30
0.0
 42
0.011407
  0
VERTEX
  5
D8
100
AcDbEntity
  8
0
  6
CONTINUOUS
 62
     7
100
AcDbVertex
100
AcDb2dVertex
 10
16.678208
 20
3.108656
 30
0.0
 42
0.019965
  0
VERTEX
  5
D9
100
AcDbEntity
  8
0
  6
CONTINUOUS
 62
     7
100
AcDbVertex
100
AcDb2dVertex
 10
17.252884
 20
3.176928
 30
0.0
 42
0.16244
  0
VERTEX
  5
DA
100
AcDbEntity
  8
0
  6
CONTINUOUS
 62
     7
100
AcDbVertex
100
AcDb2dVertex
 10
17.77549
 20
3.377579
 30
0.0
 42
0.162714
  0
VERTEX
  5
DB
100
AcDbEntity
  8
0
  6
CONTINUOUS
 62
     7
100
AcDbVertex
100
AcDb2dVertex
 10
17.255335
 20
3.577821
 30
0.0
 42
0.019987
  0
VERTEX
  5
DC
100
AcDbEntity
  8
0
  6
CONTINUOUS
 62
     7
100
AcDbVertex
100
AcDb2dVertex
 10
16.682886
 20
3.646112
 30
0.0
 42
0.011436
  0
VERTEX
  5
DD
100
AcDbEntity
  8
0
  6
CONTINUOUS
 62
     7
100
AcDbVertex
100
AcDb2dVertex
 10
16.105788
 20
3.680124
 30
0.0
 42
0.009208
  0
VERTEX
  5
DE
100
AcDbEntity
  8
0
  6
CONTINUOUS
 62
     7
100
AcDbVertex
100
AcDb2dVertex
 10
15.527669
 20
3.690718
 30
0.0
  0
SEQEND
  5
DF
100
AcDbEntity
  8
0
 62
     7
  0
LINE
  5
E0
100
AcDbEntity
  8
0
  6
CONTINUOUS
 62
     7
100
AcDbLine
 10
53.220584
 20
-36.579318
 30
0.0
 11
54.596582
 21
-35.203317
 31
0.0
  0
LINE
  5
E1
100
AcDbEntity
  8
0
  6
CONTINUOUS
 62
     7
100
AcDbLine
 10
50.955757
 20
-36.599083
 30
0.0
 11
52.628163
 21
-34.926674
 31
0.0
  0
LINE
  5
E2
100
AcDbEntity
  8
0
  6
CONTINUOUS
 62
     7
100
AcDbLine
 10
48.694842
 20
-36.614937
 30
0.0
 11
50.659743
 21
-34.650031
 31
0.0
  0
LINE
  5
E3
100
AcDbEntity
  8
0
  6
CONTINUOUS
 62
     7
100
AcDbLine
 10
47.833521
 20
-35.231193
 30
0.0
 11
48.691324
 21
-34.373388
 31
0.0
  0
LINE
  5
E4
100
AcDbEntity
  8
0
  6
CONTINUOUS
 62
     7
100
AcDbLine
 10
54.644009
 20
-30.665758
 30
0.0
 11
55.903919
 21
-29.405845
 31
0.0
  0
LINE
  5
E5
100
AcDbEntity
  8
0
  6
CONTINUOUS
 62
     7
100
AcDbLine
 10
52.675589
 20
-30.389115
 30
0.0
 11
55.326838
 21
-27.737861
 31
0.0
  0
LINE
  5
E6
100
AcDbEntity
  8
0
  6
CONTINUOUS
 62
     7
100
AcDbLine
 10
50.70717
 20
-30.112472
 30
0.0
 11
53.204696
 21
-27.614941
 31
0.0
  0
LINE
  5
E7
100
AcDbEntity
  8
0
  6
CONTINUOUS
 62
     7
100
AcDbLine
 10
48.738751
 20
-29.835828
 30
0.0
 11
50.959634
 21
-27.614941
 31
0.0
  0
TEXT
  5
EA
100
AcDbEntity
  8
0
  6
CONTINUOUS
100
AcDbText
 10
-2.144506
 20
-63.105346
 30
0.0
 40
6.0
  1
MSTP04R
100
AcDbText
  0
INSERT
  5
FF
100
AcDbEntity
  8
0
  6
CONTINUOUS
100
AcDbBlockReference
  2
テンプレ-ト
 10
-27.601933
 20
-25.027816
 30
0.0
  0
LINE
  5
100
100
AcDbEntity
  8
0
  6
CENTER
 62
     1
100
AcDbLine
 10
-28.321133
 20
13.188569
 30
0.0
 11
-28.321133
 21
0.0
 31
0.0
  0
LINE
  5
102
100
AcDbEntity
  8
0
  6
CENTER
 62
     1
100
AcDbLine
 10
-29.43448
 20
12.0
 30
0.0
 11
-26.871669
 21
12.0
 31
0.0
  0
ARC
  5
103
100
AcDbEntity
  8
0
  6
CENTER
 62
     1
100
AcDbCircle
 10
-28.321133
 20
12.0
 30
0.0
 40
12.0
100
AcDbArc
 50
180.0
 51
270.0
  0
RAY
  5
108
100
AcDbEntity
  8
0
  6
CENTER
 62
     1
100
AcDbRay
 10
229.140009
 20
0.0
 30
0.0
 11
1.0
 21
0.0
 31
0.0
  0
DIMENSION
  5
121
100
AcDbEntity
  8
寸法
 62
     1
100
AcDbDimension
  2
*D3
 10
-15.951999
 20
0.0
 30
0.0
 11
-18.451999
 21
5.5
 31
0.0
 70
    32
  3
寸法
100
AcDbAlignedDimension
 13
-2.47704
 23
11.0
 33
0.0
 14
0.0
 24
0.0
 34
0.0
 50
90.0
100
AcDbRotatedDimension
  0
DIMENSION
  5
12E
100
AcDbEntity
  8
寸法
 62
     1
100
AcDbDimension
  2
*D4
 10
20.52549
 20
-9.956908
 30
0.0
 11
7.02549
 21
-7.456908
 31
0.0
 70
    32
  3
寸法
100
AcDbAlignedDimension
 13
-6.47451
 23
3.73806
 33
0.0
 14
20.52549
 24
2.73513
 34
0.0
100
AcDbRotatedDimension
  0
LINE
  5
12F
100
AcDbEntity
  8
寸法
 62
     1
100
AcDbLine
 10
-1.0
 20
0.0
 30
0.0
 11
0.0
 21
0.0
 31
0.0
  0
DIMENSION
  5
142
100
AcDbEntity
  8
寸法
 62
     1
100
AcDbDimension
  2
*D5
 10
0.0
 20
0.0
 30
0.0
 11
-8.513588
 21
4.029346
 31
0.0
 70
   162
  3
寸法
100
AcDb2LineAngularDimension
 13
-6.274509
 23
3.62259
 33
0.0
 14
-0.09282
 24
0.05359
 34
0.0
 15
-1.0
 25
0.0
 35
0.0
 16
-9.275865
 26
1.635585
 36
0.0
  0
DIMENSION
  5
174
100
AcDbEntity
  8
寸法
 62
     1
100
AcDbDimension
  2
*D6
 10
29.949423
 20
-36.614937
 30
0.0
 11
27.449423
 21
-32.114939
 31
0.0
 70
    32
  3
寸法
100
AcDbAlignedDimension
 13
20.52549
 23
-27.614941
 33
0.0
 14
20.52549
 24
-36.614937
 34
0.0
 50
90.0
100
AcDbRotatedDimension
  0
DIMENSION
  5
183
100
AcDbEntity
  8
寸法
 62
     1
100
AcDbDimension
  2
*D7
 10
15.52549
 20
-24.462518
 30
0.0
 11
9.52549
 21
-21.962518
 31
0.0
 70
    32
  3
寸法
100
AcDbAlignedDimension
 13
20.52549
 23
-27.614941
 33
0.0
 14
15.52549
 24
-28.51494
 34
0.0
100
AcDbRotatedDimension
  0
DIMENSION
  5
192
100
AcDbEntity
  8
寸法
 62
     1
100
AcDbDimension
  2
*D8
 10
65.858325
 20
-36.614937
 30
0.0
 11
63.358325
 21
-44.614937
 31
0.0
 70
    32
  3
寸法
100
AcDbAlignedDimension
 13
55.903919
 23
-33.11494
 33
0.0
 14
47.63905
 24
-36.614937
 34
0.0
 50
90.0
100
AcDbRotatedDimension
  0
LINE
  5
193
100
AcDbEntity
  8
寸法
 62
     1
100
AcDbLine
 10
55.903919
 20
-33.11494
 30
0.0
 11
56.903919
 21
-33.11494
 31
0.0
  0
DIMENSION
  5
1A6
100
AcDbEntity
  8
寸法
 62
     1
100
AcDbDimension
  2
*D9
 10
56.903919
 20
-33.11494
 30
0.0
 11
60.350699
 21
-31.078772
 31
0.0
 70
   162
  3
寸法
100
AcDb2LineAngularDimension
 13
44.556065
 23
-31.520102
 33
0.0
 14
58.320683
 24
-33.454594
 34
0.0
 15
55.903919
 25
-33.11494
 35
0.0
 16
60.773536
 26
-33.569538
 36
0.0
  0
DIMENSION
  5
1CF
100
AcDbEntity
  8
寸法
 62
     1
100
AcDbDimension
  2
*D10
 10
-15.559337
 20
-36.614937
 30
0.0
 11
-18.059337
 21
-32.614938
 31
0.0
 70
    32
  3
寸法
100
AcDbAlignedDimension
 13
-6.474509
 23
-28.614939
 33
0.0
 14
-4.129703
 24
-36.614937
 34
0.0
 50
90.0
100
AcDbRotatedDimension
  0
ARC
  5
1D3
100
AcDbEntity
  8
0
  6
CENTER
 62
     1
100
AcDbCircle
 10
8.525491
 20
-28.614939
 30
0.0
 40
15.0
100
AcDbArc
 50
176.928185
 51
271.442217
  0
INSERT
  5
212
100
AcDbEntity
  8
寸法
 62
     1
100
AcDbBlockReference
  2
A$C43594415
 10
-42.154647
 20
-33.286168
 30
0.0
  0
LINE
  5
41D
100
AcDbEntity
  8
0
  6
BYBLOCK
 62
     1
100
AcDbLine
 10
8.525491
 20
-28.614939
 30
0.0
 11
3.658824
 21
-40.669629
 31
0.0
  0
LINE
  5
41E
100
AcDbEntity
  8
0
  6
BYBLOCK
 62
     1
100
AcDbLine
 10
2.910106
 20
-42.524197
 30
0.0
 11
-2.143741
 21
-55.042529
 31
0.0
  0
INSERT
  5
420
100
AcDbEntity
  8
0
  6
BYBLOCK
 62
     1
100
AcDbBlockReference
  2
_OPEN30
 10
2.910106
 20
-42.524197
 30
0.0
 41
2.0
 42
2.0
 43
2.0
 50
248.015299
  0
MTEXT
  5
421
100
AcDbEntity
  8
0
  6
BYBLOCK
 62
     1
100
AcDbMText
 10
-2.683745
 20
-49.702033
 30
0.0
 40
3.0
 41
0.0
 71
     5
 72
     1
  1
\A1;\U+220530
 11
0.374359
 21
0.927284
 31
0.0
  0
POINT
  5
422
100
AcDbEntity
  8
DEFPOINTS
  6
BYBLOCK
 62
     0
100
AcDbPoint
 10
2.910106
 20
-42.524197
 30
0.0
  0
LINE
  5
424
100
AcDbEntity
  8
0
  6
BYBLOCK
 62
     1
100
AcDbLine
 10
-28.321133
 20
12.0
 30
0.0
 11
-38.279643
 21
11.090011
 31
0.0
  0
INSERT
  5
426
100
AcDbEntity
  8
0
  6
BYBLOCK
 62
     1
100
AcDbBlockReference
  2
_OPEN30
 10
-40.271345
 20
10.908014
 30
0.0
 41
2.0
 42
2.0
 43
2.0
 50
185.221074
  0
MTEXT
  5
427
100
AcDbEntity
  8
0
  6
BYBLOCK
 62
     1
100
AcDbMText
 10
-31.536183
 20
14.216631
 30
0.0
 40
3.0
 41
0.0
 71
     5
 72
     1
  1
\A1;\U+220524
 11
0.995851
 21
0.090999
 31
0.0
  0
POINT
  5
428
100
AcDbEntity
  8
DEFPOINTS
  6
BYBLOCK
 62
     0
100
AcDbPoint
 10
-40.271345
 20
10.908014
 30
0.0
  0
POINT
  5
429
100
AcDbEntity
  8
DEFPOINTS
  6
BYBLOCK
 62
     0
100
AcDbPoint
 10
-16.370921
 20
13.091987
 30
0.0
  0
ENDSEC
  0
SECTION
  2
OBJECTS
  0
DICTIONARY
  5
C
100
AcDbDictionary
  3
ACAD_GROUP
350
D
  3
ACAD_MLINESTYLE
350
1B
  0
DICTIONARY
  5
D
102
{ACAD_REACTORS
330
C
102
}
100
AcDbDictionary
  0
DICTIONARY
  5
1B
102
{ACAD_REACTORS
330
C
102
}
100
AcDbDictionary
  3
STANDARD
350
1C
  0
MLINESTYLE
  5
1C
102
{ACAD_REACTORS
330
1B
102
}
100
AcDbMlineStyle
  2
STANDARD
 70
     0
  3

 62
   256
 51
90.0
 52
90.0
 71
     2
 49
0.5
 62
   256
  6
BYLAYER
 49
-0.5
 62
   256
  6
BYLAYER
  0
ENDSEC
  0
EOF
