  0
SECTION
  2
HEADER
  9
$ACADVER
  1
AC1014
  9
$ACADMAINTVER
 70
     0
  9
$DWGCODEPAGE
  3
ANSI_932
  9
$INSBASE
 10
0.0
 20
0.0
 30
0.0
  9
$EXTMIN
 10
-55.435029
 20
-65.802019
 30
0.0
  9
$EXTMAX
 10
106.606939
 20
25.981731
 30
0.0
  9
$LIMMIN
 10
-77.134137
 20
-79.569375
  9
$LIMMAX
 10
127.256703
 20
24.192176
  9
$ORTHOMODE
 70
     0
  9
$REGENMODE
 70
     1
  9
$FILLMODE
 70
     1
  9
$QTEXTMODE
 70
     0
  9
$MIRRTEXT
 70
     1
  9
$DRAGMODE
 70
     2
  9
$LTSCALE
 40
0.5
  9
$OSMODE
 70
    35
  9
$ATTMODE
 70
     1
  9
$TEXTSIZE
 40
0.2
  9
$TRACEWID
 40
0.05
  9
$TEXTSTYLE
  7
STANDARD
  9
$CLAYER
  8
寸法
  9
$CELTYPE
  6
BYLAYER
  9
$CECOLOR
 62
     1
  9
$CELTSCALE
 40
1.0
  9
$DELOBJ
 70
     1
  9
$DISPSILH
 70
     0
  9
$DIMSCALE
 40
1.0
  9
$DIMASZ
 40
2.0
  9
$DIMEXO
 40
1.0
  9
$DIMDLI
 40
10.0
  9
$DIMRND
 40
0.0
  9
$DIMDLE
 40
0.0
  9
$DIMEXE
 40
1.0
  9
$DIMTP
 40
0.0
  9
$DIMTM
 40
0.0
  9
$DIMTXT
 40
3.0
  9
$DIMCEN
 40
2.0
  9
$DIMTSZ
 40
0.0
  9
$DIMTOL
 70
     0
  9
$DIMLIM
 70
     0
  9
$DIMTIH
 70
     0
  9
$DIMTOH
 70
     0
  9
$DIMSE1
 70
     0
  9
$DIMSE2
 70
     0
  9
$DIMTAD
 70
     1
  9
$DIMZIN
 70
     8
  9
$DIMBLK
  1

  9
$DIMASO
 70
     1
  9
$DIMSHO
 70
     1
  9
$DIMPOST
  1

  9
$DIMAPOST
  1

  9
$DIMALT
 70
     0
  9
$DIMALTD
 70
     2
  9
$DIMALTF
 40
25.4
  9
$DIMLFAC
 40
1.0
  9
$DIMTOFL
 70
     1
  9
$DIMTVP
 40
0.0
  9
$DIMTIX
 70
     0
  9
$DIMSOXD
 70
     0
  9
$DIMSAH
 70
     1
  9
$DIMBLK1
  1
_OPEN30
  9
$DIMBLK2
  1
_OPEN30
  9
$DIMSTYLE
  2
寸法
  9
$DIMCLRD
 70
     1
  9
$DIMCLRE
 70
     1
  9
$DIMCLRT
 70
     1
  9
$DIMTFAC
 40
1.0
  9
$DIMGAP
 40
1.0
  9
$DIMJUST
 70
     0
  9
$DIMSD1
 70
     0
  9
$DIMSD2
 70
     0
  9
$DIMTOLJ
 70
     1
  9
$DIMTZIN
 70
     0
  9
$DIMALTZ
 70
     0
  9
$DIMALTTZ
 70
     0
  9
$DIMFIT
 70
     3
  9
$DIMUPT
 70
     0
  9
$DIMUNIT
 70
     2
  9
$DIMDEC
 70
     2
  9
$DIMTDEC
 70
     4
  9
$DIMALTU
 70
     2
  9
$DIMALTTD
 70
     2
  9
$DIMTXSTY
  7
STANDARD
  9
$DIMAUNIT
 70
     0
  9
$LUNITS
 70
     2
  9
$LUPREC
 70
     4
  9
$SKETCHINC
 40
0.1
  9
$FILLETRAD
 40
0.0
  9
$AUNITS
 70
     0
  9
$AUPREC
 70
     0
  9
$MENU
  1
acad
  9
$ELEVATION
 40
0.0
  9
$PELEVATION
 40
0.0
  9
$THICKNESS
 40
0.0
  9
$LIMCHECK
 70
     0
  9
$BLIPMODE
 70
     0
  9
$CHAMFERA
 40
0.0
  9
$CHAMFERB
 40
0.0
  9
$CHAMFERC
 40
0.0
  9
$CHAMFERD
 40
0.0
  9
$SKPOLY
 70
     0
  9
$TDCREATE
 40
2451941.932805208
  9
$TDUPDATE
 40
2451977.635057870
  9
$TDINDWG
 40
0.0115440972
  9
$TDUSRTIMER
 40
0.0115440972
  9
$USRTIMER
 70
     1
  9
$ANGBASE
 50
0.0
  9
$ANGDIR
 70
     0
  9
$PDMODE
 70
     0
  9
$PDSIZE
 40
0.0
  9
$PLINEWID
 40
0.0
  9
$COORDS
 70
     1
  9
$SPLFRAME
 70
     0
  9
$SPLINETYPE
 70
     6
  9
$SPLINESEGS
 70
     8
  9
$ATTDIA
 70
     0
  9
$ATTREQ
 70
     1
  9
$HANDLING
 70
     1
  9
$HANDSEED
  5
1D9
  9
$SURFTAB1
 70
     6
  9
$SURFTAB2
 70
     6
  9
$SURFTYPE
 70
     6
  9
$SURFU
 70
     6
  9
$SURFV
 70
     6
  9
$UCSNAME
  2

  9
$UCSORG
 10
0.0
 20
0.0
 30
0.0
  9
$UCSXDIR
 10
1.0
 20
0.0
 30
0.0
  9
$UCSYDIR
 10
0.0
 20
1.0
 30
0.0
  9
$PUCSNAME
  2

  9
$PUCSORG
 10
0.0
 20
0.0
 30
0.0
  9
$PUCSXDIR
 10
1.0
 20
0.0
 30
0.0
  9
$PUCSYDIR
 10
0.0
 20
1.0
 30
0.0
  9
$USERI1
 70
     0
  9
$USERI2
 70
     0
  9
$USERI3
 70
     0
  9
$USERI4
 70
     0
  9
$USERI5
 70
     0
  9
$USERR1
 40
0.0
  9
$USERR2
 40
0.0
  9
$USERR3
 40
0.0
  9
$USERR4
 40
0.0
  9
$USERR5
 40
0.0
  9
$WORLDVIEW
 70
     1
  9
$SHADEDGE
 70
     3
  9
$SHADEDIF
 70
    70
  9
$TILEMODE
 70
     1
  9
$MAXACTVP
 70
    48
  9
$PINSBASE
 10
0.0
 20
0.0
 30
0.0
  9
$PLIMCHECK
 70
     0
  9
$PEXTMIN
 10
1.000000E+20
 20
1.000000E+20
 30
1.000000E+20
  9
$PEXTMAX
 10
-1.000000E+20
 20
-1.000000E+20
 30
-1.000000E+20
  9
$PLIMMIN
 10
0.0
 20
0.0
  9
$PLIMMAX
 10
12.0
 20
9.0
  9
$UNITMODE
 70
     0
  9
$VISRETAIN
 70
     1
  9
$PLINEGEN
 70
     0
  9
$PSLTSCALE
 70
     1
  9
$TREEDEPTH
 70
  3020
  9
$PICKSTYLE
 70
     1
  9
$CMLSTYLE
  2
STANDARD
  9
$CMLJUST
 70
     0
  9
$CMLSCALE
 40
1.0
  9
$PROXYGRAPHICS
 70
     1
  9
$MEASUREMENT
 70
     0
  0
ENDSEC
  0
SECTION
  2
CLASSES
  0
ENDSEC
  0
SECTION
  2
TABLES
  0
TABLE
  2
VPORT
  5
8
100
AcDbSymbolTable
 70
     2
  0
VPORT
  5
1D8
100
AcDbSymbolTableRecord
100
AcDbViewportTableRecord
  2
*ACTIVE
 70
     0
 10
0.0
 20
0.0
 11
1.0
 21
1.0
 12
24.6919
 22
-40.373296
 13
0.0
 23
0.0
 14
1.0
 24
1.0
 15
10.0
 25
10.0
 16
0.0
 26
0.0
 36
1.0
 17
0.0
 27
0.0
 37
0.0
 40
142.645102
 41
1.710425
 42
50.0
 43
0.0
 44
0.0
 50
0.0
 51
0.0
 71
     0
 72
   100
 73
     1
 74
     1
 75
     0
 76
     0
 77
     0
 78
     0
  0
ENDTAB
  0
TABLE
  2
LTYPE
  5
5
100
AcDbSymbolTable
 70
     5
  0
LTYPE
  5
12
100
AcDbSymbolTableRecord
100
AcDbLinetypeTableRecord
  2
BYBLOCK
 70
     0
  3

 72
    65
 73
     0
 40
0.0
  0
LTYPE
  5
13
100
AcDbSymbolTableRecord
100
AcDbLinetypeTableRecord
  2
BYLAYER
 70
     0
  3

 72
    65
 73
     0
 40
0.0
  0
LTYPE
  5
14
100
AcDbSymbolTableRecord
100
AcDbLinetypeTableRecord
  2
CONTINUOUS
 70
     0
  3
Solid line
 72
    65
 73
     0
 40
0.0
  0
LTYPE
  5
1F
100
AcDbSymbolTableRecord
100
AcDbLinetypeTableRecord
  2
DASHED
 70
     0
  3
__ __ __ __ __ __ __ __ __ __ __ __ __ __ __
 72
    65
 73
     2
 40
3.5
 49
2.0
 74
     0
 49
-1.5
 74
     0
  0
LTYPE
  5
20
100
AcDbSymbolTableRecord
100
AcDbLinetypeTableRecord
  2
CENTER
 70
     0
  3
____ _ ____ _ ____ _ ____ _ ____ _ ____ _ ____
 72
    65
 73
     4
 40
17.5
 49
13.0
 74
     0
 49
-1.5
 74
     0
 49
1.5
 74
     0
 49
-1.5
 74
     0
  0
LTYPE
  5
21
100
AcDbSymbolTableRecord
100
AcDbLinetypeTableRecord
  2
PHANTOM
 70
     0
  3
_____ _ _ _____ _ _ _____ _ _ _____ _ _ ____  
 72
    65
 73
     6
 40
15.5
 49
8.0
 74
     0
 49
-1.5
 74
     0
 49
1.5
 74
     0
 49
-1.5
 74
     0
 49
1.5
 74
     0
 49
-1.5
 74
     0
  0
LTYPE
  5
22
100
AcDbSymbolTableRecord
100
AcDbLinetypeTableRecord
  2
DOT
 70
     0
  3
. . . . . . . . . . . . . . . . . . . . . . . .
 72
    65
 73
     2
 40
0.25
 49
0.0
 74
     0
 49
-0.25
 74
     0
  0
ENDTAB
  0
TABLE
  2
LAYER
  5
2
100
AcDbSymbolTable
 70
     3
  0
LAYER
  5
E
100
AcDbSymbolTableRecord
100
AcDbLayerTableRecord
  2
0
 70
     0
 62
     7
  6
CONTINUOUS
  0
LAYER
  5
ED
100
AcDbSymbolTableRecord
100
AcDbLayerTableRecord
  2
寸法
 70
     0
 62
     1
  6
CONTINUOUS
  0
LAYER
  5
107
100
AcDbSymbolTableRecord
100
AcDbLayerTableRecord
  2
DEFPOINTS
 70
     0
 62
     7
  6
CONTINUOUS
  0
ENDTAB
  0
TABLE
  2
STYLE
  5
3
100
AcDbSymbolTable
 70
     2
  0
STYLE
  5
F
100
AcDbSymbolTableRecord
100
AcDbTextStyleTableRecord
  2
STANDARD
 70
     0
 40
0.0
 41
1.0
 50
0.0
 71
     0
 42
0.2
  3
txt
  4
BIGFONT
  0
STYLE
  5
EE
100
AcDbSymbolTableRecord
100
AcDbTextStyleTableRecord
  2
寸法
 70
     0
 40
0.0
 41
1.0
 50
0.0
 71
     0
 42
1.767677
  3
txt.shx
  4
bigfont.shx
  0
ENDTAB
  0
TABLE
  2
VIEW
  5
6
100
AcDbSymbolTable
 70
     0
  0
ENDTAB
  0
TABLE
  2
UCS
  5
7
100
AcDbSymbolTable
 70
     0
  0
ENDTAB
  0
TABLE
  2
APPID
  5
9
100
AcDbSymbolTable
 70
     3
  0
APPID
  5
10
100
AcDbSymbolTableRecord
100
AcDbRegAppTableRecord
  2
ACAD
 70
     0
  0
APPID
  5
F1
100
AcDbSymbolTableRecord
100
AcDbRegAppTableRecord
  2
CONTENTTABDATA
 70
     0
  0
APPID
  5
F2
100
AcDbSymbolTableRecord
100
AcDbRegAppTableRecord
  2
CONTENTCURRENTTAB
 70
     0
  0
ENDTAB
  0
TABLE
  2
DIMSTYLE
  5
A
100
AcDbSymbolTable
 70
     3
  0
DIMSTYLE
105
DF
100
AcDbSymbolTableRecord
100
AcDbDimStyleTableRecord
  2
STANDARD
 70
     0
  3

  4

  5

  6

  7

 40
1.0
 41
0.18
 42
0.0625
 43
0.38
 44
0.18
 45
0.0
 46
0.0
 47
0.0
 48
0.0
140
0.18
141
0.09
142
0.0
143
25.4
144
1.0
145
0.0
146
1.0
147
0.09
 71
     0
 72
     0
 73
     1
 74
     1
 75
     0
 76
     0
 77
     0
 78
     0
170
     0
171
     2
172
     0
173
     0
174
     0
175
     0
176
     0
177
     0
178
     0
270
     2
271
     4
272
     4
273
     2
274
     2
340
F
275
     0
280
     0
281
     0
282
     0
283
     1
284
     0
285
     0
286
     0
287
     3
288
     0
  0
DIMSTYLE
105
EF
100
AcDbSymbolTableRecord
100
AcDbDimStyleTableRecord
  2
STANDARD_WS
 70
     0
  3

  4

  5

  6

  7

 40
0.707071
 41
2.5
 42
0.625
 43
3.75
 44
1.25
 45
0.0
 46
0.0
 47
0.0
 48
0.0
140
2.5
141
2.5
142
0.0
143
0.0394
144
1.0
145
0.0
146
1.0
147
0.625
 71
     0
 72
     0
 73
     0
 74
     0
 75
     0
 76
     0
 77
     1
 78
     8
170
     0
171
     4
172
     1
173
     0
174
     0
175
     0
176
     0
177
     0
178
     0
270
     2
271
     4
272
     4
273
     8
274
     4
340
F
275
     0
280
     0
281
     0
282
     0
283
     1
284
     0
285
     0
286
     0
287
     3
288
     0
  0
DIMSTYLE
105
F0
102
{ACAD_REACTORS
330
10B
330
118
330
129
330
142
330
14F
330
15C
330
169
330
176
330
183
330
190
330
19F
330
1B3
102
}
100
AcDbSymbolTableRecord
100
AcDbDimStyleTableRecord
  2
寸法
 70
     0
  3

  4

  5

  6
_OPEN30
  7
_OPEN30
 40
1.0
 41
2.0
 42
1.0
 43
10.0
 44
1.0
 45
0.0
 46
0.0
 47
0.0
 48
0.0
140
3.0
141
2.0
142
0.0
143
25.4
144
1.0
145
0.0
146
1.0
147
1.0
 71
     0
 72
     0
 73
     0
 74
     0
 75
     0
 76
     0
 77
     1
 78
     8
170
     0
171
     2
172
     1
173
     1
174
     0
175
     0
176
     1
177
     1
178
     1
270
     2
271
     2
272
     4
273
     2
274
     2
340
F
275
     0
280
     0
281
     0
282
     0
283
     1
284
     0
285
     0
286
     0
287
     3
288
     0
  0
ENDTAB
  0
TABLE
  2
BLOCK_RECORD
  5
1
100
AcDbSymbolTable
 70
    15
  0
BLOCK_RECORD
  5
18
100
AcDbSymbolTableRecord
100
AcDbBlockTableRecord
  2
*MODEL_SPACE
  0
BLOCK_RECORD
  5
15
100
AcDbSymbolTableRecord
100
AcDbBlockTableRecord
  2
*PAPER_SPACE
  0
BLOCK_RECORD
  5
E7
100
AcDbSymbolTableRecord
100
AcDbBlockTableRecord
  2
_OPEN30
  0
BLOCK_RECORD
  5
F3
100
AcDbSymbolTableRecord
100
AcDbBlockTableRecord
  2
テンプレ-ト
  0
BLOCK_RECORD
  5
102
100
AcDbSymbolTableRecord
100
AcDbBlockTableRecord
  2
*D2
  0
BLOCK_RECORD
  5
10C
100
AcDbSymbolTableRecord
100
AcDbBlockTableRecord
  2
*D3
  0
BLOCK_RECORD
  5
11A
100
AcDbSymbolTableRecord
100
AcDbBlockTableRecord
  2
*D4
  0
BLOCK_RECORD
  5
136
100
AcDbSymbolTableRecord
100
AcDbBlockTableRecord
  2
*D5
  0
BLOCK_RECORD
  5
143
100
AcDbSymbolTableRecord
100
AcDbBlockTableRecord
  2
*D6
  0
BLOCK_RECORD
  5
150
100
AcDbSymbolTableRecord
100
AcDbBlockTableRecord
  2
*D7
  0
BLOCK_RECORD
  5
15D
100
AcDbSymbolTableRecord
100
AcDbBlockTableRecord
  2
*D8
  0
BLOCK_RECORD
  5
16A
100
AcDbSymbolTableRecord
100
AcDbBlockTableRecord
  2
*D9
  0
BLOCK_RECORD
  5
177
100
AcDbSymbolTableRecord
100
AcDbBlockTableRecord
  2
*D10
  0
BLOCK_RECORD
  5
184
100
AcDbSymbolTableRecord
100
AcDbBlockTableRecord
  2
*D11
  0
BLOCK_RECORD
  5
191
100
AcDbSymbolTableRecord
100
AcDbBlockTableRecord
  2
*D12
  0
BLOCK_RECORD
  5
1A1
100
AcDbSymbolTableRecord
100
AcDbBlockTableRecord
  2
*D13
  0
BLOCK_RECORD
  5
1C3
100
AcDbSymbolTableRecord
100
AcDbBlockTableRecord
  2
A$C483B0104
  0
ENDTAB
  0
ENDSEC
  0
SECTION
  2
BLOCKS
  0
BLOCK
  5
19
100
AcDbEntity
  8
0
100
AcDbBlockBegin
  2
*MODEL_SPACE
 70
     0
 10
0.0
 20
0.0
 30
0.0
  3
*MODEL_SPACE
  1

  0
ENDBLK
  5
1A
100
AcDbEntity
  8
0
100
AcDbBlockEnd
  0
BLOCK
  5
16
100
AcDbEntity
 67
     1
  8
0
100
AcDbBlockBegin
  2
*PAPER_SPACE
 70
     0
 10
0.0
 20
0.0
 30
0.0
  3
*PAPER_SPACE
  1

  0
ENDBLK
  5
17
100
AcDbEntity
 67
     1
  8
0
100
AcDbBlockEnd
  0
BLOCK
  5
EB
100
AcDbEntity
  8
0
100
AcDbBlockBegin
  2
_OPEN30
 70
     0
 10
0.0
 20
0.0
 30
0.0
  3
_OPEN30
  1

  0
LINE
  5
E8
100
AcDbEntity
  8
0
  6
BYBLOCK
 62
     0
100
AcDbLine
 10
-1.0
 20
0.267949
 30
0.0
 11
0.0
 21
0.0
 31
0.0
  0
LINE
  5
E9
100
AcDbEntity
  8
0
  6
BYBLOCK
 62
     0
100
AcDbLine
 10
0.0
 20
0.0
 30
0.0
 11
-1.0
 21
-0.267949
 31
0.0
  0
LINE
  5
EA
100
AcDbEntity
  8
0
  6
BYBLOCK
 62
     0
100
AcDbLine
 10
0.0
 20
0.0
 30
0.0
 11
-1.0
 21
0.0
 31
0.0
  0
ENDBLK
  5
EC
100
AcDbEntity
  8
0
100
AcDbBlockEnd
  0
BLOCK
  5
F4
100
AcDbEntity
  8
0
100
AcDbBlockBegin
  2
テンプレ-ト
 70
     0
 10
0.0
 20
0.0
 30
0.0
  3
テンプレ-ト
  1

  0
ENDBLK
  5
F5
100
AcDbEntity
  8
0
100
AcDbBlockEnd
  0
BLOCK
  5
103
100
AcDbEntity
  8
0
100
AcDbBlockBegin
  2
*D2
 70
     1
 10
0.0
 20
0.0
 30
0.0
  3
*D2
  1

  0
LINE
  5
104
100
AcDbEntity
  8
0
  6
BYBLOCK
 62
     1
100
AcDbLine
 10
-34.476559
 20
18.219064
 30
0.0
 11
-48.310673
 21
12.753195
 31
0.0
  0
MTEXT
  5
105
100
AcDbEntity
  8
0
  6
BYBLOCK
 62
     1
100
AcDbMText
 10
-40.045406
 20
18.706866
 30
0.0
 40
3.0
 41
0.0
 71
     5
 72
     1
  1
\A1;\U+220538
 11
0.93004
 21
0.367459
 31
0.0
  0
INSERT
  5
106
100
AcDbEntity
  8
0
  6
BYBLOCK
 62
     1
100
AcDbBlockReference
  2
_OPEN30
 10
-50.170752
 20
12.018276
 30
0.0
 41
2.0
 42
2.0
 43
2.0
 50
201.559013
  0
POINT
  5
108
100
AcDbEntity
  8
DEFPOINTS
  6
BYBLOCK
 62
     0
100
AcDbPoint
 10
-50.170752
 20
12.018276
 30
0.0
  0
POINT
  5
109
100
AcDbEntity
  8
DEFPOINTS
  6
BYBLOCK
 62
     0
100
AcDbPoint
 10
-14.829248
 20
25.981731
 30
0.0
  0
ENDBLK
  5
10A
100
AcDbEntity
  8
0
100
AcDbBlockEnd
  0
BLOCK
  5
10D
100
AcDbEntity
  8
0
100
AcDbBlockBegin
  2
*D3
 70
     1
 10
0.0
 20
0.0
 30
0.0
  3
*D3
  1

  0
LINE
  5
10E
100
AcDbEntity
  8
0
  6
BYBLOCK
 62
     1
100
AcDbLine
 10
-3.200001
 20
14.0
 30
0.0
 11
-15.765932
 21
14.0
 31
0.0
  0
LINE
  5
10F
100
AcDbEntity
  8
0
  6
BYBLOCK
 62
     1
100
AcDbLine
 10
-1.0
 20
0.0
 30
0.0
 11
-15.765932
 21
0.0
 31
0.0
  0
LINE
  5
110
100
AcDbEntity
  8
0
  6
BYBLOCK
 62
     1
100
AcDbLine
 10
-14.765932
 20
12.0
 30
0.0
 11
-14.765932
 21
2.0
 31
0.0
  0
INSERT
  5
111
100
AcDbEntity
  8
0
  6
BYBLOCK
 62
     1
100
AcDbBlockReference
  2
_OPEN30
 10
-14.765932
 20
14.0
 30
0.0
 41
2.0
 42
2.0
 43
2.0
 50
90.0
  0
INSERT
  5
112
100
AcDbEntity
  8
0
  6
BYBLOCK
 62
     1
100
AcDbBlockReference
  2
_OPEN30
 10
-14.765932
 20
0.0
 30
0.0
 41
2.0
 42
2.0
 43
2.0
 50
270.0
  0
MTEXT
  5
113
100
AcDbEntity
  8
0
  6
BYBLOCK
 62
     1
100
AcDbMText
 10
-17.265932
 20
7.0
 30
0.0
 40
3.0
 41
0.0
 71
     5
 72
     1
  1
\A1;14
 11
0.0
 21
1.0
 31
0.0
  0
POINT
  5
114
100
AcDbEntity
  8
DEFPOINTS
  6
BYBLOCK
 62
     0
100
AcDbPoint
 10
-2.200001
 20
14.0
 30
0.0
  0
POINT
  5
115
100
AcDbEntity
  8
DEFPOINTS
  6
BYBLOCK
 62
     0
100
AcDbPoint
 10
0.0
 20
0.0
 30
0.0
  0
POINT
  5
116
100
AcDbEntity
  8
DEFPOINTS
  6
BYBLOCK
 62
     0
100
AcDbPoint
 10
-14.765932
 20
0.0
 30
0.0
  0
ENDBLK
  5
117
100
AcDbEntity
  8
0
100
AcDbBlockEnd
  0
BLOCK
  5
12A
100
AcDbEntity
  8
0
100
AcDbBlockBegin
  2
*D4
 70
     1
 10
0.0
 20
0.0
 30
0.0
  3
*D4
  1

  0
LINE
  5
12B
100
AcDbEntity
  8
0
  6
BYBLOCK
 62
     1
100
AcDbLine
 10
-2.0
 20
0.0
 30
0.0
 11
-8.214822
 21
0.0
 31
0.0
  0
ARC
  5
12C
100
AcDbEntity
  8
0
  6
BYBLOCK
 62
     1
100
AcDbCircle
 10
0.0
 20
0.0
 30
0.0
 40
7.214822
100
AcDbArc
 50
120.934089
 51
164.065904
  0
INSERT
  5
12D
100
AcDbEntity
  8
0
  6
BYBLOCK
 62
     1
100
AcDbBlockReference
  2
_OPEN30
 10
-1.867333
 20
6.968983
 30
0.0
 41
2.0
 42
2.0
 43
2.0
 50
22.967041
  0
INSERT
  5
12E
100
AcDbEntity
  8
0
  6
BYBLOCK
 62
     1
100
AcDbBlockReference
  2
_OPEN30
 10
-7.214822
 20
0.0
 30
0.0
 41
2.0
 42
2.0
 43
2.0
 50
262.032952
  0
MTEXT
  5
12F
100
AcDbEntity
  8
0
  6
BYBLOCK
 62
     1
100
AcDbMText
 10
-7.150797
 20
6.576007
 30
0.0
 40
3.0
 41
0.0
 71
     5
 72
     1
  1
\A1;75°
 11
0.676905
 21
0.736071
 31
0.0
  0
POINT
  5
130
100
AcDbEntity
  8
DEFPOINTS
  6
BYBLOCK
 62
     0
100
AcDbPoint
 10
-6.538849
 20
3.049116
 30
0.0
  0
POINT
  5
131
100
AcDbEntity
  8
DEFPOINTS
  6
BYBLOCK
 62
     0
100
AcDbPoint
 10
0.0
 20
0.0
 30
0.0
  0
POINT
  5
132
100
AcDbEntity
  8
DEFPOINTS
  6
BYBLOCK
 62
     0
100
AcDbPoint
 10
-0.158879
 20
0.592945
 30
0.0
  0
POINT
  5
133
100
AcDbEntity
  8
DEFPOINTS
  6
BYBLOCK
 62
     0
100
AcDbPoint
 10
-2.210019
 20
8.247908
 30
0.0
  0
POINT
  5
134
100
AcDbEntity
  8
DEFPOINTS
  6
BYBLOCK
 62
     0
100
AcDbPoint
 10
-1.0
 20
0.0
 30
0.0
  0
ENDBLK
  5
135
100
AcDbEntity
  8
0
100
AcDbBlockEnd
  0
BLOCK
  5
137
100
AcDbEntity
  8
0
100
AcDbBlockBegin
  2
*D5
 70
     1
 10
0.0
 20
0.0
 30
0.0
  3
*D5
  1

  0
LINE
  5
138
100
AcDbEntity
  8
0
  6
BYBLOCK
 62
     1
100
AcDbLine
 10
43.0
 20
14.0
 30
0.0
 11
60.589284
 21
14.0
 31
0.0
  0
LINE
  5
139
100
AcDbEntity
  8
0
  6
BYBLOCK
 62
     1
100
AcDbLine
 10
43.0
 20
3.0
 30
0.0
 11
60.589284
 21
3.0
 31
0.0
  0
LINE
  5
13A
100
AcDbEntity
  8
0
  6
BYBLOCK
 62
     1
100
AcDbLine
 10
59.589284
 20
12.0
 30
0.0
 11
59.589284
 21
5.0
 31
0.0
  0
INSERT
  5
13B
100
AcDbEntity
  8
0
  6
BYBLOCK
 62
     1
100
AcDbBlockReference
  2
_OPEN30
 10
59.589284
 20
14.0
 30
0.0
 41
2.0
 42
2.0
 43
2.0
 50
90.0
  0
INSERT
  5
13C
100
AcDbEntity
  8
0
  6
BYBLOCK
 62
     1
100
AcDbBlockReference
  2
_OPEN30
 10
59.589284
 20
3.0
 30
0.0
 41
2.0
 42
2.0
 43
2.0
 50
270.0
  0
MTEXT
  5
13D
100
AcDbEntity
  8
0
  6
BYBLOCK
 62
     1
100
AcDbMText
 10
57.089284
 20
8.5
 30
0.0
 40
3.0
 41
0.0
 71
     5
 72
     1
  1
\A1;11
 11
0.0
 21
1.0
 31
0.0
  0
POINT
  5
13E
100
AcDbEntity
  8
DEFPOINTS
  6
BYBLOCK
 62
     0
100
AcDbPoint
 10
42.0
 20
14.0
 30
0.0
  0
POINT
  5
13F
100
AcDbEntity
  8
DEFPOINTS
  6
BYBLOCK
 62
     0
100
AcDbPoint
 10
42.0
 20
3.0
 30
0.0
  0
POINT
  5
140
100
AcDbEntity
  8
DEFPOINTS
  6
BYBLOCK
 62
     0
100
AcDbPoint
 10
59.589284
 20
3.0
 30
0.0
  0
ENDBLK
  5
141
100
AcDbEntity
  8
0
100
AcDbBlockEnd
  0
BLOCK
  5
144
100
AcDbEntity
  8
0
100
AcDbBlockBegin
  2
*D6
 70
     1
 10
0.0
 20
0.0
 30
0.0
  3
*D6
  1

  0
LINE
  5
145
100
AcDbEntity
  8
0
  6
BYBLOCK
 62
     1
100
AcDbLine
 10
50.0
 20
7.5
 30
0.0
 11
50.0
 21
-15.090081
 31
0.0
  0
LINE
  5
146
100
AcDbEntity
  8
0
  6
BYBLOCK
 62
     1
100
AcDbLine
 10
0.0
 20
-1.0
 30
0.0
 11
0.0
 21
-15.090081
 31
0.0
  0
LINE
  5
147
100
AcDbEntity
  8
0
  6
BYBLOCK
 62
     1
100
AcDbLine
 10
48.0
 20
-14.090081
 30
0.0
 11
2.0
 21
-14.090081
 31
0.0
  0
INSERT
  5
148
100
AcDbEntity
  8
0
  6
BYBLOCK
 62
     1
100
AcDbBlockReference
  2
_OPEN30
 10
50.0
 20
-14.090081
 30
0.0
 41
2.0
 42
2.0
 43
2.0
  0
INSERT
  5
149
100
AcDbEntity
  8
0
  6
BYBLOCK
 62
     1
100
AcDbBlockReference
  2
_OPEN30
 10
0.0
 20
-14.090081
 30
0.0
 41
2.0
 42
2.0
 43
2.0
 50
180.0
  0
MTEXT
  5
14A
100
AcDbEntity
  8
0
  6
BYBLOCK
 62
     1
100
AcDbMText
 10
25.0
 20
-11.590081
 30
0.0
 40
3.0
 41
0.0
 71
     5
 72
     1
  1
\A1;50
  0
POINT
  5
14B
100
AcDbEntity
  8
DEFPOINTS
  6
BYBLOCK
 62
     0
100
AcDbPoint
 10
50.0
 20
8.5
 30
0.0
  0
POINT
  5
14C
100
AcDbEntity
  8
DEFPOINTS
  6
BYBLOCK
 62
     0
100
AcDbPoint
 10
0.0
 20
0.0
 30
0.0
  0
POINT
  5
14D
100
AcDbEntity
  8
DEFPOINTS
  6
BYBLOCK
 62
     0
100
AcDbPoint
 10
0.0
 20
-14.090081
 30
0.0
  0
ENDBLK
  5
14E
100
AcDbEntity
  8
0
100
AcDbBlockEnd
  0
BLOCK
  5
151
100
AcDbEntity
  8
0
100
AcDbBlockBegin
  2
*D7
 70
     1
 10
0.0
 20
0.0
 30
0.0
  3
*D7
  1

  0
LINE
  5
152
100
AcDbEntity
  8
0
  6
BYBLOCK
 62
     1
100
AcDbLine
 10
50.0
 20
7.5
 30
0.0
 11
50.0
 21
-5.124474
 31
0.0
  0
LINE
  5
153
100
AcDbEntity
  8
0
  6
BYBLOCK
 62
     1
100
AcDbLine
 10
42.0
 20
2.0
 30
0.0
 11
42.0
 21
-5.124474
 31
0.0
  0
LINE
  5
154
100
AcDbEntity
  8
0
  6
BYBLOCK
 62
     1
100
AcDbLine
 10
48.0
 20
-4.124474
 30
0.0
 11
44.0
 21
-4.124474
 31
0.0
  0
INSERT
  5
155
100
AcDbEntity
  8
0
  6
BYBLOCK
 62
     1
100
AcDbBlockReference
  2
_OPEN30
 10
50.0
 20
-4.124474
 30
0.0
 41
2.0
 42
2.0
 43
2.0
  0
INSERT
  5
156
100
AcDbEntity
  8
0
  6
BYBLOCK
 62
     1
100
AcDbBlockReference
  2
_OPEN30
 10
42.0
 20
-4.124474
 30
0.0
 41
2.0
 42
2.0
 43
2.0
 50
180.0
  0
MTEXT
  5
157
100
AcDbEntity
  8
0
  6
BYBLOCK
 62
     1
100
AcDbMText
 10
46.0
 20
-1.624474
 30
0.0
 40
3.0
 41
0.0
 71
     5
 72
     1
  1
\A1;8
  0
POINT
  5
158
100
AcDbEntity
  8
DEFPOINTS
  6
BYBLOCK
 62
     0
100
AcDbPoint
 10
50.0
 20
8.5
 30
0.0
  0
POINT
  5
159
100
AcDbEntity
  8
DEFPOINTS
  6
BYBLOCK
 62
     0
100
AcDbPoint
 10
42.0
 20
3.0
 30
0.0
  0
POINT
  5
15A
100
AcDbEntity
  8
DEFPOINTS
  6
BYBLOCK
 62
     0
100
AcDbPoint
 10
42.0
 20
-4.124474
 30
0.0
  0
ENDBLK
  5
15B
100
AcDbEntity
  8
0
100
AcDbBlockEnd
  0
BLOCK
  5
15E
100
AcDbEntity
  8
0
100
AcDbBlockBegin
  2
*D8
 70
     1
 10
0.0
 20
0.0
 30
0.0
  3
*D8
  1

  0
LINE
  5
15F
100
AcDbEntity
  8
0
  6
BYBLOCK
 62
     1
100
AcDbLine
 10
27.0
 20
-38.5
 30
0.0
 11
25.0
 21
-38.5
 31
0.0
  0
LINE
  5
160
100
AcDbEntity
  8
0
  6
BYBLOCK
 62
     1
100
AcDbLine
 10
33.0
 20
-38.5
 30
0.0
 11
39.0
 21
-38.5
 31
0.0
  0
LINE
  5
161
100
AcDbEntity
  8
0
  6
BYBLOCK
 62
     1
100
AcDbLine
 10
29.0
 20
-38.5
 30
0.0
 11
31.0
 21
-38.5
 31
0.0
  0
INSERT
  5
162
100
AcDbEntity
  8
0
  6
BYBLOCK
 62
     1
100
AcDbBlockReference
  2
_OPEN30
 10
29.0
 20
-38.5
 30
0.0
 41
2.0
 42
2.0
 43
2.0
  0
INSERT
  5
163
100
AcDbEntity
  8
0
  6
BYBLOCK
 62
     1
100
AcDbBlockReference
  2
_OPEN30
 10
31.0
 20
-38.5
 30
0.0
 41
2.0
 42
2.0
 43
2.0
 50
180.0
  0
MTEXT
  5
164
100
AcDbEntity
  8
0
  6
BYBLOCK
 62
     1
100
AcDbMText
 10
37.0
 20
-36.0
 30
0.0
 40
3.0
 41
0.0
 71
     5
 72
     1
  1
\A1;2
  0
POINT
  5
165
100
AcDbEntity
  8
DEFPOINTS
  6
BYBLOCK
 62
     0
100
AcDbPoint
 10
29.0
 20
-38.5
 30
0.0
  0
POINT
  5
166
100
AcDbEntity
  8
DEFPOINTS
  6
BYBLOCK
 62
     0
100
AcDbPoint
 10
31.0
 20
-38.5
 30
0.0
  0
POINT
  5
167
100
AcDbEntity
  8
DEFPOINTS
  6
BYBLOCK
 62
     0
100
AcDbPoint
 10
31.0
 20
-38.5
 30
0.0
  0
ENDBLK
  5
168
100
AcDbEntity
  8
0
100
AcDbBlockEnd
  0
BLOCK
  5
16B
100
AcDbEntity
  8
0
100
AcDbBlockBegin
  2
*D9
 70
     1
 10
0.0
 20
0.0
 30
0.0
  3
*D9
  1

  0
LINE
  5
16C
100
AcDbEntity
  8
0
  6
BYBLOCK
 62
     1
100
AcDbLine
 10
50.0
 20
-45.5
 30
0.0
 11
50.0
 21
-27.18583
 31
0.0
  0
LINE
  5
16D
100
AcDbEntity
  8
0
  6
BYBLOCK
 62
     1
100
AcDbLine
 10
30.0
 20
-37.499998
 30
0.0
 11
30.0
 21
-27.18583
 31
0.0
  0
LINE
  5
16E
100
AcDbEntity
  8
0
  6
BYBLOCK
 62
     1
100
AcDbLine
 10
48.0
 20
-28.18583
 30
0.0
 11
32.0
 21
-28.18583
 31
0.0
  0
INSERT
  5
16F
100
AcDbEntity
  8
0
  6
BYBLOCK
 62
     1
100
AcDbBlockReference
  2
_OPEN30
 10
50.0
 20
-28.18583
 30
0.0
 41
2.0
 42
2.0
 43
2.0
  0
INSERT
  5
170
100
AcDbEntity
  8
0
  6
BYBLOCK
 62
     1
100
AcDbBlockReference
  2
_OPEN30
 10
30.0
 20
-28.18583
 30
0.0
 41
2.0
 42
2.0
 43
2.0
 50
180.0
  0
MTEXT
  5
171
100
AcDbEntity
  8
0
  6
BYBLOCK
 62
     1
100
AcDbMText
 10
40.0
 20
-25.68583
 30
0.0
 40
3.0
 41
0.0
 71
     5
 72
     1
  1
\A1;20
  0
POINT
  5
172
100
AcDbEntity
  8
DEFPOINTS
  6
BYBLOCK
 62
     0
100
AcDbPoint
 10
50.0
 20
-46.5
 30
0.0
  0
POINT
  5
173
100
AcDbEntity
  8
DEFPOINTS
  6
BYBLOCK
 62
     0
100
AcDbPoint
 10
30.0
 20
-38.499998
 30
0.0
  0
POINT
  5
174
100
AcDbEntity
  8
DEFPOINTS
  6
BYBLOCK
 62
     0
100
AcDbPoint
 10
30.0
 20
-28.18583
 30
0.0
  0
ENDBLK
  5
175
100
AcDbEntity
  8
0
100
AcDbBlockEnd
  0
BLOCK
  5
178
100
AcDbEntity
  8
0
100
AcDbBlockBegin
  2
*D10
 70
     1
 10
0.0
 20
0.0
 30
0.0
  3
*D10
  1

  0
LINE
  5
179
100
AcDbEntity
  8
0
  6
BYBLOCK
 62
     1
100
AcDbLine
 10
43.0
 20
-40.0
 30
0.0
 11
60.839655
 21
-40.0
 31
0.0
  0
LINE
  5
17A
100
AcDbEntity
  8
0
  6
BYBLOCK
 62
     1
100
AcDbLine
 10
43.0
 20
-52.5
 30
0.0
 11
60.839655
 21
-52.5
 31
0.0
  0
LINE
  5
17B
100
AcDbEntity
  8
0
  6
BYBLOCK
 62
     1
100
AcDbLine
 10
59.839655
 20
-42.0
 30
0.0
 11
59.839655
 21
-50.5
 31
0.0
  0
INSERT
  5
17C
100
AcDbEntity
  8
0
  6
BYBLOCK
 62
     1
100
AcDbBlockReference
  2
_OPEN30
 10
59.839655
 20
-40.0
 30
0.0
 41
2.0
 42
2.0
 43
2.0
 50
90.0
  0
INSERT
  5
17D
100
AcDbEntity
  8
0
  6
BYBLOCK
 62
     1
100
AcDbBlockReference
  2
_OPEN30
 10
59.839655
 20
-52.5
 30
0.0
 41
2.0
 42
2.0
 43
2.0
 50
270.0
  0
MTEXT
  5
17E
100
AcDbEntity
  8
0
  6
BYBLOCK
 62
     1
100
AcDbMText
 10
57.339655
 20
-46.25
 30
0.0
 40
3.0
 41
0.0
 71
     5
 72
     1
  1
\A1;12.5
 11
0.0
 21
1.0
 31
0.0
  0
POINT
  5
17F
100
AcDbEntity
  8
DEFPOINTS
  6
BYBLOCK
 62
     0
100
AcDbPoint
 10
42.0
 20
-40.0
 30
0.0
  0
POINT
  5
180
100
AcDbEntity
  8
DEFPOINTS
  6
BYBLOCK
 62
     0
100
AcDbPoint
 10
42.0
 20
-52.5
 30
0.0
  0
POINT
  5
181
100
AcDbEntity
  8
DEFPOINTS
  6
BYBLOCK
 62
     0
100
AcDbPoint
 10
59.839655
 20
-52.5
 30
0.0
  0
ENDBLK
  5
182
100
AcDbEntity
  8
0
100
AcDbBlockEnd
  0
BLOCK
  5
185
100
AcDbEntity
  8
0
100
AcDbBlockBegin
  2
*D11
 70
     1
 10
0.0
 20
0.0
 30
0.0
  3
*D11
  1

  0
LINE
  5
186
100
AcDbEntity
  8
0
  6
BYBLOCK
 62
     1
100
AcDbLine
 10
-1.0
 20
-42.5
 30
0.0
 11
-16.558915
 21
-42.5
 31
0.0
  0
LINE
  5
187
100
AcDbEntity
  8
0
  6
BYBLOCK
 62
     1
100
AcDbLine
 10
-3.237278
 20
-52.5
 30
0.0
 11
-16.558915
 21
-52.5
 31
0.0
  0
LINE
  5
188
100
AcDbEntity
  8
0
  6
BYBLOCK
 62
     1
100
AcDbLine
 10
-15.558915
 20
-44.5
 30
0.0
 11
-15.558915
 21
-50.5
 31
0.0
  0
INSERT
  5
189
100
AcDbEntity
  8
0
  6
BYBLOCK
 62
     1
100
AcDbBlockReference
  2
_OPEN30
 10
-15.558915
 20
-42.5
 30
0.0
 41
2.0
 42
2.0
 43
2.0
 50
90.0
  0
INSERT
  5
18A
100
AcDbEntity
  8
0
  6
BYBLOCK
 62
     1
100
AcDbBlockReference
  2
_OPEN30
 10
-15.558915
 20
-52.5
 30
0.0
 41
2.0
 42
2.0
 43
2.0
 50
270.0
  0
MTEXT
  5
18B
100
AcDbEntity
  8
0
  6
BYBLOCK
 62
     1
100
AcDbMText
 10
-18.058915
 20
-47.5
 30
0.0
 40
3.0
 41
0.0
 71
     5
 72
     1
  1
\A1;10
 11
0.0
 21
1.0
 31
0.0
  0
POINT
  5
18C
100
AcDbEntity
  8
DEFPOINTS
  6
BYBLOCK
 62
     0
100
AcDbPoint
 10
0.0
 20
-42.5
 30
0.0
  0
POINT
  5
18D
100
AcDbEntity
  8
DEFPOINTS
  6
BYBLOCK
 62
     0
100
AcDbPoint
 10
-2.237278
 20
-52.5
 30
0.0
  0
POINT
  5
18E
100
AcDbEntity
  8
DEFPOINTS
  6
BYBLOCK
 62
     0
100
AcDbPoint
 10
-15.558915
 20
-52.5
 30
0.0
  0
ENDBLK
  5
18F
100
AcDbEntity
  8
0
100
AcDbBlockEnd
  0
BLOCK
  5
192
100
AcDbEntity
  8
0
100
AcDbBlockBegin
  2
*D12
 70
     1
 10
0.0
 20
0.0
 30
0.0
  3
*D12
  1

  0
LINE
  5
193
100
AcDbEntity
  8
0
  6
BYBLOCK
 62
     1
100
AcDbLine
 10
102.0
 20
-47.5
 30
0.0
 11
116.542926
 21
-47.5
 31
0.0
  0
LINE
  5
194
100
AcDbEntity
  8
0
  6
BYBLOCK
 62
     1
100
AcDbLine
 10
91.999992
 20
-52.499996
 30
0.0
 11
116.542926
 21
-52.499996
 31
0.0
  0
LINE
  5
195
100
AcDbEntity
  8
0
  6
BYBLOCK
 62
     1
100
AcDbLine
 10
115.542926
 20
-45.5
 30
0.0
 11
115.542926
 21
-43.5
 31
0.0
  0
LINE
  5
196
100
AcDbEntity
  8
0
  6
BYBLOCK
 62
     1
100
AcDbLine
 10
115.542926
 20
-54.499996
 30
0.0
 11
115.542926
 21
-56.499996
 31
0.0
  0
LINE
  5
197
100
AcDbEntity
  8
0
  6
BYBLOCK
 62
     1
100
AcDbLine
 10
115.542926
 20
-47.5
 30
0.0
 11
115.542926
 21
-52.499996
 31
0.0
  0
INSERT
  5
198
100
AcDbEntity
  8
0
  6
BYBLOCK
 62
     1
100
AcDbBlockReference
  2
_OPEN30
 10
115.542926
 20
-47.5
 30
0.0
 41
2.0
 42
2.0
 43
2.0
 50
270.0
  0
INSERT
  5
199
100
AcDbEntity
  8
0
  6
BYBLOCK
 62
     1
100
AcDbBlockReference
  2
_OPEN30
 10
115.542926
 20
-52.499996
 30
0.0
 41
2.0
 42
2.0
 43
2.0
 50
90.0
  0
MTEXT
  5
19A
100
AcDbEntity
  8
0
  6
BYBLOCK
 62
     1
100
AcDbMText
 10
113.042926
 20
-49.999998
 30
0.0
 40
3.0
 41
0.0
 71
     5
 72
     1
  1
\A1;5
 11
0.0
 21
1.0
 31
0.0
  0
POINT
  5
19B
100
AcDbEntity
  8
DEFPOINTS
  6
BYBLOCK
 62
     0
100
AcDbPoint
 10
101.0
 20
-47.5
 30
0.0
  0
POINT
  5
19C
100
AcDbEntity
  8
DEFPOINTS
  6
BYBLOCK
 62
     0
100
AcDbPoint
 10
90.999992
 20
-52.499996
 30
0.0
  0
POINT
  5
19D
100
AcDbEntity
  8
DEFPOINTS
  6
BYBLOCK
 62
     0
100
AcDbPoint
 10
115.542926
 20
-52.499996
 30
0.0
  0
ENDBLK
  5
19E
100
AcDbEntity
  8
0
100
AcDbBlockEnd
  0
BLOCK
  5
1B4
100
AcDbEntity
  8
0
100
AcDbBlockBegin
  2
*D13
 70
     1
 10
0.0
 20
0.0
 30
0.0
  3
*D13
  1

  0
LINE
  5
1B5
100
AcDbEntity
  8
0
  6
BYBLOCK
 62
     1
100
AcDbLine
 10
104.107623
 20
-48.631082
 30
0.0
 11
108.238083
 21
-50.134447
 31
0.0
  0
LINE
  5
1B6
100
AcDbEntity
  8
0
  6
BYBLOCK
 62
     1
100
AcDbLine
 10
103.0
 20
-47.5
 30
0.0
 11
108.702608
 21
-47.5
 31
0.0
  0
ARC
  5
1B7
100
AcDbEntity
  8
0
  6
BYBLOCK
 62
     1
100
AcDbCircle
 10
101.0
 20
-47.5
 30
0.0
 40
6.702608
100
AcDbArc
 50
305.678726
 51
322.83936
  0
ARC
  5
1B8
100
AcDbEntity
  8
0
  6
BYBLOCK
 62
     1
100
AcDbCircle
 10
101.0
 20
-47.5
 30
0.0
 40
6.702608
100
AcDbArc
 50
17.160634
 51
34.321268
  0
ARC
  5
1B9
100
AcDbEntity
  8
0
  6
BYBLOCK
 62
     1
100
AcDbCircle
 10
101.0
 20
-47.5
 30
0.0
 40
6.702608
100
AcDbArc
 50
339.999994
 51
0.0
  0
INSERT
  5
1BA
100
AcDbEntity
  8
0
  6
BYBLOCK
 62
     1
100
AcDbBlockReference
  2
_OPEN30
 10
107.298391
 20
-49.792427
 30
0.0
 41
2.0
 42
2.0
 43
2.0
 50
61.419677
  0
INSERT
  5
1BB
100
AcDbEntity
  8
0
  6
BYBLOCK
 62
     1
100
AcDbBlockReference
  2
_OPEN30
 10
107.702608
 20
-47.5
 30
0.0
 41
2.0
 42
2.0
 43
2.0
 50
278.580317
  0
MTEXT
  5
1BC
100
AcDbEntity
  8
0
  6
BYBLOCK
 62
     1
100
AcDbMText
 10
109.727978
 20
-44.582743
 30
0.0
 40
3.0
 41
0.0
 71
     5
 72
     1
  1
\A1;20°
 11
0.317003
 21
-0.948424
 31
0.0
  0
POINT
  5
1BD
100
AcDbEntity
  8
DEFPOINTS
  6
BYBLOCK
 62
     0
100
AcDbPoint
 10
107.521938
 20
-49.045728
 30
0.0
  0
POINT
  5
1BE
100
AcDbEntity
  8
DEFPOINTS
  6
BYBLOCK
 62
     0
100
AcDbPoint
 10
101.0
 20
-47.5
 30
0.0
  0
POINT
  5
1BF
100
AcDbEntity
  8
DEFPOINTS
  6
BYBLOCK
 62
     0
100
AcDbPoint
 10
87.894966
 20
-42.730156
 30
0.0
  0
POINT
  5
1C0
100
AcDbEntity
  8
DEFPOINTS
  6
BYBLOCK
 62
     0
100
AcDbPoint
 10
103.16793
 20
-48.289062
 30
0.0
  0
POINT
  5
1C1
100
AcDbEntity
  8
DEFPOINTS
  6
BYBLOCK
 62
     0
100
AcDbPoint
 10
102.0
 20
-47.5
 30
0.0
  0
ENDBLK
  5
1C2
100
AcDbEntity
  8
0
100
AcDbBlockEnd
  0
BLOCK
  5
1CA
100
AcDbEntity
  8
0
 62
     1
100
AcDbBlockBegin
  2
A$C483B0104
 70
     0
 10
0.0
 20
0.0
 30
0.0
  3
A$C483B0104
  1

  0
TEXT
  5
1C4
100
AcDbEntity
  8
寸法
  6
CONTINUOUS
100
AcDbText
 10
12.244577
 20
0.0
 30
0.0
 40
3.0
  1
+5°
100
AcDbText
  0
LINE
  5
1C5
100
AcDbEntity
  8
寸法
  6
CONTINUOUS
 62
     1
100
AcDbLine
 10
12.337881
 20
5.006003
 30
0.0
 11
4.608707
 21
5.006003
 31
0.0
  0
LINE
  5
1C6
100
AcDbEntity
  8
寸法
  6
CONTINUOUS
 62
     1
100
AcDbLine
 10
4.608707
 20
12.988109
 30
0.0
 11
4.608707
 21
5.006003
 31
0.0
  0
INSERT
  5
1C7
100
AcDbEntity
  8
寸法
  6
CONTINUOUS
 62
     1
100
AcDbBlockReference
  2
_OPEN30
 10
4.608707
 20
14.988109
 30
0.0
 41
2.0
 42
2.0
 43
2.0
 50
90.0
  0
TEXT
  5
1C8
100
AcDbEntity
  8
寸法
  6
CONTINUOUS
100
AcDbText
 10
0.0
 20
12.495593
 30
0.0
 40
3.0
  1
0°
100
AcDbText
  0
INSERT
  5
1C9
100
AcDbEntity
  8
寸法
  6
CONTINUOUS
 62
     1
100
AcDbBlockReference
  2
_OPEN30
 10
14.337881
 20
5.006003
 30
0.0
 41
2.0
 42
2.0
 43
2.0
  0
ENDBLK
  5
1CB
100
AcDbEntity
  8
0
 62
     1
100
AcDbBlockEnd
  0
ENDSEC
  0
SECTION
  2
ENTITIES
  0
POINT
  5
24
100
AcDbEntity
  8
0
  6
CONTINUOUS
 62
     7
100
AcDbPoint
 10
-32.5
 20
0.0
 30
0.0
  0
POINT
  5
25
100
AcDbEntity
  8
0
  6
CONTINUOUS
 62
     7
100
AcDbPoint
 10
0.0
 20
0.0
 30
0.0
  0
POINT
  5
26
100
AcDbEntity
  8
0
  6
CONTINUOUS
 62
     7
100
AcDbPoint
 10
81.064012
 20
-48.456475
 30
0.0
  0
POINT
  5
27
100
AcDbEntity
  8
0
  6
CONTINUOUS
 62
     7
100
AcDbPoint
 10
0.0
 20
-38.456475
 30
0.0
  0
LINE
  5
28
100
AcDbEntity
  8
0
  6
CONTINUOUS
 62
     7
100
AcDbLine
 10
8.475878
 20
2.078402
 30
0.0
 11
0.820917
 21
0.027259
 31
0.0
  0
LINE
  5
29
100
AcDbEntity
  8
0
  6
CONTINUOUS
 62
     7
100
AcDbLine
 10
6.010628
 20
11.278846
 30
0.0
 11
-1.644334
 21
9.227703
 31
0.0
  0
LINE
  5
2A
100
AcDbEntity
  8
0
  6
CONTINUOUS
 62
     7
100
AcDbLine
 10
9.041564
 20
3.058198
 30
0.0
 11
6.990424
 21
10.713161
 31
0.0
  0
LINE
  5
2B
100
AcDbEntity
  8
0
  6
CONTINUOUS
 62
     7
100
AcDbLine
 10
42.0
 20
14.0
 30
0.0
 11
42.0
 21
3.0
 31
0.0
  0
LINE
  5
2C
100
AcDbEntity
  8
0
  6
CONTINUOUS
 62
     7
100
AcDbLine
 10
11.1
 20
3.0
 30
0.0
 11
42.0
 21
3.0
 31
0.0
  0
LINE
  5
2D
100
AcDbEntity
  8
0
  6
CONTINUOUS
 62
     7
100
AcDbLine
 10
50.0
 20
10.5
 30
0.0
 11
50.0
 21
6.5
 31
0.0
  0
LINE
  5
2E
100
AcDbEntity
  8
0
  6
CENTER
 62
     1
100
AcDbLine
 10
39.920193
 20
8.5
 30
0.0
 11
51.930676
 21
8.5
 31
0.0
  0
LINE
  5
2F
100
AcDbEntity
  8
0
  6
CONTINUOUS
 62
     7
100
AcDbLine
 10
45.0
 20
12.5
 30
0.0
 11
45.0
 21
4.5
 31
0.0
  0
LINE
  5
30
100
AcDbEntity
  8
0
  6
CONTINUOUS
 62
     7
100
AcDbLine
 10
42.0
 20
6.0
 30
0.0
 11
45.0
 21
6.0
 31
0.0
  0
LINE
  5
31
100
AcDbEntity
  8
0
  6
CONTINUOUS
 62
     7
100
AcDbLine
 10
42.0
 20
11.0
 30
0.0
 11
45.0
 21
11.0
 31
0.0
  0
LINE
  5
32
100
AcDbEntity
  8
0
  6
CONTINUOUS
 62
     7
100
AcDbLine
 10
47.500004
 20
13.0
 30
0.0
 11
50.000004
 21
10.5
 31
0.0
  0
LINE
  5
33
100
AcDbEntity
  8
0
  6
CONTINUOUS
 62
     7
100
AcDbLine
 10
47.5
 20
4.0
 30
0.0
 11
50.0
 21
6.5
 31
0.0
  0
LINE
  5
34
100
AcDbEntity
  8
0
  6
CONTINUOUS
 62
     7
100
AcDbLine
 10
45.5
 20
4.0
 30
0.0
 11
47.5
 21
4.0
 31
0.0
  0
LINE
  5
35
100
AcDbEntity
  8
0
  6
CONTINUOUS
 62
     7
100
AcDbLine
 10
45.5
 20
13.0
 30
0.0
 11
47.5
 21
13.0
 31
0.0
  0
LINE
  5
36
100
AcDbEntity
  8
0
  6
CONTINUOUS
 62
     7
100
AcDbLine
 10
42.0
 20
10.7295
 30
0.0
 11
45.0
 21
10.7295
 31
0.0
  0
LINE
  5
37
100
AcDbEntity
  8
0
  6
CONTINUOUS
 62
     7
100
AcDbLine
 10
42.0
 20
6.2705
 30
0.0
 11
45.0
 21
6.2705
 31
0.0
  0
LINE
  5
38
100
AcDbEntity
  8
0
  6
CONTINUOUS
 62
     7
100
AcDbLine
 10
45.5
 20
12.999997
 30
0.0
 11
45.0
 21
12.499999
 31
0.0
  0
LINE
  5
39
100
AcDbEntity
  8
0
  6
CONTINUOUS
 62
     7
100
AcDbLine
 10
45.000004
 20
4.5
 30
0.0
 11
45.5
 21
4.000001
 31
0.0
  0
LINE
  5
3A
100
AcDbEntity
  8
0
  6
CONTINUOUS
 62
     7
100
AcDbLine
 10
45.5
 20
13.0
 30
0.0
 11
45.5
 21
4.0
 31
0.0
  0
LINE
  5
3B
100
AcDbEntity
  8
0
  6
CONTINUOUS
 62
     7
100
AcDbLine
 10
47.5
 20
13.0
 30
0.0
 11
47.5
 21
4.0
 31
0.0
  0
LINE
  5
3C
100
AcDbEntity
  8
0
  6
CONTINUOUS
 62
     7
100
AcDbLine
 10
2.200004
 20
-35.956475
 30
0.0
 11
42.0
 21
-35.956475
 31
0.0
  0
LINE
  5
3D
100
AcDbEntity
  8
0
  6
CONTINUOUS
 62
     7
100
AcDbLine
 10
-2.200001
 20
-48.456475
 30
0.0
 11
42.0
 21
-48.456475
 31
0.0
  0
LINE
  5
3E
100
AcDbEntity
  8
0
  6
CONTINUOUS
 62
     7
100
AcDbLine
 10
42.0
 20
-35.956475
 30
0.0
 11
42.0
 21
-48.456475
 31
0.0
  0
LINE
  5
3F
100
AcDbEntity
  8
0
  6
CONTINUOUS
 62
     7
100
AcDbLine
 10
11.1
 20
-36.889817
 30
0.0
 11
11.1
 21
-41.786145
 31
0.0
  0
LINE
  5
40
100
AcDbEntity
  8
0
  6
CONTINUOUS
 62
     7
100
AcDbLine
 10
-2.200001
 20
14.0
 30
0.0
 11
42.0
 21
14.0
 31
0.0
  0
LINE
  5
41
100
AcDbEntity
  8
0
  6
CONTINUOUS
 62
     7
100
AcDbLine
 10
50.0
 20
-40.456475
 30
0.0
 11
50.0
 21
-44.456475
 31
0.0
  0
LINE
  5
42
100
AcDbEntity
  8
0
  6
CENTER
 62
     1
100
AcDbLine
 10
39.920193
 20
-42.456475
 30
0.0
 11
51.930676
 21
-42.456475
 31
0.0
  0
LINE
  5
43
100
AcDbEntity
  8
0
  6
CONTINUOUS
 62
     7
100
AcDbLine
 10
45.0
 20
-38.456475
 30
0.0
 11
45.0
 21
-46.456475
 31
0.0
  0
LINE
  5
44
100
AcDbEntity
  8
0
  6
CONTINUOUS
 62
     7
100
AcDbLine
 10
42.0
 20
-44.956475
 30
0.0
 11
45.0
 21
-44.956475
 31
0.0
  0
LINE
  5
45
100
AcDbEntity
  8
0
  6
CONTINUOUS
 62
     7
100
AcDbLine
 10
42.0
 20
-39.956475
 30
0.0
 11
45.0
 21
-39.956475
 31
0.0
  0
LINE
  5
46
100
AcDbEntity
  8
0
  6
CONTINUOUS
 62
     7
100
AcDbLine
 10
47.5
 20
-37.956475
 30
0.0
 11
49.999996
 21
-40.456471
 31
0.0
  0
LINE
  5
47
100
AcDbEntity
  8
0
  6
CONTINUOUS
 62
     7
100
AcDbLine
 10
47.5
 20
-46.956475
 30
0.0
 11
50.0
 21
-44.456475
 31
0.0
  0
LINE
  5
48
100
AcDbEntity
  8
0
  6
CONTINUOUS
 62
     7
100
AcDbLine
 10
45.5
 20
-46.956475
 30
0.0
 11
47.5
 21
-46.956475
 31
0.0
  0
LINE
  5
49
100
AcDbEntity
  8
0
  6
CONTINUOUS
 62
     7
100
AcDbLine
 10
45.5
 20
-37.956475
 30
0.0
 11
47.5
 21
-37.956475
 31
0.0
  0
LINE
  5
4A
100
AcDbEntity
  8
0
  6
CONTINUOUS
 62
     7
100
AcDbLine
 10
42.0
 20
-40.226975
 30
0.0
 11
45.0
 21
-40.226975
 31
0.0
  0
LINE
  5
4B
100
AcDbEntity
  8
0
  6
CONTINUOUS
 62
     7
100
AcDbLine
 10
42.0
 20
-44.685975
 30
0.0
 11
45.0
 21
-44.685975
 31
0.0
  0
LINE
  5
4C
100
AcDbEntity
  8
0
  6
CONTINUOUS
 62
     7
100
AcDbLine
 10
45.5
 20
-37.956475
 30
0.0
 11
45.0
 21
-38.456479
 31
0.0
  0
LINE
  5
4D
100
AcDbEntity
  8
0
  6
CONTINUOUS
 62
     7
100
AcDbLine
 10
45.000004
 20
-46.456475
 30
0.0
 11
45.500004
 21
-46.956475
 31
0.0
  0
LINE
  5
4E
100
AcDbEntity
  8
0
  6
CONTINUOUS
 62
     7
100
AcDbLine
 10
45.5
 20
-37.956475
 30
0.0
 11
45.5
 21
-46.956475
 31
0.0
  0
LINE
  5
4F
100
AcDbEntity
  8
0
  6
CONTINUOUS
 62
     7
100
AcDbLine
 10
47.5
 20
-37.956475
 30
0.0
 11
47.5
 21
-46.956475
 31
0.0
  0
LINE
  5
50
100
AcDbEntity
  8
0
  6
CONTINUOUS
 62
     7
100
AcDbLine
 10
8.944206
 20
2.422357
 30
0.0
 11
11.1
 21
3.0
 31
0.0
  0
LINE
  5
51
100
AcDbEntity
  8
0
  6
CONTINUOUS
 62
     7
100
AcDbLine
 10
-2.200001
 20
14.0
 30
0.0
 11
-2.200001
 21
8.696322
 31
0.0
  0
LINE
  5
52
100
AcDbEntity
  8
0
  6
CONTINUOUS
 62
     7
100
AcDbLine
 10
11.1
 20
-36.956475
 30
0.0
 11
24.580143
 21
-36.956475
 31
0.0
  0
LINE
  5
53
100
AcDbEntity
  8
0
  6
CONTINUOUS
 62
     7
100
AcDbLine
 10
4.4
 20
-41.191533
 30
0.0
 11
4.4
 21
-43.456475
 31
0.0
  0
LINE
  5
54
100
AcDbEntity
  8
0
  6
CONTINUOUS
 62
     7
100
AcDbLine
 10
0.65334
 20
-43.456475
 30
0.0
 11
4.4
 21
-43.456475
 31
0.0
  0
LINE
  5
55
100
AcDbEntity
  8
0
  6
CONTINUOUS
 62
     7
100
AcDbLine
 10
4.400001
 20
-43.456475
 30
0.0
 11
9.953063
 21
-48.456475
 31
0.0
  0
LINE
  5
56
100
AcDbEntity
  8
0
  6
CONTINUOUS
 62
     7
100
AcDbLine
 10
2.200002
 20
13.0
 30
0.0
 11
42.0
 21
13.0
 31
0.0
  0
LINE
  5
57
100
AcDbEntity
  8
0
  6
CONTINUOUS
 62
     7
100
AcDbLine
 10
-2.237278
 20
-36.422852
 30
0.0
 11
2.200004
 21
-35.956475
 31
0.0
  0
LINE
  5
58
100
AcDbEntity
  8
0
  6
CONTINUOUS
 62
     7
100
AcDbLine
 10
-2.200001
 20
13.590047
 30
0.0
 11
2.200002
 21
13.0
 31
0.0
  0
LINE
  5
59
100
AcDbEntity
  8
0
  6
CONTINUOUS
 62
     7
100
AcDbLine
 10
11.1
 20
3.0
 30
0.0
 11
18.215368
 21
4.0
 31
0.0
  0
LINE
  5
5A
100
AcDbEntity
  8
0
  6
CONTINUOUS
 62
     7
100
AcDbLine
 10
18.215368
 20
4.0
 30
0.0
 11
25.683374
 21
4.0
 31
0.0
  0
LINE
  5
5B
100
AcDbEntity
  8
0
  6
CONTINUOUS
 62
     7
100
AcDbLine
 10
2.200002
 20
12.999999
 30
0.0
 11
5.504227
 21
11.143156
 31
0.0
  0
LINE
  5
5C
100
AcDbEntity
  8
0
  6
CONTINUOUS
 62
     7
100
AcDbLine
 10
9.235489
 20
9.046334
 30
0.0
 11
18.215368
 21
3.999999
 31
0.0
  0
LINE
  5
5D
100
AcDbEntity
  8
0
  6
CENTER
 62
     1
100
AcDbLine
 10
10.0
 20
-40.456475
 30
0.0
 11
10.0
 21
-46.456475
 31
0.0
  0
LINE
  5
5E
100
AcDbEntity
  8
0
  6
CENTER
 62
     1
100
AcDbLine
 10
7.0
 20
-43.456475
 30
0.0
 11
13.0
 21
-43.456475
 31
0.0
  0
LINE
  5
5F
100
AcDbEntity
  8
0
  6
CONTINUOUS
 62
     7
100
AcDbLine
 10
11.1
 20
-45.126805
 30
0.0
 11
11.1
 21
-48.456475
 31
0.0
  0
LINE
  5
60
100
AcDbEntity
  8
0
  6
CONTINUOUS
 62
     7
100
AcDbLine
 10
29.0
 20
-45.039735
 30
0.0
 11
31.0
 21
-45.039735
 31
0.0
  0
LINE
  5
61
100
AcDbEntity
  8
0
  6
CENTER
 62
     1
100
AcDbLine
 10
31.0
 20
-34.456475
 30
0.0
 11
31.0
 21
-46.539735
 31
0.0
  0
LINE
  5
62
100
AcDbEntity
  8
0
  6
CENTER
 62
     1
100
AcDbLine
 10
29.0
 20
-34.456475
 30
0.0
 11
29.0
 21
-46.539735
 31
0.0
  0
LINE
  5
63
100
AcDbEntity
  8
0
  6
CONTINUOUS
 62
     7
100
AcDbLine
 10
35.419857
 20
-36.956475
 30
0.0
 11
42.0
 21
-36.956475
 31
0.0
  0
LINE
  5
64
100
AcDbEntity
  8
0
  6
CONTINUOUS
 62
     7
100
AcDbLine
 10
29.0
 20
-38.527528
 30
0.0
 11
31.0
 21
-38.527528
 31
0.0
  0
LINE
  5
65
100
AcDbEntity
  8
0
  6
CONTINUOUS
 62
     7
100
AcDbLine
 10
29.0
 20
-39.73185
 30
0.0
 11
31.0
 21
-39.73185
 31
0.0
  0
LINE
  5
66
100
AcDbEntity
  8
0
  6
CONTINUOUS
 62
     7
100
AcDbLine
 10
25.412714
 20
8.743879
 30
0.0
 11
34.587288
 21
8.743879
 31
0.0
  0
LINE
  5
67
100
AcDbEntity
  8
0
  6
CONTINUOUS
 62
     7
100
AcDbLine
 10
34.316624
 20
4.0
 30
0.0
 11
42.0
 21
4.0
 31
0.0
  0
LINE
  5
68
100
AcDbEntity
  8
0
  6
CENTER
 62
     1
100
AcDbLine
 10
30.0
 20
10.243879
 30
0.0
 11
30.0
 21
1.5
 31
0.0
  0
LINE
  5
69
100
AcDbEntity
  8
0
  6
CONTINUOUS
 62
     7
100
AcDbLine
 10
-0.158879
 20
0.592945
 30
0.0
 11
-2.210019
 21
8.247908
 31
0.0
  0
LINE
  5
6A
100
AcDbEntity
  8
0
  6
CENTER
 62
     1
100
AcDbLine
 10
10.0
 20
18.278069
 30
0.0
 11
10.0
 21
-4.67067
 31
0.0
  0
LINE
  5
6B
100
AcDbEntity
  8
0
  6
CONTINUOUS
 62
     7
100
AcDbLine
 10
0.0
 20
-38.456475
 30
0.0
 11
11.1
 21
-37.289819
 31
0.0
  0
LINE
  5
6C
100
AcDbEntity
  8
0
  6
CONTINUOUS
 62
     7
100
AcDbLine
 10
0.0
 20
-38.456475
 30
0.0
 11
0.3324
 21
-41.619057
 31
0.0
  0
LINE
  5
6D
100
AcDbEntity
  8
0
  6
CONTINUOUS
 62
     7
100
AcDbLine
 10
0.3324
 20
-41.619057
 30
0.0
 11
9.401223
 21
-40.665883
 31
0.0
  0
LINE
  5
6E
100
AcDbEntity
  8
0
  6
CONTINUOUS
 62
     7
100
AcDbLine
 10
9.068823
 20
-37.503304
 30
0.0
 11
9.401223
 21
-40.665883
 31
0.0
  0
LINE
  5
6F
100
AcDbEntity
  8
0
  6
CONTINUOUS
 62
     7
100
AcDbLine
 10
-2.237281
 20
-37.164784
 30
0.0
 11
-0.000002
 21
-38.456479
 31
0.0
  0
LINE
  5
70
100
AcDbEntity
  8
0
  6
CONTINUOUS
 62
     7
100
AcDbLine
 10
-2.237279
 20
-40.135453
 30
0.0
 11
0.332398
 21
-41.619057
 31
0.0
  0
LINE
  5
71
100
AcDbEntity
  8
0
  6
CONTINUOUS
 62
     7
100
AcDbLine
 10
-2.237278
 20
-36.422852
 30
0.0
 11
-2.237278
 21
-48.456475
 31
0.0
  0
LINE
  5
72
100
AcDbEntity
  8
0
  6
CONTINUOUS
 62
     7
100
AcDbLine
 10
-2.237279
 20
-37.164784
 30
0.0
 11
6.831544
 21
-36.211613
 31
0.0
  0
LINE
  5
73
100
AcDbEntity
  8
0
  6
CONTINUOUS
 62
     7
100
AcDbLine
 10
6.831542
 20
-36.211613
 30
0.0
 11
9.068821
 21
-37.503304
 31
0.0
  0
LINE
  5
74
100
AcDbEntity
  8
0
  6
CENTER
 62
     1
100
AcDbLine
 10
3.02821
 20
8.77273
 30
0.0
 11
3.02821
 21
2.972729
 31
0.0
  0
LINE
  5
75
100
AcDbEntity
  8
0
  6
CENTER
 62
     1
100
AcDbLine
 10
0.12821
 20
5.87273
 30
0.0
 11
5.92821
 21
5.87273
 31
0.0
  0
LINE
  5
76
100
AcDbEntity
  8
0
  6
CONTINUOUS
 62
     7
100
AcDbLine
 10
29.0
 20
-36.883065
 30
0.0
 11
31.0
 21
-36.883065
 31
0.0
  0
LINE
  5
77
100
AcDbEntity
  8
0
  6
CONTINUOUS
 62
     7
100
AcDbLine
 10
11.1
 20
-47.456475
 30
0.0
 11
42.0
 21
-47.456475
 31
0.0
  0
LINE
  5
78
100
AcDbEntity
  8
0
  6
CONTINUOUS
 62
     7
100
AcDbLine
 10
1.534975
 20
-48.456475
 30
0.0
 11
0.329008
 21
-41.617097
 31
0.0
  0
LINE
  5
79
100
AcDbEntity
  8
0
  6
CONTINUOUS
 62
     7
100
AcDbLine
 10
-41.5
 20
14.0
 30
0.0
 11
-31.0
 21
14.0
 31
0.0
  0
LINE
  5
7A
100
AcDbEntity
  8
0
  6
CONTINUOUS
 62
     7
100
AcDbLine
 10
-30.0
 20
13.0
 30
0.0
 11
-30.0
 21
11.265598
 31
0.0
  0
LINE
  5
7B
100
AcDbEntity
  8
0
  6
CONTINUOUS
 62
     7
100
AcDbLine
 10
-42.5
 20
13.000001
 30
0.0
 11
-42.5
 21
2.819852
 31
0.0
  0
LINE
  5
7C
100
AcDbEntity
  8
0
  6
CONTINUOUS
 62
     7
100
AcDbLine
 10
-31.0
 20
14.0
 30
0.0
 11
-30.0
 21
13.0
 31
0.0
  0
LINE
  5
7D
100
AcDbEntity
  8
0
  6
CONTINUOUS
 62
     7
100
AcDbLine
 10
-41.499996
 20
13.999999
 30
0.0
 11
-42.499996
 21
13.0
 31
0.0
  0
LINE
  5
7E
100
AcDbEntity
  8
0
  6
CONTINUOUS
 62
     7
100
AcDbLine
 10
-29.977766
 20
11.306105
 30
0.0
 11
-31.245533
 21
2.285456
 31
0.0
  0
LINE
  5
7F
100
AcDbEntity
  8
0
  6
CONTINUOUS
 62
     7
100
AcDbLine
 10
-30.0
 20
3.0
 30
0.0
 11
-31.224747
 21
2.433359
 31
0.0
  0
LINE
  5
80
100
AcDbEntity
  8
0
  6
CONTINUOUS
 62
     7
100
AcDbLine
 10
-37.5
 20
1.0
 30
0.0
 11
-35.570709
 21
1.0
 31
0.0
  0
LINE
  5
81
100
AcDbEntity
  8
0
  6
CONTINUOUS
 62
     7
100
AcDbLine
 10
-42.5
 20
2.819852
 30
0.0
 11
-37.499996
 21
0.999999
 31
0.0
  0
LINE
  5
82
100
AcDbEntity
  8
0
  6
CONTINUOUS
 62
     7
100
AcDbLine
 10
-30.589615
 20
13.593111
 30
0.0
 11
-32.5
 21
0.0
 31
0.0
  0
LINE
  5
83
100
AcDbEntity
  8
0
  6
CONTINUOUS
 62
     7
100
AcDbLine
 10
-35.649052
 20
0.442571
 30
0.0
 11
-32.5
 21
0.0
 31
0.0
  0
LINE
  5
84
100
AcDbEntity
  8
0
  6
CONTINUOUS
 62
     7
100
AcDbLine
 10
-34.381287
 20
9.463219
 30
0.0
 11
-31.232235
 21
9.020648
 31
0.0
  0
LINE
  5
85
100
AcDbEntity
  8
0
  6
CONTINUOUS
 62
     7
100
AcDbLine
 10
-31.232233
 20
9.020648
 30
0.0
 11
-29.977766
 21
11.306106
 31
0.0
  0
LINE
  5
86
100
AcDbEntity
  8
0
  6
CONTINUOUS
 62
     7
100
AcDbLine
 10
-30.0
 20
11.147904
 30
0.0
 11
-30.0
 21
3.0
 31
0.0
  0
LINE
  5
87
100
AcDbEntity
  8
0
  6
CONTINUOUS
 62
     7
100
AcDbLine
 10
80.064012
 20
-36.956475
 30
0.0
 11
80.064012
 21
-47.456475
 31
0.0
  0
LINE
  5
88
100
AcDbEntity
  8
0
  6
CONTINUOUS
 62
     7
100
AcDbLine
 10
91.064012
 20
-36.956475
 30
0.0
 11
91.064012
 21
-48.386658
 31
0.0
  0
LINE
  5
89
100
AcDbEntity
  8
0
  6
CONTINUOUS
 62
     7
100
AcDbLine
 10
81.064004
 20
-35.956475
 30
0.0
 11
90.064012
 21
-35.956475
 31
0.0
  0
LINE
  5
8A
100
AcDbEntity
  8
0
  6
CONTINUOUS
 62
     7
100
AcDbLine
 10
81.064012
 20
-48.456475
 30
0.0
 11
83.064012
 21
-48.456475
 31
0.0
  0
LINE
  5
8B
100
AcDbEntity
  8
0
  6
CONTINUOUS
 62
     7
100
AcDbLine
 10
80.064012
 20
-36.956475
 30
0.0
 11
81.064004
 21
-35.956475
 31
0.0
  0
LINE
  5
8C
100
AcDbEntity
  8
0
  6
CONTINUOUS
 62
     7
100
AcDbLine
 10
90.064012
 20
-35.956475
 30
0.0
 11
91.064012
 21
-36.956475
 31
0.0
  0
LINE
  5
8D
100
AcDbEntity
  8
0
  6
CONTINUOUS
 62
     7
100
AcDbLine
 10
80.064012
 20
-47.456475
 30
0.0
 11
81.064004
 21
-48.456471
 31
0.0
  0
LINE
  5
8E
100
AcDbEntity
  8
0
  6
CENTER
 62
     1
100
AcDbLine
 10
77.958978
 20
-38.686631
 30
0.0
 11
93.231942
 21
-44.245537
 31
0.0
  0
LINE
  5
8F
100
AcDbEntity
  8
0
  6
CONTINUOUS
 62
     7
100
AcDbLine
 10
80.064004
 20
-45.039735
 30
0.0
 11
84.762468
 21
-46.749837
 31
0.0
  0
LINE
  5
90
100
AcDbEntity
  8
0
  6
CONTINUOUS
 62
     7
100
AcDbLine
 10
85.807893
 20
-35.956471
 30
0.0
 11
88.353692
 21
-36.883065
 31
0.0
  0
LINE
  5
91
100
AcDbEntity
  8
0
  6
CONTINUOUS
 62
     7
100
AcDbLine
 10
85.361009
 20
-45.105374
 30
0.0
 11
91.064002
 21
-47.181096
 31
0.0
  0
LINE
  5
92
100
AcDbEntity
  8
0
  6
CONTINUOUS
 62
     7
100
AcDbLine
 10
87.755151
 20
-38.527528
 30
0.0
 11
91.064012
 21
-39.73185
 31
0.0
  0
LINE
  5
93
100
AcDbEntity
  8
0
  6
CONTINUOUS
 62
     7
100
AcDbLine
 10
84.762475
 20
-46.749837
 30
0.0
 11
88.353692
 21
-36.883065
 31
0.0
  0
LINE
  5
94
100
AcDbEntity
  8
0
  6
CONTINUOUS
 62
     7
100
AcDbLine
 10
83.064012
 20
-48.456475
 30
0.0
 11
91.064012
 21
-48.386662
 31
0.0
  0
LINE
  5
95
100
AcDbEntity
  8
0
  6
CONTINUOUS
 62
     7
100
AcDbLine
 10
-34.381283
 20
9.463218
 30
0.0
 11
-35.649052
 21
0.442571
 31
0.0
  0
LINE
  5
96
100
AcDbEntity
  8
0
  6
CONTINUOUS
 62
     7
100
AcDbLine
 10
-34.381287
 20
9.463219
 30
0.0
 11
-41.990757
 21
13.509244
 31
0.0
  0
LINE
  5
97
100
AcDbEntity
  8
0
  6
CONTINUOUS
 62
     7
100
AcDbLine
 10
-32.499996
 20
0.000004
 30
0.0
 11
-31.245533
 21
2.285456
 31
0.0
  0
LINE
  5
98
100
AcDbEntity
  8
0
  6
CONTINUOUS
 62
     7
100
AcDbLine
 10
11.1
 20
-36.889821
 30
0.0
 11
19.980165
 21
-35.956475
 31
0.0
  0
LINE
  5
99
100
AcDbEntity
  8
0
  6
CONTINUOUS
 62
     7
100
AcDbLine
 10
0.0
 20
0.0
 30
0.0
 11
0.613862
 21
0.0
 31
0.0
  0
LINE
  5
9A
100
AcDbEntity
  8
0
  6
CONTINUOUS
 62
     7
100
AcDbLine
 10
0.0
 20
0.0
 30
0.0
 11
-0.158879
 21
0.592945
 31
0.0
  0
ARC
  5
9B
100
AcDbEntity
  8
0
  6
CONTINUOUS
 62
     7
100
AcDbCircle
 10
6.217683
 20
10.506105
 30
0.0
 40
0.8
100
AcDbArc
 50
14.999987
 51
105.00005
  0
ARC
  5
9C
100
AcDbEntity
  8
0
  6
CONTINUOUS
 62
     7
100
AcDbCircle
 10
-1.437278
 20
8.454963
 30
0.0
 40
0.8
100
AcDbArc
 50
105.00004
 51
194.99995
  0
ARC
  5
9D
100
AcDbEntity
  8
0
  6
CONTINUOUS
 62
     7
100
AcDbCircle
 10
8.268823
 20
2.851143
 30
0.0
 40
0.8
100
AcDbArc
 50
284.99999
 51
14.999995
  0
ARC
  5
9E
100
AcDbEntity
  8
0
  6
CONTINUOUS
 62
     7
100
AcDbCircle
 10
0.613862
 20
0.8
 30
0.0
 40
0.8
100
AcDbArc
 50
194.99998
 51
285.00001
  0
ARC
  5
9F
100
AcDbEntity
  8
0
  6
CONTINUOUS
 62
     7
100
AcDbCircle
 10
7.301006
 20
9.55405
 30
0.0
 40
2.0
100
AcDbArc
 50
284.99999
 51
119.25008
  0
CIRCLE
  5
A0
100
AcDbEntity
  8
0
  6
CONTINUOUS
 62
     7
100
AcDbCircle
 10
10.0
 20
-43.456475
 30
0.0
 40
2.0
  0
CIRCLE
  5
A1
100
AcDbEntity
  8
0
  6
CONTINUOUS
 62
     7
100
AcDbCircle
 10
10.0
 20
-43.456475
 30
0.0
 40
1.65
  0
ARC
  5
A2
100
AcDbEntity
  8
0
  6
CONTINUOUS
 62
     7
100
AcDbCircle
 10
31.0
 20
-39.789735
 30
0.0
 40
5.25
100
AcDbArc
 50
269.99996
 51
46.898469
  0
ARC
  5
A3
100
AcDbEntity
  8
0
  6
CONTINUOUS
 62
     7
100
AcDbCircle
 10
29.0
 20
-39.789735
 30
0.0
 40
5.25
100
AcDbArc
 50
133.10149
 51
270.0
  0
ARC
  5
A4
100
AcDbEntity
  8
0
  6
CONTINUOUS
 62
     7
100
AcDbCircle
 10
29.0
 20
-42.027528
 30
0.0
 40
3.5
100
AcDbArc
 50
89.999982
 51
221.13537
  0
ARC
  5
A5
100
AcDbEntity
  8
0
  6
CONTINUOUS
 62
     7
100
AcDbCircle
 10
31.0
 20
-42.027528
 30
0.0
 40
3.5
100
AcDbArc
 50
318.8646
 51
89.999982
  0
ARC
  5
A6
100
AcDbEntity
  8
0
  6
CONTINUOUS
 62
     7
100
AcDbCircle
 10
29.0
 20
-43.366711
 30
0.0
 40
3.634859
100
AcDbArc
 50
89.999982
 51
163.55779
  0
ARC
  5
A7
100
AcDbEntity
  8
0
  6
CONTINUOUS
 62
     7
100
AcDbCircle
 10
31.0
 20
-43.366711
 30
0.0
 40
3.634859
100
AcDbArc
 50
16.442178
 51
89.999982
  0
ARC
  5
A8
100
AcDbEntity
  8
0
  6
CONTINUOUS
 62
     7
100
AcDbCircle
 10
30.0
 20
18.28565
 30
0.0
 40
10.58719
100
AcDbArc
 50
244.3237
 51
295.67631
  0
ARC
  5
A9
100
AcDbEntity
  8
0
  6
CONTINUOUS
 62
     7
100
AcDbCircle
 10
29.0
 20
9.0
 30
0.0
 40
6.0
100
AcDbArc
 50
216.08425
 51
270.00002
  0
ARC
  5
AA
100
AcDbEntity
  8
0
  6
CONTINUOUS
 62
     7
100
AcDbCircle
 10
25.840654
 20
6.697494
 30
0.0
 40
2.090652
100
AcDbArc
 50
101.8115
 51
216.08424
  0
ARC
  5
AB
100
AcDbEntity
  8
0
  6
CONTINUOUS
 62
     7
100
AcDbCircle
 10
34.159348
 20
6.697494
 30
0.0
 40
2.090652
100
AcDbArc
 50
323.91573
 51
78.188461
  0
ARC
  5
AC
100
AcDbEntity
  8
0
  6
CONTINUOUS
 62
     7
100
AcDbCircle
 10
31.0
 20
9.0
 30
0.0
 40
6.0
100
AcDbArc
 50
269.99996
 51
323.91573
  0
CIRCLE
  5
AD
100
AcDbEntity
  8
0
  6
CONTINUOUS
 62
     7
100
AcDbCircle
 10
3.02821
 20
5.87273
 30
0.0
 40
1.975
  0
POLYLINE
  5
AE
100
AcDbEntity
  8
0
  6
CONTINUOUS
 62
     7
100
AcDb2dPolyline
 66
     1
 10
0.0
 20
0.0
 30
0.0
  0
VERTEX
  5
AF
100
AcDbEntity
  8
0
  6
CONTINUOUS
 62
     7
100
AcDbVertex
100
AcDb2dVertex
 10
36.145733
 20
-40.838115
 30
0.0
 42
0.023286
  0
VERTEX
  5
B0
100
AcDbEntity
  8
0
  6
CONTINUOUS
 62
     7
100
AcDbVertex
100
AcDb2dVertex
 10
36.034042
 20
-40.416048
 30
0.0
 42
0.023116
  0
VERTEX
  5
B1
100
AcDbEntity
  8
0
  6
CONTINUOUS
 62
     7
100
AcDbVertex
100
AcDb2dVertex
 10
35.883405
 20
-40.005289
 30
0.0
 42
0.022874
  0
VERTEX
  5
B2
100
AcDbEntity
  8
0
  6
CONTINUOUS
 62
     7
100
AcDbVertex
100
AcDb2dVertex
 10
35.695456
 20
-39.609634
 30
0.0
 42
0.022545
  0
VERTEX
  5
B3
100
AcDbEntity
  8
0
  6
CONTINUOUS
 62
     7
100
AcDbVertex
100
AcDb2dVertex
 10
35.4726
 20
-39.233005
 30
0.0
 42
0.022243
  0
VERTEX
  5
B4
100
AcDbEntity
  8
0
  6
CONTINUOUS
 62
     7
100
AcDbVertex
100
AcDb2dVertex
 10
35.21659
 20
-38.877319
 30
0.0
 42
0.021895
  0
VERTEX
  5
B5
100
AcDbEntity
  8
0
  6
CONTINUOUS
 62
     7
100
AcDbVertex
100
AcDb2dVertex
 10
34.930226
 20
-38.545588
 30
0.0
 42
0.021546
  0
VERTEX
  5
B6
100
AcDbEntity
  8
0
  6
CONTINUOUS
 62
     7
100
AcDbVertex
100
AcDb2dVertex
 10
34.616158
 20
-38.239948
 30
0.0
 42
0.021206
  0
VERTEX
  5
B7
100
AcDbEntity
  8
0
  6
CONTINUOUS
 62
     7
100
AcDbVertex
100
AcDb2dVertex
 10
34.277129
 20
-37.96223
 30
0.0
 42
0.020885
  0
VERTEX
  5
B8
100
AcDbEntity
  8
0
  6
CONTINUOUS
 62
     7
100
AcDbVertex
100
AcDb2dVertex
 10
33.915935
 20
-37.713982
 30
0.0
 42
0.02059
  0
VERTEX
  5
B9
100
AcDbEntity
  8
0
  6
CONTINUOUS
 62
     7
100
AcDbVertex
100
AcDb2dVertex
 10
33.535397
 20
-37.496494
 30
0.0
 42
0.020327
  0
VERTEX
  5
BA
100
AcDbEntity
  8
0
  6
CONTINUOUS
 62
     7
100
AcDbVertex
100
AcDb2dVertex
 10
33.138335
 20
-37.310821
 30
0.0
 42
0.020101
  0
VERTEX
  5
BB
100
AcDbEntity
  8
0
  6
CONTINUOUS
 62
     7
100
AcDbVertex
100
AcDb2dVertex
 10
32.72756
 20
-37.157808
 30
0.0
 42
0.019915
  0
VERTEX
  5
BC
100
AcDbEntity
  8
0
  6
CONTINUOUS
 62
     7
100
AcDbVertex
100
AcDb2dVertex
 10
32.305858
 20
-37.038113
 30
0.0
 42
0.019774
  0
VERTEX
  5
BD
100
AcDbEntity
  8
0
  6
CONTINUOUS
 62
     7
100
AcDbVertex
100
AcDb2dVertex
 10
31.875995
 20
-36.952225
 30
0.0
 42
0.019677
  0
VERTEX
  5
BE
100
AcDbEntity
  8
0
  6
CONTINUOUS
 62
     7
100
AcDbVertex
100
AcDb2dVertex
 10
31.440721
 20
-36.900479
 30
0.0
 42
0.019628
  0
VERTEX
  5
BF
100
AcDbEntity
  8
0
  6
CONTINUOUS
 62
     7
100
AcDbVertex
100
AcDb2dVertex
 10
31.002747
 20
-36.883066
 30
0.0
  0
SEQEND
  5
C0
100
AcDbEntity
  8
0
 62
     7
  0
POLYLINE
  5
C1
100
AcDbEntity
  8
0
  6
CONTINUOUS
 62
     7
100
AcDb2dPolyline
 66
     1
 10
0.0
 20
0.0
 30
0.0
  0
VERTEX
  5
C2
100
AcDbEntity
  8
0
  6
CONTINUOUS
 62
     7
100
AcDbVertex
100
AcDb2dVertex
 10
29.0
 20
-36.883065
 30
0.0
 42
0.019567
  0
VERTEX
  5
C3
100
AcDbEntity
  8
0
  6
CONTINUOUS
 62
     7
100
AcDbVertex
100
AcDb2dVertex
 10
28.563386
 20
-36.900155
 30
0.0
 42
0.019657
  0
VERTEX
  5
C4
100
AcDbEntity
  8
0
  6
CONTINUOUS
 62
     7
100
AcDbVertex
100
AcDb2dVertex
 10
28.128515
 20
-36.951509
 30
0.0
 42
0.019732
  0
VERTEX
  5
C5
100
AcDbEntity
  8
0
  6
CONTINUOUS
 62
     7
100
AcDbVertex
100
AcDb2dVertex
 10
27.699449
 20
-37.036835
 30
0.0
 42
0.019909
  0
VERTEX
  5
C6
100
AcDbEntity
  8
0
  6
CONTINUOUS
 62
     7
100
AcDbVertex
100
AcDb2dVertex
 10
27.277726
 20
-37.15608
 30
0.0
 42
0.020093
  0
VERTEX
  5
C7
100
AcDbEntity
  8
0
  6
CONTINUOUS
 62
     7
100
AcDbVertex
100
AcDb2dVertex
 10
26.8669
 20
-37.30863
 30
0.0
 42
0.020319
  0
VERTEX
  5
C8
100
AcDbEntity
  8
0
  6
CONTINUOUS
 62
     7
100
AcDbVertex
100
AcDb2dVertex
 10
26.469731
 20
-37.49384
 30
0.0
 42
0.020583
  0
VERTEX
  5
C9
100
AcDbEntity
  8
0
  6
CONTINUOUS
 62
     7
100
AcDbVertex
100
AcDb2dVertex
 10
26.089011
 20
-37.710881
 30
0.0
 42
0.02088
  0
VERTEX
  5
CA
100
AcDbEntity
  8
0
  6
CONTINUOUS
 62
     7
100
AcDbVertex
100
AcDb2dVertex
 10
25.727557
 20
-37.958716
 30
0.0
 42
0.021203
  0
VERTEX
  5
CB
100
AcDbEntity
  8
0
  6
CONTINUOUS
 62
     7
100
AcDbVertex
100
AcDb2dVertex
 10
25.388191
 20
-38.236069
 30
0.0
 42
0.021545
  0
VERTEX
  5
CC
100
AcDbEntity
  8
0
  6
CONTINUOUS
 62
     7
100
AcDbVertex
100
AcDb2dVertex
 10
25.073724
 20
-38.541402
 30
0.0
 42
0.021895
  0
VERTEX
  5
CD
100
AcDbEntity
  8
0
  6
CONTINUOUS
 62
     7
100
AcDbVertex
100
AcDb2dVertex
 10
24.786914
 20
-38.872885
 30
0.0
 42
0.022244
  0
VERTEX
  5
CE
100
AcDbEntity
  8
0
  6
CONTINUOUS
 62
     7
100
AcDbVertex
100
AcDb2dVertex
 10
24.53043
 20
-39.228379
 30
0.0
 42
0.02258
  0
VERTEX
  5
CF
100
AcDbEntity
  8
0
  6
CONTINUOUS
 62
     7
100
AcDbVertex
100
AcDb2dVertex
 10
24.306791
 20
-39.605417
 30
0.0
 42
0.022889
  0
VERTEX
  5
D0
100
AcDbEntity
  8
0
  6
CONTINUOUS
 62
     7
100
AcDbVertex
100
AcDb2dVertex
 10
24.118311
 20
-40.00121
 30
0.0
 42
0.023159
  0
VERTEX
  5
D1
100
AcDbEntity
  8
0
  6
CONTINUOUS
 62
     7
100
AcDbVertex
100
AcDb2dVertex
 10
23.967029
 20
-40.412653
 30
0.0
 42
0.023379
  0
VERTEX
  5
D2
100
AcDbEntity
  8
0
  6
CONTINUOUS
 62
     7
100
AcDbVertex
100
AcDb2dVertex
 10
23.854647
 20
-40.836355
 30
0.0
  0
SEQEND
  5
D3
100
AcDbEntity
  8
0
 62
     7
  0
LINE
  5
D4
100
AcDbEntity
  8
0
  6
CONTINUOUS
 62
     7
100
AcDbLine
 10
90.297532
 20
-48.384619
 30
0.0
 11
91.064012
 21
-47.618136
 31
0.0
  0
LINE
  5
D5
100
AcDbEntity
  8
0
  6
CONTINUOUS
 62
     7
100
AcDbLine
 10
88.032703
 20
-48.404385
 30
0.0
 11
89.738453
 21
-46.698631
 31
0.0
  0
LINE
  5
D6
100
AcDbEntity
  8
0
  6
CONTINUOUS
 62
     7
100
AcDbLine
 10
85.767876
 20
-48.42415
 30
0.0
 11
88.092477
 21
-46.099545
 31
0.0
  0
LINE
  5
D7
100
AcDbEntity
  8
0
  6
CONTINUOUS
 62
     7
100
AcDbLine
 10
83.503049
 20
-48.443915
 30
0.0
 11
86.4465
 21
-45.500458
 31
0.0
  0
LINE
  5
D8
100
AcDbEntity
  8
0
  6
CONTINUOUS
 62
     7
100
AcDbLine
 10
81.245428
 20
-48.456475
 30
0.0
 11
83.435162
 21
-46.266736
 31
0.0
  0
LINE
  5
D9
100
AcDbEntity
  8
0
  6
CONTINUOUS
 62
     7
100
AcDbLine
 10
80.064012
 20
-47.392827
 30
0.0
 11
81.789187
 21
-45.667648
 31
0.0
  0
LINE
  5
DA
100
AcDbEntity
  8
0
  6
CONTINUOUS
 62
     7
100
AcDbLine
 10
80.064012
 20
-45.147761
 30
0.0
 11
80.143212
 21
-45.068561
 31
0.0
  0
LINE
  5
DB
100
AcDbEntity
  8
0
  6
CONTINUOUS
 62
     7
100
AcDbLine
 10
90.261952
 20
-39.439929
 30
0.0
 11
91.064012
 21
-38.637871
 31
0.0
  0
LINE
  5
DC
100
AcDbEntity
  8
0
  6
CONTINUOUS
 62
     7
100
AcDbLine
 10
88.615979
 20
-38.840843
 30
0.0
 11
90.782182
 21
-36.67464
 31
0.0
  0
LINE
  5
DD
100
AcDbEntity
  8
0
  6
CONTINUOUS
 62
     7
100
AcDbLine
 10
88.335363
 20
-36.876393
 30
0.0
 11
89.255279
 21
-35.956475
 31
0.0
  0
LINE
  5
DE
100
AcDbEntity
  8
0
  6
CONTINUOUS
 62
     7
100
AcDbLine
 10
86.689385
 20
-36.277308
 30
0.0
 11
87.010217
 21
-35.956475
 31
0.0
  0
TEXT
  5
E1
100
AcDbEntity
  8
0
  6
CONTINUOUS
100
AcDbText
 10
6.029662
 20
-65.802019
 30
0.0
 40
6.0
  1
PSKNR10CA
100
AcDbText
  0
INSERT
  5
F6
100
AcDbEntity
  8
0
  6
CONTINUOUS
100
AcDbBlockReference
  2
テンプレ-ト
 10
-35.112994
 20
-59.757299
 30
0.0
  0
LINE
  5
F7
100
AcDbEntity
  8
0
  6
CENTER
 62
     1
100
AcDbLine
 10
30.0
 20
-34.456473
 30
0.0
 11
30.0
 21
-46.539733
 31
0.0
  0
LINE
  5
F9
100
AcDbEntity
  8
0
  6
CENTER
 62
     1
100
AcDbLine
 10
-32.5
 20
0.000004
 30
0.0
 11
-32.5
 21
22.065012
 31
0.0
  0
LINE
  5
FA
100
AcDbEntity
  8
0
  6
CENTER
 62
     1
100
AcDbLine
 10
-29.424544
 20
19.000004
 30
0.0
 11
-35.279384
 21
19.000004
 31
0.0
  0
ARC
  5
FB
100
AcDbEntity
  8
0
  6
CENTER
 62
     1
100
AcDbCircle
 10
-32.5
 20
19.000004
 30
0.0
 40
19.0
100
AcDbArc
 50
180.0
 51
270.0
  0
DIMENSION
  5
10B
100
AcDbEntity
  8
寸法
 62
     1
100
AcDbDimension
  2
*D2
 10
-14.829248
 20
25.981731
 30
0.0
 11
-39.126757
 21
16.381767
 31
0.0
 70
   163
  3
寸法
100
AcDbDiametricDimension
 15
-50.170752
 25
12.018276
 35
0.0
 40
0.0
1001
ACAD
1000
DSTYLE
1002
{
1070
   288
1070
     1
1002
}
  0
DIMENSION
  5
118
100
AcDbEntity
  8
寸法
 62
     1
100
AcDbDimension
  2
*D3
 10
-14.765932
 20
0.0
 30
0.0
 11
-17.265932
 21
7.0
 31
0.0
 70
    32
  3
寸法
100
AcDbAlignedDimension
 13
-2.200001
 23
14.0
 33
0.0
 14
0.0
 24
0.0
 34
0.0
 50
90.0
100
AcDbRotatedDimension
  0
LINE
  5
119
100
AcDbEntity
  8
寸法
 62
     1
100
AcDbLine
 10
0.0
 20
0.0
 30
0.0
 11
-1.0
 21
0.0
 31
0.0
  0
DIMENSION
  5
129
100
AcDbEntity
  8
寸法
 62
     1
100
AcDbDimension
  2
*D4
 10
-1.0
 20
0.0
 30
0.0
 11
-5.31062
 21
4.883746
 31
0.0
 70
   162
  3
寸法
100
AcDb2LineAngularDimension
 13
-0.158879
 23
0.592945
 33
0.0
 14
-2.210019
 24
8.247908
 34
0.0
 15
0.0
 25
0.0
 35
0.0
 16
-6.538849
 26
3.049116
 36
0.0
  0
DIMENSION
  5
142
100
AcDbEntity
  8
寸法
 62
     1
100
AcDbDimension
  2
*D5
 10
59.589284
 20
3.0
 30
0.0
 11
57.089284
 21
8.5
 31
0.0
 70
    32
  3
寸法
100
AcDbAlignedDimension
 13
42.0
 23
14.0
 33
0.0
 14
42.0
 24
3.0
 34
0.0
 50
90.0
100
AcDbRotatedDimension
  0
DIMENSION
  5
14F
100
AcDbEntity
  8
寸法
 62
     1
100
AcDbDimension
  2
*D6
 10
0.0
 20
-14.090081
 30
0.0
 11
25.0
 21
-11.590081
 31
0.0
 70
    32
  3
寸法
100
AcDbAlignedDimension
 13
50.0
 23
8.5
 33
0.0
 14
0.0
 24
0.0
 34
0.0
100
AcDbRotatedDimension
  0
DIMENSION
  5
15C
100
AcDbEntity
  8
寸法
 62
     1
100
AcDbDimension
  2
*D7
 10
42.0
 20
-4.124474
 30
0.0
 11
46.0
 21
-1.624474
 31
0.0
 70
    32
  3
寸法
100
AcDbAlignedDimension
 13
50.0
 23
8.5
 33
0.0
 14
42.0
 24
3.0
 34
0.0
100
AcDbRotatedDimension
  0
DIMENSION
  5
169
100
AcDbEntity
  8
寸法
 62
     1
100
AcDbDimension
  2
*D8
 10
31.0
 20
-34.456475
 30
0.0
 11
37.0
 21
-31.956475
 31
0.0
 12
0.0
 22
4.043525
 32
0.0
 70
    32
  3
寸法
100
AcDbAlignedDimension
 13
29.0
 23
-34.456475
 33
0.0
 14
31.0
 24
-34.456475
 34
0.0
100
AcDbRotatedDimension
  0
DIMENSION
  5
176
100
AcDbEntity
  8
寸法
 62
     1
100
AcDbDimension
  2
*D9
 10
30.0
 20
-24.142305
 30
0.0
 11
40.0
 21
-21.642305
 31
0.0
 12
0.0
 22
4.043525
 32
0.0
 70
    32
  3
寸法
100
AcDbAlignedDimension
 13
50.0
 23
-42.456475
 33
0.0
 14
30.0
 24
-34.456473
 34
0.0
100
AcDbRotatedDimension
  0
DIMENSION
  5
183
100
AcDbEntity
  8
寸法
 62
     1
100
AcDbDimension
  2
*D10
 10
59.839655
 20
-48.456475
 30
0.0
 11
57.339655
 21
-42.206475
 31
0.0
 12
0.0
 22
4.043525
 32
0.0
 70
    32
  3
寸法
100
AcDbAlignedDimension
 13
42.0
 23
-35.956475
 33
0.0
 14
42.0
 24
-48.456475
 34
0.0
 50
90.0
100
AcDbRotatedDimension
  0
DIMENSION
  5
190
100
AcDbEntity
  8
寸法
 62
     1
100
AcDbDimension
  2
*D11
 10
-15.558915
 20
-48.456475
 30
0.0
 11
-18.058915
 21
-43.456475
 31
0.0
 12
0.0
 22
4.043525
 32
0.0
 70
    32
  3
寸法
100
AcDbAlignedDimension
 13
0.0
 23
-38.456475
 33
0.0
 14
-2.237278
 24
-48.456475
 34
0.0
 50
90.0
100
AcDbRotatedDimension
  0
DIMENSION
  5
19F
100
AcDbEntity
  8
寸法
 62
     1
100
AcDbDimension
  2
*D12
 10
105.606939
 20
-48.456471
 30
0.0
 11
103.106939
 21
-45.956473
 31
0.0
 12
-9.935988
 22
4.043525
 32
0.0
 70
    32
  3
寸法
100
AcDbAlignedDimension
 13
91.064012
 23
-43.456475
 33
0.0
 14
81.064004
 24
-48.456471
 34
0.0
 50
90.0
100
AcDbRotatedDimension
  0
LINE
  5
1A0
100
AcDbEntity
  8
寸法
 62
     1
100
AcDbLine
 10
91.064012
 20
-43.456475
 30
0.0
 11
92.064012
 21
-43.456475
 31
0.0
  0
DIMENSION
  5
1B3
100
AcDbEntity
  8
寸法
 62
     1
100
AcDbDimension
  2
*D13
 10
92.064012
 20
-43.456475
 30
0.0
 11
97.420929
 21
-41.331727
 31
0.0
 12
-9.935988
 22
4.043525
 32
0.0
 70
   162
  3
寸法
100
AcDb2LineAngularDimension
 13
77.958978
 23
-38.686631
 33
0.0
 14
93.231942
 24
-44.245537
 34
0.0
 15
91.064012
 25
-43.456475
 35
0.0
 16
97.58595
 26
-45.002203
 36
0.0
  0
TEXT
  5
1CD
100
AcDbEntity
  8
寸法
  6
CONTINUOUS
100
AcDbText
 10
-36.663435
 20
-53.432331
 30
0.0
 40
3.0
  1
-6°
100
AcDbText
  0
LINE
  5
1CE
100
AcDbEntity
  8
寸法
  6
CONTINUOUS
 62
     1
100
AcDbLine
 10
-36.570131
 20
-48.426328
 30
0.0
 11
-44.299305
 21
-48.426328
 31
0.0
  0
LINE
  5
1CF
100
AcDbEntity
  8
寸法
  6
CONTINUOUS
 62
     1
100
AcDbLine
 10
-44.299305
 20
-40.444222
 30
0.0
 11
-44.299305
 21
-48.426328
 31
0.0
  0
INSERT
  5
1D0
100
AcDbEntity
  8
寸法
  6
CONTINUOUS
 62
     1
100
AcDbBlockReference
  2
_OPEN30
 10
-44.299305
 20
-38.444222
 30
0.0
 41
2.0
 42
2.0
 43
2.0
 50
90.0
  0
TEXT
  5
1D1
100
AcDbEntity
  8
寸法
  6
CONTINUOUS
100
AcDbText
 10
-52.588008
 20
-40.569145
 30
0.0
 40
3.0
  1
-8°
100
AcDbText
  0
INSERT
  5
1D2
100
AcDbEntity
  8
寸法
  6
CONTINUOUS
 62
     1
100
AcDbBlockReference
  2
_OPEN30
 10
-34.570131
 20
-48.426328
 30
0.0
 41
2.0
 42
2.0
 43
2.0
  0
ENDSEC
  0
SECTION
  2
OBJECTS
  0
DICTIONARY
  5
C
100
AcDbDictionary
  3
ACAD_GROUP
350
D
  3
ACAD_MLINESTYLE
350
1B
  0
DICTIONARY
  5
D
102
{ACAD_REACTORS
330
C
102
}
100
AcDbDictionary
  0
DICTIONARY
  5
1B
102
{ACAD_REACTORS
330
C
102
}
100
AcDbDictionary
  3
STANDARD
350
1C
  0
MLINESTYLE
  5
1C
102
{ACAD_REACTORS
330
1B
102
}
100
AcDbMlineStyle
  2
STANDARD
 70
     0
  3

 62
   256
 51
90.0
 52
90.0
 71
     2
 49
0.5
 62
   256
  6
BYLAYER
 49
-0.5
 62
   256
  6
BYLAYER
  0
ENDSEC
  0
EOF
