  0
SECTION
  2
HEADER
  9
$ACADVER
  1
AC1014
  9
$ACADMAINTVER
 70
     0
  9
$DWGCODEPAGE
  3
ANSI_932
  9
$INSBASE
 10
0.0
 20
0.0
 30
0.0
  9
$EXTMIN
 10
-56.648211
 20
-88.592596
 30
0.0
  9
$EXTMAX
 10
100.831097
 20
24.302415
 30
0.0
  9
$LIMMIN
 10
-57.367671
 20
-65.367804
  9
$LIMMAX
 10
101.782239
 20
19.601141
  9
$ORTHOMODE
 70
     1
  9
$REGENMODE
 70
     1
  9
$FILLMODE
 70
     1
  9
$QTEXTMODE
 70
     0
  9
$MIRRTEXT
 70
     1
  9
$DRAGMODE
 70
     2
  9
$LTSCALE
 40
0.5
  9
$OSMODE
 70
    51
  9
$ATTMODE
 70
     1
  9
$TEXTSIZE
 40
0.2
  9
$TRACEWID
 40
0.05
  9
$TEXTSTYLE
  7
STANDARD
  9
$CLAYER
  8
寸法
  9
$CELTYPE
  6
BYLAYER
  9
$CECOLOR
 62
   256
  9
$CELTSCALE
 40
1.0
  9
$DELOBJ
 70
     1
  9
$DISPSILH
 70
     0
  9
$DIMSCALE
 40
1.0
  9
$DIMASZ
 40
2.0
  9
$DIMEXO
 40
1.0
  9
$DIMDLI
 40
10.0
  9
$DIMRND
 40
0.0
  9
$DIMDLE
 40
0.0
  9
$DIMEXE
 40
1.0
  9
$DIMTP
 40
0.0
  9
$DIMTM
 40
0.0
  9
$DIMTXT
 40
3.0
  9
$DIMCEN
 40
2.0
  9
$DIMTSZ
 40
0.0
  9
$DIMTOL
 70
     0
  9
$DIMLIM
 70
     0
  9
$DIMTIH
 70
     0
  9
$DIMTOH
 70
     0
  9
$DIMSE1
 70
     0
  9
$DIMSE2
 70
     0
  9
$DIMTAD
 70
     1
  9
$DIMZIN
 70
     8
  9
$DIMBLK
  1

  9
$DIMASO
 70
     1
  9
$DIMSHO
 70
     1
  9
$DIMPOST
  1

  9
$DIMAPOST
  1

  9
$DIMALT
 70
     0
  9
$DIMALTD
 70
     2
  9
$DIMALTF
 40
25.4
  9
$DIMLFAC
 40
1.0
  9
$DIMTOFL
 70
     1
  9
$DIMTVP
 40
0.0
  9
$DIMTIX
 70
     0
  9
$DIMSOXD
 70
     0
  9
$DIMSAH
 70
     1
  9
$DIMBLK1
  1
_OPEN30
  9
$DIMBLK2
  1
_OPEN30
  9
$DIMSTYLE
  2
寸法
  9
$DIMCLRD
 70
     1
  9
$DIMCLRE
 70
     1
  9
$DIMCLRT
 70
     1
  9
$DIMTFAC
 40
1.0
  9
$DIMGAP
 40
1.0
  9
$DIMJUST
 70
     0
  9
$DIMSD1
 70
     0
  9
$DIMSD2
 70
     0
  9
$DIMTOLJ
 70
     1
  9
$DIMTZIN
 70
     0
  9
$DIMALTZ
 70
     0
  9
$DIMALTTZ
 70
     0
  9
$DIMFIT
 70
     3
  9
$DIMUPT
 70
     0
  9
$DIMUNIT
 70
     2
  9
$DIMDEC
 70
     0
  9
$DIMTDEC
 70
     4
  9
$DIMALTU
 70
     2
  9
$DIMALTTD
 70
     2
  9
$DIMTXSTY
  7
STANDARD
  9
$DIMAUNIT
 70
     0
  9
$LUNITS
 70
     2
  9
$LUPREC
 70
     4
  9
$SKETCHINC
 40
0.1
  9
$FILLETRAD
 40
0.0
  9
$AUNITS
 70
     0
  9
$AUPREC
 70
     0
  9
$MENU
  1
acad
  9
$ELEVATION
 40
0.0
  9
$PELEVATION
 40
0.0
  9
$THICKNESS
 40
0.0
  9
$LIMCHECK
 70
     0
  9
$BLIPMODE
 70
     0
  9
$CHAMFERA
 40
0.0
  9
$CHAMFERB
 40
0.0
  9
$CHAMFERC
 40
0.0
  9
$CHAMFERD
 40
0.0
  9
$SKPOLY
 70
     0
  9
$TDCREATE
 40
2451943.675409375
  9
$TDUPDATE
 40
2451977.642326389
  9
$TDINDWG
 40
0.0141949074
  9
$TDUSRTIMER
 40
0.0141949074
  9
$USRTIMER
 70
     1
  9
$ANGBASE
 50
0.0
  9
$ANGDIR
 70
     0
  9
$PDMODE
 70
     0
  9
$PDSIZE
 40
0.0
  9
$PLINEWID
 40
0.0
  9
$COORDS
 70
     1
  9
$SPLFRAME
 70
     0
  9
$SPLINETYPE
 70
     6
  9
$SPLINESEGS
 70
     8
  9
$ATTDIA
 70
     0
  9
$ATTREQ
 70
     1
  9
$HANDLING
 70
     1
  9
$HANDSEED
  5
29D
  9
$SURFTAB1
 70
     6
  9
$SURFTAB2
 70
     6
  9
$SURFTYPE
 70
     6
  9
$SURFU
 70
     6
  9
$SURFV
 70
     6
  9
$UCSNAME
  2

  9
$UCSORG
 10
0.0
 20
0.0
 30
0.0
  9
$UCSXDIR
 10
1.0
 20
0.0
 30
0.0
  9
$UCSYDIR
 10
0.0
 20
1.0
 30
0.0
  9
$PUCSNAME
  2

  9
$PUCSORG
 10
0.0
 20
0.0
 30
0.0
  9
$PUCSXDIR
 10
1.0
 20
0.0
 30
0.0
  9
$PUCSYDIR
 10
0.0
 20
1.0
 30
0.0
  9
$USERI1
 70
     0
  9
$USERI2
 70
     0
  9
$USERI3
 70
     0
  9
$USERI4
 70
     0
  9
$USERI5
 70
     0
  9
$USERR1
 40
0.0
  9
$USERR2
 40
0.0
  9
$USERR3
 40
0.0
  9
$USERR4
 40
0.0
  9
$USERR5
 40
0.0
  9
$WORLDVIEW
 70
     1
  9
$SHADEDGE
 70
     3
  9
$SHADEDIF
 70
    70
  9
$TILEMODE
 70
     1
  9
$MAXACTVP
 70
    48
  9
$PINSBASE
 10
0.0
 20
0.0
 30
0.0
  9
$PLIMCHECK
 70
     0
  9
$PEXTMIN
 10
1.000000E+20
 20
1.000000E+20
 30
1.000000E+20
  9
$PEXTMAX
 10
-1.000000E+20
 20
-1.000000E+20
 30
-1.000000E+20
  9
$PLIMMIN
 10
0.0
 20
0.0
  9
$PLIMMAX
 10
12.0
 20
9.0
  9
$UNITMODE
 70
     0
  9
$VISRETAIN
 70
     1
  9
$PLINEGEN
 70
     0
  9
$PSLTSCALE
 70
     1
  9
$TREEDEPTH
 70
  3020
  9
$PICKSTYLE
 70
     1
  9
$CMLSTYLE
  2
STANDARD
  9
$CMLJUST
 70
     0
  9
$CMLSCALE
 40
1.0
  9
$PROXYGRAPHICS
 70
     1
  9
$MEASUREMENT
 70
     0
  0
ENDSEC
  0
SECTION
  2
CLASSES
  0
ENDSEC
  0
SECTION
  2
TABLES
  0
TABLE
  2
VPORT
  5
8
100
AcDbSymbolTable
 70
     2
  0
VPORT
  5
29C
100
AcDbSymbolTableRecord
100
AcDbViewportTableRecord
  2
*ACTIVE
 70
     0
 10
0.0
 20
0.0
 11
1.0
 21
1.0
 12
42.241715
 22
-26.281617
 13
0.0
 23
0.0
 14
1.0
 24
1.0
 15
10.0
 25
10.0
 16
0.0
 26
0.0
 36
1.0
 17
0.0
 27
0.0
 37
0.0
 40
173.387521
 41
1.710425
 42
50.0
 43
0.0
 44
0.0
 50
0.0
 51
0.0
 71
     0
 72
   100
 73
     1
 74
     1
 75
     0
 76
     0
 77
     0
 78
     0
  0
ENDTAB
  0
TABLE
  2
LTYPE
  5
5
100
AcDbSymbolTable
 70
     5
  0
LTYPE
  5
12
100
AcDbSymbolTableRecord
100
AcDbLinetypeTableRecord
  2
BYBLOCK
 70
     0
  3

 72
    65
 73
     0
 40
0.0
  0
LTYPE
  5
13
100
AcDbSymbolTableRecord
100
AcDbLinetypeTableRecord
  2
BYLAYER
 70
     0
  3

 72
    65
 73
     0
 40
0.0
  0
LTYPE
  5
14
100
AcDbSymbolTableRecord
100
AcDbLinetypeTableRecord
  2
CONTINUOUS
 70
     0
  3
Solid line
 72
    65
 73
     0
 40
0.0
  0
LTYPE
  5
1F
100
AcDbSymbolTableRecord
100
AcDbLinetypeTableRecord
  2
DASHED
 70
     0
  3
__ __ __ __ __ __ __ __ __ __ __ __ __ __ __
 72
    65
 73
     2
 40
3.5
 49
2.0
 74
     0
 49
-1.5
 74
     0
  0
LTYPE
  5
20
100
AcDbSymbolTableRecord
100
AcDbLinetypeTableRecord
  2
CENTER
 70
     0
  3
____ _ ____ _ ____ _ ____ _ ____ _ ____ _ ____
 72
    65
 73
     4
 40
17.5
 49
13.0
 74
     0
 49
-1.5
 74
     0
 49
1.5
 74
     0
 49
-1.5
 74
     0
  0
LTYPE
  5
21
100
AcDbSymbolTableRecord
100
AcDbLinetypeTableRecord
  2
PHANTOM
 70
     0
  3
_____ _ _ _____ _ _ _____ _ _ _____ _ _ ____  
 72
    65
 73
     6
 40
15.5
 49
8.0
 74
     0
 49
-1.5
 74
     0
 49
1.5
 74
     0
 49
-1.5
 74
     0
 49
1.5
 74
     0
 49
-1.5
 74
     0
  0
LTYPE
  5
22
100
AcDbSymbolTableRecord
100
AcDbLinetypeTableRecord
  2
DOT
 70
     0
  3
. . . . . . . . . . . . . . . . . . . . . . . .
 72
    65
 73
     2
 40
0.25
 49
0.0
 74
     0
 49
-0.25
 74
     0
  0
ENDTAB
  0
TABLE
  2
LAYER
  5
2
100
AcDbSymbolTable
 70
     3
  0
LAYER
  5
E
100
AcDbSymbolTableRecord
100
AcDbLayerTableRecord
  2
0
 70
     0
 62
     7
  6
CONTINUOUS
  0
LAYER
  5
116
100
AcDbSymbolTableRecord
100
AcDbLayerTableRecord
  2
寸法
 70
     0
 62
     1
  6
CONTINUOUS
  0
LAYER
  5
136
100
AcDbSymbolTableRecord
100
AcDbLayerTableRecord
  2
DEFPOINTS
 70
     0
 62
     7
  6
CONTINUOUS
  0
ENDTAB
  0
TABLE
  2
STYLE
  5
3
100
AcDbSymbolTable
 70
     2
  0
STYLE
  5
F
100
AcDbSymbolTableRecord
100
AcDbTextStyleTableRecord
  2
STANDARD
 70
     0
 40
0.0
 41
1.0
 50
0.0
 71
     0
 42
0.2
  3
txt
  4
BIGFONT
  0
STYLE
  5
117
100
AcDbSymbolTableRecord
100
AcDbTextStyleTableRecord
  2
寸法
 70
     0
 40
0.0
 41
1.0
 50
0.0
 71
     0
 42
1.767677
  3
txt.shx
  4
bigfont.shx
  0
ENDTAB
  0
TABLE
  2
VIEW
  5
6
100
AcDbSymbolTable
 70
     0
  0
ENDTAB
  0
TABLE
  2
UCS
  5
7
100
AcDbSymbolTable
 70
     0
  0
ENDTAB
  0
TABLE
  2
APPID
  5
9
100
AcDbSymbolTable
 70
     3
  0
APPID
  5
10
100
AcDbSymbolTableRecord
100
AcDbRegAppTableRecord
  2
ACAD
 70
     0
  0
APPID
  5
11A
100
AcDbSymbolTableRecord
100
AcDbRegAppTableRecord
  2
CONTENTTABDATA
 70
     0
  0
APPID
  5
11B
100
AcDbSymbolTableRecord
100
AcDbRegAppTableRecord
  2
CONTENTCURRENTTAB
 70
     0
  0
ENDTAB
  0
TABLE
  2
DIMSTYLE
  5
A
100
AcDbSymbolTable
 70
     3
  0
DIMSTYLE
105
108
100
AcDbSymbolTableRecord
100
AcDbDimStyleTableRecord
  2
STANDARD
 70
     0
  3

  4

  5

  6

  7

 40
1.0
 41
0.18
 42
0.0625
 43
0.38
 44
0.18
 45
0.0
 46
0.0
 47
0.0
 48
0.0
140
0.18
141
0.09
142
0.0
143
25.4
144
1.0
145
0.0
146
1.0
147
0.09
 71
     0
 72
     0
 73
     1
 74
     1
 75
     0
 76
     0
 77
     0
 78
     0
170
     0
171
     2
172
     0
173
     0
174
     0
175
     0
176
     0
177
     0
178
     0
270
     2
271
     4
272
     4
273
     2
274
     2
340
F
275
     0
280
     0
281
     0
282
     0
283
     1
284
     0
285
     0
286
     0
287
     3
288
     0
  0
DIMSTYLE
105
118
100
AcDbSymbolTableRecord
100
AcDbDimStyleTableRecord
  2
STANDARD_WS
 70
     0
  3

  4

  5

  6

  7

 40
0.707071
 41
2.5
 42
0.625
 43
3.75
 44
1.25
 45
0.0
 46
0.0
 47
0.0
 48
0.0
140
2.5
141
2.5
142
0.0
143
0.0394
144
1.0
145
0.0
146
1.0
147
0.625
 71
     0
 72
     0
 73
     0
 74
     0
 75
     0
 76
     0
 77
     1
 78
     8
170
     0
171
     4
172
     1
173
     0
174
     0
175
     0
176
     0
177
     0
178
     0
270
     2
271
     4
272
     4
273
     8
274
     4
340
F
275
     0
280
     0
281
     0
282
     0
283
     1
284
     0
285
     0
286
     0
287
     3
288
     0
  0
DIMSTYLE
105
119
102
{ACAD_REACTORS
330
13B
330
148
330
155
330
162
330
16F
330
181
330
197
330
1A4
330
1B1
330
1C0
330
1CE
330
1DD
330
1F1
330
225
330
232
330
269
102
}
100
AcDbSymbolTableRecord
100
AcDbDimStyleTableRecord
  2
寸法
 70
     0
  3

  4

  5

  6
_OPEN30
  7
_OPEN30
 40
1.0
 41
2.0
 42
1.0
 43
10.0
 44
1.0
 45
0.0
 46
0.0
 47
0.0
 48
0.0
140
3.0
141
2.0
142
0.0
143
25.4
144
1.0
145
0.0
146
1.0
147
1.0
 71
     0
 72
     0
 73
     0
 74
     0
 75
     0
 76
     0
 77
     1
 78
     8
170
     0
171
     2
172
     1
173
     1
174
     0
175
     0
176
     1
177
     1
178
     1
270
     2
271
     2
272
     4
273
     2
274
     2
340
F
275
     0
280
     0
281
     0
282
     0
283
     1
284
     0
285
     0
286
     0
287
     3
288
     0
  0
ENDTAB
  0
TABLE
  2
BLOCK_RECORD
  5
1
100
AcDbSymbolTable
 70
    19
  0
BLOCK_RECORD
  5
18
100
AcDbSymbolTableRecord
100
AcDbBlockTableRecord
  2
*MODEL_SPACE
  0
BLOCK_RECORD
  5
15
100
AcDbSymbolTableRecord
100
AcDbBlockTableRecord
  2
*PAPER_SPACE
  0
BLOCK_RECORD
  5
110
100
AcDbSymbolTableRecord
100
AcDbBlockTableRecord
  2
_OPEN30
  0
BLOCK_RECORD
  5
11C
100
AcDbSymbolTableRecord
100
AcDbBlockTableRecord
  2
テンプレ-ト
  0
BLOCK_RECORD
  5
12D
100
AcDbSymbolTableRecord
100
AcDbBlockTableRecord
  2
*D2
  0
BLOCK_RECORD
  5
13C
100
AcDbSymbolTableRecord
100
AcDbBlockTableRecord
  2
*D3
  0
BLOCK_RECORD
  5
149
100
AcDbSymbolTableRecord
100
AcDbBlockTableRecord
  2
*D4
  0
BLOCK_RECORD
  5
156
100
AcDbSymbolTableRecord
100
AcDbBlockTableRecord
  2
*D5
  0
BLOCK_RECORD
  5
163
100
AcDbSymbolTableRecord
100
AcDbBlockTableRecord
  2
*D6
  0
BLOCK_RECORD
  5
171
100
AcDbSymbolTableRecord
100
AcDbBlockTableRecord
  2
*D7
  0
BLOCK_RECORD
  5
18F
100
AcDbSymbolTableRecord
100
AcDbBlockTableRecord
  2
*D8
  0
BLOCK_RECORD
  5
198
100
AcDbSymbolTableRecord
100
AcDbBlockTableRecord
  2
*D9
  0
BLOCK_RECORD
  5
1A5
100
AcDbSymbolTableRecord
100
AcDbBlockTableRecord
  2
*D10
  0
BLOCK_RECORD
  5
1B2
100
AcDbSymbolTableRecord
100
AcDbBlockTableRecord
  2
*D11
  0
BLOCK_RECORD
  5
1C2
100
AcDbSymbolTableRecord
100
AcDbBlockTableRecord
  2
*D12
  0
BLOCK_RECORD
  5
1CF
100
AcDbSymbolTableRecord
100
AcDbBlockTableRecord
  2
*D13
  0
BLOCK_RECORD
  5
1DF
100
AcDbSymbolTableRecord
100
AcDbBlockTableRecord
  2
*D14
  0
BLOCK_RECORD
  5
201
100
AcDbSymbolTableRecord
100
AcDbBlockTableRecord
  2
A$C39D8576A
  0
BLOCK_RECORD
  5
21D
100
AcDbSymbolTableRecord
100
AcDbBlockTableRecord
  2
*D16
  0
BLOCK_RECORD
  5
226
100
AcDbSymbolTableRecord
100
AcDbBlockTableRecord
  2
*D17
  0
BLOCK_RECORD
  5
261
100
AcDbSymbolTableRecord
100
AcDbBlockTableRecord
  2
*D18
  0
ENDTAB
  0
ENDSEC
  0
SECTION
  2
BLOCKS
  0
BLOCK
  5
19
100
AcDbEntity
  8
0
100
AcDbBlockBegin
  2
*MODEL_SPACE
 70
     0
 10
0.0
 20
0.0
 30
0.0
  3
*MODEL_SPACE
  1

  0
ENDBLK
  5
1A
100
AcDbEntity
  8
0
100
AcDbBlockEnd
  0
BLOCK
  5
16
100
AcDbEntity
 67
     1
  8
0
100
AcDbBlockBegin
  2
*PAPER_SPACE
 70
     0
 10
0.0
 20
0.0
 30
0.0
  3
*PAPER_SPACE
  1

  0
ENDBLK
  5
17
100
AcDbEntity
 67
     1
  8
0
100
AcDbBlockEnd
  0
BLOCK
  5
114
100
AcDbEntity
  8
0
100
AcDbBlockBegin
  2
_OPEN30
 70
     0
 10
0.0
 20
0.0
 30
0.0
  3
_OPEN30
  1

  0
LINE
  5
111
100
AcDbEntity
  8
0
  6
BYBLOCK
 62
     0
100
AcDbLine
 10
-1.0
 20
0.267949
 30
0.0
 11
0.0
 21
0.0
 31
0.0
  0
LINE
  5
112
100
AcDbEntity
  8
0
  6
BYBLOCK
 62
     0
100
AcDbLine
 10
0.0
 20
0.0
 30
0.0
 11
-1.0
 21
-0.267949
 31
0.0
  0
LINE
  5
113
100
AcDbEntity
  8
0
  6
BYBLOCK
 62
     0
100
AcDbLine
 10
0.0
 20
0.0
 30
0.0
 11
-1.0
 21
0.0
 31
0.0
  0
ENDBLK
  5
115
100
AcDbEntity
  8
0
100
AcDbBlockEnd
  0
BLOCK
  5
11D
100
AcDbEntity
  8
0
100
AcDbBlockBegin
  2
テンプレ-ト
 70
     0
 10
0.0
 20
0.0
 30
0.0
  3
テンプレ-ト
  1

  0
ENDBLK
  5
11E
100
AcDbEntity
  8
0
100
AcDbBlockEnd
  0
BLOCK
  5
286
100
AcDbEntity
  8
0
100
AcDbBlockBegin
  2
*D2
 70
     1
 10
0.0
 20
0.0
 30
0.0
  3
*D2
  1

  0
LINE
  5
287
100
AcDbEntity
  8
0
  6
BYBLOCK
 62
     1
100
AcDbLine
 10
-7.07245
 20
6.403821
 30
0.0
 11
-11.025429
 21
6.403821
 31
0.0
  0
LINE
  5
288
100
AcDbEntity
  8
0
  6
BYBLOCK
 62
     1
100
AcDbLine
 10
0.192357
 20
14.0
 30
0.0
 11
-11.025429
 21
14.0
 31
0.0
  0
LINE
  5
289
100
AcDbEntity
  8
0
  6
BYBLOCK
 62
     1
100
AcDbLine
 10
-10.025429
 20
8.403821
 30
0.0
 11
-10.025429
 21
12.0
 31
0.0
  0
INSERT
  5
28A
100
AcDbEntity
  8
0
  6
BYBLOCK
 62
     1
100
AcDbBlockReference
  2
_OPEN30
 10
-10.025429
 20
6.403821
 30
0.0
 41
2.0
 42
2.0
 43
2.0
 50
270.0
  0
INSERT
  5
28B
100
AcDbEntity
  8
0
  6
BYBLOCK
 62
     1
100
AcDbBlockReference
  2
_OPEN30
 10
-10.025429
 20
14.0
 30
0.0
 41
2.0
 42
2.0
 43
2.0
 50
90.0
  0
MTEXT
  5
28C
100
AcDbEntity
  8
0
  6
BYBLOCK
 62
     1
100
AcDbMText
 10
-12.525429
 20
10.201911
 30
0.0
 40
3.0
 41
0.0
 71
     5
 72
     1
  1
\A1;8
 11
0.0
 21
1.0
 31
0.0
  0
POINT
  5
28D
100
AcDbEntity
  8
DEFPOINTS
  6
BYBLOCK
 62
     0
100
AcDbPoint
 10
-6.07245
 20
6.403821
 30
0.0
  0
POINT
  5
28E
100
AcDbEntity
  8
DEFPOINTS
  6
BYBLOCK
 62
     0
100
AcDbPoint
 10
1.192357
 20
14.0
 30
0.0
  0
POINT
  5
28F
100
AcDbEntity
  8
DEFPOINTS
  6
BYBLOCK
 62
     0
100
AcDbPoint
 10
-10.025429
 20
14.0
 30
0.0
  0
ENDBLK
  5
290
100
AcDbEntity
  8
0
100
AcDbBlockEnd
  0
BLOCK
  5
13D
100
AcDbEntity
  8
0
100
AcDbBlockBegin
  2
*D3
 70
     1
 10
0.0
 20
0.0
 30
0.0
  3
*D3
  1

  0
LINE
  5
13E
100
AcDbEntity
  8
0
  6
BYBLOCK
 62
     1
100
AcDbLine
 10
0.192357
 20
14.0
 30
0.0
 11
-20.961338
 21
14.0
 31
0.0
  0
LINE
  5
13F
100
AcDbEntity
  8
0
  6
BYBLOCK
 62
     1
100
AcDbLine
 10
-1.0
 20
0.0
 30
0.0
 11
-20.961338
 21
0.0
 31
0.0
  0
LINE
  5
140
100
AcDbEntity
  8
0
  6
BYBLOCK
 62
     1
100
AcDbLine
 10
-19.961338
 20
12.0
 30
0.0
 11
-19.961338
 21
2.0
 31
0.0
  0
INSERT
  5
141
100
AcDbEntity
  8
0
  6
BYBLOCK
 62
     1
100
AcDbBlockReference
  2
_OPEN30
 10
-19.961338
 20
14.0
 30
0.0
 41
2.0
 42
2.0
 43
2.0
 50
90.0
  0
INSERT
  5
142
100
AcDbEntity
  8
0
  6
BYBLOCK
 62
     1
100
AcDbBlockReference
  2
_OPEN30
 10
-19.961338
 20
0.0
 30
0.0
 41
2.0
 42
2.0
 43
2.0
 50
270.0
  0
MTEXT
  5
143
100
AcDbEntity
  8
0
  6
BYBLOCK
 62
     1
100
AcDbMText
 10
-22.461338
 20
7.0
 30
0.0
 40
3.0
 41
0.0
 71
     5
 72
     1
  1
\A1;14
 11
0.0
 21
1.0
 31
0.0
  0
POINT
  5
144
100
AcDbEntity
  8
DEFPOINTS
  6
BYBLOCK
 62
     0
100
AcDbPoint
 10
1.192357
 20
14.0
 30
0.0
  0
POINT
  5
145
100
AcDbEntity
  8
DEFPOINTS
  6
BYBLOCK
 62
     0
100
AcDbPoint
 10
0.0
 20
0.0
 30
0.0
  0
POINT
  5
146
100
AcDbEntity
  8
DEFPOINTS
  6
BYBLOCK
 62
     0
100
AcDbPoint
 10
-19.961338
 20
0.0
 30
0.0
  0
ENDBLK
  5
147
100
AcDbEntity
  8
0
100
AcDbBlockEnd
  0
BLOCK
  5
14A
100
AcDbEntity
  8
0
100
AcDbBlockBegin
  2
*D4
 70
     1
 10
0.0
 20
0.0
 30
0.0
  3
*D4
  1

  0
LINE
  5
14B
100
AcDbEntity
  8
0
  6
BYBLOCK
 62
     1
100
AcDbLine
 10
37.0
 20
14.0
 30
0.0
 11
51.225905
 21
14.0
 31
0.0
  0
LINE
  5
14C
100
AcDbEntity
  8
0
  6
BYBLOCK
 62
     1
100
AcDbLine
 10
37.0
 20
3.0
 30
0.0
 11
51.225905
 21
3.0
 31
0.0
  0
LINE
  5
14D
100
AcDbEntity
  8
0
  6
BYBLOCK
 62
     1
100
AcDbLine
 10
50.225905
 20
12.0
 30
0.0
 11
50.225905
 21
5.0
 31
0.0
  0
INSERT
  5
14E
100
AcDbEntity
  8
0
  6
BYBLOCK
 62
     1
100
AcDbBlockReference
  2
_OPEN30
 10
50.225905
 20
14.0
 30
0.0
 41
2.0
 42
2.0
 43
2.0
 50
90.0
  0
INSERT
  5
14F
100
AcDbEntity
  8
0
  6
BYBLOCK
 62
     1
100
AcDbBlockReference
  2
_OPEN30
 10
50.225905
 20
3.0
 30
0.0
 41
2.0
 42
2.0
 43
2.0
 50
270.0
  0
MTEXT
  5
150
100
AcDbEntity
  8
0
  6
BYBLOCK
 62
     1
100
AcDbMText
 10
47.725905
 20
8.5
 30
0.0
 40
3.0
 41
0.0
 71
     5
 72
     1
  1
\A1;11
 11
0.0
 21
1.0
 31
0.0
  0
POINT
  5
151
100
AcDbEntity
  8
DEFPOINTS
  6
BYBLOCK
 62
     0
100
AcDbPoint
 10
36.0
 20
14.0
 30
0.0
  0
POINT
  5
152
100
AcDbEntity
  8
DEFPOINTS
  6
BYBLOCK
 62
     0
100
AcDbPoint
 10
36.0
 20
3.0
 30
0.0
  0
POINT
  5
153
100
AcDbEntity
  8
DEFPOINTS
  6
BYBLOCK
 62
     0
100
AcDbPoint
 10
50.225905
 20
3.0
 30
0.0
  0
ENDBLK
  5
154
100
AcDbEntity
  8
0
100
AcDbBlockEnd
  0
BLOCK
  5
157
100
AcDbEntity
  8
0
100
AcDbBlockBegin
  2
*D5
 70
     1
 10
0.0
 20
0.0
 30
0.0
  3
*D5
  1

  0
LINE
  5
158
100
AcDbEntity
  8
0
  6
BYBLOCK
 62
     1
100
AcDbLine
 10
44.0
 20
7.5
 30
0.0
 11
44.0
 21
-5.251404
 31
0.0
  0
LINE
  5
159
100
AcDbEntity
  8
0
  6
BYBLOCK
 62
     1
100
AcDbLine
 10
36.0
 20
2.0
 30
0.0
 11
36.0
 21
-5.251404
 31
0.0
  0
LINE
  5
15A
100
AcDbEntity
  8
0
  6
BYBLOCK
 62
     1
100
AcDbLine
 10
42.0
 20
-4.251404
 30
0.0
 11
38.0
 21
-4.251404
 31
0.0
  0
INSERT
  5
15B
100
AcDbEntity
  8
0
  6
BYBLOCK
 62
     1
100
AcDbBlockReference
  2
_OPEN30
 10
44.0
 20
-4.251404
 30
0.0
 41
2.0
 42
2.0
 43
2.0
  0
INSERT
  5
15C
100
AcDbEntity
  8
0
  6
BYBLOCK
 62
     1
100
AcDbBlockReference
  2
_OPEN30
 10
36.0
 20
-4.251404
 30
0.0
 41
2.0
 42
2.0
 43
2.0
 50
180.0
  0
MTEXT
  5
15D
100
AcDbEntity
  8
0
  6
BYBLOCK
 62
     1
100
AcDbMText
 10
40.0
 20
-1.751404
 30
0.0
 40
3.0
 41
0.0
 71
     5
 72
     1
  1
\A1;8
  0
POINT
  5
15E
100
AcDbEntity
  8
DEFPOINTS
  6
BYBLOCK
 62
     0
100
AcDbPoint
 10
44.0
 20
8.5
 30
0.0
  0
POINT
  5
15F
100
AcDbEntity
  8
DEFPOINTS
  6
BYBLOCK
 62
     0
100
AcDbPoint
 10
36.0
 20
3.0
 30
0.0
  0
POINT
  5
160
100
AcDbEntity
  8
DEFPOINTS
  6
BYBLOCK
 62
     0
100
AcDbPoint
 10
36.0
 20
-4.251404
 30
0.0
  0
ENDBLK
  5
161
100
AcDbEntity
  8
0
100
AcDbBlockEnd
  0
BLOCK
  5
164
100
AcDbEntity
  8
0
100
AcDbBlockBegin
  2
*D6
 70
     1
 10
0.0
 20
0.0
 30
0.0
  3
*D6
  1

  0
LINE
  5
165
100
AcDbEntity
  8
0
  6
BYBLOCK
 62
     1
100
AcDbLine
 10
44.0
 20
7.5
 30
0.0
 11
44.0
 21
-10.96239
 31
0.0
  0
LINE
  5
166
100
AcDbEntity
  8
0
  6
BYBLOCK
 62
     1
100
AcDbLine
 10
0.0
 20
-1.0
 30
0.0
 11
0.0
 21
-10.96239
 31
0.0
  0
LINE
  5
167
100
AcDbEntity
  8
0
  6
BYBLOCK
 62
     1
100
AcDbLine
 10
42.0
 20
-9.96239
 30
0.0
 11
2.0
 21
-9.96239
 31
0.0
  0
INSERT
  5
168
100
AcDbEntity
  8
0
  6
BYBLOCK
 62
     1
100
AcDbBlockReference
  2
_OPEN30
 10
44.0
 20
-9.96239
 30
0.0
 41
2.0
 42
2.0
 43
2.0
  0
INSERT
  5
169
100
AcDbEntity
  8
0
  6
BYBLOCK
 62
     1
100
AcDbBlockReference
  2
_OPEN30
 10
0.0
 20
-9.96239
 30
0.0
 41
2.0
 42
2.0
 43
2.0
 50
180.0
  0
MTEXT
  5
16A
100
AcDbEntity
  8
0
  6
BYBLOCK
 62
     1
100
AcDbMText
 10
22.0
 20
-7.46239
 30
0.0
 40
3.0
 41
0.0
 71
     5
 72
     1
  1
\A1;44
  0
POINT
  5
16B
100
AcDbEntity
  8
DEFPOINTS
  6
BYBLOCK
 62
     0
100
AcDbPoint
 10
44.0
 20
8.5
 30
0.0
  0
POINT
  5
16C
100
AcDbEntity
  8
DEFPOINTS
  6
BYBLOCK
 62
     0
100
AcDbPoint
 10
0.0
 20
0.0
 30
0.0
  0
POINT
  5
16D
100
AcDbEntity
  8
DEFPOINTS
  6
BYBLOCK
 62
     0
100
AcDbPoint
 10
0.0
 20
-9.96239
 30
0.0
  0
ENDBLK
  5
16E
100
AcDbEntity
  8
0
100
AcDbBlockEnd
  0
BLOCK
  5
182
100
AcDbEntity
  8
0
100
AcDbBlockBegin
  2
*D7
 70
     1
 10
0.0
 20
0.0
 30
0.0
  3
*D7
  1

  0
LINE
  5
183
100
AcDbEntity
  8
0
  6
BYBLOCK
 62
     1
100
AcDbLine
 10
0.0
 20
-2.0
 30
0.0
 11
0.0
 21
-9.133166
 31
0.0
  0
LINE
  5
184
100
AcDbEntity
  8
0
  6
BYBLOCK
 62
     1
100
AcDbLine
 10
0.707107
 20
-0.707107
 30
0.0
 11
6.458124
 21
-6.458123
 31
0.0
  0
ARC
  5
185
100
AcDbEntity
  8
0
  6
BYBLOCK
 62
     1
100
AcDbCircle
 10
0.0
 20
0.0
 30
0.0
 40
8.133166
100
AcDbArc
 50
284.12516
 51
300.874844
  0
INSERT
  5
186
100
AcDbEntity
  8
0
  6
BYBLOCK
 62
     1
100
AcDbBlockReference
  2
_OPEN30
 10
0.0
 20
-8.133166
 30
0.0
 41
2.0
 42
2.0
 43
2.0
 50
187.06258
  0
INSERT
  5
187
100
AcDbEntity
  8
0
  6
BYBLOCK
 62
     1
100
AcDbBlockReference
  2
_OPEN30
 10
5.751017
 20
-5.751016
 30
0.0
 41
2.0
 42
2.0
 43
2.0
 50
37.937424
  0
MTEXT
  5
188
100
AcDbEntity
  8
0
  6
BYBLOCK
 62
     1
100
AcDbMText
 10
-2.963718
 20
-4.790504
 30
0.0
 40
3.0
 41
0.0
 71
     5
 72
     1
  1
\A1;45°
 11
0.850411
 21
-0.526119
 31
0.0
  0
POINT
  5
189
100
AcDbEntity
  8
DEFPOINTS
  6
BYBLOCK
 62
     0
100
AcDbPoint
 10
4.066583
 20
-7.043528
 30
0.0
  0
POINT
  5
18A
100
AcDbEntity
  8
DEFPOINTS
  6
BYBLOCK
 62
     0
100
AcDbPoint
 10
-0.234315
 20
0.234315
 30
0.0
  0
POINT
  5
18B
100
AcDbEntity
  8
DEFPOINTS
  6
BYBLOCK
 62
     0
100
AcDbPoint
 10
0.0
 20
0.0
 30
0.0
  0
POINT
  5
18C
100
AcDbEntity
  8
DEFPOINTS
  6
BYBLOCK
 62
     0
100
AcDbPoint
 10
0.0
 20
-1.0
 30
0.0
  0
POINT
  5
18D
100
AcDbEntity
  8
DEFPOINTS
  6
BYBLOCK
 62
     0
100
AcDbPoint
 10
0.0
 20
0.0
 30
0.0
  0
ENDBLK
  5
18E
100
AcDbEntity
  8
0
100
AcDbBlockEnd
  0
BLOCK
  5
190
100
AcDbEntity
  8
0
100
AcDbBlockBegin
  2
*D8
 70
     1
 10
0.0
 20
0.0
 30
0.0
  3
*D8
  1

  0
LINE
  5
191
100
AcDbEntity
  8
0
  6
BYBLOCK
 62
     1
100
AcDbLine
 10
-36.365943
 20
18.148445
 30
0.0
 11
-49.760402
 21
14.255734
 31
0.0
  0
MTEXT
  5
192
100
AcDbEntity
  8
0
  6
BYBLOCK
 62
     1
100
AcDbMText
 10
-41.864977
 20
19.153746
 30
0.0
 40
3.0
 41
0.0
 71
     5
 72
     1
  1
\A1;\U+220538
 11
0.960269
 21
0.279074
 31
0.0
  0
INSERT
  5
193
100
AcDbEntity
  8
0
  6
BYBLOCK
 62
     1
100
AcDbBlockReference
  2
_OPEN30
 10
-51.680941
 20
13.697585
 30
0.0
 41
2.0
 42
2.0
 43
2.0
 50
196.204975
  0
POINT
  5
194
100
AcDbEntity
  8
DEFPOINTS
  6
BYBLOCK
 62
     0
100
AcDbPoint
 10
-51.680941
 20
13.697585
 30
0.0
  0
POINT
  5
195
100
AcDbEntity
  8
DEFPOINTS
  6
BYBLOCK
 62
     0
100
AcDbPoint
 10
-15.190701
 20
24.302415
 30
0.0
  0
ENDBLK
  5
196
100
AcDbEntity
  8
0
100
AcDbBlockEnd
  0
BLOCK
  5
199
100
AcDbEntity
  8
0
100
AcDbBlockBegin
  2
*D9
 70
     1
 10
0.0
 20
0.0
 30
0.0
  3
*D9
  1

  0
LINE
  5
19A
100
AcDbEntity
  8
0
  6
BYBLOCK
 62
     1
100
AcDbLine
 10
37.0
 20
-32.216324
 30
0.0
 11
51.329892
 21
-32.216324
 31
0.0
  0
LINE
  5
19B
100
AcDbEntity
  8
0
  6
BYBLOCK
 62
     1
100
AcDbLine
 10
37.0
 20
-44.716324
 30
0.0
 11
51.329892
 21
-44.716324
 31
0.0
  0
LINE
  5
19C
100
AcDbEntity
  8
0
  6
BYBLOCK
 62
     1
100
AcDbLine
 10
50.329892
 20
-34.216324
 30
0.0
 11
50.329892
 21
-42.716324
 31
0.0
  0
INSERT
  5
19D
100
AcDbEntity
  8
0
  6
BYBLOCK
 62
     1
100
AcDbBlockReference
  2
_OPEN30
 10
50.329892
 20
-32.216324
 30
0.0
 41
2.0
 42
2.0
 43
2.0
 50
90.0
  0
INSERT
  5
19E
100
AcDbEntity
  8
0
  6
BYBLOCK
 62
     1
100
AcDbBlockReference
  2
_OPEN30
 10
50.329892
 20
-44.716324
 30
0.0
 41
2.0
 42
2.0
 43
2.0
 50
270.0
  0
MTEXT
  5
19F
100
AcDbEntity
  8
0
  6
BYBLOCK
 62
     1
100
AcDbMText
 10
47.829892
 20
-38.466324
 30
0.0
 40
3.0
 41
0.0
 71
     5
 72
     1
  1
\A1;12.5
 11
0.0
 21
1.0
 31
0.0
  0
POINT
  5
1A0
100
AcDbEntity
  8
DEFPOINTS
  6
BYBLOCK
 62
     0
100
AcDbPoint
 10
36.0
 20
-32.216324
 30
0.0
  0
POINT
  5
1A1
100
AcDbEntity
  8
DEFPOINTS
  6
BYBLOCK
 62
     0
100
AcDbPoint
 10
36.0
 20
-44.716324
 30
0.0
  0
POINT
  5
1A2
100
AcDbEntity
  8
DEFPOINTS
  6
BYBLOCK
 62
     0
100
AcDbPoint
 10
50.329892
 20
-44.716324
 30
0.0
  0
ENDBLK
  5
1A3
100
AcDbEntity
  8
0
100
AcDbBlockEnd
  0
BLOCK
  5
1A6
100
AcDbEntity
  8
0
100
AcDbBlockBegin
  2
*D10
 70
     1
 10
0.0
 20
0.0
 30
0.0
  3
*D10
  1

  0
LINE
  5
1A7
100
AcDbEntity
  8
0
  6
BYBLOCK
 62
     1
100
AcDbLine
 10
-7.072449
 20
-34.716324
 30
0.0
 11
-11.010923
 21
-34.716324
 31
0.0
  0
LINE
  5
1A8
100
AcDbEntity
  8
0
  6
BYBLOCK
 62
     1
100
AcDbLine
 10
-4.210486
 20
-44.716324
 30
0.0
 11
-11.010923
 21
-44.716324
 31
0.0
  0
LINE
  5
1A9
100
AcDbEntity
  8
0
  6
BYBLOCK
 62
     1
100
AcDbLine
 10
-10.010923
 20
-36.716324
 30
0.0
 11
-10.010923
 21
-42.716324
 31
0.0
  0
INSERT
  5
1AA
100
AcDbEntity
  8
0
  6
BYBLOCK
 62
     1
100
AcDbBlockReference
  2
_OPEN30
 10
-10.010923
 20
-34.716324
 30
0.0
 41
2.0
 42
2.0
 43
2.0
 50
90.0
  0
INSERT
  5
1AB
100
AcDbEntity
  8
0
  6
BYBLOCK
 62
     1
100
AcDbBlockReference
  2
_OPEN30
 10
-10.010923
 20
-44.716324
 30
0.0
 41
2.0
 42
2.0
 43
2.0
 50
270.0
  0
MTEXT
  5
1AC
100
AcDbEntity
  8
0
  6
BYBLOCK
 62
     1
100
AcDbMText
 10
-12.510923
 20
-39.716324
 30
0.0
 40
3.0
 41
0.0
 71
     5
 72
     1
  1
\A1;10
 11
0.0
 21
1.0
 31
0.0
  0
POINT
  5
1AD
100
AcDbEntity
  8
DEFPOINTS
  6
BYBLOCK
 62
     0
100
AcDbPoint
 10
-6.072449
 20
-34.716324
 30
0.0
  0
POINT
  5
1AE
100
AcDbEntity
  8
DEFPOINTS
  6
BYBLOCK
 62
     0
100
AcDbPoint
 10
-3.210486
 20
-44.716324
 30
0.0
  0
POINT
  5
1AF
100
AcDbEntity
  8
DEFPOINTS
  6
BYBLOCK
 62
     0
100
AcDbPoint
 10
-10.010923
 20
-44.716324
 30
0.0
  0
ENDBLK
  5
1B0
100
AcDbEntity
  8
0
100
AcDbBlockEnd
  0
BLOCK
  5
1B3
100
AcDbEntity
  8
0
100
AcDbBlockBegin
  2
*D11
 70
     1
 10
0.0
 20
0.0
 30
0.0
  3
*D11
  1

  0
LINE
  5
1B4
100
AcDbEntity
  8
0
  6
BYBLOCK
 62
     1
100
AcDbLine
 10
23.0
 20
-30.382648
 30
0.0
 11
23.0
 21
-29.126844
 31
0.0
  0
LINE
  5
1B5
100
AcDbEntity
  8
0
  6
BYBLOCK
 62
     1
100
AcDbLine
 10
25.0
 20
-30.52084
 30
0.0
 11
25.0
 21
-29.126844
 31
0.0
  0
LINE
  5
1B6
100
AcDbEntity
  8
0
  6
BYBLOCK
 62
     1
100
AcDbLine
 10
21.0
 20
-30.126844
 30
0.0
 11
19.0
 21
-30.126844
 31
0.0
  0
LINE
  5
1B7
100
AcDbEntity
  8
0
  6
BYBLOCK
 62
     1
100
AcDbLine
 10
27.0
 20
-30.126844
 30
0.0
 11
33.0
 21
-30.126844
 31
0.0
  0
LINE
  5
1B8
100
AcDbEntity
  8
0
  6
BYBLOCK
 62
     1
100
AcDbLine
 10
23.0
 20
-30.126844
 30
0.0
 11
25.0
 21
-30.126844
 31
0.0
  0
INSERT
  5
1B9
100
AcDbEntity
  8
0
  6
BYBLOCK
 62
     1
100
AcDbBlockReference
  2
_OPEN30
 10
23.0
 20
-30.126844
 30
0.0
 41
2.0
 42
2.0
 43
2.0
  0
INSERT
  5
1BA
100
AcDbEntity
  8
0
  6
BYBLOCK
 62
     1
100
AcDbBlockReference
  2
_OPEN30
 10
25.0
 20
-30.126844
 30
0.0
 41
2.0
 42
2.0
 43
2.0
 50
180.0
  0
MTEXT
  5
1BB
100
AcDbEntity
  8
0
  6
BYBLOCK
 62
     1
100
AcDbMText
 10
31.0
 20
-27.626844
 30
0.0
 40
3.0
 41
0.0
 71
     5
 72
     1
  1
\A1;2
  0
POINT
  5
1BC
100
AcDbEntity
  8
DEFPOINTS
  6
BYBLOCK
 62
     0
100
AcDbPoint
 10
23.0
 20
-31.382648
 30
0.0
  0
POINT
  5
1BD
100
AcDbEntity
  8
DEFPOINTS
  6
BYBLOCK
 62
     0
100
AcDbPoint
 10
25.0
 20
-31.52084
 30
0.0
  0
POINT
  5
1BE
100
AcDbEntity
  8
DEFPOINTS
  6
BYBLOCK
 62
     0
100
AcDbPoint
 10
25.0
 20
-30.126844
 30
0.0
  0
ENDBLK
  5
1BF
100
AcDbEntity
  8
0
100
AcDbBlockEnd
  0
BLOCK
  5
1C3
100
AcDbEntity
  8
0
100
AcDbBlockBegin
  2
*D12
 70
     1
 10
0.0
 20
0.0
 30
0.0
  3
*D12
  1

  0
LINE
  5
1C4
100
AcDbEntity
  8
0
  6
BYBLOCK
 62
     1
100
AcDbLine
 10
24.0
 20
-30.52084
 30
0.0
 11
24.0
 21
-19.278122
 31
0.0
  0
LINE
  5
1C5
100
AcDbEntity
  8
0
  6
BYBLOCK
 62
     1
100
AcDbLine
 10
44.0
 20
-37.716324
 30
0.0
 11
44.0
 21
-19.278122
 31
0.0
  0
LINE
  5
1C6
100
AcDbEntity
  8
0
  6
BYBLOCK
 62
     1
100
AcDbLine
 10
26.0
 20
-20.278122
 30
0.0
 11
42.0
 21
-20.278122
 31
0.0
  0
INSERT
  5
1C7
100
AcDbEntity
  8
0
  6
BYBLOCK
 62
     1
100
AcDbBlockReference
  2
_OPEN30
 10
24.0
 20
-20.278122
 30
0.0
 41
2.0
 42
2.0
 43
2.0
 50
180.0
  0
INSERT
  5
1C8
100
AcDbEntity
  8
0
  6
BYBLOCK
 62
     1
100
AcDbBlockReference
  2
_OPEN30
 10
44.0
 20
-20.278122
 30
0.0
 41
2.0
 42
2.0
 43
2.0
  0
MTEXT
  5
1C9
100
AcDbEntity
  8
0
  6
BYBLOCK
 62
     1
100
AcDbMText
 10
34.0
 20
-17.778122
 30
0.0
 40
3.0
 41
0.0
 71
     5
 72
     1
  1
\A1;20
  0
POINT
  5
1CA
100
AcDbEntity
  8
DEFPOINTS
  6
BYBLOCK
 62
     0
100
AcDbPoint
 10
24.0
 20
-31.52084
 30
0.0
  0
POINT
  5
1CB
100
AcDbEntity
  8
DEFPOINTS
  6
BYBLOCK
 62
     0
100
AcDbPoint
 10
44.0
 20
-38.716324
 30
0.0
  0
POINT
  5
1CC
100
AcDbEntity
  8
DEFPOINTS
  6
BYBLOCK
 62
     0
100
AcDbPoint
 10
44.0
 20
-20.278122
 30
0.0
  0
ENDBLK
  5
1CD
100
AcDbEntity
  8
0
100
AcDbBlockEnd
  0
BLOCK
  5
1D0
100
AcDbEntity
  8
0
100
AcDbBlockBegin
  2
*D13
 70
     1
 10
0.0
 20
0.0
 30
0.0
  3
*D13
  1

  0
LINE
  5
1D1
100
AcDbEntity
  8
0
  6
BYBLOCK
 62
     1
100
AcDbLine
 10
88.0
 20
-39.716325
 30
0.0
 11
100.831097
 21
-39.716325
 31
0.0
  0
LINE
  5
1D2
100
AcDbEntity
  8
0
  6
BYBLOCK
 62
     1
100
AcDbLine
 10
77.0
 20
-44.716324
 30
0.0
 11
100.831097
 21
-44.716324
 31
0.0
  0
LINE
  5
1D3
100
AcDbEntity
  8
0
  6
BYBLOCK
 62
     1
100
AcDbLine
 10
99.831097
 20
-37.716325
 30
0.0
 11
99.831097
 21
-35.716325
 31
0.0
  0
LINE
  5
1D4
100
AcDbEntity
  8
0
  6
BYBLOCK
 62
     1
100
AcDbLine
 10
99.831097
 20
-46.716324
 30
0.0
 11
99.831097
 21
-48.716324
 31
0.0
  0
LINE
  5
1D5
100
AcDbEntity
  8
0
  6
BYBLOCK
 62
     1
100
AcDbLine
 10
99.831097
 20
-39.716325
 30
0.0
 11
99.831097
 21
-44.716324
 31
0.0
  0
INSERT
  5
1D6
100
AcDbEntity
  8
0
  6
BYBLOCK
 62
     1
100
AcDbBlockReference
  2
_OPEN30
 10
99.831097
 20
-39.716325
 30
0.0
 41
2.0
 42
2.0
 43
2.0
 50
270.0
  0
INSERT
  5
1D7
100
AcDbEntity
  8
0
  6
BYBLOCK
 62
     1
100
AcDbBlockReference
  2
_OPEN30
 10
99.831097
 20
-44.716324
 30
0.0
 41
2.0
 42
2.0
 43
2.0
 50
90.0
  0
MTEXT
  5
1D8
100
AcDbEntity
  8
0
  6
BYBLOCK
 62
     1
100
AcDbMText
 10
97.331097
 20
-42.216325
 30
0.0
 40
3.0
 41
0.0
 71
     5
 72
     1
  1
\A1;5
 11
0.0
 21
1.0
 31
0.0
  0
POINT
  5
1D9
100
AcDbEntity
  8
DEFPOINTS
  6
BYBLOCK
 62
     0
100
AcDbPoint
 10
87.0
 20
-39.716325
 30
0.0
  0
POINT
  5
1DA
100
AcDbEntity
  8
DEFPOINTS
  6
BYBLOCK
 62
     0
100
AcDbPoint
 10
76.0
 20
-44.716324
 30
0.0
  0
POINT
  5
1DB
100
AcDbEntity
  8
DEFPOINTS
  6
BYBLOCK
 62
     0
100
AcDbPoint
 10
99.831097
 20
-44.716324
 30
0.0
  0
ENDBLK
  5
1DC
100
AcDbEntity
  8
0
100
AcDbBlockEnd
  0
BLOCK
  5
1F2
100
AcDbEntity
  8
0
100
AcDbBlockBegin
  2
*D14
 70
     1
 10
0.0
 20
0.0
 30
0.0
  3
*D14
  1

  0
LINE
  5
1F3
100
AcDbEntity
  8
0
  6
BYBLOCK
 62
     1
100
AcDbLine
 10
90.193897
 20
-40.878809
 30
0.0
 11
93.129812
 21
-41.947396
 31
0.0
  0
LINE
  5
1F4
100
AcDbEntity
  8
0
  6
BYBLOCK
 62
     1
100
AcDbLine
 10
89.0
 20
-39.716325
 30
0.0
 11
93.52321
 21
-39.716325
 31
0.0
  0
ARC
  5
1F5
100
AcDbEntity
  8
0
  6
BYBLOCK
 62
     1
100
AcDbCircle
 10
87.0
 20
-39.716325
 30
0.0
 40
5.52321
100
AcDbArc
 50
298.275328
 51
319.137659
  0
ARC
  5
1F6
100
AcDbEntity
  8
0
  6
BYBLOCK
 62
     1
100
AcDbCircle
 10
87.0
 20
-39.716325
 30
0.0
 40
5.52321
100
AcDbArc
 50
20.862331
 51
41.724662
  0
ARC
  5
1F7
100
AcDbEntity
  8
0
  6
BYBLOCK
 62
     1
100
AcDbCircle
 10
87.0
 20
-39.716325
 30
0.0
 40
5.52321
100
AcDbArc
 50
339.99999
 51
360.0
  0
INSERT
  5
1F8
100
AcDbEntity
  8
0
  6
BYBLOCK
 62
     1
100
AcDbBlockReference
  2
_OPEN30
 10
92.19012
 20
-41.605375
 30
0.0
 41
2.0
 42
2.0
 43
2.0
 50
59.568825
  0
INSERT
  5
1F9
100
AcDbEntity
  8
0
  6
BYBLOCK
 62
     1
100
AcDbBlockReference
  2
_OPEN30
 10
92.52321
 20
-39.716325
 30
0.0
 41
2.0
 42
2.0
 43
2.0
 50
280.431166
  0
MTEXT
  5
1FA
100
AcDbEntity
  8
0
  6
BYBLOCK
 62
     1
100
AcDbMText
 10
94.449175
 20
-36.736109
 30
0.0
 40
3.0
 41
0.0
 71
     5
 72
     1
  1
\A1;20°
 11
0.371449
 21
-0.928453
 31
0.0
  0
POINT
  5
1FB
100
AcDbEntity
  8
DEFPOINTS
  6
BYBLOCK
 62
     0
100
AcDbPoint
 10
92.374331
 20
-40.990066
 30
0.0
  0
POINT
  5
1FC
100
AcDbEntity
  8
DEFPOINTS
  6
BYBLOCK
 62
     0
100
AcDbPoint
 10
87.0
 20
-39.716325
 30
0.0
  0
POINT
  5
1FD
100
AcDbEntity
  8
DEFPOINTS
  6
BYBLOCK
 62
     0
100
AcDbPoint
 10
74.028519
 20
-34.99509
 30
0.0
  0
POINT
  5
1FE
100
AcDbEntity
  8
DEFPOINTS
  6
BYBLOCK
 62
     0
100
AcDbPoint
 10
89.254204
 20
-40.536789
 30
0.0
  0
POINT
  5
1FF
100
AcDbEntity
  8
DEFPOINTS
  6
BYBLOCK
 62
     0
100
AcDbPoint
 10
88.0
 20
-39.716325
 30
0.0
  0
ENDBLK
  5
200
100
AcDbEntity
  8
0
100
AcDbBlockEnd
  0
BLOCK
  5
208
100
AcDbEntity
  8
0
100
AcDbBlockBegin
  2
A$C39D8576A
 70
     0
 10
0.0
 20
0.0
 30
0.0
  3
A$C39D8576A
  1

  0
TEXT
  5
202
100
AcDbEntity
  8
寸法
  6
CONTINUOUS
100
AcDbText
 10
0.0
 20
12.495593
 30
0.0
 40
3.0
  1
0°
100
AcDbText
  0
LINE
  5
203
100
AcDbEntity
  8
寸法
  6
CONTINUOUS
 62
     1
100
AcDbLine
 10
5.778669
 20
12.988109
 30
0.0
 11
5.778669
 21
5.006003
 31
0.0
  0
LINE
  5
204
100
AcDbEntity
  8
寸法
  6
CONTINUOUS
 62
     1
100
AcDbLine
 10
13.507843
 20
5.006003
 30
0.0
 11
5.778669
 21
5.006003
 31
0.0
  0
INSERT
  5
205
100
AcDbEntity
  8
寸法
  6
CONTINUOUS
 62
     1
100
AcDbBlockReference
  2
_OPEN30
 10
15.507843
 20
5.006003
 30
0.0
 41
2.0
 42
2.0
 43
2.0
  0
TEXT
  5
206
100
AcDbEntity
  8
寸法
  6
CONTINUOUS
100
AcDbText
 10
13.414538
 20
0.0
 30
0.0
 40
3.0
  1
+5°
100
AcDbText
  0
INSERT
  5
207
100
AcDbEntity
  8
寸法
  6
CONTINUOUS
 62
     1
100
AcDbBlockReference
  2
_OPEN30
 10
5.778669
 20
14.988109
 30
0.0
 41
2.0
 42
2.0
 43
2.0
 50
90.0
  0
ENDBLK
  5
209
100
AcDbEntity
  8
0
100
AcDbBlockEnd
  0
BLOCK
  5
21E
100
AcDbEntity
  8
0
100
AcDbBlockBegin
  2
*D16
 70
     1
 10
0.0
 20
0.0
 30
0.0
  3
*D16
  1

  0
LINE
  5
21F
100
AcDbEntity
  8
0
  6
BYBLOCK
 62
     1
100
AcDbLine
 10
13.164815
 20
-47.222855
 30
0.0
 11
5.663512
 21
-55.939531
 31
0.0
  0
MTEXT
  5
220
100
AcDbEntity
  8
0
  6
BYBLOCK
 62
     1
100
AcDbMText
 10
8.171521
 20
-49.192503
 30
0.0
 40
3.0
 41
0.0
 71
     5
 72
     1
  1
\A1;\U+220560
 11
0.652287
 21
0.757972
 31
0.0
  0
INSERT
  5
221
100
AcDbEntity
  8
0
  6
BYBLOCK
 62
     1
100
AcDbBlockReference
  2
_OPEN30
 10
4.358937
 20
-57.455475
 30
0.0
 41
2.0
 42
2.0
 43
2.0
 50
229.285725
  0
POINT
  5
222
100
AcDbEntity
  8
DEFPOINTS
  6
BYBLOCK
 62
     0
100
AcDbPoint
 10
4.358937
 20
-57.455475
 30
0.0
  0
POINT
  5
223
100
AcDbEntity
  8
DEFPOINTS
  6
BYBLOCK
 62
     0
100
AcDbPoint
 10
43.496166
 20
-11.977173
 30
0.0
  0
ENDBLK
  5
224
100
AcDbEntity
  8
0
100
AcDbBlockEnd
  0
BLOCK
  5
291
100
AcDbEntity
  8
0
100
AcDbBlockBegin
  2
*D17
 70
     1
 10
0.0
 20
0.0
 30
0.0
  3
*D17
  1

  0
LINE
  5
292
100
AcDbEntity
  8
0
  6
BYBLOCK
 62
     1
100
AcDbLine
 10
-6.07245
 20
5.403822
 30
0.0
 11
-6.07245
 21
-22.068337
 31
0.0
  0
LINE
  5
293
100
AcDbEntity
  8
0
  6
BYBLOCK
 62
     1
100
AcDbLine
 10
44.0
 20
5.5
 30
0.0
 11
44.0
 21
-22.068337
 31
0.0
  0
LINE
  5
294
100
AcDbEntity
  8
0
  6
BYBLOCK
 62
     1
100
AcDbLine
 10
-4.07245
 20
-21.068337
 30
0.0
 11
42.0
 21
-21.068337
 31
0.0
  0
INSERT
  5
295
100
AcDbEntity
  8
0
  6
BYBLOCK
 62
     1
100
AcDbBlockReference
  2
_OPEN30
 10
-6.07245
 20
-21.068337
 30
0.0
 41
2.0
 42
2.0
 43
2.0
 50
180.0
  0
INSERT
  5
296
100
AcDbEntity
  8
0
  6
BYBLOCK
 62
     1
100
AcDbBlockReference
  2
_OPEN30
 10
44.0
 20
-21.068337
 30
0.0
 41
2.0
 42
2.0
 43
2.0
  0
MTEXT
  5
297
100
AcDbEntity
  8
0
  6
BYBLOCK
 62
     1
100
AcDbMText
 10
18.963775
 20
-18.568337
 30
0.0
 40
3.0
 41
0.0
 71
     5
 72
     1
  1
\A1;50
  0
POINT
  5
298
100
AcDbEntity
  8
DEFPOINTS
  6
BYBLOCK
 62
     0
100
AcDbPoint
 10
-6.07245
 20
6.403822
 30
0.0
  0
POINT
  5
299
100
AcDbEntity
  8
DEFPOINTS
  6
BYBLOCK
 62
     0
100
AcDbPoint
 10
44.0
 20
6.5
 30
0.0
  0
POINT
  5
29A
100
AcDbEntity
  8
DEFPOINTS
  6
BYBLOCK
 62
     0
100
AcDbPoint
 10
44.0
 20
-21.068337
 30
0.0
  0
ENDBLK
  5
29B
100
AcDbEntity
  8
0
100
AcDbBlockEnd
  0
BLOCK
  5
262
100
AcDbEntity
  8
0
100
AcDbBlockBegin
  2
*D18
 70
     1
 10
0.0
 20
0.0
 30
0.0
  3
*D18
  1

  0
LINE
  5
263
100
AcDbEntity
  8
0
  6
BYBLOCK
 62
     1
100
AcDbLine
 10
13.880133
 20
-60.013334
 30
0.0
 11
6.877384
 21
-69.135369
 31
0.0
  0
MTEXT
  5
264
100
AcDbEntity
  8
0
  6
BYBLOCK
 62
     1
100
AcDbMText
 10
9.004642
 20
-62.258795
 30
0.0
 40
3.0
 41
0.0
 71
     5
 72
     1
  1
\A1;\U+220560
 11
0.608935
 21
0.79322
 31
0.0
  0
INSERT
  5
265
100
AcDbEntity
  8
0
  6
BYBLOCK
 62
     1
100
AcDbBlockReference
  2
_OPEN30
 10
5.659515
 20
-70.72181
 30
0.0
 41
2.0
 42
2.0
 43
2.0
 50
232.487488
  0
POINT
  5
266
100
AcDbEntity
  8
DEFPOINTS
  6
BYBLOCK
 62
     0
100
AcDbPoint
 10
5.659515
 20
-70.72181
 30
0.0
  0
POINT
  5
267
100
AcDbEntity
  8
DEFPOINTS
  6
BYBLOCK
 62
     0
100
AcDbPoint
 10
42.195588
 20
-23.128595
 30
0.0
  0
ENDBLK
  5
268
100
AcDbEntity
  8
0
100
AcDbBlockEnd
  0
ENDSEC
  0
SECTION
  2
ENTITIES
  0
POINT
  5
24
100
AcDbEntity
  8
0
  6
CONTINUOUS
 62
     7
100
AcDbPoint
 10
0.0
 20
0.0
 30
0.0
  0
POINT
  5
25
100
AcDbEntity
  8
0
  6
CONTINUOUS
 62
     7
100
AcDbPoint
 10
-33.435821
 20
0.0
 30
0.0
  0
POINT
  5
26
100
AcDbEntity
  8
0
  6
CONTINUOUS
 62
     7
100
AcDbPoint
 10
0.000007
 20
-46.925202
 30
0.0
  0
POINT
  5
27
100
AcDbEntity
  8
0
  6
CONTINUOUS
 62
     7
100
AcDbPoint
 10
76.0
 20
-56.925202
 30
0.0
  0
LINE
  5
28
100
AcDbEntity
  8
0
  6
CONTINUOUS
 62
     7
100
AcDbLine
 10
1.192357
 20
14.0
 30
0.0
 11
36.0
 21
14.0
 31
0.0
  0
LINE
  5
29
100
AcDbEntity
  8
0
  6
CONTINUOUS
 62
     7
100
AcDbLine
 10
11.0
 20
3.0
 30
0.0
 11
36.0
 21
3.0
 31
0.0
  0
LINE
  5
2A
100
AcDbEntity
  8
0
  6
CONTINUOUS
 62
     7
100
AcDbLine
 10
-3.210486
 20
-56.925202
 30
0.0
 11
36.0
 21
-56.925202
 31
0.0
  0
LINE
  5
2B
100
AcDbEntity
  8
0
  6
CONTINUOUS
 62
     7
100
AcDbLine
 10
36.0
 20
-44.425202
 30
0.0
 11
36.0
 21
-56.925202
 31
0.0
  0
LINE
  5
2C
100
AcDbEntity
  8
0
  6
CONTINUOUS
 62
     7
100
AcDbLine
 10
3.302008
 20
13.0
 30
0.0
 11
35.933064
 21
13.0
 31
0.0
  0
LINE
  5
2D
100
AcDbEntity
  8
0
  6
CONTINUOUS
 62
     7
100
AcDbLine
 10
12.302009
 20
4.0
 30
0.0
 11
19.819483
 21
4.0
 31
0.0
  0
LINE
  5
2E
100
AcDbEntity
  8
0
  6
CONTINUOUS
 62
     7
100
AcDbLine
 10
44.0
 20
10.5
 30
0.0
 11
44.0
 21
6.5
 31
0.0
  0
LINE
  5
2F
100
AcDbEntity
  8
0
  6
CENTER
 62
     1
100
AcDbLine
 10
33.084702
 20
8.5
 30
0.0
 11
45.930676
 21
8.5
 31
0.0
  0
LINE
  5
30
100
AcDbEntity
  8
0
  6
CONTINUOUS
 62
     7
100
AcDbLine
 10
39.0
 20
12.5
 30
0.0
 11
39.0
 21
4.5
 31
0.0
  0
LINE
  5
31
100
AcDbEntity
  8
0
  6
CONTINUOUS
 62
     7
100
AcDbLine
 10
36.0
 20
6.0
 30
0.0
 11
39.0
 21
6.0
 31
0.0
  0
LINE
  5
32
100
AcDbEntity
  8
0
  6
CONTINUOUS
 62
     7
100
AcDbLine
 10
36.0
 20
11.0
 30
0.0
 11
39.0
 21
11.0
 31
0.0
  0
LINE
  5
33
100
AcDbEntity
  8
0
  6
CONTINUOUS
 62
     7
100
AcDbLine
 10
41.5
 20
13.0
 30
0.0
 11
44.0
 21
10.5
 31
0.0
  0
LINE
  5
34
100
AcDbEntity
  8
0
  6
CONTINUOUS
 62
     7
100
AcDbLine
 10
41.5
 20
4.0
 30
0.0
 11
44.0
 21
6.5
 31
0.0
  0
LINE
  5
35
100
AcDbEntity
  8
0
  6
CONTINUOUS
 62
     7
100
AcDbLine
 10
39.5
 20
4.0
 30
0.0
 11
41.5
 21
4.0
 31
0.0
  0
LINE
  5
36
100
AcDbEntity
  8
0
  6
CONTINUOUS
 62
     7
100
AcDbLine
 10
39.5
 20
13.0
 30
0.0
 11
41.5
 21
13.0
 31
0.0
  0
LINE
  5
37
100
AcDbEntity
  8
0
  6
CONTINUOUS
 62
     7
100
AcDbLine
 10
36.0
 20
10.7295
 30
0.0
 11
39.0
 21
10.7295
 31
0.0
  0
LINE
  5
38
100
AcDbEntity
  8
0
  6
CONTINUOUS
 62
     7
100
AcDbLine
 10
36.0
 20
6.2705
 30
0.0
 11
39.0
 21
6.2705
 31
0.0
  0
LINE
  5
39
100
AcDbEntity
  8
0
  6
CONTINUOUS
 62
     7
100
AcDbLine
 10
39.499996
 20
12.999995
 30
0.0
 11
39.0
 21
12.499998
 31
0.0
  0
LINE
  5
3A
100
AcDbEntity
  8
0
  6
CONTINUOUS
 62
     7
100
AcDbLine
 10
39.0
 20
4.500001
 30
0.0
 11
39.5
 21
4.000001
 31
0.0
  0
LINE
  5
3B
100
AcDbEntity
  8
0
  6
CONTINUOUS
 62
     7
100
AcDbLine
 10
39.5
 20
13.0
 30
0.0
 11
39.5
 21
4.0
 31
0.0
  0
LINE
  5
3C
100
AcDbEntity
  8
0
  6
CONTINUOUS
 62
     7
100
AcDbLine
 10
41.5
 20
13.0
 30
0.0
 11
41.5
 21
4.0
 31
0.0
  0
LINE
  5
3D
100
AcDbEntity
  8
0
  6
CONTINUOUS
 62
     7
100
AcDbLine
 10
76.0
 20
-56.925202
 30
0.0
 11
79.0
 21
-56.925202
 31
0.0
  0
LINE
  5
3E
100
AcDbEntity
  8
0
  6
CONTINUOUS
 62
     7
100
AcDbLine
 10
77.0
 20
-44.425202
 30
0.0
 11
86.0
 21
-44.425202
 31
0.0
  0
LINE
  5
3F
100
AcDbEntity
  8
0
  6
CONTINUOUS
 62
     7
100
AcDbLine
 10
76.0
 20
-45.425202
 30
0.0
 11
76.0
 21
-56.925202
 31
0.0
  0
LINE
  5
40
100
AcDbEntity
  8
0
  6
CONTINUOUS
 62
     7
100
AcDbLine
 10
87.0
 20
-45.425202
 30
0.0
 11
87.0
 21
-56.855385
 31
0.0
  0
LINE
  5
41
100
AcDbEntity
  8
0
  6
CONTINUOUS
 62
     7
100
AcDbLine
 10
86.0
 20
-44.425198
 30
0.0
 11
87.0
 21
-45.425202
 31
0.0
  0
LINE
  5
42
100
AcDbEntity
  8
0
  6
CONTINUOUS
 62
     7
100
AcDbLine
 10
76.999985
 20
-44.425187
 30
0.0
 11
75.999992
 21
-45.425187
 31
0.0
  0
LINE
  5
43
100
AcDbEntity
  8
0
  6
CONTINUOUS
 62
     7
100
AcDbLine
 10
79.0
 20
-56.925198
 30
0.0
 11
87.0
 21
-56.855385
 31
0.0
  0
LINE
  5
44
100
AcDbEntity
  8
0
  6
CENTER
 62
     1
100
AcDbLine
 10
74.028519
 20
-47.203968
 30
0.0
 11
89.254204
 21
-52.745667
 31
0.0
  0
LINE
  5
45
100
AcDbEntity
  8
0
  6
CONTINUOUS
 62
     7
100
AcDbLine
 10
81.733803
 20
-44.421532
 30
0.0
 11
84.289673
 21
-45.351792
 31
0.0
  0
LINE
  5
46
100
AcDbEntity
  8
0
  6
CONTINUOUS
 62
     7
100
AcDbLine
 10
76.000008
 20
-53.508465
 30
0.0
 11
80.698471
 21
-55.218567
 31
0.0
  0
LINE
  5
47
100
AcDbEntity
  8
0
  6
CONTINUOUS
 62
     7
100
AcDbLine
 10
83.691147
 20
-46.996258
 30
0.0
 11
87.000008
 21
-48.200585
 31
0.0
  0
LINE
  5
48
100
AcDbEntity
  8
0
  6
CONTINUOUS
 62
     7
100
AcDbLine
 10
81.297012
 20
-53.574101
 30
0.0
 11
87.000008
 21
-55.649823
 31
0.0
  0
LINE
  5
49
100
AcDbEntity
  8
0
  6
CONTINUOUS
 62
     7
100
AcDbLine
 10
80.698471
 20
-55.218567
 30
0.0
 11
84.28968
 21
-45.351796
 31
0.0
  0
LINE
  5
4A
100
AcDbEntity
  8
0
  6
CONTINUOUS
 62
     7
100
AcDbLine
 10
22.999998
 20
-53.512135
 30
0.0
 11
25.0
 21
-53.512135
 31
0.0
  0
LINE
  5
4B
100
AcDbEntity
  8
0
  6
CONTINUOUS
 62
     7
100
AcDbLine
 10
29.660725
 20
-45.425202
 30
0.0
 11
36.0
 21
-45.425202
 31
0.0
  0
LINE
  5
4C
100
AcDbEntity
  8
0
  6
CONTINUOUS
 62
     7
100
AcDbLine
 10
22.979193
 20
-48.165287
 30
0.0
 11
25.020807
 21
-48.165287
 31
0.0
  0
LINE
  5
4D
100
AcDbEntity
  8
0
  6
CONTINUOUS
 62
     7
100
AcDbLine
 10
19.5
 20
8.7338
 30
0.0
 11
28.5
 21
8.7338
 31
0.0
  0
LINE
  5
4E
100
AcDbEntity
  8
0
  6
CENTER
 62
     1
100
AcDbLine
 10
23.0
 20
10.212614
 30
0.0
 11
23.0
 21
1.9212
 31
0.0
  0
LINE
  5
4F
100
AcDbEntity
  8
0
  6
CENTER
 62
     1
100
AcDbLine
 10
25.0
 20
10.350803
 30
0.0
 11
25.0
 21
1.506628
 31
0.0
  0
LINE
  5
50
100
AcDbEntity
  8
0
  6
CONTINUOUS
 62
     7
100
AcDbLine
 10
28.180519
 20
4.0
 30
0.0
 11
35.933064
 21
4.0
 31
0.0
  0
LINE
  5
51
100
AcDbEntity
  8
0
  6
CONTINUOUS
 62
     7
100
AcDbLine
 10
44.0
 20
-48.925202
 30
0.0
 11
44.0
 21
-52.925202
 31
0.0
  0
LINE
  5
52
100
AcDbEntity
  8
0
  6
CENTER
 62
     1
100
AcDbLine
 10
33.398666
 20
-50.925202
 30
0.0
 11
45.930676
 21
-50.925202
 31
0.0
  0
LINE
  5
53
100
AcDbEntity
  8
0
  6
CONTINUOUS
 62
     7
100
AcDbLine
 10
39.0
 20
-46.925202
 30
0.0
 11
39.0
 21
-54.925202
 31
0.0
  0
LINE
  5
54
100
AcDbEntity
  8
0
  6
CONTINUOUS
 62
     7
100
AcDbLine
 10
36.0
 20
-53.425202
 30
0.0
 11
39.0
 21
-53.425202
 31
0.0
  0
LINE
  5
55
100
AcDbEntity
  8
0
  6
CONTINUOUS
 62
     7
100
AcDbLine
 10
36.0
 20
-48.425202
 30
0.0
 11
39.0
 21
-48.425202
 31
0.0
  0
LINE
  5
56
100
AcDbEntity
  8
0
  6
CONTINUOUS
 62
     7
100
AcDbLine
 10
41.5
 20
-46.425198
 30
0.0
 11
44.000008
 21
-48.925202
 31
0.0
  0
LINE
  5
57
100
AcDbEntity
  8
0
  6
CONTINUOUS
 62
     7
100
AcDbLine
 10
41.500011
 20
-55.425213
 30
0.0
 11
44.000011
 21
-52.925213
 31
0.0
  0
LINE
  5
58
100
AcDbEntity
  8
0
  6
CONTINUOUS
 62
     7
100
AcDbLine
 10
39.5
 20
-55.425202
 30
0.0
 11
41.5
 21
-55.425202
 31
0.0
  0
LINE
  5
59
100
AcDbEntity
  8
0
  6
CONTINUOUS
 62
     7
100
AcDbLine
 10
39.5
 20
-46.425202
 30
0.0
 11
41.5
 21
-46.425202
 31
0.0
  0
LINE
  5
5A
100
AcDbEntity
  8
0
  6
CONTINUOUS
 62
     7
100
AcDbLine
 10
36.0
 20
-48.695702
 30
0.0
 11
39.0
 21
-48.695702
 31
0.0
  0
LINE
  5
5B
100
AcDbEntity
  8
0
  6
CONTINUOUS
 62
     7
100
AcDbLine
 10
36.0
 20
-53.154702
 30
0.0
 11
39.0
 21
-53.154702
 31
0.0
  0
LINE
  5
5C
100
AcDbEntity
  8
0
  6
CONTINUOUS
 62
     7
100
AcDbLine
 10
39.499996
 20
-46.425206
 30
0.0
 11
38.999996
 21
-46.925206
 31
0.0
  0
LINE
  5
5D
100
AcDbEntity
  8
0
  6
CONTINUOUS
 62
     7
100
AcDbLine
 10
39.0
 20
-54.925198
 30
0.0
 11
39.5
 21
-55.425198
 31
0.0
  0
LINE
  5
5E
100
AcDbEntity
  8
0
  6
CONTINUOUS
 62
     7
100
AcDbLine
 10
39.5
 20
-46.425202
 30
0.0
 11
39.5
 21
-55.425202
 31
0.0
  0
LINE
  5
5F
100
AcDbEntity
  8
0
  6
CONTINUOUS
 62
     7
100
AcDbLine
 10
41.5
 20
-46.425202
 30
0.0
 11
41.5
 21
-55.425202
 31
0.0
  0
LINE
  5
60
100
AcDbEntity
  8
0
  6
CONTINUOUS
 62
     7
100
AcDbLine
 10
36.0
 20
14.0
 30
0.0
 11
36.0
 21
3.0
 31
0.0
  0
LINE
  5
61
100
AcDbEntity
  8
0
  6
CONTINUOUS
 62
     7
100
AcDbLine
 10
11.0
 20
-45.425202
 30
0.0
 11
18.339277
 21
-45.425202
 31
0.0
  0
LINE
  5
62
100
AcDbEntity
  8
0
  6
CONTINUOUS
 62
     7
100
AcDbLine
 10
5.689136
 20
-44.425202
 30
0.0
 11
36.0
 21
-44.425202
 31
0.0
  0
LINE
  5
63
100
AcDbEntity
  8
0
  6
CONTINUOUS
 62
     7
100
AcDbLine
 10
9.8453
 20
1.0
 30
0.0
 11
11.0
 21
3.0
 31
0.0
  0
LINE
  5
64
100
AcDbEntity
  8
0
  6
CONTINUOUS
 62
     7
100
AcDbLine
 10
1.662742
 20
1.0
 30
0.0
 11
9.8453
 21
1.0
 31
0.0
  0
LINE
  5
65
100
AcDbEntity
  8
0
  6
CONTINUOUS
 62
     7
100
AcDbLine
 10
9.8453
 20
-45.625767
 30
0.0
 11
9.8453
 21
-51.925202
 31
0.0
  0
LINE
  5
66
100
AcDbEntity
  8
0
  6
CONTINUOUS
 62
     7
100
AcDbLine
 10
11.0
 20
-44.699257
 30
0.0
 11
11.0
 21
-56.925202
 31
0.0
  0
LINE
  5
67
100
AcDbEntity
  8
0
  6
CONTINUOUS
 62
     7
100
AcDbLine
 10
-5.030337
 20
-51.925202
 30
0.0
 11
5.0
 21
-51.925202
 31
0.0
  0
LINE
  5
68
100
AcDbEntity
  8
0
  6
CONTINUOUS
 62
     7
100
AcDbLine
 10
9.8453
 20
-51.925206
 30
0.0
 11
11.0
 21
-56.925202
 31
0.0
  0
LINE
  5
69
100
AcDbEntity
  8
0
  6
CONTINUOUS
 62
     7
100
AcDbLine
 10
3.302008
 20
13.0
 30
0.0
 11
12.302009
 21
4.000001
 31
0.0
  0
LINE
  5
6A
100
AcDbEntity
  8
0
  6
CONTINUOUS
 62
     7
100
AcDbLine
 10
11.0
 20
3.0
 30
0.0
 11
12.302008
 21
4.0
 31
0.0
  0
LINE
  5
6B
100
AcDbEntity
  8
0
  6
CENTER
 62
     1
100
AcDbLine
 10
-3.18144
 20
6.403822
 30
0.0
 11
3.844182
 21
6.403822
 31
0.0
  0
LINE
  5
6C
100
AcDbEntity
  8
0
  6
CENTER
 62
     1
100
AcDbLine
 10
0.331371
 20
9.916634
 30
0.0
 11
0.331371
 21
2.89101
 31
0.0
  0
LINE
  5
6D
100
AcDbEntity
  8
0
  6
CONTINUOUS
 62
     7
100
AcDbLine
 10
-42.435821
 20
14.0
 30
0.0
 11
-31.935821
 21
14.0
 31
0.0
  0
LINE
  5
6E
100
AcDbEntity
  8
0
  6
CONTINUOUS
 62
     7
100
AcDbLine
 10
-30.935821
 20
13.0
 30
0.0
 11
-30.935821
 21
4.0
 31
0.0
  0
LINE
  5
6F
100
AcDbEntity
  8
0
  6
CONTINUOUS
 62
     7
100
AcDbLine
 10
-43.435821
 20
13.0
 30
0.0
 11
-43.435821
 21
3.819851
 31
0.0
  0
LINE
  5
70
100
AcDbEntity
  8
0
  6
CONTINUOUS
 62
     7
100
AcDbLine
 10
-30.935821
 20
12.999999
 30
0.0
 11
-31.935821
 21
14.000001
 31
0.0
  0
LINE
  5
71
100
AcDbEntity
  8
0
  6
CONTINUOUS
 62
     7
100
AcDbLine
 10
-42.435821
 20
13.999999
 30
0.0
 11
-43.435821
 21
12.999999
 31
0.0
  0
LINE
  5
72
100
AcDbEntity
  8
0
  6
CONTINUOUS
 62
     7
100
AcDbLine
 10
-38.435821
 20
1.0
 30
0.0
 11
-36.615821
 21
1.0
 31
0.0
  0
LINE
  5
73
100
AcDbEntity
  8
0
  6
CONTINUOUS
 62
     7
100
AcDbLine
 10
-38.435821
 20
7.071069
 30
0.0
 11
-38.435821
 21
1.0
 31
0.0
  0
LINE
  5
74
100
AcDbEntity
  8
0
  6
CONTINUOUS
 62
     7
100
AcDbLine
 10
-41.863568
 20
2.247598
 30
0.0
 11
-38.435821
 21
1.000001
 31
0.0
  0
LINE
  5
75
100
AcDbEntity
  8
0
  6
CONTINUOUS
 62
     7
100
AcDbLine
 10
-43.435821
 20
3.819851
 30
0.0
 11
-41.863566
 21
2.247597
 31
0.0
  0
LINE
  5
76
100
AcDbEntity
  8
0
  6
CONTINUOUS
 62
     7
100
AcDbLine
 10
-33.435821
 20
6.403822
 30
0.0
 11
-33.435821
 21
0.0
 31
0.0
  0
LINE
  5
77
100
AcDbEntity
  8
0
  6
CONTINUOUS
 62
     7
100
AcDbLine
 10
-33.212266
 20
1.0
 30
0.0
 11
-31.935821
 21
1.0
 31
0.0
  0
LINE
  5
78
100
AcDbEntity
  8
0
  6
CONTINUOUS
 62
     7
100
AcDbLine
 10
-6.072446
 20
-46.925202
 30
0.0
 11
0.000007
 21
-46.925202
 31
0.0
  0
LINE
  5
79
100
AcDbEntity
  8
0
  6
CONTINUOUS
 62
     7
100
AcDbLine
 10
11.0
 20
-44.699254
 30
0.0
 11
12.302008
 21
-44.425202
 31
0.0
  0
LINE
  5
7A
100
AcDbEntity
  8
0
  6
CENTER
 62
     1
100
AcDbLine
 10
7.0
 20
-47.822808
 30
0.0
 11
7.0
 21
-56.518387
 31
0.0
  0
LINE
  5
7B
100
AcDbEntity
  8
0
  6
CONTINUOUS
 62
     7
100
AcDbLine
 10
9.0
 20
-51.925202
 30
0.0
 11
9.8453
 21
-51.925202
 31
0.0
  0
LINE
  5
7C
100
AcDbEntity
  8
0
  6
CENTER
 62
     1
100
AcDbLine
 10
5.0
 20
-51.925202
 30
0.0
 11
9.0
 21
-51.925202
 31
0.0
  0
LINE
  5
7D
100
AcDbEntity
  8
0
  6
CONTINUOUS
 62
     7
100
AcDbLine
 10
-31.935821
 20
1.0
 30
0.0
 11
-30.935821
 21
4.0
 31
0.0
  0
LINE
  5
7E
100
AcDbEntity
  8
0
  6
CONTINUOUS
 62
     7
100
AcDbLine
 10
9.8453
 20
-45.625767
 30
0.0
 11
11.000001
 21
-44.699257
 31
0.0
  0
LINE
  5
7F
100
AcDbEntity
  8
0
  6
CONTINUOUS
 62
     7
100
AcDbLine
 10
0.897056
 20
0.234315
 30
0.0
 11
6.500878
 21
5.838136
 31
0.0
  0
LINE
  5
80
100
AcDbEntity
  8
0
  6
CONTINUOUS
 62
     7
100
AcDbLine
 10
-6.403821
 20
6.403821
 30
0.0
 11
-0.234315
 21
0.234315
 31
0.0
  0
LINE
  5
81
100
AcDbEntity
  8
0
  6
CONTINUOUS
 62
     7
100
AcDbLine
 10
-6.403821
 20
6.403821
 30
0.0
 11
1.192357
 21
14.0
 31
0.0
  0
LINE
  5
82
100
AcDbEntity
  8
0
  6
CONTINUOUS
 62
     7
100
AcDbLine
 10
0.897056
 20
12.573327
 30
0.0
 11
6.500877
 21
6.969506
 31
0.0
  0
LINE
  5
83
100
AcDbEntity
  8
0
  6
CONTINUOUS
 62
     7
100
AcDbLine
 10
-38.435821
 20
7.071069
 30
0.0
 11
-33.414016
 21
6.400912
 31
0.0
  0
LINE
  5
84
100
AcDbEntity
  8
0
  6
CONTINUOUS
 62
     7
100
AcDbLine
 10
-43.435821
 20
8.890921
 30
0.0
 11
-38.435821
 21
7.071069
 31
0.0
  0
LINE
  5
85
100
AcDbEntity
  8
0
  6
CONTINUOUS
 62
     7
100
AcDbLine
 10
1.192357
 20
14.0
 30
0.0
 11
3.302009
 21
13.0
 31
0.0
  0
LINE
  5
86
100
AcDbEntity
  8
0
  6
CENTER
 62
     1
100
AcDbLine
 10
7.0
 20
16.491636
 30
0.0
 11
7.0
 21
-1.524193
 31
0.0
  0
LINE
  5
87
100
AcDbEntity
  8
0
  6
CONTINUOUS
 62
     7
100
AcDbLine
 10
0.000006
 20
-46.925198
 30
0.0
 11
6.735199
 21
-45.493588
 31
0.0
  0
LINE
  5
88
100
AcDbEntity
  8
0
  6
CONTINUOUS
 62
     7
100
AcDbLine
 10
-5.00966
 20
-51.925202
 30
0.0
 11
-6.072443
 21
-46.925202
 31
0.0
  0
LINE
  5
89
100
AcDbEntity
  8
0
  6
CONTINUOUS
 62
     7
100
AcDbLine
 10
-5.396514
 20
-50.105202
 30
0.0
 11
0.675937
 21
-50.105202
 31
0.0
  0
LINE
  5
8A
100
AcDbEntity
  8
0
  6
CONTINUOUS
 62
     7
100
AcDbLine
 10
-6.072449
 20
-46.925202
 30
0.0
 11
5.689135
 21
-44.425202
 31
0.0
  0
LINE
  5
8B
100
AcDbEntity
  8
0
  6
CONTINUOUS
 62
     7
100
AcDbLine
 10
0.662749
 20
-45.493592
 30
0.0
 11
6.735199
 21
-45.493592
 31
0.0
  0
LINE
  5
8C
100
AcDbEntity
  8
0
  6
CONTINUOUS
 62
     7
100
AcDbLine
 10
1.662748
 20
-46.571774
 30
0.0
 11
2.338678
 21
-49.751774
 31
0.0
  0
LINE
  5
8D
100
AcDbEntity
  8
0
  6
CONTINUOUS
 62
     7
100
AcDbLine
 10
0.675936
 20
-50.105202
 30
0.0
 11
0.000006
 21
-46.925198
 31
0.0
  0
LINE
  5
8E
100
AcDbEntity
  8
0
  6
CONTINUOUS
 62
     7
100
AcDbLine
 10
0.675936
 20
-50.105202
 30
0.0
 11
2.338678
 21
-49.751774
 31
0.0
  0
LINE
  5
8F
100
AcDbEntity
  8
0
  6
CONTINUOUS
 62
     7
100
AcDbLine
 10
0.663062
 20
-50.107941
 30
0.0
 11
0.910523
 21
-51.925202
 31
0.0
  0
LINE
  5
90
100
AcDbEntity
  8
0
  6
CONTINUOUS
 62
     7
100
AcDbLine
 10
0.915793
 20
-51.925202
 30
0.0
 11
2.070493
 21
-56.925202
 31
0.0
  0
LINE
  5
91
100
AcDbEntity
  8
0
  6
CONTINUOUS
 62
     7
100
AcDbLine
 10
23.0
 20
-45.351796
 30
0.0
 11
25.0
 21
-45.351796
 31
0.0
  0
LINE
  5
92
100
AcDbEntity
  8
0
  6
CONTINUOUS
 62
     7
100
AcDbLine
 10
23.0
 20
-46.996258
 30
0.0
 11
25.0
 21
-46.996258
 31
0.0
  0
LINE
  5
93
100
AcDbEntity
  8
0
  6
CONTINUOUS
 62
     7
100
AcDbLine
 10
-36.615821
 20
6.803399
 30
0.0
 11
-36.615821
 21
0.42437
 31
0.0
  0
LINE
  5
94
100
AcDbEntity
  8
0
  6
CONTINUOUS
 62
     7
100
AcDbLine
 10
-3.210485
 20
-56.925202
 30
0.0
 11
-5.030336
 21
-51.925202
 31
0.0
  0
LINE
  5
95
100
AcDbEntity
  8
0
  6
CONTINUOUS
 62
     7
100
AcDbLine
 10
1.662748
 20
-46.571774
 30
0.0
 11
9.8453
 21
-45.625767
 31
0.0
  0
LINE
  5
96
100
AcDbEntity
  8
0
  6
CONTINUOUS
 62
     7
100
AcDbLine
 10
-32.00422
 20
12.807643
 30
0.0
 11
-32.00422
 21
6.403821
 31
0.0
  0
LINE
  5
97
100
AcDbEntity
  8
0
  6
CONTINUOUS
 62
     7
100
AcDbLine
 10
-36.615821
 20
0.42437
 30
0.0
 11
-33.435821
 21
0.0
 31
0.0
  0
LINE
  5
98
100
AcDbEntity
  8
0
  6
CONTINUOUS
 62
     7
100
AcDbLine
 10
-33.413129
 20
6.403822
 30
0.0
 11
-32.00422
 21
12.807643
 31
0.0
  0
LINE
  5
99
100
AcDbEntity
  8
0
  6
CONTINUOUS
 62
     7
100
AcDbLine
 10
-32.00422
 20
6.403821
 30
0.0
 11
-33.435821
 21
0.0
 31
0.0
  0
LINE
  5
9A
100
AcDbEntity
  8
0
  6
CONTINUOUS
 62
     7
100
AcDbLine
 10
-35.206265
 20
13.234955
 30
0.0
 11
-32.00422
 21
12.807643
 31
0.0
  0
LINE
  5
9B
100
AcDbEntity
  8
0
  6
CONTINUOUS
 62
     7
100
AcDbLine
 10
-36.615821
 20
6.828191
 30
0.0
 11
-35.206265
 21
13.234955
 31
0.0
  0
LINE
  5
9C
100
AcDbEntity
  8
0
  6
CENTER
 62
     1
100
AcDbLine
 10
23.0
 20
-43.591526
 30
0.0
 11
23.0
 21
-54.512135
 31
0.0
  0
LINE
  5
9D
100
AcDbEntity
  8
0
  6
CENTER
 62
     1
100
AcDbLine
 10
25.0
 20
-43.729718
 30
0.0
 11
25.0
 21
-54.512135
 31
0.0
  0
LINE
  5
9E
100
AcDbEntity
  8
0
  6
CONTINUOUS
 62
     7
100
AcDbLine
 10
0.0
 20
0.0
 30
0.0
 11
0.331371
 21
0.0
 31
0.0
  0
LINE
  5
9F
100
AcDbEntity
  8
0
  6
CONTINUOUS
 62
     7
100
AcDbLine
 10
-0.234315
 20
0.234315
 30
0.0
 11
0.0
 21
0.0
 31
0.0
  0
ARC
  5
A0
100
AcDbEntity
  8
0
  6
CONTINUOUS
 62
     7
100
AcDbCircle
 10
23.347744
 20
-47.925202
 30
0.0
 40
5.597745
100
AcDbArc
 50
141.29933
 51
266.4383
  0
ARC
  5
A1
100
AcDbEntity
  8
0
  6
CONTINUOUS
 62
     7
100
AcDbCircle
 10
24.652256
 20
-47.925202
 30
0.0
 40
5.597745
100
AcDbArc
 50
273.56163
 51
38.700671
  0
ARC
  5
A2
100
AcDbEntity
  8
0
  6
CONTINUOUS
 62
     7
100
AcDbCircle
 10
22.979193
 20
-51.665287
 30
0.0
 40
3.5
100
AcDbArc
 50
89.999982
 51
167.55141
  0
ARC
  5
A3
100
AcDbEntity
  8
0
  6
CONTINUOUS
 62
     7
100
AcDbCircle
 10
25.020807
 20
-51.665287
 30
0.0
 40
3.5
100
AcDbArc
 50
12.407805
 51
89.999982
  0
ARC
  5
A4
100
AcDbEntity
  8
0
  6
CONTINUOUS
 62
     7
100
AcDbCircle
 10
24.0
 20
20.436943
 30
0.0
 40
12.538483
100
AcDbArc
 50
248.96763
 51
291.03236
  0
ARC
  5
A5
100
AcDbEntity
  8
0
  6
CONTINUOUS
 62
     7
100
AcDbCircle
 10
19.767857
 20
6.7338
 30
0.0
 40
2.017857
100
AcDbArc
 50
82.371863
 51
179.99996
  0
ARC
  5
A6
100
AcDbEntity
  8
0
  6
CONTINUOUS
 62
     7
100
AcDbCircle
 10
23.0
 20
8.557845
 30
0.0
 40
5.557845
100
AcDbArc
 50
199.15911
 51
270.00002
  0
ARC
  5
A7
100
AcDbEntity
  8
0
  6
CONTINUOUS
 62
     7
100
AcDbCircle
 10
25.0
 20
8.557845
 30
0.0
 40
5.557845
100
AcDbArc
 50
270.00002
 51
340.84087
  0
ARC
  5
A8
100
AcDbEntity
  8
0
  6
CONTINUOUS
 62
     7
100
AcDbCircle
 10
28.23214
 20
6.7338
 30
0.0
 40
2.017857
100
AcDbArc
 50
0.0
 51
97.628101
  0
CIRCLE
  5
A9
100
AcDbEntity
  8
0
  6
CONTINUOUS
 62
     7
100
AcDbCircle
 10
7.0
 20
-51.925202
 30
0.0
 40
2.0
  0
CIRCLE
  5
AA
100
AcDbEntity
  8
0
  6
CONTINUOUS
 62
     7
100
AcDbCircle
 10
7.0
 20
-51.925202
 30
0.0
 40
1.65
  0
ARC
  5
AB
100
AcDbEntity
  8
0
  6
CONTINUOUS
 62
     7
100
AcDbCircle
 10
5.65235
 20
4.989608
 30
0.0
 40
2.0
100
AcDbArc
 50
225.0
 51
59.250033
  0
ARC
  5
AC
100
AcDbEntity
  8
0
  6
CONTINUOUS
 62
     7
100
AcDbCircle
 10
-5.27245
 20
6.403822
 30
0.0
 40
0.8
100
AcDbArc
 50
135.0
 51
225.0
  0
ARC
  5
AD
100
AcDbEntity
  8
0
  6
CONTINUOUS
 62
     7
100
AcDbCircle
 10
0.331371
 20
0.8
 30
0.0
 40
0.8
100
AcDbArc
 50
225.0
 51
315.0
  0
ARC
  5
AE
100
AcDbEntity
  8
0
  6
CONTINUOUS
 62
     7
100
AcDbCircle
 10
5.935192
 20
6.403822
 30
0.0
 40
0.8
100
AcDbArc
 50
315.0
 51
45.000001
  0
ARC
  5
AF
100
AcDbEntity
  8
0
  6
CONTINUOUS
 62
     7
100
AcDbCircle
 10
0.331371
 20
12.007643
 30
0.0
 40
0.8
100
AcDbArc
 50
45.000001
 51
135.0
  0
CIRCLE
  5
B0
100
AcDbEntity
  8
0
  6
CONTINUOUS
 62
     7
100
AcDbCircle
 10
0.331371
 20
6.403822
 30
0.0
 40
1.975
  0
POLYLINE
  5
B1
100
AcDbEntity
  8
0
  6
CONTINUOUS
 62
     7
100
AcDb2dPolyline
 66
     1
 10
0.0
 20
0.0
 30
0.0
  0
VERTEX
  5
B2
100
AcDbEntity
  8
0
  6
CONTINUOUS
 62
     7
100
AcDbVertex
100
AcDb2dVertex
 10
23.0
 20
-45.351796
 30
0.0
 42
0.019175
  0
VERTEX
  5
B3
100
AcDbEntity
  8
0
  6
CONTINUOUS
 62
     7
100
AcDbVertex
100
AcDb2dVertex
 10
22.572096
 20
-45.36821
 30
0.0
 42
0.019261
  0
VERTEX
  5
B4
100
AcDbEntity
  8
0
  6
CONTINUOUS
 62
     7
100
AcDbVertex
100
AcDb2dVertex
 10
22.145801
 20
-45.417534
 30
0.0
 42
0.019367
  0
VERTEX
  5
B5
100
AcDbEntity
  8
0
  6
CONTINUOUS
 62
     7
100
AcDbVertex
100
AcDb2dVertex
 10
21.724221
 20
-45.499674
 30
0.0
 42
0.019501
  0
VERTEX
  5
B6
100
AcDbEntity
  8
0
  6
CONTINUOUS
 62
     7
100
AcDbVertex
100
AcDb2dVertex
 10
21.310279
 20
-45.6143
 30
0.0
 42
0.019674
  0
VERTEX
  5
B7
100
AcDbEntity
  8
0
  6
CONTINUOUS
 62
     7
100
AcDbVertex
100
AcDb2dVertex
 10
20.906597
 20
-45.760958
 30
0.0
 42
0.019887
  0
VERTEX
  5
B8
100
AcDbEntity
  8
0
  6
CONTINUOUS
 62
     7
100
AcDbVertex
100
AcDb2dVertex
 10
20.515772
 20
-45.939054
 30
0.0
 42
0.020137
  0
VERTEX
  5
B9
100
AcDbEntity
  8
0
  6
CONTINUOUS
 62
     7
100
AcDbVertex
100
AcDb2dVertex
 10
20.140429
 20
-46.147827
 30
0.0
 42
0.020418
  0
VERTEX
  5
BA
100
AcDbEntity
  8
0
  6
CONTINUOUS
 62
     7
100
AcDbVertex
100
AcDb2dVertex
 10
19.783215
 20
-46.386329
 30
0.0
 42
0.020725
  0
VERTEX
  5
BB
100
AcDbEntity
  8
0
  6
CONTINUOUS
 62
     7
100
AcDbVertex
100
AcDb2dVertex
 10
19.446791
 20
-46.653393
 30
0.0
 42
0.021051
  0
VERTEX
  5
BC
100
AcDbEntity
  8
0
  6
CONTINUOUS
 62
     7
100
AcDbVertex
100
AcDb2dVertex
 10
19.133804
 20
-46.947614
 30
0.0
 42
0.021387
  0
VERTEX
  5
BD
100
AcDbEntity
  8
0
  6
CONTINUOUS
 62
     7
100
AcDbVertex
100
AcDb2dVertex
 10
18.846865
 20
-47.267323
 30
0.0
 42
0.021723
  0
VERTEX
  5
BE
100
AcDbEntity
  8
0
  6
CONTINUOUS
 62
     7
100
AcDbVertex
100
AcDb2dVertex
 10
18.588505
 20
-47.610568
 30
0.0
 42
0.02205
  0
VERTEX
  5
BF
100
AcDbEntity
  8
0
  6
CONTINUOUS
 62
     7
100
AcDbVertex
100
AcDb2dVertex
 10
18.361134
 20
-47.975099
 30
0.0
 42
0.022354
  0
VERTEX
  5
C0
100
AcDbEntity
  8
0
  6
CONTINUOUS
 62
     7
100
AcDbVertex
100
AcDb2dVertex
 10
18.166983
 20
-48.358364
 30
0.0
 42
0.022625
  0
VERTEX
  5
C1
100
AcDbEntity
  8
0
  6
CONTINUOUS
 62
     7
100
AcDbVertex
100
AcDb2dVertex
 10
18.008048
 20
-48.757518
 30
0.0
 42
0.022852
  0
VERTEX
  5
C2
100
AcDbEntity
  8
0
  6
CONTINUOUS
 62
     7
100
AcDbVertex
100
AcDb2dVertex
 10
17.886027
 20
-49.169443
 30
0.0
  0
SEQEND
  5
C3
100
AcDbEntity
  8
0
 62
     7
  0
POLYLINE
  5
C4
100
AcDbEntity
  8
0
  6
CONTINUOUS
 62
     7
100
AcDb2dPolyline
 66
     1
 10
0.0
 20
0.0
 30
0.0
  0
VERTEX
  5
C5
100
AcDbEntity
  8
0
  6
CONTINUOUS
 62
     7
100
AcDbVertex
100
AcDb2dVertex
 10
30.112248
 20
-49.162486
 30
0.0
 42
0.022746
  0
VERTEX
  5
C6
100
AcDbEntity
  8
0
  6
CONTINUOUS
 62
     7
100
AcDbVertex
100
AcDb2dVertex
 10
29.990238
 20
-48.752579
 30
0.0
 42
0.022559
  0
VERTEX
  5
C7
100
AcDbEntity
  8
0
  6
CONTINUOUS
 62
     7
100
AcDbVertex
100
AcDb2dVertex
 10
29.831361
 20
-48.3547
 30
0.0
 42
0.02231
  0
VERTEX
  5
C8
100
AcDbEntity
  8
0
  6
CONTINUOUS
 62
     7
100
AcDbVertex
100
AcDb2dVertex
 10
29.637288
 20
-47.972303
 30
0.0
 42
0.022026
  0
VERTEX
  5
C9
100
AcDbEntity
  8
0
  6
CONTINUOUS
 62
     7
100
AcDbVertex
100
AcDb2dVertex
 10
29.409911
 20
-47.608263
 30
0.0
 42
0.021688
  0
VERTEX
  5
CA
100
AcDbEntity
  8
0
  6
CONTINUOUS
 62
     7
100
AcDbVertex
100
AcDb2dVertex
 10
29.151781
 20
-47.265678
 30
0.0
 42
0.021353
  0
VERTEX
  5
CB
100
AcDbEntity
  8
0
  6
CONTINUOUS
 62
     7
100
AcDbVertex
100
AcDb2dVertex
 10
28.865159
 20
-46.946553
 30
0.0
 42
0.02102
  0
VERTEX
  5
CC
100
AcDbEntity
  8
0
  6
CONTINUOUS
 62
     7
100
AcDbVertex
100
AcDb2dVertex
 10
28.552551
 20
-46.652824
 30
0.0
 42
0.020697
  0
VERTEX
  5
CD
100
AcDbEntity
  8
0
  6
CONTINUOUS
 62
     7
100
AcDbVertex
100
AcDb2dVertex
 10
28.216544
 20
-46.386154
 30
0.0
 42
0.020393
  0
VERTEX
  5
CE
100
AcDbEntity
  8
0
  6
CONTINUOUS
 62
     7
100
AcDbVertex
100
AcDb2dVertex
 10
27.859767
 20
-46.147947
 30
0.0
 42
0.020114
  0
VERTEX
  5
CF
100
AcDbEntity
  8
0
  6
CONTINUOUS
 62
     7
100
AcDbVertex
100
AcDb2dVertex
 10
27.484866
 20
-45.939376
 30
0.0
 42
0.019867
  0
VERTEX
  5
D0
100
AcDbEntity
  8
0
  6
CONTINUOUS
 62
     7
100
AcDbVertex
100
AcDb2dVertex
 10
27.094485
 20
-45.7614
 30
0.0
 42
0.019655
  0
VERTEX
  5
D1
100
AcDbEntity
  8
0
  6
CONTINUOUS
 62
     7
100
AcDbVertex
100
AcDb2dVertex
 10
26.691256
 20
-45.614791
 30
0.0
 42
0.019481
  0
VERTEX
  5
D2
100
AcDbEntity
  8
0
  6
CONTINUOUS
 62
     7
100
AcDbVertex
100
AcDb2dVertex
 10
26.27779
 20
-45.500148
 30
0.0
 42
0.019348
  0
VERTEX
  5
D3
100
AcDbEntity
  8
0
  6
CONTINUOUS
 62
     7
100
AcDbVertex
100
AcDb2dVertex
 10
25.856681
 20
-45.417919
 30
0.0
 42
0.019257
  0
VERTEX
  5
D4
100
AcDbEntity
  8
0
  6
CONTINUOUS
 62
     7
100
AcDbVertex
100
AcDb2dVertex
 10
25.430504
 20
-45.36841
 30
0.0
 42
0.019292
  0
VERTEX
  5
D5
100
AcDbEntity
  8
0
  6
CONTINUOUS
 62
     7
100
AcDbVertex
100
AcDb2dVertex
 10
25.0
 20
-45.351796
 30
0.0
  0
SEQEND
  5
D6
100
AcDbEntity
  8
0
 62
     7
  0
POLYLINE
  5
D7
100
AcDbEntity
  8
0
  6
CONTINUOUS
 62
     7
100
AcDb2dPolyline
 66
     1
 10
0.0
 20
0.0
 30
0.0
  0
VERTEX
  5
D8
100
AcDbEntity
  8
0
  6
CONTINUOUS
 62
     7
100
AcDbVertex
100
AcDb2dVertex
 10
23.0
 20
-46.996258
 30
0.0
 42
0.036694
  0
VERTEX
  5
D9
100
AcDbEntity
  8
0
  6
CONTINUOUS
 62
     7
100
AcDbVertex
100
AcDb2dVertex
 10
22.456188
 20
-47.0362
 30
0.0
 42
0.037069
  0
VERTEX
  5
DA
100
AcDbEntity
  8
0
  6
CONTINUOUS
 62
     7
100
AcDbVertex
100
AcDb2dVertex
 10
21.92322
 20
-47.155774
 30
0.0
 42
0.037672
  0
VERTEX
  5
DB
100
AcDbEntity
  8
0
  6
CONTINUOUS
 62
     7
100
AcDbVertex
100
AcDb2dVertex
 10
21.414057
 20
-47.353283
 30
0.0
 42
0.038546
  0
VERTEX
  5
DC
100
AcDbEntity
  8
0
  6
CONTINUOUS
 62
     7
100
AcDbVertex
100
AcDb2dVertex
 10
20.940747
 20
-47.625756
 30
0.0
 42
0.039633
  0
VERTEX
  5
DD
100
AcDbEntity
  8
0
  6
CONTINUOUS
 62
     7
100
AcDbVertex
100
AcDb2dVertex
 10
20.515535
 20
-47.968609
 30
0.0
 42
0.040845
  0
VERTEX
  5
DE
100
AcDbEntity
  8
0
  6
CONTINUOUS
 62
     7
100
AcDbVertex
100
AcDb2dVertex
 10
20.150659
 20
-48.37521
 30
0.0
 42
0.042058
  0
VERTEX
  5
DF
100
AcDbEntity
  8
0
  6
CONTINUOUS
 62
     7
100
AcDbVertex
100
AcDb2dVertex
 10
19.857826
 20
-48.836485
 30
0.0
 42
0.043124
  0
VERTEX
  5
E0
100
AcDbEntity
  8
0
  6
CONTINUOUS
 62
     7
100
AcDbVertex
100
AcDb2dVertex
 10
19.647418
 20
-49.340711
 30
0.0
 42
0.04389
  0
VERTEX
  5
E1
100
AcDbEntity
  8
0
  6
CONTINUOUS
 62
     7
100
AcDbVertex
100
AcDb2dVertex
 10
19.527508
 20
-49.873645
 30
0.0
 42
0.044214
  0
VERTEX
  5
E2
100
AcDbEntity
  8
0
  6
CONTINUOUS
 62
     7
100
AcDbVertex
100
AcDb2dVertex
 10
19.502896
 20
-50.418934
 30
0.0
 42
0.044082
  0
VERTEX
  5
E3
100
AcDbEntity
  8
0
  6
CONTINUOUS
 62
     7
100
AcDbVertex
100
AcDb2dVertex
 10
19.574439
 20
-50.959885
 30
0.0
 42
0.043437
  0
VERTEX
  5
E4
100
AcDbEntity
  8
0
  6
CONTINUOUS
 62
     7
100
AcDbVertex
100
AcDb2dVertex
 10
19.738816
 20
-51.479246
 30
0.0
 42
0.042602
  0
VERTEX
  5
E5
100
AcDbEntity
  8
0
  6
CONTINUOUS
 62
     7
100
AcDbVertex
100
AcDb2dVertex
 10
19.990235
 20
-51.963869
 30
0.0
 42
0.041458
  0
VERTEX
  5
E6
100
AcDbEntity
  8
0
  6
CONTINUOUS
 62
     7
100
AcDbVertex
100
AcDb2dVertex
 10
20.319249
 20
-52.399711
 30
0.0
 42
0.040238
  0
VERTEX
  5
E7
100
AcDbEntity
  8
0
  6
CONTINUOUS
 62
     7
100
AcDbVertex
100
AcDb2dVertex
 10
20.714765
 20
-52.776285
 30
0.0
 42
0.039087
  0
VERTEX
  5
E8
100
AcDbEntity
  8
0
  6
CONTINUOUS
 62
     7
100
AcDbVertex
100
AcDb2dVertex
 10
21.164853
 20
-53.085751
 30
0.0
  0
SEQEND
  5
E9
100
AcDbEntity
  8
0
 62
     7
  0
POLYLINE
  5
EA
100
AcDbEntity
  8
0
  6
CONTINUOUS
 62
     7
100
AcDb2dPolyline
 66
     1
 10
0.0
 20
0.0
 30
0.0
  0
VERTEX
  5
EB
100
AcDbEntity
  8
0
  6
CONTINUOUS
 62
     7
100
AcDbVertex
100
AcDb2dVertex
 10
26.88992
 20
-53.053398
 30
0.0
 42
0.038908
  0
VERTEX
  5
EC
100
AcDbEntity
  8
0
  6
CONTINUOUS
 62
     7
100
AcDbVertex
100
AcDb2dVertex
 10
27.331062
 20
-52.738504
 30
0.0
 42
0.040067
  0
VERTEX
  5
ED
100
AcDbEntity
  8
0
  6
CONTINUOUS
 62
     7
100
AcDbVertex
100
AcDb2dVertex
 10
27.717292
 20
-52.358117
 30
0.0
 42
0.041278
  0
VERTEX
  5
EE
100
AcDbEntity
  8
0
  6
CONTINUOUS
 62
     7
100
AcDbVertex
100
AcDb2dVertex
 10
28.036893
 20
-51.920157
 30
0.0
 42
0.042402
  0
VERTEX
  5
EF
100
AcDbEntity
  8
0
  6
CONTINUOUS
 62
     7
100
AcDbVertex
100
AcDb2dVertex
 10
28.279112
 20
-51.435073
 30
0.0
 42
0.043291
  0
VERTEX
  5
F0
100
AcDbEntity
  8
0
  6
CONTINUOUS
 62
     7
100
AcDbVertex
100
AcDb2dVertex
 10
28.435049
 20
-50.915851
 30
0.0
 42
0.043808
  0
VERTEX
  5
F1
100
AcDbEntity
  8
0
  6
CONTINUOUS
 62
     7
100
AcDbVertex
100
AcDb2dVertex
 10
28.498617
 20
-50.377633
 30
0.0
 42
0.04384
  0
VERTEX
  5
F2
100
AcDbEntity
  8
0
  6
CONTINUOUS
 62
     7
100
AcDbVertex
100
AcDb2dVertex
 10
28.467378
 20
-49.83718
 30
0.0
 42
0.043425
  0
VERTEX
  5
F3
100
AcDbEntity
  8
0
  6
CONTINUOUS
 62
     7
100
AcDbVertex
100
AcDb2dVertex
 10
28.342859
 20
-49.310752
 30
0.0
 42
0.042684
  0
VERTEX
  5
F4
100
AcDbEntity
  8
0
  6
CONTINUOUS
 62
     7
100
AcDbVertex
100
AcDb2dVertex
 10
28.129785
 20
-48.812995
 30
0.0
 42
0.041662
  0
VERTEX
  5
F5
100
AcDbEntity
  8
0
  6
CONTINUOUS
 62
     7
100
AcDbVertex
100
AcDb2dVertex
 10
27.835935
 20
-48.357672
 30
0.0
 42
0.04047
  0
VERTEX
  5
F6
100
AcDbEntity
  8
0
  6
CONTINUOUS
 62
     7
100
AcDbVertex
100
AcDb2dVertex
 10
27.471615
 20
-47.956503
 30
0.0
 42
0.039292
  0
VERTEX
  5
F7
100
AcDbEntity
  8
0
  6
CONTINUOUS
 62
     7
100
AcDbVertex
100
AcDb2dVertex
 10
27.048174
 20
-47.618212
 30
0.0
 42
0.038239
  0
VERTEX
  5
F8
100
AcDbEntity
  8
0
  6
CONTINUOUS
 62
     7
100
AcDbVertex
100
AcDb2dVertex
 10
26.577501
 20
-47.349264
 30
0.0
 42
0.03739
  0
VERTEX
  5
F9
100
AcDbEntity
  8
0
  6
CONTINUOUS
 62
     7
100
AcDbVertex
100
AcDb2dVertex
 10
26.071608
 20
-47.154206
 30
0.0
 42
0.036794
  0
VERTEX
  5
FA
100
AcDbEntity
  8
0
  6
CONTINUOUS
 62
     7
100
AcDbVertex
100
AcDb2dVertex
 10
25.542426
 20
-47.035996
 30
0.0
 42
0.0366
  0
VERTEX
  5
FB
100
AcDbEntity
  8
0
  6
CONTINUOUS
 62
     7
100
AcDbVertex
100
AcDb2dVertex
 10
25.0
 20
-46.996258
 30
0.0
  0
SEQEND
  5
FC
100
AcDbEntity
  8
0
 62
     7
  0
LINE
  5
FD
100
AcDbEntity
  8
0
  6
CONTINUOUS
 62
     7
100
AcDbLine
 10
85.551882
 20
-56.868026
 30
0.0
 11
86.828744
 21
-55.59116
 31
0.0
  0
LINE
  5
FE
100
AcDbEntity
  8
0
  6
CONTINUOUS
 62
     7
100
AcDbLine
 10
83.287057
 20
-56.887789
 30
0.0
 11
85.182768
 21
-54.992074
 31
0.0
  0
LINE
  5
FF
100
AcDbEntity
  8
0
  6
CONTINUOUS
 62
     7
100
AcDbLine
 10
81.022232
 20
-56.907552
 30
0.0
 11
83.536792
 21
-54.392987
 31
0.0
  0
LINE
  5
100
100
AcDbEntity
  8
0
  6
CONTINUOUS
 62
     7
100
AcDbLine
 10
78.759524
 20
-56.925198
 30
0.0
 11
80.525457
 21
-55.159262
 31
0.0
  0
LINE
  5
101
100
AcDbEntity
  8
0
  6
CONTINUOUS
 62
     7
100
AcDbLine
 10
80.833525
 20
-54.851193
 30
0.0
 11
81.890816
 21
-53.7939
 31
0.0
  0
LINE
  5
102
100
AcDbEntity
  8
0
  6
CONTINUOUS
 62
     7
100
AcDbLine
 10
76.514459
 20
-56.925201
 30
0.0
 11
78.87948
 21
-54.560176
 31
0.0
  0
LINE
  5
103
100
AcDbEntity
  8
0
  6
CONTINUOUS
 62
     7
100
AcDbLine
 10
76.0
 20
-55.194595
 30
0.0
 11
77.233503
 21
-53.96109
 31
0.0
  0
LINE
  5
104
100
AcDbEntity
  8
0
  6
CONTINUOUS
 62
     7
100
AcDbLine
 10
85.70627
 20
-47.733372
 30
0.0
 11
86.999992
 21
-46.439647
 31
0.0
  0
LINE
  5
105
100
AcDbEntity
  8
0
  6
CONTINUOUS
 62
     7
100
AcDbLine
 10
84.060291
 20
-47.134288
 30
0.0
 11
86.384688
 21
-44.809887
 31
0.0
  0
LINE
  5
106
100
AcDbEntity
  8
0
  6
CONTINUOUS
 62
     7
100
AcDbLine
 10
83.779675
 20
-45.169839
 30
0.0
 11
84.524315
 21
-44.425197
 31
0.0
  0
LINE
  5
107
100
AcDbEntity
  8
0
  6
CONTINUOUS
 62
     7
100
AcDbLine
 10
82.133699
 20
-44.570752
 30
0.0
 11
82.279249
 21
-44.425201
 31
0.0
  0
TEXT
  5
10A
100
AcDbEntity
  8
0
  6
CONTINUOUS
100
AcDbText
 10
5.126239
 20
-88.592596
 30
0.0
 40
6.0
  1
PSSNR10CA
100
AcDbText
  0
INSERT
  5
11F
100
AcDbEntity
  8
0
  6
CONTINUOUS
100
AcDbBlockReference
  2
テンプレ-ト
 10
-21.970536
 20
-44.262615
 30
0.0
  0
LINE
  5
122
100
AcDbEntity
  8
0
  6
CENTER
 62
     1
100
AcDbLine
 10
-30.740066
 20
19.0
 30
0.0
 11
-36.082527
 21
19.0
 31
0.0
  0
ARC
  5
123
100
AcDbEntity
  8
0
  6
CENTER
 62
     1
100
AcDbCircle
 10
-33.435821
 20
19.0
 30
0.0
 40
19.0
100
AcDbArc
 50
178.812703
 51
272.922813
  0
LINE
  5
127
100
AcDbEntity
  8
0
  6
CENTER
 62
     1
100
AcDbLine
 10
-33.435821
 20
0.0
 30
0.0
 11
-33.435821
 21
21.502021
 31
0.0
  0
DIMENSION
  5
13B
100
AcDbEntity
  8
寸法
100
AcDbDimension
  2
*D2
 10
-10.025429
 20
14.0
 30
0.0
 11
-12.525429
 21
10.201911
 31
0.0
 70
    32
  3
寸法
100
AcDbAlignedDimension
 13
-6.07245
 23
6.403821
 33
0.0
 14
1.192357
 24
14.0
 34
0.0
 50
90.0
100
AcDbRotatedDimension
1001
ACAD
1000
DSTYLE
1002
{
1070
   271
1070
     0
1002
}
  0
DIMENSION
  5
148
100
AcDbEntity
  8
寸法
100
AcDbDimension
  2
*D3
 10
-19.961338
 20
0.0
 30
0.0
 11
-22.461338
 21
7.0
 31
0.0
 70
    32
  3
寸法
100
AcDbAlignedDimension
 13
1.192357
 23
14.0
 33
0.0
 14
0.0
 24
0.0
 34
0.0
 50
90.0
100
AcDbRotatedDimension
  0
DIMENSION
  5
155
100
AcDbEntity
  8
寸法
100
AcDbDimension
  2
*D4
 10
50.225905
 20
3.0
 30
0.0
 11
47.725905
 21
8.5
 31
0.0
 70
    32
  3
寸法
100
AcDbAlignedDimension
 13
36.0
 23
14.0
 33
0.0
 14
36.0
 24
3.0
 34
0.0
 50
90.0
100
AcDbRotatedDimension
  0
DIMENSION
  5
162
100
AcDbEntity
  8
寸法
100
AcDbDimension
  2
*D5
 10
36.0
 20
-4.251404
 30
0.0
 11
40.0
 21
-1.751404
 31
0.0
 70
    32
  3
寸法
100
AcDbAlignedDimension
 13
44.0
 23
8.5
 33
0.0
 14
36.0
 24
3.0
 34
0.0
100
AcDbRotatedDimension
  0
DIMENSION
  5
16F
100
AcDbEntity
  8
寸法
100
AcDbDimension
  2
*D6
 10
0.0
 20
-9.96239
 30
0.0
 11
22.0
 21
-7.46239
 31
0.0
 70
    32
  3
寸法
100
AcDbAlignedDimension
 13
44.0
 23
8.5
 33
0.0
 14
0.0
 24
0.0
 34
0.0
100
AcDbRotatedDimension
  0
LINE
  5
170
100
AcDbEntity
  8
寸法
100
AcDbLine
 10
0.0
 20
0.0
 30
0.0
 11
0.0
 21
-1.0
 31
0.0
  0
DIMENSION
  5
181
100
AcDbEntity
  8
寸法
100
AcDbDimension
  2
*D7
 10
0.0
 20
0.0
 30
0.0
 11
-4.279017
 21
-6.916531
 31
0.0
 70
   162
  3
寸法
100
AcDb2LineAngularDimension
 13
0.0
 23
0.0
 33
0.0
 14
0.0
 24
-1.0
 34
0.0
 15
-0.234315
 25
0.234315
 35
0.0
 16
4.066583
 26
-7.043528
 36
0.0
  0
DIMENSION
  5
197
100
AcDbEntity
  8
寸法
100
AcDbDimension
  2
*D8
 10
-15.190701
 20
24.302415
 30
0.0
 11
-41.167291
 21
16.753072
 31
0.0
 70
   163
  3
寸法
100
AcDbDiametricDimension
 15
-51.680941
 25
13.697585
 35
0.0
 40
0.0
1001
ACAD
1000
DSTYLE
1002
{
1070
   288
1070
     1
1002
}
  0
DIMENSION
  5
1A4
100
AcDbEntity
  8
寸法
100
AcDbDimension
  2
*D9
 10
50.329892
 20
-56.925202
 30
0.0
 11
47.829892
 21
-50.675202
 31
0.0
 12
0.0
 22
-12.208878
 32
0.0
 70
    32
  3
寸法
100
AcDbAlignedDimension
 13
36.0
 23
-44.425202
 33
0.0
 14
36.0
 24
-56.925202
 34
0.0
 50
90.0
100
AcDbRotatedDimension
  0
DIMENSION
  5
1B1
100
AcDbEntity
  8
寸法
100
AcDbDimension
  2
*D10
 10
-10.010923
 20
-56.925202
 30
0.0
 11
-12.510923
 21
-51.925202
 31
0.0
 12
0.0
 22
-12.208878
 32
0.0
 70
    32
  3
寸法
100
AcDbAlignedDimension
 13
-6.072449
 23
-46.925202
 33
0.0
 14
-3.210486
 24
-56.925202
 34
0.0
 50
90.0
100
AcDbRotatedDimension
  0
DIMENSION
  5
1C0
100
AcDbEntity
  8
寸法
100
AcDbDimension
  2
*D11
 10
25.0
 20
-42.335723
 30
0.0
 11
31.0
 21
-39.835723
 31
0.0
 12
0.0
 22
-12.208878
 32
0.0
 70
    32
  3
寸法
100
AcDbAlignedDimension
 13
23.0
 23
-43.591526
 33
0.0
 14
25.0
 24
-43.729718
 34
0.0
100
AcDbRotatedDimension
  0
LINE
  5
1C1
100
AcDbEntity
  8
0
  6
CENTER
 62
     1
100
AcDbLine
 10
24.0
 20
-43.729718
 30
0.0
 11
24.0
 21
-54.512135
 31
0.0
  0
DIMENSION
  5
1CE
100
AcDbEntity
  8
寸法
100
AcDbDimension
  2
*D12
 10
44.0
 20
-32.487001
 30
0.0
 11
34.0
 21
-29.987001
 31
0.0
 12
0.0
 22
-12.208878
 32
0.0
 70
    32
  3
寸法
100
AcDbAlignedDimension
 13
24.0
 23
-43.729718
 33
0.0
 14
44.0
 24
-50.925202
 34
0.0
100
AcDbRotatedDimension
  0
DIMENSION
  5
1DD
100
AcDbEntity
  8
寸法
100
AcDbDimension
  2
*D13
 10
99.831097
 20
-56.925202
 30
0.0
 11
97.331097
 21
-54.425203
 31
0.0
 12
0.0
 22
-12.208878
 32
0.0
 70
    32
  3
寸法
100
AcDbAlignedDimension
 13
87.0
 23
-51.925204
 33
0.0
 14
76.0
 24
-56.925202
 34
0.0
 50
90.0
100
AcDbRotatedDimension
  0
LINE
  5
1DE
100
AcDbEntity
  8
寸法
100
AcDbLine
 10
87.0
 20
-51.925204
 30
0.0
 11
88.0
 21
-51.925204
 31
0.0
  0
DIMENSION
  5
1F1
100
AcDbEntity
  8
寸法
100
AcDbDimension
  2
*D14
 10
88.0
 20
-51.925204
 30
0.0
 11
92.128042
 21
-49.873611
 31
0.0
 12
0.0
 22
-12.208878
 32
0.0
 70
   162
  3
寸法
100
AcDb2LineAngularDimension
 13
74.028519
 23
-47.203968
 33
0.0
 14
89.254204
 24
-52.745667
 34
0.0
 15
87.0
 25
-51.925204
 35
0.0
 16
92.374331
 26
-53.198944
 36
0.0
  0
TEXT
  5
20B
100
AcDbEntity
  8
寸法
  6
CONTINUOUS
100
AcDbText
 10
-38.422614
 20
-41.307827
 30
0.0
 40
3.0
  1
-12°
100
AcDbText
  0
LINE
  5
20C
100
AcDbEntity
  8
寸法
  6
CONTINUOUS
 62
     1
100
AcDbLine
 10
-34.283244
 20
-44.907051
 30
0.0
 11
-39.927445
 21
-50.551252
 31
0.0
  0
LINE
  5
20D
100
AcDbEntity
  8
寸法
  6
CONTINUOUS
 62
     1
100
AcDbLine
 10
-34.462094
 20
-56.016604
 30
0.0
 11
-39.927445
 21
-50.551252
 31
0.0
  0
INSERT
  5
20E
100
AcDbEntity
  8
寸法
  6
CONTINUOUS
 62
     1
100
AcDbBlockReference
  2
_OPEN30
 10
-33.04788
 20
-57.430817
 30
0.0
 41
2.0
 42
2.0
 43
2.0
 50
315.0
  0
TEXT
  5
20F
100
AcDbEntity
  8
寸法
  6
CONTINUOUS
100
AcDbText
 10
-35.141185
 20
-62.43682
 30
0.0
 40
3.0
  1
0°
100
AcDbText
  0
INSERT
  5
210
100
AcDbEntity
  8
寸法
  6
CONTINUOUS
 62
     1
100
AcDbBlockReference
  2
_OPEN30
 10
-32.86903
 20
-43.492838
 30
0.0
 41
2.0
 42
2.0
 43
2.0
 50
45.0
  0
ARC
  5
21C
100
AcDbEntity
  8
0
  6
CENTER
 62
     1
100
AcDbCircle
 10
23.927551
 20
-46.925202
 30
0.0
 40
29.999994
100
AcDbArc
 50
180.0
 51
239.596274
  0
DIMENSION
  5
225
100
AcDbEntity
  8
寸法
100
AcDbDimension
  2
*D16
 10
43.496166
 20
-11.977173
 30
0.0
 11
10.066451
 21
-50.823221
 31
0.0
 70
   163
  3
寸法
100
AcDbDiametricDimension
 15
4.358937
 25
-57.455475
 35
0.0
 40
0.0
1001
ACAD
1000
DSTYLE
1002
{
1070
   288
1070
     1
1002
}
  0
DIMENSION
  5
232
100
AcDbEntity
  8
寸法
100
AcDbDimension
  2
*D17
 10
44.0
 20
-21.068337
 30
0.0
 11
18.963775
 21
-18.568337
 31
0.0
 70
    32
  3
寸法
100
AcDbAlignedDimension
 13
-6.07245
 23
6.403822
 33
0.0
 14
44.0
 24
6.5
 34
0.0
100
AcDbRotatedDimension
1001
ACAD
1000
DSTYLE
1002
{
1070
   271
1070
     0
1002
}
  0
DIMENSION
  5
269
100
AcDbEntity
  8
寸法
100
AcDbDimension
  2
*D18
 10
42.195588
 20
-23.128595
 30
0.0
 11
10.987693
 21
-63.781131
 31
0.0
 70
   163
  3
寸法
100
AcDbDiametricDimension
 15
5.659515
 25
-70.72181
 35
0.0
 40
0.0
1001
ACAD
1000
DSTYLE
1002
{
1070
   288
1070
     1
1070
   271
1070
     0
1002
}
  0
LINE
  5
285
100
AcDbEntity
  8
寸法
100
AcDbLine
 10
-6.403821
 20
6.403821
 30
0.0
 11
-6.07245
 21
6.403821
 31
0.0
  0
ENDSEC
  0
SECTION
  2
OBJECTS
  0
DICTIONARY
  5
C
100
AcDbDictionary
  3
ACAD_GROUP
350
D
  3
ACAD_MLINESTYLE
350
1B
  0
DICTIONARY
  5
D
102
{ACAD_REACTORS
330
C
102
}
100
AcDbDictionary
  0
DICTIONARY
  5
1B
102
{ACAD_REACTORS
330
C
102
}
100
AcDbDictionary
  3
STANDARD
350
1C
  0
MLINESTYLE
  5
1C
102
{ACAD_REACTORS
330
1B
102
}
100
AcDbMlineStyle
  2
STANDARD
 70
     0
  3

 62
   256
 51
90.0
 52
90.0
 71
     2
 49
0.5
 62
   256
  6
BYLAYER
 49
-0.5
 62
   256
  6
BYLAYER
  0
ENDSEC
  0
EOF
