  0
SECTION
  2
HEADER
  9
$ACADVER
  1
AC1014
  9
$ACADMAINTVER
 70
     0
  9
$DWGCODEPAGE
  3
ANSI_932
  9
$INSBASE
 10
0.0
 20
0.0
 30
0.0
  9
$EXTMIN
 10
-65.127873
 20
-63.009456
 30
0.0
  9
$EXTMAX
 10
106.689071
 20
30.934254
 30
0.0
  9
$LIMMIN
 10
-50.936281
 20
-58.617113
  9
$LIMMAX
 10
97.252863
 20
24.849817
  9
$ORTHOMODE
 70
     0
  9
$REGENMODE
 70
     1
  9
$FILLMODE
 70
     1
  9
$QTEXTMODE
 70
     0
  9
$MIRRTEXT
 70
     1
  9
$DRAGMODE
 70
     2
  9
$LTSCALE
 40
0.5
  9
$OSMODE
 70
    35
  9
$ATTMODE
 70
     1
  9
$TEXTSIZE
 40
0.2
  9
$TRACEWID
 40
0.05
  9
$TEXTSTYLE
  7
STANDARD
  9
$CLAYER
  8
寸法
  9
$CELTYPE
  6
BYLAYER
  9
$CECOLOR
 62
     1
  9
$CELTSCALE
 40
1.0
  9
$DELOBJ
 70
     1
  9
$DISPSILH
 70
     0
  9
$DIMSCALE
 40
1.0
  9
$DIMASZ
 40
2.0
  9
$DIMEXO
 40
1.0
  9
$DIMDLI
 40
10.0
  9
$DIMRND
 40
0.0
  9
$DIMDLE
 40
0.0
  9
$DIMEXE
 40
1.0
  9
$DIMTP
 40
0.0
  9
$DIMTM
 40
0.0
  9
$DIMTXT
 40
3.0
  9
$DIMCEN
 40
2.0
  9
$DIMTSZ
 40
0.0
  9
$DIMTOL
 70
     0
  9
$DIMLIM
 70
     0
  9
$DIMTIH
 70
     0
  9
$DIMTOH
 70
     0
  9
$DIMSE1
 70
     0
  9
$DIMSE2
 70
     0
  9
$DIMTAD
 70
     1
  9
$DIMZIN
 70
     8
  9
$DIMBLK
  1

  9
$DIMASO
 70
     1
  9
$DIMSHO
 70
     1
  9
$DIMPOST
  1

  9
$DIMAPOST
  1

  9
$DIMALT
 70
     0
  9
$DIMALTD
 70
     2
  9
$DIMALTF
 40
25.4
  9
$DIMLFAC
 40
1.0
  9
$DIMTOFL
 70
     1
  9
$DIMTVP
 40
0.0
  9
$DIMTIX
 70
     0
  9
$DIMSOXD
 70
     0
  9
$DIMSAH
 70
     1
  9
$DIMBLK1
  1
_OPEN30
  9
$DIMBLK2
  1
_OPEN30
  9
$DIMSTYLE
  2
寸法
  9
$DIMCLRD
 70
     1
  9
$DIMCLRE
 70
     1
  9
$DIMCLRT
 70
     1
  9
$DIMTFAC
 40
1.0
  9
$DIMGAP
 40
1.0
  9
$DIMJUST
 70
     0
  9
$DIMSD1
 70
     0
  9
$DIMSD2
 70
     0
  9
$DIMTOLJ
 70
     1
  9
$DIMTZIN
 70
     0
  9
$DIMALTZ
 70
     0
  9
$DIMALTTZ
 70
     0
  9
$DIMFIT
 70
     3
  9
$DIMUPT
 70
     0
  9
$DIMUNIT
 70
     2
  9
$DIMDEC
 70
     1
  9
$DIMTDEC
 70
     4
  9
$DIMALTU
 70
     2
  9
$DIMALTTD
 70
     2
  9
$DIMTXSTY
  7
STANDARD
  9
$DIMAUNIT
 70
     0
  9
$LUNITS
 70
     2
  9
$LUPREC
 70
     4
  9
$SKETCHINC
 40
0.1
  9
$FILLETRAD
 40
0.0
  9
$AUNITS
 70
     0
  9
$AUPREC
 70
     0
  9
$MENU
  1
acad
  9
$ELEVATION
 40
0.0
  9
$PELEVATION
 40
0.0
  9
$THICKNESS
 40
0.0
  9
$LIMCHECK
 70
     0
  9
$BLIPMODE
 70
     0
  9
$CHAMFERA
 40
0.0
  9
$CHAMFERB
 40
0.0
  9
$CHAMFERC
 40
0.0
  9
$CHAMFERD
 40
0.0
  9
$SKPOLY
 70
     0
  9
$TDCREATE
 40
2451944.651245948
  9
$TDUPDATE
 40
2451977.637303240
  9
$TDINDWG
 40
0.0085069444
  9
$TDUSRTIMER
 40
0.0085069444
  9
$USRTIMER
 70
     1
  9
$ANGBASE
 50
0.0
  9
$ANGDIR
 70
     0
  9
$PDMODE
 70
     0
  9
$PDSIZE
 40
0.0
  9
$PLINEWID
 40
0.0
  9
$COORDS
 70
     1
  9
$SPLFRAME
 70
     0
  9
$SPLINETYPE
 70
     6
  9
$SPLINESEGS
 70
     8
  9
$ATTDIA
 70
     0
  9
$ATTREQ
 70
     1
  9
$HANDLING
 70
     1
  9
$HANDSEED
  5
1FC
  9
$SURFTAB1
 70
     6
  9
$SURFTAB2
 70
     6
  9
$SURFTYPE
 70
     6
  9
$SURFU
 70
     6
  9
$SURFV
 70
     6
  9
$UCSNAME
  2

  9
$UCSORG
 10
0.0
 20
0.0
 30
0.0
  9
$UCSXDIR
 10
1.0
 20
0.0
 30
0.0
  9
$UCSYDIR
 10
0.0
 20
1.0
 30
0.0
  9
$PUCSNAME
  2

  9
$PUCSORG
 10
0.0
 20
0.0
 30
0.0
  9
$PUCSXDIR
 10
1.0
 20
0.0
 30
0.0
  9
$PUCSYDIR
 10
0.0
 20
1.0
 30
0.0
  9
$USERI1
 70
     0
  9
$USERI2
 70
     0
  9
$USERI3
 70
     0
  9
$USERI4
 70
     0
  9
$USERI5
 70
     0
  9
$USERR1
 40
0.0
  9
$USERR2
 40
0.0
  9
$USERR3
 40
0.0
  9
$USERR4
 40
0.0
  9
$USERR5
 40
0.0
  9
$WORLDVIEW
 70
     1
  9
$SHADEDGE
 70
     3
  9
$SHADEDIF
 70
    70
  9
$TILEMODE
 70
     1
  9
$MAXACTVP
 70
    48
  9
$PINSBASE
 10
0.0
 20
0.0
 30
0.0
  9
$PLIMCHECK
 70
     0
  9
$PEXTMIN
 10
1.000000E+20
 20
1.000000E+20
 30
1.000000E+20
  9
$PEXTMAX
 10
-1.000000E+20
 20
-1.000000E+20
 30
-1.000000E+20
  9
$PLIMMIN
 10
0.0
 20
0.0
  9
$PLIMMAX
 10
12.0
 20
9.0
  9
$UNITMODE
 70
     0
  9
$VISRETAIN
 70
     1
  9
$PLINEGEN
 70
     0
  9
$PSLTSCALE
 70
     1
  9
$TREEDEPTH
 70
  3020
  9
$PICKSTYLE
 70
     1
  9
$CMLSTYLE
  2
STANDARD
  9
$CMLJUST
 70
     0
  9
$CMLSCALE
 40
1.0
  9
$PROXYGRAPHICS
 70
     1
  9
$MEASUREMENT
 70
     0
  0
ENDSEC
  0
SECTION
  2
CLASSES
  0
ENDSEC
  0
SECTION
  2
TABLES
  0
TABLE
  2
VPORT
  5
8
100
AcDbSymbolTable
 70
     2
  0
VPORT
  5
1FB
100
AcDbSymbolTableRecord
100
AcDbViewportTableRecord
  2
*ACTIVE
 70
     0
 10
0.0
 20
0.0
 11
1.0
 21
1.0
 12
17.330384
 22
-18.320671
 13
0.0
 23
0.0
 14
1.0
 24
1.0
 15
10.0
 25
10.0
 16
0.0
 26
0.0
 36
1.0
 17
0.0
 27
0.0
 37
0.0
 40
143.351383
 41
1.710425
 42
50.0
 43
0.0
 44
0.0
 50
0.0
 51
0.0
 71
     0
 72
   100
 73
     1
 74
     1
 75
     0
 76
     0
 77
     0
 78
     0
  0
ENDTAB
  0
TABLE
  2
LTYPE
  5
5
100
AcDbSymbolTable
 70
     5
  0
LTYPE
  5
12
100
AcDbSymbolTableRecord
100
AcDbLinetypeTableRecord
  2
BYBLOCK
 70
     0
  3

 72
    65
 73
     0
 40
0.0
  0
LTYPE
  5
13
100
AcDbSymbolTableRecord
100
AcDbLinetypeTableRecord
  2
BYLAYER
 70
     0
  3

 72
    65
 73
     0
 40
0.0
  0
LTYPE
  5
14
100
AcDbSymbolTableRecord
100
AcDbLinetypeTableRecord
  2
CONTINUOUS
 70
     0
  3
Solid line
 72
    65
 73
     0
 40
0.0
  0
LTYPE
  5
1F
100
AcDbSymbolTableRecord
100
AcDbLinetypeTableRecord
  2
DASHED
 70
     0
  3
__ __ __ __ __ __ __ __ __ __ __ __ __ __ __
 72
    65
 73
     2
 40
3.5
 49
2.0
 74
     0
 49
-1.5
 74
     0
  0
LTYPE
  5
20
100
AcDbSymbolTableRecord
100
AcDbLinetypeTableRecord
  2
CENTER
 70
     0
  3
____ _ ____ _ ____ _ ____ _ ____ _ ____ _ ____
 72
    65
 73
     4
 40
17.5
 49
13.0
 74
     0
 49
-1.5
 74
     0
 49
1.5
 74
     0
 49
-1.5
 74
     0
  0
LTYPE
  5
21
100
AcDbSymbolTableRecord
100
AcDbLinetypeTableRecord
  2
PHANTOM
 70
     0
  3
_____ _ _ _____ _ _ _____ _ _ _____ _ _ ____  
 72
    65
 73
     6
 40
15.5
 49
8.0
 74
     0
 49
-1.5
 74
     0
 49
1.5
 74
     0
 49
-1.5
 74
     0
 49
1.5
 74
     0
 49
-1.5
 74
     0
  0
LTYPE
  5
22
100
AcDbSymbolTableRecord
100
AcDbLinetypeTableRecord
  2
DOT
 70
     0
  3
. . . . . . . . . . . . . . . . . . . . . . . .
 72
    65
 73
     2
 40
0.25
 49
0.0
 74
     0
 49
-0.25
 74
     0
  0
ENDTAB
  0
TABLE
  2
LAYER
  5
2
100
AcDbSymbolTable
 70
     3
  0
LAYER
  5
E
100
AcDbSymbolTableRecord
100
AcDbLayerTableRecord
  2
0
 70
     0
 62
     7
  6
CONTINUOUS
  0
LAYER
  5
103
100
AcDbSymbolTableRecord
100
AcDbLayerTableRecord
  2
寸法
 70
     0
 62
     1
  6
CONTINUOUS
  0
LAYER
  5
11D
100
AcDbSymbolTableRecord
100
AcDbLayerTableRecord
  2
DEFPOINTS
 70
     0
 62
     7
  6
CONTINUOUS
  0
ENDTAB
  0
TABLE
  2
STYLE
  5
3
100
AcDbSymbolTable
 70
     2
  0
STYLE
  5
F
100
AcDbSymbolTableRecord
100
AcDbTextStyleTableRecord
  2
STANDARD
 70
     0
 40
0.0
 41
1.0
 50
0.0
 71
     0
 42
0.2
  3
txt
  4
BIGFONT
  0
STYLE
  5
104
100
AcDbSymbolTableRecord
100
AcDbTextStyleTableRecord
  2
寸法
 70
     0
 40
0.0
 41
1.0
 50
0.0
 71
     0
 42
1.767677
  3
txt.shx
  4
bigfont.shx
  0
ENDTAB
  0
TABLE
  2
VIEW
  5
6
100
AcDbSymbolTable
 70
     0
  0
ENDTAB
  0
TABLE
  2
UCS
  5
7
100
AcDbSymbolTable
 70
     0
  0
ENDTAB
  0
TABLE
  2
APPID
  5
9
100
AcDbSymbolTable
 70
     3
  0
APPID
  5
10
100
AcDbSymbolTableRecord
100
AcDbRegAppTableRecord
  2
ACAD
 70
     0
  0
APPID
  5
107
100
AcDbSymbolTableRecord
100
AcDbRegAppTableRecord
  2
CONTENTTABDATA
 70
     0
  0
APPID
  5
108
100
AcDbSymbolTableRecord
100
AcDbRegAppTableRecord
  2
CONTENTCURRENTTAB
 70
     0
  0
ENDTAB
  0
TABLE
  2
DIMSTYLE
  5
A
100
AcDbSymbolTable
 70
     3
  0
DIMSTYLE
105
F5
100
AcDbSymbolTableRecord
100
AcDbDimStyleTableRecord
  2
STANDARD
 70
     0
  3

  4

  5

  6

  7

 40
1.0
 41
0.18
 42
0.0625
 43
0.38
 44
0.18
 45
0.0
 46
0.0
 47
0.0
 48
0.0
140
0.18
141
0.09
142
0.0
143
25.4
144
1.0
145
0.0
146
1.0
147
0.09
 71
     0
 72
     0
 73
     1
 74
     1
 75
     0
 76
     0
 77
     0
 78
     0
170
     0
171
     2
172
     0
173
     0
174
     0
175
     0
176
     0
177
     0
178
     0
270
     2
271
     4
272
     4
273
     2
274
     2
340
F
275
     0
280
     0
281
     0
282
     0
283
     1
284
     0
285
     0
286
     0
287
     3
288
     0
  0
DIMSTYLE
105
105
100
AcDbSymbolTableRecord
100
AcDbDimStyleTableRecord
  2
STANDARD_WS
 70
     0
  3

  4

  5

  6

  7

 40
0.707071
 41
2.5
 42
0.625
 43
3.75
 44
1.25
 45
0.0
 46
0.0
 47
0.0
 48
0.0
140
2.5
141
2.5
142
0.0
143
0.0394
144
1.0
145
0.0
146
1.0
147
0.625
 71
     0
 72
     0
 73
     0
 74
     0
 75
     0
 76
     0
 77
     1
 78
     8
170
     0
171
     4
172
     1
173
     0
174
     0
175
     0
176
     0
177
     0
178
     0
270
     2
271
     4
272
     4
273
     8
274
     4
340
F
275
     0
280
     0
281
     0
282
     0
283
     1
284
     0
285
     0
286
     0
287
     3
288
     0
  0
DIMSTYLE
105
106
102
{ACAD_REACTORS
330
121
330
12E
330
13F
330
14C
330
159
330
166
330
175
330
183
330
190
330
19E
330
1B8
330
1CA
102
}
100
AcDbSymbolTableRecord
100
AcDbDimStyleTableRecord
  2
寸法
 70
     0
  3

  4

  5

  6
_OPEN30
  7
_OPEN30
 40
1.0
 41
2.0
 42
1.0
 43
10.0
 44
1.0
 45
0.0
 46
0.0
 47
0.0
 48
0.0
140
3.0
141
2.0
142
0.0
143
25.4
144
1.0
145
0.0
146
1.0
147
1.0
 71
     0
 72
     0
 73
     0
 74
     0
 75
     0
 76
     0
 77
     1
 78
     8
170
     0
171
     2
172
     1
173
     1
174
     0
175
     0
176
     1
177
     1
178
     1
270
     2
271
     2
272
     4
273
     2
274
     2
340
F
275
     0
280
     0
281
     0
282
     0
283
     1
284
     0
285
     0
286
     0
287
     3
288
     0
  0
ENDTAB
  0
TABLE
  2
BLOCK_RECORD
  5
1
100
AcDbSymbolTable
 70
    15
  0
BLOCK_RECORD
  5
18
100
AcDbSymbolTableRecord
100
AcDbBlockTableRecord
  2
*MODEL_SPACE
  0
BLOCK_RECORD
  5
15
100
AcDbSymbolTableRecord
100
AcDbBlockTableRecord
  2
*PAPER_SPACE
  0
BLOCK_RECORD
  5
FD
100
AcDbSymbolTableRecord
100
AcDbBlockTableRecord
  2
_OPEN30
  0
BLOCK_RECORD
  5
109
100
AcDbSymbolTableRecord
100
AcDbBlockTableRecord
  2
テンプレ-ト
  0
BLOCK_RECORD
  5
118
100
AcDbSymbolTableRecord
100
AcDbBlockTableRecord
  2
*D2
  0
BLOCK_RECORD
  5
122
100
AcDbSymbolTableRecord
100
AcDbBlockTableRecord
  2
*D3
  0
BLOCK_RECORD
  5
130
100
AcDbSymbolTableRecord
100
AcDbBlockTableRecord
  2
*D4
  0
BLOCK_RECORD
  5
140
100
AcDbSymbolTableRecord
100
AcDbBlockTableRecord
  2
*D5
  0
BLOCK_RECORD
  5
14D
100
AcDbSymbolTableRecord
100
AcDbBlockTableRecord
  2
*D6
  0
BLOCK_RECORD
  5
15A
100
AcDbSymbolTableRecord
100
AcDbBlockTableRecord
  2
*D7
  0
BLOCK_RECORD
  5
167
100
AcDbSymbolTableRecord
100
AcDbBlockTableRecord
  2
*D8
  0
BLOCK_RECORD
  5
177
100
AcDbSymbolTableRecord
100
AcDbBlockTableRecord
  2
*D9
  0
BLOCK_RECORD
  5
184
100
AcDbSymbolTableRecord
100
AcDbBlockTableRecord
  2
*D10
  0
BLOCK_RECORD
  5
191
100
AcDbSymbolTableRecord
100
AcDbBlockTableRecord
  2
*D11
  0
BLOCK_RECORD
  5
1AA
100
AcDbSymbolTableRecord
100
AcDbBlockTableRecord
  2
*D12
  0
BLOCK_RECORD
  5
1BA
100
AcDbSymbolTableRecord
100
AcDbBlockTableRecord
  2
*D13
  0
BLOCK_RECORD
  5
1DA
100
AcDbSymbolTableRecord
100
AcDbBlockTableRecord
  2
A$C454F4B6C
  0
ENDTAB
  0
ENDSEC
  0
SECTION
  2
BLOCKS
  0
BLOCK
  5
19
100
AcDbEntity
  8
0
100
AcDbBlockBegin
  2
*MODEL_SPACE
 70
     0
 10
0.0
 20
0.0
 30
0.0
  3
*MODEL_SPACE
  1

  0
ENDBLK
  5
1A
100
AcDbEntity
  8
0
100
AcDbBlockEnd
  0
BLOCK
  5
16
100
AcDbEntity
 67
     1
  8
0
100
AcDbBlockBegin
  2
*PAPER_SPACE
 70
     0
 10
0.0
 20
0.0
 30
0.0
  3
*PAPER_SPACE
  1

  0
ENDBLK
  5
17
100
AcDbEntity
 67
     1
  8
0
100
AcDbBlockEnd
  0
BLOCK
  5
101
100
AcDbEntity
  8
0
100
AcDbBlockBegin
  2
_OPEN30
 70
     0
 10
0.0
 20
0.0
 30
0.0
  3
_OPEN30
  1

  0
LINE
  5
FE
100
AcDbEntity
  8
0
  6
BYBLOCK
 62
     0
100
AcDbLine
 10
-1.0
 20
0.267949
 30
0.0
 11
0.0
 21
0.0
 31
0.0
  0
LINE
  5
FF
100
AcDbEntity
  8
0
  6
BYBLOCK
 62
     0
100
AcDbLine
 10
0.0
 20
0.0
 30
0.0
 11
-1.0
 21
-0.267949
 31
0.0
  0
LINE
  5
100
100
AcDbEntity
  8
0
  6
BYBLOCK
 62
     0
100
AcDbLine
 10
0.0
 20
0.0
 30
0.0
 11
-1.0
 21
0.0
 31
0.0
  0
ENDBLK
  5
102
100
AcDbEntity
  8
0
100
AcDbBlockEnd
  0
BLOCK
  5
10A
100
AcDbEntity
  8
0
100
AcDbBlockBegin
  2
テンプレ-ト
 70
     0
 10
0.0
 20
0.0
 30
0.0
  3
テンプレ-ト
  1

  0
ENDBLK
  5
10B
100
AcDbEntity
  8
0
100
AcDbBlockEnd
  0
BLOCK
  5
119
100
AcDbEntity
  8
0
100
AcDbBlockBegin
  2
*D2
 70
     1
 10
0.0
 20
0.0
 30
0.0
  3
*D2
  1

  0
LINE
  5
11A
100
AcDbEntity
  8
0
  6
BYBLOCK
 62
     1
100
AcDbLine
 10
-24.404877
 20
23.923651
 30
0.0
 11
-42.342643
 21
19.540487
 31
0.0
  0
MTEXT
  5
11B
100
AcDbEntity
  8
0
  6
BYBLOCK
 62
     1
100
AcDbMText
 10
-29.612544
 20
25.224691
 30
0.0
 40
3.0
 41
0.0
 71
     5
 72
     1
  1
\A1;\U+220550
 11
0.971419
 21
0.23737
 31
0.0
  0
INSERT
  5
11C
100
AcDbEntity
  8
0
  6
BYBLOCK
 62
     1
100
AcDbBlockReference
  2
_OPEN30
 10
-44.285482
 20
19.065746
 30
0.0
 41
2.0
 42
2.0
 43
2.0
 50
193.731376
  0
POINT
  5
11E
100
AcDbEntity
  8
DEFPOINTS
  6
BYBLOCK
 62
     0
100
AcDbPoint
 10
-44.285482
 20
19.065746
 30
0.0
  0
POINT
  5
11F
100
AcDbEntity
  8
DEFPOINTS
  6
BYBLOCK
 62
     0
100
AcDbPoint
 10
4.285482
 20
30.934254
 30
0.0
  0
ENDBLK
  5
120
100
AcDbEntity
  8
0
100
AcDbBlockEnd
  0
BLOCK
  5
123
100
AcDbEntity
  8
0
100
AcDbBlockBegin
  2
*D3
 70
     1
 10
0.0
 20
0.0
 30
0.0
  3
*D3
  1

  0
LINE
  5
124
100
AcDbEntity
  8
0
  6
BYBLOCK
 62
     1
100
AcDbLine
 10
-1.0
 20
20.0
 30
0.0
 11
-16.57538
 21
20.0
 31
0.0
  0
LINE
  5
125
100
AcDbEntity
  8
0
  6
BYBLOCK
 62
     1
100
AcDbLine
 10
-1.0
 20
0.0
 30
0.0
 11
-16.57538
 21
0.0
 31
0.0
  0
LINE
  5
126
100
AcDbEntity
  8
0
  6
BYBLOCK
 62
     1
100
AcDbLine
 10
-15.57538
 20
18.0
 30
0.0
 11
-15.57538
 21
2.0
 31
0.0
  0
INSERT
  5
127
100
AcDbEntity
  8
0
  6
BYBLOCK
 62
     1
100
AcDbBlockReference
  2
_OPEN30
 10
-15.57538
 20
20.0
 30
0.0
 41
2.0
 42
2.0
 43
2.0
 50
90.0
  0
INSERT
  5
128
100
AcDbEntity
  8
0
  6
BYBLOCK
 62
     1
100
AcDbBlockReference
  2
_OPEN30
 10
-15.57538
 20
0.0
 30
0.0
 41
2.0
 42
2.0
 43
2.0
 50
270.0
  0
MTEXT
  5
129
100
AcDbEntity
  8
0
  6
BYBLOCK
 62
     1
100
AcDbMText
 10
-18.07538
 20
10.0
 30
0.0
 40
3.0
 41
0.0
 71
     5
 72
     1
  1
\A1;20
 11
0.0
 21
1.0
 31
0.0
  0
POINT
  5
12A
100
AcDbEntity
  8
DEFPOINTS
  6
BYBLOCK
 62
     0
100
AcDbPoint
 10
0.0
 20
20.0
 30
0.0
  0
POINT
  5
12B
100
AcDbEntity
  8
DEFPOINTS
  6
BYBLOCK
 62
     0
100
AcDbPoint
 10
0.0
 20
0.0
 30
0.0
  0
POINT
  5
12C
100
AcDbEntity
  8
DEFPOINTS
  6
BYBLOCK
 62
     0
100
AcDbPoint
 10
-15.57538
 20
0.0
 30
0.0
  0
ENDBLK
  5
12D
100
AcDbEntity
  8
0
100
AcDbBlockEnd
  0
BLOCK
  5
131
100
AcDbEntity
  8
0
100
AcDbBlockBegin
  2
*D4
 70
     1
 10
0.0
 20
0.0
 30
0.0
  3
*D4
  1

  0
LINE
  5
132
100
AcDbEntity
  8
0
  6
BYBLOCK
 62
     1
100
AcDbLine
 10
-2.0
 20
0.0
 30
0.0
 11
-10.127595
 21
0.0
 31
0.0
  0
ARC
  5
133
100
AcDbEntity
  8
0
  6
BYBLOCK
 62
     1
100
AcDbCircle
 10
0.0
 20
0.0
 30
0.0
 40
9.127595
100
AcDbArc
 50
64.84068
 51
77.42034
  0
ARC
  5
134
100
AcDbEntity
  8
0
  6
BYBLOCK
 62
     1
100
AcDbCircle
 10
0.0
 20
0.0
 30
0.0
 40
9.127595
100
AcDbArc
 50
192.57966
 51
205.15932
  0
ARC
  5
135
100
AcDbEntity
  8
0
  6
BYBLOCK
 62
     1
100
AcDbCircle
 10
0.0
 20
0.0
 30
0.0
 40
9.127595
100
AcDbArc
 50
90.0
 51
180.0
  0
INSERT
  5
136
100
AcDbEntity
  8
0
  6
BYBLOCK
 62
     1
100
AcDbBlockReference
  2
_OPEN30
 10
0.0
 20
9.127595
 30
0.0
 41
2.0
 42
2.0
 43
2.0
 50
173.71017
  0
INSERT
  5
137
100
AcDbEntity
  8
0
  6
BYBLOCK
 62
     1
100
AcDbBlockReference
  2
_OPEN30
 10
-9.127595
 20
0.0
 30
0.0
 41
2.0
 42
2.0
 43
2.0
 50
96.28983
  0
MTEXT
  5
138
100
AcDbEntity
  8
0
  6
BYBLOCK
 62
     1
100
AcDbMText
 10
-8.221952
 20
8.221952
 30
0.0
 40
3.0
 41
0.0
 71
     5
 72
     1
  1
\A1;90°
 11
0.707107
 21
0.707107
 31
0.0
  0
POINT
  5
139
100
AcDbEntity
  8
DEFPOINTS
  6
BYBLOCK
 62
     0
100
AcDbPoint
 10
-4.563798
 20
7.904729
 30
0.0
  0
POINT
  5
13A
100
AcDbEntity
  8
DEFPOINTS
  6
BYBLOCK
 62
     0
100
AcDbPoint
 10
0.0
 20
0.0
 30
0.0
  0
POINT
  5
13B
100
AcDbEntity
  8
DEFPOINTS
  6
BYBLOCK
 62
     0
100
AcDbPoint
 10
0.0
 20
20.0
 30
0.0
  0
POINT
  5
13C
100
AcDbEntity
  8
DEFPOINTS
  6
BYBLOCK
 62
     0
100
AcDbPoint
 10
0.0
 20
0.8
 30
0.0
  0
POINT
  5
13D
100
AcDbEntity
  8
DEFPOINTS
  6
BYBLOCK
 62
     0
100
AcDbPoint
 10
-1.0
 20
0.0
 30
0.0
  0
ENDBLK
  5
13E
100
AcDbEntity
  8
0
100
AcDbBlockEnd
  0
BLOCK
  5
141
100
AcDbEntity
  8
0
100
AcDbBlockBegin
  2
*D5
 70
     1
 10
0.0
 20
0.0
 30
0.0
  3
*D5
  1

  0
LINE
  5
142
100
AcDbEntity
  8
0
  6
BYBLOCK
 62
     1
100
AcDbLine
 10
48.0
 20
20.0
 30
0.0
 11
65.890033
 21
20.0
 31
0.0
  0
LINE
  5
143
100
AcDbEntity
  8
0
  6
BYBLOCK
 62
     1
100
AcDbLine
 10
48.0
 20
4.0
 30
0.0
 11
65.890033
 21
4.0
 31
0.0
  0
LINE
  5
144
100
AcDbEntity
  8
0
  6
BYBLOCK
 62
     1
100
AcDbLine
 10
64.890033
 20
18.0
 30
0.0
 11
64.890033
 21
6.0
 31
0.0
  0
INSERT
  5
145
100
AcDbEntity
  8
0
  6
BYBLOCK
 62
     1
100
AcDbBlockReference
  2
_OPEN30
 10
64.890033
 20
20.0
 30
0.0
 41
2.0
 42
2.0
 43
2.0
 50
90.0
  0
INSERT
  5
146
100
AcDbEntity
  8
0
  6
BYBLOCK
 62
     1
100
AcDbBlockReference
  2
_OPEN30
 10
64.890033
 20
4.0
 30
0.0
 41
2.0
 42
2.0
 43
2.0
 50
270.0
  0
MTEXT
  5
147
100
AcDbEntity
  8
0
  6
BYBLOCK
 62
     1
100
AcDbMText
 10
62.390033
 20
12.0
 30
0.0
 40
3.0
 41
0.0
 71
     5
 72
     1
  1
\A1;16
 11
0.0
 21
1.0
 31
0.0
  0
POINT
  5
148
100
AcDbEntity
  8
DEFPOINTS
  6
BYBLOCK
 62
     0
100
AcDbPoint
 10
47.0
 20
20.0
 30
0.0
  0
POINT
  5
149
100
AcDbEntity
  8
DEFPOINTS
  6
BYBLOCK
 62
     0
100
AcDbPoint
 10
47.0
 20
4.0
 30
0.0
  0
POINT
  5
14A
100
AcDbEntity
  8
DEFPOINTS
  6
BYBLOCK
 62
     0
100
AcDbPoint
 10
64.890033
 20
4.0
 30
0.0
  0
ENDBLK
  5
14B
100
AcDbEntity
  8
0
100
AcDbBlockEnd
  0
BLOCK
  5
14E
100
AcDbEntity
  8
0
100
AcDbBlockBegin
  2
*D6
 70
     1
 10
0.0
 20
0.0
 30
0.0
  3
*D6
  1

  0
LINE
  5
14F
100
AcDbEntity
  8
0
  6
BYBLOCK
 62
     1
100
AcDbLine
 10
55.0
 20
11.0
 30
0.0
 11
55.0
 21
-5.466177
 31
0.0
  0
LINE
  5
150
100
AcDbEntity
  8
0
  6
BYBLOCK
 62
     1
100
AcDbLine
 10
47.0
 20
3.0
 30
0.0
 11
47.0
 21
-5.466177
 31
0.0
  0
LINE
  5
151
100
AcDbEntity
  8
0
  6
BYBLOCK
 62
     1
100
AcDbLine
 10
53.0
 20
-4.466177
 30
0.0
 11
49.0
 21
-4.466177
 31
0.0
  0
INSERT
  5
152
100
AcDbEntity
  8
0
  6
BYBLOCK
 62
     1
100
AcDbBlockReference
  2
_OPEN30
 10
55.0
 20
-4.466177
 30
0.0
 41
2.0
 42
2.0
 43
2.0
  0
INSERT
  5
153
100
AcDbEntity
  8
0
  6
BYBLOCK
 62
     1
100
AcDbBlockReference
  2
_OPEN30
 10
47.0
 20
-4.466177
 30
0.0
 41
2.0
 42
2.0
 43
2.0
 50
180.0
  0
MTEXT
  5
154
100
AcDbEntity
  8
0
  6
BYBLOCK
 62
     1
100
AcDbMText
 10
51.0
 20
-1.966177
 30
0.0
 40
3.0
 41
0.0
 71
     5
 72
     1
  1
\A1;8
  0
POINT
  5
155
100
AcDbEntity
  8
DEFPOINTS
  6
BYBLOCK
 62
     0
100
AcDbPoint
 10
55.0
 20
12.0
 30
0.0
  0
POINT
  5
156
100
AcDbEntity
  8
DEFPOINTS
  6
BYBLOCK
 62
     0
100
AcDbPoint
 10
47.0
 20
4.0
 30
0.0
  0
POINT
  5
157
100
AcDbEntity
  8
DEFPOINTS
  6
BYBLOCK
 62
     0
100
AcDbPoint
 10
47.0
 20
-4.466177
 30
0.0
  0
ENDBLK
  5
158
100
AcDbEntity
  8
0
100
AcDbBlockEnd
  0
BLOCK
  5
15B
100
AcDbEntity
  8
0
100
AcDbBlockBegin
  2
*D7
 70
     1
 10
0.0
 20
0.0
 30
0.0
  3
*D7
  1

  0
LINE
  5
15C
100
AcDbEntity
  8
0
  6
BYBLOCK
 62
     1
100
AcDbLine
 10
55.0
 20
11.0
 30
0.0
 11
55.0
 21
-11.078251
 31
0.0
  0
LINE
  5
15D
100
AcDbEntity
  8
0
  6
BYBLOCK
 62
     1
100
AcDbLine
 10
0.0
 20
-1.0
 30
0.0
 11
0.0
 21
-11.078251
 31
0.0
  0
LINE
  5
15E
100
AcDbEntity
  8
0
  6
BYBLOCK
 62
     1
100
AcDbLine
 10
53.0
 20
-10.078251
 30
0.0
 11
2.0
 21
-10.078251
 31
0.0
  0
INSERT
  5
15F
100
AcDbEntity
  8
0
  6
BYBLOCK
 62
     1
100
AcDbBlockReference
  2
_OPEN30
 10
55.0
 20
-10.078251
 30
0.0
 41
2.0
 42
2.0
 43
2.0
  0
INSERT
  5
160
100
AcDbEntity
  8
0
  6
BYBLOCK
 62
     1
100
AcDbBlockReference
  2
_OPEN30
 10
0.0
 20
-10.078251
 30
0.0
 41
2.0
 42
2.0
 43
2.0
 50
180.0
  0
MTEXT
  5
161
100
AcDbEntity
  8
0
  6
BYBLOCK
 62
     1
100
AcDbMText
 10
27.5
 20
-7.578251
 30
0.0
 40
3.0
 41
0.0
 71
     5
 72
     1
  1
\A1;55
  0
POINT
  5
162
100
AcDbEntity
  8
DEFPOINTS
  6
BYBLOCK
 62
     0
100
AcDbPoint
 10
55.0
 20
12.0
 30
0.0
  0
POINT
  5
163
100
AcDbEntity
  8
DEFPOINTS
  6
BYBLOCK
 62
     0
100
AcDbPoint
 10
0.0
 20
0.0
 30
0.0
  0
POINT
  5
164
100
AcDbEntity
  8
DEFPOINTS
  6
BYBLOCK
 62
     0
100
AcDbPoint
 10
0.0
 20
-10.078251
 30
0.0
  0
ENDBLK
  5
165
100
AcDbEntity
  8
0
100
AcDbBlockEnd
  0
BLOCK
  5
168
100
AcDbEntity
  8
0
100
AcDbBlockBegin
  2
*D8
 70
     1
 10
0.0
 20
0.0
 30
0.0
  3
*D8
  1

  0
LINE
  5
169
100
AcDbEntity
  8
0
  6
BYBLOCK
 62
     1
100
AcDbLine
 10
34.0
 20
-22.409487
 30
0.0
 11
34.0
 21
-18.751944
 31
0.0
  0
LINE
  5
16A
100
AcDbEntity
  8
0
  6
BYBLOCK
 62
     1
100
AcDbLine
 10
36.0
 20
-22.409487
 30
0.0
 11
36.0
 21
-18.751944
 31
0.0
  0
LINE
  5
16B
100
AcDbEntity
  8
0
  6
BYBLOCK
 62
     1
100
AcDbLine
 10
32.0
 20
-19.751944
 30
0.0
 11
30.0
 21
-19.751944
 31
0.0
  0
LINE
  5
16C
100
AcDbEntity
  8
0
  6
BYBLOCK
 62
     1
100
AcDbLine
 10
38.0
 20
-19.751944
 30
0.0
 11
44.0
 21
-19.751944
 31
0.0
  0
LINE
  5
16D
100
AcDbEntity
  8
0
  6
BYBLOCK
 62
     1
100
AcDbLine
 10
34.0
 20
-19.751944
 30
0.0
 11
36.0
 21
-19.751944
 31
0.0
  0
INSERT
  5
16E
100
AcDbEntity
  8
0
  6
BYBLOCK
 62
     1
100
AcDbBlockReference
  2
_OPEN30
 10
34.0
 20
-19.751944
 30
0.0
 41
2.0
 42
2.0
 43
2.0
  0
INSERT
  5
16F
100
AcDbEntity
  8
0
  6
BYBLOCK
 62
     1
100
AcDbBlockReference
  2
_OPEN30
 10
36.0
 20
-19.751944
 30
0.0
 41
2.0
 42
2.0
 43
2.0
 50
180.0
  0
MTEXT
  5
170
100
AcDbEntity
  8
0
  6
BYBLOCK
 62
     1
100
AcDbMText
 10
42.0
 20
-17.251944
 30
0.0
 40
3.0
 41
0.0
 71
     5
 72
     1
  1
\A1;2
  0
POINT
  5
171
100
AcDbEntity
  8
DEFPOINTS
  6
BYBLOCK
 62
     0
100
AcDbPoint
 10
34.0
 20
-23.409487
 30
0.0
  0
POINT
  5
172
100
AcDbEntity
  8
DEFPOINTS
  6
BYBLOCK
 62
     0
100
AcDbPoint
 10
36.0
 20
-23.409487
 30
0.0
  0
POINT
  5
173
100
AcDbEntity
  8
DEFPOINTS
  6
BYBLOCK
 62
     0
100
AcDbPoint
 10
36.0
 20
-19.751944
 30
0.0
  0
ENDBLK
  5
174
100
AcDbEntity
  8
0
100
AcDbBlockEnd
  0
BLOCK
  5
178
100
AcDbEntity
  8
0
100
AcDbBlockBegin
  2
*D9
 70
     1
 10
0.0
 20
0.0
 30
0.0
  3
*D9
  1

  0
LINE
  5
179
100
AcDbEntity
  8
0
  6
BYBLOCK
 62
     1
100
AcDbLine
 10
35.0
 20
-33.032342
 30
0.0
 11
35.0
 21
-19.152807
 31
0.0
  0
LINE
  5
17A
100
AcDbEntity
  8
0
  6
BYBLOCK
 62
     1
100
AcDbLine
 10
55.0
 20
-42.032342
 30
0.0
 11
55.0
 21
-19.152807
 31
0.0
  0
LINE
  5
17B
100
AcDbEntity
  8
0
  6
BYBLOCK
 62
     1
100
AcDbLine
 10
37.0
 20
-20.152807
 30
0.0
 11
53.0
 21
-20.152807
 31
0.0
  0
INSERT
  5
17C
100
AcDbEntity
  8
0
  6
BYBLOCK
 62
     1
100
AcDbBlockReference
  2
_OPEN30
 10
35.0
 20
-20.152807
 30
0.0
 41
2.0
 42
2.0
 43
2.0
 50
180.0
  0
INSERT
  5
17D
100
AcDbEntity
  8
0
  6
BYBLOCK
 62
     1
100
AcDbBlockReference
  2
_OPEN30
 10
55.0
 20
-20.152807
 30
0.0
 41
2.0
 42
2.0
 43
2.0
  0
MTEXT
  5
17E
100
AcDbEntity
  8
0
  6
BYBLOCK
 62
     1
100
AcDbMText
 10
45.0
 20
-17.652807
 30
0.0
 40
3.0
 41
0.0
 71
     5
 72
     1
  1
\A1;20
  0
POINT
  5
17F
100
AcDbEntity
  8
DEFPOINTS
  6
BYBLOCK
 62
     0
100
AcDbPoint
 10
35.0
 20
-34.032342
 30
0.0
  0
POINT
  5
180
100
AcDbEntity
  8
DEFPOINTS
  6
BYBLOCK
 62
     0
100
AcDbPoint
 10
55.0
 20
-43.032342
 30
0.0
  0
POINT
  5
181
100
AcDbEntity
  8
DEFPOINTS
  6
BYBLOCK
 62
     0
100
AcDbPoint
 10
55.0
 20
-20.152807
 30
0.0
  0
ENDBLK
  5
182
100
AcDbEntity
  8
0
100
AcDbBlockEnd
  0
BLOCK
  5
185
100
AcDbEntity
  8
0
100
AcDbBlockBegin
  2
*D10
 70
     1
 10
0.0
 20
0.0
 30
0.0
  3
*D10
  1

  0
LINE
  5
186
100
AcDbEntity
  8
0
  6
BYBLOCK
 62
     1
100
AcDbLine
 10
48.0
 20
-35.032342
 30
0.0
 11
65.540552
 21
-35.032342
 31
0.0
  0
LINE
  5
187
100
AcDbEntity
  8
0
  6
BYBLOCK
 62
     1
100
AcDbLine
 10
48.0
 20
-50.532342
 30
0.0
 11
65.540552
 21
-50.532342
 31
0.0
  0
LINE
  5
188
100
AcDbEntity
  8
0
  6
BYBLOCK
 62
     1
100
AcDbLine
 10
64.540552
 20
-37.032342
 30
0.0
 11
64.540552
 21
-48.532342
 31
0.0
  0
INSERT
  5
189
100
AcDbEntity
  8
0
  6
BYBLOCK
 62
     1
100
AcDbBlockReference
  2
_OPEN30
 10
64.540552
 20
-35.032342
 30
0.0
 41
2.0
 42
2.0
 43
2.0
 50
90.0
  0
INSERT
  5
18A
100
AcDbEntity
  8
0
  6
BYBLOCK
 62
     1
100
AcDbBlockReference
  2
_OPEN30
 10
64.540552
 20
-50.532342
 30
0.0
 41
2.0
 42
2.0
 43
2.0
 50
270.0
  0
MTEXT
  5
18B
100
AcDbEntity
  8
0
  6
BYBLOCK
 62
     1
100
AcDbMText
 10
62.040552
 20
-42.782342
 30
0.0
 40
3.0
 41
0.0
 71
     5
 72
     1
  1
\A1;15.5
 11
0.0
 21
1.0
 31
0.0
  0
POINT
  5
18C
100
AcDbEntity
  8
DEFPOINTS
  6
BYBLOCK
 62
     0
100
AcDbPoint
 10
47.0
 20
-35.032342
 30
0.0
  0
POINT
  5
18D
100
AcDbEntity
  8
DEFPOINTS
  6
BYBLOCK
 62
     0
100
AcDbPoint
 10
47.0
 20
-50.532342
 30
0.0
  0
POINT
  5
18E
100
AcDbEntity
  8
DEFPOINTS
  6
BYBLOCK
 62
     0
100
AcDbPoint
 10
64.540552
 20
-50.532342
 30
0.0
  0
ENDBLK
  5
18F
100
AcDbEntity
  8
0
100
AcDbBlockEnd
  0
BLOCK
  5
1EB
100
AcDbEntity
  8
0
100
AcDbBlockBegin
  2
*D11
 70
     1
 10
0.0
 20
0.0
 30
0.0
  3
*D11
  1

  0
LINE
  5
1EC
100
AcDbEntity
  8
0
  6
BYBLOCK
 62
     1
100
AcDbLine
 10
-1.01
 20
-38.575435
 30
0.0
 11
-15.95886
 21
-38.575435
 31
0.0
  0
LINE
  5
1ED
100
AcDbEntity
  8
0
  6
BYBLOCK
 62
     1
100
AcDbLine
 10
0.261251
 20
-50.532342
 30
0.0
 11
-15.95886
 21
-50.532342
 31
0.0
  0
LINE
  5
1EE
100
AcDbEntity
  8
0
  6
BYBLOCK
 62
     1
100
AcDbLine
 10
-14.95886
 20
-40.575435
 30
0.0
 11
-14.95886
 21
-48.532342
 31
0.0
  0
INSERT
  5
1EF
100
AcDbEntity
  8
0
  6
BYBLOCK
 62
     1
100
AcDbBlockReference
  2
_OPEN30
 10
-14.95886
 20
-38.575435
 30
0.0
 41
2.0
 42
2.0
 43
2.0
 50
90.0
  0
INSERT
  5
1F0
100
AcDbEntity
  8
0
  6
BYBLOCK
 62
     1
100
AcDbBlockReference
  2
_OPEN30
 10
-14.95886
 20
-50.532342
 30
0.0
 41
2.0
 42
2.0
 43
2.0
 50
270.0
  0
MTEXT
  5
1F1
100
AcDbEntity
  8
0
  6
BYBLOCK
 62
     1
100
AcDbMText
 10
-17.45886
 20
-44.553889
 30
0.0
 40
3.0
 41
0.0
 71
     5
 72
     1
  1
\A1;12
 11
0.0
 21
1.0
 31
0.0
  0
POINT
  5
1F2
100
AcDbEntity
  8
DEFPOINTS
  6
BYBLOCK
 62
     0
100
AcDbPoint
 10
-0.01
 20
-38.575435
 30
0.0
  0
POINT
  5
1F3
100
AcDbEntity
  8
DEFPOINTS
  6
BYBLOCK
 62
     0
100
AcDbPoint
 10
1.261251
 20
-50.532342
 30
0.0
  0
POINT
  5
1F4
100
AcDbEntity
  8
DEFPOINTS
  6
BYBLOCK
 62
     0
100
AcDbPoint
 10
-14.95886
 20
-50.532342
 30
0.0
  0
ENDBLK
  5
1F5
100
AcDbEntity
  8
0
100
AcDbBlockEnd
  0
BLOCK
  5
1AB
100
AcDbEntity
  8
0
100
AcDbBlockBegin
  2
*D12
 70
     1
 10
0.0
 20
0.0
 30
0.0
  3
*D12
  1

  0
LINE
  5
1AC
100
AcDbEntity
  8
0
  6
BYBLOCK
 62
     1
100
AcDbLine
 10
93.631335
 20
-44.532344
 30
0.0
 11
106.689071
 21
-44.532344
 31
0.0
  0
LINE
  5
1AD
100
AcDbEntity
  8
0
  6
BYBLOCK
 62
     1
100
AcDbLine
 10
77.631335
 20
-50.532342
 30
0.0
 11
106.689071
 21
-50.532342
 31
0.0
  0
LINE
  5
1AE
100
AcDbEntity
  8
0
  6
BYBLOCK
 62
     1
100
AcDbLine
 10
105.689071
 20
-42.532344
 30
0.0
 11
105.689071
 21
-40.532344
 31
0.0
  0
LINE
  5
1AF
100
AcDbEntity
  8
0
  6
BYBLOCK
 62
     1
100
AcDbLine
 10
105.689071
 20
-52.532342
 30
0.0
 11
105.689071
 21
-54.532342
 31
0.0
  0
LINE
  5
1B0
100
AcDbEntity
  8
0
  6
BYBLOCK
 62
     1
100
AcDbLine
 10
105.689071
 20
-44.532344
 30
0.0
 11
105.689071
 21
-50.532342
 31
0.0
  0
INSERT
  5
1B1
100
AcDbEntity
  8
0
  6
BYBLOCK
 62
     1
100
AcDbBlockReference
  2
_OPEN30
 10
105.689071
 20
-44.532344
 30
0.0
 41
2.0
 42
2.0
 43
2.0
 50
270.0
  0
INSERT
  5
1B2
100
AcDbEntity
  8
0
  6
BYBLOCK
 62
     1
100
AcDbBlockReference
  2
_OPEN30
 10
105.689071
 20
-50.532342
 30
0.0
 41
2.0
 42
2.0
 43
2.0
 50
90.0
  0
MTEXT
  5
1B3
100
AcDbEntity
  8
0
  6
BYBLOCK
 62
     1
100
AcDbMText
 10
103.189071
 20
-47.532343
 30
0.0
 40
3.0
 41
0.0
 71
     5
 72
     1
  1
\A1;6
 11
0.0
 21
1.0
 31
0.0
  0
POINT
  5
1B4
100
AcDbEntity
  8
DEFPOINTS
  6
BYBLOCK
 62
     0
100
AcDbPoint
 10
92.631335
 20
-44.532344
 30
0.0
  0
POINT
  5
1B5
100
AcDbEntity
  8
DEFPOINTS
  6
BYBLOCK
 62
     0
100
AcDbPoint
 10
76.631335
 20
-50.532342
 30
0.0
  0
POINT
  5
1B6
100
AcDbEntity
  8
DEFPOINTS
  6
BYBLOCK
 62
     0
100
AcDbPoint
 10
105.689071
 20
-50.532342
 30
0.0
  0
ENDBLK
  5
1B7
100
AcDbEntity
  8
0
100
AcDbBlockEnd
  0
BLOCK
  5
1CB
100
AcDbEntity
  8
0
100
AcDbBlockBegin
  2
*D13
 70
     1
 10
0.0
 20
0.0
 30
0.0
  3
*D13
  1

  0
LINE
  5
1CC
100
AcDbEntity
  8
0
  6
BYBLOCK
 62
     1
100
AcDbLine
 10
95.747908
 20
-45.666684
 30
0.0
 11
98.575719
 21
-46.695924
 31
0.0
  0
LINE
  5
1CD
100
AcDbEntity
  8
0
  6
BYBLOCK
 62
     1
100
AcDbLine
 10
94.631335
 20
-44.532344
 30
0.0
 11
98.957217
 21
-44.532344
 31
0.0
  0
ARC
  5
1CE
100
AcDbEntity
  8
0
  6
BYBLOCK
 62
     1
100
AcDbCircle
 10
92.631335
 20
-44.532344
 30
0.0
 40
5.325882
100
AcDbArc
 50
296.711096
 51
318.355546
  0
ARC
  5
1CF
100
AcDbEntity
  8
0
  6
BYBLOCK
 62
     1
100
AcDbCircle
 10
92.631335
 20
-44.532344
 30
0.0
 40
5.325882
100
AcDbArc
 50
21.64445
 51
43.288901
  0
ARC
  5
1D0
100
AcDbEntity
  8
0
  6
BYBLOCK
 62
     1
100
AcDbCircle
 10
92.631335
 20
-44.532344
 30
0.0
 40
5.325882
100
AcDbArc
 50
339.999997
 51
360.0
  0
INSERT
  5
1D1
100
AcDbEntity
  8
0
  6
BYBLOCK
 62
     1
100
AcDbBlockReference
  2
_OPEN30
 10
97.636027
 20
-46.353903
 30
0.0
 41
2.0
 42
2.0
 43
2.0
 50
59.177772
  0
INSERT
  5
1D2
100
AcDbEntity
  8
0
  6
BYBLOCK
 62
     1
100
AcDbBlockReference
  2
_OPEN30
 10
97.957217
 20
-44.532344
 30
0.0
 41
2.0
 42
2.0
 43
2.0
 50
280.822225
  0
MTEXT
  5
1D3
100
AcDbEntity
  8
0
  6
BYBLOCK
 62
     1
100
AcDbMText
 10
99.518309
 20
-40.815623
 30
0.0
 40
3.0
 41
0.0
 71
     5
 72
     1
  1
\A1;20°
 11
0.474927
 21
-0.880025
 31
0.0
  0
POINT
  5
1D4
100
AcDbEntity
  8
DEFPOINTS
  6
BYBLOCK
 62
     0
100
AcDbPoint
 10
97.813657
 20
-45.760577
 30
0.0
  0
POINT
  5
1D5
100
AcDbEntity
  8
DEFPOINTS
  6
BYBLOCK
 62
     0
100
AcDbPoint
 10
92.631335
 20
-44.532344
 30
0.0
  0
POINT
  5
1D6
100
AcDbEntity
  8
DEFPOINTS
  6
BYBLOCK
 62
     0
100
AcDbPoint
 10
74.462313
 20
-37.91936
 30
0.0
  0
POINT
  5
1D7
100
AcDbEntity
  8
DEFPOINTS
  6
BYBLOCK
 62
     0
100
AcDbPoint
 10
94.808215
 20
-45.324664
 30
0.0
  0
POINT
  5
1D8
100
AcDbEntity
  8
DEFPOINTS
  6
BYBLOCK
 62
     0
100
AcDbPoint
 10
93.631335
 20
-44.532344
 30
0.0
  0
ENDBLK
  5
1D9
100
AcDbEntity
  8
0
100
AcDbBlockEnd
  0
BLOCK
  5
1E1
100
AcDbEntity
  8
0
 62
     1
100
AcDbBlockBegin
  2
A$C454F4B6C
 70
     0
 10
0.0
 20
0.0
 30
0.0
  3
A$C454F4B6C
  1

  0
LINE
  5
1DB
100
AcDbEntity
  8
寸法
  6
CONTINUOUS
 62
     1
100
AcDbLine
 10
16.017877
 20
5.006003
 30
0.0
 11
8.288703
 21
5.006003
 31
0.0
  0
TEXT
  5
1DC
100
AcDbEntity
  8
寸法
  6
CONTINUOUS
100
AcDbText
 10
0.0
 20
12.863186
 30
0.0
 40
3.0
  1
-8°
100
AcDbText
  0
INSERT
  5
1DD
100
AcDbEntity
  8
寸法
  6
CONTINUOUS
 62
     1
100
AcDbBlockReference
  2
_OPEN30
 10
8.288703
 20
14.988109
 30
0.0
 41
2.0
 42
2.0
 43
2.0
 50
90.0
  0
LINE
  5
1DE
100
AcDbEntity
  8
寸法
  6
CONTINUOUS
 62
     1
100
AcDbLine
 10
8.288703
 20
12.988109
 30
0.0
 11
8.288703
 21
5.006003
 31
0.0
  0
INSERT
  5
1DF
100
AcDbEntity
  8
寸法
  6
CONTINUOUS
 62
     1
100
AcDbBlockReference
  2
_OPEN30
 10
18.017877
 20
5.006003
 30
0.0
 41
2.0
 42
2.0
 43
2.0
  0
TEXT
  5
1E0
100
AcDbEntity
  8
寸法
  6
CONTINUOUS
100
AcDbText
 10
15.924573
 20
0.0
 30
0.0
 40
3.0
  1
-6°
100
AcDbText
  0
ENDBLK
  5
1E2
100
AcDbEntity
  8
0
 62
     1
100
AcDbBlockEnd
  0
ENDSEC
  0
SECTION
  2
ENTITIES
  0
POINT
  5
24
100
AcDbEntity
  8
0
  6
CONTINUOUS
 62
     7
100
AcDbPoint
 10
0.0
 20
0.0
 30
0.0
  0
POINT
  5
25
100
AcDbEntity
  8
0
  6
CONTINUOUS
 62
     7
100
AcDbPoint
 10
76.631335
 20
-50.532342
 30
0.0
  0
POINT
  5
26
100
AcDbEntity
  8
0
  6
CONTINUOUS
 62
     7
100
AcDbPoint
 10
-34.950204
 20
0.0
 30
0.0
  0
POINT
  5
27
100
AcDbEntity
  8
0
  6
CONTINUOUS
 62
     7
100
AcDbPoint
 10
0.0
 20
-38.532342
 30
0.0
  0
LINE
  5
28
100
AcDbEntity
  8
0
  6
CONTINUOUS
 62
     7
100
AcDbLine
 10
1.2
 20
0.10718
 30
0.0
 11
14.2875
 21
7.663251
 31
0.0
  0
LINE
  5
29
100
AcDbEntity
  8
0
  6
CONTINUOUS
 62
     7
100
AcDbLine
 10
1.2
 20
15.219323
 30
0.0
 11
13.0875
 21
8.356071
 31
0.0
  0
LINE
  5
2A
100
AcDbEntity
  8
0
  6
CONTINUOUS
 62
     7
100
AcDbLine
 10
0.0
 20
20.0
 30
0.0
 11
47.0
 21
20.0
 31
0.0
  0
LINE
  5
2B
100
AcDbEntity
  8
0
  6
CONTINUOUS
 62
     7
100
AcDbLine
 10
47.0
 20
20.0
 30
0.0
 11
47.0
 21
4.0
 31
0.0
  0
LINE
  5
2C
100
AcDbEntity
  8
0
  6
CONTINUOUS
 62
     7
100
AcDbLine
 10
3.612436
 20
1.5
 30
0.0
 11
7.0
 21
1.5
 31
0.0
  0
LINE
  5
2D
100
AcDbEntity
  8
0
  6
CONTINUOUS
 62
     7
100
AcDbLine
 10
7.0
 20
1.5
 30
0.0
 11
16.011827
 21
2.288433
 31
0.0
  0
LINE
  5
2E
100
AcDbEntity
  8
0
  6
CONTINUOUS
 62
     7
100
AcDbLine
 10
17.0
 20
4.0
 30
0.0
 11
47.0
 21
4.0
 31
0.0
  0
LINE
  5
2F
100
AcDbEntity
  8
0
  6
CONTINUOUS
 62
     7
100
AcDbLine
 10
17.0
 20
4.0
 30
0.0
 11
16.011826
 21
2.288432
 31
0.0
  0
LINE
  5
30
100
AcDbEntity
  8
0
  6
CONTINUOUS
 62
     7
100
AcDbLine
 10
55.0
 20
14.0
 30
0.0
 11
55.0
 21
10.0
 31
0.0
  0
LINE
  5
31
100
AcDbEntity
  8
0
  6
CENTER
 62
     1
100
AcDbLine
 10
43.70892
 20
12.0
 30
0.0
 11
56.930676
 21
12.0
 31
0.0
  0
LINE
  5
32
100
AcDbEntity
  8
0
  6
CONTINUOUS
 62
     7
100
AcDbLine
 10
50.0
 20
16.0
 30
0.0
 11
50.0
 21
8.0
 31
0.0
  0
LINE
  5
33
100
AcDbEntity
  8
0
  6
CONTINUOUS
 62
     7
100
AcDbLine
 10
47.0
 20
9.5
 30
0.0
 11
50.0
 21
9.5
 31
0.0
  0
LINE
  5
34
100
AcDbEntity
  8
0
  6
CONTINUOUS
 62
     7
100
AcDbLine
 10
47.0
 20
14.5
 30
0.0
 11
50.0
 21
14.5
 31
0.0
  0
LINE
  5
35
100
AcDbEntity
  8
0
  6
CONTINUOUS
 62
     7
100
AcDbLine
 10
52.5
 20
16.5
 30
0.0
 11
55.0
 21
14.0
 31
0.0
  0
LINE
  5
36
100
AcDbEntity
  8
0
  6
CONTINUOUS
 62
     7
100
AcDbLine
 10
52.5
 20
7.499999
 30
0.0
 11
55.0
 21
9.999999
 31
0.0
  0
LINE
  5
37
100
AcDbEntity
  8
0
  6
CONTINUOUS
 62
     7
100
AcDbLine
 10
50.5
 20
7.5
 30
0.0
 11
52.5
 21
7.5
 31
0.0
  0
LINE
  5
38
100
AcDbEntity
  8
0
  6
CONTINUOUS
 62
     7
100
AcDbLine
 10
50.5
 20
16.5
 30
0.0
 11
52.5
 21
16.5
 31
0.0
  0
LINE
  5
39
100
AcDbEntity
  8
0
  6
CONTINUOUS
 62
     7
100
AcDbLine
 10
50.499996
 20
16.499996
 30
0.0
 11
50.0
 21
15.999999
 31
0.0
  0
LINE
  5
3A
100
AcDbEntity
  8
0
  6
CONTINUOUS
 62
     7
100
AcDbLine
 10
50.000004
 20
8.000002
 30
0.0
 11
50.500004
 21
7.500002
 31
0.0
  0
LINE
  5
3B
100
AcDbEntity
  8
0
  6
CONTINUOUS
 62
     7
100
AcDbLine
 10
50.5
 20
16.5
 30
0.0
 11
50.5
 21
7.5
 31
0.0
  0
LINE
  5
3C
100
AcDbEntity
  8
0
  6
CONTINUOUS
 62
     7
100
AcDbLine
 10
52.5
 20
16.5
 30
0.0
 11
52.5
 21
7.5
 31
0.0
  0
LINE
  5
3D
100
AcDbEntity
  8
0
  6
CONTINUOUS
 62
     7
100
AcDbLine
 10
47.0
 20
10.0
 30
0.0
 11
50.0
 21
10.0
 31
0.0
  0
LINE
  5
3E
100
AcDbEntity
  8
0
  6
CONTINUOUS
 62
     7
100
AcDbLine
 10
47.0
 20
14.0
 30
0.0
 11
50.0
 21
14.0
 31
0.0
  0
LINE
  5
3F
100
AcDbEntity
  8
0
  6
CONTINUOUS
 62
     7
100
AcDbLine
 10
0.630625
 20
-44.532342
 30
0.0
 11
7.0
 21
-44.532342
 31
0.0
  0
LINE
  5
40
100
AcDbEntity
  8
0
  6
CONTINUOUS
 62
     7
100
AcDbLine
 10
7.0
 20
-37.927138
 30
0.0
 11
7.0
 21
-44.532342
 31
0.0
  0
LINE
  5
41
100
AcDbEntity
  8
0
  6
CONTINUOUS
 62
     7
100
AcDbLine
 10
47.0
 20
-35.032342
 30
0.0
 11
47.0
 21
-50.532342
 31
0.0
  0
LINE
  5
42
100
AcDbEntity
  8
0
  6
CONTINUOUS
 62
     7
100
AcDbLine
 10
1.261251
 20
-50.532342
 30
0.0
 11
47.0
 21
-50.532342
 31
0.0
  0
LINE
  5
43
100
AcDbEntity
  8
0
  6
CONTINUOUS
 62
     7
100
AcDbLine
 10
7.527407
 20
-35.032342
 30
0.0
 11
47.0
 21
-35.032342
 31
0.0
  0
LINE
  5
44
100
AcDbEntity
  8
0
  6
CONTINUOUS
 62
     7
100
AcDbLine
 10
17.0
 20
-36.339479
 30
0.0
 11
17.0
 21
-50.532342
 31
0.0
  0
LINE
  5
45
100
AcDbEntity
  8
0
  6
CONTINUOUS
 62
     7
100
AcDbLine
 10
16.011827
 20
-37.327651
 30
0.0
 11
16.011827
 21
-47.532342
 31
0.0
  0
LINE
  5
46
100
AcDbEntity
  8
0
  6
CONTINUOUS
 62
     7
100
AcDbLine
 10
18.322803
 20
-36.032342
 30
0.0
 11
29.431322
 21
-36.032342
 31
0.0
  0
LINE
  5
47
100
AcDbEntity
  8
0
  6
CONTINUOUS
 62
     7
100
AcDbLine
 10
0.0
 20
20.0
 30
0.0
 11
0.0
 21
0.8
 31
0.0
  0
LINE
  5
48
100
AcDbEntity
  8
0
  6
CENTER
 62
     1
100
AcDbLine
 10
17.0
 20
-44.532342
 30
0.0
 11
9.0
 21
-44.532342
 31
0.0
  0
LINE
  5
49
100
AcDbEntity
  8
0
  6
CENTER
 62
     1
100
AcDbLine
 10
13.0
 20
-40.532342
 30
0.0
 11
13.0
 21
-48.532342
 31
0.0
  0
LINE
  5
4A
100
AcDbEntity
  8
0
  6
CONTINUOUS
 62
     7
100
AcDbLine
 10
0.0
 20
-38.532342
 30
0.0
 11
1.261251
 21
-50.532342
 31
0.0
  0
LINE
  5
4B
100
AcDbEntity
  8
0
  6
CENTER
 62
     1
100
AcDbLine
 10
34.0
 20
-34.032342
 30
0.0
 11
34.0
 21
-45.295751
 31
0.0
  0
LINE
  5
4C
100
AcDbEntity
  8
0
  6
CENTER
 62
     1
100
AcDbLine
 10
36.0
 20
-34.032342
 30
0.0
 11
36.0
 21
-45.295751
 31
0.0
  0
LINE
  5
4D
100
AcDbEntity
  8
0
  6
CONTINUOUS
 62
     7
100
AcDbLine
 10
34.0
 20
-44.295751
 30
0.0
 11
36.0
 21
-44.295751
 31
0.0
  0
LINE
  5
4E
100
AcDbEntity
  8
0
  6
CONTINUOUS
 62
     7
100
AcDbLine
 10
34.0
 20
-37.783542
 30
0.0
 11
36.0
 21
-37.783542
 31
0.0
  0
LINE
  5
4F
100
AcDbEntity
  8
0
  6
CONTINUOUS
 62
     7
100
AcDbLine
 10
33.898922
 20
-40.807721
 30
0.0
 11
36.0
 21
-40.807721
 31
0.0
  0
LINE
  5
50
100
AcDbEntity
  8
0
  6
CONTINUOUS
 62
     7
100
AcDbLine
 10
40.56868
 20
-36.032342
 30
0.0
 11
47.0
 21
-36.032342
 31
0.0
  0
LINE
  5
51
100
AcDbEntity
  8
0
  6
CENTER
 62
     1
100
AcDbLine
 10
4.7975
 20
9.941786
 30
0.0
 11
4.7975
 21
4.541786
 31
0.0
  0
LINE
  5
52
100
AcDbEntity
  8
0
  6
CENTER
 62
     1
100
AcDbLine
 10
2.0975
 20
7.241786
 30
0.0
 11
7.4975
 21
7.241786
 31
0.0
  0
LINE
  5
53
100
AcDbEntity
  8
0
  6
CONTINUOUS
 62
     7
100
AcDbLine
 10
55.0
 20
-41.032342
 30
0.0
 11
55.0
 21
-45.032342
 31
0.0
  0
LINE
  5
54
100
AcDbEntity
  8
0
  6
CENTER
 62
     1
100
AcDbLine
 10
44.383183
 20
-43.032342
 30
0.0
 11
56.930676
 21
-43.032342
 31
0.0
  0
LINE
  5
55
100
AcDbEntity
  8
0
  6
CONTINUOUS
 62
     7
100
AcDbLine
 10
50.0
 20
-39.032342
 30
0.0
 11
50.0
 21
-47.032342
 31
0.0
  0
LINE
  5
56
100
AcDbEntity
  8
0
  6
CONTINUOUS
 62
     7
100
AcDbLine
 10
47.0
 20
-45.532342
 30
0.0
 11
50.0
 21
-45.532342
 31
0.0
  0
LINE
  5
57
100
AcDbEntity
  8
0
  6
CONTINUOUS
 62
     7
100
AcDbLine
 10
47.0
 20
-40.532342
 30
0.0
 11
50.0
 21
-40.532342
 31
0.0
  0
LINE
  5
58
100
AcDbEntity
  8
0
  6
CONTINUOUS
 62
     7
100
AcDbLine
 10
52.5
 20
-38.532342
 30
0.0
 11
55.0
 21
-41.032342
 31
0.0
  0
LINE
  5
59
100
AcDbEntity
  8
0
  6
CONTINUOUS
 62
     7
100
AcDbLine
 10
52.5
 20
-47.532342
 30
0.0
 11
55.0
 21
-45.032344
 31
0.0
  0
LINE
  5
5A
100
AcDbEntity
  8
0
  6
CONTINUOUS
 62
     7
100
AcDbLine
 10
50.5
 20
-47.532342
 30
0.0
 11
52.5
 21
-47.532342
 31
0.0
  0
LINE
  5
5B
100
AcDbEntity
  8
0
  6
CONTINUOUS
 62
     7
100
AcDbLine
 10
50.5
 20
-38.532342
 30
0.0
 11
52.5
 21
-38.532342
 31
0.0
  0
LINE
  5
5C
100
AcDbEntity
  8
0
  6
CONTINUOUS
 62
     7
100
AcDbLine
 10
50.5
 20
-38.532346
 30
0.0
 11
50.0
 21
-39.032344
 31
0.0
  0
LINE
  5
5D
100
AcDbEntity
  8
0
  6
CONTINUOUS
 62
     7
100
AcDbLine
 10
50.000004
 20
-47.032338
 30
0.0
 11
50.500004
 21
-47.532338
 31
0.0
  0
LINE
  5
5E
100
AcDbEntity
  8
0
  6
CONTINUOUS
 62
     7
100
AcDbLine
 10
50.5
 20
-38.532342
 30
0.0
 11
50.5
 21
-47.532342
 31
0.0
  0
LINE
  5
5F
100
AcDbEntity
  8
0
  6
CONTINUOUS
 62
     7
100
AcDbLine
 10
52.5
 20
-38.532342
 30
0.0
 11
52.5
 21
-47.532342
 31
0.0
  0
LINE
  5
60
100
AcDbEntity
  8
0
  6
CONTINUOUS
 62
     7
100
AcDbLine
 10
47.0
 20
-45.032342
 30
0.0
 11
50.0
 21
-45.032342
 31
0.0
  0
LINE
  5
61
100
AcDbEntity
  8
0
  6
CONTINUOUS
 62
     7
100
AcDbLine
 10
47.0
 20
-41.032342
 30
0.0
 11
50.0
 21
-41.032342
 31
0.0
  0
LINE
  5
62
100
AcDbEntity
  8
0
  6
CONTINUOUS
 62
     7
100
AcDbLine
 10
30.126577
 20
9.2489
 30
0.0
 11
39.873421
 21
9.2489
 31
0.0
  0
LINE
  5
63
100
AcDbEntity
  8
0
  6
CONTINUOUS
 62
     7
100
AcDbLine
 10
9.065359
 20
19.0
 30
0.0
 11
47.0
 21
19.0
 31
0.0
  0
LINE
  5
64
100
AcDbEntity
  8
0
  6
CONTINUOUS
 62
     7
100
AcDbLine
 10
0.0
 20
19.727482
 30
0.0
 11
9.065359
 21
19.0
 31
0.0
  0
LINE
  5
65
100
AcDbEntity
  8
0
  6
CONTINUOUS
 62
     7
100
AcDbLine
 10
9.065358
 20
19.0
 30
0.0
 11
23.065359
 21
5.0
 31
0.0
  0
LINE
  5
66
100
AcDbEntity
  8
0
  6
CONTINUOUS
 62
     7
100
AcDbLine
 10
23.065359
 20
5.0
 30
0.0
 11
30.627182
 21
5.0
 31
0.0
  0
LINE
  5
67
100
AcDbEntity
  8
0
  6
CONTINUOUS
 62
     7
100
AcDbLine
 10
23.065359
 20
5.0
 30
0.0
 11
17.0
 21
4.0
 31
0.0
  0
LINE
  5
68
100
AcDbEntity
  8
0
  6
CONTINUOUS
 62
     7
100
AcDbLine
 10
-0.01
 20
-36.091655
 30
0.0
 11
7.527407
 21
-35.032342
 31
0.0
  0
LINE
  5
69
100
AcDbEntity
  8
0
  6
CONTINUOUS
 62
     7
100
AcDbLine
 10
39.374706
 20
5.0
 30
0.0
 11
47.0
 21
5.0
 31
0.0
  0
LINE
  5
6A
100
AcDbEntity
  8
0
  6
CONTINUOUS
 62
     7
100
AcDbLine
 10
9.2875
 20
10.550003
 30
0.0
 11
11.7875
 21
11.993379
 31
0.0
  0
LINE
  5
6B
100
AcDbEntity
  8
0
  6
CENTER
 62
     1
100
AcDbLine
 10
4.430852
 20
-34.449647
 30
0.0
 11
6.252567
 21
-51.782109
 31
0.0
  0
LINE
  5
6C
100
AcDbEntity
  8
0
  6
CONTINUOUS
 62
     7
100
AcDbLine
 10
0.0
 20
-38.532342
 30
0.0
 11
13.4875
 21
-37.114749
 31
0.0
  0
LINE
  5
6D
100
AcDbEntity
  8
0
  6
CONTINUOUS
 62
     7
100
AcDbLine
 10
0.497555
 20
-43.266267
 30
0.0
 11
4.114459
 21
-42.886115
 31
0.0
  0
LINE
  5
6E
100
AcDbEntity
  8
0
  6
CONTINUOUS
 62
     7
100
AcDbLine
 10
3.616904
 20
-38.15219
 30
0.0
 11
4.114459
 21
-42.886115
 31
0.0
  0
LINE
  5
6F
100
AcDbEntity
  8
0
  6
CONTINUOUS
 62
     7
100
AcDbLine
 10
34.0
 20
-36.139079
 30
0.0
 11
36.0
 21
-36.139079
 31
0.0
  0
LINE
  5
70
100
AcDbEntity
  8
0
  6
CONTINUOUS
 62
     7
100
AcDbLine
 10
77.631335
 20
-35.032342
 30
0.0
 11
91.631335
 21
-35.032342
 31
0.0
  0
LINE
  5
71
100
AcDbEntity
  8
0
  6
CONTINUOUS
 62
     7
100
AcDbLine
 10
76.631335
 20
-50.532342
 30
0.0
 11
78.631335
 21
-50.532342
 31
0.0
  0
LINE
  5
72
100
AcDbEntity
  8
0
  6
CONTINUOUS
 62
     7
100
AcDbLine
 10
76.631335
 20
-36.032342
 30
0.0
 11
76.631335
 21
-50.532342
 31
0.0
  0
LINE
  5
73
100
AcDbEntity
  8
0
  6
CONTINUOUS
 62
     7
100
AcDbLine
 10
92.631335
 20
-36.032342
 30
0.0
 11
92.631335
 21
-50.410165
 31
0.0
  0
LINE
  5
74
100
AcDbEntity
  8
0
  6
CONTINUOUS
 62
     7
100
AcDbLine
 10
91.631335
 20
-35.032346
 30
0.0
 11
92.631335
 21
-36.032342
 31
0.0
  0
LINE
  5
75
100
AcDbEntity
  8
0
  6
CONTINUOUS
 62
     7
100
AcDbLine
 10
77.631335
 20
-35.032342
 30
0.0
 11
76.631335
 21
-36.032342
 31
0.0
  0
LINE
  5
76
100
AcDbEntity
  8
0
  6
CONTINUOUS
 62
     7
100
AcDbLine
 10
78.631335
 20
-50.532342
 30
0.0
 11
92.631335
 21
-50.410169
 31
0.0
  0
LINE
  5
77
100
AcDbEntity
  8
0
  6
CENTER
 62
     1
100
AcDbLine
 10
74.462313
 20
-37.91936
 30
0.0
 11
94.808215
 21
-45.324664
 31
0.0
  0
LINE
  5
78
100
AcDbEntity
  8
0
  6
CONTINUOUS
 62
     7
100
AcDbLine
 10
81.928332
 20
-44.36139
 30
0.0
 11
92.631335
 21
-48.256967
 31
0.0
  0
LINE
  5
79
100
AcDbEntity
  8
0
  6
CONTINUOUS
 62
     7
100
AcDbLine
 10
84.322474
 20
-37.783542
 30
0.0
 11
92.631335
 21
-40.807721
 31
0.0
  0
LINE
  5
7A
100
AcDbEntity
  8
0
  6
CONTINUOUS
 62
     7
100
AcDbLine
 10
76.631335
 20
-44.295751
 30
0.0
 11
81.329798
 21
-46.005853
 31
0.0
  0
LINE
  5
7B
100
AcDbEntity
  8
0
  6
CONTINUOUS
 62
     7
100
AcDbLine
 10
81.880267
 20
-35.032342
 30
0.0
 11
84.921008
 21
-36.139079
 31
0.0
  0
LINE
  5
7C
100
AcDbEntity
  8
0
  6
CONTINUOUS
 62
     7
100
AcDbLine
 10
84.921008
 20
-36.139079
 30
0.0
 11
81.329798
 21
-46.005853
 31
0.0
  0
LINE
  5
7D
100
AcDbEntity
  8
0
  6
CONTINUOUS
 62
     7
100
AcDbLine
 10
16.011827
 20
-37.327651
 30
0.0
 11
17.0
 21
-36.339479
 31
0.0
  0
LINE
  5
7E
100
AcDbEntity
  8
0
  6
CONTINUOUS
 62
     7
100
AcDbLine
 10
17.0
 20
-36.339479
 30
0.0
 11
22.629688
 21
-35.032342
 31
0.0
  0
LINE
  5
7F
100
AcDbEntity
  8
0
  6
CONTINUOUS
 62
     7
100
AcDbLine
 10
-0.01
 20
-36.091655
 30
0.0
 11
-0.01
 21
-38.575435
 31
0.0
  0
LINE
  5
80
100
AcDbEntity
  8
0
  6
CONTINUOUS
 62
     7
100
AcDbLine
 10
0.000185
 20
-38.672341
 30
0.0
 11
0.014714
 21
-38.672341
 31
0.0
  0
LINE
  5
81
100
AcDbEntity
  8
0
  6
CONTINUOUS
 62
     7
100
AcDbLine
 10
-0.01
 20
-38.575435
 30
0.0
 11
0.000185
 21
-38.672341
 31
0.0
  0
LINE
  5
82
100
AcDbEntity
  8
0
  6
CONTINUOUS
 62
     7
100
AcDbLine
 10
-46.950204
 20
19.0
 30
0.0
 11
-46.950204
 21
3.683821
 31
0.0
  0
LINE
  5
83
100
AcDbEntity
  8
0
  6
CONTINUOUS
 62
     7
100
AcDbLine
 10
-31.450204
 20
19.0
 30
0.0
 11
-31.450204
 21
4.0
 31
0.0
  0
LINE
  5
84
100
AcDbEntity
  8
0
  6
CONTINUOUS
 62
     7
100
AcDbLine
 10
-45.950204
 20
20.0
 30
0.0
 11
-32.450204
 21
20.0
 31
0.0
  0
LINE
  5
85
100
AcDbEntity
  8
0
  6
CONTINUOUS
 62
     7
100
AcDbLine
 10
-45.950204
 20
20.0
 30
0.0
 11
-46.950204
 21
19.0
 31
0.0
  0
LINE
  5
86
100
AcDbEntity
  8
0
  6
CONTINUOUS
 62
     7
100
AcDbLine
 10
-32.450204
 20
20.0
 30
0.0
 11
-31.450204
 21
19.0
 31
0.0
  0
LINE
  5
87
100
AcDbEntity
  8
0
  6
CONTINUOUS
 62
     7
100
AcDbLine
 10
-40.950204
 20
1.5
 30
0.0
 11
-39.546172
 21
1.5
 31
0.0
  0
LINE
  5
88
100
AcDbEntity
  8
0
  6
CONTINUOUS
 62
     7
100
AcDbLine
 10
-46.950204
 20
3.683821
 30
0.0
 11
-40.950204
 21
1.5
 31
0.0
  0
LINE
  5
89
100
AcDbEntity
  8
0
  6
CONTINUOUS
 62
     7
100
AcDbLine
 10
-32.177686
 20
19.727482
 30
0.0
 11
-34.950204
 21
0.0
 31
0.0
  0
LINE
  5
8A
100
AcDbEntity
  8
0
  6
CONTINUOUS
 62
     7
100
AcDbLine
 10
-37.509879
 20
15.988966
 30
0.0
 11
-39.66388
 21
0.662464
 31
0.0
  0
LINE
  5
8B
100
AcDbEntity
  8
0
  6
CONTINUOUS
 62
     7
100
AcDbLine
 10
-39.66388
 20
0.662464
 30
0.0
 11
-34.950204
 21
0.0
 31
0.0
  0
LINE
  5
8C
100
AcDbEntity
  8
0
  6
CONTINUOUS
 62
     7
100
AcDbLine
 10
-37.509879
 20
15.988966
 30
0.0
 11
-32.796205
 21
15.326503
 31
0.0
  0
LINE
  5
8D
100
AcDbEntity
  8
0
  6
CONTINUOUS
 62
     7
100
AcDbLine
 10
-31.450204
 20
4.0
 30
0.0
 11
-33.067485
 21
3.377422
 31
0.0
  0
LINE
  5
8E
100
AcDbEntity
  8
0
  6
CONTINUOUS
 62
     7
100
AcDbLine
 10
-33.067485
 20
3.377421
 30
0.0
 11
-33.050204
 21
2.288433
 31
0.0
  0
LINE
  5
8F
100
AcDbEntity
  8
0
  6
CONTINUOUS
 62
     7
100
AcDbLine
 10
-33.050204
 20
2.288433
 30
0.0
 11
-34.451945
 21
1.490119
 31
0.0
  0
LINE
  5
90
100
AcDbEntity
  8
0
  6
CONTINUOUS
 62
     7
100
AcDbLine
 10
-32.387803
 20
7.663251
 30
0.0
 11
-32.796205
 21
15.326502
 31
0.0
  0
LINE
  5
91
100
AcDbEntity
  8
0
  6
CONTINUOUS
 62
     7
100
AcDbLine
 10
-32.796205
 20
15.326502
 30
0.0
 11
-32.387803
 21
7.663251
 31
0.0
  0
LINE
  5
92
100
AcDbEntity
  8
0
  6
CONTINUOUS
 62
     7
100
AcDbLine
 10
-32.387801
 20
7.663251
 30
0.0
 11
-34.950202
 21
0.0
 31
0.0
  0
LINE
  5
93
100
AcDbEntity
  8
0
  6
CONTINUOUS
 62
     7
100
AcDbLine
 10
16.011827
 20
-47.532342
 30
0.0
 11
17.0
 21
-50.532338
 31
0.0
  0
LINE
  5
94
100
AcDbEntity
  8
0
  6
CONTINUOUS
 62
     7
100
AcDbLine
 10
16.011829
 20
-47.532342
 30
0.0
 11
14.607983
 21
-47.065007
 31
0.0
  0
LINE
  5
95
100
AcDbEntity
  8
0
  6
CONTINUOUS
 62
     7
100
AcDbLine
 10
10.194853
 20
-45.595895
 30
0.0
 11
7.000001
 21
-44.532342
 31
0.0
  0
LINE
  5
96
100
AcDbEntity
  8
0
  6
CENTER
 62
     1
100
AcDbLine
 10
36.0
 20
10.2489
 30
0.0
 11
36.0
 21
3.0
 31
0.0
  0
LINE
  5
97
100
AcDbEntity
  8
0
  6
CENTER
 62
     1
100
AcDbLine
 10
34.0
 20
10.2489
 30
0.0
 11
34.0
 21
3.0
 31
0.0
  0
LINE
  5
98
100
AcDbEntity
  8
0
  6
CONTINUOUS
 62
     7
100
AcDbLine
 10
16.011827
 20
-37.327651
 30
0.0
 11
3.616904
 21
-38.15219
 31
0.0
  0
LINE
  5
99
100
AcDbEntity
  8
0
  6
CONTINUOUS
 62
     7
100
AcDbLine
 10
-0.01
 20
-36.844731
 30
0.0
 11
13.4875
 21
-37.114751
 31
0.0
  0
LINE
  5
9A
100
AcDbEntity
  8
0
  6
CONTINUOUS
 62
     7
100
AcDbLine
 10
0.0
 20
0.8
 30
0.0
 11
0.0
 21
0.0
 31
0.0
  0
LINE
  5
9B
100
AcDbEntity
  8
0
  6
CONTINUOUS
 62
     7
100
AcDbLine
 10
0.0
 20
0.0
 30
0.0
 11
0.8
 21
0.0
 31
0.0
  0
ARC
  5
9C
100
AcDbEntity
  8
0
  6
CONTINUOUS
 62
     7
100
AcDbCircle
 10
12.6875
 20
7.663251
 30
0.0
 40
0.8
100
AcDbArc
 50
300.0
 51
60.000002
  0
ARC
  5
9D
100
AcDbEntity
  8
0
  6
CONTINUOUS
 62
     7
100
AcDbCircle
 10
0.8
 20
0.8
 30
0.0
 40
0.8
100
AcDbArc
 50
179.99999
 51
299.99999
  0
ARC
  5
9E
100
AcDbEntity
  8
0
  6
CONTINUOUS
 62
     7
100
AcDbCircle
 10
0.8
 20
14.526503
 30
0.0
 40
0.8
100
AcDbArc
 50
60.000002
 51
180.00001
  0
CIRCLE
  5
9F
100
AcDbEntity
  8
0
  6
CONTINUOUS
 62
     7
100
AcDbCircle
 10
13.0
 20
-44.532342
 30
0.0
 40
3.0
  0
CIRCLE
  5
A0
100
AcDbEntity
  8
0
  6
CONTINUOUS
 62
     7
100
AcDbCircle
 10
13.0
 20
-44.532342
 30
0.0
 40
2.5
  0
ARC
  5
A1
100
AcDbEntity
  8
0
  6
CONTINUOUS
 62
     7
100
AcDbCircle
 10
34.347744
 20
-38.708819
 30
0.0
 40
5.597743
100
AcDbArc
 50
138.94535
 51
266.43838
  0
ARC
  5
A2
100
AcDbEntity
  8
0
  6
CONTINUOUS
 62
     7
100
AcDbCircle
 10
33.764603
 20
-41.039647
 30
0.0
 40
3.264602
100
AcDbArc
 50
85.865033
 51
237.77246
  0
ARC
  5
A3
100
AcDbEntity
  8
0
  6
CONTINUOUS
 62
     7
100
AcDbCircle
 10
33.898922
 20
-44.307721
 30
0.0
 40
3.5
100
AcDbArc
 50
90.000003
 51
149.88679
  0
ARC
  5
A4
100
AcDbEntity
  8
0
  6
CONTINUOUS
 62
     7
100
AcDbCircle
 10
36.235397
 20
-41.039647
 30
0.0
 40
3.264602
100
AcDbArc
 50
302.22753
 51
94.134965
  0
ARC
  5
A5
100
AcDbEntity
  8
0
  6
CONTINUOUS
 62
     7
100
AcDbCircle
 10
36.101078
 20
-44.307721
 30
0.0
 40
3.5
100
AcDbArc
 50
30.113208
 51
90.000003
  0
ARC
  5
A6
100
AcDbEntity
  8
0
  6
CONTINUOUS
 62
     7
100
AcDbCircle
 10
35.652256
 20
-38.708819
 30
0.0
 40
5.597743
100
AcDbArc
 50
273.56162
 51
41.054645
  0
ARC
  5
A7
100
AcDbEntity
  8
0
  6
CONTINUOUS
 62
     7
100
AcDbCircle
 10
30.549252
 20
7.5
 30
0.0
 40
1.799251
100
AcDbArc
 50
103.5867
 51
161.14553
  0
ARC
  5
A8
100
AcDbEntity
  8
0
  6
CONTINUOUS
 62
     7
100
AcDbCircle
 10
39.450748
 20
7.5
 30
0.0
 40
1.799251
100
AcDbArc
 50
19.823864
 51
76.413295
  0
ARC
  5
A9
100
AcDbEntity
  8
0
  6
CONTINUOUS
 62
     7
100
AcDbCircle
 10
13.037499
 20
9.828315
 30
0.0
 40
2.5
100
AcDbArc
 50
300.0
 51
120.0
  0
CIRCLE
  5
AA
100
AcDbEntity
  8
0
  6
CONTINUOUS
 62
     7
100
AcDbCircle
 10
4.7975
 20
7.241786
 30
0.0
 40
1.975
  0
POLYLINE
  5
AB
100
AcDbEntity
  8
0
  6
CONTINUOUS
 62
     7
100
AcDb2dPolyline
 66
     1
 10
0.0
 20
0.0
 30
0.0
  0
VERTEX
  5
AC
100
AcDbEntity
  8
0
  6
CONTINUOUS
 62
     7
100
AcDbVertex
100
AcDb2dVertex
 10
28.837295
 20
8.082929
 30
0.0
 42
0.133173
  0
VERTEX
  5
AD
100
AcDbEntity
  8
0
  6
CONTINUOUS
 62
     7
100
AcDbVertex
100
AcDb2dVertex
 10
28.803263
 20
7.044039
 30
0.0
 42
0.107544
  0
VERTEX
  5
AE
100
AcDbEntity
  8
0
  6
CONTINUOUS
 62
     7
100
AcDbVertex
100
AcDb2dVertex
 10
29.265145
 20
6.108545
 30
0.0
 42
0.068916
  0
VERTEX
  5
AF
100
AcDbEntity
  8
0
  6
CONTINUOUS
 62
     7
100
AcDbVertex
100
AcDb2dVertex
 10
30.021952
 20
5.383709
 30
0.0
 42
0.046486
  0
VERTEX
  5
B0
100
AcDbEntity
  8
0
  6
CONTINUOUS
 62
     7
100
AcDbVertex
100
AcDb2dVertex
 10
30.924324
 20
4.846559
 30
0.0
 42
0.034784
  0
VERTEX
  5
B1
100
AcDbEntity
  8
0
  6
CONTINUOUS
 62
     7
100
AcDbVertex
100
AcDb2dVertex
 10
31.901709
 20
4.460325
 30
0.0
 42
0.028529
  0
VERTEX
  5
B2
100
AcDbEntity
  8
0
  6
CONTINUOUS
 62
     7
100
AcDbVertex
100
AcDb2dVertex
 10
32.92057
 20
4.199396
 30
0.0
 42
0.025217
  0
VERTEX
  5
B3
100
AcDbEntity
  8
0
  6
CONTINUOUS
 62
     7
100
AcDbVertex
100
AcDb2dVertex
 10
33.961725
 20
4.048633
 30
0.0
 42
0.023773
  0
VERTEX
  5
B4
100
AcDbEntity
  8
0
  6
CONTINUOUS
 62
     7
100
AcDbVertex
100
AcDb2dVertex
 10
35.012631
 20
4.000007
 30
0.0
 42
0.023765
  0
VERTEX
  5
B5
100
AcDbEntity
  8
0
  6
CONTINUOUS
 62
     7
100
AcDbVertex
100
AcDb2dVertex
 10
36.062353
 20
4.050932
 30
0.0
 42
0.025249
  0
VERTEX
  5
B6
100
AcDbEntity
  8
0
  6
CONTINUOUS
 62
     7
100
AcDbVertex
100
AcDb2dVertex
 10
37.102338
 20
4.20395
 30
0.0
 42
0.02865
  0
VERTEX
  5
B7
100
AcDbEntity
  8
0
  6
CONTINUOUS
 62
     7
100
AcDbVertex
100
AcDb2dVertex
 10
38.121147
 20
4.467667
 30
0.0
 42
0.035001
  0
VERTEX
  5
B8
100
AcDbEntity
  8
0
  6
CONTINUOUS
 62
     7
100
AcDbVertex
100
AcDb2dVertex
 10
39.097882
 20
4.857306
 30
0.0
 42
0.046909
  0
VERTEX
  5
B9
100
AcDbEntity
  8
0
  6
CONTINUOUS
 62
     7
100
AcDbVertex
100
AcDb2dVertex
 10
39.998614
 20
5.398966
 30
0.0
 42
0.069778
  0
VERTEX
  5
BA
100
AcDbEntity
  8
0
  6
CONTINUOUS
 62
     7
100
AcDbVertex
100
AcDb2dVertex
 10
40.75132
 20
6.130023
 30
0.0
 42
0.108897
  0
VERTEX
  5
BB
100
AcDbEntity
  8
0
  6
CONTINUOUS
 62
     7
100
AcDbVertex
100
AcDb2dVertex
 10
41.203179
 20
7.07239
 30
0.0
 42
0.132935
  0
VERTEX
  5
BC
100
AcDbEntity
  8
0
  6
CONTINUOUS
 62
     7
100
AcDbVertex
100
AcDb2dVertex
 10
41.15432
 20
8.110077
 30
0.0
  0
SEQEND
  5
BD
100
AcDbEntity
  8
0
 62
     7
  0
POLYLINE
  5
BE
100
AcDbEntity
  8
0
  6
CONTINUOUS
 62
     7
100
AcDb2dPolyline
 66
     1
 10
0.0
 20
0.0
 30
0.0
  0
VERTEX
  5
BF
100
AcDbEntity
  8
0
  6
CONTINUOUS
 62
     7
100
AcDbVertex
100
AcDb2dVertex
 10
34.0
 20
-36.139079
 30
0.0
 42
0.019171
  0
VERTEX
  5
C0
100
AcDbEntity
  8
0
  6
CONTINUOUS
 62
     7
100
AcDbVertex
100
AcDb2dVertex
 10
33.572197
 20
-36.155485
 30
0.0
 42
0.019257
  0
VERTEX
  5
C1
100
AcDbEntity
  8
0
  6
CONTINUOUS
 62
     7
100
AcDbVertex
100
AcDb2dVertex
 10
33.146002
 20
-36.204786
 30
0.0
 42
0.019363
  0
VERTEX
  5
C2
100
AcDbEntity
  8
0
  6
CONTINUOUS
 62
     7
100
AcDbVertex
100
AcDb2dVertex
 10
32.724519
 20
-36.286888
 30
0.0
 42
0.019496
  0
VERTEX
  5
C3
100
AcDbEntity
  8
0
  6
CONTINUOUS
 62
     7
100
AcDbVertex
100
AcDb2dVertex
 10
32.310667
 20
-36.40146
 30
0.0
 42
0.019669
  0
VERTEX
  5
C4
100
AcDbEntity
  8
0
  6
CONTINUOUS
 62
     7
100
AcDbVertex
100
AcDb2dVertex
 10
31.907068
 20
-36.548049
 30
0.0
 42
0.019882
  0
VERTEX
  5
C5
100
AcDbEntity
  8
0
  6
CONTINUOUS
 62
     7
100
AcDbVertex
100
AcDb2dVertex
 10
31.516317
 20
-36.726063
 30
0.0
 42
0.020132
  0
VERTEX
  5
C6
100
AcDbEntity
  8
0
  6
CONTINUOUS
 62
     7
100
AcDbVertex
100
AcDb2dVertex
 10
31.141037
 20
-36.934741
 30
0.0
 42
0.020413
  0
VERTEX
  5
C7
100
AcDbEntity
  8
0
  6
CONTINUOUS
 62
     7
100
AcDbVertex
100
AcDb2dVertex
 10
30.783874
 20
-37.173134
 30
0.0
 42
0.020719
  0
VERTEX
  5
C8
100
AcDbEntity
  8
0
  6
CONTINUOUS
 62
     7
100
AcDbVertex
100
AcDb2dVertex
 10
30.447485
 20
-37.440079
 30
0.0
 42
0.021045
  0
VERTEX
  5
C9
100
AcDbEntity
  8
0
  6
CONTINUOUS
 62
     7
100
AcDbVertex
100
AcDb2dVertex
 10
30.134517
 20
-37.734171
 30
0.0
 42
0.021381
  0
VERTEX
  5
CA
100
AcDbEntity
  8
0
  6
CONTINUOUS
 62
     7
100
AcDbVertex
100
AcDb2dVertex
 10
29.847577
 20
-38.053743
 30
0.0
 42
0.021717
  0
VERTEX
  5
CB
100
AcDbEntity
  8
0
  6
CONTINUOUS
 62
     7
100
AcDbVertex
100
AcDb2dVertex
 10
29.589197
 20
-38.396846
 30
0.0
 42
0.022043
  0
VERTEX
  5
CC
100
AcDbEntity
  8
0
  6
CONTINUOUS
 62
     7
100
AcDbVertex
100
AcDb2dVertex
 10
29.361785
 20
-38.761231
 30
0.0
 42
0.022348
  0
VERTEX
  5
CD
100
AcDbEntity
  8
0
  6
CONTINUOUS
 62
     7
100
AcDbVertex
100
AcDb2dVertex
 10
29.16757
 20
-39.14435
 30
0.0
 42
0.022619
  0
VERTEX
  5
CE
100
AcDbEntity
  8
0
  6
CONTINUOUS
 62
     7
100
AcDbVertex
100
AcDb2dVertex
 10
29.008549
 20
-39.54336
 30
0.0
 42
0.022846
  0
VERTEX
  5
CF
100
AcDbEntity
  8
0
  6
CONTINUOUS
 62
     7
100
AcDbVertex
100
AcDb2dVertex
 10
28.886419
 20
-39.955146
 30
0.0
  0
SEQEND
  5
D0
100
AcDbEntity
  8
0
 62
     7
  0
POLYLINE
  5
D1
100
AcDbEntity
  8
0
  6
CONTINUOUS
 62
     7
100
AcDb2dPolyline
 66
     1
 10
0.0
 20
0.0
 30
0.0
  0
VERTEX
  5
D2
100
AcDbEntity
  8
0
  6
CONTINUOUS
 62
     7
100
AcDbVertex
100
AcDb2dVertex
 10
41.111623
 20
-39.947263
 30
0.0
 42
0.022736
  0
VERTEX
  5
D3
100
AcDbEntity
  8
0
  6
CONTINUOUS
 62
     7
100
AcDbVertex
100
AcDb2dVertex
 10
40.989438
 20
-39.53757
 30
0.0
 42
0.022549
  0
VERTEX
  5
D4
100
AcDbEntity
  8
0
  6
CONTINUOUS
 62
     7
100
AcDbVertex
100
AcDb2dVertex
 10
40.830424
 20
-39.139917
 30
0.0
 42
0.0223
  0
VERTEX
  5
D5
100
AcDbEntity
  8
0
  6
CONTINUOUS
 62
     7
100
AcDbVertex
100
AcDb2dVertex
 10
40.636249
 20
-38.757751
 30
0.0
 42
0.022017
  0
VERTEX
  5
D6
100
AcDbEntity
  8
0
  6
CONTINUOUS
 62
     7
100
AcDbVertex
100
AcDb2dVertex
 10
40.408798
 20
-38.393931
 30
0.0
 42
0.021678
  0
VERTEX
  5
D7
100
AcDbEntity
  8
0
  6
CONTINUOUS
 62
     7
100
AcDbVertex
100
AcDb2dVertex
 10
40.150635
 20
-38.051573
 30
0.0
 42
0.021344
  0
VERTEX
  5
D8
100
AcDbEntity
  8
0
  6
CONTINUOUS
 62
     7
100
AcDbVertex
100
AcDb2dVertex
 10
39.864012
 20
-37.732666
 30
0.0
 42
0.021011
  0
VERTEX
  5
D9
100
AcDbEntity
  8
0
  6
CONTINUOUS
 62
     7
100
AcDbVertex
100
AcDb2dVertex
 10
39.551432
 20
-37.439144
 30
0.0
 42
0.020688
  0
VERTEX
  5
DA
100
AcDbEntity
  8
0
  6
CONTINUOUS
 62
     7
100
AcDbVertex
100
AcDb2dVertex
 10
39.21548
 20
-37.172664
 30
0.0
 42
0.020384
  0
VERTEX
  5
DB
100
AcDbEntity
  8
0
  6
CONTINUOUS
 62
     7
100
AcDbVertex
100
AcDb2dVertex
 10
38.858782
 20
-36.93463
 30
0.0
 42
0.020106
  0
VERTEX
  5
DC
100
AcDbEntity
  8
0
  6
CONTINUOUS
 62
     7
100
AcDbVertex
100
AcDb2dVertex
 10
38.48398
 20
-36.726213
 30
0.0
 42
0.019859
  0
VERTEX
  5
DD
100
AcDbEntity
  8
0
  6
CONTINUOUS
 62
     7
100
AcDbVertex
100
AcDb2dVertex
 10
38.093716
 20
-36.54837
 30
0.0
 42
0.019647
  0
VERTEX
  5
DE
100
AcDbEntity
  8
0
  6
CONTINUOUS
 62
     7
100
AcDbVertex
100
AcDb2dVertex
 10
37.690619
 20
-36.401871
 30
0.0
 42
0.019473
  0
VERTEX
  5
DF
100
AcDbEntity
  8
0
  6
CONTINUOUS
 62
     7
100
AcDbVertex
100
AcDb2dVertex
 10
37.277297
 20
-36.287315
 30
0.0
 42
0.01934
  0
VERTEX
  5
E0
100
AcDbEntity
  8
0
  6
CONTINUOUS
 62
     7
100
AcDbVertex
100
AcDb2dVertex
 10
36.85634
 20
-36.20515
 30
0.0
 42
0.01925
  0
VERTEX
  5
E1
100
AcDbEntity
  8
0
  6
CONTINUOUS
 62
     7
100
AcDbVertex
100
AcDb2dVertex
 10
36.430321
 20
-36.155679
 30
0.0
 42
0.019284
  0
VERTEX
  5
E2
100
AcDbEntity
  8
0
  6
CONTINUOUS
 62
     7
100
AcDbVertex
100
AcDb2dVertex
 10
36.0
 20
-36.139079
 30
0.0
  0
SEQEND
  5
E3
100
AcDbEntity
  8
0
 62
     7
  0
LINE
  5
E4
100
AcDbEntity
  8
0
  6
CONTINUOUS
 62
     7
100
AcDbLine
 10
90.979739
 20
-50.424578
 30
0.0
 11
92.631335
 21
-48.772979
 31
0.0
  0
LINE
  5
E5
100
AcDbEntity
  8
0
  6
CONTINUOUS
 62
     7
100
AcDbLine
 10
88.714912
 20
-50.444343
 30
0.0
 11
91.363675
 21
-47.795576
 31
0.0
  0
LINE
  5
E6
100
AcDbEntity
  8
0
  6
CONTINUOUS
 62
     7
100
AcDbLine
 10
86.450086
 20
-50.464108
 30
0.0
 11
89.717698
 21
-47.196489
 31
0.0
  0
LINE
  5
E7
100
AcDbEntity
  8
0
  6
CONTINUOUS
 62
     7
100
AcDbLine
 10
84.185259
 20
-50.483873
 30
0.0
 11
88.071722
 21
-46.597402
 31
0.0
  0
LINE
  5
E8
100
AcDbEntity
  8
0
  6
CONTINUOUS
 62
     7
100
AcDbLine
 10
81.920432
 20
-50.503638
 30
0.0
 11
86.425746
 21
-45.998316
 31
0.0
  0
LINE
  5
E9
100
AcDbEntity
  8
0
  6
CONTINUOUS
 62
     7
100
AcDbLine
 10
79.655606
 20
-50.523403
 30
0.0
 11
84.77977
 21
-45.399229
 31
0.0
  0
LINE
  5
EA
100
AcDbEntity
  8
0
  6
CONTINUOUS
 62
     7
100
AcDbLine
 10
77.401605
 20
-50.532342
 30
0.0
 11
83.133793
 21
-44.800142
 31
0.0
  0
LINE
  5
EB
100
AcDbEntity
  8
0
  6
CONTINUOUS
 62
     7
100
AcDbLine
 10
76.631335
 20
-49.057547
 30
0.0
 11
80.122459
 21
-45.566417
 31
0.0
  0
LINE
  5
EC
100
AcDbEntity
  8
0
  6
CONTINUOUS
 62
     7
100
AcDbLine
 10
76.631335
 20
-46.812481
 30
0.0
 11
78.476483
 21
-44.96733
 31
0.0
  0
LINE
  5
ED
100
AcDbEntity
  8
0
  6
CONTINUOUS
 62
     7
100
AcDbLine
 10
76.631335
 20
-44.567415
 30
0.0
 11
76.830506
 21
-44.368243
 31
0.0
  0
LINE
  5
EE
100
AcDbEntity
  8
0
  6
CONTINUOUS
 62
     7
100
AcDbLine
 10
91.88718
 20
-40.536871
 30
0.0
 11
92.631335
 21
-39.792714
 31
0.0
  0
LINE
  5
EF
100
AcDbEntity
  8
0
  6
CONTINUOUS
 62
     7
100
AcDbLine
 10
90.241204
 20
-39.937784
 30
0.0
 11
92.631335
 21
-37.547648
 31
0.0
  0
LINE
  5
F0
100
AcDbEntity
  8
0
  6
CONTINUOUS
 62
     7
100
AcDbLine
 10
88.595227
 20
-39.338697
 30
0.0
 11
92.266455
 21
-35.667462
 31
0.0
  0
LINE
  5
F1
100
AcDbEntity
  8
0
  6
CONTINUOUS
 62
     7
100
AcDbLine
 10
86.949251
 20
-38.739611
 30
0.0
 11
90.656512
 21
-35.032342
 31
0.0
  0
LINE
  5
F2
100
AcDbEntity
  8
0
  6
CONTINUOUS
 62
     7
100
AcDbLine
 10
85.303275
 20
-38.140524
 30
0.0
 11
88.411451
 21
-35.032342
 31
0.0
  0
LINE
  5
F3
100
AcDbEntity
  8
0
  6
CONTINUOUS
 62
     7
100
AcDbLine
 10
84.841667
 20
-36.357066
 30
0.0
 11
86.166389
 21
-35.032342
 31
0.0
  0
LINE
  5
F4
100
AcDbEntity
  8
0
  6
CONTINUOUS
 62
     7
100
AcDbLine
 10
83.37668
 20
-35.576991
 30
0.0
 11
83.921327
 21
-35.032342
 31
0.0
  0
TEXT
  5
F7
100
AcDbEntity
  8
0
  6
CONTINUOUS
100
AcDbText
 10
14.485658
 20
-63.009456
 30
0.0
 40
6.0
  1
PTFNR12CA
100
AcDbText
  0
INSERT
  5
10C
100
AcDbEntity
  8
0
  6
CONTINUOUS
100
AcDbBlockReference
  2
テンプレ-ト
 10
-22.542376
 20
-41.599584
 30
0.0
  0
LINE
  5
10E
100
AcDbEntity
  8
0
  6
CENTER
 62
     1
100
AcDbLine
 10
-34.950202
 20
0.0
 30
0.0
 11
-34.950202
 21
27.850968
 31
0.0
  0
LINE
  5
10F
100
AcDbEntity
  8
0
  6
CENTER
 62
     1
100
AcDbLine
 10
-31.599372
 20
25.0
 30
0.0
 11
-39.603653
 21
25.0
 31
0.0
  0
ARC
  5
110
100
AcDbEntity
  8
0
  6
CENTER
 62
     1
100
AcDbCircle
 10
-34.950204
 20
25.0
 30
0.0
 40
25.0
100
AcDbArc
 50
180.0
 51
270.0
  0
DIMENSION
  5
121
100
AcDbEntity
  8
寸法
 62
     1
100
AcDbDimension
  2
*D2
 10
-10.664722
 20
30.934254
 30
0.0
 11
-43.969322
 21
22.796143
 31
0.0
 12
-14.950204
 22
0.0
 32
0.0
 70
   163
  3
寸法
100
AcDbDiametricDimension
 15
-59.235686
 25
19.065746
 35
0.0
 40
0.0
1001
ACAD
1000
DSTYLE
1002
{
1070
   288
1070
     1
1002
}
  0
DIMENSION
  5
12E
100
AcDbEntity
  8
寸法
 62
     1
100
AcDbDimension
  2
*D3
 10
-15.57538
 20
0.0
 30
0.0
 11
-18.07538
 21
10.0
 31
0.0
 70
    32
  3
寸法
100
AcDbAlignedDimension
 13
0.0
 23
20.0
 33
0.0
 14
0.0
 24
0.0
 34
0.0
 50
90.0
100
AcDbRotatedDimension
  0
LINE
  5
12F
100
AcDbEntity
  8
寸法
 62
     1
100
AcDbLine
 10
0.0
 20
0.0
 30
0.0
 11
-1.0
 21
0.0
 31
0.0
  0
DIMENSION
  5
13F
100
AcDbEntity
  8
寸法
 62
     1
100
AcDbDimension
  2
*D4
 10
-1.0
 20
0.0
 30
0.0
 11
-8.221952
 21
8.221952
 31
0.0
 70
    34
  3
寸法
100
AcDb2LineAngularDimension
 13
0.0
 23
20.0
 33
0.0
 14
0.0
 24
0.8
 34
0.0
 15
0.0
 25
0.0
 35
0.0
 16
-4.563798
 26
7.904729
 36
0.0
  0
DIMENSION
  5
14C
100
AcDbEntity
  8
寸法
 62
     1
100
AcDbDimension
  2
*D5
 10
64.890033
 20
4.0
 30
0.0
 11
62.390033
 21
12.0
 31
0.0
 70
    32
  3
寸法
100
AcDbAlignedDimension
 13
47.0
 23
20.0
 33
0.0
 14
47.0
 24
4.0
 34
0.0
 50
90.0
100
AcDbRotatedDimension
  0
DIMENSION
  5
159
100
AcDbEntity
  8
寸法
 62
     1
100
AcDbDimension
  2
*D6
 10
47.0
 20
-4.466177
 30
0.0
 11
51.0
 21
-1.966177
 31
0.0
 70
    32
  3
寸法
100
AcDbAlignedDimension
 13
55.0
 23
12.0
 33
0.0
 14
47.0
 24
4.0
 34
0.0
100
AcDbRotatedDimension
  0
DIMENSION
  5
166
100
AcDbEntity
  8
寸法
 62
     1
100
AcDbDimension
  2
*D7
 10
0.0
 20
-10.078251
 30
0.0
 11
27.5
 21
-7.578251
 31
0.0
 70
    32
  3
寸法
100
AcDbAlignedDimension
 13
55.0
 23
12.0
 33
0.0
 14
0.0
 24
0.0
 34
0.0
100
AcDbRotatedDimension
  0
DIMENSION
  5
175
100
AcDbEntity
  8
寸法
 62
     1
100
AcDbDimension
  2
*D8
 10
36.0
 20
-30.374799
 30
0.0
 11
42.0
 21
-27.874799
 31
0.0
 12
0.0
 22
-10.622855
 32
0.0
 70
    32
  3
寸法
100
AcDbAlignedDimension
 13
34.0
 23
-34.032342
 33
0.0
 14
36.0
 24
-34.032342
 34
0.0
100
AcDbRotatedDimension
  0
LINE
  5
176
100
AcDbEntity
  8
0
  6
CENTER
 62
     1
100
AcDbLine
 10
35.0
 20
-34.032342
 30
0.0
 11
35.0
 21
-45.295751
 31
0.0
  0
DIMENSION
  5
183
100
AcDbEntity
  8
寸法
 62
     1
100
AcDbDimension
  2
*D9
 10
55.0
 20
-20.152807
 30
0.0
 11
45.0
 21
-17.652807
 31
0.0
 70
    32
  3
寸法
100
AcDbAlignedDimension
 13
35.0
 23
-34.032342
 33
0.0
 14
55.0
 24
-43.032342
 34
0.0
100
AcDbRotatedDimension
  0
DIMENSION
  5
190
100
AcDbEntity
  8
寸法
 62
     1
100
AcDbDimension
  2
*D10
 10
64.540552
 20
-50.532342
 30
0.0
 11
62.040552
 21
-42.782342
 31
0.0
 70
    32
  3
寸法
100
AcDbAlignedDimension
 13
47.0
 23
-35.032342
 33
0.0
 14
47.0
 24
-50.532342
 34
0.0
 50
90.0
100
AcDbRotatedDimension
  0
DIMENSION
  5
19E
100
AcDbEntity
  8
寸法
 62
     1
100
AcDbDimension
  2
*D11
 10
-14.95886
 20
-50.532342
 30
0.0
 11
-14.95886
 21
-44.553889
 31
0.0
 70
   160
  3
寸法
100
AcDbAlignedDimension
 13
-0.01
 23
-38.575435
 33
0.0
 14
1.261251
 24
-50.532342
 34
0.0
 50
90.0
100
AcDbRotatedDimension
1001
ACAD
1000
DSTYLE
1002
{
1070
   271
1070
     1
1002
}
  0
DIMENSION
  5
1B8
100
AcDbEntity
  8
寸法
 62
     1
100
AcDbDimension
  2
*D12
 10
105.689071
 20
-50.532342
 30
0.0
 11
103.189071
 21
-47.532343
 31
0.0
 70
    32
  3
寸法
100
AcDbAlignedDimension
 13
92.631335
 23
-44.532344
 33
0.0
 14
76.631335
 24
-50.532342
 34
0.0
 50
90.0
100
AcDbRotatedDimension
  0
LINE
  5
1B9
100
AcDbEntity
  8
寸法
 62
     1
100
AcDbLine
 10
92.631335
 20
-44.532344
 30
0.0
 11
93.631335
 21
-44.532344
 31
0.0
  0
DIMENSION
  5
1CA
100
AcDbEntity
  8
寸法
 62
     1
100
AcDbDimension
  2
*D13
 10
93.631335
 20
-44.532344
 30
0.0
 11
97.318246
 21
-42.00294
 31
0.0
 70
   162
  3
寸法
100
AcDb2LineAngularDimension
 13
74.462313
 23
-37.91936
 33
0.0
 14
94.808215
 24
-45.324664
 34
0.0
 15
92.631335
 25
-44.532344
 35
0.0
 16
97.813657
 26
-45.760577
 36
0.0
  0
INSERT
  5
1E3
100
AcDbEntity
  8
寸法
 62
     1
100
AcDbBlockReference
  2
A$C454F4B6C
 10
-56.013749
 20
-55.539373
 30
0.0
  0
ENDSEC
  0
SECTION
  2
OBJECTS
  0
DICTIONARY
  5
C
100
AcDbDictionary
  3
ACAD_GROUP
350
D
  3
ACAD_MLINESTYLE
350
1B
  0
DICTIONARY
  5
D
102
{ACAD_REACTORS
330
C
102
}
100
AcDbDictionary
  0
DICTIONARY
  5
1B
102
{ACAD_REACTORS
330
C
102
}
100
AcDbDictionary
  3
STANDARD
350
1C
  0
MLINESTYLE
  5
1C
102
{ACAD_REACTORS
330
1B
102
}
100
AcDbMlineStyle
  2
STANDARD
 70
     0
  3

 62
   256
 51
90.0
 52
90.0
 71
     2
 49
0.5
 62
   256
  6
BYLAYER
 49
-0.5
 62
   256
  6
BYLAYER
  0
ENDSEC
  0
EOF
